  0
SECTION
  2
HEADER
  9
$ACADVER
  1
AC1015
  9
$ACADMAINTVER
 70
    20
  9
$DWGCODEPAGE
  3
ANSI_1252
  9
$INSBASE
 10
0.0
 20
0.0
 30
0.0
  9
$EXTMIN
 10
-16.89342344296551
 20
5.520631286223306
 30
-0.0000000000000153
  9
$EXTMAX
 10
298.6230927402564
 20
464.9322522163069
 30
0.0000000000000153
  9
$LIMMIN
 10
0.0
 20
0.0
  9
$LIMMAX
 10
500.0
 20
600.0
  9
$ORTHOMODE
 70
     1
  9
$REGENMODE
 70
     1
  9
$FILLMODE
 70
     1
  9
$QTEXTMODE
 70
     0
  9
$MIRRTEXT
 70
     1
  9
$LTSCALE
 40
1.0
  9
$ATTMODE
 70
     1
  9
$TEXTSIZE
 40
2.399999999999999
  9
$TRACEWID
 40
0.05
  9
$TEXTSTYLE
  7
NORM
  9
$CLAYER
  8
UMRISS05
  9
$CELTYPE
  6
BYLAYER
  9
$CECOLOR
 62
   256
  9
$CELTSCALE
 40
1.0
  9
$DISPSILH
 70
     0
  9
$DIMSCALE
 40
1.0
  9
$DIMASZ
 40
4.0
  9
$DIMEXO
 40
0.0
  9
$DIMDLI
 40
8.0
  9
$DIMRND
 40
0.0
  9
$DIMDLE
 40
0.0
  9
$DIMEXE
 40
1.0
  9
$DIMTP
 40
0.0
  9
$DIMTM
 40
0.0
  9
$DIMTXT
 40
4.349999999999999
  9
$DIMCEN
 40
1.5
  9
$DIMTSZ
 40
0.0
  9
$DIMTOL
 70
     0
  9
$DIMLIM
 70
     0
  9
$DIMTIH
 70
     0
  9
$DIMTOH
 70
     0
  9
$DIMSE1
 70
     0
  9
$DIMSE2
 70
     0
  9
$DIMTAD
 70
     1
  9
$DIMZIN
 70
     8
  9
$DIMBLK
  1

  9
$DIMASO
 70
     1
  9
$DIMSHO
 70
     1
  9
$DIMPOST
  1

  9
$DIMAPOST
  1

  9
$DIMALT
 70
     0
  9
$DIMALTD
 70
     2
  9
$DIMALTF
 40
25.39999999999999
  9
$DIMLFAC
 40
1.0
  9
$DIMTOFL
 70
     1
  9
$DIMTVP
 40
0.0
  9
$DIMTIX
 70
     1
  9
$DIMSOXD
 70
     0
  9
$DIMSAH
 70
     0
  9
$DIMBLK1
  1

  9
$DIMBLK2
  1

  9
$DIMSTYLE
  2
Katalog 09
  9
$DIMCLRD
 70
     2
  9
$DIMCLRE
 70
     2
  9
$DIMCLRT
 70
     3
  9
$DIMTFAC
 40
0.4285714285714286
  9
$DIMGAP
 40
1.0
  9
$DIMJUST
 70
     0
  9
$DIMSD1
 70
     0
  9
$DIMSD2
 70
     0
  9
$DIMTOLJ
 70
     1
  9
$DIMTZIN
 70
     8
  9
$DIMALTZ
 70
     8
  9
$DIMALTTZ
 70
     8
  9
$DIMUPT
 70
     0
  9
$DIMDEC
 70
     2
  9
$DIMTDEC
 70
     2
  9
$DIMALTU
 70
     2
  9
$DIMALTTD
 70
     2
  9
$DIMTXSTY
  7
ARIAL-STANDARD
  9
$DIMAUNIT
 70
     0
  9
$DIMADEC
 70
     0
  9
$DIMALTRND
 40
0.0
  9
$DIMAZIN
 70
     0
  9
$DIMDSEP
 70
    46
  9
$DIMATFIT
 70
     3
  9
$DIMFRAC
 70
     0
  9
$DIMLDRBLK
  1

  9
$DIMLUNIT
 70
     2
  9
$DIMLWD
 70
    -2
  9
$DIMLWE
 70
    -2
  9
$DIMTMOVE
 70
     0
  9
$LUNITS
 70
     2
  9
$LUPREC
 70
     4
  9
$SKETCHINC
 40
0.1
  9
$FILLETRAD
 40
0.0
  9
$AUNITS
 70
     0
  9
$AUPREC
 70
     0
  9
$MENU
  1
.
  9
$ELEVATION
 40
0.0
  9
$PELEVATION
 40
0.0
  9
$THICKNESS
 40
0.0
  9
$LIMCHECK
 70
     0
  9
$CHAMFERA
 40
0.5
  9
$CHAMFERB
 40
0.5
  9
$CHAMFERC
 40
1.0
  9
$CHAMFERD
 40
0.0
  9
$SKPOLY
 70
     0
  9
$TDCREATE
 40
2451305.384745371
  9
$TDUCREATE
 40
2451305.343078704
  9
$TDUPDATE
 40
2457067.406948403
  9
$TDUUPDATE
 40
2457067.365281736
  9
$TDINDWG
 40
1.0153957523
  9
$TDUSRTIMER
 40
1.0153957523
  9
$USRTIMER
 70
     1
  9
$ANGBASE
 50
0.0
  9
$ANGDIR
 70
     0
  9
$PDMODE
 70
     0
  9
$PDSIZE
 40
0.0
  9
$PLINEWID
 40
0.0
  9
$SPLFRAME
 70
     0
  9
$SPLINETYPE
 70
     6
  9
$SPLINESEGS
 70
     8
  9
$HANDSEED
  5
2CB
  9
$SURFTAB1
 70
     6
  9
$SURFTAB2
 70
     6
  9
$SURFTYPE
 70
     6
  9
$SURFU
 70
     6
  9
$SURFV
 70
     6
  9
$UCSBASE
  2

  9
$UCSNAME
  2

  9
$UCSORG
 10
0.0
 20
0.0
 30
0.0
  9
$UCSXDIR
 10
1.0
 20
0.0
 30
0.0
  9
$UCSYDIR
 10
0.0
 20
1.0
 30
0.0
  9
$UCSORTHOREF
  2

  9
$UCSORTHOVIEW
 70
     0
  9
$UCSORGTOP
 10
0.0
 20
0.0
 30
0.0
  9
$UCSORGBOTTOM
 10
0.0
 20
0.0
 30
0.0
  9
$UCSORGLEFT
 10
0.0
 20
0.0
 30
0.0
  9
$UCSORGRIGHT
 10
0.0
 20
0.0
 30
0.0
  9
$UCSORGFRONT
 10
0.0
 20
0.0
 30
0.0
  9
$UCSORGBACK
 10
0.0
 20
0.0
 30
0.0
  9
$PUCSBASE
  2

  9
$PUCSNAME
  2

  9
$PUCSORG
 10
0.0
 20
0.0
 30
0.0
  9
$PUCSXDIR
 10
1.0
 20
0.0
 30
0.0
  9
$PUCSYDIR
 10
0.0
 20
1.0
 30
0.0
  9
$PUCSORTHOREF
  2

  9
$PUCSORTHOVIEW
 70
     0
  9
$PUCSORGTOP
 10
0.0
 20
0.0
 30
0.0
  9
$PUCSORGBOTTOM
 10
0.0
 20
0.0
 30
0.0
  9
$PUCSORGLEFT
 10
0.0
 20
0.0
 30
0.0
  9
$PUCSORGRIGHT
 10
0.0
 20
0.0
 30
0.0
  9
$PUCSORGFRONT
 10
0.0
 20
0.0
 30
0.0
  9
$PUCSORGBACK
 10
0.0
 20
0.0
 30
0.0
  9
$USERI1
 70
     0
  9
$USERI2
 70
     0
  9
$USERI3
 70
     0
  9
$USERI4
 70
     0
  9
$USERI5
 70
     0
  9
$USERR1
 40
0.0
  9
$USERR2
 40
0.0
  9
$USERR3
 40
0.0
  9
$USERR4
 40
0.0
  9
$USERR5
 40
0.0
  9
$WORLDVIEW
 70
     1
  9
$SHADEDGE
 70
     3
  9
$SHADEDIF
 70
    70
  9
$TILEMODE
 70
     1
  9
$MAXACTVP
 70
    48
  9
$PINSBASE
 10
0.0
 20
0.0
 30
0.0
  9
$PLIMCHECK
 70
     0
  9
$PEXTMIN
 10
1.000000000000000E+20
 20
1.000000000000000E+20
 30
1.000000000000000E+20
  9
$PEXTMAX
 10
-1.000000000000000E+20
 20
-1.000000000000000E+20
 30
-1.000000000000000E+20
  9
$PLIMMIN
 10
0.0
 20
0.0
  9
$PLIMMAX
 10
12.0
 20
9.0
  9
$UNITMODE
 70
     0
  9
$VISRETAIN
 70
     1
  9
$PLINEGEN
 70
     0
  9
$PSLTSCALE
 70
     1
  9
$TREEDEPTH
 70
  3020
  9
$CMLSTYLE
  2
STANDARD
  9
$CMLJUST
 70
     0
  9
$CMLSCALE
 40
1.0
  9
$PROXYGRAPHICS
 70
     1
  9
$MEASUREMENT
 70
     1
  9
$CELWEIGHT
370
    -1
  9
$ENDCAPS
280
     0
  9
$JOINSTYLE
280
     0
  9
$LWDISPLAY
290
     0
  9
$INSUNITS
 70
     4
  9
$HYPERLINKBASE
  1

  9
$STYLESHEET
  1

  9
$XEDIT
290
     1
  9
$CEPSNTYPE
380
     0
  9
$PSTYLEMODE
290
     1
  9
$FINGERPRINTGUID
  2
{BD95DF74-1D67-468F-A24C-54EC37035D4B}
  9
$VERSIONGUID
  2
{0D735326-8EEB-4E1A-B66D-252CE2F168DC}
  9
$EXTNAMES
290
     1
  9
$PSVPSCALE
 40
0.0
  9
$OLESTARTUP
290
     0
  0
ENDSEC
  0
SECTION
  2
CLASSES
  0
CLASS
  1
ACDBDICTIONARYWDFLT
  2
AcDbDictionaryWithDefault
  3
ObjectDBX Classes
 90
        0
280
     0
281
     0
  0
CLASS
  1
TABLESTYLE
  2
AcDbTableStyle
  3
ObjectDBX Classes
 90
     4095
280
     0
281
     0
  0
CLASS
  1
ACME_DOCUMENT
  2
AcMeDbDoc
  3
AcMeServices
 90
    33792
280
     0
281
     0
  0
CLASS
  1
AMGSETTINGSOBJ
  2
AmgSettingsObj
  3
"AcadM|Product Description: AutoCAD Mechanical|Company: Autodesk, Inc."
 90
     1024
280
     0
281
     0
  0
CLASS
  1
ACMESCOPE
  2
AcMeScope
  3
AcMeServices
 90
     1024
280
     0
281
     0
  0
CLASS
  1
ACMECOMMANDHISTORY
  2
AcMeCommandHistory
  3
AcMeServices
 90
    33792
280
     0
281
     0
  0
CLASS
  1
ACIMSYSVARMAN
  2
AcImSysVarManager
  3
AcMeServices
 90
     1024
280
     0
281
     0
  0
CLASS
  1
ACIMINTSYSVAR
  2
AcImIntSysVar
  3
AcMeServices
 90
     1024
280
     0
281
     0
  0
CLASS
  1
ACMEDRAWINGMAN
  2
AcMeDrawingMan
  3
AcMeServices
 90
    33792
280
     0
281
     0
  0
CLASS
  1
ACMEVIEW
  2
AcMeView
  3
AcMeServices
 90
    33792
280
     0
281
     0
  0
CLASS
  1
ACDBENTITYCACHE
  2
AcMeEntityCache
  3
AcMeServices
 90
    33792
280
     0
281
     0
  0
CLASS
  1
GSMANAGER
  2
AcMeGSManager
  3
AcMeServices
 90
    33792
280
     1
281
     0
  0
CLASS
  1
AMDTINTERNALREACTOR
  2
AmdtInternalReactor
  3
AcMeServices
 90
    33792
280
     0
281
     0
  0
CLASS
  1
ACMESTATEMGR
  2
AcMeStateMgr
  3
AcMeServices
 90
     1024
280
     0
281
     0
  0
CLASS
  1
ACGREFMASTER
  2
AcGrefMaster
  3
AcAttribServices
 90
     1024
280
     0
281
     0
  0
CLASS
  1
AM_DRAWING_MGR
  2
AcDmDwgMgr
  3
AcMechDwgViewMgmt
 90
    33792
280
     0
281
     0
  0
CLASS
  1
AM_DWG_DOCUMENT
  2
AcDmDwgDocument
  3
AcMechDwgViewMgmt
 90
    33792
280
     0
281
     0
  0
CLASS
  1
AM_DWG_SHEET
  2
AcDmSheet
  3
AcMechDwgViewMgmt
 90
    33792
280
     0
281
     0
  0
CLASS
  1
AM_VIEWDIMPARMAP
  2
AcDmViewDimParMap
  3
AcMechDwgViewMgmt
 90
    33792
280
     0
281
     0
  0
CLASS
  1
ACIMREALSYSVAR
  2
AcImRealSysVar
  3
AcMeServices
 90
    33792
280
     0
281
     0
  0
CLASS
  1
AM_DWGMGR_NAME
  2
AcDmDwgMgrName
  3
AcMechDwgViewMgmt
 90
    33792
280
     0
281
     0
  0
CLASS
  1
ACME_DATABASE
  2
AcMeDbDatabase
  3
AcMeServices
 90
    33792
280
     0
281
     0
  0
CLASS
  1
ACRFINSADJUSTERMGR
  2
AcRfInsAdjusterMgr
  3
AcMeServices
 90
    33792
280
     0
281
     0
  0
CLASS
  1
ACGREFACADMASTER
  2
AcGrefacadMaster
  3
AcGrefServices
 90
    33792
280
     0
281
     0
  0
CLASS
  1
AMDTMENUSTATEMGR
  2
AmdtMenuStateMgr
  3
McadcomServices
 90
    33792
280
     0
281
     0
  0
CLASS
  1
AMDTMCOMMENUSTATE
  2
AmdtMcomMenuState
  3
McadcomServices
 90
    33792
280
     0
281
     0
  0
CLASS
  1
AMIMASTER
  2
AmiMaster
  3
AmiServices
 90
    33792
280
     0
281
     0
  0
CLASS
  1
MAPIAMMOUDLE
  2
MApiAmModule
  3
MApiAmServices
 90
    33792
280
     0
281
     0
  0
CLASS
  1
ACIMSTRSYSVAR
  2
AcImStrSysVar
  3
AcMeServices
 90
     1024
280
     0
281
     0
  0
CLASS
  1
AMDTADMENUSTATE
  2
AmdtAdMenuState
  3
DesignerServices
 90
    33792
280
     1
281
     0
  0
CLASS
  1
ADAPPL
  2
AcAdAppl
  3
DesignerAssemblies
 90
    33792
280
     0
281
     0
  0
CLASS
  1
DEPMGR
  2
AcAdDepMgr
  3
DesignerAssemblies
 90
    33792
280
     0
281
     0
  0
CLASS
  1
PARAMMGR
  2
AcAdParamMgr
  3
DesignerAssemblies
 90
    33792
280
     0
281
     0
  0
CLASS
  1
PARAMSCOPE
  2
AcAdParamScope
  3
DesignerAssemblies
 90
    33792
280
     0
281
     0
  0
CLASS
  1
NAMEDAPPL
  2
AcAdNamedAppl
  3
DesignerAssemblies
 90
    33792
280
     0
281
     0
  0
CLASS
  1
AMDTDMMENUSTATE
  2
AmdtDmMenuState
  3
AcMechDwgViewMgmt
 90
    33792
280
     1
281
     0
  0
CLASS
  1
AMDTAMMENUSTATE
  2
AmdtAmMenuState
  3
DesignerAssemblies
 90
    33792
280
     0
281
     0
  0
CLASS
  1
ACAMPROJECT
  2
AcAmProject
  3
DesignerAssemblies
 90
    33792
280
     0
281
     0
  0
CLASS
  1
ACAMGRCOMPDEF
  2
AcAmGrCompDef
  3
DesignerAssemblies
 90
    33792
280
     0
281
     0
  0
CLASS
  1
ACCMCONTEXT
  2
AcCmContext
  3
DesignerAssemblies
 90
    33792
280
     0
281
     0
  0
CLASS
  1
ACAMCOMPDEF
  2
AcAmCompDef
  3
DesignerAssemblies
 90
    33792
280
     0
281
     0
  0
CLASS
  1
ACAMCOMPDEFMGR
  2
AcAmCompDefMgr
  3
DesignerAssemblies
 90
    33792
280
     0
281
     0
  0
CLASS
  1
AMCONTEXTMGR
  2
AcAmContextMgr
  3
DesignerAssemblies
 90
    33792
280
     0
281
     0
  0
CLASS
  1
ACAMCONTEXTMODELER
  2
AcAmContextModeler
  3
DesignerAssemblies
 90
    33792
280
     0
281
     0
  0
CLASS
  1
ACMDATADICTIONARY
  2
AcmDataDictionary
  3
"AcmSymBB|Product Description: AutoCAD Mechanical|Company: Autodesk, Inc."
 90
    33792
280
     0
281
     0
  0
CLASS
  1
CATALOGSTATE
  2
AcAmCatalogState
  3
DesignerAssemblies
 90
    33792
280
     0
281
     0
  0
CLASS
  1
ACAMGRCOMPDEFSET
  2
AcAmGrCompDefSet
  3
DesignerAssemblies
 90
    33792
280
     0
281
     0
  0
CLASS
  1
AMDTBROWSERDBTAB
  2
AmdtBrowserDbTab
  3
McadcomServices
 90
    33792
280
     0
281
     0
  0
CLASS
  1
CBROWSERAPPOBJECT
  2
CBrowserAppObject
  3
McadcomServices
 90
    33792
280
     0
281
     0
  0
CLASS
  1
DM_PLACEHOLDER
  2
AcDmSelsetPlaceholder
  3
McadcomServices
 90
    33792
280
     0
281
     0
  0
CLASS
  1
ACMSTANDARDANSI
  2
AcmStandardANSI
  3
"Amdt_StdImp|Product Description: AutoCAD Mechanical|Company: Autodesk, Inc."
 90
    33792
280
     0
281
     0
  0
CLASS
  1
AMGOBJPROPCFG
  2
AmgObjPropCfg
  3
"AmgLay|Product Description: AutoCAD Mechanical|Company: Autodesk, Inc."
 90
     1024
280
     0
281
     0
  0
CLASS
  1
ACMSURFSTANDARDANSI
  2
AcmSurfTextStdANSI
  3
"Amdt_StdImp|Product Description: AutoCAD Mechanical|Company: Autodesk, Inc."
 90
    33792
280
     0
281
     0
  0
CLASS
  1
ACMFCFSTANDARDANSI
  2
AcmFCFStdANSI
  3
"Amdt_StdImp|Product Description: AutoCAD Mechanical|Company: Autodesk, Inc."
 90
    33792
280
     0
281
     0
  0
CLASS
  1
ACMWELDSTANDARDANSI
  2
AcmWeldingStdANSI
  3
"Amdt_StdImp|Product Description: AutoCAD Mechanical|Company: Autodesk, Inc."
 90
    33792
280
     0
281
     0
  0
CLASS
  1
ACMIDSTANDARDANSI
  2
AcmIdStdANSI
  3
"Amdt_StdImp|Product Description: AutoCAD Mechanical|Company: Autodesk, Inc."
 90
    33792
280
     0
281
     0
  0
CLASS
  1
ACMDATUMSTANDARDANSI
  2
AcmDatumStdANSI
  3
"Amdt_StdImp|Product Description: AutoCAD Mechanical|Company: Autodesk, Inc."
 90
    33792
280
     0
281
     0
  0
CLASS
  1
ACMBOMSTANDARDANSI
  2
AcmBOMStdANSI
  3
"Amdt_StdImp|Product Description: AutoCAD Mechanical|Company: Autodesk, Inc."
 90
    33792
280
     0
281
     0
  0
CLASS
  1
ACMDETAILSTANDARDANSI
  2
AmdtDetailSymStdANSI
  3
"Amdt_StdImp|Product Description: AutoCAD Mechanical|Company: Autodesk, Inc."
 90
    33792
280
     0
281
     0
  0
CLASS
  1
ACMSECTIONSTANDARDANSI
  2
AmdtSectionSymStdANSI
  3
"Amdt_StdImp|Product Description: AutoCAD Mechanical|Company: Autodesk, Inc."
 90
    33792
280
     0
281
     0
  0
CLASS
  1
ACMCENTERLINESTANDARDANSI
  2
AmdtCenterLineStdANSI
  3
"Amdt_StdImp|Product Description: AutoCAD Mechanical|Company: Autodesk, Inc."
 90
    33792
280
     0
281
     0
  0
CLASS
  1
ACMTHREADLINESTANDARDANSI
  2
AmdtThreadLineStdANSI
  3
"Amdt_StdImp|Product Description: AutoCAD Mechanical|Company: Autodesk, Inc."
 90
    33792
280
     0
281
     0
  0
CLASS
  1
ACMNOTESTANDARDANSI
  2
AmdtNoteStdANSI
  3
"Amdt_StdImp|Product Description: AutoCAD Mechanical|Company: Autodesk, Inc."
 90
    33792
280
     0
281
     0
  0
CLASS
  1
AMDTNOTETEMPLATEDB
  2
AmdtNoteTemplateDB
  3
AcmSymBB|Product Description: AutoCAD Mechanical|Company: Autodesk, Inc.
 90
     1024
280
     0
281
     0
  0
CLASS
  1
ACAMGLAYSTD
  2
AcAmgLayStd
  3
"AmgLay|Product Description: AutoCAD Mechanical|Company: Autodesk, Inc."
 90
     1024
280
     0
281
     0
  0
CLASS
  1
ACAMGDIMSTD
  2
AcAmgDimStd
  3
"AmgDim|Product Description: AutoCAD Mechanical|Company: Autodesk, Inc."
 90
     1024
280
     0
281
     0
  0
CLASS
  1
ACAMGHOLECHARTSTDANSI
  2
AcAmgHoleChartStdANSI
  3
AmgDim|Product Description: AutoCAD Mechanical|Company: Autodesk, Inc.
 90
    33792
280
     0
281
     0
  0
CLASS
  1
ACAMGTITLESTD
  2
AcAmgTitleStd
  3
"AmgTitle|Product Description: AutoCAD Mechanical|Company: Autodesk, Inc."
 90
     1024
280
     0
281
     0
  0
CLASS
  1
ACAMGFILTERDAT
  2
AcAmgFilterDat
  3
"AcadM|Product Description: AutoCAD Mechanical|Company: Autodesk, Inc."
 90
    33792
280
     0
281
     0
  0
CLASS
  1
PLOTSETTINGS
  2
AcDbPlotSettings
  3
ObjectDBX Classes
 90
    32768
280
     0
281
     0
  0
CLASS
  1
ACMSTANDARDDIN
  2
AcmStandardDIN
  3
"Amdt_StdImp|Product Description: AutoCAD Mechanical|Company: Autodesk, Inc."
 90
     1024
280
     0
281
     0
  0
CLASS
  1
AMDTEDGESTANDARDDIN
  2
AmdtEdgeStdDIN
  3
"Amdt_StdImp|Product Description: AutoCAD Mechanical|Company: Autodesk, Inc."
 90
    33792
280
     0
281
     0
  0
CLASS
  1
ACMSURFSTANDARDDIN
  2
AcmSurfTextStdDIN
  3
"Amdt_StdImp|Product Description: AutoCAD Mechanical|Company: Autodesk, Inc."
 90
    33792
280
     0
281
     0
  0
CLASS
  1
ACMFCFSTANDARDDIN
  2
AcmFCFStdDIN
  3
"Amdt_StdImp|Product Description: AutoCAD Mechanical|Company: Autodesk, Inc."
 90
    33792
280
     0
281
     0
  0
CLASS
  1
ACMWELDSTANDARDDIN
  2
AcmWeldingStdDIN
  3
"Amdt_StdImp|Product Description: AutoCAD Mechanical|Company: Autodesk, Inc."
 90
     1024
280
     0
281
     0
  0
CLASS
  1
ACMIDSTANDARDDIN
  2
AcmIdStdDIN
  3
"Amdt_StdImp|Product Description: AutoCAD Mechanical|Company: Autodesk, Inc."
 90
    33792
280
     0
281
     0
  0
CLASS
  1
ACMDATUMSTANDARDDIN
  2
AcmDatumStdDIN
  3
"Amdt_StdImp|Product Description: AutoCAD Mechanical|Company: Autodesk, Inc."
 90
     1024
280
     0
281
     0
  0
CLASS
  1
ACMBOMSTANDARDDIN
  2
AcmBOMStdDIN
  3
"Amdt_StdImp|Product Description: AutoCAD Mechanical|Company: Autodesk, Inc."
 90
     1024
280
     0
281
     0
  0
CLASS
  1
ACMDETAILSTANDARDDIN
  2
AmdtDetailSymStdDIN
  3
"Amdt_StdImp|Product Description: AutoCAD Mechanical|Company: Autodesk, Inc."
 90
     1024
280
     0
281
     0
  0
CLASS
  1
ACMSECTIONSTANDARDDIN
  2
AmdtSectionSymStdDIN
  3
"Amdt_StdImp|Product Description: AutoCAD Mechanical|Company: Autodesk, Inc."
 90
     1024
280
     0
281
     0
  0
CLASS
  1
ACMCENTERLINESTANDARDDIN
  2
AmdtCenterLineStdDIN
  3
"Amdt_StdImp|Product Description: AutoCAD Mechanical|Company: Autodesk, Inc."
 90
     1024
280
     0
281
     0
  0
CLASS
  1
ACMNOTESTANDARDDIN
  2
AmdtNoteStdDIN
  3
"Amdt_StdImp|Product Description: AutoCAD Mechanical|Company: Autodesk, Inc."
 90
     1024
280
     0
281
     0
  0
CLASS
  1
ACAMGHOLECHARTSTDDIN
  2
AcAmgHoleChartStdDIN
  3
AmgDim|Product Description: AutoCAD Mechanical|Company: Autodesk, Inc.
 90
     1024
280
     0
281
     0
  0
CLASS
  1
ACMTHREADLINESTANDARDDIN
  2
AmdtThreadLineStdDIN
  3
"Amdt_StdImp|Product Description: AutoCAD Mechanical|Company: Autodesk, Inc."
 90
     1024
280
     0
281
     0
  0
CLASS
  1
ACMDATAENTRYBLOCK
  2
AcmDataEntryBlock
  3
AcmSymBB|Product Description: AutoCAD Mechanical|Company: Autodesk, Inc.
 90
    33792
280
     0
281
     0
  0
CLASS
  1
DICTIONARYVAR
  2
AcDbDictionaryVar
  3
ObjectDBX Classes
 90
        0
280
     0
281
     0
  0
CLASS
  1
SORTENTSTABLE
  2
AcDbSortentsTable
  3
ObjectDBX Classes
 90
        0
280
     0
281
     0
  0
CLASS
  1
MATERIAL
  2
AcDbMaterial
  3
ObjectDBX Classes
 90
     1153
280
     0
281
     0
  0
CLASS
  1
VISUALSTYLE
  2
AcDbVisualStyle
  3
ObjectDBX Classes
 90
     4095
280
     0
281
     0
  0
CLASS
  1
SCALE
  2
AcDbScale
  3
ObjectDBX Classes
 90
     1153
280
     0
281
     0
  0
CLASS
  1
MLEADERSTYLE
  2
AcDbMLeaderStyle
  3
ACDB_MLEADERSTYLE_CLASS
 90
    36863
280
     0
281
     0
  0
CLASS
  1
ACMTAPERSTANDARDANSI
  2
AcmTaperStdANSI
  3
"Amdt_StdImp|Product Description: AutoCAD Mechanical|Company: Autodesk, Inc."
 90
    33792
280
     0
281
     0
  0
CLASS
  1
ACMANOOTATIONVIEWSTANDARDANSI
  2
AmdtAnViewStdANSI
  3
"Amdt_StdImp|Product Description: AutoCAD Mechanical|Company: Autodesk, Inc."
 90
    33792
280
     0
281
     0
  0
CLASS
  1
ACMTAPERSTANDARDDIN
  2
AcmTaperStdDIN
  3
"Amdt_StdImp|Product Description: AutoCAD Mechanical|Company: Autodesk, Inc."
 90
     1024
280
     0
281
     0
  0
CLASS
  1
ACMANOOTATIONVIEWSTANDARDDIN
  2
AmdtAnViewStdDIN
  3
"Amdt_StdImp|Product Description: AutoCAD Mechanical|Company: Autodesk, Inc."
 90
     1024
280
     0
281
     0
  0
CLASS
  1
ACRFATTGENMGR
  2
AcRfAttGeneralMgr
  3
AcAttribServices
 90
    33792
280
     0
281
     0
  0
CLASS
  1
ACRFMCADAPIATTHOLDER
  2
AcRfMCADAPIAttHolder
  3
AcAttribServices
 90
    33792
280
     0
281
     0
  0
CLASS
  1
AMDTSYSATTR
  2
AmdtSystemAttribute
  3
AcAttribServices
 90
    33792
280
     0
281
     0
  0
CLASS
  1
CAMSSTRUCTBTNSTATE
  2
StructBtnState
  3
DesignerAssemblies
 90
    33792
280
     0
281
     0
  0
CLASS
  1
CELLSTYLEMAP
  2
AcDbCellStyleMap
  3
ObjectDBX Classes
 90
     1152
280
     0
281
     0
  0
CLASS
  1
AEC_REFEDIT_STATUS_TRACKER
  2
AecDbRefEditStatusTracker
  3
AecArchBase70|Product Desc: Autodesk Architectural Desktop 2007 |Company: Autodesk,Inc. |WEB Address: www.autodesk.com
 90
    32897
280
     1
281
     0
  0
CLASS
  1
NPOCOLLECTION
  2
AcDbImpNonPersistentObjectsCollection
  3
ObjectDBX Classes
 90
    33921
280
     0
281
     0
  0
CLASS
  1
ACDBLINERES
  2
AcDbLineRes
  3
AcGrefServices
 90
    33792
280
     0
281
     0
  0
CLASS
  1
AMDTNOTE
  2
AmdtNote
  3
"AcmSymBB|Product Description: AutoCAD Mechanical|Company: Autodesk, Inc."
 90
    33792
280
     0
281
     1
  0
CLASS
  1
AMDTFORMULAUPDATEDISPATCHER
  2
AmdtFormulaUpdateDispatcher
  3
AcMeServices
 90
    33792
280
     0
281
     0
  0
CLASS
  1
AMDTEDGESTANDARDDIN13715
  2
AmdtEdgeStdDIN13715
  3
"Amdt_StdImp|Product Description: AutoCAD Mechanical|Company: Autodesk, Inc."
 90
     1024
280
     0
281
     0
  0
CLASS
  1
ACMSURFSTANDARDDIN2002
  2
AcmSurfTextStdDIN2002
  3
"Amdt_StdImp|Product Description: AutoCAD Mechanical|Company: Autodesk, Inc."
 90
     1024
280
     0
281
     0
  0
CLASS
  1
ACDBSECTIONVIEWSTYLE
  2
AcDbSectionViewStyle
  3
ObjectDBX Classes
 90
     1025
280
     0
281
     0
  0
CLASS
  1
ACDBDETAILVIEWSTYLE
  2
AcDbDetailViewStyle
  3
ObjectDBX Classes
 90
     1025
280
     0
281
     0
  0
CLASS
  1
ACMFCFSTANDARDDIN2008
  2
AcmFCFStdDIN2008
  3
"Amdt_StdImp|Product Description: AutoCAD Mechanical|Company: Autodesk, Inc."
 90
     1024
280
     0
281
     0
  0
CLASS
  1
ACMIDSTANDARDDIN2008
  2
AcmIdStdDIN2008
  3
"Amdt_StdImp|Product Description: AutoCAD Mechanical|Company: Autodesk, Inc."
 90
     1024
280
     0
281
     0
  0
CLASS
  1
ACMSECTIONSTANDARDCUSTOM
  2
AmdtSectionSymStdCustom
  3
"Amdt_StdImp|Product Description: AutoCAD Mechanical|Company: Autodesk, Inc."
 90
     1024
280
     0
281
     0
  0
CLASS
  1
ACMDETAILTANDARDCUSTOM
  2
AmdtDetailSymStdCustom
  3
"Amdt_StdImp|Product Description: AutoCAD Mechanical|Company: Autodesk, Inc."
 90
     1024
280
     0
281
     0
  0
CLASS
  1
FIELD
  2
AcDbField
  3
ObjectDBX Classes
 90
     1152
280
     0
281
     0
  0
CLASS
  1
FIELDLIST
  2
AcDbFieldList
  3
ObjectDBX Classes
 90
     1152
280
     0
281
     0
  0
CLASS
  1
ACDBPLACEHOLDER
  2
AcDbPlaceHolder
  3
ObjectDBX Classes
 90
        0
280
     0
281
     0
  0
CLASS
  1
LAYOUT
  2
AcDbLayout
  3
ObjectDBX Classes
 90
        0
280
     0
281
     0
  0
ENDSEC
  0
SECTION
  2
TABLES
  0
TABLE
  2
VPORT
  5
2D
330
0
100
AcDbSymbolTable
 70
     1
  0
VPORT
  5
2E
330
2D
100
AcDbSymbolTableRecord
100
AcDbViewportTableRecord
  2
*Active
 70
     0
 10
0.0
 20
0.0
 11
1.0
 21
1.0
 12
217.7439271393061
 22
295.653411646291
 13
0.0
 23
0.0
 14
10.0
 24
10.0
 15
10.0
 25
10.0
 16
0.0
 26
0.0
 36
1.0
 17
0.0
 27
0.0
 37
0.0
 40
462.3005200402197
 41
2.033022861981371
 42
50.0
 43
0.0
 44
0.0
 50
0.0
 51
0.0
 71
     0
 72
  5000
 73
     1
 74
     0
 75
     0
 76
     0
 77
     0
 78
     0
281
     0
 65
     1
110
0.0
120
0.0
130
0.0
111
1.0
121
0.0
131
0.0
112
0.0
122
1.0
132
0.0
 79
     0
146
0.0
1001
ACAD_NAV_VCDISPLAY
1070
     3
  0
ENDTAB
  0
TABLE
  2
LTYPE
  5
28
330
0
100
AcDbSymbolTable
 70
    13
  0
LTYPE
  5
29
330
28
100
AcDbSymbolTableRecord
100
AcDbLinetypeTableRecord
  2
BYBLOCK
 70
     0
  3

 72
    65
 73
     0
 40
0.0
  0
LTYPE
  5
2A
330
28
100
AcDbSymbolTableRecord
100
AcDbLinetypeTableRecord
  2
BYLAYER
 70
     0
  3

 72
    65
 73
     0
 40
0.0
  0
LTYPE
  5
15
330
28
100
AcDbSymbolTableRecord
100
AcDbLinetypeTableRecord
  2
CONTINUOUS
 70
     0
  3
Solid line
 72
    65
 73
     0
 40
0.0
  0
LTYPE
  5
86
330
28
100
AcDbSymbolTableRecord
100
AcDbLinetypeTableRecord
  2
STRICHPUNKT2
 70
     0
  3
Strichpunkt (.5x) _._._._._._._._._._._._._._._
 72
    65
 73
     4
 40
12.7
 49
6.349999999999999
 74
     0
 49
-3.174999999999999
 74
     0
 49
0.0
 74
     0
 49
-3.174999999999999
 74
     0
  0
LTYPE
  5
25E
330
28
100
AcDbSymbolTableRecord
100
AcDbLinetypeTableRecord
  2
ACDINWELD
 70
     0
  3
_ _ _ _ _
 72
    65
 73
     2
 40
2.0
 49
2.0
 74
     0
 49
-1.0
 74
     0
  0
LTYPE
  5
262
330
28
100
AcDbSymbolTableRecord
100
AcDbLinetypeTableRecord
  2
ACDINTGB
 70
     0
  3
__ . . __ . .
 72
    65
 73
     6
 40
9.0
 49
4.0
 74
     0
 49
-1.0
 74
     0
 49
1.0
 74
     0
 49
-1.0
 74
     0
 49
1.0
 74
     0
 49
-1.0
 74
     0
  0
LTYPE
  5
260
330
28
100
AcDbSymbolTableRecord
100
AcDbLinetypeTableRecord
  2
ACDINTGL
 70
     0
  3
_ _ _ _ _
 72
    65
 73
     2
 40
3.0
 49
2.0
 74
     0
 49
-1.0
 74
     0
  0
LTYPE
  5
A4
330
28
100
AcDbSymbolTableRecord
100
AcDbLinetypeTableRecord
  2
VERDECKT
 70
     0
  3
Verdeckt __ __ __ __ __ __ __ __ __ __ __ __ __
 72
    65
 73
     2
 40
9.524999999999998
 49
6.349999999999999
 74
     0
 49
-3.174999999999999
 74
     0
  0
LTYPE
  5
24A
330
28
100
AcDbSymbolTableRecord
100
AcDbLinetypeTableRecord
  2
Amconstr
 70
     0
  3
_______________________
 72
    65
 73
     2
 40
9999.0
 49
9999.0
 74
     0
 49
0.0
 74
     0
  0
LTYPE
  5
24D
330
28
100
AcDbSymbolTableRecord
100
AcDbLinetypeTableRecord
  2
Amzigzag
 70
     0
  3
/\/-/\/-/\/-/\/-/\/-/\/
 72
    65
 73
     2
 40
11.0001
 49
0.0001
 74
     4
 75
   135
340
24E
 46
0.04
 50
0.0
 44
0.0
 45
0.0
 49
-11.0
 74
     0
  0
LTYPE
  5
247
330
28
100
AcDbSymbolTableRecord
100
AcDbLinetypeTableRecord
  2
AM_DIN_F_W050
 70
     0
  3
__ __ __ __ __ __ __ __ __ __ __ __ __ __ __
 72
    65
 73
     2
 40
6.25
 49
4.75
 74
     0
 49
-1.5
 74
     0
  0
LTYPE
  5
248
330
28
100
AcDbSymbolTableRecord
100
AcDbLinetypeTableRecord
  2
AM_DIN_G_W050
 70
     0
  3
____ . ____ . ____ . ____ . ____ . ____ . ____
 72
    65
 73
     4
 40
13.75
 49
9.75
 74
     0
 49
-1.5
 74
     0
 49
1.0
 74
     0
 49
-1.5
 74
     0
  0
LTYPE
  5
249
330
28
100
AcDbSymbolTableRecord
100
AcDbLinetypeTableRecord
  2
AM_DIN_K_W050
 70
     0
  3
_____ . . _____ . . _____ . . ____ .. ____
 72
    65
 73
     6
 40
16.25
 49
9.75
 74
     0
 49
-1.5
 74
     0
 49
1.0
 74
     0
 49
-1.5
 74
     0
 49
1.0
 74
     0
 49
-1.5
 74
     0
  0
LTYPE
  5
24B
330
28
100
AcDbSymbolTableRecord
100
AcDbLinetypeTableRecord
  2
AM_DIN_G_W050x2
 70
     0
  3
__ . __ . __ . __ . __ . __
 72
    65
 73
     4
 40
6.875
 49
4.75
 74
     0
 49
-0.875
 74
     0
 49
0.375
 74
     0
 49
-0.875
 74
     0
  0
LTYPE
  5
24C
330
28
100
AcDbSymbolTableRecord
100
AcDbLinetypeTableRecord
  2
AM_DIN_F_W050x2
 70
     0
  3
 _ _ _ _ _ _ _ _ _ _ _ _
 72
    65
 73
     2
 40
3.125
 49
2.25
 74
     0
 49
-0.875
 74
     0
  0
ENDTAB
  0
TABLE
  2
LAYER
  5
1F
102
{ACAD_XDICTIONARY
360
20
102
}
330
0
100
AcDbSymbolTable
 70
     7
  0
LAYER
  5
6
102
{ACAD_XDICTIONARY
360
7
102
}
330
1F
100
AcDbSymbolTableRecord
100
AcDbLayerTableRecord
  2
0
 70
     0
 62
     7
  6
CONTINUOUS
370
    -3
390
9
  0
LAYER
  5
53
102
{ACAD_XDICTIONARY
360
54
102
}
330
1F
100
AcDbSymbolTableRecord
100
AcDbLayerTableRecord
  2
UMRISS05
 70
     0
 62
     4
  6
CONTINUOUS
370
    -3
390
9
  0
LAYER
  5
CB
102
{ACAD_XDICTIONARY
360
CC
102
}
330
1F
100
AcDbSymbolTableRecord
100
AcDbLayerTableRecord
  2
BEMASSUNG
 70
     0
 62
     2
  6
CONTINUOUS
370
    -3
390
9
  0
LAYER
  5
83
102
{ACAD_XDICTIONARY
360
84
102
}
330
1F
100
AcDbSymbolTableRecord
100
AcDbLayerTableRecord
  2
ACHSEN
 70
     0
 62
     1
  6
STRICHPUNKT2
370
    -3
390
9
  0
LAYER
  5
7A
330
1F
100
AcDbSymbolTableRecord
100
AcDbLayerTableRecord
  2
DEFPOINTS
 70
     0
 62
     7
  6
CONTINUOUS
290
     0
370
    -3
390
9
  0
LAYER
  5
A1
102
{ACAD_XDICTIONARY
360
A2
102
}
330
1F
100
AcDbSymbolTableRecord
100
AcDbLayerTableRecord
  2
AVERDECKTE
 70
     0
 62
    13
  6
VERDECKT
370
    -3
390
9
  0
LAYER
  5
6D
330
1F
100
AcDbSymbolTableRecord
100
AcDbLayerTableRecord
  2
AM_5
 70
     0
 62
     3
  6
CONTINUOUS
370
    25
390
9
1001
AcAecLayerStandard
1000

1000

  0
ENDTAB
  0
TABLE
  2
STYLE
  5
25
330
0
100
AcDbSymbolTable
 70
     5
  0
STYLE
  5
26
330
25
100
AcDbSymbolTableRecord
100
AcDbTextStyleTableRecord
  2
STANDARD
 70
     0
 40
0.0
 41
1.0
 50
0.0
 71
     0
 42
10.0
  3
txt
  4

  0
STYLE
  5
3A
330
25
100
AcDbSymbolTableRecord
100
AcDbTextStyleTableRecord
  2
NORM
 70
     0
 40
0.0
 41
0.8
 50
0.0
 71
     0
 42
2.399999999999999
  3
SIMPLEX.shx
  4

  0
STYLE
  5
25C
330
25
100
AcDbSymbolTableRecord
100
AcDbTextStyleTableRecord
  2
ACDINGDT
 70
     0
 40
0.0
 41
1.0
 50
0.0
 71
     0
 42
2.5
  3
amgdt.shx
  4

  0
STYLE
  5
35
330
25
100
AcDbSymbolTableRecord
100
AcDbTextStyleTableRecord
  2
ARIAL-STANDARD
 70
     0
 40
0.0
 41
1.0
 50
0.0
 71
     0
 42
3.5
  3
arial.ttf
  4

1001
ACAD
1000
Arial
1071
       34
  0
STYLE
  5
24E
330
25
100
AcDbSymbolTableRecord
100
AcDbTextStyleTableRecord
  2

 70
     1
 40
0.0
 41
1.0
 50
0.0
 71
     0
 42
2.5
  3
ltypeshp.shx
  4

  0
ENDTAB
  0
TABLE
  2
VIEW
  5
2B
330
0
100
AcDbSymbolTable
 70
     0
  0
ENDTAB
  0
TABLE
  2
UCS
  5
2C
330
0
100
AcDbSymbolTable
 70
     0
  0
ENDTAB
  0
TABLE
  2
APPID
  5
32
330
0
100
AcDbSymbolTable
 70
    15
  0
APPID
  5
24
330
32
100
AcDbSymbolTableRecord
100
AcDbRegAppTableRecord
  2
ACAD
 70
     0
  0
APPID
  5
210
330
32
100
AcDbSymbolTableRecord
100
AcDbRegAppTableRecord
  2
GENIUS_GENODEF_13
 70
     0
  0
APPID
  5
28D
330
32
100
AcDbSymbolTableRecord
100
AcDbRegAppTableRecord
  2
ACAD_DSTYLE_DIMJOGGED_JOGANGLE_SYMBOL
 70
     0
  0
APPID
  5
37
330
32
100
AcDbSymbolTableRecord
100
AcDbRegAppTableRecord
  2
ACAD_DSTYLE_DIMJAG
 70
     0
  0
APPID
  5
36
330
32
100
AcDbSymbolTableRecord
100
AcDbRegAppTableRecord
  2
ACAD_DSTYLE_DIMBREAK
 70
     0
  0
APPID
  5
38
330
32
100
AcDbSymbolTableRecord
100
AcDbRegAppTableRecord
  2
ACAD_DSTYLE_DIMTALN
 70
     0
  0
APPID
  5
1A
330
32
100
AcDbSymbolTableRecord
100
AcDbRegAppTableRecord
  2
ACAD_PSEXT
 70
     0
  0
APPID
  5
7F
330
32
100
AcDbSymbolTableRecord
100
AcDbRegAppTableRecord
  2
ACAD_DSTYLE_DIMINSPECT
 70
     0
  0
APPID
  5
6E
330
32
100
AcDbSymbolTableRecord
100
AcDbRegAppTableRecord
  2
AcAecLayerStandard
 70
     0
  0
APPID
  5
20F
330
32
100
AcDbSymbolTableRecord
100
AcDbRegAppTableRecord
  2
GENIUS_GENOBJ-N-FIL_13
 70
     0
  0
APPID
  5
31
330
32
100
AcDbSymbolTableRecord
100
AcDbRegAppTableRecord
  2
ACAD_NAV_VCDISPLAY
 70
     0
  0
APPID
  5
29B
330
32
100
AcDbSymbolTableRecord
100
AcDbRegAppTableRecord
  2
ACATTRIBSERVICES
 70
     0
  0
APPID
  5
2C6
330
32
100
AcDbSymbolTableRecord
100
AcDbRegAppTableRecord
  2
ACAD_DSTYLE_DIM_LINETYPE
 70
     0
  0
APPID
  5
2C7
330
32
100
AcDbSymbolTableRecord
100
AcDbRegAppTableRecord
  2
ACAD_DSTYLE_DIM_EXT1_LINETYPE
 70
     0
  0
APPID
  5
2C8
330
32
100
AcDbSymbolTableRecord
100
AcDbRegAppTableRecord
  2
ACAD_DSTYLE_DIM_EXT2_LINETYPE
 70
     0
  0
ENDTAB
  0
TABLE
  2
DIMSTYLE
  5
33
330
0
100
AcDbSymbolTable
 70
    10
100
AcDbDimStyleTable
 71
     2
340
34
340
39
  0
DIMSTYLE
105
39
330
33
100
AcDbSymbolTableRecord
100
AcDbDimStyleTableRecord
  2
PROSPEKT
 70
     0
 40
1.5
 41
3.5
 42
0.5
 43
8.0
 44
1.3
 73
     0
 74
     0
 77
     1
 78
     8
140
3.5
141
1.5
143
25.39999999999999
146
0.5
147
1.0
172
     1
174
     1
176
     2
177
     2
178
     3
271
     2
272
     2
279
     2
284
     8
285
     8
286
     8
340
3A
  0
DIMSTYLE
105
28C
102
{ACAD_REACTORS
330
258
102
}
330
33
100
AcDbSymbolTableRecord
100
AcDbDimStyleTableRecord
  2
AM_DIN
 70
     0
  4
"
 41
3.5
 42
1.0
 43
10.0
 44
1.0
 47
0.1
 48
0.1
 73
     0
 74
     0
 77
     1
 78
     8
 79
     2
140
3.5
141
0.0
143
0.0393701
146
0.71
147
1.5
172
     1
176
   256
177
   256
178
     2
271
     2
272
     3
274
     4
283
     0
284
     8
340
26
371
    -1
372
    -1
1001
ACAD_DSTYLE_DIMJOGGED_JOGANGLE_SYMBOL
1070
   384
1040
1.570796326794896
1001
ACAD_DSTYLE_DIM_LINETYPE
1070
   380
1005
29
1001
ACAD_DSTYLE_DIM_EXT1_LINETYPE
1070
   381
1005
29
1001
ACAD_DSTYLE_DIM_EXT2_LINETYPE
1070
   382
1005
29
  0
DIMSTYLE
105
28E
330
33
100
AcDbSymbolTableRecord
100
AcDbDimStyleTableRecord
  2
AM_DIN$3
 70
     0
  4
"
 41
3.5
 42
1.0
 43
10.0
 44
1.0
 47
0.1
 48
0.1
 73
     0
 77
     1
 78
     8
 79
     2
140
3.5
141
0.0
143
0.0393701
146
0.71
147
1.5
176
   256
177
   256
178
     2
271
     2
272
     3
274
     4
283
     0
284
     8
288
     1
289
     0
340
26
371
    -1
372
    -1
1001
ACAD_DSTYLE_DIMJOGGED_JOGANGLE_SYMBOL
1070
   384
1040
1.570796326794896
1001
ACAD_DSTYLE_DIM_LINETYPE
1070
   380
1005
29
1001
ACAD_DSTYLE_DIM_EXT1_LINETYPE
1070
   381
1005
29
1001
ACAD_DSTYLE_DIM_EXT2_LINETYPE
1070
   382
1005
29
  0
DIMSTYLE
105
28F
330
33
100
AcDbSymbolTableRecord
100
AcDbDimStyleTableRecord
  2
AM_DIN$4
 70
     0
  4
"
 41
3.5
 42
1.0
 43
10.0
 44
1.0
 47
0.1
 48
0.1
 73
     0
 74
     0
 77
     1
 78
     8
 79
     2
140
3.5
141
0.0
143
0.0393701
146
0.71
147
1.5
172
     1
176
   256
177
   256
178
     2
271
     2
272
     3
274
     4
283
     0
284
     8
340
26
371
    -1
372
    -1
1001
ACAD_DSTYLE_DIMJOGGED_JOGANGLE_SYMBOL
1070
   384
1040
1.570796326794896
1001
ACAD_DSTYLE_DIM_LINETYPE
1070
   380
1005
29
1001
ACAD_DSTYLE_DIM_EXT1_LINETYPE
1070
   381
1005
29
1001
ACAD_DSTYLE_DIM_EXT2_LINETYPE
1070
   382
1005
29
  0
DIMSTYLE
105
290
330
33
100
AcDbSymbolTableRecord
100
AcDbDimStyleTableRecord
  2
AM_DIN$6
 70
     0
  4
"
 41
3.5
 42
1.0
 43
10.0
 44
1.0
 47
0.1
 48
0.1
 73
     0
 74
     0
 78
     8
 79
     2
140
3.5
141
0.0
143
0.0393701
146
0.71
147
1.5
172
     1
176
   256
177
   256
178
     2
271
     2
272
     3
274
     4
283
     0
284
     8
340
26
371
    -1
372
    -1
1001
ACAD_DSTYLE_DIMJOGGED_JOGANGLE_SYMBOL
1070
   384
1040
1.570796326794896
1001
ACAD_DSTYLE_DIM_LINETYPE
1070
   380
1005
29
1001
ACAD_DSTYLE_DIM_EXT1_LINETYPE
1070
   381
1005
29
1001
ACAD_DSTYLE_DIM_EXT2_LINETYPE
1070
   382
1005
29
  0
DIMSTYLE
105
291
330
33
100
AcDbSymbolTableRecord
100
AcDbDimStyleTableRecord
  2
AM_DIN$7
 70
     0
  4
"
 41
3.5
 42
1.0
 43
10.0
 44
1.0
 47
0.1
 48
0.1
 73
     0
 74
     0
 77
     1
 78
     8
 79
     2
140
3.5
141
0.0
143
0.0393701
146
0.71
147
1.5
172
     1
176
   256
177
   256
178
     2
271
     2
272
     3
274
     4
283
     0
284
     8
340
26
371
    -1
372
    -1
1001
ACAD_DSTYLE_DIMJOGGED_JOGANGLE_SYMBOL
1070
   384
1040
1.570796326794896
1001
ACAD_DSTYLE_DIM_LINETYPE
1070
   380
1005
29
1001
ACAD_DSTYLE_DIM_EXT1_LINETYPE
1070
   381
1005
29
1001
ACAD_DSTYLE_DIM_EXT2_LINETYPE
1070
   382
1005
29
  0
DIMSTYLE
105
292
330
33
100
AcDbSymbolTableRecord
100
AcDbDimStyleTableRecord
  2
AM_DIN$SF
 70
     0
  4
"
 41
3.5
 42
1.0
 43
10.0
 44
1.0
 47
0.1
 48
0.1
 73
     0
 74
     0
 75
     1
 76
     1
 77
     1
 78
     8
 79
     2
140
3.5
141
0.0
143
0.0393701
146
0.71
147
1.5
172
     1
176
   256
177
   256
178
     2
271
     2
272
     3
274
     4
283
     0
284
     8
340
26
371
    -1
372
    -1
1001
ACAD_DSTYLE_DIMJOGGED_JOGANGLE_SYMBOL
1070
   384
1040
1.570796326794896
1001
ACAD_DSTYLE_DIM_LINETYPE
1070
   380
1005
29
1001
ACAD_DSTYLE_DIM_EXT1_LINETYPE
1070
   381
1005
29
1001
ACAD_DSTYLE_DIM_EXT2_LINETYPE
1070
   382
1005
29
  0
DIMSTYLE
105
293
330
33
100
AcDbSymbolTableRecord
100
AcDbDimStyleTableRecord
  2
AM_DIN$SH
 70
     0
  4
"
 41
3.5
 42
1.0
 43
10.0
 44
1.0
 47
0.1
 48
0.1
 73
     0
 74
     0
 75
     1
 76
     1
 77
     1
 78
     8
 79
     2
140
3.5
141
0.0
143
0.0393701
144
2.0
146
0.71
147
1.5
172
     1
173
     1
176
   256
177
   256
178
     2
271
     2
272
     3
274
     4
283
     0
284
     8
340
26
343
294
371
    -1
372
    -1
1001
ACAD_DSTYLE_DIMJOGGED_JOGANGLE_SYMBOL
1070
   384
1040
1.570796326794896
1001
ACAD_DSTYLE_DIM_LINETYPE
1070
   380
1005
29
1001
ACAD_DSTYLE_DIM_EXT1_LINETYPE
1070
   381
1005
29
1001
ACAD_DSTYLE_DIM_EXT2_LINETYPE
1070
   382
1005
29
  0
DIMSTYLE
105
34
102
{ACAD_REACTORS
330
1C3
330
1B3
330
12B
330
11E
330
111
330
104
330
1A1
330
194
330
187
330
17A
330
16D
330
160
330
153
330
146
330
F0
330
E3
330
CA
330
B5
330
A8
102
}
330
33
100
AcDbSymbolTableRecord
100
AcDbDimStyleTableRecord
  2
Katalog 09
 70
     0
 41
4.0
 42
0.0
 43
8.0
 44
1.0
 73
     0
 74
     0
 77
     1
 78
     8
140
4.349999999999999
141
1.5
143
25.39999999999999
146
0.4285714285714286
147
1.0
172
     1
174
     1
176
     2
177
     2
178
     3
271
     2
272
     2
284
     8
285
     8
286
     8
340
35
1001
ACAD_DSTYLE_DIMBREAK
1070
   391
1040
3.75
1001
ACAD_DSTYLE_DIMJAG
1070
   388
1040
1.5
1001
ACAD_DSTYLE_DIMTALN
1070
   392
1070
     0
  0
DIMSTYLE
105
7E
102
{ACAD_REACTORS
330
6C
102
}
330
33
100
AcDbSymbolTableRecord
100
AcDbDimStyleTableRecord
  2
Katalog 09$0
 70
     0
 41
4.0
 42
0.0
 43
8.0
 44
1.0
 73
     0
 74
     0
 77
     1
 78
     8
140
4.349999999999999
141
1.5
143
25.39999999999999
146
0.4285714285714286
147
1.0
172
     1
174
     1
176
     2
177
     2
178
     3
271
     2
272
     2
284
     8
285
     8
286
     8
340
35
1001
ACAD_DSTYLE_DIMBREAK
1070
   391
1040
3.75
1001
ACAD_DSTYLE_DIMJAG
1070
   388
1040
1.5
  0
ENDTAB
  0
TABLE
  2
BLOCK_RECORD
  5
1
330
0
100
AcDbSymbolTable
 70
    22
  0
BLOCK_RECORD
  5
2
102
{ACAD_XDICTIONARY
360
3
102
}
330
1
100
AcDbSymbolTableRecord
100
AcDbBlockTableRecord
  2
*MODEL_SPACE
340
17
  0
BLOCK_RECORD
  5
1B
330
1
100
AcDbSymbolTableRecord
100
AcDbBlockTableRecord
  2
*PAPER_SPACE
340
1E
  0
BLOCK_RECORD
  5
294
330
1
100
AcDbSymbolTableRecord
100
AcDbBlockTableRecord
  2
GENAXEH
340
0
  0
BLOCK_RECORD
  5
1C4
330
1
100
AcDbSymbolTableRecord
100
AcDbBlockTableRecord
  2
*D1
340
0
  0
BLOCK_RECORD
  5
1B4
330
1
100
AcDbSymbolTableRecord
100
AcDbBlockTableRecord
  2
*D2
340
0
  0
BLOCK_RECORD
  5
12C
330
1
100
AcDbSymbolTableRecord
100
AcDbBlockTableRecord
  2
*D3
340
0
  0
BLOCK_RECORD
  5
11F
330
1
100
AcDbSymbolTableRecord
100
AcDbBlockTableRecord
  2
*D4
340
0
  0
BLOCK_RECORD
  5
112
330
1
100
AcDbSymbolTableRecord
100
AcDbBlockTableRecord
  2
*D5
340
0
  0
BLOCK_RECORD
  5
105
330
1
100
AcDbSymbolTableRecord
100
AcDbBlockTableRecord
  2
*D6
340
0
  0
BLOCK_RECORD
  5
1A2
330
1
100
AcDbSymbolTableRecord
100
AcDbBlockTableRecord
  2
*D7
340
0
  0
BLOCK_RECORD
  5
195
330
1
100
AcDbSymbolTableRecord
100
AcDbBlockTableRecord
  2
*D8
340
0
  0
BLOCK_RECORD
  5
188
330
1
100
AcDbSymbolTableRecord
100
AcDbBlockTableRecord
  2
*D9
340
0
  0
BLOCK_RECORD
  5
17B
330
1
100
AcDbSymbolTableRecord
100
AcDbBlockTableRecord
  2
*D10
340
0
  0
BLOCK_RECORD
  5
16E
330
1
100
AcDbSymbolTableRecord
100
AcDbBlockTableRecord
  2
*D11
340
0
  0
BLOCK_RECORD
  5
161
330
1
100
AcDbSymbolTableRecord
100
AcDbBlockTableRecord
  2
*D12
340
0
  0
BLOCK_RECORD
  5
154
330
1
100
AcDbSymbolTableRecord
100
AcDbBlockTableRecord
  2
*D13
340
0
  0
BLOCK_RECORD
  5
147
330
1
100
AcDbSymbolTableRecord
100
AcDbBlockTableRecord
  2
*D14
340
0
  0
BLOCK_RECORD
  5
F1
330
1
100
AcDbSymbolTableRecord
100
AcDbBlockTableRecord
  2
*D15
340
0
  0
BLOCK_RECORD
  5
E4
330
1
100
AcDbSymbolTableRecord
100
AcDbBlockTableRecord
  2
*D16
340
0
  0
BLOCK_RECORD
  5
CE
330
1
100
AcDbSymbolTableRecord
100
AcDbBlockTableRecord
  2
*D17
340
0
  0
BLOCK_RECORD
  5
B6
330
1
100
AcDbSymbolTableRecord
100
AcDbBlockTableRecord
  2
*D18
340
0
  0
BLOCK_RECORD
  5
A9
330
1
100
AcDbSymbolTableRecord
100
AcDbBlockTableRecord
  2
*D19
340
0
  0
BLOCK_RECORD
  5
277
330
1
100
AcDbSymbolTableRecord
100
AcDbBlockTableRecord
  2
_ACMFILLED30
340
0
  0
BLOCK_RECORD
  5
6F
330
1
100
AcDbSymbolTableRecord
100
AcDbBlockTableRecord
  2
*D21
340
0
  0
ENDTAB
  0
ENDSEC
  0
SECTION
  2
BLOCKS
  0
BLOCK
  5
5
330
2
100
AcDbEntity
  8
0
100
AcDbBlockBegin
  2
*MODEL_SPACE
 70
     0
 10
0.0
 20
0.0
 30
0.0
  3
*MODEL_SPACE
  1

  0
ENDBLK
  5
16
330
2
100
AcDbEntity
  8
0
100
AcDbBlockEnd
  0
BLOCK
  5
1C
330
1B
100
AcDbEntity
 67
     1
  8
0
100
AcDbBlockBegin
  2
*PAPER_SPACE
 70
     0
 10
0.0
 20
0.0
 30
0.0
  3
*PAPER_SPACE
  1

  0
ENDBLK
  5
1D
330
1B
100
AcDbEntity
 67
     1
  8
0
100
AcDbBlockEnd
  0
BLOCK
  5
295
330
294
100
AcDbEntity
  8
0
100
AcDbBlockBegin
  2
GENAXEH
 70
     0
 10
0.0
 20
0.0
 30
0.0
  3
GENAXEH
  1

  0
LINE
  5
296
330
294
100
AcDbEntity
  8
0
100
AcDbLine
 10
-1.0
 20
0.0
 30
0.0
 11
1.0
 21
0.0
 31
0.0
  0
ENDBLK
  5
297
330
294
100
AcDbEntity
  8
0
100
AcDbBlockEnd
  0
BLOCK
  5
1C5
330
1C4
100
AcDbEntity
  8
0
100
AcDbBlockBegin
  2
*D1
 70
     1
 10
0.0
 20
0.0
 30
0.0
  3
*D1
  1

  0
LINE
  5
1C6
330
1C4
100
AcDbEntity
  8
UMRISS05
 62
     2
370
    -2
100
AcDbLine
 10
79.77740391303547
 20
145.6427023831002
 30
0.0
 11
79.77740391303547
 21
161.3527906587556
 31
0.0
  0
LINE
  5
1C7
330
1C4
100
AcDbEntity
  8
UMRISS05
 62
     2
370
    -2
100
AcDbLine
 10
99.17740391303539
 20
145.6427023831002
 30
0.0
 11
99.17740391303539
 21
161.3527906587556
 31
0.0
  0
LINE
  5
1C8
330
1C4
100
AcDbEntity
  8
UMRISS05
 62
     2
370
    -2
100
AcDbLine
 10
83.77740391303547
 20
160.3527906587556
 30
0.0
 11
95.17740391303538
 21
160.3527906587556
 31
0.0
  0
SOLID
  5
1C9
330
1C4
100
AcDbEntity
  8
UMRISS05
 62
     2
100
AcDbTrace
 10
83.77740391303547
 20
161.0194573254223
 30
0.0
 11
83.77740391303547
 21
159.686123992089
 31
0.0
 12
79.77740391303547
 22
160.3527906587556
 32
0.0
 13
79.77740391303547
 23
160.3527906587556
 33
0.0
  0
SOLID
  5
1CA
330
1C4
100
AcDbEntity
  8
UMRISS05
 62
     2
100
AcDbTrace
 10
95.17740391303538
 20
161.0194573254223
 30
0.0
 11
95.17740391303538
 21
159.686123992089
 31
0.0
 12
99.17740391303539
 22
160.3527906587556
 32
0.0
 13
99.17740391303539
 23
160.3527906587556
 33
0.0
  0
MTEXT
  5
1CB
330
1C4
100
AcDbEntity
  8
UMRISS05
 62
     3
100
AcDbMText
 10
89.47740391303543
 20
163.573783155345
 30
0.0
 40
4.349999999999999
 41
0.0
 71
     5
 72
     1
  1
\A1;19.4
  7
ARIAL-STANDARD
 73
     1
 44
1.0
1001
ACAD
1000
MTEXTBEGIN
1070
    73
1070
     1
1070
    44
1040
1.0
1070
    74
1070
     0
1000
MTEXTEND
  0
POINT
  5
1CC
330
1C4
100
AcDbEntity
  8
DEFPOINTS
 62
     0
100
AcDbPoint
 10
79.77740391303547
 20
145.6427023831002
 30
0.0
  0
POINT
  5
1CD
330
1C4
100
AcDbEntity
  8
DEFPOINTS
 62
     0
100
AcDbPoint
 10
99.17740391303539
 20
145.6427023831002
 30
0.0
  0
POINT
  5
1CE
330
1C4
100
AcDbEntity
  8
DEFPOINTS
 62
     0
100
AcDbPoint
 10
99.17740391303539
 20
160.3527906587556
 30
0.0
  0
ENDBLK
  5
1CF
330
1C4
100
AcDbEntity
  8
0
100
AcDbBlockEnd
  0
BLOCK
  5
1B5
330
1B4
100
AcDbEntity
  8
0
100
AcDbBlockBegin
  2
*D2
 70
     1
 10
0.0
 20
0.0
 30
0.0
  3
*D2
  1

  0
LINE
  5
1B6
330
1B4
100
AcDbEntity
  8
UMRISS05
 62
     2
370
    -2
100
AcDbLine
 10
79.77740391303547
 20
145.6427023831005
 30
0.0
 11
79.77740391303547
 21
154.2440011309716
 31
0.0
  0
LINE
  5
1B7
330
1B4
100
AcDbEntity
  8
UMRISS05
 62
     2
370
    -2
100
AcDbLine
 10
76.9774039130354
 20
134.6427023831127
 30
0.0
 11
76.9774039130354
 21
154.2440011309716
 31
0.0
  0
LINE
  5
1B8
330
1B4
100
AcDbEntity
  8
UMRISS05
 62
     2
370
    -2
100
AcDbLine
 10
83.77740391303547
 20
153.2440011309716
 30
0.0
 11
87.77740391303547
 21
153.2440011309716
 31
0.0
  0
LINE
  5
1B9
330
1B4
100
AcDbEntity
  8
UMRISS05
 62
     2
370
    -2
100
AcDbLine
 10
72.9774039130354
 20
153.2440011309716
 30
0.0
 11
58.97470950648695
 21
153.2440011309716
 31
0.0
  0
LINE
  5
1BA
330
1B4
100
AcDbEntity
  8
UMRISS05
 62
     2
370
    -2
100
AcDbLine
 10
79.77740391303547
 20
153.2440011309716
 30
0.0
 11
76.9774039130354
 21
153.2440011309716
 31
0.0
  0
SOLID
  5
1BB
330
1B4
100
AcDbEntity
  8
UMRISS05
 62
     2
100
AcDbTrace
 10
83.77740391303547
 20
153.9106677976383
 30
0.0
 11
83.77740391303547
 21
152.577334464305
 31
0.0
 12
79.77740391303547
 22
153.2440011309716
 32
0.0
 13
79.77740391303547
 23
153.2440011309716
 33
0.0
  0
SOLID
  5
1BC
330
1B4
100
AcDbEntity
  8
UMRISS05
 62
     2
100
AcDbTrace
 10
72.9774039130354
 20
153.9106677976383
 30
0.0
 11
72.9774039130354
 21
152.577334464305
 31
0.0
 12
76.9774039130354
 22
153.2440011309716
 32
0.0
 13
76.9774039130354
 23
153.2440011309716
 33
0.0
  0
MTEXT
  5
1BD
330
1B4
100
AcDbEntity
  8
UMRISS05
 62
     3
100
AcDbMText
 10
63.97605670976116
 20
156.464993627561
 30
0.0
 40
4.349999999999999
 41
0.0
 71
     5
 72
     1
  1
\A1;2.8
  7
ARIAL-STANDARD
 73
     1
 44
1.0
1001
ACAD
1000
MTEXTBEGIN
1070
    73
1070
     1
1070
    44
1040
1.0
1070
    74
1070
     0
1000
MTEXTEND
  0
POINT
  5
1BE
330
1B4
100
AcDbEntity
  8
DEFPOINTS
 62
     0
100
AcDbPoint
 10
79.77740391303547
 20
145.6427023831005
 30
0.0
  0
POINT
  5
1BF
330
1B4
100
AcDbEntity
  8
DEFPOINTS
 62
     0
100
AcDbPoint
 10
76.9774039130354
 20
134.6427023831127
 30
0.0
  0
POINT
  5
1C0
330
1B4
100
AcDbEntity
  8
DEFPOINTS
 62
     0
100
AcDbPoint
 10
76.9774039130354
 20
153.2440011309716
 30
0.0
  0
ENDBLK
  5
1C1
330
1B4
100
AcDbEntity
  8
0
100
AcDbBlockEnd
  0
BLOCK
  5
12D
330
12C
100
AcDbEntity
  8
0
100
AcDbBlockBegin
  2
*D3
 70
     1
 10
0.0
 20
0.0
 30
0.0
  3
*D3
  1

  0
LINE
  5
12E
330
12C
100
AcDbEntity
  8
UMRISS05
 62
     2
370
    -2
100
AcDbLine
 10
76.97740391317609
 20
194.9098554518145
 30
0.0
 11
53.29277001422986
 21
194.9098554518145
 31
0.0
  0
LINE
  5
12F
330
12C
100
AcDbEntity
  8
UMRISS05
 62
     2
370
    -2
100
AcDbLine
 10
81.22740391317597
 20
207.9098554518145
 30
0.0
 11
53.29277001422986
 21
207.9098554518145
 31
0.0
  0
LINE
  5
130
330
12C
100
AcDbEntity
  8
UMRISS05
 62
     2
370
    -2
100
AcDbLine
 10
54.29277001422986
 20
198.9098554518145
 30
0.0
 11
54.29277001422986
 21
203.9098554518145
 31
0.0
  0
SOLID
  5
131
330
12C
100
AcDbEntity
  8
UMRISS05
 62
     2
100
AcDbTrace
 10
53.62610334756319
 20
198.9098554518145
 30
0.0
 11
54.95943668089652
 21
198.9098554518145
 31
0.0
 12
54.29277001422986
 22
194.9098554518145
 32
0.0
 13
54.29277001422986
 23
194.9098554518145
 33
0.0
  0
SOLID
  5
132
330
12C
100
AcDbEntity
  8
UMRISS05
 62
     2
100
AcDbTrace
 10
53.62610334756319
 20
203.9098554518145
 30
0.0
 11
54.95943668089652
 21
203.9098554518145
 31
0.0
 12
54.29277001422986
 22
207.9098554518145
 32
0.0
 13
54.29277001422986
 23
207.9098554518145
 33
0.0
  0
MTEXT
  5
133
330
12C
100
AcDbEntity
  8
UMRISS05
 62
     3
100
AcDbMText
 10
51.07029388871823
 20
201.4098554518145
 30
0.0
 40
4.349999999999999
 41
0.0
 71
     5
 72
     1
  1
\A1;13
  7
ARIAL-STANDARD
 11
0.0000000000000001
 21
1.0
 31
0.0
 73
     1
 44
1.0
1001
ACAD
1000
MTEXTBEGIN
1070
    73
1070
     1
1070
    44
1040
1.0
1070
    74
1070
     0
1000
MTEXTEND
  0
POINT
  5
134
330
12C
100
AcDbEntity
  8
DEFPOINTS
 62
     0
100
AcDbPoint
 10
76.97740391317609
 20
194.9098554518145
 30
0.0
  0
POINT
  5
135
330
12C
100
AcDbEntity
  8
DEFPOINTS
 62
     0
100
AcDbPoint
 10
81.22740391317597
 20
207.9098554518145
 30
0.0
  0
POINT
  5
136
330
12C
100
AcDbEntity
  8
DEFPOINTS
 62
     0
100
AcDbPoint
 10
54.29277001422986
 20
207.9098554518145
 30
0.0
  0
ENDBLK
  5
137
330
12C
100
AcDbEntity
  8
0
100
AcDbBlockEnd
  0
BLOCK
  5
120
330
11F
100
AcDbEntity
  8
0
100
AcDbBlockBegin
  2
*D4
 70
     1
 10
0.0
 20
0.0
 30
0.0
  3
*D4
  1

  0
LINE
  5
121
330
11F
100
AcDbEntity
  8
UMRISS05
 62
     2
370
    -2
100
AcDbLine
 10
81.22740391317597
 20
451.9098554518144
 30
0.0
 11
53.29277001422985
 21
451.9098554518144
 31
0.0
  0
LINE
  5
122
330
11F
100
AcDbEntity
  8
UMRISS05
 62
     2
370
    -2
100
AcDbLine
 10
76.97740391317598
 20
464.9098554518145
 30
0.0
 11
53.29277001422986
 21
464.9098554518145
 31
0.0
  0
LINE
  5
123
330
11F
100
AcDbEntity
  8
UMRISS05
 62
     2
370
    -2
100
AcDbLine
 10
54.29277001422985
 20
455.9098554518144
 30
0.0
 11
54.29277001422985
 21
460.9098554518145
 31
0.0
  0
SOLID
  5
124
330
11F
100
AcDbEntity
  8
UMRISS05
 62
     2
100
AcDbTrace
 10
53.62610334756318
 20
455.9098554518144
 30
0.0
 11
54.95943668089651
 21
455.9098554518144
 31
0.0
 12
54.29277001422985
 22
451.9098554518144
 32
0.0
 13
54.29277001422985
 23
451.9098554518144
 33
0.0
  0
SOLID
  5
125
330
11F
100
AcDbEntity
  8
UMRISS05
 62
     2
100
AcDbTrace
 10
53.62610334756318
 20
460.9098554518145
 30
0.0
 11
54.95943668089651
 21
460.9098554518145
 31
0.0
 12
54.29277001422986
 22
464.9098554518145
 32
0.0
 13
54.29277001422986
 23
464.9098554518145
 33
0.0
  0
MTEXT
  5
126
330
11F
100
AcDbEntity
  8
UMRISS05
 62
     3
100
AcDbMText
 10
51.07029388871819
 20
458.4098554518146
 30
0.0
 40
4.349999999999999
 41
0.0
 71
     5
 72
     1
  1
\A1;13
  7
ARIAL-STANDARD
 11
0.0000000000000001
 21
1.0
 31
0.0
 73
     1
 44
1.0
1001
ACAD
1000
MTEXTBEGIN
1070
    73
1070
     1
1070
    44
1040
1.0
1070
    74
1070
     0
1000
MTEXTEND
  0
POINT
  5
127
330
11F
100
AcDbEntity
  8
DEFPOINTS
 62
     0
100
AcDbPoint
 10
81.22740391317597
 20
451.9098554518144
 30
0.0
  0
POINT
  5
128
330
11F
100
AcDbEntity
  8
DEFPOINTS
 62
     0
100
AcDbPoint
 10
76.97740391317598
 20
464.9098554518145
 30
0.0
  0
POINT
  5
129
330
11F
100
AcDbEntity
  8
DEFPOINTS
 62
     0
100
AcDbPoint
 10
54.29277001422986
 20
464.9098554518145
 30
0.0
  0
ENDBLK
  5
12A
330
11F
100
AcDbEntity
  8
0
100
AcDbBlockEnd
  0
BLOCK
  5
113
330
112
100
AcDbEntity
  8
0
100
AcDbBlockBegin
  2
*D5
 70
     1
 10
0.0
 20
0.0
 30
0.0
  3
*D5
  1

  0
LINE
  5
114
330
112
100
AcDbEntity
  8
UMRISS05
 62
     2
370
    -2
100
AcDbLine
 10
81.22740391317597
 20
451.9098554518144
 30
0.0
 11
53.29277001422988
 21
451.9098554518144
 31
0.0
  0
LINE
  5
115
330
112
100
AcDbEntity
  8
UMRISS05
 62
     2
370
    -2
100
AcDbLine
 10
81.22740391317597
 20
343.4098554518145
 30
0.0
 11
53.29277001422986
 21
343.4098554518145
 31
0.0
  0
LINE
  5
116
330
112
100
AcDbEntity
  8
UMRISS05
 62
     2
370
    -2
100
AcDbLine
 10
54.29277001422988
 20
447.9098554518144
 30
0.0
 11
54.29277001422986
 21
347.4098554518145
 31
0.0
  0
SOLID
  5
117
330
112
100
AcDbEntity
  8
UMRISS05
 62
     2
100
AcDbTrace
 10
53.62610334756322
 20
447.9098554518144
 30
0.0
 11
54.95943668089655
 21
447.9098554518144
 31
0.0
 12
54.29277001422988
 22
451.9098554518144
 32
0.0
 13
54.29277001422988
 23
451.9098554518144
 33
0.0
  0
SOLID
  5
118
330
112
100
AcDbEntity
  8
UMRISS05
 62
     2
100
AcDbTrace
 10
53.62610334756319
 20
347.4098554518145
 30
0.0
 11
54.95943668089652
 21
347.4098554518145
 31
0.0
 12
54.29277001422986
 22
343.4098554518145
 32
0.0
 13
54.29277001422986
 23
343.4098554518145
 33
0.0
  0
MTEXT
  5
119
330
112
100
AcDbEntity
  8
UMRISS05
 62
     3
100
AcDbMText
 10
51.07177751764044
 20
397.6598554518145
 30
0.0
 40
4.349999999999999
 41
0.0
 71
     5
 72
     1
  1
\A1;108.5
  7
ARIAL-STANDARD
 11
0.0000000000000001
 21
1.0
 31
0.0
 73
     1
 44
1.0
1001
ACAD
1000
MTEXTBEGIN
1070
    73
1070
     1
1070
    44
1040
1.0
1070
    74
1070
     0
1000
MTEXTEND
  0
POINT
  5
11A
330
112
100
AcDbEntity
  8
DEFPOINTS
 62
     0
100
AcDbPoint
 10
81.22740391317597
 20
451.9098554518144
 30
0.0
  0
POINT
  5
11B
330
112
100
AcDbEntity
  8
DEFPOINTS
 62
     0
100
AcDbPoint
 10
81.22740391317597
 20
343.4098554518145
 30
0.0
  0
POINT
  5
11C
330
112
100
AcDbEntity
  8
DEFPOINTS
 62
     0
100
AcDbPoint
 10
54.29277001422986
 20
343.4098554518145
 30
0.0
  0
ENDBLK
  5
11D
330
112
100
AcDbEntity
  8
0
100
AcDbBlockEnd
  0
BLOCK
  5
106
330
105
100
AcDbEntity
  8
0
100
AcDbBlockBegin
  2
*D6
 70
     1
 10
0.0
 20
0.0
 30
0.0
  3
*D6
  1

  0
LINE
  5
107
330
105
100
AcDbEntity
  8
UMRISS05
 62
     2
370
    -2
100
AcDbLine
 10
81.22740391317597
 20
343.4098554518145
 30
0.0
 11
53.29277001422989
 21
343.4098554518145
 31
0.0
  0
LINE
  5
108
330
105
100
AcDbEntity
  8
UMRISS05
 62
     2
370
    -2
100
AcDbLine
 10
81.22740391317597
 20
207.9098554518145
 30
0.0
 11
53.29277001422986
 21
207.9098554518145
 31
0.0
  0
LINE
  5
109
330
105
100
AcDbEntity
  8
UMRISS05
 62
     2
370
    -2
100
AcDbLine
 10
54.29277001422989
 20
339.4098554518145
 30
0.0
 11
54.29277001422986
 21
211.9098554518145
 31
0.0
  0
SOLID
  5
10A
330
105
100
AcDbEntity
  8
UMRISS05
 62
     2
100
AcDbTrace
 10
53.62610334756323
 20
339.4098554518145
 30
0.0
 11
54.95943668089656
 21
339.4098554518145
 31
0.0
 12
54.29277001422989
 22
343.4098554518145
 32
0.0
 13
54.29277001422989
 23
343.4098554518145
 33
0.0
  0
SOLID
  5
10B
330
105
100
AcDbEntity
  8
UMRISS05
 62
     2
100
AcDbTrace
 10
53.6261033475632
 20
211.9098554518145
 30
0.0
 11
54.95943668089653
 21
211.9098554518145
 31
0.0
 12
54.29277001422986
 22
207.9098554518145
 32
0.0
 13
54.29277001422986
 23
207.9098554518145
 33
0.0
  0
MTEXT
  5
10C
330
105
100
AcDbEntity
  8
UMRISS05
 62
     3
100
AcDbMText
 10
51.07029388871823
 20
275.6598554518145
 30
0.0
 40
4.349999999999999
 41
0.0
 71
     5
 72
     1
  1
\A1;135.5
  7
ARIAL-STANDARD
 11
0.0000000000000001
 21
1.0
 31
0.0
 73
     1
 44
1.0
1001
ACAD
1000
MTEXTBEGIN
1070
    73
1070
     1
1070
    44
1040
1.0
1070
    74
1070
     0
1000
MTEXTEND
  0
POINT
  5
10D
330
105
100
AcDbEntity
  8
DEFPOINTS
 62
     0
100
AcDbPoint
 10
81.22740391317597
 20
343.4098554518145
 30
0.0
  0
POINT
  5
10E
330
105
100
AcDbEntity
  8
DEFPOINTS
 62
     0
100
AcDbPoint
 10
81.22740391317597
 20
207.9098554518145
 30
0.0
  0
POINT
  5
10F
330
105
100
AcDbEntity
  8
DEFPOINTS
 62
     0
100
AcDbPoint
 10
54.29277001422986
 20
207.9098554518145
 30
0.0
  0
ENDBLK
  5
110
330
105
100
AcDbEntity
  8
0
100
AcDbBlockEnd
  0
BLOCK
  5
1A3
330
1A2
100
AcDbEntity
  8
0
100
AcDbBlockBegin
  2
*D7
 70
     1
 10
0.0
 20
0.0
 30
0.0
  3
*D7
  1

  0
LINE
  5
1A4
330
1A2
100
AcDbEntity
  8
BEMASSUNG
 62
     2
370
    -2
100
AcDbLine
 10
100.977403913176
 20
417.4098554518145
 30
0.0
 11
121.0366359594035
 21
417.4098554518145
 31
0.0
  0
LINE
  5
1A5
330
1A2
100
AcDbEntity
  8
BEMASSUNG
 62
     2
370
    -2
100
AcDbLine
 10
100.977403913176
 20
464.9098554518154
 30
0.0
 11
121.0366359594035
 21
464.9098554518154
 31
0.0
  0
LINE
  5
1A6
330
1A2
100
AcDbEntity
  8
BEMASSUNG
 62
     2
370
    -2
100
AcDbLine
 10
120.0366359594035
 20
421.4098554518145
 30
0.0
 11
120.0366359594035
 21
460.9098554518154
 31
0.0
  0
SOLID
  5
1A7
330
1A2
100
AcDbEntity
  8
BEMASSUNG
 62
     2
100
AcDbTrace
 10
119.3699692927369
 20
421.4098554518145
 30
0.0
 11
120.7033026260702
 21
421.4098554518145
 31
0.0
 12
120.0366359594035
 22
417.4098554518145
 32
0.0
 13
120.0366359594035
 23
417.4098554518145
 33
0.0
  0
SOLID
  5
1A8
330
1A2
100
AcDbEntity
  8
BEMASSUNG
 62
     2
100
AcDbTrace
 10
119.3699692927369
 20
460.9098554518154
 30
0.0
 11
120.7033026260702
 21
460.9098554518154
 31
0.0
 12
120.0366359594035
 22
464.9098554518154
 32
0.0
 13
120.0366359594035
 23
464.9098554518154
 33
0.0
  0
MTEXT
  5
1A9
330
1A2
100
AcDbEntity
  8
BEMASSUNG
 62
     3
100
AcDbMText
 10
116.8245452363475
 20
441.159855451815
 30
0.0
 40
4.349999999999999
 41
0.0
 71
     5
 72
     1
  1
\A1;47.5
  7
ARIAL-STANDARD
 11
0.0000000000000001
 21
1.0
 31
0.0
 73
     1
 44
1.0
1001
ACAD
1000
MTEXTBEGIN
1070
    73
1070
     1
1070
    44
1040
1.0
1070
    74
1070
     0
1000
MTEXTEND
  0
POINT
  5
1AA
330
1A2
100
AcDbEntity
  8
DEFPOINTS
 62
     0
100
AcDbPoint
 10
100.977403913176
 20
417.4098554518145
 30
0.0
  0
POINT
  5
1AB
330
1A2
100
AcDbEntity
  8
DEFPOINTS
 62
     0
100
AcDbPoint
 10
100.977403913176
 20
464.9098554518154
 30
0.0
  0
POINT
  5
1AC
330
1A2
100
AcDbEntity
  8
DEFPOINTS
 62
     0
100
AcDbPoint
 10
120.0366359594035
 20
464.9098554518154
 30
0.0
  0
ENDBLK
  5
1AD
330
1A2
100
AcDbEntity
  8
0
100
AcDbBlockEnd
  0
BLOCK
  5
196
330
195
100
AcDbEntity
  8
0
100
AcDbBlockBegin
  2
*D8
 70
     1
 10
0.0
 20
0.0
 30
0.0
  3
*D8
  1

  0
LINE
  5
197
330
195
100
AcDbEntity
  8
BEMASSUNG
 62
     2
370
    -2
100
AcDbLine
 10
100.977403913176
 20
369.4098554518145
 30
0.0
 11
121.0366359594035
 21
369.4098554518145
 31
0.0
  0
LINE
  5
198
330
195
100
AcDbEntity
  8
BEMASSUNG
 62
     2
370
    -2
100
AcDbLine
 10
100.977403913176
 20
417.4098554518145
 30
0.0
 11
121.0366359594035
 21
417.4098554518145
 31
0.0
  0
LINE
  5
199
330
195
100
AcDbEntity
  8
BEMASSUNG
 62
     2
370
    -2
100
AcDbLine
 10
120.0366359594035
 20
373.4098554518145
 30
0.0
 11
120.0366359594035
 21
413.4098554518145
 31
0.0
  0
SOLID
  5
19A
330
195
100
AcDbEntity
  8
BEMASSUNG
 62
     2
100
AcDbTrace
 10
119.3699692927368
 20
373.4098554518145
 30
0.0
 11
120.7033026260702
 21
373.4098554518145
 31
0.0
 12
120.0366359594035
 22
369.4098554518145
 32
0.0
 13
120.0366359594035
 23
369.4098554518145
 33
0.0
  0
SOLID
  5
19B
330
195
100
AcDbEntity
  8
BEMASSUNG
 62
     2
100
AcDbTrace
 10
119.3699692927368
 20
413.4098554518145
 30
0.0
 11
120.7033026260702
 21
413.4098554518145
 31
0.0
 12
120.0366359594035
 22
417.4098554518145
 32
0.0
 13
120.0366359594035
 23
417.4098554518145
 33
0.0
  0
MTEXT
  5
19C
330
195
100
AcDbEntity
  8
BEMASSUNG
 62
     3
100
AcDbMText
 10
116.8156434628141
 20
393.4098554518146
 30
0.0
 40
4.349999999999999
 41
0.0
 71
     5
 72
     1
  1
\A1;48
  7
ARIAL-STANDARD
 11
0.0000000000000001
 21
1.0
 31
0.0
 73
     1
 44
1.0
1001
ACAD
1000
MTEXTBEGIN
1070
    73
1070
     1
1070
    44
1040
1.0
1070
    74
1070
     0
1000
MTEXTEND
  0
POINT
  5
19D
330
195
100
AcDbEntity
  8
DEFPOINTS
 62
     0
100
AcDbPoint
 10
100.977403913176
 20
369.4098554518145
 30
0.0
  0
POINT
  5
19E
330
195
100
AcDbEntity
  8
DEFPOINTS
 62
     0
100
AcDbPoint
 10
100.977403913176
 20
417.4098554518145
 30
0.0
  0
POINT
  5
19F
330
195
100
AcDbEntity
  8
DEFPOINTS
 62
     0
100
AcDbPoint
 10
120.0366359594035
 20
417.4098554518145
 30
0.0
  0
ENDBLK
  5
1A0
330
195
100
AcDbEntity
  8
0
100
AcDbBlockEnd
  0
BLOCK
  5
189
330
188
100
AcDbEntity
  8
0
100
AcDbBlockBegin
  2
*D9
 70
     1
 10
0.0
 20
0.0
 30
0.0
  3
*D9
  1

  0
LINE
  5
18A
330
188
100
AcDbEntity
  8
BEMASSUNG
 62
     2
370
    -2
100
AcDbLine
 10
94.47740391317609
 20
316.9098554518145
 30
0.0
 11
121.0366359594035
 21
316.9098554518145
 31
0.0
  0
LINE
  5
18B
330
188
100
AcDbEntity
  8
BEMASSUNG
 62
     2
370
    -2
100
AcDbLine
 10
100.977403913176
 20
369.4098554518145
 30
0.0
 11
121.0366359594035
 21
369.4098554518145
 31
0.0
  0
LINE
  5
18C
330
188
100
AcDbEntity
  8
BEMASSUNG
 62
     2
370
    -2
100
AcDbLine
 10
120.0366359594035
 20
320.9098554518145
 30
0.0
 11
120.0366359594035
 21
365.4098554518145
 31
0.0
  0
SOLID
  5
18D
330
188
100
AcDbEntity
  8
BEMASSUNG
 62
     2
100
AcDbTrace
 10
119.3699692927368
 20
320.9098554518145
 30
0.0
 11
120.7033026260702
 21
320.9098554518145
 31
0.0
 12
120.0366359594035
 22
316.9098554518145
 32
0.0
 13
120.0366359594035
 23
316.9098554518145
 33
0.0
  0
SOLID
  5
18E
330
188
100
AcDbEntity
  8
BEMASSUNG
 62
     2
100
AcDbTrace
 10
119.3699692927369
 20
365.4098554518145
 30
0.0
 11
120.7033026260702
 21
365.4098554518145
 31
0.0
 12
120.0366359594035
 22
369.4098554518145
 32
0.0
 13
120.0366359594035
 23
369.4098554518145
 33
0.0
  0
MTEXT
  5
18F
330
188
100
AcDbEntity
  8
BEMASSUNG
 62
     3
100
AcDbMText
 10
116.8156434628141
 20
343.1598554518145
 30
0.0
 40
4.349999999999999
 41
0.0
 71
     5
 72
     1
  1
\A1;52.5
  7
ARIAL-STANDARD
 11
0.0000000000000001
 21
1.0
 31
0.0
 73
     1
 44
1.0
1001
ACAD
1000
MTEXTBEGIN
1070
    73
1070
     1
1070
    44
1040
1.0
1070
    74
1070
     0
1000
MTEXTEND
  0
POINT
  5
190
330
188
100
AcDbEntity
  8
DEFPOINTS
 62
     0
100
AcDbPoint
 10
94.47740391317609
 20
316.9098554518145
 30
0.0
  0
POINT
  5
191
330
188
100
AcDbEntity
  8
DEFPOINTS
 62
     0
100
AcDbPoint
 10
100.977403913176
 20
369.4098554518145
 30
0.0
  0
POINT
  5
192
330
188
100
AcDbEntity
  8
DEFPOINTS
 62
     0
100
AcDbPoint
 10
120.0366359594035
 20
369.4098554518145
 30
0.0
  0
ENDBLK
  5
193
330
188
100
AcDbEntity
  8
0
100
AcDbBlockEnd
  0
BLOCK
  5
17C
330
17B
100
AcDbEntity
  8
0
100
AcDbBlockBegin
  2
*D10
 70
     1
 10
0.0
 20
0.0
 30
0.0
  3
*D10
  1

  0
LINE
  5
17D
330
17B
100
AcDbEntity
  8
BEMASSUNG
 62
     2
370
    -2
100
AcDbLine
 10
94.47740391317609
 20
269.9098554518145
 30
0.0
 11
121.0366359594035
 21
269.9098554518145
 31
0.0
  0
LINE
  5
17E
330
17B
100
AcDbEntity
  8
BEMASSUNG
 62
     2
370
    -2
100
AcDbLine
 10
100.977403913176
 20
194.9098554518154
 30
0.0
 11
121.0366359594035
 21
194.9098554518154
 31
0.0
  0
LINE
  5
17F
330
17B
100
AcDbEntity
  8
BEMASSUNG
 62
     2
370
    -2
100
AcDbLine
 10
120.0366359594035
 20
265.9098554518145
 30
0.0
 11
120.0366359594035
 21
198.9098554518155
 31
0.0
  0
SOLID
  5
180
330
17B
100
AcDbEntity
  8
BEMASSUNG
 62
     2
100
AcDbTrace
 10
119.3699692927369
 20
265.9098554518145
 30
0.0
 11
120.7033026260702
 21
265.9098554518145
 31
0.0
 12
120.0366359594035
 22
269.9098554518145
 32
0.0
 13
120.0366359594035
 23
269.9098554518145
 33
0.0
  0
SOLID
  5
181
330
17B
100
AcDbEntity
  8
BEMASSUNG
 62
     2
100
AcDbTrace
 10
119.3699692927369
 20
198.9098554518155
 30
0.0
 11
120.7033026260702
 21
198.9098554518155
 31
0.0
 12
120.0366359594035
 22
194.9098554518154
 32
0.0
 13
120.0366359594035
 23
194.9098554518154
 33
0.0
  0
MTEXT
  5
182
330
17B
100
AcDbEntity
  8
BEMASSUNG
 62
     3
100
AcDbMText
 10
116.8245452363476
 20
232.409855451815
 30
0.0
 40
4.349999999999999
 41
0.0
 71
     5
 72
     1
  1
\A1;75
  7
ARIAL-STANDARD
 11
0.0000000000000001
 21
1.0
 31
0.0
 73
     1
 44
1.0
1001
ACAD
1000
MTEXTBEGIN
1070
    73
1070
     1
1070
    44
1040
1.0
1070
    74
1070
     0
1000
MTEXTEND
  0
POINT
  5
183
330
17B
100
AcDbEntity
  8
DEFPOINTS
 62
     0
100
AcDbPoint
 10
94.47740391317609
 20
269.9098554518145
 30
0.0
  0
POINT
  5
184
330
17B
100
AcDbEntity
  8
DEFPOINTS
 62
     0
100
AcDbPoint
 10
100.977403913176
 20
194.9098554518154
 30
0.0
  0
POINT
  5
185
330
17B
100
AcDbEntity
  8
DEFPOINTS
 62
     0
100
AcDbPoint
 10
120.0366359594035
 20
194.9098554518154
 30
0.0
  0
ENDBLK
  5
186
330
17B
100
AcDbEntity
  8
0
100
AcDbBlockEnd
  0
BLOCK
  5
16F
330
16E
100
AcDbEntity
  8
0
100
AcDbBlockBegin
  2
*D11
 70
     1
 10
0.0
 20
0.0
 30
0.0
  3
*D11
  1

  0
LINE
  5
170
330
16E
100
AcDbEntity
  8
BEMASSUNG
 62
     2
370
    -2
100
AcDbLine
 10
94.47740391317609
 20
269.9098554518145
 30
0.0
 11
121.0366359594035
 21
269.9098554518145
 31
0.0
  0
LINE
  5
171
330
16E
100
AcDbEntity
  8
BEMASSUNG
 62
     2
370
    -2
100
AcDbLine
 10
94.47740391317603
 20
316.9098554518145
 30
0.0
 11
121.0366359594035
 21
316.9098554518145
 31
0.0
  0
LINE
  5
172
330
16E
100
AcDbEntity
  8
BEMASSUNG
 62
     2
370
    -2
100
AcDbLine
 10
120.0366359594035
 20
273.9098554518145
 30
0.0
 11
120.0366359594035
 21
312.9098554518145
 31
0.0
  0
SOLID
  5
173
330
16E
100
AcDbEntity
  8
BEMASSUNG
 62
     2
100
AcDbTrace
 10
119.3699692927368
 20
273.9098554518145
 30
0.0
 11
120.7033026260702
 21
273.9098554518145
 31
0.0
 12
120.0366359594035
 22
269.9098554518145
 32
0.0
 13
120.0366359594035
 23
269.9098554518145
 33
0.0
  0
SOLID
  5
174
330
16E
100
AcDbEntity
  8
BEMASSUNG
 62
     2
100
AcDbTrace
 10
119.3699692927369
 20
312.9098554518145
 30
0.0
 11
120.7033026260702
 21
312.9098554518145
 31
0.0
 12
120.0366359594035
 22
316.9098554518145
 32
0.0
 13
120.0366359594035
 23
316.9098554518145
 33
0.0
  0
MTEXT
  5
175
330
16E
100
AcDbEntity
  8
BEMASSUNG
 62
     3
100
AcDbMText
 10
116.8616359594035
 20
293.4098554518145
 30
0.0
 40
4.349999999999999
 41
0.0
 71
     5
 72
     1
  1
\A1;47
  7
ARIAL-STANDARD
 11
0.0000000000000001
 21
1.0
 31
0.0
 73
     1
 44
1.0
1001
ACAD
1000
MTEXTBEGIN
1070
    73
1070
     1
1070
    44
1040
1.0
1070
    74
1070
     0
1000
MTEXTEND
  0
POINT
  5
176
330
16E
100
AcDbEntity
  8
DEFPOINTS
 62
     0
100
AcDbPoint
 10
94.47740391317609
 20
269.9098554518145
 30
0.0
  0
POINT
  5
177
330
16E
100
AcDbEntity
  8
DEFPOINTS
 62
     0
100
AcDbPoint
 10
94.47740391317603
 20
316.9098554518145
 30
0.0
  0
POINT
  5
178
330
16E
100
AcDbEntity
  8
DEFPOINTS
 62
     0
100
AcDbPoint
 10
120.0366359594035
 20
316.9098554518145
 30
0.0
  0
ENDBLK
  5
179
330
16E
100
AcDbEntity
  8
0
100
AcDbBlockEnd
  0
BLOCK
  5
162
330
161
100
AcDbEntity
  8
0
100
AcDbBlockBegin
  2
*D12
 70
     1
 10
0.0
 20
0.0
 30
0.0
  3
*D12
  1

  0
LINE
  5
163
330
161
100
AcDbEntity
  8
BEMASSUNG
 62
     2
370
    -2
100
AcDbLine
 10
100.977403913176
 20
194.9098554518154
 30
0.0
 11
132.8217107744178
 21
194.9098554518154
 31
0.0
  0
LINE
  5
164
330
161
100
AcDbEntity
  8
BEMASSUNG
 62
     2
370
    -2
100
AcDbLine
 10
100.977403913176
 20
464.9098554518154
 30
0.0
 11
132.8217107744178
 21
464.9098554518153
 31
0.0
  0
LINE
  5
165
330
161
100
AcDbEntity
  8
BEMASSUNG
 62
     2
370
    -2
100
AcDbLine
 10
131.8217107744178
 20
198.9098554518155
 30
0.0
 11
131.8217107744178
 21
460.9098554518153
 31
0.0
  0
SOLID
  5
166
330
161
100
AcDbEntity
  8
BEMASSUNG
 62
     2
100
AcDbTrace
 10
131.1550441077511
 20
198.9098554518155
 30
0.0
 11
132.4883774410844
 21
198.9098554518155
 31
0.0
 12
131.8217107744178
 22
194.9098554518154
 32
0.0
 13
131.8217107744178
 23
194.9098554518154
 33
0.0
  0
SOLID
  5
167
330
161
100
AcDbEntity
  8
BEMASSUNG
 62
     2
100
AcDbTrace
 10
131.1550441077512
 20
460.9098554518153
 30
0.0
 11
132.4883774410845
 21
460.9098554518153
 31
0.0
 12
131.8217107744178
 22
464.9098554518153
 32
0.0
 13
131.8217107744178
 23
464.9098554518153
 33
0.0
  0
MTEXT
  5
168
330
161
100
AcDbEntity
  8
BEMASSUNG
 62
     3
100
AcDbMText
 10
128.6007182778284
 20
329.9098554518155
 30
0.0
 40
4.349999999999999
 41
0.0
 71
     5
 72
     1
  1
\A1;270
  7
ARIAL-STANDARD
 11
0.0000000000000001
 21
1.0
 31
0.0
 73
     1
 44
1.0
1001
ACAD
1000
MTEXTBEGIN
1070
    73
1070
     1
1070
    44
1040
1.0
1070
    74
1070
     0
1000
MTEXTEND
  0
POINT
  5
169
330
161
100
AcDbEntity
  8
DEFPOINTS
 62
     0
100
AcDbPoint
 10
100.977403913176
 20
194.9098554518154
 30
0.0
  0
POINT
  5
16A
330
161
100
AcDbEntity
  8
DEFPOINTS
 62
     0
100
AcDbPoint
 10
100.977403913176
 20
464.9098554518154
 30
0.0
  0
POINT
  5
16B
330
161
100
AcDbEntity
  8
DEFPOINTS
 62
     0
100
AcDbPoint
 10
131.8217107744178
 20
464.9098554518153
 30
0.0
  0
ENDBLK
  5
16C
330
161
100
AcDbEntity
  8
0
100
AcDbBlockEnd
  0
BLOCK
  5
155
330
154
100
AcDbEntity
  8
0
100
AcDbBlockBegin
  2
*D13
 70
     1
 10
0.0
 20
0.0
 30
0.0
  3
*D13
  1

  0
LINE
  5
156
330
154
100
AcDbEntity
  8
BEMASSUNG
 62
     2
370
    -2
100
AcDbLine
 10
76.97740391317603
 20
194.9098554518154
 30
0.0
 11
76.97740391317603
 21
182.4622864535351
 31
0.0
  0
LINE
  5
157
330
154
100
AcDbEntity
  8
BEMASSUNG
 62
     2
370
    -2
100
AcDbLine
 10
100.977403913176
 20
194.9098554518154
 30
0.0
 11
100.977403913176
 21
182.4622864535351
 31
0.0
  0
LINE
  5
158
330
154
100
AcDbEntity
  8
BEMASSUNG
 62
     2
370
    -2
100
AcDbLine
 10
80.97740391317604
 20
183.4622864535351
 30
0.0
 11
96.97740391317603
 21
183.4622864535351
 31
0.0
  0
SOLID
  5
159
330
154
100
AcDbEntity
  8
BEMASSUNG
 62
     2
100
AcDbTrace
 10
80.97740391317604
 20
184.1289531202018
 30
0.0
 11
80.97740391317604
 21
182.7956197868685
 31
0.0
 12
76.97740391317603
 22
183.4622864535351
 32
0.0
 13
76.97740391317603
 23
183.4622864535351
 33
0.0
  0
SOLID
  5
15A
330
154
100
AcDbEntity
  8
BEMASSUNG
 62
     2
100
AcDbTrace
 10
96.97740391317603
 20
184.1289531202018
 30
0.0
 11
96.97740391317603
 21
182.7956197868685
 31
0.0
 12
100.977403913176
 22
183.4622864535351
 32
0.0
 13
100.977403913176
 23
183.4622864535351
 33
0.0
  0
MTEXT
  5
15B
330
154
100
AcDbEntity
  8
BEMASSUNG
 62
     3
100
AcDbMText
 10
89.39301164670537
 20
186.6461882270686
 30
0.0
 40
4.349999999999999
 41
0.0
 71
     5
 72
     1
  1
\A1;24
  7
ARIAL-STANDARD
 73
     1
 44
1.0
1001
ACAD
1000
MTEXTBEGIN
1070
    73
1070
     1
1070
    44
1040
1.0
1070
    74
1070
     0
1000
MTEXTEND
  0
POINT
  5
15C
330
154
100
AcDbEntity
  8
DEFPOINTS
 62
     0
100
AcDbPoint
 10
76.97740391317603
 20
194.9098554518154
 30
0.0
  0
POINT
  5
15D
330
154
100
AcDbEntity
  8
DEFPOINTS
 62
     0
100
AcDbPoint
 10
100.977403913176
 20
194.9098554518154
 30
0.0
  0
POINT
  5
15E
330
154
100
AcDbEntity
  8
DEFPOINTS
 62
     0
100
AcDbPoint
 10
100.977403913176
 20
183.4622864535351
 30
0.0
  0
ENDBLK
  5
15F
330
154
100
AcDbEntity
  8
0
100
AcDbBlockEnd
  0
BLOCK
  5
148
330
147
100
AcDbEntity
  8
0
100
AcDbBlockBegin
  2
*D14
 70
     1
 10
0.0
 20
0.0
 30
0.0
  3
*D14
  1

  0
LINE
  5
149
330
147
100
AcDbEntity
  8
BEMASSUNG
 62
     2
370
    -2
100
AcDbLine
 10
81.47740391317602
 20
271.9098554518145
 30
0.0
 11
81.47740391317602
 21
238.9435431617393
 31
0.0
  0
LINE
  5
14A
330
147
100
AcDbEntity
  8
BEMASSUNG
 62
     2
370
    -2
100
AcDbLine
 10
96.4774039131761
 20
271.9098554518145
 30
0.0
 11
96.4774039131761
 21
238.9435431617393
 31
0.0
  0
LINE
  5
14B
330
147
100
AcDbEntity
  8
BEMASSUNG
 62
     2
370
    -2
100
AcDbLine
 10
85.47740391317603
 20
239.9435431617393
 30
0.0
 11
92.47740391317609
 21
239.9435431617393
 31
0.0
  0
SOLID
  5
14C
330
147
100
AcDbEntity
  8
BEMASSUNG
 62
     2
100
AcDbTrace
 10
85.47740391317603
 20
240.6102098284059
 30
0.0
 11
85.47740391317603
 21
239.2768764950726
 31
0.0
 12
81.47740391317602
 22
239.9435431617393
 32
0.0
 13
81.47740391317602
 23
239.9435431617393
 33
0.0
  0
SOLID
  5
14D
330
147
100
AcDbEntity
  8
BEMASSUNG
 62
     2
100
AcDbTrace
 10
92.47740391317609
 20
240.6102098284059
 30
0.0
 11
92.47740391317609
 21
239.2768764950726
 31
0.0
 12
96.4774039131761
 22
239.9435431617393
 32
0.0
 13
96.4774039131761
 23
239.9435431617393
 33
0.0
  0
MTEXT
  5
14E
330
147
100
AcDbEntity
  8
BEMASSUNG
 62
     3
100
AcDbMText
 10
88.9774039131761
 20
243.1645356583286
 30
0.0
 40
4.349999999999999
 41
0.0
 71
     5
 72
     1
  1
\A1;15
  7
ARIAL-STANDARD
 73
     1
 44
1.0
1001
ACAD
1000
MTEXTBEGIN
1070
    73
1070
     1
1070
    44
1040
1.0
1070
    74
1070
     0
1000
MTEXTEND
  0
POINT
  5
14F
330
147
100
AcDbEntity
  8
DEFPOINTS
 62
     0
100
AcDbPoint
 10
81.47740391317602
 20
271.9098554518145
 30
0.0
  0
POINT
  5
150
330
147
100
AcDbEntity
  8
DEFPOINTS
 62
     0
100
AcDbPoint
 10
96.4774039131761
 20
271.9098554518145
 30
0.0
  0
POINT
  5
151
330
147
100
AcDbEntity
  8
DEFPOINTS
 62
     0
100
AcDbPoint
 10
96.4774039131761
 20
239.9435431617393
 30
0.0
  0
ENDBLK
  5
152
330
147
100
AcDbEntity
  8
0
100
AcDbBlockEnd
  0
BLOCK
  5
F2
330
F1
100
AcDbEntity
  8
0
100
AcDbBlockBegin
  2
*D15
 70
     1
 10
0.0
 20
0.0
 30
0.0
  3
*D15
  1

  0
LINE
  5
F3
330
F1
100
AcDbEntity
  8
BEMASSUNG
 62
     2
370
    -2
100
AcDbLine
 10
179.8423485725827
 20
362.4098554518147
 30
0.0
 11
158.4241530357396
 21
362.4098554518147
 31
0.0
  0
LINE
  5
F4
330
F1
100
AcDbEntity
  8
BEMASSUNG
 62
     2
370
    -2
100
AcDbLine
 10
179.8423485725827
 20
424.4098554518146
 30
0.0
 11
158.4241530357396
 21
424.4098554518146
 31
0.0
  0
LINE
  5
F5
330
F1
100
AcDbEntity
  8
BEMASSUNG
 62
     2
370
    -2
100
AcDbLine
 10
159.4241530357396
 20
366.4098554518147
 30
0.0
 11
159.4241530357396
 21
420.4098554518146
 31
0.0
  0
SOLID
  5
F6
330
F1
100
AcDbEntity
  8
BEMASSUNG
 62
     2
100
AcDbTrace
 10
158.7574863690729
 20
366.4098554518147
 30
0.0
 11
160.0908197024062
 21
366.4098554518147
 31
0.0
 12
159.4241530357396
 22
362.4098554518147
 32
0.0
 13
159.4241530357396
 23
362.4098554518147
 33
0.0
  0
SOLID
  5
F7
330
F1
100
AcDbEntity
  8
BEMASSUNG
 62
     2
100
AcDbTrace
 10
158.7574863690729
 20
420.4098554518146
 30
0.0
 11
160.0908197024062
 21
420.4098554518146
 31
0.0
 12
159.4241530357396
 22
424.4098554518146
 32
0.0
 13
159.4241530357396
 23
424.4098554518146
 33
0.0
  0
MTEXT
  5
F8
330
F1
100
AcDbEntity
  8
BEMASSUNG
 62
     3
100
AcDbMText
 10
156.2031605391502
 20
393.4098554518147
 30
0.0
 40
4.349999999999999
 41
0.0
 71
     5
 72
     1
  1
\A1;62
  7
ARIAL-STANDARD
 11
0.0000000000000001
 21
1.0
 31
0.0
 73
     1
 44
1.0
1001
ACAD
1000
MTEXTBEGIN
1070
    73
1070
     1
1070
    44
1040
1.0
1070
    74
1070
     0
1000
MTEXTEND
  0
POINT
  5
F9
330
F1
100
AcDbEntity
  8
DEFPOINTS
 62
     0
100
AcDbPoint
 10
179.8423485725827
 20
362.4098554518147
 30
0.0
  0
POINT
  5
FA
330
F1
100
AcDbEntity
  8
DEFPOINTS
 62
     0
100
AcDbPoint
 10
179.8423485725827
 20
424.4098554518146
 30
0.0
  0
POINT
  5
FB
330
F1
100
AcDbEntity
  8
DEFPOINTS
 62
     0
100
AcDbPoint
 10
159.4241530357396
 20
424.4098554518146
 30
0.0
  0
ENDBLK
  5
FC
330
F1
100
AcDbEntity
  8
0
100
AcDbBlockEnd
  0
BLOCK
  5
E5
330
E4
100
AcDbEntity
  8
0
100
AcDbBlockBegin
  2
*D16
 70
     1
 10
0.0
 20
0.0
 30
0.0
  3
*D16
  1

  0
LINE
  5
E6
330
E4
100
AcDbEntity
  8
BEMASSUNG
 62
     2
370
    -2
100
AcDbLine
 10
179.8423485725827
 20
362.4098554518148
 30
0.0
 11
179.8423485725827
 21
332.2450450681416
 31
0.0
  0
LINE
  5
E7
330
E4
100
AcDbEntity
  8
BEMASSUNG
 62
     2
370
    -2
100
AcDbLine
 10
190.8423485725783
 20
332.3685946539596
 30
0.0
 11
190.8423485725783
 21
334.2450450681416
 31
0.0
  0
LINE
  5
E8
330
E4
100
AcDbEntity
  8
BEMASSUNG
 62
     2
370
    -2
100
AcDbLine
 10
183.8423485725827
 20
333.2450450681416
 30
0.0
 11
186.8423485725783
 21
333.2450450681416
 31
0.0
  0
SOLID
  5
E9
330
E4
100
AcDbEntity
  8
BEMASSUNG
 62
     2
100
AcDbTrace
 10
183.8423485725827
 20
333.9117117348083
 30
0.0
 11
183.8423485725827
 21
332.5783784014749
 31
0.0
 12
179.8423485725827
 22
333.2450450681416
 32
0.0
 13
179.8423485725827
 23
333.2450450681416
 33
0.0
  0
SOLID
  5
EA
330
E4
100
AcDbEntity
  8
BEMASSUNG
 62
     2
100
AcDbTrace
 10
186.8423485725783
 20
333.9117117348083
 30
0.0
 11
186.8423485725783
 21
332.5783784014749
 31
0.0
 12
190.8423485725783
 22
333.2450450681416
 32
0.0
 13
190.8423485725783
 23
333.2450450681416
 33
0.0
  0
MTEXT
  5
EB
330
E4
100
AcDbEntity
  8
BEMASSUNG
 62
     3
100
AcDbMText
 10
185.3423485725805
 20
336.4289468416751
 30
0.0
 40
4.349999999999999
 41
0.0
 71
     5
 72
     1
  1
\A1;11
  7
ARIAL-STANDARD
 73
     1
 44
1.0
1001
ACAD
1000
MTEXTBEGIN
1070
    73
1070
     1
1070
    44
1040
1.0
1070
    74
1070
     0
1000
MTEXTEND
  0
POINT
  5
EC
330
E4
100
AcDbEntity
  8
DEFPOINTS
 62
     0
100
AcDbPoint
 10
179.8423485725827
 20
362.4098554518148
 30
0.0
  0
POINT
  5
ED
330
E4
100
AcDbEntity
  8
DEFPOINTS
 62
     0
100
AcDbPoint
 10
190.8423485725783
 20
332.3685946539596
 30
0.0
  0
POINT
  5
EE
330
E4
100
AcDbEntity
  8
DEFPOINTS
 62
     0
100
AcDbPoint
 10
190.8423485725783
 20
333.2450450681416
 30
0.0
  0
ENDBLK
  5
EF
330
E4
100
AcDbEntity
  8
0
100
AcDbBlockEnd
  0
BLOCK
  5
CF
330
CE
100
AcDbEntity
  8
0
100
AcDbBlockBegin
  2
*D17
 70
     1
 10
0.0
 20
0.0
 30
0.0
  3
*D17
  1

  0
LINE
  5
D0
330
CE
100
AcDbEntity
  8
BEMASSUNG
 62
     2
370
    -2
100
AcDbLine
 10
196.8423485725818
 20
194.9098554518145
 30
0.0
 11
196.8423485725818
 21
182.4849590896668
 31
0.0
  0
LINE
  5
D1
330
CE
100
AcDbEntity
  8
BEMASSUNG
 62
     2
370
    -2
100
AcDbLine
 10
190.8423485725783
 20
194.9098554518145
 30
0.0
 11
190.8423485725783
 21
182.4849590896668
 31
0.0
  0
LINE
  5
D2
330
CE
100
AcDbEntity
  8
BEMASSUNG
 62
     2
370
    -2
100
AcDbLine
 10
200.8423485725818
 20
183.4849590896668
 30
0.0
 11
204.8423485725818
 21
183.4849590896668
 31
0.0
  0
LINE
  5
D3
330
CE
100
AcDbEntity
  8
BEMASSUNG
 62
     2
370
    -2
100
AcDbLine
 10
186.8423485725783
 20
183.4849590896668
 30
0.0
 11
182.8423485725783
 21
183.4849590896668
 31
0.0
  0
LINE
  5
D4
330
CE
100
AcDbEntity
  8
BEMASSUNG
 62
     2
370
    -2
100
AcDbLine
 10
196.8423485725818
 20
183.4849590896668
 30
0.0
 11
190.8423485725783
 21
183.4849590896668
 31
0.0
  0
SOLID
  5
D5
330
CE
100
AcDbEntity
  8
BEMASSUNG
 62
     2
100
AcDbTrace
 10
200.8423485725818
 20
184.1516257563335
 30
0.0
 11
200.8423485725818
 21
182.8182924230002
 31
0.0
 12
196.8423485725818
 22
183.4849590896668
 32
0.0
 13
196.8423485725818
 23
183.4849590896668
 33
0.0
  0
SOLID
  5
D6
330
CE
100
AcDbEntity
  8
BEMASSUNG
 62
     2
100
AcDbTrace
 10
186.8423485725783
 20
184.1516257563335
 30
0.0
 11
186.8423485725783
 21
182.8182924230002
 31
0.0
 12
190.8423485725783
 22
183.4849590896668
 32
0.0
 13
190.8423485725783
 23
183.4849590896668
 33
0.0
  0
MTEXT
  5
D7
330
CE
100
AcDbEntity
  8
BEMASSUNG
 62
     3
100
AcDbMText
 10
193.8423485725801
 20
186.7059515862562
 30
0.0
 40
4.349999999999999
 41
0.0
 71
     5
 72
     1
  1
\A1;6
  7
ARIAL-STANDARD
 73
     1
 44
1.0
1001
ACAD
1000
MTEXTBEGIN
1070
    73
1070
     1
1070
    44
1040
1.0
1070
    74
1070
     0
1000
MTEXTEND
  0
POINT
  5
D8
330
CE
100
AcDbEntity
  8
DEFPOINTS
 62
     0
100
AcDbPoint
 10
196.8423485725818
 20
194.9098554518145
 30
0.0
  0
POINT
  5
D9
330
CE
100
AcDbEntity
  8
DEFPOINTS
 62
     0
100
AcDbPoint
 10
190.8423485725783
 20
194.9098554518145
 30
0.0
  0
POINT
  5
DA
330
CE
100
AcDbEntity
  8
DEFPOINTS
 62
     0
100
AcDbPoint
 10
190.8423485725783
 20
183.4849590896668
 30
0.0
  0
ENDBLK
  5
DB
330
CE
100
AcDbEntity
  8
0
100
AcDbBlockEnd
  0
BLOCK
  5
B7
330
B6
100
AcDbEntity
  8
0
100
AcDbBlockBegin
  2
*D18
 70
     1
 10
0.0
 20
0.0
 30
0.0
  3
*D18
  1

  0
LINE
  5
B8
330
B6
100
AcDbEntity
  8
UMRISS05
 62
     2
370
    -2
100
AcDbLine
 10
80.95797095006252
 20
393.4098554518148
 30
0.0
 11
64.66039272718228
 21
393.4098554518148
 31
0.0
  0
LINE
  5
B9
330
B6
100
AcDbEntity
  8
UMRISS05
 62
     2
370
    -2
100
AcDbLine
 10
67.12807640354316
 20
349.4098554518148
 30
0.0
 11
64.66039272718226
 21
349.4098554518148
 31
0.0
  0
LINE
  5
BA
330
B6
100
AcDbEntity
  8
UMRISS05
 62
     2
370
    -2
100
AcDbLine
 10
65.66039272718228
 20
389.4098554518149
 30
0.0
 11
65.66039272718228
 21
353.4098554518148
 31
0.0
  0
SOLID
  5
BB
330
B6
100
AcDbEntity
  8
UMRISS05
 62
     2
100
AcDbTrace
 10
64.99372606051561
 20
389.4098554518149
 30
0.0
 11
66.32705939384895
 21
389.4098554518149
 31
0.0
 12
65.66039272718228
 22
393.4098554518148
 32
0.0
 13
65.66039272718228
 23
393.4098554518148
 33
0.0
  0
SOLID
  5
BC
330
B6
100
AcDbEntity
  8
UMRISS05
 62
     2
100
AcDbTrace
 10
64.99372606051561
 20
353.4098554518148
 30
0.0
 11
66.32705939384895
 21
353.4098554518148
 31
0.0
 12
65.66039272718227
 22
349.4098554518148
 32
0.0
 13
65.66039272718227
 23
349.4098554518148
 33
0.0
  0
MTEXT
  5
BD
330
B6
100
AcDbEntity
  8
UMRISS05
 62
     3
100
AcDbMText
 10
62.48539272718222
 20
373.4098554518149
 30
0.0
 40
4.349999999999999
 41
0.0
 71
     5
 72
     1
  1
\A1;44
  7
ARIAL-STANDARD
 11
0.0000000000000001
 21
1.0
 31
0.0
 73
     1
 44
1.0
1001
ACAD
1000
MTEXTBEGIN
1070
    73
1070
     1
1070
    44
1040
1.0
1070
    74
1070
     0
1000
MTEXTEND
  0
POINT
  5
BE
330
B6
100
AcDbEntity
  8
DEFPOINTS
 62
     0
100
AcDbPoint
 10
80.95797095006252
 20
393.4098554518148
 30
0.0
  0
POINT
  5
BF
330
B6
100
AcDbEntity
  8
DEFPOINTS
 62
     0
100
AcDbPoint
 10
67.12807640354316
 20
349.4098554518148
 30
0.0
  0
POINT
  5
C0
330
B6
100
AcDbEntity
  8
DEFPOINTS
 62
     0
100
AcDbPoint
 10
65.66039272718227
 20
349.4098554518148
 30
0.0
  0
ENDBLK
  5
C1
330
B6
100
AcDbEntity
  8
0
100
AcDbBlockEnd
  0
BLOCK
  5
AA
330
A9
100
AcDbEntity
  8
0
100
AcDbBlockBegin
  2
*D19
 70
     1
 10
0.0
 20
0.0
 30
0.0
  3
*D19
  1

  0
LINE
  5
AB
330
A9
100
AcDbEntity
  8
UMRISS05
 62
     2
370
    -2
100
AcDbLine
 10
67.12807640354316
 20
349.4098554518148
 30
0.0
 11
64.66039272718228
 21
349.4098554518148
 31
0.0
  0
LINE
  5
AC
330
A9
100
AcDbEntity
  8
UMRISS05
 62
     2
370
    -2
100
AcDbLine
 10
79.45797095006281
 20
293.4098554518148
 30
0.0
 11
64.66039272718228
 21
293.4098554518148
 31
0.0
  0
LINE
  5
AD
330
A9
100
AcDbEntity
  8
UMRISS05
 62
     2
370
    -2
100
AcDbLine
 10
65.66039272718228
 20
345.4098554518148
 30
0.0
 11
65.66039272718228
 21
297.4098554518148
 31
0.0
  0
SOLID
  5
AE
330
A9
100
AcDbEntity
  8
UMRISS05
 62
     2
100
AcDbTrace
 10
64.99372606051561
 20
345.4098554518148
 30
0.0
 11
66.32705939384895
 21
345.4098554518148
 31
0.0
 12
65.66039272718228
 22
349.4098554518148
 32
0.0
 13
65.66039272718228
 23
349.4098554518148
 33
0.0
  0
SOLID
  5
AF
330
A9
100
AcDbEntity
  8
UMRISS05
 62
     2
100
AcDbTrace
 10
64.99372606051561
 20
297.4098554518148
 30
0.0
 11
66.32705939384895
 21
297.4098554518148
 31
0.0
 12
65.66039272718228
 22
293.4098554518148
 32
0.0
 13
65.66039272718228
 23
293.4098554518148
 33
0.0
  0
MTEXT
  5
B0
330
A9
100
AcDbEntity
  8
UMRISS05
 62
     3
100
AcDbMText
 10
62.43940023059288
 20
321.4098554518148
 30
0.0
 40
4.349999999999999
 41
0.0
 71
     5
 72
     1
  1
\A1;56
  7
ARIAL-STANDARD
 11
0.0000000000000001
 21
1.0
 31
0.0
 73
     1
 44
1.0
1001
ACAD
1000
MTEXTBEGIN
1070
    73
1070
     1
1070
    44
1040
1.0
1070
    74
1070
     0
1000
MTEXTEND
  0
POINT
  5
B1
330
A9
100
AcDbEntity
  8
DEFPOINTS
 62
     0
100
AcDbPoint
 10
67.12807640354316
 20
349.4098554518148
 30
0.0
  0
POINT
  5
B2
330
A9
100
AcDbEntity
  8
DEFPOINTS
 62
     0
100
AcDbPoint
 10
79.45797095006281
 20
293.4098554518148
 30
0.0
  0
POINT
  5
B3
330
A9
100
AcDbEntity
  8
DEFPOINTS
 62
     0
100
AcDbPoint
 10
65.66039272718228
 20
293.4098554518148
 30
0.0
  0
ENDBLK
  5
B4
330
A9
100
AcDbEntity
  8
0
100
AcDbBlockEnd
  0
BLOCK
  5
278
330
277
100
AcDbEntity
  8
0
100
AcDbBlockBegin
  2
_ACMFILLED30
 70
     0
 10
0.0
 20
0.0
 30
0.0
  3
_ACMFILLED30
  1

  0
TRACE
  5
279
330
277
100
AcDbEntity
  8
UMRISS05
 62
     0
100
AcDbTrace
 10
-1.0
 20
-0.26794919
 30
0.0
 11
-1.0
 21
0.26794919
 31
0.0
 12
0.0
 22
0.0
 32
0.0
 13
0.0
 23
0.0
 33
0.0
  0
ENDBLK
  5
27A
330
277
100
AcDbEntity
  8
0
100
AcDbBlockEnd
  0
BLOCK
  5
70
330
6F
100
AcDbEntity
  8
0
100
AcDbBlockBegin
  2
*D21
 70
     1
 10
0.0
 20
0.0
 30
0.0
  3
*D21
  1

  0
LINE
  5
71
330
6F
100
AcDbEntity
  8
AM_5
 62
     2
370
    -2
100
AcDbLine
 10
95.97740391317598
 20
416.3598554518144
 30
0.0
 11
95.97740391317598
 21
430.4098554518145
 31
0.0
  0
LINE
  5
72
330
6F
100
AcDbEntity
  8
AM_5
 62
     2
370
    -2
100
AcDbLine
 10
100.977403913176
 20
417.4098554518145
 30
0.0
 11
100.977403913176
 21
430.4098554518145
 31
0.0
  0
LINE
  5
73
330
6F
100
AcDbEntity
  8
AM_5
 62
     2
370
    -2
100
AcDbLine
 10
91.97740391317598
 20
429.4098554518146
 30
0.0
 11
87.97740391317597
 21
429.4098554518146
 31
0.0
  0
LINE
  5
74
330
6F
100
AcDbEntity
  8
AM_5
 62
     2
370
    -2
100
AcDbLine
 10
104.977403913176
 20
429.4098554518146
 30
0.0
 11
108.977403913176
 21
429.4098554518146
 31
0.0
  0
LINE
  5
75
330
6F
100
AcDbEntity
  8
AM_5
 62
     2
370
    -2
100
AcDbLine
 10
95.97740391317598
 20
429.4098554518146
 30
0.0
 11
100.977403913176
 21
429.4098554518146
 31
0.0
  0
SOLID
  5
76
330
6F
100
AcDbEntity
  8
AM_5
 62
     2
100
AcDbTrace
 10
91.97740391317598
 20
430.0765221184812
 30
0.0
 11
91.97740391317598
 21
428.7431887851479
 31
0.0
 12
95.97740391317598
 22
429.4098554518146
 32
0.0
 13
95.97740391317598
 23
429.4098554518146
 33
0.0
  0
SOLID
  5
77
330
6F
100
AcDbEntity
  8
AM_5
 62
     2
100
AcDbTrace
 10
104.977403913176
 20
430.0765221184812
 30
0.0
 11
104.977403913176
 21
428.7431887851479
 31
0.0
 12
100.977403913176
 22
429.4098554518146
 32
0.0
 13
100.977403913176
 23
429.4098554518146
 33
0.0
  0
MTEXT
  5
78
330
6F
100
AcDbEntity
  8
AM_5
 62
     3
100
AcDbMText
 10
98.477403913176
 20
432.6219461748705
 30
0.0
 40
4.349999999999999
 41
0.0
 71
     5
 72
     1
  1
\A1;5
  7
ARIAL-STANDARD
 73
     1
 44
1.0
1001
ACAD
1000
MTEXTBEGIN
1070
    73
1070
     1
1070
    44
1040
1.0
1070
    74
1070
     0
1000
MTEXTEND
  0
POINT
  5
79
330
6F
100
AcDbEntity
  8
DEFPOINTS
 62
     0
100
AcDbPoint
 10
95.97740391317598
 20
416.3598554518144
 30
0.0
  0
POINT
  5
7B
330
6F
100
AcDbEntity
  8
DEFPOINTS
 62
     0
100
AcDbPoint
 10
100.977403913176
 20
417.4098554518145
 30
0.0
  0
POINT
  5
7C
330
6F
100
AcDbEntity
  8
DEFPOINTS
 62
     0
100
AcDbPoint
 10
100.977403913176
 20
429.4098554518146
 30
0.0
  0
ENDBLK
  5
7D
330
6F
100
AcDbEntity
  8
0
100
AcDbBlockEnd
  0
ENDSEC
  0
SECTION
  2
ENTITIES
  0
DIMENSION
  5
6C
330
2
100
AcDbEntity
  8
AM_5
100
AcDbDimension
  2
*D21
 10
100.977403913176
 20
429.4098554518146
 30
0.0
 11
98.477403913176
 21
432.6219461748705
 31
0.0
 71
     5
 42
5.000000000000056
  3
Katalog 09$0
100
AcDbAlignedDimension
 13
95.97740391317598
 23
416.3598554518144
 33
0.0
 14
100.977403913176
 24
417.4098554518145
 34
0.0
100
AcDbRotatedDimension
1001
ACAD_DSTYLE_DIMINSPECT
1070
   396
1000
100%
1070
   395
1000

1070
   394
1070
    33
1070
   393
1070
     0
  0
CIRCLE
  5
80
330
2
100
AcDbEntity
  8
UMRISS05
100
AcDbCircle
 10
90.77740391317604
 20
377.9098554518147
 30
0.0
 40
4.0
  0
CIRCLE
  5
81
330
2
100
AcDbEntity
  8
UMRISS05
100
AcDbCircle
 10
90.77740391317604
 20
408.9098554518145
 30
0.0
 40
4.0
  0
LINE
  5
82
330
2
100
AcDbEntity
  8
ACHSEN
100
AcDbLine
 10
199.6055296525162
 20
252.4098554518145
 30
0.0
 11
189.9419376797048
 21
252.4098554518146
 31
0.0
  0
LINE
  5
87
330
2
100
AcDbEntity
  8
ACHSEN
100
AcDbLine
 10
199.6055296525162
 20
263.4098554518145
 30
0.0
 11
189.9419376797048
 21
263.4098554518145
 31
0.0
  0
LINE
  5
88
330
2
100
AcDbEntity
  8
UMRISS05
100
AcDbLine
 10
92.77740391317605
 20
377.6098554518147
 30
0.0
 11
91.07740391317605
 21
377.6098554518147
 31
0.0
  0
LINE
  5
89
330
2
100
AcDbEntity
  8
UMRISS05
100
AcDbLine
 10
88.77740391317605
 20
377.6098554518147
 30
0.0
 11
88.77740391317605
 21
378.2098554518147
 31
0.0
  0
LINE
  5
8A
330
2
100
AcDbEntity
  8
UMRISS05
100
AcDbLine
 10
91.07740391317605
 20
378.2098554518147
 30
0.0
 11
92.77740391317605
 21
378.2098554518147
 31
0.0
  0
LINE
  5
8B
330
2
100
AcDbEntity
  8
UMRISS05
100
AcDbLine
 10
92.77740391317605
 20
378.2098554518147
 30
0.0
 11
92.77740391317605
 21
377.6098554518147
 31
0.0
  0
LINE
  5
8C
330
2
100
AcDbEntity
  8
UMRISS05
100
AcDbLine
 10
90.47740391317603
 20
377.6098554518147
 30
0.0
 11
88.77740391317605
 21
377.6098554518147
 31
0.0
  0
LINE
  5
8D
330
2
100
AcDbEntity
  8
UMRISS05
100
AcDbLine
 10
88.77740391317605
 20
378.2098554518147
 30
0.0
 11
90.47740391317603
 21
378.2098554518147
 31
0.0
  0
LINE
  5
8E
330
2
100
AcDbEntity
  8
UMRISS05
100
AcDbLine
 10
91.07740391317605
 20
375.9098554518147
 30
0.0
 11
90.47740391317603
 21
375.9098554518147
 31
0.0
  0
LINE
  5
8F
330
2
100
AcDbEntity
  8
UMRISS05
100
AcDbLine
 10
90.47740391317603
 20
378.2098554518147
 30
0.0
 11
90.47740391317603
 21
379.9098554518147
 31
0.0
  0
LINE
  5
90
330
2
100
AcDbEntity
  8
UMRISS05
100
AcDbLine
 10
90.47740391317603
 20
379.9098554518147
 30
0.0
 11
91.07740391317605
 21
379.9098554518147
 31
0.0
  0
LINE
  5
91
330
2
100
AcDbEntity
  8
UMRISS05
100
AcDbLine
 10
90.47740391317603
 20
375.9098554518147
 30
0.0
 11
90.47740391317603
 21
377.6098554518147
 31
0.0
  0
LINE
  5
92
330
2
100
AcDbEntity
  8
UMRISS05
100
AcDbLine
 10
91.07740391317605
 20
379.9098554518147
 30
0.0
 11
91.07740391317605
 21
378.2098554518147
 31
0.0
  0
LINE
  5
93
330
2
100
AcDbEntity
  8
UMRISS05
100
AcDbLine
 10
91.07740391317605
 20
377.6098554518147
 30
0.0
 11
91.07740391317605
 21
375.9098554518147
 31
0.0
  0
LINE
  5
94
330
2
100
AcDbEntity
  8
UMRISS05
100
AcDbLine
 10
92.77740391317605
 20
408.6098554518145
 30
0.0
 11
91.07740391317605
 21
408.6098554518145
 31
0.0
  0
LINE
  5
95
330
2
100
AcDbEntity
  8
UMRISS05
100
AcDbLine
 10
88.77740391317605
 20
408.6098554518145
 30
0.0
 11
88.77740391317605
 21
409.2098554518145
 31
0.0
  0
LINE
  5
96
330
2
100
AcDbEntity
  8
UMRISS05
100
AcDbLine
 10
91.07740391317605
 20
409.2098554518145
 30
0.0
 11
92.77740391317605
 21
409.2098554518145
 31
0.0
  0
LINE
  5
97
330
2
100
AcDbEntity
  8
UMRISS05
100
AcDbLine
 10
92.77740391317605
 20
409.2098554518145
 30
0.0
 11
92.77740391317605
 21
408.6098554518145
 31
0.0
  0
LINE
  5
98
330
2
100
AcDbEntity
  8
UMRISS05
100
AcDbLine
 10
90.47740391317603
 20
408.6098554518145
 30
0.0
 11
88.77740391317605
 21
408.6098554518145
 31
0.0
  0
LINE
  5
99
330
2
100
AcDbEntity
  8
UMRISS05
100
AcDbLine
 10
88.77740391317605
 20
409.2098554518145
 30
0.0
 11
90.47740391317603
 21
409.2098554518145
 31
0.0
  0
LINE
  5
9A
330
2
100
AcDbEntity
  8
UMRISS05
100
AcDbLine
 10
91.07740391317605
 20
406.9098554518145
 30
0.0
 11
90.47740391317603
 21
406.9098554518145
 31
0.0
  0
LINE
  5
9B
330
2
100
AcDbEntity
  8
UMRISS05
100
AcDbLine
 10
90.47740391317603
 20
409.2098554518145
 30
0.0
 11
90.47740391317603
 21
410.9098554518145
 31
0.0
  0
LINE
  5
9C
330
2
100
AcDbEntity
  8
UMRISS05
100
AcDbLine
 10
90.47740391317603
 20
410.9098554518145
 30
0.0
 11
91.07740391317605
 21
410.9098554518145
 31
0.0
  0
LINE
  5
9D
330
2
100
AcDbEntity
  8
UMRISS05
100
AcDbLine
 10
90.47740391317603
 20
406.9098554518145
 30
0.0
 11
90.47740391317603
 21
408.6098554518145
 31
0.0
  0
LINE
  5
9E
330
2
100
AcDbEntity
  8
UMRISS05
100
AcDbLine
 10
91.07740391317605
 20
410.9098554518145
 30
0.0
 11
91.07740391317605
 21
409.2098554518145
 31
0.0
  0
LINE
  5
9F
330
2
100
AcDbEntity
  8
UMRISS05
100
AcDbLine
 10
91.07740391317605
 20
408.6098554518145
 30
0.0
 11
91.07740391317605
 21
406.9098554518145
 31
0.0
  0
LINE
  5
A0
330
2
100
AcDbEntity
  8
AVERDECKTE
100
AcDbLine
 10
78.97740391317256
 20
194.9098554518145
 30
0.0
 11
78.97740391317319
 21
464.9098554518145
 31
0.0
  0
LINE
  5
A5
330
2
100
AcDbEntity
  8
AVERDECKTE
100
AcDbLine
 10
98.97740391317309
 20
417.4098554518145
 30
0.0
 11
98.9774039131732
 21
464.9098554518145
 31
0.0
  0
LINE
  5
A6
330
2
100
AcDbEntity
  8
AVERDECKTE
100
AcDbLine
 10
98.97740391317256
 20
194.9098554518145
 30
0.0
 11
98.97740391317297
 21
369.4098554518145
 31
0.0
  0
LINE
  5
A7
330
2
100
AcDbEntity
  8
ACHSEN
100
AcDbLine
 10
78.95797095006258
 20
293.4098554518148
 30
0.0
 11
98.67780234011798
 21
293.4098554518148
 31
0.0
  0
DIMENSION
  5
A8
330
2
100
AcDbEntity
  8
UMRISS05
100
AcDbDimension
  2
*D19
 10
65.66039272718228
 20
293.4098554518148
 30
0.0
 11
62.43940023059288
 21
321.4098554518148
 31
0.0
 71
     5
 42
56.00000000000005
  3
Katalog 09
100
AcDbAlignedDimension
 13
67.12807640354316
 23
349.4098554518148
 33
0.0
 14
79.45797095006281
 24
293.4098554518148
 34
0.0
 50
90.0
100
AcDbRotatedDimension
1001
ACAD_DSTYLE_DIMINSPECT
1070
   396
1000
100%
1070
   395
1000

1070
   394
1070
    33
1070
   393
1070
     0
  0
DIMENSION
  5
B5
330
2
100
AcDbEntity
  8
UMRISS05
100
AcDbDimension
  2
*D18
 10
65.66039272718227
 20
349.4098554518148
 30
0.0
 11
65.66039272718223
 21
373.4098554518149
 31
0.0
 70
   128
 71
     5
 42
44.0
  3
Katalog 09
100
AcDbAlignedDimension
 13
80.95797095006252
 23
393.4098554518148
 33
0.0
 14
67.12807640354316
 24
349.4098554518148
 34
0.0
 50
90.0
100
AcDbRotatedDimension
1001
ACAD_DSTYLE_DIMINSPECT
1070
   396
1000
100%
1070
   395
1000

1070
   394
1070
    33
1070
   393
1070
     0
  0
LINE
  5
C2
330
2
100
AcDbEntity
  8
UMRISS05
100
AcDbLine
 10
77.12807640354316
 20
349.4098554518148
 30
0.0
 11
67.12807640354316
 21
349.4098554518148
 31
0.0
  0
TRACE
  5
C3
330
2
100
AcDbEntity
  8
UMRISS05
100
AcDbTrace
 10
-73.46782235354317
 20
354.4098554518149
 30
-0.0000000000000018
 11
-70.78833045354315
 21
354.4098554518149
 31
-0.0000000000000018
 12
-72.12807640354316
 22
349.4098554518148
 32
-0.0000000000000018
 13
-72.12807640354316
 23
349.4098554518148
 33
-0.0000000000000018
210
0.0
220
0.0
230
-1.0
  0
LINE
  5
C4
330
2
100
AcDbEntity
  8
UMRISS05
100
AcDbLine
 10
72.12807640354316
 20
354.4098554518149
 30
0.0
 11
72.12807640354316
 21
359.4098554518148
 31
0.0
  0
MTEXT
  5
C5
102
{ACAD_XDICTIONARY
360
2C2
102
}
330
2
100
AcDbEntity
  8
UMRISS05
 62
     3
100
AcDbMText
 10
220.9630529217022
 20
357.572982812071
 30
0.0
 40
3.5
 41
0.0
 71
     5
 72
     1
  1
\A1;Dr\U+00FCckerh\U+00F6he
  7
ARIAL-STANDARD
 73
     1
 44
1.0
1001
ACAD
1000
MTEXTBEGIN
1070
    73
1070
     1
1070
    44
1040
1.0
1070
    74
1070
     0
1000
MTEXTEND
  0
LINE
  5
C6
330
2
100
AcDbEntity
  8
UMRISS05
100
AcDbLine
 10
208.7227180385884
 20
349.4098554518148
 30
0.0
 11
198.7227180385884
 21
349.4098554518148
 31
0.0
  0
TRACE
  5
C7
330
2
100
AcDbEntity
  8
UMRISS05
100
AcDbTrace
 10
-205.0624639885884
 20
354.4098554518149
 30
-0.000000000000005
 11
-202.3829720885884
 21
354.4098554518149
 31
-0.000000000000005
 12
-203.7227180385884
 22
349.4098554518148
 32
-0.000000000000005
 13
-203.7227180385884
 23
349.4098554518148
 33
-0.000000000000005
210
0.0
220
0.0
230
-1.0
  0
LINE
  5
C8
330
2
100
AcDbEntity
  8
UMRISS05
100
AcDbLine
 10
203.7227180385884
 20
354.4098554518149
 30
0.0
 11
203.7227180385884
 21
359.4098554518148
 31
0.0
  0
LINE
  5
C9
330
2
100
AcDbEntity
  8
ACHSEN
100
AcDbLine
 10
77.12807640354316
 20
349.4098554518148
 30
0.0
 11
198.7227180385884
 21
349.4098554518148
 31
0.0
  0
DIMENSION
  5
CA
330
2
100
AcDbEntity
  8
BEMASSUNG
100
AcDbDimension
  2
*D17
 10
190.8423485725783
 20
183.4849590896668
 30
0.0
 11
193.8423485725801
 21
186.7059515862562
 31
0.0
 71
     5
 42
6.000000000003524
  3
Katalog 09
100
AcDbAlignedDimension
 13
196.8423485725818
 23
194.9098554518145
 33
0.0
 14
190.8423485725783
 24
194.9098554518145
 34
0.0
100
AcDbRotatedDimension
1001
ACAD_DSTYLE_DIMINSPECT
1070
   396
1000
100%
1070
   395
1000

1070
   394
1070
    33
1070
   393
1070
     0
  0
LINE
  5
DC
330
2
100
AcDbEntity
  8
UMRISS05
100
AcDbLine
 10
197.9423485725842
 20
416.3598554518143
 30
0.0
 11
196.8423485725839
 21
416.3598554518143
 31
0.0
  0
LINE
  5
DD
330
2
100
AcDbEntity
  8
AVERDECKTE
100
AcDbLine
 10
196.8423485725818
 20
370.3098554518147
 30
0.0
 11
185.8423485725827
 21
370.3098554518147
 31
0.0
  0
LINE
  5
DE
330
2
100
AcDbEntity
  8
AVERDECKTE
100
AcDbLine
 10
196.8423485725818
 20
416.5098554518148
 30
0.0
 11
185.8423485725826
 21
416.5098554518148
 31
0.0
  0
LINE
  5
DF
330
2
100
AcDbEntity
  8
AVERDECKTE
100
AcDbLine
 10
185.8423485725826
 20
416.5098554518148
 30
0.0
 11
185.8423485725827
 21
370.3098554518147
 31
0.0
  0
LINE
  5
E0
330
2
100
AcDbEntity
  8
ACHSEN
100
AcDbLine
 10
199.692853504612
 20
207.9098554518145
 30
0.0
 11
189.8382026758696
 21
207.9098554518145
 31
0.0
  0
LINE
  5
E1
330
2
100
AcDbEntity
  8
ACHSEN
100
AcDbLine
 10
199.6055296525162
 20
343.4098554518146
 30
0.0
 11
189.9419376797048
 21
343.4098554518146
 31
0.0
  0
LINE
  5
E2
330
2
100
AcDbEntity
  8
ACHSEN
100
AcDbLine
 10
200.1946882386051
 20
451.9098554518144
 30
0.0
 11
190.1088882030577
 21
451.9098554518144
 31
0.0
  0
DIMENSION
  5
E3
330
2
100
AcDbEntity
  8
BEMASSUNG
100
AcDbDimension
  2
*D16
 10
190.8423485725783
 20
333.2450450681416
 30
0.0
 11
185.3423485725805
 21
336.4289468416751
 31
0.0
 71
     5
 42
10.99999999999562
  3
Katalog 09
100
AcDbAlignedDimension
 13
179.8423485725827
 23
362.4098554518148
 33
0.0
 14
190.8423485725783
 24
332.3685946539596
 34
0.0
100
AcDbRotatedDimension
1001
ACAD_DSTYLE_DIMINSPECT
1070
   396
1000
100%
1070
   395
1000

1070
   394
1070
    33
1070
   393
1070
     0
  0
DIMENSION
  5
F0
330
2
100
AcDbEntity
  8
BEMASSUNG
100
AcDbDimension
  2
*D15
 10
159.4241530357396
 20
424.4098554518146
 30
0.0
 11
156.2031605391502
 21
393.4098554518147
 31
0.0
 71
     5
 42
61.99999999999994
  3
Katalog 09
100
AcDbAlignedDimension
 13
179.8423485725827
 23
362.4098554518147
 33
0.0
 14
179.8423485725827
 24
424.4098554518146
 34
0.0
 50
90.0
100
AcDbRotatedDimension
1001
ACAD_DSTYLE_DIMINSPECT
1070
   396
1000
100%
1070
   395
1000

1070
   394
1070
    33
1070
   393
1070
     0
  0
LINE
  5
FD
330
2
100
AcDbEntity
  8
UMRISS05
100
AcDbLine
 10
179.8423485725827
 20
424.4098554518146
 30
0.0
 11
190.8423485725782
 21
424.4098554518146
 31
0.0
  0
LINE
  5
FE
330
2
100
AcDbEntity
  8
UMRISS05
100
AcDbLine
 10
179.8423485725827
 20
362.4098554518148
 30
0.0
 11
179.8423485725827
 21
424.4098554518146
 31
0.0
  0
LINE
  5
FF
330
2
100
AcDbEntity
  8
UMRISS05
100
AcDbLine
 10
179.8423485725827
 20
362.4098554518148
 30
0.0
 11
190.8423485725782
 21
362.4098554518149
 31
0.0
  0
TRACE
  5
100
330
2
100
AcDbEntity
  8
BEMASSUNG
  6
Continuous
 62
     2
100
AcDbTrace
 10
104.714745567257
 20
415.5090761403715
 30
0.0
 11
105.2195310748693
 21
414.6458313411954
 31
0.0
 12
102.3774039131759
 22
413.5630972118891
 32
0.0
 13
102.3774039131759
 23
413.5630972118891
 33
0.0
  0
LINE
  5
101
330
2
100
AcDbEntity
  8
ACHSEN
100
AcDbLine
 10
96.72740391317597
 20
451.9098554518144
 30
0.0
 11
81.22740391317597
 21
451.9098554518144
 31
0.0
  0
LINE
  5
102
330
2
100
AcDbEntity
  8
ACHSEN
100
AcDbLine
 10
96.72740391317597
 20
207.9098554518145
 30
0.0
 11
81.22740391317597
 21
207.9098554518145
 31
0.0
  0
LINE
  5
103
330
2
100
AcDbEntity
  8
ACHSEN
100
AcDbLine
 10
96.72740391317597
 20
343.4098554518145
 30
0.0
 11
81.22740391317597
 21
343.4098554518145
 31
0.0
  0
DIMENSION
  5
104
330
2
100
AcDbEntity
  8
UMRISS05
100
AcDbDimension
  2
*D6
 10
54.29277001422986
 20
207.9098554518145
 30
0.0
 11
51.07029388871823
 21
275.6598554518145
 31
0.0
 71
     5
 42
135.4999999999999
  3
Katalog 09
100
AcDbAlignedDimension
 13
81.22740391317597
 23
343.4098554518145
 33
0.0
 14
81.22740391317597
 24
207.9098554518145
 34
0.0
 50
90.0
100
AcDbRotatedDimension
  0
DIMENSION
  5
111
330
2
100
AcDbEntity
  8
UMRISS05
100
AcDbDimension
  2
*D5
 10
54.29277001422986
 20
343.4098554518145
 30
0.0
 11
51.07177751764044
 21
397.6598554518145
 31
0.0
 71
     5
 42
108.5
  3
Katalog 09
100
AcDbAlignedDimension
 13
81.22740391317597
 23
451.9098554518144
 33
0.0
 14
81.22740391317597
 24
343.4098554518145
 34
0.0
 50
90.0
100
AcDbRotatedDimension
  0
DIMENSION
  5
11E
330
2
100
AcDbEntity
  8
UMRISS05
100
AcDbDimension
  2
*D4
 10
54.29277001422986
 20
464.9098554518145
 30
0.0
 11
51.07029388871819
 21
458.4098554518146
 31
0.0
 71
     5
 42
13.00000000000006
  3
Katalog 09
100
AcDbAlignedDimension
 13
81.22740391317597
 23
451.9098554518144
 33
0.0
 14
76.97740391317598
 24
464.9098554518145
 34
0.0
 50
90.0
100
AcDbRotatedDimension
  0
DIMENSION
  5
12B
330
2
100
AcDbEntity
  8
UMRISS05
100
AcDbDimension
  2
*D3
 10
54.29277001422986
 20
207.9098554518145
 30
0.0
 11
51.07029388871823
 21
201.4098554518145
 31
0.0
 71
     5
 42
13.0
  3
Katalog 09
100
AcDbAlignedDimension
 13
76.97740391317609
 23
194.9098554518145
 33
0.0
 14
81.22740391317597
 24
207.9098554518145
 34
0.0
 50
90.0
100
AcDbRotatedDimension
  0
LINE
  5
138
330
2
100
AcDbEntity
  8
BEMASSUNG
 62
     2
100
AcDbLine
 10
133.3457465906755
 20
434.8678077918278
 30
0.0
 11
104.9671383210632
 21
415.0774537407835
 31
0.0
  0
LINE
  5
139
330
2
100
AcDbEntity
  8
BEMASSUNG
 62
     2
100
AcDbLine
 10
138.0555026261871
 20
434.8678077918278
 30
0.0
 11
133.3457465906755
 21
434.8678077918278
 31
0.0
  0
LINE
  5
13A
330
2
100
AcDbEntity
  8
ACHSEN
100
AcDbLine
 10
93.22740391317609
 20
263.4098554518145
 30
0.0
 11
84.72740391317609
 21
263.4098554518145
 31
0.0
  0
LINE
  5
13B
330
2
100
AcDbEntity
  8
ACHSEN
100
AcDbLine
 10
93.22740391317609
 20
252.4098554518145
 30
0.0
 11
84.72740391317609
 21
252.4098554518145
 31
0.0
  0
ARC
  5
13C
330
2
100
AcDbEntity
  8
AVERDECKTE
100
AcDbCircle
 10
97.67740391317614
 20
422.9098554518144
 30
0.0
 40
1.5
100
AcDbArc
 50
29.92643486684704
 51
90.0
  0
ARC
  5
13D
330
2
100
AcDbEntity
  8
AVERDECKTE
100
AcDbCircle
 10
81.27740391317615
 20
422.9098554518144
 30
0.0
 40
1.5
100
AcDbArc
 50
90.0
 51
180.0
  0
LINE
  5
13E
330
2
100
AcDbEntity
  8
AVERDECKTE
100
AcDbLine
 10
79.77740391317604
 20
363.9098554518144
 30
0.0
 11
79.77740391317616
 21
422.9098554518144
 31
0.0
  0
LINE
  5
13F
330
2
100
AcDbEntity
  8
AVERDECKTE
100
AcDbLine
 10
97.67740391317614
 20
424.4098554518145
 30
0.0
 11
81.27740391317615
 21
424.4098554518145
 31
0.0
  0
ARC
  5
140
330
2
100
AcDbEntity
  8
AVERDECKTE
100
AcDbCircle
 10
81.27740391317605
 20
363.9098554518144
 30
0.0
 40
1.5
100
AcDbArc
 50
180.0
 51
270.0
  0
ARC
  5
141
330
2
100
AcDbEntity
  8
AVERDECKTE
100
AcDbCircle
 10
97.67740391317614
 20
363.9098554518145
 30
0.0
 40
1.5
100
AcDbArc
 50
270.0
 51
330.073565133143
  0
LINE
  5
142
330
2
100
AcDbEntity
  8
AVERDECKTE
100
AcDbLine
 10
97.67740391317614
 20
362.4098554518145
 30
0.0
 11
81.27740391317605
 21
362.4098554518144
 31
0.0
  0
LINE
  5
143
330
2
100
AcDbEntity
  8
ACHSEN
100
AcDbLine
 10
98.27740391317583
 20
377.9098554518148
 30
0.0
 11
83.32740391317589
 21
377.9098554518148
 31
0.0
  0
LINE
  5
144
330
2
100
AcDbEntity
  8
ACHSEN
100
AcDbLine
 10
83.32740391317589
 20
408.9098554518147
 30
0.0
 11
98.19351017834481
 21
408.9098554518147
 31
0.0
  0
LINE
  5
145
330
2
100
AcDbEntity
  8
ACHSEN
100
AcDbLine
 10
80.95797095006252
 20
393.4098554518148
 30
0.0
 11
104.1633587593747
 21
393.4098554518148
 31
0.0
  0
DIMENSION
  5
146
330
2
100
AcDbEntity
  8
BEMASSUNG
100
AcDbDimension
  2
*D14
 10
96.4774039131761
 20
239.9435431617393
 30
0.0
 11
88.9774039131761
 21
239.9435431617393
 31
0.0
 70
   128
 71
     5
 42
15.00000000000006
  3
Katalog 09
100
AcDbAlignedDimension
 13
81.47740391317602
 23
271.9098554518145
 33
0.0
 14
96.4774039131761
 24
271.9098554518145
 34
0.0
100
AcDbRotatedDimension
  0
DIMENSION
  5
153
330
2
100
AcDbEntity
  8
BEMASSUNG
100
AcDbDimension
  2
*D13
 10
100.977403913176
 20
183.4622864535351
 30
0.0
 11
89.39301164670537
 21
183.4622864535351
 31
0.0
 70
   128
  1
<>
 71
     5
 42
24.0
  3
Katalog 09
100
AcDbAlignedDimension
 13
76.97740391317603
 23
194.9098554518154
 33
0.0
 14
100.977403913176
 24
194.9098554518154
 34
0.0
100
AcDbRotatedDimension
  0
DIMENSION
  5
160
330
2
100
AcDbEntity
  8
BEMASSUNG
100
AcDbDimension
  2
*D12
 10
131.8217107744178
 20
464.9098554518153
 30
0.0
 11
131.8217107744177
 21
329.9098554518155
 31
0.0
 70
   128
 71
     5
 42
269.9999999999999
  3
Katalog 09
100
AcDbAlignedDimension
 13
100.977403913176
 23
194.9098554518154
 33
0.0
 14
100.977403913176
 24
464.9098554518154
 34
0.0
 50
90.0
100
AcDbRotatedDimension
  0
DIMENSION
  5
16D
330
2
100
AcDbEntity
  8
BEMASSUNG
100
AcDbDimension
  2
*D11
 10
120.0366359594035
 20
316.9098554518145
 30
0.0
 11
116.8616359594035
 21
293.4098554518145
 31
0.0
 71
     5
 42
47.0
  3
Katalog 09
100
AcDbAlignedDimension
 13
94.47740391317609
 23
269.9098554518145
 33
0.0
 14
94.47740391317603
 24
316.9098554518145
 34
0.0
 50
270.0
100
AcDbRotatedDimension
  0
DIMENSION
  5
17A
330
2
100
AcDbEntity
  8
BEMASSUNG
100
AcDbDimension
  2
*D10
 10
120.0366359594035
 20
194.9098554518154
 30
0.0
 11
116.8245452363476
 21
232.409855451815
 31
0.0
 71
     5
 42
74.999999999999
  3
Katalog 09
100
AcDbAlignedDimension
 13
94.47740391317609
 23
269.9098554518145
 33
0.0
 14
100.977403913176
 24
194.9098554518154
 34
0.0
 50
270.0
100
AcDbRotatedDimension
  0
DIMENSION
  5
187
330
2
100
AcDbEntity
  8
BEMASSUNG
100
AcDbDimension
  2
*D9
 10
120.0366359594035
 20
369.4098554518145
 30
0.0
 11
116.8156434628141
 21
343.1598554518145
 31
0.0
 71
     5
 42
52.5
  3
Katalog 09
100
AcDbAlignedDimension
 13
94.47740391317609
 23
316.9098554518145
 33
0.0
 14
100.977403913176
 24
369.4098554518145
 34
0.0
 50
270.0
100
AcDbRotatedDimension
  0
DIMENSION
  5
194
330
2
100
AcDbEntity
  8
BEMASSUNG
100
AcDbDimension
  2
*D8
 10
120.0366359594035
 20
417.4098554518145
 30
0.0
 11
116.8156434628141
 21
393.4098554518146
 31
0.0
 71
     5
 42
48.00000000000006
  3
Katalog 09
100
AcDbAlignedDimension
 13
100.977403913176
 23
369.4098554518145
 33
0.0
 14
100.977403913176
 24
417.4098554518145
 34
0.0
 50
270.0
100
AcDbRotatedDimension
  0
DIMENSION
  5
1A1
330
2
100
AcDbEntity
  8
BEMASSUNG
100
AcDbDimension
  2
*D7
 10
120.0366359594035
 20
464.9098554518154
 30
0.0
 11
116.8245452363475
 21
441.159855451815
 31
0.0
 71
     5
 42
47.50000000000085
  3
Katalog 09
100
AcDbAlignedDimension
 13
100.977403913176
 23
417.4098554518145
 33
0.0
 14
100.977403913176
 24
464.9098554518154
 34
0.0
 50
270.0
100
AcDbRotatedDimension
  0
LINE
  5
1AE
330
2
100
AcDbEntity
  8
ACHSEN
100
AcDbLine
 10
88.97740391317597
 20
444.1598554518145
 30
0.0
 11
88.97740391317599
 21
459.6598554518145
 31
0.0
  0
LINE
  5
1AF
330
2
100
AcDbEntity
  8
ACHSEN
100
AcDbLine
 10
88.97740391317599
 20
335.6598554518145
 30
0.0
 11
88.97740391317599
 21
351.1598554518145
 31
0.0
  0
LINE
  5
1B0
330
2
100
AcDbEntity
  8
ACHSEN
100
AcDbLine
 10
88.97740391317597
 20
247.6598554518145
 30
0.0
 11
88.97740391317597
 21
268.1598554518144
 31
0.0
  0
LINE
  5
1B1
330
2
100
AcDbEntity
  8
ACHSEN
100
AcDbLine
 10
88.97740391317597
 20
200.1598554518145
 30
0.0
 11
88.97740391317597
 21
215.6598554518145
 31
0.0
  0
MTEXT
  5
1B2
330
2
100
AcDbEntity
  8
UMRISS05
 62
     3
100
AcDbMText
 10
153.4127900694647
 20
437.7037828452124
 30
0.0
 40
3.5
 41
0.0
 71
     5
 72
     1
  1
\A1;Verstellbereich\P-1 / +2mm
  7
ARIAL-STANDARD
 73
     1
 44
1.0
1001
ACAD
1000
MTEXTBEGIN
1070
    73
1070
     1
1070
    44
1040
1.0
1070
    74
1070
     0
1000
MTEXTEND
  0
DIMENSION
  5
1B3
330
2
100
AcDbEntity
  8
UMRISS05
100
AcDbDimension
  2
*D2
 10
76.9774039130354
 20
153.2440011309716
 30
0.0
 11
63.97605670976116
 21
153.2440011309716
 31
0.0
 70
   128
 71
     5
 42
2.800000000000068
  3
Katalog 09
100
AcDbAlignedDimension
 13
79.77740391303547
 23
145.6427023831005
 33
0.0
 14
76.9774039130354
 24
134.6427023831127
 34
0.0
100
AcDbRotatedDimension
  0
LINE
  5
1C2
330
2
100
AcDbEntity
  8
ACHSEN
100
AcDbLine
 10
88.97740391317597
 20
148.9505125652282
 30
0.0
 11
88.97740391317597
 21
123.5236349657802
 31
0.0
  0
DIMENSION
  5
1C3
330
2
100
AcDbEntity
  8
UMRISS05
100
AcDbDimension
  2
*D1
 10
99.17740391303539
 20
160.3527906587556
 30
0.0
 11
89.47740391303543
 21
163.573783155345
 31
0.0
 71
     5
 42
19.39999999999992
  3
Katalog 09
100
AcDbAlignedDimension
 13
79.77740391303547
 23
145.6427023831002
 33
0.0
 14
99.17740391303539
 24
145.6427023831002
 34
0.0
100
AcDbRotatedDimension
  0
LINE
  5
1D0
330
2
100
AcDbEntity
  8
UMRISS05
100
AcDbLine
 10
98.2274039130354
 20
130.6427023830984
 30
0.0
 11
98.2274039130354
 21
135.1427023830984
 31
0.0
  0
LINE
  5
1D1
330
2
100
AcDbEntity
  8
UMRISS05
100
AcDbLine
 10
102.3774039130354
 20
129.9427023830984
 30
0.0
 11
100.8509033125549
 21
129.9427023830984
 31
0.0
  0
LINE
  5
1D2
330
2
100
AcDbEntity
  8
UMRISS05
100
AcDbLine
 10
102.3774039130354
 20
129.0427023830984
 30
0.0
 11
102.3774039130354
 21
129.9427023830984
 31
0.0
  0
ARC
  5
1D3
330
2
100
AcDbEntity
  8
UMRISS05
100
AcDbCircle
 10
100.8774039130354
 20
129.0427023830984
 30
0.0
 40
1.499999999999992
100
AcDbArc
 50
270.0
 51
0.0
  0
LINE
  5
1D4
330
2
100
AcDbEntity
  8
UMRISS05
100
AcDbLine
 10
97.4774039130354
 20
127.5427023830984
 30
0.0
 11
100.8774039130354
 21
127.5427023830984
 31
0.0
  0
ARC
  5
1D5
330
2
100
AcDbEntity
  8
UMRISS05
100
AcDbCircle
 10
97.4774039130354
 20
129.0427023830984
 30
0.0
 40
1.499999999999992
100
AcDbArc
 50
195.4660099534192
 51
270.0
  0
LINE
  5
1D6
330
2
100
AcDbEntity
  8
UMRISS05
100
AcDbLine
 10
99.17740391303539
 20
145.6427023831002
 30
0.0
 11
79.77740391303547
 21
145.6427023831002
 31
0.0
  0
LINE
  5
1D7
330
2
100
AcDbEntity
  8
UMRISS05
100
AcDbLine
 10
79.77740391303547
 20
145.6427023831002
 30
0.0
 11
79.77740391303547
 21
130.6427023831002
 31
0.0
  0
LINE
  5
1D8
330
2
100
AcDbEntity
  8
UMRISS05
100
AcDbLine
 10
99.17740391303539
 20
145.6427023831003
 30
0.0
 11
99.17740391303539
 21
135.1427023831002
 31
0.0
  0
LINE
  5
1D9
330
2
100
AcDbEntity
  8
UMRISS05
100
AcDbLine
 10
96.67740391303539
 20
130.6427023831007
 30
0.0
 11
96.67740391303539
 21
135.1427023831007
 31
0.0
  0
LINE
  5
1DA
330
2
100
AcDbEntity
  8
UMRISS05
100
AcDbLine
 10
99.17740391303539
 20
135.1427023831002
 30
0.0
 11
96.67740391303539
 21
135.142702383101
 31
0.0
  0
LINE
  5
1DB
330
2
100
AcDbEntity
  8
UMRISS05
100
AcDbLine
 10
100.9774039130354
 20
134.6427023831127
 30
0.0
 11
98.97740391303546
 21
134.6427023831127
 31
0.0
  0
LINE
  5
1DC
330
2
100
AcDbEntity
  8
UMRISS05
100
AcDbLine
 10
98.97740391303546
 20
130.6427023831127
 30
0.0
 11
98.97740391303546
 21
134.6427023831127
 31
0.0
  0
LINE
  5
1DD
330
2
100
AcDbEntity
  8
UMRISS05
100
AcDbLine
 10
78.97740391303546
 20
134.6427023831127
 30
0.0
 11
76.9774039130354
 21
134.6427023831127
 31
0.0
  0
LINE
  5
1DE
330
2
100
AcDbEntity
  8
UMRISS05
100
AcDbLine
 10
78.97740391303546
 20
130.6427023831127
 30
0.0
 11
78.97740391303546
 21
134.6427023831127
 31
0.0
  0
LINE
  5
1DF
330
2
100
AcDbEntity
  8
UMRISS05
100
AcDbLine
 10
98.97740391303546
 20
130.6427023831127
 30
0.0
 11
78.97740391303546
 21
130.6427023831127
 31
0.0
  0
LINE
  5
1E0
330
2
100
AcDbEntity
  8
UMRISS05
100
AcDbLine
 10
100.9774039130354
 20
134.6427023831127
 30
0.0
 11
100.9774039130354
 21
130.6427023831127
 31
0.0
  0
LINE
  5
1E1
330
2
100
AcDbEntity
  8
UMRISS05
100
AcDbLine
 10
78.9774039130354
 20
128.6427023831127
 30
0.0
 11
98.97740391303546
 21
128.6427023831127
 31
0.0
  0
LINE
  5
1E2
330
2
100
AcDbEntity
  8
UMRISS05
100
AcDbLine
 10
76.9774039130354
 20
134.6427023831127
 30
0.0
 11
76.9774039130354
 21
130.6427023831127
 31
0.0
  0
ARC
  5
1E3
330
2
100
AcDbEntity
  8
UMRISS05
100
AcDbCircle
 10
98.97740391303546
 20
130.6427023831127
 30
0.0
 40
1.999999999999997
100
AcDbArc
 50
270.0
 51
0.0
  0
ARC
  5
1E4
330
2
100
AcDbEntity
  8
UMRISS05
100
AcDbCircle
 10
78.9774039130354
 20
130.6427023831127
 30
0.0
 40
1.999999999999999
100
AcDbArc
 50
180.0
 51
270.0
  0
LINE
  5
1E5
330
2
100
AcDbEntity
  8
UMRISS05
100
AcDbLine
 10
197.9423485725842
 20
370.4598554518149
 30
0.0
 11
197.9423485725842
 21
416.3598554518144
 31
0.0
  0
LINE
  5
1E6
330
2
100
AcDbEntity
  8
UMRISS05
100
AcDbLine
 10
197.9423485725842
 20
370.459855451815
 30
0.0
 11
196.8423485725839
 21
370.459855451815
 31
0.0
  0
LINE
  5
1E7
330
2
100
AcDbEntity
  8
AVERDECKTE
100
AcDbLine
 10
196.8423485725802
 20
269.9098554518145
 30
0.0
 11
194.8423485725802
 21
269.9098554518145
 31
0.0
  0
LINE
  5
1E8
330
2
100
AcDbEntity
  8
AVERDECKTE
100
AcDbLine
 10
196.8423485725802
 20
316.9098554518145
 30
0.0
 11
194.8423485725802
 21
316.9098554518145
 31
0.0
  0
LINE
  5
1E9
330
2
100
AcDbEntity
  8
AVERDECKTE
100
AcDbLine
 10
194.8423485725783
 20
194.9098554518145
 30
0.0
 11
194.8423485725789
 21
464.9098554518145
 31
0.0
  0
LINE
  5
1EA
330
2
100
AcDbEntity
  8
UMRISS05
100
AcDbLine
 10
190.8423485725783
 20
464.9098554518145
 30
0.0
 11
190.8423485725783
 21
194.9098554518145
 31
0.0
  0
LINE
  5
1EB
330
2
100
AcDbEntity
  8
UMRISS05
100
AcDbLine
 10
196.8423485725818
 20
194.9098554518145
 30
0.0
 11
190.8423485725783
 21
194.9098554518145
 31
0.0
  0
LINE
  5
1EC
330
2
100
AcDbEntity
  8
UMRISS05
100
AcDbLine
 10
190.8423485725783
 20
464.9098554518145
 30
0.0
 11
196.8423485725818
 21
464.9098554518145
 31
0.0
  0
LINE
  5
1ED
330
2
100
AcDbEntity
  8
AVERDECKTE
100
AcDbLine
 10
194.8423485725819
 20
449.1598554518144
 30
0.0
 11
196.8423485725819
 21
447.1598554518144
 31
0.0
  0
LINE
  5
1EE
330
2
100
AcDbEntity
  8
AVERDECKTE
100
AcDbLine
 10
194.8423485725819
 20
454.6598554518144
 30
0.0
 11
196.8423485725819
 21
456.6598554518145
 31
0.0
  0
LINE
  5
1EF
330
2
100
AcDbEntity
  8
AVERDECKTE
100
AcDbLine
 10
194.8423485725819
 20
340.6598554518145
 30
0.0
 11
196.8423485725818
 21
338.6598554518146
 31
0.0
  0
LINE
  5
1F0
330
2
100
AcDbEntity
  8
AVERDECKTE
100
AcDbLine
 10
194.8423485725819
 20
346.1598554518146
 30
0.0
 11
196.8423485725818
 21
348.1598554518145
 31
0.0
  0
LINE
  5
1F1
330
2
100
AcDbEntity
  8
UMRISS05
100
AcDbLine
 10
196.8423485725818
 20
464.9098554518145
 30
0.0
 11
196.8423485725818
 21
194.9098554518145
 31
0.0
  0
LINE
  5
1F2
330
2
100
AcDbEntity
  8
AVERDECKTE
100
AcDbLine
 10
194.8423485725819
 20
205.1598554518145
 30
0.0
 11
196.8423485725818
 21
203.1598554518145
 31
0.0
  0
LINE
  5
1F3
330
2
100
AcDbEntity
  8
AVERDECKTE
100
AcDbLine
 10
196.8423485725818
 20
212.6598554518145
 30
0.0
 11
194.8423485725819
 21
210.6598554518145
 31
0.0
  0
CIRCLE
  5
1F4
330
2
100
AcDbEntity
  8
UMRISS05
100
AcDbCircle
 10
89.47740391317603
 20
419.6598554518146
 30
0.0
 40
3.749999999999999
  0
LINE
  5
1F5
330
2
100
AcDbEntity
  8
UMRISS05
100
AcDbLine
 10
91.47740391317602
 20
419.3598554518146
 30
0.0
 11
89.77740391317604
 21
419.3598554518146
 31
0.0
  0
LINE
  5
1F6
330
2
100
AcDbEntity
  8
UMRISS05
100
AcDbLine
 10
87.47740391317604
 20
419.3598554518146
 30
0.0
 11
87.47740391317604
 21
419.9598554518146
 31
0.0
  0
LINE
  5
1F7
330
2
100
AcDbEntity
  8
UMRISS05
100
AcDbLine
 10
89.77740391317604
 20
419.9598554518146
 30
0.0
 11
91.47740391317602
 21
419.9598554518146
 31
0.0
  0
LINE
  5
1F8
330
2
100
AcDbEntity
  8
UMRISS05
100
AcDbLine
 10
91.47740391317602
 20
419.9598554518146
 30
0.0
 11
91.47740391317602
 21
419.3598554518146
 31
0.0
  0
LINE
  5
1F9
330
2
100
AcDbEntity
  8
UMRISS05
100
AcDbLine
 10
89.17740391317602
 20
419.3598554518146
 30
0.0
 11
87.47740391317604
 21
419.3598554518146
 31
0.0
  0
LINE
  5
1FA
330
2
100
AcDbEntity
  8
UMRISS05
100
AcDbLine
 10
87.47740391317604
 20
419.9598554518146
 30
0.0
 11
89.17740391317602
 21
419.9598554518146
 31
0.0
  0
LINE
  5
1FB
330
2
100
AcDbEntity
  8
UMRISS05
100
AcDbLine
 10
89.77740391317604
 20
417.6598554518147
 30
0.0
 11
89.17740391317602
 21
417.6598554518147
 31
0.0
  0
LINE
  5
1FC
330
2
100
AcDbEntity
  8
UMRISS05
100
AcDbLine
 10
89.17740391317602
 20
419.9598554518146
 30
0.0
 11
89.17740391317602
 21
421.6598554518147
 31
0.0
  0
LINE
  5
1FD
330
2
100
AcDbEntity
  8
UMRISS05
100
AcDbLine
 10
89.17740391317602
 20
421.6598554518147
 30
0.0
 11
89.77740391317604
 21
421.6598554518147
 31
0.0
  0
LINE
  5
1FE
330
2
100
AcDbEntity
  8
UMRISS05
100
AcDbLine
 10
89.17740391317602
 20
417.6598554518147
 30
0.0
 11
89.17740391317602
 21
419.3598554518146
 31
0.0
  0
LINE
  5
1FF
330
2
100
AcDbEntity
  8
UMRISS05
100
AcDbLine
 10
89.77740391317604
 20
421.6598554518147
 30
0.0
 11
89.77740391317604
 21
419.9598554518146
 31
0.0
  0
LINE
  5
200
330
2
100
AcDbEntity
  8
UMRISS05
100
AcDbLine
 10
89.77740391317604
 20
419.3598554518146
 30
0.0
 11
89.77740391317604
 21
417.6598554518147
 31
0.0
  0
CIRCLE
  5
201
330
2
100
AcDbEntity
  8
UMRISS05
100
AcDbCircle
 10
89.47740391317603
 20
367.1598554518147
 30
0.0
 40
3.749999999999999
  0
LINE
  5
202
330
2
100
AcDbEntity
  8
UMRISS05
100
AcDbLine
 10
91.47740391317602
 20
366.8598554518147
 30
0.0
 11
89.77740391317604
 21
366.8598554518147
 31
0.0
  0
LINE
  5
203
330
2
100
AcDbEntity
  8
UMRISS05
100
AcDbLine
 10
87.47740391317604
 20
366.8598554518147
 30
0.0
 11
87.47740391317604
 21
367.4598554518147
 31
0.0
  0
LINE
  5
204
330
2
100
AcDbEntity
  8
UMRISS05
100
AcDbLine
 10
89.77740391317604
 20
367.4598554518147
 30
0.0
 11
91.47740391317602
 21
367.4598554518147
 31
0.0
  0
LINE
  5
205
330
2
100
AcDbEntity
  8
UMRISS05
100
AcDbLine
 10
91.47740391317602
 20
367.4598554518147
 30
0.0
 11
91.47740391317602
 21
366.8598554518147
 31
0.0
  0
LINE
  5
206
330
2
100
AcDbEntity
  8
UMRISS05
100
AcDbLine
 10
89.17740391317602
 20
366.8598554518147
 30
0.0
 11
87.47740391317604
 21
366.8598554518147
 31
0.0
  0
LINE
  5
207
330
2
100
AcDbEntity
  8
UMRISS05
100
AcDbLine
 10
87.47740391317604
 20
367.4598554518147
 30
0.0
 11
89.17740391317602
 21
367.4598554518147
 31
0.0
  0
LINE
  5
208
330
2
100
AcDbEntity
  8
UMRISS05
100
AcDbLine
 10
89.77740391317604
 20
365.1598554518147
 30
0.0
 11
89.17740391317602
 21
365.1598554518147
 31
0.0
  0
LINE
  5
209
330
2
100
AcDbEntity
  8
UMRISS05
100
AcDbLine
 10
89.17740391317602
 20
367.4598554518147
 30
0.0
 11
89.17740391317602
 21
369.1598554518147
 31
0.0
  0
LINE
  5
20A
330
2
100
AcDbEntity
  8
UMRISS05
100
AcDbLine
 10
89.17740391317602
 20
369.1598554518147
 30
0.0
 11
89.77740391317604
 21
369.1598554518147
 31
0.0
  0
LINE
  5
20B
330
2
100
AcDbEntity
  8
UMRISS05
100
AcDbLine
 10
89.17740391317602
 20
365.1598554518147
 30
0.0
 11
89.17740391317602
 21
366.8598554518147
 31
0.0
  0
LINE
  5
20C
330
2
100
AcDbEntity
  8
UMRISS05
100
AcDbLine
 10
89.77740391317604
 20
369.1598554518147
 30
0.0
 11
89.77740391317604
 21
367.4598554518147
 31
0.0
  0
LINE
  5
20D
330
2
100
AcDbEntity
  8
UMRISS05
100
AcDbLine
 10
89.77740391317604
 20
366.8598554518147
 30
0.0
 11
89.77740391317604
 21
365.1598554518147
 31
0.0
  0
ARC
  5
20E
330
2
100
AcDbEntity
  8
UMRISS05
100
AcDbCircle
 10
91.97740391317603
 20
408.9098554518145
 30
0.0
 40
3.999999999999983
100
AcDbArc
 50
0.0
 51
90.0
1001
GENIUS_GENOBJ-N-FIL_13
1002
{
1000
OWNER
1000
GEN
1002
}
1001
GENIUS_GENODEF_13
1002
{
1000
HIER
1070
     0
1002
}
1002
{
1000
MANEDIT
1070
     0
1002
}
1002
{
1000
NOSEL
1070
     0
1002
}
1002
{
1000
BEHIND
1070
     0
1002
}
1002
{
1000
OTHER
1070
     0
1002
}
1002
{
1000
REACTOR
1002
}
  0
LINE
  5
211
330
2
100
AcDbEntity
  8
UMRISS05
100
AcDbLine
 10
91.97740391317603
 20
412.9098554518144
 30
0.0
 11
88.577403913176
 21
412.9098554518144
 31
0.0
  0
ARC
  5
212
330
2
100
AcDbEntity
  8
UMRISS05
100
AcDbCircle
 10
88.577403913176
 20
408.9098554518145
 30
0.0
 40
3.999999999999986
100
AcDbArc
 50
90.0
 51
270.0
  0
LINE
  5
213
330
2
100
AcDbEntity
  8
UMRISS05
100
AcDbLine
 10
88.577403913176
 20
404.9098554518145
 30
0.0
 11
91.97740391317601
 21
404.9098554518145
 31
0.0
  0
ARC
  5
214
330
2
100
AcDbEntity
  8
UMRISS05
100
AcDbCircle
 10
91.97740391317603
 20
408.9098554518145
 30
0.0
 40
3.999999999999983
100
AcDbArc
 50
270.0
 51
0.0
1001
GENIUS_GENODEF_13
1002
{
1000
HIER
1070
     0
1002
}
1002
{
1000
MANEDIT
1070
     0
1002
}
1002
{
1000
NOSEL
1070
     0
1002
}
1002
{
1000
BEHIND
1070
     0
1002
}
1002
{
1000
OTHER
1070
     0
1002
}
1002
{
1000
REACTOR
1002
}
1001
GENIUS_GENOBJ-N-FIL_13
1002
{
1000
OWNER
1000
GEN
1002
}
  0
ARC
  5
215
330
2
100
AcDbEntity
  8
UMRISS05
100
AcDbCircle
 10
91.97740391317603
 20
377.9098554518149
 30
0.0
 40
3.999999999999988
100
AcDbArc
 50
0.0
 51
90.0
  0
LINE
  5
216
330
2
100
AcDbEntity
  8
UMRISS05
100
AcDbLine
 10
91.97740391317601
 20
381.9098554518149
 30
0.0
 11
88.577403913176
 21
381.9098554518148
 31
0.0
  0
ARC
  5
217
330
2
100
AcDbEntity
  8
UMRISS05
100
AcDbCircle
 10
88.577403913176
 20
377.9098554518149
 30
0.0
 40
3.999999999999986
100
AcDbArc
 50
90.0
 51
270.0
  0
LINE
  5
218
330
2
100
AcDbEntity
  8
UMRISS05
100
AcDbLine
 10
88.57740391317605
 20
373.9098554518149
 30
0.0
 11
91.97740391317603
 21
373.9098554518149
 31
0.0
  0
ARC
  5
219
330
2
100
AcDbEntity
  8
UMRISS05
100
AcDbCircle
 10
91.97740391317603
 20
377.9098554518149
 30
0.0
 40
3.999999999999989
100
AcDbArc
 50
270.0
 51
0.0
1001
GENIUS_GENOBJ-N-FIL_13
1002
{
1000
OWNER
1000
GEN
1002
}
1001
GENIUS_GENODEF_13
1002
{
1000
HIER
1070
     0
1002
}
1002
{
1000
MANEDIT
1070
     0
1002
}
1002
{
1000
NOSEL
1070
     0
1002
}
1002
{
1000
BEHIND
1070
     0
1002
}
1002
{
1000
OTHER
1070
     0
1002
}
1002
{
1000
REACTOR
1002
}
  0
LINE
  5
21A
330
2
100
AcDbEntity
  8
UMRISS05
100
AcDbLine
 10
102.377403913176
 20
370.459855451815
 30
0.0
 11
102.3774039131759
 21
416.3598554518144
 31
0.0
  0
LINE
  5
21B
330
2
100
AcDbEntity
  8
UMRISS05
100
AcDbLine
 10
95.97740391317598
 20
416.3598554518144
 30
0.0
 11
95.97740391317604
 21
370.4598554518149
 31
0.0
  0
LINE
  5
21C
330
2
100
AcDbEntity
  8
UMRISS05
100
AcDbLine
 10
102.377403913176
 20
370.459855451815
 30
0.0
 11
93.4274039131758
 21
370.4598554518149
 31
0.0
  0
LINE
  5
21D
330
2
100
AcDbEntity
  8
UMRISS05
100
AcDbLine
 10
93.42740391317613
 20
416.3598554518144
 30
0.0
 11
102.3774039131759
 21
416.3598554518144
 31
0.0
  0
LINE
  5
21E
330
2
100
AcDbEntity
  8
UMRISS05
100
AcDbLine
 10
98.97740391317297
 20
370.4598554518147
 30
0.0
 11
98.97740391317297
 21
369.4098554518145
 31
0.0
  0
LINE
  5
21F
330
2
100
AcDbEntity
  8
UMRISS05
100
AcDbLine
 10
98.97740391317309
 20
416.3598554518146
 30
0.0
 11
98.97740391317309
 21
417.4098554518144
 31
0.0
  0
LINE
  5
220
330
2
100
AcDbEntity
  8
UMRISS05
100
AcDbLine
 10
94.47740391317609
 20
269.9098554518145
 30
0.0
 11
83.47740391317609
 21
269.9098554518145
 31
0.0
  0
ARC
  5
221
330
2
100
AcDbEntity
  8
UMRISS05
100
AcDbCircle
 10
94.47740391317609
 20
271.9098554518145
 30
0.0
 40
1.999999999999992
100
AcDbArc
 50
270.0
 51
0.0
  0
LINE
  5
222
330
2
100
AcDbEntity
  8
UMRISS05
100
AcDbLine
 10
96.4774039131761
 20
314.9098554518145
 30
0.0
 11
96.4774039131761
 21
271.9098554518145
 31
0.0
  0
ARC
  5
223
330
2
100
AcDbEntity
  8
UMRISS05
100
AcDbCircle
 10
94.47740391317609
 20
314.9098554518145
 30
0.0
 40
1.999999999999992
100
AcDbArc
 50
0.0
 51
90.0
  0
LINE
  5
224
330
2
100
AcDbEntity
  8
UMRISS05
100
AcDbLine
 10
83.47740391317609
 20
316.9098554518145
 30
0.0
 11
94.47740391317609
 21
316.9098554518145
 31
0.0
  0
ARC
  5
225
330
2
100
AcDbEntity
  8
UMRISS05
100
AcDbCircle
 10
83.47740391317609
 20
314.9098554518145
 30
0.0
 40
1.999999999999985
100
AcDbArc
 50
90.0
 51
180.0
  0
LINE
  5
226
330
2
100
AcDbEntity
  8
UMRISS05
100
AcDbLine
 10
81.4774039131761
 20
271.9098554518145
 30
0.0
 11
81.4774039131761
 21
314.9098554518145
 31
0.0
  0
ARC
  5
227
330
2
100
AcDbEntity
  8
UMRISS05
100
AcDbCircle
 10
83.47740391317604
 20
271.9098554518145
 30
0.0
 40
2.000000000000001
100
AcDbArc
 50
180.0
 51
270.0
  0
CIRCLE
  5
228
330
2
100
AcDbEntity
  8
UMRISS05
100
AcDbCircle
 10
88.97740391317602
 20
451.9098554518144
 30
0.0
 40
2.75
  0
CIRCLE
  5
229
330
2
100
AcDbEntity
  8
UMRISS05
100
AcDbCircle
 10
88.97740391317602
 20
207.9098554518145
 30
0.0
 40
2.75
  0
CIRCLE
  5
22A
330
2
100
AcDbEntity
  8
UMRISS05
100
AcDbCircle
 10
88.97740391317602
 20
343.4098554518145
 30
0.0
 40
2.75
  0
CIRCLE
  5
22B
330
2
100
AcDbEntity
  8
UMRISS05
100
AcDbCircle
 10
88.97740391317602
 20
343.4098554518145
 30
0.0
 40
4.75
  0
CIRCLE
  5
22C
330
2
100
AcDbEntity
  8
UMRISS05
100
AcDbCircle
 10
88.97740391317602
 20
207.9098554518145
 30
0.0
 40
4.75
  0
CIRCLE
  5
22D
330
2
100
AcDbEntity
  8
UMRISS05
100
AcDbCircle
 10
88.97740391317602
 20
451.9098554518144
 30
0.0
 40
4.75
  0
CIRCLE
  5
22E
330
2
100
AcDbEntity
  8
UMRISS05
100
AcDbCircle
 10
89.47740391317603
 20
419.6598554518145
 30
0.0
 40
4.0
  0
CIRCLE
  5
22F
330
2
100
AcDbEntity
  8
UMRISS05
100
AcDbCircle
 10
89.47740391317603
 20
367.1598554518145
 30
0.0
 40
4.0
  0
ARC
  5
230
330
2
100
AcDbEntity
  8
UMRISS05
100
AcDbCircle
 10
94.8916174755492
 20
416.409855451814
 30
0.0
 40
1.000000000000396
100
AcDbArc
 50
90.00000000000978
 51
134.9999999999913
  0
LINE
  5
231
330
2
100
AcDbEntity
  8
UMRISS05
100
AcDbLine
 10
92.77029713198947
 20
415.7027486706279
 30
0.0
 11
94.18451069436253
 21
417.116962233001
 31
0.0
  0
ARC
  5
232
330
2
100
AcDbEntity
  8
UMRISS05
100
AcDbCircle
 10
92.06319035080293
 20
416.4098554518144
 30
0.0
 40
0.9999999999999431
100
AcDbArc
 50
270.0
 51
315.0000000000048
  0
LINE
  5
233
330
2
100
AcDbEntity
  8
UMRISS05
100
AcDbLine
 10
84.47740391317603
 20
415.4098554518145
 30
0.0
 11
92.06319035080293
 21
415.4098554518145
 31
0.0
  0
ARC
  5
234
330
2
100
AcDbEntity
  8
UMRISS05
100
AcDbCircle
 10
84.47740391317609
 20
414.4098554518144
 30
0.0
 40
1.000000000000045
100
AcDbArc
 50
90.00000000000325
 51
180.0
  0
LINE
  5
235
330
2
100
AcDbEntity
  8
UMRISS05
100
AcDbLine
 10
83.47740391317604
 20
372.4098554518146
 30
0.0
 11
83.47740391317604
 21
414.4098554518144
 31
0.0
  0
ARC
  5
236
330
2
100
AcDbEntity
  8
UMRISS05
100
AcDbCircle
 10
84.47740391317609
 20
372.4098554518146
 30
0.0
 40
1.000000000000049
100
AcDbArc
 50
180.0
 51
269.9999999999968
  0
LINE
  5
237
330
2
100
AcDbEntity
  8
UMRISS05
100
AcDbLine
 10
92.06319035080293
 20
371.4098554518145
 30
0.0
 11
84.47740391317603
 21
371.4098554518145
 31
0.0
  0
ARC
  5
238
330
2
100
AcDbEntity
  8
UMRISS05
100
AcDbCircle
 10
92.06319035080275
 20
370.4098554518142
 30
0.0
 40
1.000000000000305
100
AcDbArc
 50
45.00000000000436
 51
89.99999999999023
  0
LINE
  5
239
330
2
100
AcDbEntity
  8
UMRISS05
100
AcDbLine
 10
94.18451069436253
 20
369.702748670628
 30
0.0
 11
92.77029713198947
 21
371.1169622330011
 31
0.0
  0
ARC
  5
23A
330
2
100
AcDbEntity
  8
UMRISS05
100
AcDbCircle
 10
94.89161747554902
 20
370.4098554518144
 30
0.0
 40
0.9999999999999431
100
AcDbArc
 50
224.9999999999952
 51
270.0
  0
LINE
  5
23B
330
2
100
AcDbEntity
  8
UMRISS05
100
AcDbLine
 10
100.977403913176
 20
369.4098554518145
 30
0.0
 11
94.89161747554907
 21
369.4098554518145
 31
0.0
  0
LINE
  5
23C
330
2
100
AcDbEntity
  8
UMRISS05
100
AcDbLine
 10
76.97740391317598
 20
464.9098554518145
 30
0.0
 11
100.977403913176
 21
464.9098554518145
 31
0.0
  0
LINE
  5
23D
330
2
100
AcDbEntity
  8
UMRISS05
100
AcDbLine
 10
100.9774039131761
 20
194.9098554518145
 30
0.0
 11
76.97740391317609
 21
194.9098554518145
 31
0.0
  0
LINE
  5
23E
330
2
100
AcDbEntity
  8
UMRISS05
100
AcDbLine
 10
100.9774039131761
 20
194.9098554518145
 30
0.0
 11
100.977403913176
 21
369.4098554518145
 31
0.0
  0
LINE
  5
23F
330
2
100
AcDbEntity
  8
UMRISS05
100
AcDbLine
 10
100.977403913176
 20
417.4098554518145
 30
0.0
 11
100.977403913176
 21
464.9098554518145
 31
0.0
  0
LINE
  5
240
330
2
100
AcDbEntity
  8
UMRISS05
100
AcDbLine
 10
100.977403913176
 20
417.4098554518145
 30
0.0
 11
94.89161747554907
 21
417.4098554518145
 31
0.0
  0
LINE
  5
241
330
2
100
AcDbEntity
  8
UMRISS05
100
AcDbLine
 10
76.97740391317598
 20
464.9098554518145
 30
0.0
 11
76.97740391317609
 21
194.9098554518145
 31
0.0
  0
CIRCLE
  5
242
330
2
100
AcDbEntity
  8
UMRISS05
100
AcDbCircle
 10
88.9774039131761
 20
263.4098554518145
 30
0.0
 40
1.75
  0
CIRCLE
  5
243
330
2
100
AcDbEntity
  8
UMRISS05
100
AcDbCircle
 10
88.9774039131761
 20
252.4098554518145
 30
0.0
 40
1.75
  0
ENDSEC
  0
SECTION
  2
OBJECTS
  0
DICTIONARY
  5
B
330
0
100
AcDbDictionary
281
     1
  3
ACAD_COLOR
350
4F
  3
ACAD_DETAILVIEWSTYLE
350
266
  3
ACAD_FIELDLIST
350
29A
  3
ACAD_GROUP
350
3C
  3
ACAD_LAYOUT
350
18
  3
ACAD_MATERIAL
350
D
  3
ACAD_MLEADERSTYLE
350
52
  3
ACAD_MLINESTYLE
350
3D
  3
ACAD_PLOTSETTINGS
350
3E
  3
ACAD_PLOTSTYLENAME
350
A
  3
ACAD_SCALELIST
350
50
  3
ACAD_SECTIONVIEWSTYLE
350
271
  3
ACAD_TABLESTYLE
350
51
  3
ACAD_VISUALSTYLE
350
30
  3
ACDB_RECOMPOSE_DATA
350
2AC
  3
AcDbVariableDictionary
350
29E
  3
AcDsDecomposeData
350
2B2
  3
AcmDictionary
350
256
  3
AcmSystemVariableManager
350
2C9
  3
AMG
350
246
  0
DICTIONARY
  5
20
330
1F
100
AcDbDictionary
280
     1
281
     1
  3
ACAD_LAYERFILTERS
360
21
  3
ACAD_LAYERSTATES
360
22
  3
ACLYDICTIONARY
360
23
  0
DICTIONARY
  5
7
330
6
100
AcDbDictionary
280
     1
281
     1
  3
ADSK_XREC_LAYER_RECONCILED
360
8
  0
DICTIONARY
  5
54
330
53
100
AcDbDictionary
280
     1
281
     1
  3
ADSK_XREC_LAYER_RECONCILED
360
55
  0
DICTIONARY
  5
CC
330
CB
100
AcDbDictionary
280
     1
281
     1
  3
ADSK_XREC_LAYER_RECONCILED
360
CD
  0
DICTIONARY
  5
84
330
83
100
AcDbDictionary
280
     1
281
     1
  3
ADSK_XREC_LAYER_RECONCILED
360
85
  0
DICTIONARY
  5
A2
330
A1
100
AcDbDictionary
280
     1
281
     1
  3
ADSK_XREC_LAYER_RECONCILED
360
A3
  0
DICTIONARY
  5
3
330
2
100
AcDbDictionary
280
     1
281
     1
  3
ACAD_SORTENTS
360
244
  0
DICTIONARY
  5
2C2
330
C5
100
AcDbDictionary
280
     1
281
     1
  3
ACAD_MTEXT_RT
360
2C3
  0
DICTIONARY
  5
4F
102
{ACAD_REACTORS
330
B
102
}
330
B
100
AcDbDictionary
281
     1
  0
DICTIONARY
  5
266
102
{ACAD_REACTORS
330
B
102
}
330
B
100
AcDbDictionary
281
     1
  3
Metric50
350
26D
  0
FIELDLIST
  5
29A
102
{ACAD_REACTORS
330
B
102
}
330
B
100
AcDbIdSet
 90
        6
330
269
330
26A
330
26B
330
274
330
275
330
276
100
AcDbFieldList
  0
DICTIONARY
  5
3C
102
{ACAD_REACTORS
330
B
102
}
330
B
100
AcDbDictionary
281
     1
  0
DICTIONARY
  5
18
102
{ACAD_REACTORS
330
B
102
}
330
B
100
AcDbDictionary
281
     1
  3
Layout1
350
1E
  3
Model
350
17
  0
DICTIONARY
  5
D
102
{ACAD_REACTORS
330
B
102
}
330
B
100
AcDbDictionary
281
     1
  3
ByBlock
350
47
  3
ByLayer
350
3F
  3
Global
350
C
  0
DICTIONARY
  5
52
102
{ACAD_REACTORS
330
B
102
}
330
B
100
AcDbDictionary
281
     1
  0
DICTIONARY
  5
3D
102
{ACAD_REACTORS
330
B
102
}
330
B
100
AcDbDictionary
281
     1
  3
STANDARD
350
56
  0
DICTIONARY
  5
3E
102
{ACAD_REACTORS
330
B
102
}
330
B
100
AcDbDictionary
281
     1
  0
ACDBDICTIONARYWDFLT
  5
A
102
{ACAD_REACTORS
330
B
102
}
330
B
100
AcDbDictionary
281
     1
  3
Normal
350
9
100
AcDbDictionaryWithDefault
340
9
  0
DICTIONARY
  5
50
102
{ACAD_REACTORS
330
B
102
}
330
B
100
AcDbDictionary
281
     1
  3
A0
350
5B
  3
A1
350
5C
  3
A2
350
5D
  3
A3
350
5E
  3
A4
350
5F
  3
A5
350
60
  3
A6
350
61
  3
A7
350
62
  3
A8
350
63
  3
A9
350
64
  3
B0
350
65
  3
B1
350
66
  3
B2
350
67
  3
B3
350
68
  3
B4
350
69
  3
B5
350
6A
  3
B6
350
6B
  0
DICTIONARY
  5
271
102
{ACAD_REACTORS
330
B
102
}
330
B
100
AcDbDictionary
281
     1
  3
Metric50
350
27C
  0
DICTIONARY
  5
51
102
{ACAD_REACTORS
330
B
102
}
330
B
100
AcDbDictionary
281
     1
  3
Standard
350
57
  0
DICTIONARY
  5
30
102
{ACAD_REACTORS
330
B
102
}
330
B
100
AcDbDictionary
281
     1
  3
2dWireframe
350
2F
  3
Realistic
350
59
  3
Wireframe
350
5A
  0
XRECORD
  5
2AC
102
{ACAD_REACTORS
330
B
102
}
330
B
100
AcDbXrecord
280
     1
 90
        1
330
57
  0
DICTIONARY
  5
29E
102
{ACAD_REACTORS
330
B
102
}
330
B
100
AcDbDictionary
281
     1
  3
CANNOSCALE
350
2A3
  3
CMLEADERSTYLE
350
2A0
  3
CTABLESTYLE
350
29F
  3
CVIEWDETAILSTYLE
350
2A1
  3
CVIEWSECTIONSTYLE
350
2A2
  3
DIMASSOC
350
2A8
  3
HIDETEXT
350
2A6
  3
INDEXCTL
350
2A5
  3
SOLIDHIST
350
2A9
  3
SORTENTS
350
2A4
  3
XCLIPFRAME
350
2A7
  0
DICTIONARY
  5
2B2
102
{ACAD_REACTORS
330
B
102
}
330
B
100
AcDbDictionary
281
     1
  3
AcDsRecords
350
2B4
  3
AcDsSchemas
350
2B3
1001
ACAD
1070
     2
  0
DICTIONARY
  5
256
102
{ACAD_REACTORS
330
B
102
}
330
B
100
AcDbDictionary
281
     1
  3
AcmStdDictionary
350
257
  0
DICTIONARY
  5
246
102
{ACAD_REACTORS
330
B
102
}
330
B
100
AcDbDictionary
281
     1
  3
AcMgSettings
350
250
  0
DICTIONARY
  5
21
102
{ACAD_REACTORS
330
20
102
}
330
20
100
AcDbDictionary
281
     1
  0
DICTIONARY
  5
22
102
{ACAD_REACTORS
330
20
102
}
330
20
100
AcDbDictionary
281
     1
  0
DICTIONARY
  5
23
102
{ACAD_REACTORS
330
20
102
}
330
20
100
AcDbDictionary
281
     1
1001
ACAD
1000
<All
  0
XRECORD
  5
8
102
{ACAD_REACTORS
330
7
102
}
330
7
100
AcDbXrecord
280
     1
290
     1
  0
XRECORD
  5
55
102
{ACAD_REACTORS
330
54
102
}
330
54
100
AcDbXrecord
280
     1
290
     1
  0
XRECORD
  5
CD
102
{ACAD_REACTORS
330
CC
102
}
330
CC
100
AcDbXrecord
280
     1
290
     1
  0
XRECORD
  5
85
102
{ACAD_REACTORS
330
84
102
}
330
84
100
AcDbXrecord
280
     1
290
     1
  0
XRECORD
  5
A3
102
{ACAD_REACTORS
330
A2
102
}
330
A2
100
AcDbXrecord
280
     1
290
     1
  0
SORTENTSTABLE
  5
244
102
{ACAD_REACTORS
330
3
102
}
330
3
100
AcDbSortentsTable
330
2
331
A8
  5
222
331
21D
  5
C5
331
1DE
  5
1D5
331
219
  5
C9
331
1DA
  5
1D9
331
215
  5
DE
331
211
  5
E2
331
11E
  5
203
331
6C
  5
243
331
E3
  5
20E
331
DF
  5
214
331
A0
  5
226
331
9C
  5
22A
331
98
  5
22E
331
1D6
  5
1DD
331
20D
  5
F0
331
1D2
  5
1E1
331
209
  5
100
331
205
  5
104
331
240
  5
82
331
201
  5
138
331
94
  5
232
331
90
  5
236
331
8C
  5
23A
331
145
  5
1F4
331
88
  5
23E
331
187
  5
1EE
331
102
  5
207
331
141
  5
1F8
331
1FD
  5
13C
331
23C
  5
8A
331
1C2
  5
1E5
331
1F9
  5
140
331
238
  5
8E
331
1F5
  5
144
331
234
  5
92
331
230
  5
96
331
1F1
  5
160
331
C7
  5
21B
331
13D
  5
1FC
331
C3
  5
21F
331
FE
  5
20B
331
139
  5
200
331
80
  5
242
331
22C
  5
9A
331
1B2
  5
1E7
331
1ED
  5
194
331
1AE
  5
1EB
331
1E9
  5
1B0
331
228
  5
9E
331
1E5
  5
1C2
331
224
  5
A6
331
1E1
  5
1D2
331
220
  5
C2
331
160
  5
1F1
331
21C
  5
C6
331
1DD
  5
1D6
331
218
  5
CA
331
1D9
  5
1DA
331
214
  5
DF
331
A7
  5
223
331
E2
  5
211
331
DE
  5
215
331
9F
  5
227
331
9B
  5
22B
331
1D5
  5
1DE
331
111
  5
204
331
1D1
  5
1E2
331
20C
  5
FD
331
208
  5
101
331
204
  5
111
331
243
  5
6C
331
200
  5
139
331
97
  5
22F
331
93
  5
233
331
8F
  5
237
331
8B
  5
23B
331
CA
  5
218
331
144
  5
1F5
331
140
  5
1F9
331
23F
  5
87
331
101
  5
208
331
1FC
  5
13D
331
23B
  5
8B
331
1F8
  5
141
331
237
  5
8F
331
17A
  5
1EF
331
1F4
  5
145
331
233
  5
93
331
1F0
  5
16D
331
87
  5
23F
331
C6
  5
21C
331
13C
  5
1FD
331
C2
  5
220
331
FD
  5
20C
331
138
  5
201
331
22F
  5
97
331
1EC
  5
1A1
331
22B
  5
9B
331
1B1
  5
1E8
331
1E8
  5
1B1
331
227
  5
9F
331
1E4
  5
1C3
331
223
  5
A7
331
1E0
  5
1D3
331
21F
  5
C3
331
21B
  5
C7
331
1A1
  5
1EC
331
1DC
  5
1D7
331
217
  5
DC
331
1D8
  5
1DB
331
213
  5
E0
331
A6
  5
224
331
E1
  5
212
331
DD
  5
216
331
9E
  5
228
331
9A
  5
22C
331
153
  5
1F2
331
1D4
  5
1DF
331
1D0
  5
1E3
331
20B
  5
FE
331
207
  5
102
331
203
  5
11E
331
242
  5
80
331
96
  5
230
331
92
  5
234
331
8E
  5
238
331
8A
  5
23C
331
C9
  5
219
331
104
  5
205
331
143
  5
1F6
331
23E
  5
88
331
100
  5
209
331
1FF
  5
13A
331
1FB
  5
13E
331
23A
  5
8C
331
1F7
  5
142
331
236
  5
90
331
1F3
  5
146
331
232
  5
94
331
13F
  5
1FA
331
C5
  5
21D
331
13B
  5
1FE
331
82
  5
240
331
22E
  5
98
331
F0
  5
20D
331
1EF
  5
17A
331
1EB
  5
1AE
331
22A
  5
9C
331
1B0
  5
1E9
331
1E7
  5
1B2
331
226
  5
A0
331
16D
  5
1F0
331
1E3
  5
1D0
331
222
  5
A8
331
B5
  5
221
331
12B
  5
202
331
21E
  5
C4
331
1DF
  5
1D4
331
21A
  5
C8
331
1DB
  5
1D8
331
216
  5
DD
331
212
  5
E1
331
A5
  5
225
331
E0
  5
213
331
9D
  5
229
331
DC
  5
217
331
99
  5
22D
331
1D7
  5
1DC
331
20E
  5
E3
331
194
  5
1ED
331
1D3
  5
1E0
331
20A
  5
FF
331
206
  5
103
331
241
  5
81
331
202
  5
12B
331
95
  5
231
331
91
  5
235
331
146
  5
1F3
331
8D
  5
239
331
89
  5
23D
331
C8
  5
21A
331
103
  5
206
331
142
  5
1F7
331
23D
  5
89
331
1C3
  5
1E4
331
1FE
  5
13B
331
1FA
  5
13F
331
239
  5
8D
331
1F6
  5
143
331
235
  5
91
331
1F2
  5
153
331
231
  5
95
331
13E
  5
1FB
331
C4
  5
21E
331
FF
  5
20A
331
13A
  5
1FF
331
81
  5
241
331
22D
  5
99
331
1B3
  5
1E6
331
1EE
  5
187
331
1AF
  5
1EA
331
1EA
  5
1AF
331
229
  5
9D
331
1E6
  5
1B3
331
225
  5
A5
331
1E2
  5
1D1
331
221
  5
B5
  0
XRECORD
  5
2C3
102
{ACAD_REACTORS
330
2C2
102
}
330
2C2
100
AcDbXrecord
280
     1
 40
29448.0
  1
\A1;Drückerhöhe
  0
ACDBDETAILVIEWSTYLE
  5
26D
102
{ACAD_XDICTIONARY
360
26E
102
}
102
{ACAD_REACTORS
330
266
330
26C
102
}
330
266
100
AcDbModelDocViewStyle
 70
     0
  3
Metric50
290
     0
100
AcDbDetailViewStyle
 70
     0
 71
     0
 90
        3
 71
     1
340
26
 40
5.0
340
0
 40
5.0
300

 40
0.0
280
     1
 71
     2
340
15
 90
       25
 71
     3
340
26
 40
5.0
 90
        0
 40
15.0
 90
        1
300
%<\AcVar ViewDetailId>% (%<\AcVar ViewScale \f "%sn">%)
 71
     4
340
15
 90
       25
340
15
 90
       25
280
     0
  0
LAYOUT
  5
1E
102
{ACAD_XDICTIONARY
360
2B7
102
}
102
{ACAD_REACTORS
330
18
102
}
330
18
100
AcDbPlotSettings
  1

  2
\\mslklsv1\MSLKLP05
  4

  6

 40
0.0
 41
0.0
 42
0.0
 43
0.0
 44
0.0
 45
0.0
 46
0.0
 47
0.0
 48
0.0
 49
0.0
140
0.0
141
0.0
142
1.0
143
1.0
 70
   688
 72
     0
 73
     0
 74
     5
  7
Katalog 09.ctb
 75
    16
147
1.0
148
0.0
149
0.0
100
AcDbLayout
  1
Layout1
 70
     1
 71
     1
 10
0.0
 20
0.0
 11
12.0
 21
9.0
 12
0.0
 22
0.0
 32
0.0
 14
1.000000000000000E+20
 24
1.000000000000000E+20
 34
1.000000000000000E+20
 15
-1.000000000000000E+20
 25
-1.000000000000000E+20
 35
-1.000000000000000E+20
146
0.0
 13
0.0
 23
0.0
 33
0.0
 16
1.0
 26
0.0
 36
0.0
 17
0.0
 27
1.0
 37
0.0
 76
     0
330
1B
  0
LAYOUT
  5
17
102
{ACAD_XDICTIONARY
360
19
102
}
102
{ACAD_REACTORS
330
18
102
}
330
18
100
AcDbPlotSettings
  1

  2
\\mslklsv1\MSLKLP05
  4
A4
  6

 40
6.720416545867919
 41
6.720392704010009
 42
7.694076538085937
 43
4.011077880859375
 44
209.9733276367187
 45
296.9683227539062
 46
0.0
 47
0.0
 48
0.0
 49
0.0
140
0.0
141
0.0
142
1.0
143
2.49309260033622
 70
 11952
 72
     1
 73
     1
 74
     0
  7
Katalog 09.ctb
 75
     0
147
0.4011082459853835
148
235.6679059730945
149
-4.09529976950003
100
AcDbLayout
  1
Model
 70
     1
 71
     0
 10
0.0
 20
0.0
 11
12.0
 21
9.0
 12
0.0
 22
0.0
 32
0.0
 14
0.0
 24
0.0
 34
0.0
 15
0.0
 25
0.0
 35
0.0
146
0.0
 13
0.0
 23
0.0
 33
0.0
 16
1.0
 26
0.0
 36
0.0
 17
0.0
 27
1.0
 37
0.0
 76
     0
330
2
331
2E
1001
ACAD_PSEXT
1000
\\mslklsv1\MSLKLP05
1000
HP LaserJet 5000 Series PCL
1000
CAD
1000
HP LaserJet 5000N
1070
     0
  0
MATERIAL
  5
47
102
{ACAD_XDICTIONARY
360
48
102
}
102
{ACAD_REACTORS
330
D
102
}
330
D
100
AcDbMaterial
  1
ByBlock
 72
     0
 43
0.0008202099737533
 43
0.0
 43
0.0
 43
0.0
 43
0.0
 43
0.0008202099737533
 43
0.0
 43
0.0
 43
0.0
 43
0.0
 43
1.0
 43
0.0
 43
0.0
 43
0.0
 43
0.0
 43
1.0
 77
     0
 47
0.0008202099737533
 47
0.0
 47
0.0
 47
0.0
 47
0.0
 47
0.0008202099737533
 47
0.0
 47
0.0
 47
0.0
 47
0.0
 47
1.0
 47
0.0
 47
0.0
 47
0.0
 47
0.0
 47
1.0
171
     0
 49
0.0008202099737533
 49
0.0
 49
0.0
 49
0.0
 49
0.0
 49
0.0008202099737533
 49
0.0
 49
0.0
 49
0.0
 49
0.0
 49
1.0
 49
0.0
 49
0.0
 49
0.0
 49
0.0
 49
1.0
175
     0
142
0.0008202099737533
142
0.0
142
0.0
142
0.0
142
0.0
142
0.0008202099737533
142
0.0
142
0.0
142
0.0
142
0.0
142
1.0
142
0.0
142
0.0
142
0.0
142
0.0
142
1.0
179
     0
144
0.0008202099737533
144
0.0
144
0.0
144
0.0
144
0.0
144
0.0008202099737533
144
0.0
144
0.0
144
0.0
144
0.0
144
1.0
144
0.0
144
0.0
144
0.0
144
0.0
144
1.0
147
0.0008202099737533
147
0.0
147
0.0
147
0.0
147
0.0
147
0.0008202099737533
147
0.0
147
0.0
147
0.0
147
0.0
147
1.0
147
0.0
147
0.0
147
0.0
147
0.0
147
1.0
  0
MATERIAL
  5
3F
102
{ACAD_XDICTIONARY
360
40
102
}
102
{ACAD_REACTORS
330
D
102
}
330
D
100
AcDbMaterial
  1
ByLayer
 72
     0
 43
0.0008202099737533
 43
0.0
 43
0.0
 43
0.0
 43
0.0
 43
0.0008202099737533
 43
0.0
 43
0.0
 43
0.0
 43
0.0
 43
1.0
 43
0.0
 43
0.0
 43
0.0
 43
0.0
 43
1.0
 77
     0
 47
0.0008202099737533
 47
0.0
 47
0.0
 47
0.0
 47
0.0
 47
0.0008202099737533
 47
0.0
 47
0.0
 47
0.0
 47
0.0
 47
1.0
 47
0.0
 47
0.0
 47
0.0
 47
0.0
 47
1.0
171
     0
 49
0.0008202099737533
 49
0.0
 49
0.0
 49
0.0
 49
0.0
 49
0.0008202099737533
 49
0.0
 49
0.0
 49
0.0
 49
0.0
 49
1.0
 49
0.0
 49
0.0
 49
0.0
 49
0.0
 49
1.0
175
     0
142
0.0008202099737533
142
0.0
142
0.0
142
0.0
142
0.0
142
0.0008202099737533
142
0.0
142
0.0
142
0.0
142
0.0
142
1.0
142
0.0
142
0.0
142
0.0
142
0.0
142
1.0
179
     0
144
0.0008202099737533
144
0.0
144
0.0
144
0.0
144
0.0
144
0.0008202099737533
144
0.0
144
0.0
144
0.0
144
0.0
144
1.0
144
0.0
144
0.0
144
0.0
144
0.0
144
1.0
147
0.0008202099737533
147
0.0
147
0.0
147
0.0
147
0.0
147
0.0008202099737533
147
0.0
147
0.0
147
0.0
147
0.0
147
1.0
147
0.0
147
0.0
147
0.0
147
0.0
147
1.0
  0
MATERIAL
  5
C
102
{ACAD_XDICTIONARY
360
E
102
}
102
{ACAD_REACTORS
330
D
102
}
330
D
100
AcDbMaterial
  1
Global
 72
     0
 43
0.0008202099737533
 43
0.0
 43
0.0
 43
0.0
 43
0.0
 43
0.0008202099737533
 43
0.0
 43
0.0
 43
0.0
 43
0.0
 43
1.0
 43
0.0
 43
0.0
 43
0.0
 43
0.0
 43
1.0
 77
     0
 47
0.0008202099737533
 47
0.0
 47
0.0
 47
0.0
 47
0.0
 47
0.0008202099737533
 47
0.0
 47
0.0
 47
0.0
 47
0.0
 47
1.0
 47
0.0
 47
0.0
 47
0.0
 47
0.0
 47
1.0
171
     0
 49
0.0008202099737533
 49
0.0
 49
0.0
 49
0.0
 49
0.0
 49
0.0008202099737533
 49
0.0
 49
0.0
 49
0.0
 49
0.0
 49
1.0
 49
0.0
 49
0.0
 49
0.0
 49
0.0
 49
1.0
175
     0
142
0.0008202099737533
142
0.0
142
0.0
142
0.0
142
0.0
142
0.0008202099737533
142
0.0
142
0.0
142
0.0
142
0.0
142
1.0
142
0.0
142
0.0
142
0.0
142
0.0
142
1.0
179
     0
144
0.0008202099737533
144
0.0
144
0.0
144
0.0
144
0.0
144
0.0008202099737533
144
0.0
144
0.0
144
0.0
144
0.0
144
1.0
144
0.0
144
0.0
144
0.0
144
0.0
144
1.0
147
0.0008202099737533
147
0.0
147
0.0
147
0.0
147
0.0
147
0.0008202099737533
147
0.0
147
0.0
147
0.0
147
0.0
147
1.0
147
0.0
147
0.0
147
0.0
147
0.0
147
1.0
  0
MLINESTYLE
  5
56
102
{ACAD_REACTORS
330
3D
102
}
330
3D
100
AcDbMlineStyle
  2
STANDARD
 70
     0
  3

 62
     0
 51
90.0
 52
90.0
 71
     2
 49
0.5
 62
   256
  6
BYLAYER
 49
-0.5
 62
   256
  6
BYLAYER
  0
ACDBPLACEHOLDER
  5
9
102
{ACAD_REACTORS
330
A
102
}
330
A
  0
SCALE
  5
5B
102
{ACAD_REACTORS
330
50
102
}
330
50
100
AcDbScale
 70
     0
300
1:1
140
1.0
141
1.0
290
     1
  0
SCALE
  5
5C
102
{ACAD_REACTORS
330
50
102
}
330
50
100
AcDbScale
 70
     0
300
1:2
140
1.0
141
2.0
290
     0
  0
SCALE
  5
5D
102
{ACAD_REACTORS
330
50
102
}
330
50
100
AcDbScale
 70
     0
300
1:4
140
1.0
141
4.0
290
     0
  0
SCALE
  5
5E
102
{ACAD_REACTORS
330
50
102
}
330
50
100
AcDbScale
 70
     0
300
1:5
140
1.0
141
5.0
290
     0
  0
SCALE
  5
5F
102
{ACAD_REACTORS
330
50
102
}
330
50
100
AcDbScale
 70
     0
300
1:8
140
1.0
141
8.0
290
     0
  0
SCALE
  5
60
102
{ACAD_REACTORS
330
50
102
}
330
50
100
AcDbScale
 70
     0
300
1:10
140
1.0
141
10.0
290
     0
  0
SCALE
  5
61
102
{ACAD_REACTORS
330
50
102
}
330
50
100
AcDbScale
 70
     0
300
1:16
140
1.0
141
16.0
290
     0
  0
SCALE
  5
62
102
{ACAD_REACTORS
330
50
102
}
330
50
100
AcDbScale
 70
     0
300
1:20
140
1.0
141
20.0
290
     0
  0
SCALE
  5
63
102
{ACAD_REACTORS
330
50
102
}
330
50
100
AcDbScale
 70
     0
300
1:30
140
1.0
141
30.0
290
     0
  0
SCALE
  5
64
102
{ACAD_REACTORS
330
50
102
}
330
50
100
AcDbScale
 70
     0
300
1:40
140
1.0
141
40.0
290
     0
  0
SCALE
  5
65
102
{ACAD_REACTORS
330
50
102
}
330
50
100
AcDbScale
 70
     0
300
1:50
140
1.0
141
50.0
290
     0
  0
SCALE
  5
66
102
{ACAD_REACTORS
330
50
102
}
330
50
100
AcDbScale
 70
     0
300
1:100
140
1.0
141
100.0
290
     0
  0
SCALE
  5
67
102
{ACAD_REACTORS
330
50
102
}
330
50
100
AcDbScale
 70
     0
300
2:1
140
2.0
141
1.0
290
     0
  0
SCALE
  5
68
102
{ACAD_REACTORS
330
50
102
}
330
50
100
AcDbScale
 70
     0
300
4:1
140
4.0
141
1.0
290
     0
  0
SCALE
  5
69
102
{ACAD_REACTORS
330
50
102
}
330
50
100
AcDbScale
 70
     0
300
8:1
140
8.0
141
1.0
290
     0
  0
SCALE
  5
6A
102
{ACAD_REACTORS
330
50
102
}
330
50
100
AcDbScale
 70
     0
300
10:1
140
10.0
141
1.0
290
     0
  0
SCALE
  5
6B
102
{ACAD_REACTORS
330
50
102
}
330
50
100
AcDbScale
 70
     0
300
100:1
140
100.0
141
1.0
290
     0
  0
ACDBSECTIONVIEWSTYLE
  5
27C
102
{ACAD_XDICTIONARY
360
27D
102
}
102
{ACAD_REACTORS
330
271
330
27B
102
}
330
271
100
AcDbModelDocViewStyle
 70
     0
  3
Metric50
290
     0
100
AcDbSectionViewStyle
 70
     0
 71
     0
 90
      102
 71
     1
340
26
 40
5.0
340
0
340
0
 40
5.0
300
I, O, Q, S, X, Z
 40
10.0
 90
        0
 40
2.5
 90
        0
 71
     2
340
15
 90
       25
340
15
 90
       50
 40
5.0
 40
2.5
 40
5.0
 71
     3
340
26
 40
5.0
 90
        0
 40
15.0
 90
        1
300
%<\AcVar ViewSectionStartId>%-%<\AcVar ViewSectionEndId>% (%<\AcVar ViewScale \f "%sn">%)
 71
     4
300
ANSI31
 40
1.0
 90
        0
290
     0
290
     0
 90
        6
 40
0.0
 40
1.570796326794896
 40
0.2617993877991494
 40
1.308996938995747
 40
-0.2617993877991494
 40
1.832595714594046
  0
TABLESTYLE
  5
57
102
{ACAD_XDICTIONARY
360
58
102
}
102
{ACAD_REACTORS
330
51
102
}
330
51
100
AcDbTableStyle
  3
Standard
 70
     0
 71
     0
 40
0.06
 41
0.06
280
     0
281
     0
  7
STANDARD
140
0.18
170
     2
 62
     0
 63
     7
283
     0
274
    -2
284
     1
 64
     0
275
    -2
285
     1
 65
     0
276
    -2
286
     1
 66
     0
277
    -2
287
     1
 67
     0
278
    -2
288
     1
 68
     0
279
    -2
289
     1
 69
     0
  7
STANDARD
140
0.25
170
     5
 62
     0
 63
     7
283
     0
274
    -2
284
     1
 64
     0
275
    -2
285
     1
 65
     0
276
    -2
286
     1
 66
     0
277
    -2
287
     1
 67
     0
278
    -2
288
     1
 68
     0
279
    -2
289
     1
 69
     0
  7
STANDARD
140
0.18
170
     5
 62
     0
 63
     7
283
     0
274
    -2
284
     1
 64
     0
275
    -2
285
     1
 65
     0
276
    -2
286
     1
 66
     0
277
    -2
287
     1
 67
     0
278
    -2
288
     1
 68
     0
279
    -2
289
     1
 69
     0
  0
VISUALSTYLE
  5
2F
102
{ACAD_XDICTIONARY
360
2B9
102
}
102
{ACAD_REACTORS
330
30
102
}
330
30
100
AcDbVisualStyle
  2
2dWireframe
 70
     4
 71
     0
 72
     2
 73
     0
 90
        0
 40
-0.6
 41
-30.0
 62
     5
 63
     7
 74
     1
 91
        4
 64
     7
 65
   257
 75
     1
175
     1
 42
1.0
 92
        0
 66
   257
 43
1.0
 76
     1
 77
     6
 78
     2
 67
     7
 79
     5
170
     0
171
     0
290
     0
174
     0
 93
        1
 44
0.0
173
     0
291
     0
 45
0.0
1001
ACAD
1000
AcDbSavedByObjectVersion
1070
     0
  0
VISUALSTYLE
  5
59
102
{ACAD_XDICTIONARY
360
2BE
102
}
102
{ACAD_REACTORS
330
30
102
}
330
30
100
AcDbVisualStyle
  2
Realistic
 70
     8
 71
     2
 72
     2
 73
     0
 90
        0
 40
-0.6
 41
-30.0
 62
     5
 63
     7
 74
     1
 91
        0
 64
     7
 65
   257
 75
     1
175
     1
 42
1.0
 92
        8
 66
     8
 43
1.0
 76
     1
 77
     6
 78
     2
 67
     7
 79
     5
170
     0
171
     0
290
     0
174
     0
 93
       13
 44
0.0
173
     0
291
     0
 45
0.0
1001
ACAD
1000
AcDbSavedByObjectVersion
1070
     0
  0
VISUALSTYLE
  5
5A
102
{ACAD_XDICTIONARY
360
2C0
102
}
102
{ACAD_REACTORS
330
30
102
}
330
30
100
AcDbVisualStyle
  2
Wireframe
 70
     5
 71
     0
 72
     2
 73
     0
 90
        0
 40
-0.6
 41
-30.0
 62
     5
 63
     7
 74
     1
 91
        4
 64
     7
 65
   257
 75
     1
175
     1
 42
1.0
 92
        0
 66
   257
 43
1.0
 76
     1
 77
     6
 78
     2
 67
     7
 79
     3
170
     0
171
     0
290
     0
174
     0
 93
        1
 44
0.0
173
     0
291
     0
 45
0.0
1001
ACAD
1000
AcDbSavedByObjectVersion
1070
     0
  0
DICTIONARYVAR
  5
2A3
102
{ACAD_REACTORS
330
29E
102
}
330
29E
100
DictionaryVariables
280
     0
  1
1:1
  0
DICTIONARYVAR
  5
2A0
102
{ACAD_REACTORS
330
29E
102
}
330
29E
100
DictionaryVariables
280
     0
  1
STANDARD
  0
DICTIONARYVAR
  5
29F
102
{ACAD_REACTORS
330
29E
102
}
330
29E
100
DictionaryVariables
280
     0
  1
STANDARD
  0
DICTIONARYVAR
  5
2A1
102
{ACAD_REACTORS
330
29E
102
}
330
29E
100
DictionaryVariables
280
     0
  1

  0
DICTIONARYVAR
  5
2A2
102
{ACAD_REACTORS
330
29E
102
}
330
29E
100
DictionaryVariables
280
     0
  1

  0
DICTIONARYVAR
  5
2A8
102
{ACAD_REACTORS
330
29E
102
}
330
29E
100
DictionaryVariables
280
     0
  1
1
  0
DICTIONARYVAR
  5
2A6
102
{ACAD_REACTORS
330
29E
102
}
330
29E
100
DictionaryVariables
280
     0
  1
1
  0
DICTIONARYVAR
  5
2A5
102
{ACAD_REACTORS
330
29E
102
}
330
29E
100
DictionaryVariables
280
     0
  1
0
  0
DICTIONARYVAR
  5
2A9
102
{ACAD_REACTORS
330
29E
102
}
330
29E
100
DictionaryVariables
280
     0
  1
1
  0
DICTIONARYVAR
  5
2A4
102
{ACAD_REACTORS
330
29E
102
}
330
29E
100
DictionaryVariables
280
     0
  1
127
  0
DICTIONARYVAR
  5
2A7
102
{ACAD_REACTORS
330
29E
102
}
330
29E
100
DictionaryVariables
280
     0
  1
0
  0
DICTIONARY
  5
2B4
102
{ACAD_REACTORS
330
2B2
102
}
330
2B2
100
AcDbDictionary
281
     1
  0
DICTIONARY
  5
2B3
102
{ACAD_REACTORS
330
2B2
102
}
330
2B2
100
AcDbDictionary
281
     1
  3
8796087915856
350
2AD
  3
8796087915872
350
2AE
  3
8796087915888
350
2AF
  3
8796087915904
350
2B0
  3
8796087915920
350
2B1
  0
DICTIONARY
  5
257
102
{ACAD_REACTORS
330
256
102
}
330
256
100
AcDbDictionary
281
     1
  0
DICTIONARY
  5
250
102
{ACAD_REACTORS
330
246
102
}
330
246
100
AcDbDictionary
281
     1
  3
DWGSETTINGS
350
24F
  3
TRANSSETTINGS
350
251
  0
DICTIONARY
  5
26E
330
26D
100
AcDbDictionary
280
     1
281
     1
  3
ACAD_XREC_ROUNDTRIP
360
2C4
  0
DICTIONARY
  5
2B7
330
1E
100
AcDbDictionary
280
     1
281
     1
  3
ACAD_XREC_ROUNDTRIP
360
2B8
  0
DICTIONARY
  5
19
330
17
100
AcDbDictionary
280
     1
281
     1
  3
ACAD_XREC_ROUNDTRIP
360
2B6
  0
DICTIONARY
  5
48
330
47
100
AcDbDictionary
280
     1
281
     1
  3
ACAD_XREC_ROUNDTRIP
360
2BC
  3
BUMPTILE
360
49
  3
DIFFUSETILE
360
4A
  3
OPACITYTILE
360
4B
  3
REFLECTIONTILE
360
4C
  3
REFRACTIONTILE
360
4D
  3
SPECULARTILE
360
4E
  0
DICTIONARY
  5
40
330
3F
100
AcDbDictionary
280
     1
281
     1
  3
ACAD_XREC_ROUNDTRIP
360
2BB
  3
BUMPTILE
360
41
  3
DIFFUSETILE
360
42
  3
OPACITYTILE
360
43
  3
REFLECTIONTILE
360
44
  3
REFRACTIONTILE
360
45
  3
SPECULARTILE
360
46
  0
DICTIONARY
  5
E
330
C
100
AcDbDictionary
280
     1
281
     1
  3
ACAD_XREC_ROUNDTRIP
360
2B5
  3
BUMPTILE
360
F
  3
DIFFUSETILE
360
10
  3
OPACITYTILE
360
11
  3
REFLECTIONTILE
360
12
  3
REFRACTIONTILE
360
13
  3
SPECULARTILE
360
14
  0
DICTIONARY
  5
27D
330
27C
100
AcDbDictionary
280
     1
281
     1
  3
ACAD_XREC_ROUNDTRIP
360
2C5
  0
DICTIONARY
  5
58
330
57
100
AcDbDictionary
280
     1
281
     1
  3
ACAD_ROUNDTRIP_2008_TABLESTYLE_CELLSTYLEMAP
360
2AA
  3
ACAD_XREC_ROUNDTRIP
360
2BD
  0
DICTIONARY
  5
2B9
330
2F
100
AcDbDictionary
280
     1
281
     1
  3
ACAD_XREC_ROUNDTRIP
360
2BA
  0
DICTIONARY
  5
2BE
330
59
100
AcDbDictionary
280
     1
281
     1
  3
ACAD_XREC_ROUNDTRIP
360
2BF
  0
DICTIONARY
  5
2C0
330
5A
100
AcDbDictionary
280
     1
281
     1
  3
ACAD_XREC_ROUNDTRIP
360
2C1
  0
XRECORD
  5
2AD
102
{ACAD_REACTORS
330
2B3
102
}
330
2B3
100
AcDbXrecord
280
     1
  1
AcDb_Thumbnail_Schema
102
{ATTRRECORD
341
2AE
  2
AcDbDs::TreatedAsObjectData
280
     1
291
     1
102
ATTRRECORD}
102
{ATTRRECORD
341
2AF
  2
AcDbDs::Legacy
280
     1
291
     1
102
ATTRRECORD}
  2
AcDbDs::ID
280
    10
 91
        8
102
{ATTRRECORD
341
2B0
  2
AcDs:Indexable
280
     1
291
     1
102
ATTRRECORD}
102
{ATTRRECORD
341
2B1
  2
AcDbDs::HandleAttribute
280
     7
282
     1
102
ATTRRECORD}
  2
Thumbnail_Data
280
    15
 91
        0
  0
XRECORD
  5
2AE
102
{ACAD_REACTORS
330
2B3
102
}
330
2B3
100
AcDbXrecord
280
     1
  1
AcDbDs::TreatedAsObjectDataSchema
  2
AcDbDs::TreatedAsObjectData
280
     1
 91
        0
  0
XRECORD
  5
2AF
102
{ACAD_REACTORS
330
2B3
102
}
330
2B3
100
AcDbXrecord
280
     1
  1
AcDbDs::LegacySchema
  2
AcDbDs::Legacy
280
     1
 91
        0
  0
XRECORD
  5
2B0
102
{ACAD_REACTORS
330
2B3
102
}
330
2B3
100
AcDbXrecord
280
     1
  1
AcDbDs::IndexedPropertySchema
  2
AcDs:Indexable
280
     1
 91
        0
  0
XRECORD
  5
2B1
102
{ACAD_REACTORS
330
2B3
102
}
330
2B3
100
AcDbXrecord
280
     1
  1
AcDbDs::HandleAttributeSchema
  2
AcDbDs::HandleAttribute
280
     7
 91
        1
284
     1
  0
XRECORD
  5
2C4
102
{ACAD_REACTORS
330
26E
102
}
330
26E
100
AcDbXrecord
280
     1
102
DISPLAYNAME
  1
Metric50
102
FLAGS
 90
        0
  0
XRECORD
  5
2B8
102
{ACAD_REACTORS
330
2B7
102
}
330
2B7
100
AcDbXrecord
280
     1
102
SHADEPLOT
 70
     0
102
SHADEPLOTRESLEVEL
 70
     2
102
SHADEPLOTCUSTOMDPI
 70
   300
  0
XRECORD
  5
2B6
102
{ACAD_REACTORS
330
19
102
}
330
19
100
AcDbXrecord
280
     1
102
SHADEPLOT
 70
     0
102
SHADEPLOTRESLEVEL
 70
     2
102
SHADEPLOTCUSTOMDPI
 70
   300
  0
XRECORD
  5
2BC
102
{ACAD_REACTORS
330
48
102
}
330
48
100
AcDbXrecord
280
     1
102
MATERIAL
148
0.0
149
0.0
149
0.0
 93
        0
 94
      127
282
     0
 72
     0
 77
     0
171
     0
175
     0
179
     0
273
     0
  0
XRECORD
  5
49
102
{ACAD_REACTORS
330
48
102
}
330
48
100
AcDbXrecord
280
     1
270
     1
271
     1
  0
XRECORD
  5
4A
102
{ACAD_REACTORS
330
48
102
}
330
48
100
AcDbXrecord
280
     1
270
     1
271
     1
  0
XRECORD
  5
4B
102
{ACAD_REACTORS
330
48
102
}
330
48
100
AcDbXrecord
280
     1
270
     1
271
     1
  0
XRECORD
  5
4C
102
{ACAD_REACTORS
330
48
102
}
330
48
100
AcDbXrecord
280
     1
270
     1
271
     1
  0
XRECORD
  5
4D
102
{ACAD_REACTORS
330
48
102
}
330
48
100
AcDbXrecord
280
     1
270
     1
271
     1
  0
XRECORD
  5
4E
102
{ACAD_REACTORS
330
48
102
}
330
48
100
AcDbXrecord
280
     1
270
     1
271
     1
  0
XRECORD
  5
2BB
102
{ACAD_REACTORS
330
40
102
}
330
40
100
AcDbXrecord
280
     1
102
MATERIAL
148
0.0
149
0.0
149
0.0
 93
        0
 94
      127
282
     0
 72
     0
 77
     0
171
     0
175
     0
179
     0
273
     0
  0
XRECORD
  5
41
102
{ACAD_REACTORS
330
40
102
}
330
40
100
AcDbXrecord
280
     1
270
     1
271
     1
  0
XRECORD
  5
42
102
{ACAD_REACTORS
330
40
102
}
330
40
100
AcDbXrecord
280
     1
270
     1
271
     1
  0
XRECORD
  5
43
102
{ACAD_REACTORS
330
40
102
}
330
40
100
AcDbXrecord
280
     1
270
     1
271
     1
  0
XRECORD
  5
44
102
{ACAD_REACTORS
330
40
102
}
330
40
100
AcDbXrecord
280
     1
270
     1
271
     1
  0
XRECORD
  5
45
102
{ACAD_REACTORS
330
40
102
}
330
40
100
AcDbXrecord
280
     1
270
     1
271
     1
  0
XRECORD
  5
46
102
{ACAD_REACTORS
330
40
102
}
330
40
100
AcDbXrecord
280
     1
270
     1
271
     1
  0
XRECORD
  5
2B5
102
{ACAD_REACTORS
330
E
102
}
330
E
100
AcDbXrecord
280
     1
102
MATERIAL
148
0.0
149
0.0
149
0.0
 93
        0
 94
      127
282
     0
 72
     0
 77
     0
171
     0
175
     0
179
     0
273
     0
  0
XRECORD
  5
F
102
{ACAD_REACTORS
330
E
102
}
330
E
100
AcDbXrecord
280
     1
270
     1
271
     1
  0
XRECORD
  5
10
102
{ACAD_REACTORS
330
E
102
}
330
E
100
AcDbXrecord
280
     1
270
     1
271
     1
  0
XRECORD
  5
11
102
{ACAD_REACTORS
330
E
102
}
330
E
100
AcDbXrecord
280
     1
270
     1
271
     1
  0
XRECORD
  5
12
102
{ACAD_REACTORS
330
E
102
}
330
E
100
AcDbXrecord
280
     1
270
     1
271
     1
  0
XRECORD
  5
13
102
{ACAD_REACTORS
330
E
102
}
330
E
100
AcDbXrecord
280
     1
270
     1
271
     1
  0
XRECORD
  5
14
102
{ACAD_REACTORS
330
E
102
}
330
E
100
AcDbXrecord
280
     1
270
     1
271
     1
  0
XRECORD
  5
2C5
102
{ACAD_REACTORS
330
27D
102
}
330
27D
100
AcDbXrecord
280
     1
102
DISPLAYNAME
  1
Metric50
102
FLAGS
 90
        0
  0
CELLSTYLEMAP
  5
2AA
102
{ACAD_REACTORS
330
58
102
}
330
58
100
AcDbCellStyleMap
 90
        3
300
CELLSTYLE
  1
TABLEFORMAT_BEGIN
 90
        5
170
     1
 91
        0
 92
    32768
 62
   257
 93
        1
300
CONTENTFORMAT
  1
CONTENTFORMAT_BEGIN
 90
        0
 91
        0
 92
        4
 93
        0
300

 40
0.0
140
1.0
 94
        5
 62
     0
340
26
144
0.25
309
CONTENTFORMAT_END
171
     0
 94
        6
 95
        1
302
GRIDFORMAT
  1
GRIDFORMAT_BEGIN
 90
        0
 91
        1
 62
     0
 92
       -2
340
0
 93
        0
 40
0.045
309
GRIDFORMAT_END
 95
        2
302
GRIDFORMAT
  1
GRIDFORMAT_BEGIN
 90
        0
 91
        1
 62
     0
 92
       -2
340
0
 93
        0
 40
0.045
309
GRIDFORMAT_END
 95
        4
302
GRIDFORMAT
  1
GRIDFORMAT_BEGIN
 90
        0
 91
        1
 62
     0
 92
       -2
340
0
 93
        0
 40
0.045
309
GRIDFORMAT_END
 95
        8
302
GRIDFORMAT
  1
GRIDFORMAT_BEGIN
 90
        0
 91
        1
 62
     0
 92
       -2
340
0
 93
        0
 40
0.045
309
GRIDFORMAT_END
 95
       16
302
GRIDFORMAT
  1
GRIDFORMAT_BEGIN
 90
        0
 91
        1
 62
     0
 92
       -2
340
0
 93
        0
 40
0.045
309
GRIDFORMAT_END
 95
       32
302
GRIDFORMAT
  1
GRIDFORMAT_BEGIN
 90
        0
 91
        1
 62
     0
 92
       -2
340
0
 93
        0
 40
0.045
309
GRIDFORMAT_END
309
TABLEFORMAT_END
  1
CELLSTYLE_BEGIN
 90
        1
 91
        1
300
_TITLE
309
CELLSTYLE_END
300
CELLSTYLE
  1
TABLEFORMAT_BEGIN
 90
        5
170
     1
 91
        0
 92
        0
 62
   257
 93
        1
300
CONTENTFORMAT
  1
CONTENTFORMAT_BEGIN
 90
        0
 91
        0
 92
        4
 93
        0
300

 40
0.0
140
1.0
 94
        5
 62
     0
340
26
144
0.18
309
CONTENTFORMAT_END
171
     0
 94
        6
 95
        1
302
GRIDFORMAT
  1
GRIDFORMAT_BEGIN
 90
        0
 91
        1
 62
     0
 92
       -2
340
0
 93
        0
 40
0.045
309
GRIDFORMAT_END
 95
        2
302
GRIDFORMAT
  1
GRIDFORMAT_BEGIN
 90
        0
 91
        1
 62
     0
 92
       -2
340
0
 93
        0
 40
0.045
309
GRIDFORMAT_END
 95
        4
302
GRIDFORMAT
  1
GRIDFORMAT_BEGIN
 90
        0
 91
        1
 62
     0
 92
       -2
340
0
 93
        0
 40
0.045
309
GRIDFORMAT_END
 95
        8
302
GRIDFORMAT
  1
GRIDFORMAT_BEGIN
 90
        0
 91
        1
 62
     0
 92
       -2
340
0
 93
        0
 40
0.045
309
GRIDFORMAT_END
 95
       16
302
GRIDFORMAT
  1
GRIDFORMAT_BEGIN
 90
        0
 91
        1
 62
     0
 92
       -2
340
0
 93
        0
 40
0.045
309
GRIDFORMAT_END
 95
       32
302
GRIDFORMAT
  1
GRIDFORMAT_BEGIN
 90
        0
 91
        1
 62
     0
 92
       -2
340
0
 93
        0
 40
0.045
309
GRIDFORMAT_END
309
TABLEFORMAT_END
  1
CELLSTYLE_BEGIN
 90
        2
 91
        1
300
_HEADER
309
CELLSTYLE_END
300
CELLSTYLE
  1
TABLEFORMAT_BEGIN
 90
        5
170
     1
 91
        0
 92
        0
 62
   257
 93
        1
300
CONTENTFORMAT
  1
CONTENTFORMAT_BEGIN
 90
        0
 91
        0
 92
        4
 93
        0
300

 40
0.0
140
1.0
 94
        2
 62
     0
340
26
144
0.18
309
CONTENTFORMAT_END
171
     0
 94
        6
 95
        1
302
GRIDFORMAT
  1
GRIDFORMAT_BEGIN
 90
        0
 91
        1
 62
     0
 92
       -2
340
0
 93
        0
 40
0.045
309
GRIDFORMAT_END
 95
        2
302
GRIDFORMAT
  1
GRIDFORMAT_BEGIN
 90
        0
 91
        1
 62
     0
 92
       -2
340
0
 93
        0
 40
0.045
309
GRIDFORMAT_END
 95
        4
302
GRIDFORMAT
  1
GRIDFORMAT_BEGIN
 90
        0
 91
        1
 62
     0
 92
       -2
340
0
 93
        0
 40
0.045
309
GRIDFORMAT_END
 95
        8
302
GRIDFORMAT
  1
GRIDFORMAT_BEGIN
 90
        0
 91
        1
 62
     0
 92
       -2
340
0
 93
        0
 40
0.045
309
GRIDFORMAT_END
 95
       16
302
GRIDFORMAT
  1
GRIDFORMAT_BEGIN
 90
        0
 91
        1
 62
     0
 92
       -2
340
0
 93
        0
 40
0.045
309
GRIDFORMAT_END
 95
       32
302
GRIDFORMAT
  1
GRIDFORMAT_BEGIN
 90
        0
 91
        1
 62
     0
 92
       -2
340
0
 93
        0
 40
0.045
309
GRIDFORMAT_END
309
TABLEFORMAT_END
  1
CELLSTYLE_BEGIN
 90
        3
 91
        2
300
_DATA
309
CELLSTYLE_END
  0
XRECORD
  5
2BD
102
{ACAD_REACTORS
330
58
102
}
330
58
100
AcDbXrecord
280
     1
102
ACAD_ROUNDTRIP_PRE2007_TABLESTYLE
 90
        4
 91
        0
  1

 92
        4
 93
        0
  2

 94
        4
 95
        0
  3

  0
XRECORD
  5
2BA
102
{ACAD_REACTORS
330
2B9
102
}
330
2B9
100
AcDbXrecord
280
     1
102
RTVSPost2010Prop28
280
     1
102
RTVSPost2010PropOp28
 70
     1
102
RTVSPost2010Prop29
280
     1
102
RTVSPost2010PropOp29
 70
     1
102
RTVSPost2010Prop30
280
     0
102
RTVSPost2010PropOp30
 70
     1
102
RTVSPost2010Prop31
280
     0
102
RTVSPost2010PropOp31
 70
     1
102
RTVSPost2010Prop32
280
     0
102
RTVSPost2010PropOp32
 70
     1
102
RTVSPost2010Prop33
280
     0
102
RTVSPost2010PropOp33
 70
     1
102
RTVSPost2010Prop34
280
     0
102
RTVSPost2010PropOp34
 70
     1
102
RTVSPost2010Prop35
280
     0
102
RTVSPost2010PropOp35
 70
     1
102
RTVSPost2010Prop36
280
     0
102
RTVSPost2010PropOp36
 70
     1
102
RTVSPost2010Prop37
 90
       50
102
RTVSPost2010PropOp37
 70
     1
102
RTVSPost2010Prop38
140
0.0
102
RTVSPost2010PropOp38
 70
     1
102
RTVSPost2010Prop39
140
1.0
102
RTVSPost2010PropOp39
 70
     1
102
RTVSPost2010Prop40
 90
        0
102
RTVSPost2010PropOp40
 70
     1
102
RTVSPost2010Prop41ColorIndex
 90
       18
102
RTVSPost2010Prop41ColorRGB
 90
        0
102
RTVSPost2010PropOp41
 70
     1
102
RTVSPost2010Prop42
 90
       50
102
RTVSPost2010PropOp42
 70
     1
102
RTVSPost2010Prop43
 90
        3
102
RTVSPost2010PropOp43
 70
     1
102
RTVSPost2010Prop44ColorIndex
 90
        5
102
RTVSPost2010Prop44ColorRGB
 90
      255
102
RTVSPost2010PropOp44
 70
     1
102
RTVSPost2010Prop45
280
     0
102
RTVSPost2010PropOp45
 70
     1
102
RTVSPost2010Prop46
 90
       50
102
RTVSPost2010PropOp46
 70
     1
102
RTVSPost2010Prop47
 90
       50
102
RTVSPost2010PropOp47
 70
     1
102
RTVSPost2010Prop48
 90
       50
102
RTVSPost2010PropOp48
 70
     1
102
RTVSPost2010Prop49
280
     0
102
RTVSPost2010PropOp49
 70
     1
102
RTVSPost2010Prop50
 90
       50
102
RTVSPost2010PropOp50
 70
     1
102
RTVSPost2010Prop51ColorIndex
 90
      256
102
RTVSPost2010Prop51ColorRGB
 90
-16777216
102
RTVSPost2010PropOp51
 70
     0
102
RTVSPost2010Prop52
140
1.0
102
RTVSPost2010PropOp52
 70
     0
102
RTVSPost2010Prop53
 90
        2
102
RTVSPost2010PropOp53
 70
     1
102
RTVSPost2010Prop54
  1
strokes_ogs.tif
102
RTVSPost2010PropOp54
 70
     1
102
RTVSPost2010Prop55
280
     0
102
RTVSPost2010PropOp55
 70
     1
102
RTVSPost2010Prop56
140
1.0
102
RTVSPost2010PropOp56
 70
     1
102
RTVSPost2010Prop57
140
1.0
102
RTVSPost2010PropOp57
 70
     1
102
RTVSPropertyOp0
 70
     1
102
RTVSPropertyOp1
 70
     1
102
RTVSPropertyOp2
 70
     1
102
RTVSPropertyOp3
 70
     1
102
RTVSPropertyOp4
 70
     1
102
RTVSPropertyOp5
 70
     1
102
RTVSPropertyOp6
 70
     1
102
RTVSPropertyOp7
 70
     1
102
RTVSPropertyOp8
 70
     1
102
RTVSPropertyOp9
 70
     1
102
RTVSPropertyOp10
 70
     1
102
RTVSPropertyOp11
 70
     1
102
RTVSPropertyOp12
 70
     1
102
RTVSPropertyOp13
 70
     1
102
RTVSPropertyOp14
 70
     1
102
RTVSPropertyOp15
 70
     1
102
RTVSPropertyOp16
 70
     1
102
RTVSPropertyOp17
 70
     1
102
RTVSPropertyOp18
 70
     1
102
RTVSPropertyOp19
 70
     1
102
RTVSPropertyOp20
 70
     1
102
RTVSPropertyOp21
 70
     1
102
RTVSPropertyOp22
 70
     1
102
RTVSPropertyOp23
 70
     1
102
RTVSPropertyOp24
 70
     1
102
RTVSPropertyOp25
 70
     1
102
RTVSPropertyOp26
 70
     1
102
RTVSPropertyOp27
 70
     1
102
RTVSPropertyOp28
 70
     1
102
RTVSPropertyOp29
 70
     1
102
RTVSPropertyOp30
 70
     1
102
RTVSPropertyOp31
 70
     1
102
RTVSPropertyOp32
 70
     1
102
RTVSPropertyOp33
 70
     1
102
RTVSPropertyOp34
 70
     1
102
RTVSPropertyOp35
 70
     1
102
RTVSPropertyOp36
 70
     1
102
RTVSPropertyOp37
 70
     1
102
RTVSPropertyOp38
 70
     1
102
RTVSPropertyOp39
 70
     1
102
RTVSPropertyOp40
 70
     1
102
RTVSPropertyOp41
 70
     1
102
RTVSPropertyOp42
 70
     1
102
RTVSPropertyOp43
 70
     1
102
RTVSPropertyOp44
 70
     1
102
RTVSPropertyOp45
 70
     1
102
RTVSPropertyOp46
 70
     1
102
RTVSPropertyOp47
 70
     1
102
RTVSPropertyOp48
 70
     1
102
RTVSPropertyOp49
 70
     1
102
RTVSPropertyOp50
 70
     1
102
RTVSPropertyOp51
 70
     0
102
RTVSPropertyOp52
 70
     0
102
RTVSPropertyOp53
 70
     1
102
RTVSPropertyOp54
 70
     1
102
RTVSPropertyOp55
 70
     1
102
RTVSPropertyOp56
 70
     1
102
RTVSPropertyOp57
 70
     1
102
RTVSPropertyOp58
 70
     1
102
RTVSPropertyOp59
 70
     1
102
RTVSPropertyOp60
 70
     1
102
RTVSPropertyOp61
 70
     1
102
RTVSPropertyOp62
 70
     1
  0
XRECORD
  5
2BF
102
{ACAD_REACTORS
330
2BE
102
}
330
2BE
100
AcDbXrecord
280
     1
102
RTVSPost2010Prop28
280
     0
102
RTVSPost2010PropOp28
 70
     1
102
RTVSPost2010Prop29
280
     1
102
RTVSPost2010PropOp29
 70
     1
102
RTVSPost2010Prop30
280
     1
102
RTVSPost2010PropOp30
 70
     1
102
RTVSPost2010Prop31
280
     0
102
RTVSPost2010PropOp31
 70
     1
102
RTVSPost2010Prop32
280
     0
102
RTVSPost2010PropOp32
 70
     1
102
RTVSPost2010Prop33
280
     0
102
RTVSPost2010PropOp33
 70
     1
102
RTVSPost2010Prop34
280
     0
102
RTVSPost2010PropOp34
 70
     1
102
RTVSPost2010Prop35
280
     0
102
RTVSPost2010PropOp35
 70
     1
102
RTVSPost2010Prop36
280
     0
102
RTVSPost2010PropOp36
 70
     1
102
RTVSPost2010Prop37
 90
       50
102
RTVSPost2010PropOp37
 70
     1
102
RTVSPost2010Prop38
140
0.0
102
RTVSPost2010PropOp38
 70
     1
102
RTVSPost2010Prop39
140
1.0
102
RTVSPost2010PropOp39
 70
     1
102
RTVSPost2010Prop40
 90
        0
102
RTVSPost2010PropOp40
 70
     1
102
RTVSPost2010Prop41ColorIndex
 90
       18
102
RTVSPost2010Prop41ColorRGB
 90
        0
102
RTVSPost2010PropOp41
 70
     1
102
RTVSPost2010Prop42
 90
       50
102
RTVSPost2010PropOp42
 70
     1
102
RTVSPost2010Prop43
 90
        3
102
RTVSPost2010PropOp43
 70
     1
102
RTVSPost2010Prop44ColorIndex
 90
        5
102
RTVSPost2010Prop44ColorRGB
 90
      255
102
RTVSPost2010PropOp44
 70
     1
102
RTVSPost2010Prop45
280
     0
102
RTVSPost2010PropOp45
 70
     1
102
RTVSPost2010Prop46
 90
       50
102
RTVSPost2010PropOp46
 70
     1
102
RTVSPost2010Prop47
 90
       50
102
RTVSPost2010PropOp47
 70
     1
102
RTVSPost2010Prop48
 90
       50
102
RTVSPost2010PropOp48
 70
     1
102
RTVSPost2010Prop49
280
     0
102
RTVSPost2010PropOp49
 70
     1
102
RTVSPost2010Prop50
 90
       50
102
RTVSPost2010PropOp50
 70
     1
102
RTVSPost2010Prop51ColorIndex
 90
      256
102
RTVSPost2010Prop51ColorRGB
 90
-16777216
102
RTVSPost2010PropOp51
 70
     0
102
RTVSPost2010Prop52
140
1.0
102
RTVSPost2010PropOp52
 70
     0
102
RTVSPost2010Prop53
 90
        2
102
RTVSPost2010PropOp53
 70
     1
102
RTVSPost2010Prop54
  1
strokes_ogs.tif
102
RTVSPost2010PropOp54
 70
     1
102
RTVSPost2010Prop55
280
     0
102
RTVSPost2010PropOp55
 70
     1
102
RTVSPost2010Prop56
140
1.0
102
RTVSPost2010PropOp56
 70
     1
102
RTVSPost2010Prop57
140
1.0
102
RTVSPost2010PropOp57
 70
     1
102
RTVSPropertyOp0
 70
     1
102
RTVSPropertyOp1
 70
     1
102
RTVSPropertyOp2
 70
     1
102
RTVSPropertyOp3
 70
     1
102
RTVSPropertyOp4
 70
     1
102
RTVSPropertyOp5
 70
     1
102
RTVSPropertyOp6
 70
     1
102
RTVSPropertyOp7
 70
     1
102
RTVSPropertyOp8
 70
     1
102
RTVSPropertyOp9
 70
     1
102
RTVSPropertyOp10
 70
     1
102
RTVSPropertyOp11
 70
     1
102
RTVSPropertyOp12
 70
     1
102
RTVSPropertyOp13
 70
     1
102
RTVSPropertyOp14
 70
     1
102
RTVSPropertyOp15
 70
     1
102
RTVSPropertyOp16
 70
     1
102
RTVSPropertyOp17
 70
     1
102
RTVSPropertyOp18
 70
     1
102
RTVSPropertyOp19
 70
     1
102
RTVSPropertyOp20
 70
     1
102
RTVSPropertyOp21
 70
     1
102
RTVSPropertyOp22
 70
     1
102
RTVSPropertyOp23
 70
     1
102
RTVSPropertyOp24
 70
     1
102
RTVSPropertyOp25
 70
     1
102
RTVSPropertyOp26
 70
     1
102
RTVSPropertyOp27
 70
     1
102
RTVSPropertyOp28
 70
     1
102
RTVSPropertyOp29
 70
     1
102
RTVSPropertyOp30
 70
     1
102
RTVSPropertyOp31
 70
     1
102
RTVSPropertyOp32
 70
     1
102
RTVSPropertyOp33
 70
     1
102
RTVSPropertyOp34
 70
     1
102
RTVSPropertyOp35
 70
     1
102
RTVSPropertyOp36
 70
     1
102
RTVSPropertyOp37
 70
     1
102
RTVSPropertyOp38
 70
     1
102
RTVSPropertyOp39
 70
     1
102
RTVSPropertyOp40
 70
     1
102
RTVSPropertyOp41
 70
     1
102
RTVSPropertyOp42
 70
     1
102
RTVSPropertyOp43
 70
     1
102
RTVSPropertyOp44
 70
     1
102
RTVSPropertyOp45
 70
     1
102
RTVSPropertyOp46
 70
     1
102
RTVSPropertyOp47
 70
     1
102
RTVSPropertyOp48
 70
     1
102
RTVSPropertyOp49
 70
     1
102
RTVSPropertyOp50
 70
     1
102
RTVSPropertyOp51
 70
     0
102
RTVSPropertyOp52
 70
     0
102
RTVSPropertyOp53
 70
     1
102
RTVSPropertyOp54
 70
     1
102
RTVSPropertyOp55
 70
     1
102
RTVSPropertyOp56
 70
     1
102
RTVSPropertyOp57
 70
     1
102
RTVSPropertyOp58
 70
     1
102
RTVSPropertyOp59
 70
     1
102
RTVSPropertyOp60
 70
     1
102
RTVSPropertyOp61
 70
     1
102
RTVSPropertyOp62
 70
     1
  0
XRECORD
  5
2C1
102
{ACAD_REACTORS
330
2C0
102
}
330
2C0
100
AcDbXrecord
280
     1
102
RTVSPost2010Prop28
280
     0
102
RTVSPost2010PropOp28
 70
     1
102
RTVSPost2010Prop29
280
     1
102
RTVSPost2010PropOp29
 70
     1
102
RTVSPost2010Prop30
280
     1
102
RTVSPost2010PropOp30
 70
     1
102
RTVSPost2010Prop31
280
     0
102
RTVSPost2010PropOp31
 70
     1
102
RTVSPost2010Prop32
280
     0
102
RTVSPost2010PropOp32
 70
     1
102
RTVSPost2010Prop33
280
     0
102
RTVSPost2010PropOp33
 70
     1
102
RTVSPost2010Prop34
280
     0
102
RTVSPost2010PropOp34
 70
     1
102
RTVSPost2010Prop35
280
     0
102
RTVSPost2010PropOp35
 70
     1
102
RTVSPost2010Prop36
280
     0
102
RTVSPost2010PropOp36
 70
     1
102
RTVSPost2010Prop37
 90
       50
102
RTVSPost2010PropOp37
 70
     1
102
RTVSPost2010Prop38
140
0.0
102
RTVSPost2010PropOp38
 70
     1
102
RTVSPost2010Prop39
140
1.0
102
RTVSPost2010PropOp39
 70
     1
102
RTVSPost2010Prop40
 90
        0
102
RTVSPost2010PropOp40
 70
     1
102
RTVSPost2010Prop41ColorIndex
 90
       18
102
RTVSPost2010Prop41ColorRGB
 90
        0
102
RTVSPost2010PropOp41
 70
     1
102
RTVSPost2010Prop42
 90
       50
102
RTVSPost2010PropOp42
 70
     1
102
RTVSPost2010Prop43
 90
        3
102
RTVSPost2010PropOp43
 70
     1
102
RTVSPost2010Prop44ColorIndex
 90
        5
102
RTVSPost2010Prop44ColorRGB
 90
      255
102
RTVSPost2010PropOp44
 70
     1
102
RTVSPost2010Prop45
280
     0
102
RTVSPost2010PropOp45
 70
     1
102
RTVSPost2010Prop46
 90
       50
102
RTVSPost2010PropOp46
 70
     1
102
RTVSPost2010Prop47
 90
       50
102
RTVSPost2010PropOp47
 70
     1
102
RTVSPost2010Prop48
 90
       50
102
RTVSPost2010PropOp48
 70
     1
102
RTVSPost2010Prop49
280
     0
102
RTVSPost2010PropOp49
 70
     1
102
RTVSPost2010Prop50
 90
       50
102
RTVSPost2010PropOp50
 70
     1
102
RTVSPost2010Prop51ColorIndex
 90
      256
102
RTVSPost2010Prop51ColorRGB
 90
-16777216
102
RTVSPost2010PropOp51
 70
     0
102
RTVSPost2010Prop52
140
1.0
102
RTVSPost2010PropOp52
 70
     0
102
RTVSPost2010Prop53
 90
        2
102
RTVSPost2010PropOp53
 70
     1
102
RTVSPost2010Prop54
  1
strokes_ogs.tif
102
RTVSPost2010PropOp54
 70
     1
102
RTVSPost2010Prop55
280
     0
102
RTVSPost2010PropOp55
 70
     1
102
RTVSPost2010Prop56
140
1.0
102
RTVSPost2010PropOp56
 70
     1
102
RTVSPost2010Prop57
140
1.0
102
RTVSPost2010PropOp57
 70
     1
102
RTVSPropertyOp0
 70
     1
102
RTVSPropertyOp1
 70
     1
102
RTVSPropertyOp2
 70
     1
102
RTVSPropertyOp3
 70
     1
102
RTVSPropertyOp4
 70
     1
102
RTVSPropertyOp5
 70
     1
102
RTVSPropertyOp6
 70
     1
102
RTVSPropertyOp7
 70
     1
102
RTVSPropertyOp8
 70
     1
102
RTVSPropertyOp9
 70
     1
102
RTVSPropertyOp10
 70
     1
102
RTVSPropertyOp11
 70
     1
102
RTVSPropertyOp12
 70
     1
102
RTVSPropertyOp13
 70
     1
102
RTVSPropertyOp14
 70
     1
102
RTVSPropertyOp15
 70
     1
102
RTVSPropertyOp16
 70
     1
102
RTVSPropertyOp17
 70
     1
102
RTVSPropertyOp18
 70
     1
102
RTVSPropertyOp19
 70
     1
102
RTVSPropertyOp20
 70
     1
102
RTVSPropertyOp21
 70
     1
102
RTVSPropertyOp22
 70
     1
102
RTVSPropertyOp23
 70
     1
102
RTVSPropertyOp24
 70
     1
102
RTVSPropertyOp25
 70
     1
102
RTVSPropertyOp26
 70
     1
102
RTVSPropertyOp27
 70
     1
102
RTVSPropertyOp28
 70
     1
102
RTVSPropertyOp29
 70
     1
102
RTVSPropertyOp30
 70
     1
102
RTVSPropertyOp31
 70
     1
102
RTVSPropertyOp32
 70
     1
102
RTVSPropertyOp33
 70
     1
102
RTVSPropertyOp34
 70
     1
102
RTVSPropertyOp35
 70
     1
102
RTVSPropertyOp36
 70
     1
102
RTVSPropertyOp37
 70
     1
102
RTVSPropertyOp38
 70
     1
102
RTVSPropertyOp39
 70
     1
102
RTVSPropertyOp40
 70
     1
102
RTVSPropertyOp41
 70
     1
102
RTVSPropertyOp42
 70
     1
102
RTVSPropertyOp43
 70
     1
102
RTVSPropertyOp44
 70
     1
102
RTVSPropertyOp45
 70
     1
102
RTVSPropertyOp46
 70
     1
102
RTVSPropertyOp47
 70
     1
102
RTVSPropertyOp48
 70
     1
102
RTVSPropertyOp49
 70
     1
102
RTVSPropertyOp50
 70
     1
102
RTVSPropertyOp51
 70
     0
102
RTVSPropertyOp52
 70
     0
102
RTVSPropertyOp53
 70
     1
102
RTVSPropertyOp54
 70
     1
102
RTVSPropertyOp55
 70
     1
102
RTVSPropertyOp56
 70
     1
102
RTVSPropertyOp57
 70
     1
102
RTVSPropertyOp58
 70
     1
102
RTVSPropertyOp59
 70
     1
102
RTVSPropertyOp60
 70
     1
102
RTVSPropertyOp61
 70
     1
102
RTVSPropertyOp62
 70
     1
  0
ENDSEC
  0
EOF
