  0
SECTION
  2
HEADER
  9
$ACADVER
  1
AC1015
  9
$ACADMAINTVER
 70
    20
  9
$DWGCODEPAGE
  3
ANSI_1252
  9
$INSBASE
 10
0.0
 20
0.0
 30
0.0
  9
$EXTMIN
 10
-16.87765079230747
 20
5.524899613073637
 30
0.0
  9
$EXTMAX
 10
295.1646075665202
 20
545.6681953539523
 30
0.0
  9
$LIMMIN
 10
0.0
 20
0.0
  9
$LIMMAX
 10
500.0
 20
600.0
  9
$ORTHOMODE
 70
     1
  9
$REGENMODE
 70
     1
  9
$FILLMODE
 70
     1
  9
$QTEXTMODE
 70
     0
  9
$MIRRTEXT
 70
     1
  9
$LTSCALE
 40
1.0
  9
$ATTMODE
 70
     1
  9
$TEXTSIZE
 40
2.399999999999999
  9
$TRACEWID
 40
0.05
  9
$TEXTSTYLE
  7
NORM
  9
$CLAYER
  8
UMRISS05
  9
$CELTYPE
  6
BYLAYER
  9
$CECOLOR
 62
   256
  9
$CELTSCALE
 40
1.0
  9
$DISPSILH
 70
     0
  9
$DIMSCALE
 40
1.0
  9
$DIMASZ
 40
4.0
  9
$DIMEXO
 40
0.0
  9
$DIMDLI
 40
8.0
  9
$DIMRND
 40
0.0
  9
$DIMDLE
 40
0.0
  9
$DIMEXE
 40
1.0
  9
$DIMTP
 40
0.0
  9
$DIMTM
 40
0.0
  9
$DIMTXT
 40
4.349999999999999
  9
$DIMCEN
 40
1.5
  9
$DIMTSZ
 40
0.0
  9
$DIMTOL
 70
     0
  9
$DIMLIM
 70
     0
  9
$DIMTIH
 70
     0
  9
$DIMTOH
 70
     0
  9
$DIMSE1
 70
     0
  9
$DIMSE2
 70
     0
  9
$DIMTAD
 70
     1
  9
$DIMZIN
 70
     8
  9
$DIMBLK
  1

  9
$DIMASO
 70
     1
  9
$DIMSHO
 70
     1
  9
$DIMPOST
  1

  9
$DIMAPOST
  1

  9
$DIMALT
 70
     0
  9
$DIMALTD
 70
     2
  9
$DIMALTF
 40
25.39999999999999
  9
$DIMLFAC
 40
1.0
  9
$DIMTOFL
 70
     1
  9
$DIMTVP
 40
0.0
  9
$DIMTIX
 70
     1
  9
$DIMSOXD
 70
     0
  9
$DIMSAH
 70
     0
  9
$DIMBLK1
  1

  9
$DIMBLK2
  1

  9
$DIMSTYLE
  2
Katalog 09
  9
$DIMCLRD
 70
     2
  9
$DIMCLRE
 70
     2
  9
$DIMCLRT
 70
     3
  9
$DIMTFAC
 40
0.4285714285714286
  9
$DIMGAP
 40
1.0
  9
$DIMJUST
 70
     0
  9
$DIMSD1
 70
     0
  9
$DIMSD2
 70
     0
  9
$DIMTOLJ
 70
     1
  9
$DIMTZIN
 70
     8
  9
$DIMALTZ
 70
     8
  9
$DIMALTTZ
 70
     8
  9
$DIMUPT
 70
     0
  9
$DIMDEC
 70
     2
  9
$DIMTDEC
 70
     2
  9
$DIMALTU
 70
     2
  9
$DIMALTTD
 70
     2
  9
$DIMTXSTY
  7
ARIAL-STANDARD
  9
$DIMAUNIT
 70
     0
  9
$DIMADEC
 70
     0
  9
$DIMALTRND
 40
0.0
  9
$DIMAZIN
 70
     0
  9
$DIMDSEP
 70
    46
  9
$DIMATFIT
 70
     3
  9
$DIMFRAC
 70
     0
  9
$DIMLDRBLK
  1

  9
$DIMLUNIT
 70
     2
  9
$DIMLWD
 70
    -2
  9
$DIMLWE
 70
    -2
  9
$DIMTMOVE
 70
     0
  9
$LUNITS
 70
     2
  9
$LUPREC
 70
     4
  9
$SKETCHINC
 40
0.1
  9
$FILLETRAD
 40
0.0
  9
$AUNITS
 70
     0
  9
$AUPREC
 70
     0
  9
$MENU
  1
.
  9
$ELEVATION
 40
0.0
  9
$PELEVATION
 40
0.0
  9
$THICKNESS
 40
0.0
  9
$LIMCHECK
 70
     0
  9
$CHAMFERA
 40
0.5
  9
$CHAMFERB
 40
0.5
  9
$CHAMFERC
 40
1.0
  9
$CHAMFERD
 40
0.0
  9
$SKPOLY
 70
     0
  9
$TDCREATE
 40
2451305.384745371
  9
$TDUCREATE
 40
2451305.343078704
  9
$TDUPDATE
 40
2457067.406195555
  9
$TDUUPDATE
 40
2457067.364528889
  9
$TDINDWG
 40
0.9905053125
  9
$TDUSRTIMER
 40
0.9905053125
  9
$USRTIMER
 70
     1
  9
$ANGBASE
 50
0.0
  9
$ANGDIR
 70
     0
  9
$PDMODE
 70
     0
  9
$PDSIZE
 40
0.0
  9
$PLINEWID
 40
0.0
  9
$SPLFRAME
 70
     0
  9
$SPLINETYPE
 70
     6
  9
$SPLINESEGS
 70
     8
  9
$HANDSEED
  5
33F
  9
$SURFTAB1
 70
     6
  9
$SURFTAB2
 70
     6
  9
$SURFTYPE
 70
     6
  9
$SURFU
 70
     6
  9
$SURFV
 70
     6
  9
$UCSBASE
  2

  9
$UCSNAME
  2

  9
$UCSORG
 10
0.0
 20
0.0
 30
0.0
  9
$UCSXDIR
 10
1.0
 20
0.0
 30
0.0
  9
$UCSYDIR
 10
0.0
 20
1.0
 30
0.0
  9
$UCSORTHOREF
  2

  9
$UCSORTHOVIEW
 70
     0
  9
$UCSORGTOP
 10
0.0
 20
0.0
 30
0.0
  9
$UCSORGBOTTOM
 10
0.0
 20
0.0
 30
0.0
  9
$UCSORGLEFT
 10
0.0
 20
0.0
 30
0.0
  9
$UCSORGRIGHT
 10
0.0
 20
0.0
 30
0.0
  9
$UCSORGFRONT
 10
0.0
 20
0.0
 30
0.0
  9
$UCSORGBACK
 10
0.0
 20
0.0
 30
0.0
  9
$PUCSBASE
  2

  9
$PUCSNAME
  2

  9
$PUCSORG
 10
0.0
 20
0.0
 30
0.0
  9
$PUCSXDIR
 10
1.0
 20
0.0
 30
0.0
  9
$PUCSYDIR
 10
0.0
 20
1.0
 30
0.0
  9
$PUCSORTHOREF
  2

  9
$PUCSORTHOVIEW
 70
     0
  9
$PUCSORGTOP
 10
0.0
 20
0.0
 30
0.0
  9
$PUCSORGBOTTOM
 10
0.0
 20
0.0
 30
0.0
  9
$PUCSORGLEFT
 10
0.0
 20
0.0
 30
0.0
  9
$PUCSORGRIGHT
 10
0.0
 20
0.0
 30
0.0
  9
$PUCSORGFRONT
 10
0.0
 20
0.0
 30
0.0
  9
$PUCSORGBACK
 10
0.0
 20
0.0
 30
0.0
  9
$USERI1
 70
     0
  9
$USERI2
 70
     0
  9
$USERI3
 70
     0
  9
$USERI4
 70
     0
  9
$USERI5
 70
     0
  9
$USERR1
 40
0.0
  9
$USERR2
 40
0.0
  9
$USERR3
 40
0.0
  9
$USERR4
 40
0.0
  9
$USERR5
 40
0.0
  9
$WORLDVIEW
 70
     1
  9
$SHADEDGE
 70
     3
  9
$SHADEDIF
 70
    70
  9
$TILEMODE
 70
     1
  9
$MAXACTVP
 70
    48
  9
$PINSBASE
 10
0.0
 20
0.0
 30
0.0
  9
$PLIMCHECK
 70
     0
  9
$PEXTMIN
 10
1.000000000000000E+20
 20
1.000000000000000E+20
 30
1.000000000000000E+20
  9
$PEXTMAX
 10
-1.000000000000000E+20
 20
-1.000000000000000E+20
 30
-1.000000000000000E+20
  9
$PLIMMIN
 10
0.0
 20
0.0
  9
$PLIMMAX
 10
12.0
 20
9.0
  9
$UNITMODE
 70
     0
  9
$VISRETAIN
 70
     1
  9
$PLINEGEN
 70
     0
  9
$PSLTSCALE
 70
     1
  9
$TREEDEPTH
 70
  3020
  9
$CMLSTYLE
  2
STANDARD
  9
$CMLJUST
 70
     0
  9
$CMLSCALE
 40
1.0
  9
$PROXYGRAPHICS
 70
     1
  9
$MEASUREMENT
 70
     1
  9
$CELWEIGHT
370
    -1
  9
$ENDCAPS
280
     0
  9
$JOINSTYLE
280
     0
  9
$LWDISPLAY
290
     0
  9
$INSUNITS
 70
     4
  9
$HYPERLINKBASE
  1

  9
$STYLESHEET
  1

  9
$XEDIT
290
     1
  9
$CEPSNTYPE
380
     0
  9
$PSTYLEMODE
290
     1
  9
$FINGERPRINTGUID
  2
{11CF3B63-7585-44B4-99DF-259896913334}
  9
$VERSIONGUID
  2
{0E473851-9C63-4566-9C07-199E95E9383B}
  9
$EXTNAMES
290
     1
  9
$PSVPSCALE
 40
0.0
  9
$OLESTARTUP
290
     0
  0
ENDSEC
  0
SECTION
  2
CLASSES
  0
CLASS
  1
ACDBDICTIONARYWDFLT
  2
AcDbDictionaryWithDefault
  3
ObjectDBX Classes
 90
        0
280
     0
281
     0
  0
CLASS
  1
TABLESTYLE
  2
AcDbTableStyle
  3
ObjectDBX Classes
 90
     4095
280
     0
281
     0
  0
CLASS
  1
ACME_DOCUMENT
  2
AcMeDbDoc
  3
AcMeServices
 90
    33792
280
     0
281
     0
  0
CLASS
  1
AMGSETTINGSOBJ
  2
AmgSettingsObj
  3
"AcadM|Product Description: AutoCAD Mechanical|Company: Autodesk, Inc."
 90
     1024
280
     0
281
     0
  0
CLASS
  1
ACMESCOPE
  2
AcMeScope
  3
AcMeServices
 90
     1024
280
     0
281
     0
  0
CLASS
  1
ACMECOMMANDHISTORY
  2
AcMeCommandHistory
  3
AcMeServices
 90
    33792
280
     0
281
     0
  0
CLASS
  1
ACIMSYSVARMAN
  2
AcImSysVarManager
  3
AcMeServices
 90
     1024
280
     0
281
     0
  0
CLASS
  1
ACIMINTSYSVAR
  2
AcImIntSysVar
  3
AcMeServices
 90
     1024
280
     0
281
     0
  0
CLASS
  1
ACMEDRAWINGMAN
  2
AcMeDrawingMan
  3
AcMeServices
 90
    33792
280
     0
281
     0
  0
CLASS
  1
ACMEVIEW
  2
AcMeView
  3
AcMeServices
 90
    33792
280
     0
281
     0
  0
CLASS
  1
ACDBENTITYCACHE
  2
AcMeEntityCache
  3
AcMeServices
 90
    33792
280
     0
281
     0
  0
CLASS
  1
GSMANAGER
  2
AcMeGSManager
  3
AcMeServices
 90
    33792
280
     1
281
     0
  0
CLASS
  1
AMDTINTERNALREACTOR
  2
AmdtInternalReactor
  3
AcMeServices
 90
    33792
280
     0
281
     0
  0
CLASS
  1
ACMESTATEMGR
  2
AcMeStateMgr
  3
AcMeServices
 90
     1024
280
     0
281
     0
  0
CLASS
  1
ACGREFMASTER
  2
AcGrefMaster
  3
AcAttribServices
 90
     1024
280
     0
281
     0
  0
CLASS
  1
AM_DRAWING_MGR
  2
AcDmDwgMgr
  3
AcMechDwgViewMgmt
 90
    33792
280
     0
281
     0
  0
CLASS
  1
AM_DWG_DOCUMENT
  2
AcDmDwgDocument
  3
AcMechDwgViewMgmt
 90
    33792
280
     0
281
     0
  0
CLASS
  1
AM_DWG_SHEET
  2
AcDmSheet
  3
AcMechDwgViewMgmt
 90
    33792
280
     0
281
     0
  0
CLASS
  1
AM_VIEWDIMPARMAP
  2
AcDmViewDimParMap
  3
AcMechDwgViewMgmt
 90
    33792
280
     0
281
     0
  0
CLASS
  1
ACIMREALSYSVAR
  2
AcImRealSysVar
  3
AcMeServices
 90
    33792
280
     0
281
     0
  0
CLASS
  1
AM_DWGMGR_NAME
  2
AcDmDwgMgrName
  3
AcMechDwgViewMgmt
 90
    33792
280
     0
281
     0
  0
CLASS
  1
ACME_DATABASE
  2
AcMeDbDatabase
  3
AcMeServices
 90
    33792
280
     0
281
     0
  0
CLASS
  1
ACRFINSADJUSTERMGR
  2
AcRfInsAdjusterMgr
  3
AcMeServices
 90
    33792
280
     0
281
     0
  0
CLASS
  1
ACGREFACADMASTER
  2
AcGrefacadMaster
  3
AcGrefServices
 90
    33792
280
     0
281
     0
  0
CLASS
  1
AMDTMENUSTATEMGR
  2
AmdtMenuStateMgr
  3
McadcomServices
 90
    33792
280
     0
281
     0
  0
CLASS
  1
AMDTMCOMMENUSTATE
  2
AmdtMcomMenuState
  3
McadcomServices
 90
    33792
280
     0
281
     0
  0
CLASS
  1
AMIMASTER
  2
AmiMaster
  3
AmiServices
 90
    33792
280
     0
281
     0
  0
CLASS
  1
MAPIAMMOUDLE
  2
MApiAmModule
  3
MApiAmServices
 90
    33792
280
     0
281
     0
  0
CLASS
  1
ACIMSTRSYSVAR
  2
AcImStrSysVar
  3
AcMeServices
 90
     1024
280
     0
281
     0
  0
CLASS
  1
AMDTADMENUSTATE
  2
AmdtAdMenuState
  3
DesignerServices
 90
    33792
280
     1
281
     0
  0
CLASS
  1
ADAPPL
  2
AcAdAppl
  3
DesignerAssemblies
 90
    33792
280
     0
281
     0
  0
CLASS
  1
DEPMGR
  2
AcAdDepMgr
  3
DesignerAssemblies
 90
    33792
280
     0
281
     0
  0
CLASS
  1
PARAMMGR
  2
AcAdParamMgr
  3
DesignerAssemblies
 90
    33792
280
     0
281
     0
  0
CLASS
  1
PARAMSCOPE
  2
AcAdParamScope
  3
DesignerAssemblies
 90
    33792
280
     0
281
     0
  0
CLASS
  1
NAMEDAPPL
  2
AcAdNamedAppl
  3
DesignerAssemblies
 90
    33792
280
     0
281
     0
  0
CLASS
  1
AMDTDMMENUSTATE
  2
AmdtDmMenuState
  3
AcMechDwgViewMgmt
 90
    33792
280
     1
281
     0
  0
CLASS
  1
AMDTAMMENUSTATE
  2
AmdtAmMenuState
  3
DesignerAssemblies
 90
    33792
280
     0
281
     0
  0
CLASS
  1
ACAMPROJECT
  2
AcAmProject
  3
DesignerAssemblies
 90
    33792
280
     0
281
     0
  0
CLASS
  1
ACAMGRCOMPDEF
  2
AcAmGrCompDef
  3
DesignerAssemblies
 90
    33792
280
     0
281
     0
  0
CLASS
  1
ACCMCONTEXT
  2
AcCmContext
  3
DesignerAssemblies
 90
    33792
280
     0
281
     0
  0
CLASS
  1
ACAMCOMPDEF
  2
AcAmCompDef
  3
DesignerAssemblies
 90
    33792
280
     0
281
     0
  0
CLASS
  1
ACAMCOMPDEFMGR
  2
AcAmCompDefMgr
  3
DesignerAssemblies
 90
    33792
280
     0
281
     0
  0
CLASS
  1
AMCONTEXTMGR
  2
AcAmContextMgr
  3
DesignerAssemblies
 90
    33792
280
     0
281
     0
  0
CLASS
  1
ACAMCONTEXTMODELER
  2
AcAmContextModeler
  3
DesignerAssemblies
 90
    33792
280
     0
281
     0
  0
CLASS
  1
ACMDATADICTIONARY
  2
AcmDataDictionary
  3
"AcmSymBB|Product Description: AutoCAD Mechanical|Company: Autodesk, Inc."
 90
    33792
280
     0
281
     0
  0
CLASS
  1
CATALOGSTATE
  2
AcAmCatalogState
  3
DesignerAssemblies
 90
    33792
280
     0
281
     0
  0
CLASS
  1
ACAMGRCOMPDEFSET
  2
AcAmGrCompDefSet
  3
DesignerAssemblies
 90
    33792
280
     0
281
     0
  0
CLASS
  1
AMDTBROWSERDBTAB
  2
AmdtBrowserDbTab
  3
McadcomServices
 90
    33792
280
     0
281
     0
  0
CLASS
  1
CBROWSERAPPOBJECT
  2
CBrowserAppObject
  3
McadcomServices
 90
    33792
280
     0
281
     0
  0
CLASS
  1
DM_PLACEHOLDER
  2
AcDmSelsetPlaceholder
  3
McadcomServices
 90
    33792
280
     0
281
     0
  0
CLASS
  1
ACMSTANDARDANSI
  2
AcmStandardANSI
  3
"Amdt_StdImp|Product Description: AutoCAD Mechanical|Company: Autodesk, Inc."
 90
    33792
280
     0
281
     0
  0
CLASS
  1
AMGOBJPROPCFG
  2
AmgObjPropCfg
  3
"AmgLay|Product Description: AutoCAD Mechanical|Company: Autodesk, Inc."
 90
     1024
280
     0
281
     0
  0
CLASS
  1
ACMSURFSTANDARDANSI
  2
AcmSurfTextStdANSI
  3
"Amdt_StdImp|Product Description: AutoCAD Mechanical|Company: Autodesk, Inc."
 90
    33792
280
     0
281
     0
  0
CLASS
  1
ACMFCFSTANDARDANSI
  2
AcmFCFStdANSI
  3
"Amdt_StdImp|Product Description: AutoCAD Mechanical|Company: Autodesk, Inc."
 90
    33792
280
     0
281
     0
  0
CLASS
  1
ACMWELDSTANDARDANSI
  2
AcmWeldingStdANSI
  3
"Amdt_StdImp|Product Description: AutoCAD Mechanical|Company: Autodesk, Inc."
 90
    33792
280
     0
281
     0
  0
CLASS
  1
ACMIDSTANDARDANSI
  2
AcmIdStdANSI
  3
"Amdt_StdImp|Product Description: AutoCAD Mechanical|Company: Autodesk, Inc."
 90
    33792
280
     0
281
     0
  0
CLASS
  1
ACMDATUMSTANDARDANSI
  2
AcmDatumStdANSI
  3
"Amdt_StdImp|Product Description: AutoCAD Mechanical|Company: Autodesk, Inc."
 90
    33792
280
     0
281
     0
  0
CLASS
  1
ACMBOMSTANDARDANSI
  2
AcmBOMStdANSI
  3
"Amdt_StdImp|Product Description: AutoCAD Mechanical|Company: Autodesk, Inc."
 90
    33792
280
     0
281
     0
  0
CLASS
  1
ACMDETAILSTANDARDANSI
  2
AmdtDetailSymStdANSI
  3
"Amdt_StdImp|Product Description: AutoCAD Mechanical|Company: Autodesk, Inc."
 90
    33792
280
     0
281
     0
  0
CLASS
  1
ACMSECTIONSTANDARDANSI
  2
AmdtSectionSymStdANSI
  3
"Amdt_StdImp|Product Description: AutoCAD Mechanical|Company: Autodesk, Inc."
 90
    33792
280
     0
281
     0
  0
CLASS
  1
ACMCENTERLINESTANDARDANSI
  2
AmdtCenterLineStdANSI
  3
"Amdt_StdImp|Product Description: AutoCAD Mechanical|Company: Autodesk, Inc."
 90
    33792
280
     0
281
     0
  0
CLASS
  1
ACMTHREADLINESTANDARDANSI
  2
AmdtThreadLineStdANSI
  3
"Amdt_StdImp|Product Description: AutoCAD Mechanical|Company: Autodesk, Inc."
 90
    33792
280
     0
281
     0
  0
CLASS
  1
ACMNOTESTANDARDANSI
  2
AmdtNoteStdANSI
  3
"Amdt_StdImp|Product Description: AutoCAD Mechanical|Company: Autodesk, Inc."
 90
    33792
280
     0
281
     0
  0
CLASS
  1
AMDTNOTETEMPLATEDB
  2
AmdtNoteTemplateDB
  3
AcmSymBB|Product Description: AutoCAD Mechanical|Company: Autodesk, Inc.
 90
     1024
280
     0
281
     0
  0
CLASS
  1
ACAMGLAYSTD
  2
AcAmgLayStd
  3
"AmgLay|Product Description: AutoCAD Mechanical|Company: Autodesk, Inc."
 90
     1024
280
     0
281
     0
  0
CLASS
  1
ACAMGDIMSTD
  2
AcAmgDimStd
  3
"AmgDim|Product Description: AutoCAD Mechanical|Company: Autodesk, Inc."
 90
     1024
280
     0
281
     0
  0
CLASS
  1
ACAMGHOLECHARTSTDANSI
  2
AcAmgHoleChartStdANSI
  3
AmgDim|Product Description: AutoCAD Mechanical|Company: Autodesk, Inc.
 90
    33792
280
     0
281
     0
  0
CLASS
  1
ACAMGTITLESTD
  2
AcAmgTitleStd
  3
"AmgTitle|Product Description: AutoCAD Mechanical|Company: Autodesk, Inc."
 90
     1024
280
     0
281
     0
  0
CLASS
  1
ACAMGFILTERDAT
  2
AcAmgFilterDat
  3
"AcadM|Product Description: AutoCAD Mechanical|Company: Autodesk, Inc."
 90
    33792
280
     0
281
     0
  0
CLASS
  1
PLOTSETTINGS
  2
AcDbPlotSettings
  3
ObjectDBX Classes
 90
    32768
280
     0
281
     0
  0
CLASS
  1
ACMSTANDARDDIN
  2
AcmStandardDIN
  3
"Amdt_StdImp|Product Description: AutoCAD Mechanical|Company: Autodesk, Inc."
 90
     1024
280
     0
281
     0
  0
CLASS
  1
AMDTEDGESTANDARDDIN
  2
AmdtEdgeStdDIN
  3
"Amdt_StdImp|Product Description: AutoCAD Mechanical|Company: Autodesk, Inc."
 90
    33792
280
     0
281
     0
  0
CLASS
  1
ACMSURFSTANDARDDIN
  2
AcmSurfTextStdDIN
  3
"Amdt_StdImp|Product Description: AutoCAD Mechanical|Company: Autodesk, Inc."
 90
    33792
280
     0
281
     0
  0
CLASS
  1
ACMFCFSTANDARDDIN
  2
AcmFCFStdDIN
  3
"Amdt_StdImp|Product Description: AutoCAD Mechanical|Company: Autodesk, Inc."
 90
    33792
280
     0
281
     0
  0
CLASS
  1
ACMWELDSTANDARDDIN
  2
AcmWeldingStdDIN
  3
"Amdt_StdImp|Product Description: AutoCAD Mechanical|Company: Autodesk, Inc."
 90
     1024
280
     0
281
     0
  0
CLASS
  1
ACMIDSTANDARDDIN
  2
AcmIdStdDIN
  3
"Amdt_StdImp|Product Description: AutoCAD Mechanical|Company: Autodesk, Inc."
 90
    33792
280
     0
281
     0
  0
CLASS
  1
ACMDATUMSTANDARDDIN
  2
AcmDatumStdDIN
  3
"Amdt_StdImp|Product Description: AutoCAD Mechanical|Company: Autodesk, Inc."
 90
     1024
280
     0
281
     0
  0
CLASS
  1
ACMBOMSTANDARDDIN
  2
AcmBOMStdDIN
  3
"Amdt_StdImp|Product Description: AutoCAD Mechanical|Company: Autodesk, Inc."
 90
     1024
280
     0
281
     0
  0
CLASS
  1
ACMDETAILSTANDARDDIN
  2
AmdtDetailSymStdDIN
  3
"Amdt_StdImp|Product Description: AutoCAD Mechanical|Company: Autodesk, Inc."
 90
     1024
280
     0
281
     0
  0
CLASS
  1
ACMSECTIONSTANDARDDIN
  2
AmdtSectionSymStdDIN
  3
"Amdt_StdImp|Product Description: AutoCAD Mechanical|Company: Autodesk, Inc."
 90
     1024
280
     0
281
     0
  0
CLASS
  1
ACMCENTERLINESTANDARDDIN
  2
AmdtCenterLineStdDIN
  3
"Amdt_StdImp|Product Description: AutoCAD Mechanical|Company: Autodesk, Inc."
 90
     1024
280
     0
281
     0
  0
CLASS
  1
ACMNOTESTANDARDDIN
  2
AmdtNoteStdDIN
  3
"Amdt_StdImp|Product Description: AutoCAD Mechanical|Company: Autodesk, Inc."
 90
     1024
280
     0
281
     0
  0
CLASS
  1
ACAMGHOLECHARTSTDDIN
  2
AcAmgHoleChartStdDIN
  3
AmgDim|Product Description: AutoCAD Mechanical|Company: Autodesk, Inc.
 90
     1024
280
     0
281
     0
  0
CLASS
  1
ACMTHREADLINESTANDARDDIN
  2
AmdtThreadLineStdDIN
  3
"Amdt_StdImp|Product Description: AutoCAD Mechanical|Company: Autodesk, Inc."
 90
     1024
280
     0
281
     0
  0
CLASS
  1
ACMDATAENTRYBLOCK
  2
AcmDataEntryBlock
  3
AcmSymBB|Product Description: AutoCAD Mechanical|Company: Autodesk, Inc.
 90
    33792
280
     0
281
     0
  0
CLASS
  1
DICTIONARYVAR
  2
AcDbDictionaryVar
  3
ObjectDBX Classes
 90
        0
280
     0
281
     0
  0
CLASS
  1
SORTENTSTABLE
  2
AcDbSortentsTable
  3
ObjectDBX Classes
 90
        0
280
     0
281
     0
  0
CLASS
  1
MATERIAL
  2
AcDbMaterial
  3
ObjectDBX Classes
 90
     1153
280
     0
281
     0
  0
CLASS
  1
VISUALSTYLE
  2
AcDbVisualStyle
  3
ObjectDBX Classes
 90
     4095
280
     0
281
     0
  0
CLASS
  1
SCALE
  2
AcDbScale
  3
ObjectDBX Classes
 90
     1153
280
     0
281
     0
  0
CLASS
  1
MLEADERSTYLE
  2
AcDbMLeaderStyle
  3
ACDB_MLEADERSTYLE_CLASS
 90
    36863
280
     0
281
     0
  0
CLASS
  1
ACMTAPERSTANDARDANSI
  2
AcmTaperStdANSI
  3
"Amdt_StdImp|Product Description: AutoCAD Mechanical|Company: Autodesk, Inc."
 90
    33792
280
     0
281
     0
  0
CLASS
  1
ACMANOOTATIONVIEWSTANDARDANSI
  2
AmdtAnViewStdANSI
  3
"Amdt_StdImp|Product Description: AutoCAD Mechanical|Company: Autodesk, Inc."
 90
    33792
280
     0
281
     0
  0
CLASS
  1
ACMTAPERSTANDARDDIN
  2
AcmTaperStdDIN
  3
"Amdt_StdImp|Product Description: AutoCAD Mechanical|Company: Autodesk, Inc."
 90
     1024
280
     0
281
     0
  0
CLASS
  1
ACMANOOTATIONVIEWSTANDARDDIN
  2
AmdtAnViewStdDIN
  3
"Amdt_StdImp|Product Description: AutoCAD Mechanical|Company: Autodesk, Inc."
 90
     1024
280
     0
281
     0
  0
CLASS
  1
ACRFATTGENMGR
  2
AcRfAttGeneralMgr
  3
AcAttribServices
 90
    33792
280
     0
281
     0
  0
CLASS
  1
ACRFMCADAPIATTHOLDER
  2
AcRfMCADAPIAttHolder
  3
AcAttribServices
 90
    33792
280
     0
281
     0
  0
CLASS
  1
AMDTSYSATTR
  2
AmdtSystemAttribute
  3
AcAttribServices
 90
    33792
280
     0
281
     0
  0
CLASS
  1
CAMSSTRUCTBTNSTATE
  2
StructBtnState
  3
DesignerAssemblies
 90
    33792
280
     0
281
     0
  0
CLASS
  1
CELLSTYLEMAP
  2
AcDbCellStyleMap
  3
ObjectDBX Classes
 90
     1152
280
     0
281
     0
  0
CLASS
  1
AEC_REFEDIT_STATUS_TRACKER
  2
AecDbRefEditStatusTracker
  3
AecArchBase70|Product Desc: Autodesk Architectural Desktop 2007 |Company: Autodesk,Inc. |WEB Address: www.autodesk.com
 90
    32897
280
     1
281
     0
  0
CLASS
  1
NPOCOLLECTION
  2
AcDbImpNonPersistentObjectsCollection
  3
ObjectDBX Classes
 90
    33921
280
     0
281
     0
  0
CLASS
  1
ACDBLINERES
  2
AcDbLineRes
  3
AcGrefServices
 90
    33792
280
     0
281
     0
  0
CLASS
  1
AMDTNOTE
  2
AmdtNote
  3
"AcmSymBB|Product Description: AutoCAD Mechanical|Company: Autodesk, Inc."
 90
    33792
280
     0
281
     1
  0
CLASS
  1
AMDTFORMULAUPDATEDISPATCHER
  2
AmdtFormulaUpdateDispatcher
  3
AcMeServices
 90
    33792
280
     0
281
     0
  0
CLASS
  1
AMDTEDGESTANDARDDIN13715
  2
AmdtEdgeStdDIN13715
  3
"Amdt_StdImp|Product Description: AutoCAD Mechanical|Company: Autodesk, Inc."
 90
     1024
280
     0
281
     0
  0
CLASS
  1
ACMSURFSTANDARDDIN2002
  2
AcmSurfTextStdDIN2002
  3
"Amdt_StdImp|Product Description: AutoCAD Mechanical|Company: Autodesk, Inc."
 90
     1024
280
     0
281
     0
  0
CLASS
  1
ACMDIMBREAKPERSREACTOR
  2
AcmDimBreakPersReactor
  3
AmgDim|Product Description: AutoCAD Mechanical|Company: Autodesk, Inc.
 90
     1024
280
     0
281
     0
  0
CLASS
  1
ACDBSECTIONVIEWSTYLE
  2
AcDbSectionViewStyle
  3
ObjectDBX Classes
 90
     1025
280
     0
281
     0
  0
CLASS
  1
ACDBDETAILVIEWSTYLE
  2
AcDbDetailViewStyle
  3
ObjectDBX Classes
 90
     1025
280
     0
281
     0
  0
CLASS
  1
ACMFCFSTANDARDDIN2008
  2
AcmFCFStdDIN2008
  3
"Amdt_StdImp|Product Description: AutoCAD Mechanical|Company: Autodesk, Inc."
 90
     1024
280
     0
281
     0
  0
CLASS
  1
ACMIDSTANDARDDIN2008
  2
AcmIdStdDIN2008
  3
"Amdt_StdImp|Product Description: AutoCAD Mechanical|Company: Autodesk, Inc."
 90
     1024
280
     0
281
     0
  0
CLASS
  1
ACMSECTIONSTANDARDCUSTOM
  2
AmdtSectionSymStdCustom
  3
"Amdt_StdImp|Product Description: AutoCAD Mechanical|Company: Autodesk, Inc."
 90
     1024
280
     0
281
     0
  0
CLASS
  1
ACMDETAILTANDARDCUSTOM
  2
AmdtDetailSymStdCustom
  3
"Amdt_StdImp|Product Description: AutoCAD Mechanical|Company: Autodesk, Inc."
 90
     1024
280
     0
281
     0
  0
CLASS
  1
FIELD
  2
AcDbField
  3
ObjectDBX Classes
 90
     1152
280
     0
281
     0
  0
CLASS
  1
FIELDLIST
  2
AcDbFieldList
  3
ObjectDBX Classes
 90
     1152
280
     0
281
     0
  0
CLASS
  1
ACDBPLACEHOLDER
  2
AcDbPlaceHolder
  3
ObjectDBX Classes
 90
        0
280
     0
281
     0
  0
CLASS
  1
LAYOUT
  2
AcDbLayout
  3
ObjectDBX Classes
 90
        0
280
     0
281
     0
  0
ENDSEC
  0
SECTION
  2
TABLES
  0
TABLE
  2
VPORT
  5
2D
330
0
100
AcDbSymbolTable
 70
     1
  0
VPORT
  5
2E
330
2D
100
AcDbSymbolTableRecord
100
AcDbViewportTableRecord
  2
*Active
 70
     0
 10
0.0
 20
0.0
 11
1.0
 21
1.0
 12
204.0767067982556
 22
317.2934279527912
 13
0.0
 23
0.0
 14
10.0
 24
10.0
 15
10.0
 25
10.0
 16
0.0
 26
0.0
 36
1.0
 17
0.0
 27
0.0
 37
0.0
 40
553.29460464618
 41
2.033022861981371
 42
50.0
 43
0.0
 44
0.0
 50
0.0
 51
0.0
 71
     0
 72
  5000
 73
     1
 74
     0
 75
     0
 76
     0
 77
     0
 78
     0
281
     0
 65
     1
110
0.0
120
0.0
130
0.0
111
1.0
121
0.0
131
0.0
112
0.0
122
1.0
132
0.0
 79
     0
146
0.0
1001
ACAD_NAV_VCDISPLAY
1070
     3
  0
ENDTAB
  0
TABLE
  2
LTYPE
  5
28
330
0
100
AcDbSymbolTable
 70
    14
  0
LTYPE
  5
29
330
28
100
AcDbSymbolTableRecord
100
AcDbLinetypeTableRecord
  2
BYBLOCK
 70
     0
  3

 72
    65
 73
     0
 40
0.0
  0
LTYPE
  5
2A
330
28
100
AcDbSymbolTableRecord
100
AcDbLinetypeTableRecord
  2
BYLAYER
 70
     0
  3

 72
    65
 73
     0
 40
0.0
  0
LTYPE
  5
15
330
28
100
AcDbSymbolTableRecord
100
AcDbLinetypeTableRecord
  2
CONTINUOUS
 70
     0
  3
Solid line
 72
    65
 73
     0
 40
0.0
  0
LTYPE
  5
A7
330
28
100
AcDbSymbolTableRecord
100
AcDbLinetypeTableRecord
  2
STRICHPUNKT2
 70
     0
  3
Strichpunkt (.5x) _._._._._._._._._._._._._._._
 72
    65
 73
     4
 40
12.7
 49
6.349999999999999
 74
     0
 49
-3.174999999999999
 74
     0
 49
0.0
 74
     0
 49
-3.174999999999999
 74
     0
  0
LTYPE
  5
2D2
330
28
100
AcDbSymbolTableRecord
100
AcDbLinetypeTableRecord
  2
ACDINWELD
 70
     0
  3
_ _ _ _ _
 72
    65
 73
     2
 40
2.0
 49
2.0
 74
     0
 49
-1.0
 74
     0
  0
LTYPE
  5
2D6
330
28
100
AcDbSymbolTableRecord
100
AcDbLinetypeTableRecord
  2
ACDINTGB
 70
     0
  3
__ . . __ . .
 72
    65
 73
     6
 40
9.0
 49
4.0
 74
     0
 49
-1.0
 74
     0
 49
1.0
 74
     0
 49
-1.0
 74
     0
 49
1.0
 74
     0
 49
-1.0
 74
     0
  0
LTYPE
  5
2D4
330
28
100
AcDbSymbolTableRecord
100
AcDbLinetypeTableRecord
  2
ACDINTGL
 70
     0
  3
_ _ _ _ _
 72
    65
 73
     2
 40
3.0
 49
2.0
 74
     0
 49
-1.0
 74
     0
  0
LTYPE
  5
1FF
330
28
100
AcDbSymbolTableRecord
100
AcDbLinetypeTableRecord
  2
DASHED
 70
     0
  3
Dashed __ __ __ __ __ __ __ __ __ __ __ __ __ _
 72
    65
 73
     2
 40
19.05
 49
12.7
 74
     0
 49
-6.349999999999999
 74
     0
  0
LTYPE
  5
140
330
28
100
AcDbSymbolTableRecord
100
AcDbLinetypeTableRecord
  2
VERDECKT
 70
     0
  3
Verdeckt __ __ __ __ __ __ __ __ __ __ __ __ __
 72
    65
 73
     2
 40
9.524999999999998
 49
6.349999999999999
 74
     0
 49
-3.174999999999999
 74
     0
  0
LTYPE
  5
2BE
330
28
100
AcDbSymbolTableRecord
100
AcDbLinetypeTableRecord
  2
Amconstr
 70
     0
  3
_______________________
 72
    65
 73
     2
 40
9999.0
 49
9999.0
 74
     0
 49
0.0
 74
     0
  0
LTYPE
  5
2C1
330
28
100
AcDbSymbolTableRecord
100
AcDbLinetypeTableRecord
  2
Amzigzag
 70
     0
  3
/\/-/\/-/\/-/\/-/\/-/\/
 72
    65
 73
     2
 40
11.0001
 49
0.0001
 74
     4
 75
   135
340
2C2
 46
0.04
 50
0.0
 44
0.0
 45
0.0
 49
-11.0
 74
     0
  0
LTYPE
  5
2BB
330
28
100
AcDbSymbolTableRecord
100
AcDbLinetypeTableRecord
  2
AM_DIN_F_W050
 70
     0
  3
__ __ __ __ __ __ __ __ __ __ __ __ __ __ __
 72
    65
 73
     2
 40
6.25
 49
4.75
 74
     0
 49
-1.5
 74
     0
  0
LTYPE
  5
2BC
330
28
100
AcDbSymbolTableRecord
100
AcDbLinetypeTableRecord
  2
AM_DIN_G_W050
 70
     0
  3
____ . ____ . ____ . ____ . ____ . ____ . ____
 72
    65
 73
     4
 40
13.75
 49
9.75
 74
     0
 49
-1.5
 74
     0
 49
1.0
 74
     0
 49
-1.5
 74
     0
  0
LTYPE
  5
2BD
330
28
100
AcDbSymbolTableRecord
100
AcDbLinetypeTableRecord
  2
AM_DIN_K_W050
 70
     0
  3
_____ . . _____ . . _____ . . ____ .. ____
 72
    65
 73
     6
 40
16.25
 49
9.75
 74
     0
 49
-1.5
 74
     0
 49
1.0
 74
     0
 49
-1.5
 74
     0
 49
1.0
 74
     0
 49
-1.5
 74
     0
  0
LTYPE
  5
2BF
330
28
100
AcDbSymbolTableRecord
100
AcDbLinetypeTableRecord
  2
AM_DIN_G_W050x2
 70
     0
  3
__ . __ . __ . __ . __ . __
 72
    65
 73
     4
 40
6.875
 49
4.75
 74
     0
 49
-0.875
 74
     0
 49
0.375
 74
     0
 49
-0.875
 74
     0
  0
LTYPE
  5
2C0
330
28
100
AcDbSymbolTableRecord
100
AcDbLinetypeTableRecord
  2
AM_DIN_F_W050x2
 70
     0
  3
 _ _ _ _ _ _ _ _ _ _ _ _
 72
    65
 73
     2
 40
3.125
 49
2.25
 74
     0
 49
-0.875
 74
     0
  0
ENDTAB
  0
TABLE
  2
LAYER
  5
1F
102
{ACAD_XDICTIONARY
360
20
102
}
330
0
100
AcDbSymbolTable
 70
     9
  0
LAYER
  5
6
102
{ACAD_XDICTIONARY
360
7
102
}
330
1F
100
AcDbSymbolTableRecord
100
AcDbLayerTableRecord
  2
0
 70
     0
 62
     7
  6
CONTINUOUS
370
    -3
390
9
  0
LAYER
  5
53
102
{ACAD_XDICTIONARY
360
54
102
}
330
1F
100
AcDbSymbolTableRecord
100
AcDbLayerTableRecord
  2
UMRISS05
 70
     0
 62
     4
  6
CONTINUOUS
370
    -3
390
9
  0
LAYER
  5
11B
102
{ACAD_XDICTIONARY
360
11C
102
}
330
1F
100
AcDbSymbolTableRecord
100
AcDbLayerTableRecord
  2
BEMASSUNG
 70
     0
 62
     2
  6
CONTINUOUS
370
    -3
390
9
  0
LAYER
  5
A4
102
{ACAD_XDICTIONARY
360
A5
102
}
330
1F
100
AcDbSymbolTableRecord
100
AcDbLayerTableRecord
  2
ACHSEN
 70
     0
 62
     1
  6
STRICHPUNKT2
370
    -3
390
9
  0
LAYER
  5
7A
330
1F
100
AcDbSymbolTableRecord
100
AcDbLayerTableRecord
  2
DEFPOINTS
 70
     0
 62
     7
  6
CONTINUOUS
290
     0
370
    -3
390
9
  0
LAYER
  5
13D
102
{ACAD_XDICTIONARY
360
13E
102
}
330
1F
100
AcDbSymbolTableRecord
100
AcDbLayerTableRecord
  2
AVERDECKTE
 70
     0
 62
    13
  6
VERDECKT
370
    -3
390
9
  0
LAYER
  5
20C
330
1F
100
AcDbSymbolTableRecord
100
AcDbLayerTableRecord
  2
Sichtbare Kanten(MSL)
 70
     0
 62
     7
  6
CONTINUOUS
370
    50
390
9
  0
LAYER
  5
1FE
330
1F
100
AcDbSymbolTableRecord
100
AcDbLayerTableRecord
  2
Verdeckte Kanten(MSL)
 70
     0
 62
    11
  6
DASHED
370
    35
390
9
  0
LAYER
  5
6D
330
1F
100
AcDbSymbolTableRecord
100
AcDbLayerTableRecord
  2
AM_5
 70
     0
 62
     3
  6
CONTINUOUS
370
    25
390
9
1001
AcAecLayerStandard
1000

1000

  0
ENDTAB
  0
TABLE
  2
STYLE
  5
25
330
0
100
AcDbSymbolTable
 70
     5
  0
STYLE
  5
26
330
25
100
AcDbSymbolTableRecord
100
AcDbTextStyleTableRecord
  2
STANDARD
 70
     0
 40
0.0
 41
1.0
 50
0.0
 71
     0
 42
10.0
  3
txt
  4

  0
STYLE
  5
3A
330
25
100
AcDbSymbolTableRecord
100
AcDbTextStyleTableRecord
  2
NORM
 70
     0
 40
0.0
 41
0.8
 50
0.0
 71
     0
 42
2.399999999999999
  3
SIMPLEX.shx
  4

  0
STYLE
  5
2D0
330
25
100
AcDbSymbolTableRecord
100
AcDbTextStyleTableRecord
  2
ACDINGDT
 70
     0
 40
0.0
 41
1.0
 50
0.0
 71
     0
 42
2.5
  3
amgdt.shx
  4

  0
STYLE
  5
35
330
25
100
AcDbSymbolTableRecord
100
AcDbTextStyleTableRecord
  2
ARIAL-STANDARD
 70
     0
 40
0.0
 41
1.0
 50
0.0
 71
     0
 42
3.5
  3
arial.ttf
  4

1001
ACAD
1000
Arial
1071
       34
  0
STYLE
  5
2C2
330
25
100
AcDbSymbolTableRecord
100
AcDbTextStyleTableRecord
  2

 70
     1
 40
0.0
 41
1.0
 50
0.0
 71
     0
 42
2.5
  3
ltypeshp.shx
  4

  0
ENDTAB
  0
TABLE
  2
VIEW
  5
2B
330
0
100
AcDbSymbolTable
 70
     0
  0
ENDTAB
  0
TABLE
  2
UCS
  5
2C
330
0
100
AcDbSymbolTable
 70
     0
  0
ENDTAB
  0
TABLE
  2
APPID
  5
32
330
0
100
AcDbSymbolTable
 70
    15
  0
APPID
  5
24
330
32
100
AcDbSymbolTableRecord
100
AcDbRegAppTableRecord
  2
ACAD
 70
     0
  0
APPID
  5
2A8
330
32
100
AcDbSymbolTableRecord
100
AcDbRegAppTableRecord
  2
GENIUS_GENODEF_13
 70
     0
  0
APPID
  5
301
330
32
100
AcDbSymbolTableRecord
100
AcDbRegAppTableRecord
  2
ACAD_DSTYLE_DIMJOGGED_JOGANGLE_SYMBOL
 70
     0
  0
APPID
  5
37
330
32
100
AcDbSymbolTableRecord
100
AcDbRegAppTableRecord
  2
ACAD_DSTYLE_DIMJAG
 70
     0
  0
APPID
  5
36
330
32
100
AcDbSymbolTableRecord
100
AcDbRegAppTableRecord
  2
ACAD_DSTYLE_DIMBREAK
 70
     0
  0
APPID
  5
38
330
32
100
AcDbSymbolTableRecord
100
AcDbRegAppTableRecord
  2
ACAD_DSTYLE_DIMTALN
 70
     0
  0
APPID
  5
1A
330
32
100
AcDbSymbolTableRecord
100
AcDbRegAppTableRecord
  2
ACAD_PSEXT
 70
     0
  0
APPID
  5
7F
330
32
100
AcDbSymbolTableRecord
100
AcDbRegAppTableRecord
  2
ACAD_DSTYLE_DIMINSPECT
 70
     0
  0
APPID
  5
6E
330
32
100
AcDbSymbolTableRecord
100
AcDbRegAppTableRecord
  2
AcAecLayerStandard
 70
     0
  0
APPID
  5
2A7
330
32
100
AcDbSymbolTableRecord
100
AcDbRegAppTableRecord
  2
GENIUS_GENOBJ-N-FIL_13
 70
     0
  0
APPID
  5
31
330
32
100
AcDbSymbolTableRecord
100
AcDbRegAppTableRecord
  2
ACAD_NAV_VCDISPLAY
 70
     0
  0
APPID
  5
30F
330
32
100
AcDbSymbolTableRecord
100
AcDbRegAppTableRecord
  2
ACATTRIBSERVICES
 70
     0
  0
APPID
  5
33A
330
32
100
AcDbSymbolTableRecord
100
AcDbRegAppTableRecord
  2
ACAD_DSTYLE_DIM_LINETYPE
 70
     0
  0
APPID
  5
33B
330
32
100
AcDbSymbolTableRecord
100
AcDbRegAppTableRecord
  2
ACAD_DSTYLE_DIM_EXT1_LINETYPE
 70
     0
  0
APPID
  5
33C
330
32
100
AcDbSymbolTableRecord
100
AcDbRegAppTableRecord
  2
ACAD_DSTYLE_DIM_EXT2_LINETYPE
 70
     0
  0
ENDTAB
  0
TABLE
  2
DIMSTYLE
  5
33
330
0
100
AcDbSymbolTable
 70
    10
100
AcDbDimStyleTable
 71
     2
340
34
340
39
  0
DIMSTYLE
105
39
330
33
100
AcDbSymbolTableRecord
100
AcDbDimStyleTableRecord
  2
PROSPEKT
 70
     0
 40
1.5
 41
3.5
 42
0.5
 43
8.0
 44
1.3
 73
     0
 74
     0
 77
     1
 78
     8
140
3.5
141
1.5
143
25.39999999999999
146
0.5
147
1.0
172
     1
174
     1
176
     2
177
     2
178
     3
271
     2
272
     2
279
     2
284
     8
285
     8
286
     8
340
3A
  0
DIMSTYLE
105
300
102
{ACAD_REACTORS
330
2CC
102
}
330
33
100
AcDbSymbolTableRecord
100
AcDbDimStyleTableRecord
  2
AM_DIN
 70
     0
  4
"
 41
3.5
 42
1.0
 43
10.0
 44
1.0
 47
0.1
 48
0.1
 73
     0
 74
     0
 77
     1
 78
     8
 79
     2
140
3.5
141
0.0
143
0.0393701
146
0.71
147
1.5
172
     1
176
   256
177
   256
178
     2
271
     2
272
     3
274
     4
283
     0
284
     8
340
26
371
    -1
372
    -1
1001
ACAD_DSTYLE_DIMJOGGED_JOGANGLE_SYMBOL
1070
   384
1040
1.570796326794896
1001
ACAD_DSTYLE_DIM_LINETYPE
1070
   380
1005
29
1001
ACAD_DSTYLE_DIM_EXT1_LINETYPE
1070
   381
1005
29
1001
ACAD_DSTYLE_DIM_EXT2_LINETYPE
1070
   382
1005
29
  0
DIMSTYLE
105
302
330
33
100
AcDbSymbolTableRecord
100
AcDbDimStyleTableRecord
  2
AM_DIN$3
 70
     0
  4
"
 41
3.5
 42
1.0
 43
10.0
 44
1.0
 47
0.1
 48
0.1
 73
     0
 77
     1
 78
     8
 79
     2
140
3.5
141
0.0
143
0.0393701
146
0.71
147
1.5
176
   256
177
   256
178
     2
271
     2
272
     3
274
     4
283
     0
284
     8
288
     1
289
     0
340
26
371
    -1
372
    -1
1001
ACAD_DSTYLE_DIMJOGGED_JOGANGLE_SYMBOL
1070
   384
1040
1.570796326794896
1001
ACAD_DSTYLE_DIM_LINETYPE
1070
   380
1005
29
1001
ACAD_DSTYLE_DIM_EXT1_LINETYPE
1070
   381
1005
29
1001
ACAD_DSTYLE_DIM_EXT2_LINETYPE
1070
   382
1005
29
  0
DIMSTYLE
105
303
330
33
100
AcDbSymbolTableRecord
100
AcDbDimStyleTableRecord
  2
AM_DIN$4
 70
     0
  4
"
 41
3.5
 42
1.0
 43
10.0
 44
1.0
 47
0.1
 48
0.1
 73
     0
 74
     0
 77
     1
 78
     8
 79
     2
140
3.5
141
0.0
143
0.0393701
146
0.71
147
1.5
172
     1
176
   256
177
   256
178
     2
271
     2
272
     3
274
     4
283
     0
284
     8
340
26
371
    -1
372
    -1
1001
ACAD_DSTYLE_DIMJOGGED_JOGANGLE_SYMBOL
1070
   384
1040
1.570796326794896
1001
ACAD_DSTYLE_DIM_LINETYPE
1070
   380
1005
29
1001
ACAD_DSTYLE_DIM_EXT1_LINETYPE
1070
   381
1005
29
1001
ACAD_DSTYLE_DIM_EXT2_LINETYPE
1070
   382
1005
29
  0
DIMSTYLE
105
304
330
33
100
AcDbSymbolTableRecord
100
AcDbDimStyleTableRecord
  2
AM_DIN$6
 70
     0
  4
"
 41
3.5
 42
1.0
 43
10.0
 44
1.0
 47
0.1
 48
0.1
 73
     0
 74
     0
 78
     8
 79
     2
140
3.5
141
0.0
143
0.0393701
146
0.71
147
1.5
172
     1
176
   256
177
   256
178
     2
271
     2
272
     3
274
     4
283
     0
284
     8
340
26
371
    -1
372
    -1
1001
ACAD_DSTYLE_DIMJOGGED_JOGANGLE_SYMBOL
1070
   384
1040
1.570796326794896
1001
ACAD_DSTYLE_DIM_LINETYPE
1070
   380
1005
29
1001
ACAD_DSTYLE_DIM_EXT1_LINETYPE
1070
   381
1005
29
1001
ACAD_DSTYLE_DIM_EXT2_LINETYPE
1070
   382
1005
29
  0
DIMSTYLE
105
305
330
33
100
AcDbSymbolTableRecord
100
AcDbDimStyleTableRecord
  2
AM_DIN$7
 70
     0
  4
"
 41
3.5
 42
1.0
 43
10.0
 44
1.0
 47
0.1
 48
0.1
 73
     0
 74
     0
 77
     1
 78
     8
 79
     2
140
3.5
141
0.0
143
0.0393701
146
0.71
147
1.5
172
     1
176
   256
177
   256
178
     2
271
     2
272
     3
274
     4
283
     0
284
     8
340
26
371
    -1
372
    -1
1001
ACAD_DSTYLE_DIMJOGGED_JOGANGLE_SYMBOL
1070
   384
1040
1.570796326794896
1001
ACAD_DSTYLE_DIM_LINETYPE
1070
   380
1005
29
1001
ACAD_DSTYLE_DIM_EXT1_LINETYPE
1070
   381
1005
29
1001
ACAD_DSTYLE_DIM_EXT2_LINETYPE
1070
   382
1005
29
  0
DIMSTYLE
105
306
330
33
100
AcDbSymbolTableRecord
100
AcDbDimStyleTableRecord
  2
AM_DIN$SF
 70
     0
  4
"
 41
3.5
 42
1.0
 43
10.0
 44
1.0
 47
0.1
 48
0.1
 73
     0
 74
     0
 75
     1
 76
     1
 77
     1
 78
     8
 79
     2
140
3.5
141
0.0
143
0.0393701
146
0.71
147
1.5
172
     1
176
   256
177
   256
178
     2
271
     2
272
     3
274
     4
283
     0
284
     8
340
26
371
    -1
372
    -1
1001
ACAD_DSTYLE_DIMJOGGED_JOGANGLE_SYMBOL
1070
   384
1040
1.570796326794896
1001
ACAD_DSTYLE_DIM_LINETYPE
1070
   380
1005
29
1001
ACAD_DSTYLE_DIM_EXT1_LINETYPE
1070
   381
1005
29
1001
ACAD_DSTYLE_DIM_EXT2_LINETYPE
1070
   382
1005
29
  0
DIMSTYLE
105
307
330
33
100
AcDbSymbolTableRecord
100
AcDbDimStyleTableRecord
  2
AM_DIN$SH
 70
     0
  4
"
 41
3.5
 42
1.0
 43
10.0
 44
1.0
 47
0.1
 48
0.1
 73
     0
 74
     0
 75
     1
 76
     1
 77
     1
 78
     8
 79
     2
140
3.5
141
0.0
143
0.0393701
144
2.0
146
0.71
147
1.5
172
     1
173
     1
176
   256
177
   256
178
     2
271
     2
272
     3
274
     4
283
     0
284
     8
340
26
343
308
371
    -1
372
    -1
1001
ACAD_DSTYLE_DIMJOGGED_JOGANGLE_SYMBOL
1070
   384
1040
1.570796326794896
1001
ACAD_DSTYLE_DIM_LINETYPE
1070
   380
1005
29
1001
ACAD_DSTYLE_DIM_EXT1_LINETYPE
1070
   381
1005
29
1001
ACAD_DSTYLE_DIM_EXT2_LINETYPE
1070
   382
1005
29
  0
DIMSTYLE
105
34
102
{ACAD_REACTORS
330
1E5
330
1D5
330
1C8
330
1BB
330
12B
330
11E
330
109
330
FC
330
1A7
330
19A
330
18D
330
180
330
173
330
166
330
159
330
14C
330
E7
330
DA
330
96
102
}
330
33
100
AcDbSymbolTableRecord
100
AcDbDimStyleTableRecord
  2
Katalog 09
 70
     0
 41
4.0
 42
0.0
 43
8.0
 44
1.0
 73
     0
 74
     0
 77
     1
 78
     8
140
4.349999999999999
141
1.5
143
25.39999999999999
146
0.4285714285714286
147
1.0
172
     1
174
     1
176
     2
177
     2
178
     3
271
     2
272
     2
284
     8
285
     8
286
     8
340
35
1001
ACAD_DSTYLE_DIMBREAK
1070
   391
1040
3.75
1001
ACAD_DSTYLE_DIMJAG
1070
   388
1040
1.5
1001
ACAD_DSTYLE_DIMTALN
1070
   392
1070
     0
  0
DIMSTYLE
105
7E
102
{ACAD_REACTORS
330
6C
102
}
330
33
100
AcDbSymbolTableRecord
100
AcDbDimStyleTableRecord
  2
Katalog 09$0
 70
     0
 41
4.0
 42
0.0
 43
8.0
 44
1.0
 73
     0
 74
     0
 77
     1
 78
     8
140
4.349999999999999
141
1.5
143
25.39999999999999
146
0.4285714285714286
147
1.0
172
     1
174
     1
176
     2
177
     2
178
     3
271
     2
272
     2
284
     8
285
     8
286
     8
340
35
1001
ACAD_DSTYLE_DIMBREAK
1070
   391
1040
3.75
1001
ACAD_DSTYLE_DIMJAG
1070
   388
1040
1.5
  0
ENDTAB
  0
TABLE
  2
BLOCK_RECORD
  5
1
330
0
100
AcDbSymbolTable
 70
    22
  0
BLOCK_RECORD
  5
2
102
{ACAD_XDICTIONARY
360
3
102
}
330
1
100
AcDbSymbolTableRecord
100
AcDbBlockTableRecord
  2
*MODEL_SPACE
340
17
  0
BLOCK_RECORD
  5
1B
330
1
100
AcDbSymbolTableRecord
100
AcDbBlockTableRecord
  2
*PAPER_SPACE
340
1E
  0
BLOCK_RECORD
  5
308
330
1
100
AcDbSymbolTableRecord
100
AcDbBlockTableRecord
  2
GENAXEH
340
0
  0
BLOCK_RECORD
  5
1E6
330
1
100
AcDbSymbolTableRecord
100
AcDbBlockTableRecord
  2
*D1
340
0
  0
BLOCK_RECORD
  5
1D6
330
1
100
AcDbSymbolTableRecord
100
AcDbBlockTableRecord
  2
*D2
340
0
  0
BLOCK_RECORD
  5
1C9
330
1
100
AcDbSymbolTableRecord
100
AcDbBlockTableRecord
  2
*D3
340
0
  0
BLOCK_RECORD
  5
1BC
330
1
100
AcDbSymbolTableRecord
100
AcDbBlockTableRecord
  2
*D4
340
0
  0
BLOCK_RECORD
  5
12C
330
1
100
AcDbSymbolTableRecord
100
AcDbBlockTableRecord
  2
*D5
340
0
  0
BLOCK_RECORD
  5
11F
330
1
100
AcDbSymbolTableRecord
100
AcDbBlockTableRecord
  2
*D6
340
0
  0
BLOCK_RECORD
  5
FD
330
1
100
AcDbSymbolTableRecord
100
AcDbBlockTableRecord
  2
*D7
340
0
  0
BLOCK_RECORD
  5
19B
330
1
100
AcDbSymbolTableRecord
100
AcDbBlockTableRecord
  2
*D8
340
0
  0
BLOCK_RECORD
  5
181
330
1
100
AcDbSymbolTableRecord
100
AcDbBlockTableRecord
  2
*D9
340
0
  0
BLOCK_RECORD
  5
174
330
1
100
AcDbSymbolTableRecord
100
AcDbBlockTableRecord
  2
*D10
340
0
  0
BLOCK_RECORD
  5
167
330
1
100
AcDbSymbolTableRecord
100
AcDbBlockTableRecord
  2
*D11
340
0
  0
BLOCK_RECORD
  5
15A
330
1
100
AcDbSymbolTableRecord
100
AcDbBlockTableRecord
  2
*D12
340
0
  0
BLOCK_RECORD
  5
14D
330
1
100
AcDbSymbolTableRecord
100
AcDbBlockTableRecord
  2
*D13
340
0
  0
BLOCK_RECORD
  5
10C
330
1
100
AcDbSymbolTableRecord
100
AcDbBlockTableRecord
  2
*D14
340
0
  0
BLOCK_RECORD
  5
1A8
330
1
100
AcDbSymbolTableRecord
100
AcDbBlockTableRecord
  2
*D15
340
0
  0
BLOCK_RECORD
  5
18E
330
1
100
AcDbSymbolTableRecord
100
AcDbBlockTableRecord
  2
*D16
340
0
  0
BLOCK_RECORD
  5
E8
330
1
100
AcDbSymbolTableRecord
100
AcDbBlockTableRecord
  2
*D17
340
0
  0
BLOCK_RECORD
  5
DB
330
1
100
AcDbSymbolTableRecord
100
AcDbBlockTableRecord
  2
*D18
340
0
  0
BLOCK_RECORD
  5
97
330
1
100
AcDbSymbolTableRecord
100
AcDbBlockTableRecord
  2
*D19
340
0
  0
BLOCK_RECORD
  5
2EB
330
1
100
AcDbSymbolTableRecord
100
AcDbBlockTableRecord
  2
_ACMFILLED30
340
0
  0
BLOCK_RECORD
  5
6F
330
1
100
AcDbSymbolTableRecord
100
AcDbBlockTableRecord
  2
*D21
340
0
  0
ENDTAB
  0
ENDSEC
  0
SECTION
  2
BLOCKS
  0
BLOCK
  5
5
330
2
100
AcDbEntity
  8
0
100
AcDbBlockBegin
  2
*MODEL_SPACE
 70
     0
 10
0.0
 20
0.0
 30
0.0
  3
*MODEL_SPACE
  1

  0
ENDBLK
  5
16
330
2
100
AcDbEntity
  8
0
100
AcDbBlockEnd
  0
BLOCK
  5
1C
330
1B
100
AcDbEntity
 67
     1
  8
0
100
AcDbBlockBegin
  2
*PAPER_SPACE
 70
     0
 10
0.0
 20
0.0
 30
0.0
  3
*PAPER_SPACE
  1

  0
ENDBLK
  5
1D
330
1B
100
AcDbEntity
 67
     1
  8
0
100
AcDbBlockEnd
  0
BLOCK
  5
309
330
308
100
AcDbEntity
  8
0
100
AcDbBlockBegin
  2
GENAXEH
 70
     0
 10
0.0
 20
0.0
 30
0.0
  3
GENAXEH
  1

  0
LINE
  5
30A
330
308
100
AcDbEntity
  8
0
100
AcDbLine
 10
-1.0
 20
0.0
 30
0.0
 11
1.0
 21
0.0
 31
0.0
  0
ENDBLK
  5
30B
330
308
100
AcDbEntity
  8
0
100
AcDbBlockEnd
  0
BLOCK
  5
1E7
330
1E6
100
AcDbEntity
  8
0
100
AcDbBlockBegin
  2
*D1
 70
     1
 10
0.0
 20
0.0
 30
0.0
  3
*D1
  1

  0
LINE
  5
1E8
330
1E6
100
AcDbEntity
  8
UMRISS05
 62
     2
370
    -2
100
AcDbLine
 10
65.99005907288688
 20
150.9455207619613
 30
0.0
 11
65.99005907288688
 21
166.6556090376167
 31
0.0
  0
LINE
  5
1E9
330
1E6
100
AcDbEntity
  8
UMRISS05
 62
     2
370
    -2
100
AcDbLine
 10
85.39005907288681
 20
150.9455207619613
 30
0.0
 11
85.39005907288681
 21
166.6556090376167
 31
0.0
  0
LINE
  5
1EA
330
1E6
100
AcDbEntity
  8
UMRISS05
 62
     2
370
    -2
100
AcDbLine
 10
69.99005907288688
 20
165.6556090376167
 30
0.0
 11
81.3900590728868
 21
165.6556090376167
 31
0.0
  0
SOLID
  5
1EB
330
1E6
100
AcDbEntity
  8
UMRISS05
 62
     2
100
AcDbTrace
 10
69.99005907288688
 20
166.3222757042833
 30
0.0
 11
69.99005907288688
 21
164.98894237095
 31
0.0
 12
65.99005907288688
 22
165.6556090376167
 32
0.0
 13
65.99005907288688
 23
165.6556090376167
 33
0.0
  0
SOLID
  5
1EC
330
1E6
100
AcDbEntity
  8
UMRISS05
 62
     2
100
AcDbTrace
 10
81.3900590728868
 20
166.3222757042833
 30
0.0
 11
81.3900590728868
 21
164.98894237095
 31
0.0
 12
85.39005907288681
 22
165.6556090376167
 32
0.0
 13
85.39005907288681
 23
165.6556090376167
 33
0.0
  0
MTEXT
  5
1ED
330
1E6
100
AcDbEntity
  8
UMRISS05
 62
     3
100
AcDbMText
 10
75.69005907288683
 20
168.876601534206
 30
0.0
 40
4.349999999999999
 41
0.0
 71
     5
 72
     1
  1
\A1;19.4
  7
ARIAL-STANDARD
 73
     1
 44
1.0
1001
ACAD
1000
MTEXTBEGIN
1070
    73
1070
     1
1070
    44
1040
1.0
1070
    74
1070
     0
1000
MTEXTEND
  0
POINT
  5
1EE
330
1E6
100
AcDbEntity
  8
DEFPOINTS
 62
     0
100
AcDbPoint
 10
65.99005907288688
 20
150.9455207619613
 30
0.0
  0
POINT
  5
1EF
330
1E6
100
AcDbEntity
  8
DEFPOINTS
 62
     0
100
AcDbPoint
 10
85.39005907288681
 20
150.9455207619613
 30
0.0
  0
POINT
  5
1F0
330
1E6
100
AcDbEntity
  8
DEFPOINTS
 62
     0
100
AcDbPoint
 10
85.39005907288681
 20
165.6556090376167
 30
0.0
  0
ENDBLK
  5
1F1
330
1E6
100
AcDbEntity
  8
0
100
AcDbBlockEnd
  0
BLOCK
  5
1D7
330
1D6
100
AcDbEntity
  8
0
100
AcDbBlockBegin
  2
*D2
 70
     1
 10
0.0
 20
0.0
 30
0.0
  3
*D2
  1

  0
LINE
  5
1D8
330
1D6
100
AcDbEntity
  8
UMRISS05
 62
     2
370
    -2
100
AcDbLine
 10
65.99005907288688
 20
150.9455207619615
 30
0.0
 11
65.99005907288688
 21
159.5468195098327
 31
0.0
  0
LINE
  5
1D9
330
1D6
100
AcDbEntity
  8
UMRISS05
 62
     2
370
    -2
100
AcDbLine
 10
63.19005907288681
 20
135.9455207619737
 30
0.0
 11
63.19005907288681
 21
159.5468195098327
 31
0.0
  0
LINE
  5
1DA
330
1D6
100
AcDbEntity
  8
UMRISS05
 62
     2
370
    -2
100
AcDbLine
 10
69.99005907288688
 20
158.5468195098327
 30
0.0
 11
73.99005907288688
 21
158.5468195098327
 31
0.0
  0
LINE
  5
1DB
330
1D6
100
AcDbEntity
  8
UMRISS05
 62
     2
370
    -2
100
AcDbLine
 10
59.19005907288681
 20
158.5468195098327
 30
0.0
 11
45.18736466633836
 21
158.5468195098327
 31
0.0
  0
LINE
  5
1DC
330
1D6
100
AcDbEntity
  8
UMRISS05
 62
     2
370
    -2
100
AcDbLine
 10
65.99005907288688
 20
158.5468195098327
 30
0.0
 11
63.19005907288681
 21
158.5468195098327
 31
0.0
  0
SOLID
  5
1DD
330
1D6
100
AcDbEntity
  8
UMRISS05
 62
     2
100
AcDbTrace
 10
69.99005907288688
 20
159.2134861764994
 30
0.0
 11
69.99005907288688
 21
157.880152843166
 31
0.0
 12
65.99005907288688
 22
158.5468195098327
 32
0.0
 13
65.99005907288688
 23
158.5468195098327
 33
0.0
  0
SOLID
  5
1DE
330
1D6
100
AcDbEntity
  8
UMRISS05
 62
     2
100
AcDbTrace
 10
59.19005907288681
 20
159.2134861764994
 30
0.0
 11
59.19005907288681
 21
157.880152843166
 31
0.0
 12
63.19005907288681
 22
158.5468195098327
 32
0.0
 13
63.19005907288681
 23
158.5468195098327
 33
0.0
  0
MTEXT
  5
1DF
330
1D6
100
AcDbEntity
  8
UMRISS05
 62
     3
100
AcDbMText
 10
50.18871186961257
 20
161.767812006422
 30
0.0
 40
4.349999999999999
 41
0.0
 71
     5
 72
     1
  1
\A1;2.8
  7
ARIAL-STANDARD
 73
     1
 44
1.0
1001
ACAD
1000
MTEXTBEGIN
1070
    73
1070
     1
1070
    44
1040
1.0
1070
    74
1070
     0
1000
MTEXTEND
  0
POINT
  5
1E0
330
1D6
100
AcDbEntity
  8
DEFPOINTS
 62
     0
100
AcDbPoint
 10
65.99005907288688
 20
150.9455207619615
 30
0.0
  0
POINT
  5
1E1
330
1D6
100
AcDbEntity
  8
DEFPOINTS
 62
     0
100
AcDbPoint
 10
63.19005907288681
 20
135.9455207619737
 30
0.0
  0
POINT
  5
1E2
330
1D6
100
AcDbEntity
  8
DEFPOINTS
 62
     0
100
AcDbPoint
 10
63.19005907288681
 20
158.5468195098327
 30
0.0
  0
ENDBLK
  5
1E3
330
1D6
100
AcDbEntity
  8
0
100
AcDbBlockEnd
  0
BLOCK
  5
1CA
330
1C9
100
AcDbEntity
  8
0
100
AcDbBlockBegin
  2
*D3
 70
     1
 10
0.0
 20
0.0
 30
0.0
  3
*D3
  1

  0
LINE
  5
1CB
330
1C9
100
AcDbEntity
  8
BEMASSUNG
 62
     2
370
    -2
100
AcDbLine
 10
165.1820953611094
 20
360.2648067025991
 30
0.0
 11
154.9309012879908
 21
360.2648067025991
 31
0.0
  0
LINE
  5
1CC
330
1C9
100
AcDbEntity
  8
BEMASSUNG
 62
     2
370
    -2
100
AcDbLine
 10
165.1820953611094
 20
422.264806702599
 30
0.0
 11
154.9309012879908
 21
422.264806702599
 31
0.0
  0
LINE
  5
1CD
330
1C9
100
AcDbEntity
  8
BEMASSUNG
 62
     2
370
    -2
100
AcDbLine
 10
155.9309012879908
 20
364.2648067025991
 30
0.0
 11
155.9309012879908
 21
418.264806702599
 31
0.0
  0
SOLID
  5
1CE
330
1C9
100
AcDbEntity
  8
BEMASSUNG
 62
     2
100
AcDbTrace
 10
155.2642346213241
 20
364.2648067025991
 30
0.0
 11
156.5975679546575
 21
364.2648067025991
 31
0.0
 12
155.9309012879908
 22
360.2648067025991
 32
0.0
 13
155.9309012879908
 23
360.2648067025991
 33
0.0
  0
SOLID
  5
1CF
330
1C9
100
AcDbEntity
  8
BEMASSUNG
 62
     2
100
AcDbTrace
 10
155.2642346213241
 20
418.264806702599
 30
0.0
 11
156.5975679546575
 21
418.264806702599
 31
0.0
 12
155.9309012879908
 22
422.264806702599
 32
0.0
 13
155.9309012879908
 23
422.264806702599
 33
0.0
  0
MTEXT
  5
1D0
330
1C9
100
AcDbEntity
  8
BEMASSUNG
 62
     3
100
AcDbMText
 10
152.7099087914014
 20
391.2648067025991
 30
0.0
 40
4.349999999999999
 41
0.0
 71
     5
 72
     1
  1
\A1;62
  7
ARIAL-STANDARD
 11
0.0000000000000001
 21
1.0
 31
0.0
 73
     1
 44
1.0
1001
ACAD
1000
MTEXTBEGIN
1070
    73
1070
     1
1070
    44
1040
1.0
1070
    74
1070
     0
1000
MTEXTEND
  0
POINT
  5
1D1
330
1C9
100
AcDbEntity
  8
DEFPOINTS
 62
     0
100
AcDbPoint
 10
165.1820953611094
 20
360.2648067025991
 30
0.0
  0
POINT
  5
1D2
330
1C9
100
AcDbEntity
  8
DEFPOINTS
 62
     0
100
AcDbPoint
 10
165.1820953611094
 20
422.264806702599
 30
0.0
  0
POINT
  5
1D3
330
1C9
100
AcDbEntity
  8
DEFPOINTS
 62
     0
100
AcDbPoint
 10
155.9309012879908
 20
422.264806702599
 30
0.0
  0
ENDBLK
  5
1D4
330
1C9
100
AcDbEntity
  8
0
100
AcDbBlockEnd
  0
BLOCK
  5
1BD
330
1BC
100
AcDbEntity
  8
0
100
AcDbBlockBegin
  2
*D4
 70
     1
 10
0.0
 20
0.0
 30
0.0
  3
*D4
  1

  0
LINE
  5
1BE
330
1BC
100
AcDbEntity
  8
BEMASSUNG
 62
     2
370
    -2
100
AcDbLine
 10
165.1820953611094
 20
360.2648067025992
 30
0.0
 11
165.1820953611094
 21
330.0999963189261
 31
0.0
  0
LINE
  5
1BF
330
1BC
100
AcDbEntity
  8
BEMASSUNG
 62
     2
370
    -2
100
AcDbLine
 10
180.1820953611086
 20
330.223545904744
 30
0.0
 11
180.1820953611086
 21
332.0999963189261
 31
0.0
  0
LINE
  5
1C0
330
1BC
100
AcDbEntity
  8
BEMASSUNG
 62
     2
370
    -2
100
AcDbLine
 10
169.1820953611095
 20
331.0999963189261
 30
0.0
 11
176.1820953611086
 21
331.0999963189261
 31
0.0
  0
SOLID
  5
1C1
330
1BC
100
AcDbEntity
  8
BEMASSUNG
 62
     2
100
AcDbTrace
 10
169.1820953611095
 20
331.7666629855927
 30
0.0
 11
169.1820953611095
 21
330.4333296522594
 31
0.0
 12
165.1820953611094
 22
331.0999963189261
 32
0.0
 13
165.1820953611094
 23
331.0999963189261
 33
0.0
  0
SOLID
  5
1C2
330
1BC
100
AcDbEntity
  8
BEMASSUNG
 62
     2
100
AcDbTrace
 10
176.1820953611086
 20
331.7666629855927
 30
0.0
 11
176.1820953611086
 21
330.4333296522594
 31
0.0
 12
180.1820953611086
 22
331.0999963189261
 32
0.0
 13
180.1820953611086
 23
331.0999963189261
 33
0.0
  0
MTEXT
  5
1C3
330
1BC
100
AcDbEntity
  8
BEMASSUNG
 62
     3
100
AcDbMText
 10
172.682095361109
 20
334.3209888155154
 30
0.0
 40
4.349999999999999
 41
0.0
 71
     5
 72
     1
  1
\A1;15
  7
ARIAL-STANDARD
 73
     1
 44
1.0
1001
ACAD
1000
MTEXTBEGIN
1070
    73
1070
     1
1070
    44
1040
1.0
1070
    74
1070
     0
1000
MTEXTEND
  0
POINT
  5
1C4
330
1BC
100
AcDbEntity
  8
DEFPOINTS
 62
     0
100
AcDbPoint
 10
165.1820953611094
 20
360.2648067025992
 30
0.0
  0
POINT
  5
1C5
330
1BC
100
AcDbEntity
  8
DEFPOINTS
 62
     0
100
AcDbPoint
 10
180.1820953611086
 20
330.223545904744
 30
0.0
  0
POINT
  5
1C6
330
1BC
100
AcDbEntity
  8
DEFPOINTS
 62
     0
100
AcDbPoint
 10
180.1820953611086
 20
331.0999963189261
 30
0.0
  0
ENDBLK
  5
1C7
330
1BC
100
AcDbEntity
  8
0
100
AcDbBlockEnd
  0
BLOCK
  5
12D
330
12C
100
AcDbEntity
  8
0
100
AcDbBlockBegin
  2
*D5
 70
     1
 10
0.0
 20
0.0
 30
0.0
  3
*D5
  1

  0
LINE
  5
12E
330
12C
100
AcDbEntity
  8
UMRISS05
 62
     2
370
    -2
100
AcDbLine
 10
63.19005907302806
 20
542.7648067025992
 30
0.0
 11
38.50703721068491
 21
542.7648067025992
 31
0.0
  0
LINE
  5
12F
330
12C
100
AcDbEntity
  8
UMRISS05
 62
     2
370
    -2
100
AcDbLine
 10
67.44005907302744
 20
341.2648067025993
 30
0.0
 11
38.50703721068487
 21
341.2648067025993
 31
0.0
  0
LINE
  5
130
330
12C
100
AcDbEntity
  8
UMRISS05
 62
     2
370
    -2
100
AcDbLine
 10
39.50703721068491
 20
538.7648067025992
 30
0.0
 11
39.50703721068487
 21
345.2648067025993
 31
0.0
  0
SOLID
  5
131
330
12C
100
AcDbEntity
  8
UMRISS05
 62
     2
100
AcDbTrace
 10
38.84037054401825
 20
538.7648067025992
 30
0.0
 11
40.17370387735158
 21
538.7648067025992
 31
0.0
 12
39.50703721068491
 22
542.7648067025992
 32
0.0
 13
39.50703721068491
 23
542.7648067025992
 33
0.0
  0
SOLID
  5
132
330
12C
100
AcDbEntity
  8
UMRISS05
 62
     2
100
AcDbTrace
 10
38.84037054401821
 20
345.2648067025993
 30
0.0
 11
40.17370387735153
 21
345.2648067025993
 31
0.0
 12
39.50703721068487
 22
341.2648067025993
 32
0.0
 13
39.50703721068487
 23
341.2648067025993
 33
0.0
  0
MTEXT
  5
133
330
12C
100
AcDbEntity
  8
UMRISS05
 62
     3
100
AcDbMText
 10
36.28604471409546
 20
442.0148067025992
 30
0.0
 40
4.349999999999999
 41
0.0
 71
     5
 72
     1
  1
\A1;201.5
  7
ARIAL-STANDARD
 11
0.0000000000000001
 21
1.0
 31
0.0
 73
     1
 44
1.0
1001
ACAD
1000
MTEXTBEGIN
1070
    73
1070
     1
1070
    44
1040
1.0
1070
    74
1070
     0
1000
MTEXTEND
  0
POINT
  5
134
330
12C
100
AcDbEntity
  8
DEFPOINTS
 62
     0
100
AcDbPoint
 10
63.19005907302806
 20
542.7648067025992
 30
0.0
  0
POINT
  5
135
330
12C
100
AcDbEntity
  8
DEFPOINTS
 62
     0
100
AcDbPoint
 10
67.44005907302744
 20
341.2648067025993
 30
0.0
  0
POINT
  5
136
330
12C
100
AcDbEntity
  8
DEFPOINTS
 62
     0
100
AcDbPoint
 10
39.50703721068487
 20
341.2648067025993
 30
0.0
  0
ENDBLK
  5
137
330
12C
100
AcDbEntity
  8
0
100
AcDbBlockEnd
  0
BLOCK
  5
120
330
11F
100
AcDbEntity
  8
0
100
AcDbBlockBegin
  2
*D6
 70
     1
 10
0.0
 20
0.0
 30
0.0
  3
*D6
  1

  0
LINE
  5
121
330
11F
100
AcDbEntity
  8
UMRISS05
 62
     2
370
    -2
100
AcDbLine
 10
67.44005907302744
 20
341.2648067025993
 30
0.0
 11
38.50703721068491
 21
341.2648067025993
 31
0.0
  0
LINE
  5
122
330
11F
100
AcDbEntity
  8
UMRISS05
 62
     2
370
    -2
100
AcDbLine
 10
63.19005907302744
 20
192.7648067025993
 30
0.0
 11
38.50703721068487
 21
192.7648067025993
 31
0.0
  0
LINE
  5
123
330
11F
100
AcDbEntity
  8
UMRISS05
 62
     2
370
    -2
100
AcDbLine
 10
39.50703721068491
 20
337.2648067025993
 30
0.0
 11
39.50703721068487
 21
196.7648067025993
 31
0.0
  0
SOLID
  5
124
330
11F
100
AcDbEntity
  8
UMRISS05
 62
     2
100
AcDbTrace
 10
38.84037054401824
 20
337.2648067025993
 30
0.0
 11
40.17370387735157
 21
337.2648067025993
 31
0.0
 12
39.50703721068491
 22
341.2648067025993
 32
0.0
 13
39.50703721068491
 23
341.2648067025993
 33
0.0
  0
SOLID
  5
125
330
11F
100
AcDbEntity
  8
UMRISS05
 62
     2
100
AcDbTrace
 10
38.84037054401821
 20
196.7648067025993
 30
0.0
 11
40.17370387735153
 21
196.7648067025993
 31
0.0
 12
39.50703721068487
 22
192.7648067025993
 32
0.0
 13
39.50703721068487
 23
192.7648067025993
 33
0.0
  0
MTEXT
  5
126
330
11F
100
AcDbEntity
  8
UMRISS05
 62
     3
100
AcDbMText
 10
36.28604471409548
 20
267.0148067025993
 30
0.0
 40
4.349999999999999
 41
0.0
 71
     5
 72
     1
  1
\A1;148.5
  7
ARIAL-STANDARD
 11
0.0000000000000001
 21
1.0
 31
0.0
 73
     1
 44
1.0
1001
ACAD
1000
MTEXTBEGIN
1070
    73
1070
     1
1070
    44
1040
1.0
1070
    74
1070
     0
1000
MTEXTEND
  0
POINT
  5
127
330
11F
100
AcDbEntity
  8
DEFPOINTS
 62
     0
100
AcDbPoint
 10
67.44005907302744
 20
341.2648067025993
 30
0.0
  0
POINT
  5
128
330
11F
100
AcDbEntity
  8
DEFPOINTS
 62
     0
100
AcDbPoint
 10
63.19005907302744
 20
192.7648067025993
 30
0.0
  0
POINT
  5
129
330
11F
100
AcDbEntity
  8
DEFPOINTS
 62
     0
100
AcDbPoint
 10
39.50703721068487
 20
192.7648067025993
 30
0.0
  0
ENDBLK
  5
12A
330
11F
100
AcDbEntity
  8
0
100
AcDbBlockEnd
  0
BLOCK
  5
FE
330
FD
100
AcDbEntity
  8
0
100
AcDbBlockBegin
  2
*D7
 70
     1
 10
0.0
 20
0.0
 30
0.0
  3
*D7
  1

  0
LINE
  5
FF
330
FD
100
AcDbEntity
  8
UMRISS05
 62
     2
370
    -2
100
AcDbLine
 10
123.1900590730274
 20
357.2648067025993
 30
0.0
 11
123.1900590730274
 21
328.1851074796455
 31
0.0
  0
LINE
  5
100
330
FD
100
AcDbEntity
  8
UMRISS05
 62
     2
370
    -2
100
AcDbLine
 10
75.19005907302744
 20
327.7648067025993
 30
0.0
 11
75.19005907302744
 21
330.1851074796455
 31
0.0
  0
LINE
  5
101
330
FD
100
AcDbEntity
  8
UMRISS05
 62
     2
370
    -2
100
AcDbLine
 10
119.1900590730274
 20
329.1851074796455
 30
0.0
 11
79.19005907302744
 21
329.1851074796455
 31
0.0
  0
SOLID
  5
102
330
FD
100
AcDbEntity
  8
UMRISS05
 62
     2
100
AcDbTrace
 10
119.1900590730274
 20
329.8517741463122
 30
0.0
 11
119.1900590730274
 21
328.5184408129788
 31
0.0
 12
123.1900590730274
 22
329.1851074796455
 32
0.0
 13
123.1900590730274
 23
329.1851074796455
 33
0.0
  0
SOLID
  5
103
330
FD
100
AcDbEntity
  8
UMRISS05
 62
     2
100
AcDbTrace
 10
79.19005907302744
 20
329.8517741463122
 30
0.0
 11
79.19005907302744
 21
328.5184408129788
 31
0.0
 12
75.19005907302744
 22
329.1851074796455
 32
0.0
 13
75.19005907302744
 23
329.1851074796455
 33
0.0
  0
MTEXT
  5
104
330
FD
100
AcDbEntity
  8
UMRISS05
 62
     3
100
AcDbMText
 10
99.19005907302745
 20
332.4060999762349
 30
0.0
 40
4.349999999999999
 41
0.0
 71
     5
 72
     1
  1
\A1;48
  7
ARIAL-STANDARD
 73
     1
 44
1.0
1001
ACAD
1000
MTEXTBEGIN
1070
    73
1070
     1
1070
    44
1040
1.0
1070
    74
1070
     0
1000
MTEXTEND
  0
POINT
  5
105
330
FD
100
AcDbEntity
  8
DEFPOINTS
 62
     0
100
AcDbPoint
 10
123.1900590730274
 20
357.2648067025993
 30
0.0
  0
POINT
  5
106
330
FD
100
AcDbEntity
  8
DEFPOINTS
 62
     0
100
AcDbPoint
 10
75.19005907302744
 20
327.7648067025993
 30
0.0
  0
POINT
  5
107
330
FD
100
AcDbEntity
  8
DEFPOINTS
 62
     0
100
AcDbPoint
 10
75.19005907302744
 20
329.1851074796455
 30
0.0
  0
ENDBLK
  5
108
330
FD
100
AcDbEntity
  8
0
100
AcDbBlockEnd
  0
BLOCK
  5
19C
330
19B
100
AcDbEntity
  8
0
100
AcDbBlockBegin
  2
*D8
 70
     1
 10
0.0
 20
0.0
 30
0.0
  3
*D8
  1

  0
LINE
  5
19D
330
19B
100
AcDbEntity
  8
BEMASSUNG
 62
     2
370
    -2
100
AcDbLine
 10
89.69005907302738
 20
367.2648067025993
 30
0.0
 11
133.0222022032763
 21
367.2648067025992
 31
0.0
  0
LINE
  5
19E
330
19B
100
AcDbEntity
  8
BEMASSUNG
 62
     2
370
    -2
100
AcDbLine
 10
89.69005907302744
 20
415.2648067025991
 30
0.0
 11
133.0222022032763
 21
415.2648067025991
 31
0.0
  0
LINE
  5
19F
330
19B
100
AcDbEntity
  8
BEMASSUNG
 62
     2
370
    -2
100
AcDbLine
 10
132.0222022032763
 20
371.2648067025992
 30
0.0
 11
132.0222022032763
 21
411.2648067025991
 31
0.0
  0
SOLID
  5
1A0
330
19B
100
AcDbEntity
  8
BEMASSUNG
 62
     2
100
AcDbTrace
 10
131.3555355366096
 20
371.2648067025992
 30
0.0
 11
132.6888688699429
 21
371.2648067025992
 31
0.0
 12
132.0222022032763
 22
367.2648067025992
 32
0.0
 13
132.0222022032763
 23
367.2648067025992
 33
0.0
  0
SOLID
  5
1A1
330
19B
100
AcDbEntity
  8
BEMASSUNG
 62
     2
100
AcDbTrace
 10
131.3555355366096
 20
411.2648067025991
 30
0.0
 11
132.6888688699429
 21
411.2648067025991
 31
0.0
 12
132.0222022032763
 22
415.2648067025991
 32
0.0
 13
132.0222022032763
 23
415.2648067025991
 33
0.0
  0
MTEXT
  5
1A2
330
19B
100
AcDbEntity
  8
BEMASSUNG
 62
     3
100
AcDbMText
 10
128.8012097066869
 20
391.2648067025993
 30
0.0
 40
4.349999999999999
 41
0.0
 71
     5
 72
     1
  1
\A1;48
  7
ARIAL-STANDARD
 11
0.0000000000000001
 21
1.0
 31
0.0
 73
     1
 44
1.0
1001
ACAD
1000
MTEXTBEGIN
1070
    73
1070
     1
1070
    44
1040
1.0
1070
    74
1070
     0
1000
MTEXTEND
  0
POINT
  5
1A3
330
19B
100
AcDbEntity
  8
DEFPOINTS
 62
     0
100
AcDbPoint
 10
89.69005907302738
 20
367.2648067025993
 30
0.0
  0
POINT
  5
1A4
330
19B
100
AcDbEntity
  8
DEFPOINTS
 62
     0
100
AcDbPoint
 10
89.69005907302744
 20
415.2648067025991
 30
0.0
  0
POINT
  5
1A5
330
19B
100
AcDbEntity
  8
DEFPOINTS
 62
     0
100
AcDbPoint
 10
132.0222022032763
 20
415.2648067025991
 30
0.0
  0
ENDBLK
  5
1A6
330
19B
100
AcDbEntity
  8
0
100
AcDbBlockEnd
  0
BLOCK
  5
182
330
181
100
AcDbEntity
  8
0
100
AcDbBlockBegin
  2
*D9
 70
     1
 10
0.0
 20
0.0
 30
0.0
  3
*D9
  1

  0
LINE
  5
183
330
181
100
AcDbEntity
  8
BEMASSUNG
 62
     2
370
    -2
100
AcDbLine
 10
80.69005907302756
 20
267.7648067025993
 30
0.0
 11
107.249291119255
 21
267.7648067025993
 31
0.0
  0
LINE
  5
184
330
181
100
AcDbEntity
  8
BEMASSUNG
 62
     2
370
    -2
100
AcDbLine
 10
87.19005907302749
 20
192.7648067026002
 30
0.0
 11
107.249291119255
 21
192.7648067026002
 31
0.0
  0
LINE
  5
185
330
181
100
AcDbEntity
  8
BEMASSUNG
 62
     2
370
    -2
100
AcDbLine
 10
106.249291119255
 20
263.7648067025993
 30
0.0
 11
106.249291119255
 21
196.7648067026002
 31
0.0
  0
SOLID
  5
186
330
181
100
AcDbEntity
  8
BEMASSUNG
 62
     2
100
AcDbTrace
 10
105.5826244525883
 20
263.7648067025993
 30
0.0
 11
106.9159577859217
 21
263.7648067025993
 31
0.0
 12
106.249291119255
 22
267.7648067025993
 32
0.0
 13
106.249291119255
 23
267.7648067025993
 33
0.0
  0
SOLID
  5
187
330
181
100
AcDbEntity
  8
BEMASSUNG
 62
     2
100
AcDbTrace
 10
105.5826244525883
 20
196.7648067026002
 30
0.0
 11
106.9159577859217
 21
196.7648067026002
 31
0.0
 12
106.249291119255
 22
192.7648067026002
 32
0.0
 13
106.249291119255
 23
192.7648067026002
 33
0.0
  0
MTEXT
  5
188
330
181
100
AcDbEntity
  8
BEMASSUNG
 62
     3
100
AcDbMText
 10
103.037200396199
 20
230.2648067025998
 30
0.0
 40
4.349999999999999
 41
0.0
 71
     5
 72
     1
  1
\A1;75
  7
ARIAL-STANDARD
 11
0.0000000000000001
 21
1.0
 31
0.0
 73
     1
 44
1.0
1001
ACAD
1000
MTEXTBEGIN
1070
    73
1070
     1
1070
    44
1040
1.0
1070
    74
1070
     0
1000
MTEXTEND
  0
POINT
  5
189
330
181
100
AcDbEntity
  8
DEFPOINTS
 62
     0
100
AcDbPoint
 10
80.69005907302756
 20
267.7648067025993
 30
0.0
  0
POINT
  5
18A
330
181
100
AcDbEntity
  8
DEFPOINTS
 62
     0
100
AcDbPoint
 10
87.19005907302749
 20
192.7648067026002
 30
0.0
  0
POINT
  5
18B
330
181
100
AcDbEntity
  8
DEFPOINTS
 62
     0
100
AcDbPoint
 10
106.249291119255
 20
192.7648067026002
 30
0.0
  0
ENDBLK
  5
18C
330
181
100
AcDbEntity
  8
0
100
AcDbBlockEnd
  0
BLOCK
  5
175
330
174
100
AcDbEntity
  8
0
100
AcDbBlockBegin
  2
*D10
 70
     1
 10
0.0
 20
0.0
 30
0.0
  3
*D10
  1

  0
LINE
  5
176
330
174
100
AcDbEntity
  8
BEMASSUNG
 62
     2
370
    -2
100
AcDbLine
 10
80.69005907302756
 20
267.7648067025993
 30
0.0
 11
107.249291119255
 21
267.7648067025993
 31
0.0
  0
LINE
  5
177
330
174
100
AcDbEntity
  8
BEMASSUNG
 62
     2
370
    -2
100
AcDbLine
 10
80.6900590730275
 20
314.7648067025993
 30
0.0
 11
107.249291119255
 21
314.7648067025993
 31
0.0
  0
LINE
  5
178
330
174
100
AcDbEntity
  8
BEMASSUNG
 62
     2
370
    -2
100
AcDbLine
 10
106.249291119255
 20
271.7648067025993
 30
0.0
 11
106.249291119255
 21
310.7648067025993
 31
0.0
  0
SOLID
  5
179
330
174
100
AcDbEntity
  8
BEMASSUNG
 62
     2
100
AcDbTrace
 10
105.5826244525883
 20
271.7648067025993
 30
0.0
 11
106.9159577859217
 21
271.7648067025993
 31
0.0
 12
106.249291119255
 22
267.7648067025993
 32
0.0
 13
106.249291119255
 23
267.7648067025993
 33
0.0
  0
SOLID
  5
17A
330
174
100
AcDbEntity
  8
BEMASSUNG
 62
     2
100
AcDbTrace
 10
105.5826244525883
 20
310.7648067025993
 30
0.0
 11
106.9159577859217
 21
310.7648067025993
 31
0.0
 12
106.249291119255
 22
314.7648067025993
 32
0.0
 13
106.249291119255
 23
314.7648067025993
 33
0.0
  0
MTEXT
  5
17B
330
174
100
AcDbEntity
  8
BEMASSUNG
 62
     3
100
AcDbMText
 10
103.0742911192549
 20
291.2648067025993
 30
0.0
 40
4.349999999999999
 41
0.0
 71
     5
 72
     1
  1
\A1;47
  7
ARIAL-STANDARD
 11
0.0000000000000001
 21
1.0
 31
0.0
 73
     1
 44
1.0
1001
ACAD
1000
MTEXTBEGIN
1070
    73
1070
     1
1070
    44
1040
1.0
1070
    74
1070
     0
1000
MTEXTEND
  0
POINT
  5
17C
330
174
100
AcDbEntity
  8
DEFPOINTS
 62
     0
100
AcDbPoint
 10
80.69005907302756
 20
267.7648067025993
 30
0.0
  0
POINT
  5
17D
330
174
100
AcDbEntity
  8
DEFPOINTS
 62
     0
100
AcDbPoint
 10
80.6900590730275
 20
314.7648067025993
 30
0.0
  0
POINT
  5
17E
330
174
100
AcDbEntity
  8
DEFPOINTS
 62
     0
100
AcDbPoint
 10
106.249291119255
 20
314.7648067025993
 30
0.0
  0
ENDBLK
  5
17F
330
174
100
AcDbEntity
  8
0
100
AcDbBlockEnd
  0
BLOCK
  5
168
330
167
100
AcDbEntity
  8
0
100
AcDbBlockBegin
  2
*D11
 70
     1
 10
0.0
 20
0.0
 30
0.0
  3
*D11
  1

  0
LINE
  5
169
330
167
100
AcDbEntity
  8
BEMASSUNG
 62
     2
370
    -2
100
AcDbLine
 10
63.19005907302744
 20
192.7648067026002
 30
0.0
 11
28.7459826869356
 21
192.7648067026002
 31
0.0
  0
LINE
  5
16A
330
167
100
AcDbEntity
  8
BEMASSUNG
 62
     2
370
    -2
100
AcDbLine
 10
63.19005907302806
 20
542.7648067025992
 30
0.0
 11
28.74598268693567
 21
542.7648067025992
 31
0.0
  0
LINE
  5
16B
330
167
100
AcDbEntity
  8
BEMASSUNG
 62
     2
370
    -2
100
AcDbLine
 10
29.7459826869356
 20
196.7648067026002
 30
0.0
 11
29.74598268693568
 21
538.7648067025992
 31
0.0
  0
SOLID
  5
16C
330
167
100
AcDbEntity
  8
BEMASSUNG
 62
     2
100
AcDbTrace
 10
29.07931602026893
 20
196.7648067026002
 30
0.0
 11
30.41264935360227
 21
196.7648067026002
 31
0.0
 12
29.7459826869356
 22
192.7648067026002
 32
0.0
 13
29.7459826869356
 23
192.7648067026002
 33
0.0
  0
SOLID
  5
16D
330
167
100
AcDbEntity
  8
BEMASSUNG
 62
     2
100
AcDbTrace
 10
29.07931602026901
 20
538.7648067025992
 30
0.0
 11
30.41264935360235
 21
538.7648067025992
 31
0.0
 12
29.74598268693568
 22
542.7648067025992
 32
0.0
 13
29.74598268693568
 23
542.7648067025992
 33
0.0
  0
MTEXT
  5
16E
330
167
100
AcDbEntity
  8
BEMASSUNG
 62
     3
100
AcDbMText
 10
26.52350656142398
 20
367.5994648450219
 30
0.0
 40
4.349999999999999
 41
0.0
 71
     5
 72
     1
  1
\A1;350
  7
ARIAL-STANDARD
 11
0.0000000000000001
 21
1.0
 31
0.0
 73
     1
 44
1.0
1001
ACAD
1000
MTEXTBEGIN
1070
    73
1070
     1
1070
    44
1040
1.0
1070
    74
1070
     0
1000
MTEXTEND
  0
POINT
  5
16F
330
167
100
AcDbEntity
  8
DEFPOINTS
 62
     0
100
AcDbPoint
 10
63.19005907302744
 20
192.7648067026002
 30
0.0
  0
POINT
  5
170
330
167
100
AcDbEntity
  8
DEFPOINTS
 62
     0
100
AcDbPoint
 10
63.19005907302806
 20
542.7648067025992
 30
0.0
  0
POINT
  5
171
330
167
100
AcDbEntity
  8
DEFPOINTS
 62
     0
100
AcDbPoint
 10
29.74598268693568
 20
542.7648067025992
 30
0.0
  0
ENDBLK
  5
172
330
167
100
AcDbEntity
  8
0
100
AcDbBlockEnd
  0
BLOCK
  5
15B
330
15A
100
AcDbEntity
  8
0
100
AcDbBlockBegin
  2
*D12
 70
     1
 10
0.0
 20
0.0
 30
0.0
  3
*D12
  1

  0
LINE
  5
15C
330
15A
100
AcDbEntity
  8
BEMASSUNG
 62
     2
370
    -2
100
AcDbLine
 10
63.1900590730275
 20
192.7648067026002
 30
0.0
 11
63.1900590730275
 21
180.3172377043199
 31
0.0
  0
LINE
  5
15D
330
15A
100
AcDbEntity
  8
BEMASSUNG
 62
     2
370
    -2
100
AcDbLine
 10
87.19005907302749
 20
192.7648067026002
 30
0.0
 11
87.19005907302749
 21
180.3172377043199
 31
0.0
  0
LINE
  5
15E
330
15A
100
AcDbEntity
  8
BEMASSUNG
 62
     2
370
    -2
100
AcDbLine
 10
67.1900590730275
 20
181.3172377043199
 30
0.0
 11
83.1900590730275
 21
181.3172377043199
 31
0.0
  0
SOLID
  5
15F
330
15A
100
AcDbEntity
  8
BEMASSUNG
 62
     2
100
AcDbTrace
 10
67.1900590730275
 20
181.9839043709866
 30
0.0
 11
67.1900590730275
 21
180.6505710376533
 31
0.0
 12
63.1900590730275
 22
181.3172377043199
 32
0.0
 13
63.1900590730275
 23
181.3172377043199
 33
0.0
  0
SOLID
  5
160
330
15A
100
AcDbEntity
  8
BEMASSUNG
 62
     2
100
AcDbTrace
 10
83.1900590730275
 20
181.9839043709866
 30
0.0
 11
83.1900590730275
 21
180.6505710376533
 31
0.0
 12
87.19005907302749
 22
181.3172377043199
 32
0.0
 13
87.19005907302749
 23
181.3172377043199
 33
0.0
  0
MTEXT
  5
161
330
15A
100
AcDbEntity
  8
BEMASSUNG
 62
     3
100
AcDbMText
 10
75.60566680655682
 20
184.5011394778533
 30
0.0
 40
4.349999999999999
 41
0.0
 71
     5
 72
     1
  1
\A1;24
  7
ARIAL-STANDARD
 73
     1
 44
1.0
1001
ACAD
1000
MTEXTBEGIN
1070
    73
1070
     1
1070
    44
1040
1.0
1070
    74
1070
     0
1000
MTEXTEND
  0
POINT
  5
162
330
15A
100
AcDbEntity
  8
DEFPOINTS
 62
     0
100
AcDbPoint
 10
63.1900590730275
 20
192.7648067026002
 30
0.0
  0
POINT
  5
163
330
15A
100
AcDbEntity
  8
DEFPOINTS
 62
     0
100
AcDbPoint
 10
87.19005907302749
 20
192.7648067026002
 30
0.0
  0
POINT
  5
164
330
15A
100
AcDbEntity
  8
DEFPOINTS
 62
     0
100
AcDbPoint
 10
87.19005907302749
 20
181.3172377043199
 30
0.0
  0
ENDBLK
  5
165
330
15A
100
AcDbEntity
  8
0
100
AcDbBlockEnd
  0
BLOCK
  5
14E
330
14D
100
AcDbEntity
  8
0
100
AcDbBlockBegin
  2
*D13
 70
     1
 10
0.0
 20
0.0
 30
0.0
  3
*D13
  1

  0
LINE
  5
14F
330
14D
100
AcDbEntity
  8
BEMASSUNG
 62
     2
370
    -2
100
AcDbLine
 10
67.6900590730275
 20
269.7648067025993
 30
0.0
 11
67.6900590730275
 21
236.798494412524
 31
0.0
  0
LINE
  5
150
330
14D
100
AcDbEntity
  8
BEMASSUNG
 62
     2
370
    -2
100
AcDbLine
 10
82.69005907302755
 20
269.7648067025993
 30
0.0
 11
82.69005907302755
 21
236.798494412524
 31
0.0
  0
LINE
  5
151
330
14D
100
AcDbEntity
  8
BEMASSUNG
 62
     2
370
    -2
100
AcDbLine
 10
71.6900590730275
 20
237.7984944125241
 30
0.0
 11
78.69005907302756
 21
237.7984944125241
 31
0.0
  0
SOLID
  5
152
330
14D
100
AcDbEntity
  8
BEMASSUNG
 62
     2
100
AcDbTrace
 10
71.6900590730275
 20
238.4651610791907
 30
0.0
 11
71.6900590730275
 21
237.1318277458574
 31
0.0
 12
67.6900590730275
 22
237.7984944125241
 32
0.0
 13
67.6900590730275
 23
237.7984944125241
 33
0.0
  0
SOLID
  5
153
330
14D
100
AcDbEntity
  8
BEMASSUNG
 62
     2
100
AcDbTrace
 10
78.69005907302756
 20
238.4651610791907
 30
0.0
 11
78.69005907302756
 21
237.1318277458574
 31
0.0
 12
82.69005907302755
 22
237.7984944125241
 32
0.0
 13
82.69005907302755
 23
237.7984944125241
 33
0.0
  0
MTEXT
  5
154
330
14D
100
AcDbEntity
  8
BEMASSUNG
 62
     3
100
AcDbMText
 10
75.19005907302755
 20
241.0194869091134
 30
0.0
 40
4.349999999999999
 41
0.0
 71
     5
 72
     1
  1
\A1;15
  7
ARIAL-STANDARD
 73
     1
 44
1.0
1001
ACAD
1000
MTEXTBEGIN
1070
    73
1070
     1
1070
    44
1040
1.0
1070
    74
1070
     0
1000
MTEXTEND
  0
POINT
  5
155
330
14D
100
AcDbEntity
  8
DEFPOINTS
 62
     0
100
AcDbPoint
 10
67.6900590730275
 20
269.7648067025993
 30
0.0
  0
POINT
  5
156
330
14D
100
AcDbEntity
  8
DEFPOINTS
 62
     0
100
AcDbPoint
 10
82.69005907302755
 20
269.7648067025993
 30
0.0
  0
POINT
  5
157
330
14D
100
AcDbEntity
  8
DEFPOINTS
 62
     0
100
AcDbPoint
 10
82.69005907302755
 20
237.7984944125241
 30
0.0
  0
ENDBLK
  5
158
330
14D
100
AcDbEntity
  8
0
100
AcDbBlockEnd
  0
BLOCK
  5
10D
330
10C
100
AcDbEntity
  8
0
100
AcDbBlockBegin
  2
*D14
 70
     1
 10
0.0
 20
0.0
 30
0.0
  3
*D14
  1

  0
LINE
  5
10E
330
10C
100
AcDbEntity
  8
UMRISS05
 62
     2
370
    -2
100
AcDbLine
 10
122.1900590730275
 20
426.2648067025993
 30
0.0
 11
129.8472022032763
 21
426.2648067025993
 31
0.0
  0
LINE
  5
10F
330
10C
100
AcDbEntity
  8
UMRISS05
 62
     2
370
    -2
100
AcDbLine
 10
121.7703366368007
 20
356.2648067025993
 30
0.0
 11
129.8472022032763
 21
356.2648067025993
 31
0.0
  0
LINE
  5
110
330
10C
100
AcDbEntity
  8
UMRISS05
 62
     2
370
    -2
100
AcDbLine
 10
140.5813106846736
 20
422.2648067025992
 30
0.0
 11
140.5813106846736
 21
360.2648067025992
 31
0.0
  0
SOLID
  5
111
330
10C
100
AcDbEntity
  8
UMRISS05
 62
     2
100
AcDbTrace
 10
139.9146440180069
 20
422.2648067025992
 30
0.0
 11
141.2479773513402
 21
422.2648067025992
 31
0.0
 12
140.5813106846736
 22
426.2648067025992
 32
0.0
 13
140.5813106846736
 23
426.2648067025992
 33
0.0
  0
SOLID
  5
112
330
10C
100
AcDbEntity
  8
UMRISS05
 62
     2
100
AcDbTrace
 10
139.9146440180069
 20
360.2648067025992
 30
0.0
 11
141.2479773513402
 21
360.2648067025992
 31
0.0
 12
140.5813106846736
 22
356.2648067025993
 32
0.0
 13
140.5813106846736
 23
356.2648067025993
 33
0.0
  0
MTEXT
  5
113
330
10C
100
AcDbEntity
  8
UMRISS05
 62
     3
100
AcDbMText
 10
137.3603181880842
 20
391.2648067025994
 30
0.0
 40
4.349999999999999
 41
0.0
 71
     5
 72
     1
  1
\A1;70
  7
ARIAL-STANDARD
 11
0.0000000000000001
 21
1.0
 31
0.0
 73
     1
 44
1.0
1001
ACAD
1000
MTEXTBEGIN
1070
    73
1070
     1
1070
    44
1040
1.0
1070
    74
1070
     0
1000
MTEXTEND
  0
POINT
  5
114
330
10C
100
AcDbEntity
  8
DEFPOINTS
 62
     0
100
AcDbPoint
 10
122.1900590730275
 20
426.2648067025993
 30
0.0
  0
POINT
  5
115
330
10C
100
AcDbEntity
  8
DEFPOINTS
 62
     0
100
AcDbPoint
 10
121.7703366368007
 20
356.2648067025993
 30
0.0
  0
POINT
  5
116
330
10C
100
AcDbEntity
  8
DEFPOINTS
 62
     0
100
AcDbPoint
 10
140.5813106846736
 20
356.2648067025993
 30
0.0
  0
LINE
  5
117
330
10C
100
AcDbEntity
  8
UMRISS05
 62
     2
370
    -2
100
AcDbLine
 10
134.1972022032764
 20
356.2648067025993
 30
0.0
 11
141.5813106846736
 21
356.2648067025993
 31
0.0
  0
LINE
  5
118
330
10C
100
AcDbEntity
  8
UMRISS05
 62
     2
370
    -2
100
AcDbLine
 10
134.1972022032763
 20
426.2648067025992
 30
0.0
 11
141.5813106846736
 21
426.2648067025992
 31
0.0
  0
ENDBLK
  5
119
330
10C
100
AcDbEntity
  8
0
100
AcDbBlockEnd
  0
BLOCK
  5
1A9
330
1A8
100
AcDbEntity
  8
0
100
AcDbBlockBegin
  2
*D15
 70
     1
 10
0.0
 20
0.0
 30
0.0
  3
*D15
  1

  0
LINE
  5
1AA
330
1A8
100
AcDbEntity
  8
BEMASSUNG
 62
     2
370
    -2
100
AcDbLine
 10
89.69005907302744
 20
415.2648067025991
 30
0.0
 11
133.0222022032763
 21
415.2648067025991
 31
0.0
  0
LINE
  5
1AB
330
1A8
100
AcDbEntity
  8
BEMASSUNG
 62
     2
370
    -2
100
AcDbLine
 10
87.19005907302813
 20
542.7648067025991
 30
0.0
 11
133.0222022032763
 21
542.7648067025991
 31
0.0
  0
LINE
  5
1AC
330
1A8
100
AcDbEntity
  8
BEMASSUNG
 62
     2
370
    -2
100
AcDbLine
 10
132.0222022032763
 20
419.2648067025992
 30
0.0
 11
132.0222022032763
 21
538.7648067025991
 31
0.0
  0
SOLID
  5
1AD
330
1A8
100
AcDbEntity
  8
BEMASSUNG
 62
     2
100
AcDbTrace
 10
131.3555355366096
 20
419.2648067025992
 30
0.0
 11
132.6888688699429
 21
419.2648067025992
 31
0.0
 12
132.0222022032763
 22
415.2648067025991
 32
0.0
 13
132.0222022032763
 23
415.2648067025991
 33
0.0
  0
SOLID
  5
1AE
330
1A8
100
AcDbEntity
  8
BEMASSUNG
 62
     2
100
AcDbTrace
 10
131.3555355366097
 20
538.7648067025991
 30
0.0
 11
132.688868869943
 21
538.7648067025991
 31
0.0
 12
132.0222022032763
 22
542.7648067025991
 32
0.0
 13
132.0222022032763
 23
542.7648067025991
 33
0.0
  0
MTEXT
  5
1AF
330
1A8
100
AcDbEntity
  8
BEMASSUNG
 62
     3
100
AcDbMText
 10
128.8012097066869
 20
490.3549292116956
 30
0.0
 40
4.349999999999999
 41
0.0
 71
     5
 72
     1
  1
\A1;127.5
  7
ARIAL-STANDARD
 11
0.0000000000000001
 21
1.0
 31
0.0
 73
     1
 44
1.0
1001
ACAD
1000
MTEXTBEGIN
1070
    73
1070
     1
1070
    44
1040
1.0
1070
    74
1070
     0
1000
MTEXTEND
  0
POINT
  5
1B0
330
1A8
100
AcDbEntity
  8
DEFPOINTS
 62
     0
100
AcDbPoint
 10
89.69005907302744
 20
415.2648067025991
 30
0.0
  0
POINT
  5
1B1
330
1A8
100
AcDbEntity
  8
DEFPOINTS
 62
     0
100
AcDbPoint
 10
87.19005907302813
 20
542.7648067025991
 30
0.0
  0
POINT
  5
1B2
330
1A8
100
AcDbEntity
  8
DEFPOINTS
 62
     0
100
AcDbPoint
 10
132.0222022032763
 20
542.7648067025991
 30
0.0
  0
ENDBLK
  5
1B3
330
1A8
100
AcDbEntity
  8
0
100
AcDbBlockEnd
  0
BLOCK
  5
18F
330
18E
100
AcDbEntity
  8
0
100
AcDbBlockBegin
  2
*D16
 70
     1
 10
0.0
 20
0.0
 30
0.0
  3
*D16
  1

  0
LINE
  5
190
330
18E
100
AcDbEntity
  8
BEMASSUNG
 62
     2
370
    -2
100
AcDbLine
 10
80.69005907302756
 20
314.7648067025993
 30
0.0
 11
133.0222022032763
 21
314.7648067025992
 31
0.0
  0
LINE
  5
191
330
18E
100
AcDbEntity
  8
BEMASSUNG
 62
     2
370
    -2
100
AcDbLine
 10
89.69005907302738
 20
367.2648067025993
 30
0.0
 11
133.0222022032764
 21
367.2648067025992
 31
0.0
  0
LINE
  5
192
330
18E
100
AcDbEntity
  8
BEMASSUNG
 62
     2
370
    -2
100
AcDbLine
 10
132.0222022032763
 20
318.7648067025993
 30
0.0
 11
132.0222022032764
 21
363.2648067025992
 31
0.0
  0
SOLID
  5
193
330
18E
100
AcDbEntity
  8
BEMASSUNG
 62
     2
100
AcDbTrace
 10
131.3555355366097
 20
318.7648067025993
 30
0.0
 11
132.688868869943
 21
318.7648067025993
 31
0.0
 12
132.0222022032763
 22
314.7648067025992
 32
0.0
 13
132.0222022032763
 23
314.7648067025992
 33
0.0
  0
SOLID
  5
194
330
18E
100
AcDbEntity
  8
BEMASSUNG
 62
     2
100
AcDbTrace
 10
131.3555355366097
 20
363.2648067025992
 30
0.0
 11
132.688868869943
 21
363.2648067025992
 31
0.0
 12
132.0222022032764
 22
367.2648067025992
 32
0.0
 13
132.0222022032764
 23
367.2648067025992
 33
0.0
  0
MTEXT
  5
195
330
18E
100
AcDbEntity
  8
BEMASSUNG
 62
     3
100
AcDbMText
 10
128.8012097066869
 20
341.0148067025994
 30
0.0
 40
4.349999999999999
 41
0.0
 71
     5
 72
     1
  1
\A1;52.5
  7
ARIAL-STANDARD
 11
0.0000000000000001
 21
1.0
 31
0.0
 73
     1
 44
1.0
1001
ACAD
1000
MTEXTBEGIN
1070
    73
1070
     1
1070
    44
1040
1.0
1070
    74
1070
     0
1000
MTEXTEND
  0
POINT
  5
196
330
18E
100
AcDbEntity
  8
DEFPOINTS
 62
     0
100
AcDbPoint
 10
80.69005907302756
 20
314.7648067025993
 30
0.0
  0
POINT
  5
197
330
18E
100
AcDbEntity
  8
DEFPOINTS
 62
     0
100
AcDbPoint
 10
89.69005907302738
 20
367.2648067025993
 30
0.0
  0
POINT
  5
198
330
18E
100
AcDbEntity
  8
DEFPOINTS
 62
     0
100
AcDbPoint
 10
132.0222022032764
 20
367.2648067025992
 30
0.0
  0
ENDBLK
  5
199
330
18E
100
AcDbEntity
  8
0
100
AcDbBlockEnd
  0
BLOCK
  5
E9
330
E8
100
AcDbEntity
  8
0
100
AcDbBlockBegin
  2
*D17
 70
     1
 10
0.0
 20
0.0
 30
0.0
  3
*D17
  1

  0
LINE
  5
EA
330
E8
100
AcDbEntity
  8
UMRISS05
 62
     2
370
    -2
100
AcDbLine
 10
67.170626109914
 20
391.2648067025996
 30
0.0
 11
50.09023822417774
 21
391.2648067025996
 31
0.0
  0
LINE
  5
EB
330
E8
100
AcDbEntity
  8
UMRISS05
 62
     2
370
    -2
100
AcDbLine
 10
52.55792190053862
 20
347.2648067025993
 30
0.0
 11
50.09023822417773
 21
347.2648067025993
 31
0.0
  0
LINE
  5
EC
330
E8
100
AcDbEntity
  8
UMRISS05
 62
     2
370
    -2
100
AcDbLine
 10
51.09023822417775
 20
387.2648067025996
 30
0.0
 11
51.09023822417774
 21
351.2648067025993
 31
0.0
  0
SOLID
  5
ED
330
E8
100
AcDbEntity
  8
UMRISS05
 62
     2
100
AcDbTrace
 10
50.42357155751108
 20
387.2648067025996
 30
0.0
 11
51.75690489084441
 21
387.2648067025996
 31
0.0
 12
51.09023822417775
 22
391.2648067025996
 32
0.0
 13
51.09023822417775
 23
391.2648067025996
 33
0.0
  0
SOLID
  5
EE
330
E8
100
AcDbEntity
  8
UMRISS05
 62
     2
100
AcDbTrace
 10
50.42357155751107
 20
351.2648067025993
 30
0.0
 11
51.7569048908444
 21
351.2648067025993
 31
0.0
 12
51.09023822417774
 22
347.2648067025993
 32
0.0
 13
51.09023822417774
 23
347.2648067025993
 33
0.0
  0
MTEXT
  5
EF
330
E8
100
AcDbEntity
  8
UMRISS05
 62
     3
100
AcDbMText
 10
47.91523822417768
 20
371.2648067025993
 30
0.0
 40
4.349999999999999
 41
0.0
 71
     5
 72
     1
  1
\A1;44
  7
ARIAL-STANDARD
 11
0.0000000000000001
 21
1.0
 31
0.0
 73
     1
 44
1.0
1001
ACAD
1000
MTEXTBEGIN
1070
    73
1070
     1
1070
    44
1040
1.0
1070
    74
1070
     0
1000
MTEXTEND
  0
POINT
  5
F0
330
E8
100
AcDbEntity
  8
DEFPOINTS
 62
     0
100
AcDbPoint
 10
67.170626109914
 20
391.2648067025996
 30
0.0
  0
POINT
  5
F1
330
E8
100
AcDbEntity
  8
DEFPOINTS
 62
     0
100
AcDbPoint
 10
52.55792190053862
 20
347.2648067025993
 30
0.0
  0
POINT
  5
F2
330
E8
100
AcDbEntity
  8
DEFPOINTS
 62
     0
100
AcDbPoint
 10
51.09023822417774
 20
347.2648067025993
 30
0.0
  0
ENDBLK
  5
F3
330
E8
100
AcDbEntity
  8
0
100
AcDbBlockEnd
  0
BLOCK
  5
DC
330
DB
100
AcDbEntity
  8
0
100
AcDbBlockBegin
  2
*D18
 70
     1
 10
0.0
 20
0.0
 30
0.0
  3
*D18
  1

  0
LINE
  5
DD
330
DB
100
AcDbEntity
  8
UMRISS05
 62
     2
370
    -2
100
AcDbLine
 10
52.55792190053862
 20
347.2648067025993
 30
0.0
 11
50.09023822417775
 21
347.2648067025993
 31
0.0
  0
LINE
  5
DE
330
DB
100
AcDbEntity
  8
UMRISS05
 62
     2
370
    -2
100
AcDbLine
 10
64.88781644705827
 20
291.2648067025992
 30
0.0
 11
50.09023822417773
 21
291.2648067025992
 31
0.0
  0
LINE
  5
DF
330
DB
100
AcDbEntity
  8
UMRISS05
 62
     2
370
    -2
100
AcDbLine
 10
51.09023822417775
 20
343.2648067025993
 30
0.0
 11
51.09023822417774
 21
295.2648067025992
 31
0.0
  0
SOLID
  5
E0
330
DB
100
AcDbEntity
  8
UMRISS05
 62
     2
100
AcDbTrace
 10
50.42357155751108
 20
343.2648067025993
 30
0.0
 11
51.75690489084441
 21
343.2648067025993
 31
0.0
 12
51.09023822417775
 22
347.2648067025993
 32
0.0
 13
51.09023822417775
 23
347.2648067025993
 33
0.0
  0
SOLID
  5
E1
330
DB
100
AcDbEntity
  8
UMRISS05
 62
     2
100
AcDbTrace
 10
50.42357155751107
 20
295.2648067025992
 30
0.0
 11
51.7569048908444
 21
295.2648067025992
 31
0.0
 12
51.09023822417774
 22
291.2648067025992
 32
0.0
 13
51.09023822417774
 23
291.2648067025992
 33
0.0
  0
MTEXT
  5
E2
330
DB
100
AcDbEntity
  8
UMRISS05
 62
     3
100
AcDbMText
 10
47.86924572758834
 20
319.2648067025992
 30
0.0
 40
4.349999999999999
 41
0.0
 71
     5
 72
     1
  1
\A1;56
  7
ARIAL-STANDARD
 11
0.0000000000000001
 21
1.0
 31
0.0
 73
     1
 44
1.0
1001
ACAD
1000
MTEXTBEGIN
1070
    73
1070
     1
1070
    44
1040
1.0
1070
    74
1070
     0
1000
MTEXTEND
  0
POINT
  5
E3
330
DB
100
AcDbEntity
  8
DEFPOINTS
 62
     0
100
AcDbPoint
 10
52.55792190053862
 20
347.2648067025993
 30
0.0
  0
POINT
  5
E4
330
DB
100
AcDbEntity
  8
DEFPOINTS
 62
     0
100
AcDbPoint
 10
64.88781644705827
 20
291.2648067025992
 30
0.0
  0
POINT
  5
E5
330
DB
100
AcDbEntity
  8
DEFPOINTS
 62
     0
100
AcDbPoint
 10
51.09023822417774
 20
291.2648067025992
 30
0.0
  0
ENDBLK
  5
E6
330
DB
100
AcDbEntity
  8
0
100
AcDbBlockEnd
  0
BLOCK
  5
98
330
97
100
AcDbEntity
  8
0
100
AcDbBlockBegin
  2
*D19
 70
     1
 10
0.0
 20
0.0
 30
0.0
  3
*D19
  1

  0
LINE
  5
99
330
97
100
AcDbEntity
  8
UMRISS05
 62
     2
370
    -2
100
AcDbLine
 10
63.19005907288698
 20
132.9455207619737
 30
0.0
 11
63.19005907288698
 21
113.2251275062938
 31
0.0
  0
LINE
  5
9A
330
97
100
AcDbEntity
  8
UMRISS05
 62
     2
370
    -2
100
AcDbLine
 10
123.1900590728869
 20
132.9455207619737
 30
0.0
 11
123.1900590728869
 21
113.2251275062938
 31
0.0
  0
LINE
  5
9B
330
97
100
AcDbEntity
  8
UMRISS05
 62
     2
370
    -2
100
AcDbLine
 10
67.19005907288698
 20
114.2251275062938
 30
0.0
 11
119.1900590728869
 21
114.2251275062938
 31
0.0
  0
SOLID
  5
9C
330
97
100
AcDbEntity
  8
UMRISS05
 62
     2
100
AcDbTrace
 10
67.19005907288698
 20
114.8917941729604
 30
0.0
 11
67.19005907288698
 21
113.5584608396271
 31
0.0
 12
63.19005907288698
 22
114.2251275062938
 32
0.0
 13
63.19005907288698
 23
114.2251275062938
 33
0.0
  0
SOLID
  5
9D
330
97
100
AcDbEntity
  8
UMRISS05
 62
     2
100
AcDbTrace
 10
119.1900590728869
 20
114.8917941729604
 30
0.0
 11
119.1900590728869
 21
113.5584608396271
 31
0.0
 12
123.1900590728869
 22
114.2251275062938
 32
0.0
 13
123.1900590728869
 23
114.2251275062938
 33
0.0
  0
MTEXT
  5
9E
330
97
100
AcDbEntity
  8
UMRISS05
 62
     3
100
AcDbMText
 10
93.19005907288696
 20
117.4461200028831
 30
0.0
 40
4.349999999999999
 41
0.0
 71
     5
 72
     1
  1
\A1;60
  7
ARIAL-STANDARD
 73
     1
 44
1.0
1001
ACAD
1000
MTEXTBEGIN
1070
    73
1070
     1
1070
    44
1040
1.0
1070
    74
1070
     0
1000
MTEXTEND
  0
POINT
  5
9F
330
97
100
AcDbEntity
  8
DEFPOINTS
 62
     0
100
AcDbPoint
 10
63.19005907288698
 20
132.9455207619737
 30
0.0
  0
POINT
  5
A0
330
97
100
AcDbEntity
  8
DEFPOINTS
 62
     0
100
AcDbPoint
 10
123.1900590728869
 20
132.9455207619737
 30
0.0
  0
POINT
  5
A1
330
97
100
AcDbEntity
  8
DEFPOINTS
 62
     0
100
AcDbPoint
 10
123.1900590728869
 20
114.2251275062938
 30
0.0
  0
ENDBLK
  5
A2
330
97
100
AcDbEntity
  8
0
100
AcDbBlockEnd
  0
BLOCK
  5
2EC
330
2EB
100
AcDbEntity
  8
0
100
AcDbBlockBegin
  2
_ACMFILLED30
 70
     0
 10
0.0
 20
0.0
 30
0.0
  3
_ACMFILLED30
  1

  0
TRACE
  5
2ED
330
2EB
100
AcDbEntity
  8
UMRISS05
 62
     0
100
AcDbTrace
 10
-1.0
 20
-0.26794919
 30
0.0
 11
-1.0
 21
0.26794919
 31
0.0
 12
0.0
 22
0.0
 32
0.0
 13
0.0
 23
0.0
 33
0.0
  0
ENDBLK
  5
2EE
330
2EB
100
AcDbEntity
  8
0
100
AcDbBlockEnd
  0
BLOCK
  5
70
330
6F
100
AcDbEntity
  8
0
100
AcDbBlockBegin
  2
*D21
 70
     1
 10
0.0
 20
0.0
 30
0.0
  3
*D21
  1

  0
LINE
  5
71
330
6F
100
AcDbEntity
  8
AM_5
 62
     2
370
    -2
100
AcDbLine
 10
82.09005907302787
 20
414.2148067025992
 30
0.0
 11
82.09005907302787
 21
448.4419181476421
 31
0.0
  0
LINE
  5
72
330
6F
100
AcDbEntity
  8
AM_5
 62
     2
370
    -2
100
AcDbLine
 10
87.19005907302785
 20
427.2648067025992
 30
0.0
 11
87.19005907302785
 21
448.4419181476421
 31
0.0
  0
LINE
  5
73
330
6F
100
AcDbEntity
  8
AM_5
 62
     2
370
    -2
100
AcDbLine
 10
78.09005907302787
 20
447.4419181476421
 30
0.0
 11
74.09005907302788
 21
447.4419181476421
 31
0.0
  0
LINE
  5
74
330
6F
100
AcDbEntity
  8
AM_5
 62
     2
370
    -2
100
AcDbLine
 10
91.19005907302783
 20
447.4419181476421
 30
0.0
 11
95.19005907302783
 21
447.4419181476421
 31
0.0
  0
LINE
  5
75
330
6F
100
AcDbEntity
  8
AM_5
 62
     2
370
    -2
100
AcDbLine
 10
82.09005907302787
 20
447.4419181476421
 30
0.0
 11
87.19005907302785
 21
447.4419181476421
 31
0.0
  0
SOLID
  5
76
330
6F
100
AcDbEntity
  8
AM_5
 62
     2
100
AcDbTrace
 10
78.09005907302787
 20
448.1085848143088
 30
0.0
 11
78.09005907302787
 21
446.7752514809754
 31
0.0
 12
82.09005907302787
 22
447.4419181476421
 32
0.0
 13
82.09005907302787
 23
447.4419181476421
 33
0.0
  0
SOLID
  5
77
330
6F
100
AcDbEntity
  8
AM_5
 62
     2
100
AcDbTrace
 10
91.19005907302783
 20
448.1085848143088
 30
0.0
 11
91.19005907302783
 21
446.7752514809754
 31
0.0
 12
87.19005907302785
 22
447.4419181476421
 32
0.0
 13
87.19005907302785
 23
447.4419181476421
 33
0.0
  0
MTEXT
  5
78
330
6F
100
AcDbEntity
  8
AM_5
 62
     3
100
AcDbMText
 10
84.64005907302786
 20
450.654008870698
 30
0.0
 40
4.349999999999999
 41
0.0
 71
     5
 72
     1
  1
\A1;5
  7
ARIAL-STANDARD
 73
     1
 44
1.0
1001
ACAD
1000
MTEXTBEGIN
1070
    73
1070
     1
1070
    44
1040
1.0
1070
    74
1070
     0
1000
MTEXTEND
  0
POINT
  5
79
330
6F
100
AcDbEntity
  8
DEFPOINTS
 62
     0
100
AcDbPoint
 10
82.09005907302787
 20
414.2148067025992
 30
0.0
  0
POINT
  5
7B
330
6F
100
AcDbEntity
  8
DEFPOINTS
 62
     0
100
AcDbPoint
 10
87.19005907302785
 20
427.2648067025992
 30
0.0
  0
POINT
  5
7C
330
6F
100
AcDbEntity
  8
DEFPOINTS
 62
     0
100
AcDbPoint
 10
87.19005907302785
 20
447.4419181476421
 30
0.0
  0
ENDBLK
  5
7D
330
6F
100
AcDbEntity
  8
0
100
AcDbBlockEnd
  0
ENDSEC
  0
SECTION
  2
ENTITIES
  0
DIMENSION
  5
6C
330
2
100
AcDbEntity
  8
AM_5
100
AcDbDimension
  2
*D21
 10
87.19005907302785
 20
447.4419181476421
 30
0.0
 11
84.64005907302786
 21
450.654008870698
 31
0.0
  1
5
 71
     5
 42
5.099999999999965
  3
Katalog 09$0
100
AcDbAlignedDimension
 13
82.09005907302787
 23
414.2148067025992
 33
0.0
 14
87.19005907302785
 24
427.2648067025992
 34
0.0
100
AcDbRotatedDimension
1001
ACAD_DSTYLE_DIMINSPECT
1070
   396
1000
100%
1070
   395
1000

1070
   394
1070
    33
1070
   393
1070
     0
  0
CIRCLE
  5
80
330
2
100
AcDbEntity
  8
UMRISS05
100
AcDbCircle
 10
119.0900590730275
 20
362.2648067025993
 30
0.0
 40
1.000000000000032
  0
CIRCLE
  5
81
330
2
100
AcDbEntity
  8
UMRISS05
100
AcDbCircle
 10
119.0900590730276
 20
420.2648067025993
 30
0.0
 40
1.0
  0
LINE
  5
82
330
2
100
AcDbEntity
  8
UMRISS05
100
AcDbLine
 10
119.0900590730276
 20
419.2648067025993
 30
0.0
 11
119.0900590730275
 21
363.2648067025993
 31
0.0
  0
CIRCLE
  5
83
330
2
100
AcDbEntity
  8
UMRISS05
100
AcDbCircle
 10
115.0900590730275
 20
362.2648067025993
 30
0.0
 40
1.000000000000032
  0
CIRCLE
  5
84
330
2
100
AcDbEntity
  8
UMRISS05
100
AcDbCircle
 10
115.0900590730276
 20
420.2648067025993
 30
0.0
 40
1.0
  0
LINE
  5
85
330
2
100
AcDbEntity
  8
UMRISS05
100
AcDbLine
 10
115.0900590730276
 20
419.2648067025993
 30
0.0
 11
115.0900590730275
 21
363.2648067025993
 31
0.0
  0
CIRCLE
  5
86
330
2
100
AcDbEntity
  8
UMRISS05
100
AcDbCircle
 10
111.0900590730275
 20
362.2648067025993
 30
0.0
 40
1.000000000000032
  0
CIRCLE
  5
87
330
2
100
AcDbEntity
  8
UMRISS05
100
AcDbCircle
 10
111.0900590730276
 20
420.2648067025993
 30
0.0
 40
1.0
  0
LINE
  5
88
330
2
100
AcDbEntity
  8
UMRISS05
100
AcDbLine
 10
111.0900590730276
 20
419.2648067025993
 30
0.0
 11
111.0900590730275
 21
363.2648067025993
 31
0.0
  0
CIRCLE
  5
89
330
2
100
AcDbEntity
  8
UMRISS05
100
AcDbCircle
 10
107.0900590730275
 20
362.2648067025993
 30
0.0
 40
1.000000000000032
  0
CIRCLE
  5
8A
330
2
100
AcDbEntity
  8
UMRISS05
100
AcDbCircle
 10
107.0900590730276
 20
420.2648067025993
 30
0.0
 40
1.0
  0
LINE
  5
8B
330
2
100
AcDbEntity
  8
UMRISS05
100
AcDbLine
 10
107.0900590730276
 20
419.2648067025993
 30
0.0
 11
107.0900590730275
 21
363.2648067025993
 31
0.0
  0
CIRCLE
  5
8C
330
2
100
AcDbEntity
  8
UMRISS05
100
AcDbCircle
 10
103.0900590730275
 20
362.2648067025993
 30
0.0
 40
1.000000000000032
  0
CIRCLE
  5
8D
330
2
100
AcDbEntity
  8
UMRISS05
100
AcDbCircle
 10
103.0900590730276
 20
420.2648067025993
 30
0.0
 40
1.0
  0
LINE
  5
8E
330
2
100
AcDbEntity
  8
UMRISS05
100
AcDbLine
 10
103.0900590730276
 20
419.2648067025993
 30
0.0
 11
103.0900590730275
 21
363.2648067025993
 31
0.0
  0
CIRCLE
  5
8F
330
2
100
AcDbEntity
  8
UMRISS05
100
AcDbCircle
 10
99.09005907302754
 20
362.2648067025993
 30
0.0
 40
1.000000000000032
  0
CIRCLE
  5
90
330
2
100
AcDbEntity
  8
UMRISS05
100
AcDbCircle
 10
99.09005907302759
 20
420.2648067025993
 30
0.0
 40
1.0
  0
LINE
  5
91
330
2
100
AcDbEntity
  8
UMRISS05
100
AcDbLine
 10
99.09005907302759
 20
419.2648067025993
 30
0.0
 11
99.09005907302754
 21
363.2648067025993
 31
0.0
  0
CIRCLE
  5
92
330
2
100
AcDbEntity
  8
UMRISS05
100
AcDbCircle
 10
95.09005907302753
 20
362.2648067025993
 30
0.0
 40
1.000000000000032
  0
CIRCLE
  5
93
330
2
100
AcDbEntity
  8
UMRISS05
100
AcDbCircle
 10
95.09005907302759
 20
420.2648067025993
 30
0.0
 40
1.0
  0
CIRCLE
  5
94
330
2
100
AcDbEntity
  8
UMRISS05
100
AcDbCircle
 10
76.99005907302785
 20
375.7648067025992
 30
0.0
 40
4.0
  0
CIRCLE
  5
95
330
2
100
AcDbEntity
  8
UMRISS05
100
AcDbCircle
 10
76.9900590730279
 20
406.7648067025994
 30
0.0
 40
4.0
  0
DIMENSION
  5
96
330
2
100
AcDbEntity
  8
UMRISS05
100
AcDbDimension
  2
*D19
 10
123.1900590728869
 20
114.2251275062938
 30
0.0
 11
93.19005907288696
 21
117.4461200028831
 31
0.0
 71
     5
 42
59.99999999999994
  3
Katalog 09
100
AcDbAlignedDimension
 13
63.19005907288698
 23
132.9455207619737
 33
0.0
 14
123.1900590728869
 24
132.9455207619737
 34
0.0
100
AcDbRotatedDimension
  0
LINE
  5
A3
330
2
100
AcDbEntity
  8
ACHSEN
100
AcDbLine
 10
186.195276441043
 20
250.2648067025992
 30
0.0
 11
176.5316844682316
 21
250.2648067025993
 31
0.0
  0
LINE
  5
A8
330
2
100
AcDbEntity
  8
ACHSEN
100
AcDbLine
 10
186.195276441043
 20
261.2648067025992
 30
0.0
 11
176.5316844682316
 21
261.2648067025993
 31
0.0
  0
LINE
  5
A9
330
2
100
AcDbEntity
  8
UMRISS05
100
AcDbLine
 10
77.55359117116035
 20
418.3004581006317
 30
0.0
 11
76.10241099496142
 21
417.4149773858744
 31
0.0
  0
LINE
  5
AA
330
2
100
AcDbEntity
  8
UMRISS05
100
AcDbLine
 10
74.13904958010386
 20
416.2169740659088
 30
0.0
 11
73.82652697489544
 21
416.7291553045672
 31
0.0
  0
LINE
  5
AB
330
2
100
AcDbEntity
  8
UMRISS05
100
AcDbLine
 10
75.78988838975289
 20
417.9271586245329
 30
0.0
 11
77.24106856595193
 21
418.8126393392901
 31
0.0
  0
LINE
  5
AC
330
2
100
AcDbEntity
  8
UMRISS05
100
AcDbLine
 10
77.24106856595193
 20
418.8126393392901
 30
0.0
 11
77.55359117116035
 21
418.3004581006317
 31
0.0
  0
LINE
  5
AD
330
2
100
AcDbEntity
  8
UMRISS05
100
AcDbLine
 10
75.5902297563029
 20
417.102454780666
 30
0.0
 11
74.13904958010386
 21
416.2169740659088
 31
0.0
  0
LINE
  5
AE
330
2
100
AcDbEntity
  8
UMRISS05
100
AcDbLine
 10
73.82652697489544
 20
416.7291553045672
 30
0.0
 11
75.27770715109449
 21
417.6146360193245
 31
0.0
  0
LINE
  5
AF
330
2
100
AcDbEntity
  8
UMRISS05
100
AcDbLine
 10
76.98789170971867
 20
415.9637972096755
 30
0.0
 11
76.47571047106016
 21
415.6512746044669
 31
0.0
  0
LINE
  5
B0
330
2
100
AcDbEntity
  8
UMRISS05
100
AcDbLine
 10
75.27770715109449
 20
417.6146360193245
 30
0.0
 11
74.39222643633724
 21
419.0658161955235
 31
0.0
  0
LINE
  5
B1
330
2
100
AcDbEntity
  8
UMRISS05
100
AcDbLine
 10
74.39222643633724
 20
419.0658161955235
 30
0.0
 11
74.90440767499563
 21
419.3783388007319
 31
0.0
  0
LINE
  5
B2
330
2
100
AcDbEntity
  8
UMRISS05
100
AcDbLine
 10
76.47571047106016
 20
415.6512746044669
 30
0.0
 11
75.5902297563029
 21
417.102454780666
 31
0.0
  0
LINE
  5
B3
330
2
100
AcDbEntity
  8
UMRISS05
100
AcDbLine
 10
74.90440767499563
 20
419.3783388007319
 30
0.0
 11
75.78988838975289
 21
417.9271586245329
 31
0.0
  0
LINE
  5
B4
330
2
100
AcDbEntity
  8
UMRISS05
100
AcDbLine
 10
76.10241099496142
 20
417.4149773858744
 30
0.0
 11
76.98789170971867
 21
415.9637972096755
 31
0.0
  0
LINE
  5
B5
330
2
100
AcDbEntity
  8
UMRISS05
100
AcDbLine
 10
78.85359117116036
 20
407.5504581006317
 30
0.0
 11
77.40241099496143
 21
406.6649773858745
 31
0.0
  0
LINE
  5
B6
330
2
100
AcDbEntity
  8
UMRISS05
100
AcDbLine
 10
75.43904958010386
 20
405.4669740659088
 30
0.0
 11
75.12652697489546
 21
405.9791553045672
 31
0.0
  0
LINE
  5
B7
330
2
100
AcDbEntity
  8
UMRISS05
100
AcDbLine
 10
77.0898883897529
 20
407.1771586245329
 30
0.0
 11
78.54106856595194
 21
408.0626393392901
 31
0.0
  0
LINE
  5
B8
330
2
100
AcDbEntity
  8
UMRISS05
100
AcDbLine
 10
78.54106856595194
 20
408.0626393392901
 30
0.0
 11
78.85359117116036
 21
407.5504581006317
 31
0.0
  0
LINE
  5
B9
330
2
100
AcDbEntity
  8
UMRISS05
100
AcDbLine
 10
76.89022975630291
 20
406.352454780666
 30
0.0
 11
75.43904958010386
 21
405.4669740659088
 31
0.0
  0
LINE
  5
BA
330
2
100
AcDbEntity
  8
UMRISS05
100
AcDbLine
 10
75.12652697489546
 20
405.9791553045672
 30
0.0
 11
76.5777071510945
 21
406.8646360193245
 31
0.0
  0
LINE
  5
BB
330
2
100
AcDbEntity
  8
UMRISS05
100
AcDbLine
 10
78.28789170971868
 20
405.2137972096755
 30
0.0
 11
77.77571047106016
 21
404.9012746044669
 31
0.0
  0
LINE
  5
BC
330
2
100
AcDbEntity
  8
UMRISS05
100
AcDbLine
 10
76.5777071510945
 20
406.8646360193245
 30
0.0
 11
75.69222643633725
 21
408.3158161955235
 31
0.0
  0
LINE
  5
BD
330
2
100
AcDbEntity
  8
UMRISS05
100
AcDbLine
 10
75.69222643633725
 20
408.3158161955235
 30
0.0
 11
76.20440767499565
 21
408.6283388007319
 31
0.0
  0
LINE
  5
BE
330
2
100
AcDbEntity
  8
UMRISS05
100
AcDbLine
 10
77.77571047106016
 20
404.9012746044669
 30
0.0
 11
76.89022975630291
 21
406.352454780666
 31
0.0
  0
LINE
  5
BF
330
2
100
AcDbEntity
  8
UMRISS05
100
AcDbLine
 10
76.20440767499565
 20
408.6283388007319
 30
0.0
 11
77.0898883897529
 21
407.1771586245329
 31
0.0
  0
LINE
  5
C0
330
2
100
AcDbEntity
  8
UMRISS05
100
AcDbLine
 10
77.40241099496143
 20
406.6649773858745
 30
0.0
 11
78.28789170971868
 21
405.2137972096755
 31
0.0
  0
LINE
  5
C1
330
2
100
AcDbEntity
  8
UMRISS05
100
AcDbLine
 10
78.8535911711603
 20
376.5504581006315
 30
0.0
 11
77.40241099496137
 21
375.6649773858742
 31
0.0
  0
LINE
  5
C2
330
2
100
AcDbEntity
  8
UMRISS05
100
AcDbLine
 10
75.43904958010381
 20
374.4669740659086
 30
0.0
 11
75.1265269748954
 21
374.9791553045671
 31
0.0
  0
LINE
  5
C3
330
2
100
AcDbEntity
  8
UMRISS05
100
AcDbLine
 10
77.08988838975284
 20
376.1771586245327
 30
0.0
 11
78.54106856595189
 21
377.06263933929
 31
0.0
  0
LINE
  5
C4
330
2
100
AcDbEntity
  8
UMRISS05
100
AcDbLine
 10
78.54106856595189
 20
377.06263933929
 30
0.0
 11
78.8535911711603
 21
376.5504581006315
 31
0.0
  0
LINE
  5
C5
330
2
100
AcDbEntity
  8
UMRISS05
100
AcDbLine
 10
76.89022975630286
 20
375.3524547806658
 30
0.0
 11
75.43904958010381
 21
374.4669740659086
 31
0.0
  0
LINE
  5
C6
330
2
100
AcDbEntity
  8
UMRISS05
100
AcDbLine
 10
75.1265269748954
 20
374.9791553045671
 30
0.0
 11
76.57770715109444
 21
375.8646360193243
 31
0.0
  0
LINE
  5
C7
330
2
100
AcDbEntity
  8
UMRISS05
100
AcDbLine
 10
78.28789170971862
 20
374.2137972096752
 30
0.0
 11
77.77571047106011
 21
373.9012746044668
 31
0.0
  0
LINE
  5
C8
330
2
100
AcDbEntity
  8
UMRISS05
100
AcDbLine
 10
76.57770715109444
 20
375.8646360193243
 30
0.0
 11
75.69222643633719
 21
377.3158161955233
 31
0.0
  0
LINE
  5
C9
330
2
100
AcDbEntity
  8
UMRISS05
100
AcDbLine
 10
75.69222643633719
 20
377.3158161955233
 30
0.0
 11
76.20440767499559
 21
377.6283388007318
 31
0.0
  0
LINE
  5
CA
330
2
100
AcDbEntity
  8
UMRISS05
100
AcDbLine
 10
77.77571047106011
 20
373.9012746044668
 30
0.0
 11
76.89022975630286
 21
375.3524547806658
 31
0.0
  0
LINE
  5
CB
330
2
100
AcDbEntity
  8
UMRISS05
100
AcDbLine
 10
76.20440767499559
 20
377.6283388007318
 30
0.0
 11
77.08988838975284
 21
376.1771586245327
 31
0.0
  0
LINE
  5
CC
330
2
100
AcDbEntity
  8
UMRISS05
100
AcDbLine
 10
77.40241099496137
 20
375.6649773858742
 30
0.0
 11
78.28789170971862
 21
374.2137972096752
 31
0.0
  0
LINE
  5
CD
330
2
100
AcDbEntity
  8
UMRISS05
100
AcDbLine
 10
77.55359117116023
 20
365.8004581006315
 30
0.0
 11
76.1024109949613
 21
364.9149773858743
 31
0.0
  0
LINE
  5
CE
330
2
100
AcDbEntity
  8
UMRISS05
100
AcDbLine
 10
74.13904958010374
 20
363.7169740659086
 30
0.0
 11
73.82652697489533
 21
364.2291553045672
 31
0.0
  0
LINE
  5
CF
330
2
100
AcDbEntity
  8
UMRISS05
100
AcDbLine
 10
75.78988838975277
 20
365.4271586245327
 30
0.0
 11
77.24106856595182
 21
366.31263933929
 31
0.0
  0
LINE
  5
D0
330
2
100
AcDbEntity
  8
UMRISS05
100
AcDbLine
 10
77.24106856595182
 20
366.31263933929
 30
0.0
 11
77.55359117116023
 21
365.8004581006315
 31
0.0
  0
LINE
  5
D1
330
2
100
AcDbEntity
  8
UMRISS05
100
AcDbLine
 10
75.59022975630279
 20
364.6024547806659
 30
0.0
 11
74.13904958010374
 21
363.7169740659086
 31
0.0
  0
LINE
  5
D2
330
2
100
AcDbEntity
  8
UMRISS05
100
AcDbLine
 10
73.82652697489533
 20
364.2291553045672
 30
0.0
 11
75.27770715109437
 21
365.1146360193243
 31
0.0
  0
LINE
  5
D3
330
2
100
AcDbEntity
  8
UMRISS05
100
AcDbLine
 10
76.98789170971855
 20
363.4637972096753
 30
0.0
 11
76.47571047106004
 21
363.1512746044669
 31
0.0
  0
LINE
  5
D4
330
2
100
AcDbEntity
  8
UMRISS05
100
AcDbLine
 10
75.27770715109437
 20
365.1146360193243
 30
0.0
 11
74.39222643633712
 21
366.5658161955234
 31
0.0
  0
LINE
  5
D5
330
2
100
AcDbEntity
  8
UMRISS05
100
AcDbLine
 10
74.39222643633712
 20
366.5658161955234
 30
0.0
 11
74.90440767499553
 21
366.8783388007318
 31
0.0
  0
LINE
  5
D6
330
2
100
AcDbEntity
  8
UMRISS05
100
AcDbLine
 10
76.47571047106004
 20
363.1512746044669
 30
0.0
 11
75.59022975630279
 21
364.6024547806659
 31
0.0
  0
LINE
  5
D7
330
2
100
AcDbEntity
  8
UMRISS05
100
AcDbLine
 10
74.90440767499553
 20
366.8783388007318
 30
0.0
 11
75.78988838975277
 21
365.4271586245327
 31
0.0
  0
LINE
  5
D8
330
2
100
AcDbEntity
  8
UMRISS05
100
AcDbLine
 10
76.1024109949613
 20
364.9149773858743
 30
0.0
 11
76.98789170971855
 21
363.4637972096753
 31
0.0
  0
LINE
  5
D9
330
2
100
AcDbEntity
  8
ACHSEN
100
AcDbLine
 10
64.38781644705804
 20
291.2648067025992
 30
0.0
 11
84.10764783711343
 21
291.2648067025992
 31
0.0
  0
DIMENSION
  5
DA
330
2
100
AcDbEntity
  8
UMRISS05
100
AcDbDimension
  2
*D18
 10
51.09023822417774
 20
291.2648067025992
 30
0.0
 11
47.86924572758834
 21
319.2648067025992
 31
0.0
 71
     5
 42
56.00000000000005
  3
Katalog 09
100
AcDbAlignedDimension
 13
52.55792190053862
 23
347.2648067025993
 33
0.0
 14
64.88781644705827
 24
291.2648067025992
 34
0.0
 50
90.0
100
AcDbRotatedDimension
1001
ACAD_DSTYLE_DIMINSPECT
1070
   396
1000
100%
1070
   395
1000

1070
   394
1070
    33
1070
   393
1070
     0
  0
DIMENSION
  5
E7
330
2
100
AcDbEntity
  8
UMRISS05
100
AcDbDimension
  2
*D17
 10
51.09023822417774
 20
347.2648067025993
 30
0.0
 11
51.09023822417768
 21
371.2648067025993
 31
0.0
 70
   128
 71
     5
 42
44.00000000000034
  3
Katalog 09
100
AcDbAlignedDimension
 13
67.170626109914
 23
391.2648067025996
 33
0.0
 14
52.55792190053862
 24
347.2648067025993
 34
0.0
 50
90.0
100
AcDbRotatedDimension
1001
ACAD_DSTYLE_DIMINSPECT
1070
   396
1000
100%
1070
   395
1000

1070
   394
1070
    33
1070
   393
1070
     0
  0
LINE
  5
F4
330
2
100
AcDbEntity
  8
UMRISS05
100
AcDbLine
 10
62.55792190053862
 20
347.2648067025993
 30
0.0
 11
52.55792190053862
 21
347.2648067025993
 31
0.0
  0
TRACE
  5
F5
330
2
100
AcDbEntity
  8
UMRISS05
100
AcDbTrace
 10
-58.89766785053862
 20
352.2648067025993
 30
-0.0000000000000014
 11
-56.21817595053861
 21
352.2648067025993
 31
-0.0000000000000014
 12
-57.55792190053862
 22
347.2648067025993
 32
-0.0000000000000014
 13
-57.55792190053862
 23
347.2648067025993
 33
-0.0000000000000014
210
0.0
220
0.0
230
-1.0
  0
LINE
  5
F6
330
2
100
AcDbEntity
  8
UMRISS05
100
AcDbLine
 10
57.55792190053862
 20
352.2648067025993
 30
0.0
 11
57.55792190053862
 21
357.2648067025993
 31
0.0
  0
MTEXT
  5
F7
102
{ACAD_XDICTIONARY
360
336
102
}
330
2
100
AcDbEntity
  8
UMRISS05
 62
     3
100
AcDbMText
 10
206.3928984186976
 20
355.4279340628554
 30
0.0
 40
3.5
 41
0.0
 71
     5
 72
     1
  1
\A1;Dr\U+00FCckerh\U+00F6he
  7
ARIAL-STANDARD
 73
     1
 44
1.0
1001
ACAD
1000
MTEXTBEGIN
1070
    73
1070
     1
1070
    44
1040
1.0
1070
    74
1070
     0
1000
MTEXTEND
  0
LINE
  5
F8
330
2
100
AcDbEntity
  8
UMRISS05
100
AcDbLine
 10
194.1525635355839
 20
347.2648067025993
 30
0.0
 11
184.1525635355839
 21
347.2648067025993
 31
0.0
  0
TRACE
  5
F9
330
2
100
AcDbEntity
  8
UMRISS05
100
AcDbTrace
 10
-190.4923094855839
 20
352.2648067025993
 30
-0.0000000000000046
 11
-187.8128175855838
 21
352.2648067025993
 31
-0.0000000000000046
 12
-189.1525635355838
 22
347.2648067025993
 32
-0.0000000000000046
 13
-189.1525635355838
 23
347.2648067025993
 33
-0.0000000000000046
210
0.0
220
0.0
230
-1.0
  0
LINE
  5
FA
330
2
100
AcDbEntity
  8
UMRISS05
100
AcDbLine
 10
189.1525635355838
 20
352.2648067025993
 30
0.0
 11
189.1525635355838
 21
357.2648067025993
 31
0.0
  0
LINE
  5
FB
330
2
100
AcDbEntity
  8
ACHSEN
100
AcDbLine
 10
62.55792190053862
 20
347.2648067025993
 30
0.0
 11
184.1525635355839
 21
347.2648067025993
 31
0.0
  0
DIMENSION
  5
FC
330
2
100
AcDbEntity
  8
UMRISS05
100
AcDbDimension
  2
*D7
 10
75.19005907302744
 20
329.1851074796455
 30
0.0
 11
99.19005907302745
 21
332.4060999762349
 31
0.0
 71
     5
 42
48.0
  3
Katalog 09
100
AcDbAlignedDimension
 13
123.1900590730274
 23
357.2648067025993
 33
0.0
 14
75.19005907302744
 24
327.7648067025993
 34
0.0
100
AcDbRotatedDimension
  0
DIMENSION
  5
109
102
{ACAD_XDICTIONARY
360
10A
102
}
102
{ACAD_REACTORS
330
10B
102
}
330
2
100
AcDbEntity
  8
UMRISS05
100
AcDbDimension
  2
*D14
 10
140.5813106846736
 20
356.2648067025993
 30
0.0
 11
140.5813106846735
 21
391.2648067025994
 31
0.0
 70
   128
 71
     5
 42
70.0
  3
Katalog 09
100
AcDbAlignedDimension
 13
122.1900590730275
 23
426.2648067025993
 33
0.0
 14
121.7703366368007
 24
356.2648067025993
 34
0.0
 50
90.0
100
AcDbRotatedDimension
  0
TRACE
  5
11A
330
2
100
AcDbEntity
  8
BEMASSUNG
  6
Continuous
 62
     2
100
AcDbTrace
 10
88.83866598295231
 20
414.4492519534243
 30
0.0
 11
89.80832079201702
 21
414.2047738495831
 31
0.0
 12
88.59005907302753
 22
411.4180484626738
 32
0.0
 13
88.59005907302753
 23
411.4180484626738
 33
0.0
  0
DIMENSION
  5
11E
330
2
100
AcDbEntity
  8
UMRISS05
100
AcDbDimension
  2
*D6
 10
39.50703721068487
 20
192.7648067025993
 30
0.0
 11
36.28604471409548
 21
267.0148067025993
 31
0.0
 71
     5
 42
148.5
  3
Katalog 09
100
AcDbAlignedDimension
 13
67.44005907302744
 23
341.2648067025993
 33
0.0
 14
63.19005907302744
 24
192.7648067025993
 34
0.0
 50
90.0
100
AcDbRotatedDimension
  0
DIMENSION
  5
12B
330
2
100
AcDbEntity
  8
UMRISS05
100
AcDbDimension
  2
*D5
 10
39.50703721068487
 20
341.2648067025993
 30
0.0
 11
36.28604471409546
 21
442.0148067025992
 31
0.0
 71
     5
 42
201.5
  3
Katalog 09
100
AcDbAlignedDimension
 13
63.19005907302806
 23
542.7648067025992
 33
0.0
 14
67.44005907302744
 24
341.2648067025993
 34
0.0
 50
90.0
100
AcDbRotatedDimension
  0
LINE
  5
138
330
2
100
AcDbEntity
  8
BEMASSUNG
 62
     2
100
AcDbLine
 10
92.60033200669795
 20
432.7227590426129
 30
0.0
 11
89.32349338748464
 21
414.3270129015037
 31
0.0
  0
LINE
  5
139
330
2
100
AcDbEntity
  8
BEMASSUNG
 62
     2
100
AcDbLine
 10
94.43257108473131
 20
432.7227590426129
 30
0.0
 11
92.60033200669795
 21
432.7227590426129
 31
0.0
  0
LINE
  5
13A
330
2
100
AcDbEntity
  8
ACHSEN
100
AcDbLine
 10
79.44005907302756
 20
261.2648067025992
 30
0.0
 11
70.94005907302755
 21
261.2648067025992
 31
0.0
  0
LINE
  5
13B
330
2
100
AcDbEntity
  8
ACHSEN
100
AcDbLine
 10
79.44005907302756
 20
250.2648067025993
 30
0.0
 11
70.94005907302755
 21
250.2648067025993
 31
0.0
  0
ARC
  5
13C
330
2
100
AcDbEntity
  8
AVERDECKTE
100
AcDbCircle
 10
83.8900590730276
 20
420.7648067025992
 30
0.0
 40
1.5
100
AcDbArc
 50
0.0
 51
90.0
  0
LINE
  5
141
330
2
100
AcDbEntity
  8
AVERDECKTE
100
AcDbLine
 10
85.3900590730276
 20
415.2648067025992
 30
0.0
 11
85.3900590730276
 21
420.7648067025992
 31
0.0
  0
LINE
  5
142
330
2
100
AcDbEntity
  8
AVERDECKTE
100
AcDbLine
 10
85.3900590730276
 20
361.7648067025993
 30
0.0
 11
85.3900590730276
 21
367.2648067025993
 31
0.0
  0
ARC
  5
143
330
2
100
AcDbEntity
  8
AVERDECKTE
100
AcDbCircle
 10
67.49005907302763
 20
420.7648067025992
 30
0.0
 40
1.5
100
AcDbArc
 50
90.0
 51
180.0
  0
LINE
  5
144
330
2
100
AcDbEntity
  8
AVERDECKTE
100
AcDbLine
 10
65.99005907302751
 20
361.7648067025992
 30
0.0
 11
65.99005907302762
 21
420.7648067025992
 31
0.0
  0
LINE
  5
145
330
2
100
AcDbEntity
  8
AVERDECKTE
100
AcDbLine
 10
83.8900590730276
 20
422.2648067025993
 30
0.0
 11
67.49005907302763
 21
422.2648067025993
 31
0.0
  0
ARC
  5
146
330
2
100
AcDbEntity
  8
AVERDECKTE
100
AcDbCircle
 10
67.49005907302751
 20
361.7648067025992
 30
0.0
 40
1.5
100
AcDbArc
 50
180.0
 51
270.0
  0
ARC
  5
147
330
2
100
AcDbEntity
  8
AVERDECKTE
100
AcDbCircle
 10
83.8900590730276
 20
361.7648067025993
 30
0.0
 40
1.5
100
AcDbArc
 50
270.0
 51
0.0
  0
LINE
  5
148
330
2
100
AcDbEntity
  8
AVERDECKTE
100
AcDbLine
 10
83.8900590730276
 20
360.2648067025993
 30
0.0
 11
67.49005907302751
 21
360.2648067025992
 31
0.0
  0
LINE
  5
149
330
2
100
AcDbEntity
  8
ACHSEN
100
AcDbLine
 10
84.49005907302728
 20
375.7648067025996
 30
0.0
 11
69.54005907302735
 21
375.7648067025996
 31
0.0
  0
LINE
  5
14A
330
2
100
AcDbEntity
  8
ACHSEN
100
AcDbLine
 10
69.54005907302735
 20
406.7648067025995
 30
0.0
 11
84.40616533819627
 21
406.7648067025995
 31
0.0
  0
LINE
  5
14B
330
2
100
AcDbEntity
  8
ACHSEN
100
AcDbLine
 10
67.170626109914
 20
391.2648067025996
 30
0.0
 11
90.37601391922624
 21
391.2648067025996
 31
0.0
  0
DIMENSION
  5
14C
330
2
100
AcDbEntity
  8
BEMASSUNG
100
AcDbDimension
  2
*D13
 10
82.69005907302755
 20
237.7984944125241
 30
0.0
 11
75.19005907302755
 21
237.7984944125241
 31
0.0
 70
   128
 71
     5
 42
15.00000000000006
  3
Katalog 09
100
AcDbAlignedDimension
 13
67.6900590730275
 23
269.7648067025993
 33
0.0
 14
82.69005907302755
 24
269.7648067025993
 34
0.0
100
AcDbRotatedDimension
  0
DIMENSION
  5
159
330
2
100
AcDbEntity
  8
BEMASSUNG
100
AcDbDimension
  2
*D12
 10
87.19005907302749
 20
181.3172377043199
 30
0.0
 11
75.60566680655682
 21
181.3172377043199
 31
0.0
 70
   128
  1
<>
 71
     5
 42
24.0
  3
Katalog 09
100
AcDbAlignedDimension
 13
63.1900590730275
 23
192.7648067026002
 33
0.0
 14
87.19005907302749
 24
192.7648067026002
 34
0.0
100
AcDbRotatedDimension
  0
DIMENSION
  5
166
330
2
100
AcDbEntity
  8
BEMASSUNG
100
AcDbDimension
  2
*D11
 10
29.74598268693568
 20
542.7648067025992
 30
0.0
 11
29.74598268693558
 21
367.5994648450219
 31
0.0
 70
   128
 71
     5
 42
349.999999999999
  3
Katalog 09
100
AcDbAlignedDimension
 13
63.19005907302744
 23
192.7648067026002
 33
0.0
 14
63.19005907302806
 24
542.7648067025992
 34
0.0
 50
90.0
100
AcDbRotatedDimension
  0
DIMENSION
  5
173
330
2
100
AcDbEntity
  8
BEMASSUNG
100
AcDbDimension
  2
*D10
 10
106.249291119255
 20
314.7648067025993
 30
0.0
 11
103.0742911192549
 21
291.2648067025993
 31
0.0
 71
     5
 42
47.0
  3
Katalog 09
100
AcDbAlignedDimension
 13
80.69005907302756
 23
267.7648067025993
 33
0.0
 14
80.6900590730275
 24
314.7648067025993
 34
0.0
 50
270.0
100
AcDbRotatedDimension
  0
DIMENSION
  5
180
330
2
100
AcDbEntity
  8
BEMASSUNG
100
AcDbDimension
  2
*D9
 10
106.249291119255
 20
192.7648067026002
 30
0.0
 11
103.037200396199
 21
230.2648067025998
 31
0.0
 71
     5
 42
74.999999999999
  3
Katalog 09
100
AcDbAlignedDimension
 13
80.69005907302756
 23
267.7648067025993
 33
0.0
 14
87.19005907302749
 24
192.7648067026002
 34
0.0
 50
270.0
100
AcDbRotatedDimension
  0
DIMENSION
  5
18D
102
{ACAD_REACTORS
330
10B
102
}
330
2
100
AcDbEntity
  8
BEMASSUNG
100
AcDbDimension
  2
*D16
 10
132.0222022032764
 20
367.2648067025992
 30
0.0
 11
132.0222022032763
 21
341.0148067025994
 31
0.0
 70
   128
 71
     5
 42
52.5
  3
Katalog 09
100
AcDbAlignedDimension
 13
80.69005907302756
 23
314.7648067025993
 33
0.0
 14
89.69005907302738
 24
367.2648067025993
 34
0.0
 50
270.0
100
AcDbRotatedDimension
  0
DIMENSION
  5
19A
330
2
100
AcDbEntity
  8
BEMASSUNG
100
AcDbDimension
  2
*D8
 10
132.0222022032763
 20
415.2648067025991
 30
0.0
 11
132.0222022032762
 21
391.2648067025993
 31
0.0
 70
   128
 71
     5
 42
47.99999999999994
  3
Katalog 09
100
AcDbAlignedDimension
 13
89.69005907302738
 23
367.2648067025993
 33
0.0
 14
89.69005907302744
 24
415.2648067025991
 34
0.0
 50
270.0
100
AcDbRotatedDimension
  0
DIMENSION
  5
1A7
102
{ACAD_REACTORS
330
10B
102
}
330
2
100
AcDbEntity
  8
BEMASSUNG
100
AcDbDimension
  2
*D15
 10
132.0222022032763
 20
542.7648067025991
 30
0.0
 11
132.0222022032762
 21
490.3549292116956
 31
0.0
 70
   128
 71
     5
 42
127.4999999999999
  3
Katalog 09
100
AcDbAlignedDimension
 13
89.69005907302744
 23
415.2648067025991
 33
0.0
 14
87.19005907302813
 24
542.7648067025991
 34
0.0
 50
270.0
100
AcDbRotatedDimension
  0
LINE
  5
1B4
330
2
100
AcDbEntity
  8
ACHSEN
100
AcDbLine
 10
75.19005907302744
 20
189.7648067025993
 30
0.0
 11
75.19005907302744
 21
545.6681953539523
 31
0.0
  0
LINE
  5
1B5
330
2
100
AcDbEntity
  8
ACHSEN
100
AcDbLine
 10
82.94005907302745
 20
341.2648067025993
 30
0.0
 11
67.44005907302744
 21
341.2648067025993
 31
0.0
  0
MTEXT
  5
1B6
330
2
100
AcDbEntity
  8
UMRISS05
 62
     3
100
AcDbMText
 10
108.1756437374304
 20
435.5587340959974
 30
0.0
 40
3.5
 41
0.0
 71
     5
 72
     1
  1
\A1;Verstellbereich\P-1 / +2mm
  7
ARIAL-STANDARD
 73
     1
 44
1.0
1001
ACAD
1000
MTEXTBEGIN
1070
    73
1070
     1
1070
    44
1040
1.0
1070
    74
1070
     0
1000
MTEXTEND
  0
LINE
  5
1B7
330
2
100
AcDbEntity
  8
AVERDECKTE
100
AcDbLine
 10
183.1820953611086
 20
368.1648067025991
 30
0.0
 11
172.1820953611095
 21
368.1648067025991
 31
0.0
  0
LINE
  5
1B8
330
2
100
AcDbEntity
  8
AVERDECKTE
100
AcDbLine
 10
183.1820953611086
 20
414.3648067025992
 30
0.0
 11
172.1820953611094
 21
414.3648067025992
 31
0.0
  0
LINE
  5
1B9
330
2
100
AcDbEntity
  8
AVERDECKTE
100
AcDbLine
 10
172.1820953611094
 20
414.3648067025992
 30
0.0
 11
172.1820953611095
 21
368.1648067025991
 31
0.0
  0
LINE
  5
1BA
330
2
100
AcDbEntity
  8
ACHSEN
100
AcDbLine
 10
185.945276441043
 20
341.264806702599
 30
0.0
 11
176.2816844682316
 21
341.2648067025991
 31
0.0
  0
DIMENSION
  5
1BB
330
2
100
AcDbEntity
  8
BEMASSUNG
100
AcDbDimension
  2
*D4
 10
180.1820953611086
 20
331.0999963189261
 30
0.0
 11
172.682095361109
 21
334.3209888155154
 31
0.0
 71
     5
 42
14.99999999999914
  3
Katalog 09
100
AcDbAlignedDimension
 13
165.1820953611094
 23
360.2648067025992
 33
0.0
 14
180.1820953611086
 24
330.223545904744
 34
0.0
100
AcDbRotatedDimension
1001
ACAD_DSTYLE_DIMINSPECT
1070
   396
1000
100%
1070
   395
1000

1070
   394
1070
    33
1070
   393
1070
     0
  0
DIMENSION
  5
1C8
330
2
100
AcDbEntity
  8
BEMASSUNG
100
AcDbDimension
  2
*D3
 10
155.9309012879908
 20
422.264806702599
 30
0.0
 11
155.9309012879907
 21
391.2648067025991
 31
0.0
 70
   128
 71
     5
 42
61.99999999999994
  3
Katalog 09
100
AcDbAlignedDimension
 13
165.1820953611094
 23
360.2648067025991
 33
0.0
 14
165.1820953611094
 24
422.264806702599
 34
0.0
 50
90.0
100
AcDbRotatedDimension
1001
ACAD_DSTYLE_DIMINSPECT
1070
   396
1000
100%
1070
   395
1000

1070
   394
1070
    33
1070
   393
1070
     0
  0
DIMENSION
  5
1D5
330
2
100
AcDbEntity
  8
UMRISS05
100
AcDbDimension
  2
*D2
 10
63.19005907288681
 20
158.5468195098327
 30
0.0
 11
50.18871186961257
 21
158.5468195098327
 31
0.0
 70
   128
 71
     5
 42
2.800000000000068
  3
Katalog 09
100
AcDbAlignedDimension
 13
65.99005907288688
 23
150.9455207619615
 33
0.0
 14
63.19005907288681
 24
135.9455207619737
 34
0.0
100
AcDbRotatedDimension
  0
LINE
  5
1E4
330
2
100
AcDbEntity
  8
ACHSEN
100
AcDbLine
 10
75.19005907302744
 20
154.2533309440892
 30
0.0
 11
75.19005907302744
 21
129.9455207619737
 31
0.0
  0
DIMENSION
  5
1E5
330
2
100
AcDbEntity
  8
UMRISS05
100
AcDbDimension
  2
*D1
 10
85.39005907288681
 20
165.6556090376167
 30
0.0
 11
75.69005907288683
 21
168.876601534206
 31
0.0
 71
     5
 42
19.39999999999992
  3
Katalog 09
100
AcDbAlignedDimension
 13
65.99005907288688
 23
150.9455207619613
 33
0.0
 14
85.39005907288681
 24
150.9455207619613
 34
0.0
100
AcDbRotatedDimension
  0
LINE
  5
1F2
330
2
100
AcDbEntity
  8
UMRISS05
100
AcDbLine
 10
84.44005907288698
 20
135.9455207619738
 30
0.0
 11
84.44005907288698
 21
140.4455207619618
 31
0.0
  0
LINE
  5
1F3
330
2
100
AcDbEntity
  8
UMRISS05
100
AcDbLine
 10
85.39005907288697
 20
150.9455207619613
 30
0.0
 11
65.99005907288688
 21
150.9455207619613
 31
0.0
  0
LINE
  5
1F4
330
2
100
AcDbEntity
  8
UMRISS05
100
AcDbLine
 10
65.99005907288688
 20
150.9455207619613
 30
0.0
 11
65.99005907288688
 21
135.9455207619612
 31
0.0
  0
LINE
  5
1F5
330
2
100
AcDbEntity
  8
UMRISS05
100
AcDbLine
 10
85.39005907288697
 20
150.9455207619613
 30
0.0
 11
85.39005907288697
 21
140.4455207619613
 31
0.0
  0
LINE
  5
1F6
330
2
100
AcDbEntity
  8
UMRISS05
100
AcDbLine
 10
82.89005907288697
 20
135.9455207619617
 30
0.0
 11
82.89005907288697
 21
140.4455207619617
 31
0.0
  0
LINE
  5
1F7
330
2
100
AcDbEntity
  8
UMRISS05
100
AcDbLine
 10
85.39005907288697
 20
140.4455207619613
 30
0.0
 11
82.89005907288697
 21
140.445520761962
 31
0.0
  0
LINE
  5
1F8
330
2
100
AcDbEntity
  8
UMRISS05
100
AcDbLine
 10
123.1900590728869
 20
132.9455207619737
 30
0.0
 11
123.1900590728869
 21
135.9455207619737
 31
0.0
  0
LINE
  5
1F9
330
2
100
AcDbEntity
  8
UMRISS05
100
AcDbLine
 10
63.19005907288698
 20
135.9455207619737
 30
0.0
 11
63.19005907288698
 21
132.9455207619737
 31
0.0
  0
LINE
  5
1FA
330
2
100
AcDbEntity
  8
UMRISS05
100
AcDbLine
 10
87.19005907288698
 20
135.9455207619737
 30
0.0
 11
87.19005907288698
 21
132.9455207619737
 31
0.0
  0
LINE
  5
1FB
330
2
100
AcDbEntity
  8
UMRISS05
100
AcDbLine
 10
63.19005907288698
 20
132.9455207619737
 30
0.0
 11
123.1900590728869
 21
132.9455207619737
 31
0.0
  0
LINE
  5
1FC
330
2
100
AcDbEntity
  8
UMRISS05
100
AcDbLine
 10
123.1900590728869
 20
135.9455207619737
 30
0.0
 11
63.19005907288698
 21
135.9455207619737
 31
0.0
  0
LINE
  5
1FD
330
2
100
AcDbEntity
  8
Verdeckte Kanten(MSL)
 48
5.713989734649658
100
AcDbLine
 10
180.1820953611102
 20
314.7648067025993
 30
0.0
 11
183.1820953611102
 21
314.7648067025993
 31
0.0
  0
LINE
  5
200
330
2
100
AcDbEntity
  8
Verdeckte Kanten(MSL)
 48
5.713989734649658
100
AcDbLine
 10
183.1820953611102
 20
267.7648067025994
 30
0.0
 11
180.1820953611102
 21
267.7648067025994
 31
0.0
  0
LINE
  5
201
330
2
100
AcDbEntity
  8
Verdeckte Kanten(MSL)
 48
5.713989734649658
100
AcDbLine
 10
183.1820953611157
 20
426.2648067025993
 30
0.0
 11
180.1820953611157
 21
426.2648067025993
 31
0.0
  0
LINE
  5
202
330
2
100
AcDbEntity
  8
Verdeckte Kanten(MSL)
 48
5.713989734649658
100
AcDbLine
 10
180.1820953611157
 20
356.2648067025993
 30
0.0
 11
183.1820953611157
 21
356.2648067025993
 31
0.0
  0
LINE
  5
203
330
2
100
AcDbEntity
  8
Verdeckte Kanten(MSL)
 48
3.366959810256958
100
AcDbLine
 10
181.9320953611118
 20
337.7648067025993
 30
0.0
 11
183.1820953611119
 21
336.5148067025994
 31
0.0
  0
LINE
  5
204
330
2
100
AcDbEntity
  8
Verdeckte Kanten(MSL)
 48
3.366959810256958
100
AcDbLine
 10
181.9320953611118
 20
344.7648067025994
 30
0.0
 11
183.1820953611119
 21
346.0148067025993
 31
0.0
  0
LINE
  5
205
330
2
100
AcDbEntity
  8
Verdeckte Kanten(MSL)
 48
0.9522482752799987
100
AcDbLine
 10
181.4320953611118
 20
337.7648067025993
 30
0.0
 11
181.9320953611118
 21
337.7648067025993
 31
0.0
  0
LINE
  5
206
330
2
100
AcDbEntity
  8
Verdeckte Kanten(MSL)
 48
0.9522482752799987
100
AcDbLine
 10
181.4320953611118
 20
344.7648067025994
 30
0.0
 11
181.9320953611118
 21
344.7648067025994
 31
0.0
  0
LINE
  5
207
330
2
100
AcDbEntity
  8
Verdeckte Kanten(MSL)
 48
26.5979061126709
100
AcDbLine
 10
181.9320953611118
 20
337.7648067025993
 30
0.0
 11
181.9320953611118
 21
344.7648067025994
 31
0.0
  0
LINE
  5
208
330
2
100
AcDbEntity
  8
Verdeckte Kanten(MSL)
 48
3.366959810256958
100
AcDbLine
 10
181.4320953611118
 20
344.7648067025994
 30
0.0
 11
180.1820953611118
 21
346.0148067025993
 31
0.0
  0
LINE
  5
209
330
2
100
AcDbEntity
  8
Verdeckte Kanten(MSL)
 48
3.366959810256958
100
AcDbLine
 10
181.4320953611118
 20
337.7648067025993
 30
0.0
 11
180.1820953611118
 21
336.5148067025994
 31
0.0
  0
LINE
  5
20A
330
2
100
AcDbEntity
  8
Verdeckte Kanten(MSL)
 48
26.5979061126709
100
AcDbLine
 10
181.4320953611118
 20
337.7648067025993
 30
0.0
 11
181.4320953611118
 21
344.7648067025994
 31
0.0
  0
LINE
  5
20B
330
2
100
AcDbEntity
  8
Sichtbare Kanten(MSL)
100
AcDbLine
 10
180.1820953611083
 20
192.7648067025994
 30
0.0
 11
183.1820953611083
 21
192.7648067025994
 31
0.0
  0
LINE
  5
20D
330
2
100
AcDbEntity
  8
UMRISS05
100
AcDbLine
 10
180.1820953611082
 20
542.7648067025992
 30
0.0
 11
183.1820953611082
 21
542.7648067025992
 31
0.0
  0
LINE
  5
20E
330
2
100
AcDbEntity
  8
UMRISS05
100
AcDbLine
 10
183.1820953611083
 20
192.7648067025994
 30
0.0
 11
183.1820953611082
 21
542.7648067025992
 31
0.0
  0
LINE
  5
20F
330
2
100
AcDbEntity
  8
UMRISS05
100
AcDbLine
 10
180.1820953611082
 20
542.7648067025992
 30
0.0
 11
180.1820953611083
 21
192.7648067025994
 31
0.0
  0
LINE
  5
210
330
2
100
AcDbEntity
  8
UMRISS05
100
AcDbLine
 10
165.1820953611094
 20
422.2648067025994
 30
0.0
 11
165.182095361109
 21
420.7648067025994
 31
0.0
  0
LINE
  5
211
330
2
100
AcDbEntity
  8
UMRISS05
100
AcDbLine
 10
165.1820953611094
 20
422.2648067025994
 30
0.0
 11
180.1820953611095
 21
422.2648067025994
 31
0.0
  0
LINE
  5
212
330
2
100
AcDbEntity
  8
UMRISS05
100
AcDbLine
 10
165.182095361109
 20
361.7648067025992
 30
0.0
 11
165.182095361109
 21
420.7648067025994
 31
0.0
  0
LINE
  5
213
330
2
100
AcDbEntity
  8
UMRISS05
100
AcDbLine
 10
165.182095361109
 20
361.7648067025992
 30
0.0
 11
165.1820953611094
 21
360.2648067025992
 31
0.0
  0
LINE
  5
214
330
2
100
AcDbEntity
  8
UMRISS05
100
AcDbLine
 10
165.1820953611094
 20
360.2648067025992
 30
0.0
 11
180.1820953611095
 21
360.2648067025992
 31
0.0
  0
CIRCLE
  5
215
330
2
100
AcDbEntity
  8
UMRISS05
100
AcDbCircle
 10
75.19005907302738
 20
250.2648067025992
 30
0.0
 40
1.750000000000001
  0
CIRCLE
  5
216
330
2
100
AcDbEntity
  8
UMRISS05
100
AcDbCircle
 10
75.1900590730275
 20
261.2648067025992
 30
0.0
 40
1.750000000000001
  0
CIRCLE
  5
217
330
2
100
AcDbEntity
  8
UMRISS05
100
AcDbCircle
 10
75.69005907302778
 20
365.0148067025993
 30
0.0
 40
4.000000000000002
  0
CIRCLE
  5
218
330
2
100
AcDbEntity
  8
UMRISS05
100
AcDbCircle
 10
75.69005907302784
 20
417.5148067025991
 30
0.0
 40
4.000000000000002
  0
ARC
  5
219
330
2
100
AcDbEntity
  8
UMRISS05
100
AcDbCircle
 10
122.1900590730279
 20
425.2648067025991
 30
0.0
 40
0.9999999999999882
100
AcDbArc
 50
0.0
 51
90.0
  0
ARC
  5
21A
330
2
100
AcDbEntity
  8
UMRISS05
100
AcDbCircle
 10
122.1900590730278
 20
357.2648067025991
 30
0.0
 40
0.9999999999999971
100
AcDbArc
 50
270.0
 51
0.0
  0
LINE
  5
21B
330
2
100
AcDbEntity
  8
UMRISS05
100
AcDbLine
 10
103.0295039454814
 20
356.2648067025993
 30
0.0
 11
101.3506142005741
 21
356.2648067025993
 31
0.0
  0
LINE
  5
21C
330
2
100
AcDbEntity
  8
UMRISS05
100
AcDbLine
 10
99.0295039454814
 20
356.2648067025993
 30
0.0
 11
97.35061420057418
 21
356.2648067025993
 31
0.0
  0
LINE
  5
21D
330
2
100
AcDbEntity
  8
UMRISS05
100
AcDbLine
 10
95.0295039454814
 20
356.2648067025993
 30
0.0
 11
93.35061420057417
 21
356.2648067025993
 31
0.0
  0
LINE
  5
21E
330
2
100
AcDbEntity
  8
UMRISS05
100
AcDbLine
 10
91.02950394548139
 20
356.2648067025993
 30
0.0
 11
88.19005907302772
 21
356.2648067025993
 31
0.0
  0
LINE
  5
21F
330
2
100
AcDbEntity
  8
UMRISS05
100
AcDbLine
 10
87.19005907302772
 20
355.2648067025992
 30
0.0
 11
87.19005907302749
 21
192.7648067025993
 31
0.0
  0
LINE
  5
220
330
2
100
AcDbEntity
  8
UMRISS05
100
AcDbLine
 10
87.19005907302749
 20
192.7648067025993
 30
0.0
 11
63.1900590730275
 21
192.7648067025993
 31
0.0
  0
LINE
  5
221
330
2
100
AcDbEntity
  8
UMRISS05
100
AcDbLine
 10
63.19005907302744
 20
192.7648067025993
 30
0.0
 11
63.19005907302806
 21
542.7648067025992
 31
0.0
  0
LINE
  5
222
330
2
100
AcDbEntity
  8
UMRISS05
100
AcDbLine
 10
63.19005907302806
 20
542.7648067025992
 30
0.0
 11
87.19005907302813
 21
542.7648067025991
 31
0.0
  0
LINE
  5
223
330
2
100
AcDbEntity
  8
UMRISS05
100
AcDbLine
 10
87.19005907302806
 20
542.7648067025991
 30
0.0
 11
87.19005907302785
 21
427.2648067025992
 31
0.0
  0
LINE
  5
224
330
2
100
AcDbEntity
  8
UMRISS05
100
AcDbLine
 10
88.19005907302789
 20
426.2648067025992
 30
0.0
 11
91.0295039454815
 21
426.2648067025992
 31
0.0
  0
LINE
  5
225
330
2
100
AcDbEntity
  8
UMRISS05
100
AcDbLine
 10
93.35061420057428
 20
426.2648067025992
 30
0.0
 11
95.0295039454815
 21
426.2648067025992
 31
0.0
  0
LINE
  5
226
330
2
100
AcDbEntity
  8
UMRISS05
100
AcDbLine
 10
97.35061420057428
 20
426.2648067025992
 30
0.0
 11
99.02950394548151
 21
426.2648067025992
 31
0.0
  0
LINE
  5
227
330
2
100
AcDbEntity
  8
UMRISS05
100
AcDbLine
 10
101.3506142005743
 20
426.2648067025991
 30
0.0
 11
103.0295039454815
 21
426.2648067025991
 31
0.0
  0
LINE
  5
228
330
2
100
AcDbEntity
  8
UMRISS05
100
AcDbLine
 10
105.3506142005742
 20
426.2648067025991
 30
0.0
 11
107.0295039454815
 21
426.2648067025991
 31
0.0
  0
LINE
  5
229
330
2
100
AcDbEntity
  8
UMRISS05
100
AcDbLine
 10
109.3506142005743
 20
426.2648067025992
 30
0.0
 11
111.0295039454815
 21
426.2648067025991
 31
0.0
  0
LINE
  5
22A
330
2
100
AcDbEntity
  8
UMRISS05
100
AcDbLine
 10
113.3506142005743
 20
426.2648067025991
 30
0.0
 11
115.0295039454815
 21
426.2648067025991
 31
0.0
  0
LINE
  5
22B
330
2
100
AcDbEntity
  8
UMRISS05
100
AcDbLine
 10
117.3506142005743
 20
426.2648067025991
 30
0.0
 11
119.0295039454815
 21
426.2648067025991
 31
0.0
  0
LINE
  5
22C
330
2
100
AcDbEntity
  8
UMRISS05
100
AcDbLine
 10
121.3506142005743
 20
426.2648067025991
 30
0.0
 11
122.1900590730279
 21
426.2648067025991
 31
0.0
  0
LINE
  5
22D
330
2
100
AcDbEntity
  8
UMRISS05
100
AcDbLine
 10
123.1900590730279
 20
425.2648067025991
 30
0.0
 11
123.1900590730278
 21
357.2648067025991
 31
0.0
  0
LINE
  5
22E
330
2
100
AcDbEntity
  8
UMRISS05
100
AcDbLine
 10
122.1900590730278
 20
356.2648067025992
 30
0.0
 11
121.3506142005742
 21
356.2648067025992
 31
0.0
  0
LINE
  5
22F
330
2
100
AcDbEntity
  8
UMRISS05
100
AcDbLine
 10
119.0295039454814
 20
356.2648067025993
 30
0.0
 11
117.3506142005742
 21
356.2648067025992
 31
0.0
  0
LINE
  5
230
330
2
100
AcDbEntity
  8
UMRISS05
100
AcDbLine
 10
115.0295039454814
 20
356.2648067025993
 30
0.0
 11
113.3506142005741
 21
356.2648067025993
 31
0.0
  0
LINE
  5
231
330
2
100
AcDbEntity
  8
UMRISS05
100
AcDbLine
 10
111.0295039454814
 20
356.2648067025993
 30
0.0
 11
109.3506142005741
 21
356.2648067025993
 31
0.0
  0
LINE
  5
232
330
2
100
AcDbEntity
  8
UMRISS05
100
AcDbLine
 10
107.0295039454814
 20
356.2648067025993
 30
0.0
 11
105.3506142005742
 21
356.2648067025993
 31
0.0
  0
LINE
  5
233
330
2
100
AcDbEntity
  8
UMRISS05
100
AcDbLine
 10
100.4396741613291
 20
357.3903840701472
 30
0.0
 11
101.1009991122728
 21
356.3983966437316
 31
0.0
  0
LINE
  5
234
330
2
100
AcDbEntity
  8
UMRISS05
100
AcDbLine
 10
99.27911903378271
 20
356.3983966437316
 30
0.0
 11
99.94044398472642
 21
357.3903840701472
 31
0.0
  0
LINE
  5
235
330
2
100
AcDbEntity
  8
UMRISS05
100
AcDbLine
 10
96.43967416132916
 20
357.3903840701472
 30
0.0
 11
97.10099911227286
 21
356.3983966437316
 31
0.0
  0
LINE
  5
236
330
2
100
AcDbEntity
  8
UMRISS05
100
AcDbLine
 10
95.27911903378271
 20
356.3983966437316
 30
0.0
 11
95.94044398472641
 21
357.3903840701472
 31
0.0
  0
LINE
  5
237
330
2
100
AcDbEntity
  8
UMRISS05
100
AcDbLine
 10
92.43967416132916
 20
357.3903840701472
 30
0.0
 11
93.10099911227286
 21
356.3983966437316
 31
0.0
  0
LINE
  5
238
330
2
100
AcDbEntity
  8
UMRISS05
100
AcDbLine
 10
91.2791190337827
 20
356.3983966437316
 30
0.0
 11
91.94044398472641
 21
357.3903840701472
 31
0.0
  0
LINE
  5
239
330
2
100
AcDbEntity
  8
UMRISS05
100
AcDbLine
 10
91.94044398472653
 20
425.1392293350512
 30
0.0
 11
91.27911903378281
 21
426.1312167614667
 31
0.0
  0
LINE
  5
23A
330
2
100
AcDbEntity
  8
UMRISS05
100
AcDbLine
 10
93.10099911227297
 20
426.1312167614667
 30
0.0
 11
92.43967416132926
 21
425.1392293350511
 31
0.0
  0
LINE
  5
23B
330
2
100
AcDbEntity
  8
UMRISS05
100
AcDbLine
 10
95.94044398472652
 20
425.1392293350511
 30
0.0
 11
95.27911903378281
 21
426.1312167614667
 31
0.0
  0
LINE
  5
23C
330
2
100
AcDbEntity
  8
UMRISS05
100
AcDbLine
 10
97.10099911227292
 20
426.1312167614667
 30
0.0
 11
96.43967416132927
 21
425.1392293350511
 31
0.0
  0
LINE
  5
23D
330
2
100
AcDbEntity
  8
UMRISS05
100
AcDbLine
 10
99.94044398472652
 20
425.1392293350511
 30
0.0
 11
99.27911903378282
 21
426.1312167614667
 31
0.0
  0
LINE
  5
23E
330
2
100
AcDbEntity
  8
UMRISS05
100
AcDbLine
 10
101.1009991122729
 20
426.1312167614667
 30
0.0
 11
100.4396741613292
 21
425.1392293350511
 31
0.0
  0
LINE
  5
23F
330
2
100
AcDbEntity
  8
UMRISS05
100
AcDbLine
 10
103.9404439847265
 20
425.1392293350511
 30
0.0
 11
103.2791190337828
 21
426.1312167614667
 31
0.0
  0
LINE
  5
240
330
2
100
AcDbEntity
  8
UMRISS05
100
AcDbLine
 10
105.1009991122729
 20
426.1312167614667
 30
0.0
 11
104.4396741613292
 21
425.1392293350511
 31
0.0
  0
LINE
  5
241
330
2
100
AcDbEntity
  8
UMRISS05
100
AcDbLine
 10
107.9404439847265
 20
425.1392293350511
 30
0.0
 11
107.2791190337828
 21
426.1312167614667
 31
0.0
  0
LINE
  5
242
330
2
100
AcDbEntity
  8
UMRISS05
100
AcDbLine
 10
109.1009991122729
 20
426.1312167614667
 30
0.0
 11
108.4396741613292
 21
425.1392293350511
 31
0.0
  0
LINE
  5
243
330
2
100
AcDbEntity
  8
UMRISS05
100
AcDbLine
 10
111.9404439847265
 20
425.1392293350511
 30
0.0
 11
111.2791190337828
 21
426.1312167614667
 31
0.0
  0
LINE
  5
244
330
2
100
AcDbEntity
  8
UMRISS05
100
AcDbLine
 10
113.1009991122729
 20
426.1312167614667
 30
0.0
 11
112.4396741613292
 21
425.1392293350511
 31
0.0
  0
LINE
  5
245
330
2
100
AcDbEntity
  8
UMRISS05
100
AcDbLine
 10
115.9404439847265
 20
425.1392293350511
 30
0.0
 11
115.2791190337828
 21
426.1312167614667
 31
0.0
  0
LINE
  5
246
330
2
100
AcDbEntity
  8
UMRISS05
100
AcDbLine
 10
117.100999112273
 20
426.1312167614667
 30
0.0
 11
116.4396741613292
 21
425.1392293350511
 31
0.0
  0
LINE
  5
247
330
2
100
AcDbEntity
  8
UMRISS05
100
AcDbLine
 10
119.9404439847265
 20
425.1392293350511
 30
0.0
 11
119.2791190337828
 21
426.1312167614667
 31
0.0
  0
LINE
  5
248
330
2
100
AcDbEntity
  8
UMRISS05
100
AcDbLine
 10
121.1009991122729
 20
426.1312167614667
 30
0.0
 11
120.4396741613292
 21
425.1392293350511
 31
0.0
  0
LINE
  5
249
330
2
100
AcDbEntity
  8
UMRISS05
100
AcDbLine
 10
120.4396741613291
 20
357.3903840701472
 30
0.0
 11
121.1009991122728
 21
356.3983966437315
 31
0.0
  0
LINE
  5
24A
330
2
100
AcDbEntity
  8
UMRISS05
100
AcDbLine
 10
119.2791190337827
 20
356.3983966437316
 30
0.0
 11
119.9404439847264
 21
357.3903840701472
 31
0.0
  0
LINE
  5
24B
330
2
100
AcDbEntity
  8
UMRISS05
100
AcDbLine
 10
116.4396741613291
 20
357.3903840701472
 30
0.0
 11
117.1009991122728
 21
356.3983966437315
 31
0.0
  0
LINE
  5
24C
330
2
100
AcDbEntity
  8
UMRISS05
100
AcDbLine
 10
115.2791190337827
 20
356.3983966437316
 30
0.0
 11
115.9404439847264
 21
357.3903840701472
 31
0.0
  0
LINE
  5
24D
330
2
100
AcDbEntity
  8
UMRISS05
100
AcDbLine
 10
112.4396741613291
 20
357.3903840701472
 30
0.0
 11
113.1009991122728
 21
356.3983966437316
 31
0.0
  0
LINE
  5
24E
330
2
100
AcDbEntity
  8
UMRISS05
100
AcDbLine
 10
111.2791190337827
 20
356.3983966437316
 30
0.0
 11
111.9404439847264
 21
357.3903840701472
 31
0.0
  0
LINE
  5
24F
330
2
100
AcDbEntity
  8
UMRISS05
100
AcDbLine
 10
108.4396741613291
 20
357.3903840701472
 30
0.0
 11
109.1009991122728
 21
356.3983966437316
 31
0.0
  0
LINE
  5
250
330
2
100
AcDbEntity
  8
UMRISS05
100
AcDbLine
 10
107.2791190337827
 20
356.3983966437316
 30
0.0
 11
107.9404439847264
 21
357.3903840701472
 31
0.0
  0
LINE
  5
251
330
2
100
AcDbEntity
  8
UMRISS05
100
AcDbLine
 10
104.4396741613291
 20
357.3903840701472
 30
0.0
 11
105.1009991122728
 21
356.3983966437316
 31
0.0
  0
LINE
  5
252
330
2
100
AcDbEntity
  8
UMRISS05
100
AcDbLine
 10
103.2791190337827
 20
356.3983966437316
 30
0.0
 11
103.9404439847264
 21
357.3903840701472
 31
0.0
  0
ARC
  5
253
330
2
100
AcDbEntity
  8
UMRISS05
100
AcDbCircle
 10
101.3506142005741
 20
356.5648067025992
 30
0.0
 40
0.2999999999999938
100
AcDbArc
 50
213.6900675259825
 51
270.0
  0
ARC
  5
254
330
2
100
AcDbEntity
  8
UMRISS05
100
AcDbCircle
 10
100.1900590730278
 20
357.2239740112796
 30
0.0
 40
0.3000000000000129
100
AcDbArc
 50
33.69006752598012
 51
146.3099324740115
  0
ARC
  5
255
330
2
100
AcDbEntity
  8
UMRISS05
100
AcDbCircle
 10
99.02950394548135
 20
356.5648067025993
 30
0.0
 40
0.3000000000000468
100
AcDbArc
 50
270.0000000000065
 51
326.309932474017
  0
ARC
  5
256
330
2
100
AcDbEntity
  8
UMRISS05
100
AcDbCircle
 10
97.35061420057418
 20
356.5648067025992
 30
0.0
 40
0.3000000000000116
100
AcDbArc
 50
213.6900675259877
 51
270.0
  0
ARC
  5
257
330
2
100
AcDbEntity
  8
UMRISS05
100
AcDbCircle
 10
96.19005907302778
 20
357.2239740112796
 30
0.0
 40
0.300000000000011
100
AcDbArc
 50
33.69006752598158
 51
146.3099324740115
  0
ARC
  5
258
330
2
100
AcDbEntity
  8
UMRISS05
100
AcDbCircle
 10
95.02950394548134
 20
356.5648067025993
 30
0.0
 40
0.300000000000029
100
AcDbArc
 50
270.0000000000065
 51
326.3099324740228
  0
ARC
  5
259
330
2
100
AcDbEntity
  8
UMRISS05
100
AcDbCircle
 10
93.35061420057417
 20
356.5648067025992
 30
0.0
 40
0.3000000000000116
100
AcDbArc
 50
213.6900675259877
 51
270.0
  0
ARC
  5
25A
330
2
100
AcDbEntity
  8
UMRISS05
100
AcDbCircle
 10
92.19005907302777
 20
357.2239740112796
 30
0.0
 40
0.299999999999995
100
AcDbArc
 50
33.69006752597424
 51
146.309932474011
  0
ARC
  5
25B
330
2
100
AcDbEntity
  8
UMRISS05
100
AcDbCircle
 10
91.02950394548134
 20
356.5648067025993
 30
0.0
 40
0.3000000000000524
100
AcDbArc
 50
270.0000000000033
 51
326.309932474017
  0
ARC
  5
25C
330
2
100
AcDbEntity
  8
UMRISS05
100
AcDbCircle
 10
91.02950394548145
 20
425.9648067025991
 30
0.0
 40
0.300000000000016
100
AcDbArc
 50
33.69006752598012
 51
89.99999999999674
  0
ARC
  5
25D
330
2
100
AcDbEntity
  8
UMRISS05
100
AcDbCircle
 10
92.19005907302785
 20
425.3056393939187
 30
0.0
 40
0.3000000000000024
100
AcDbArc
 50
213.6900675259815
 51
326.3099324740243
  0
ARC
  5
25E
330
2
100
AcDbEntity
  8
UMRISS05
100
AcDbCircle
 10
93.35061420057428
 20
425.9648067025991
 30
0.0
 40
0.3000000000000167
100
AcDbArc
 50
90.0
 51
146.3099324740199
  0
ARC
  5
25F
330
2
100
AcDbEntity
  8
UMRISS05
100
AcDbCircle
 10
95.02950394548145
 20
425.9648067025991
 30
0.0
 40
0.3000000000000205
100
AcDbArc
 50
33.69006752598599
 51
89.99999999999674
  0
ARC
  5
260
330
2
100
AcDbEntity
  8
UMRISS05
100
AcDbCircle
 10
96.1900590730279
 20
425.3056393939187
 30
0.0
 40
0.3000000000000024
100
AcDbArc
 50
213.6900675259815
 51
326.3099324740238
  0
ARC
  5
261
330
2
100
AcDbEntity
  8
UMRISS05
100
AcDbCircle
 10
97.35061420057428
 20
425.9648067025991
 30
0.0
 40
0.2999999999999982
100
AcDbArc
 50
89.99999999999674
 51
146.3099324740174
  0
ARC
  5
262
330
2
100
AcDbEntity
  8
UMRISS05
100
AcDbCircle
 10
99.02950394548151
 20
425.9648067025991
 30
0.0
 40
0.2999999999999938
100
AcDbArc
 50
33.69006752598206
 51
90.0
  0
ARC
  5
263
330
2
100
AcDbEntity
  8
UMRISS05
100
AcDbCircle
 10
100.1900590730279
 20
425.3056393939187
 30
0.0
 40
0.3000000000000006
100
AcDbArc
 50
213.6900675259815
 51
326.3099324740243
  0
ARC
  5
264
330
2
100
AcDbEntity
  8
UMRISS05
100
AcDbCircle
 10
101.3506142005743
 20
425.9648067025991
 30
0.0
 40
0.299999999999992
100
AcDbArc
 50
89.99999999999674
 51
146.3099324740174
  0
ARC
  5
265
330
2
100
AcDbEntity
  8
UMRISS05
100
AcDbCircle
 10
103.0295039454815
 20
425.9648067025991
 30
0.0
 40
0.3000000000000027
100
AcDbArc
 50
33.69006752598158
 51
89.99999999999674
  0
ARC
  5
266
330
2
100
AcDbEntity
  8
UMRISS05
100
AcDbCircle
 10
104.1900590730279
 20
425.3056393939187
 30
0.0
 40
0.3000000000000006
100
AcDbArc
 50
213.6900675259815
 51
326.3099324740243
  0
ARC
  5
267
330
2
100
AcDbEntity
  8
UMRISS05
100
AcDbCircle
 10
105.3506142005742
 20
425.9648067025991
 30
0.0
 40
0.300000000000013
100
AcDbArc
 50
90.0
 51
146.3099324740184
  0
ARC
  5
268
330
2
100
AcDbEntity
  8
UMRISS05
100
AcDbCircle
 10
107.0295039454815
 20
425.9648067025991
 30
0.0
 40
0.3000000000000205
100
AcDbArc
 50
33.69006752598794
 51
90.0
  0
ARC
  5
269
330
2
100
AcDbEntity
  8
UMRISS05
100
AcDbCircle
 10
108.1900590730278
 20
425.3056393939187
 30
0.0
 40
0.2999999999999981
100
AcDbArc
 50
213.690067525982
 51
326.3099324740238
  0
ARC
  5
26A
330
2
100
AcDbEntity
  8
UMRISS05
100
AcDbCircle
 10
109.3506142005743
 20
425.9648067025991
 30
0.0
 40
0.2999999999999785
100
AcDbArc
 50
90.0
 51
146.3099324740238
  0
ARC
  5
26B
330
2
100
AcDbEntity
  8
UMRISS05
100
AcDbCircle
 10
111.0295039454815
 20
425.9648067025991
 30
0.0
 40
0.299999999999976
100
AcDbArc
 50
33.69006752597619
 51
90.0
  0
ARC
  5
26C
330
2
100
AcDbEntity
  8
UMRISS05
100
AcDbCircle
 10
112.1900590730279
 20
425.3056393939187
 30
0.0
 40
0.2999999999999981
100
AcDbArc
 50
213.690067525982
 51
326.3099324740238
  0
ARC
  5
26D
330
2
100
AcDbEntity
  8
UMRISS05
100
AcDbCircle
 10
113.3506142005743
 20
425.9648067025991
 30
0.0
 40
0.3000000000000044
100
AcDbArc
 50
90.0
 51
146.3099324740179
  0
ARC
  5
26E
330
2
100
AcDbEntity
  8
UMRISS05
100
AcDbCircle
 10
115.0295039454815
 20
425.9648067025991
 30
0.0
 40
0.300000000000016
100
AcDbArc
 50
33.69006752598012
 51
89.99999999999674
  0
ARC
  5
26F
330
2
100
AcDbEntity
  8
UMRISS05
100
AcDbCircle
 10
116.1900590730279
 20
425.3056393939187
 30
0.0
 40
0.3000000000000019
100
AcDbArc
 50
213.6900675259801
 51
326.3099324740238
  0
ARC
  5
270
330
2
100
AcDbEntity
  8
UMRISS05
100
AcDbCircle
 10
117.3506142005743
 20
425.9648067025991
 30
0.0
 40
0.3000000000000056
100
AcDbArc
 50
90.0
 51
146.3099324740179
  0
ARC
  5
271
330
2
100
AcDbEntity
  8
UMRISS05
100
AcDbCircle
 10
119.0295039454815
 20
425.9648067025991
 30
0.0
 40
0.3000000000000205
100
AcDbArc
 50
33.69006752598794
 51
90.0
  0
ARC
  5
272
330
2
100
AcDbEntity
  8
UMRISS05
100
AcDbCircle
 10
120.1900590730279
 20
425.3056393939187
 30
0.0
 40
0.3000000000000067
100
AcDbArc
 50
213.6900675259801
 51
326.309932474012
  0
ARC
  5
273
330
2
100
AcDbEntity
  8
UMRISS05
100
AcDbCircle
 10
121.3506142005743
 20
425.9648067025991
 30
0.0
 40
0.2999999999999834
100
AcDbArc
 50
90.0
 51
146.3099324740238
  0
ARC
  5
274
330
2
100
AcDbEntity
  8
UMRISS05
100
AcDbCircle
 10
121.3506142005742
 20
356.5648067025991
 30
0.0
 40
0.3000000000000116
100
AcDbArc
 50
213.6900675259801
 51
270.0
  0
ARC
  5
275
330
2
100
AcDbEntity
  8
UMRISS05
100
AcDbCircle
 10
120.1900590730277
 20
357.2239740112796
 30
0.0
 40
0.3000000000000104
100
AcDbArc
 50
33.69006752598012
 51
146.309932474012
  0
ARC
  5
276
330
2
100
AcDbEntity
  8
UMRISS05
100
AcDbCircle
 10
119.0295039454813
 20
356.5648067025992
 30
0.0
 40
0.3000000000000524
100
AcDbArc
 50
270.0000000000065
 51
326.309932474017
  0
ARC
  5
277
330
2
100
AcDbEntity
  8
UMRISS05
100
AcDbCircle
 10
117.3506142005741
 20
356.5648067025991
 30
0.0
 40
0.2999999999999938
100
AcDbArc
 50
213.690067525982
 51
270.0
  0
ARC
  5
278
330
2
100
AcDbEntity
  8
UMRISS05
100
AcDbCircle
 10
116.1900590730278
 20
357.2239740112796
 30
0.0
 40
0.300000000000019
100
AcDbArc
 50
33.69006752598794
 51
146.309932474012
  0
ARC
  5
279
330
2
100
AcDbEntity
  8
UMRISS05
100
AcDbCircle
 10
115.0295039454813
 20
356.5648067025992
 30
0.0
 40
0.3000000000000524
100
AcDbArc
 50
270.0000000000065
 51
326.309932474017
  0
ARC
  5
27A
330
2
100
AcDbEntity
  8
UMRISS05
100
AcDbCircle
 10
113.3506142005741
 20
356.5648067025992
 30
0.0
 40
0.299999999999976
100
AcDbArc
 50
213.6900675259771
 51
270.0000000000033
  0
ARC
  5
27B
330
2
100
AcDbEntity
  8
UMRISS05
100
AcDbCircle
 10
112.1900590730278
 20
357.2239740112796
 30
0.0
 40
0.3000000000000104
100
AcDbArc
 50
33.69006752598012
 51
146.309932474012
  0
ARC
  5
27C
330
2
100
AcDbEntity
  8
UMRISS05
100
AcDbCircle
 10
111.0295039454813
 20
356.5648067025992
 30
0.0
 40
0.300000000000045
100
AcDbArc
 50
270.0000000000065
 51
326.309932474017
  0
ARC
  5
27D
330
2
100
AcDbEntity
  8
UMRISS05
100
AcDbCircle
 10
109.3506142005741
 20
356.5648067025991
 30
0.0
 40
0.2999999999999583
100
AcDbArc
 50
213.6900675259771
 51
270.0000000000065
  0
ARC
  5
27E
330
2
100
AcDbEntity
  8
UMRISS05
100
AcDbCircle
 10
108.1900590730278
 20
357.2239740112796
 30
0.0
 40
0.3000000000000141
100
AcDbArc
 50
33.69006752598012
 51
146.309932474012
  0
ARC
  5
27F
330
2
100
AcDbEntity
  8
UMRISS05
100
AcDbCircle
 10
107.0295039454813
 20
356.5648067025992
 30
0.0
 40
0.3000000000000524
100
AcDbArc
 50
270.0000000000065
 51
326.309932474017
  0
ARC
  5
280
330
2
100
AcDbEntity
  8
UMRISS05
100
AcDbCircle
 10
105.3506142005741
 20
356.5648067025992
 30
0.0
 40
0.3000000000000116
100
AcDbArc
 50
213.690067525982
 51
270.0
  0
ARC
  5
281
330
2
100
AcDbEntity
  8
UMRISS05
100
AcDbCircle
 10
104.1900590730278
 20
357.2239740112796
 30
0.0
 40
0.3000000000000092
100
AcDbArc
 50
33.69006752598158
 51
146.3099324740115
  0
ARC
  5
282
330
2
100
AcDbEntity
  8
UMRISS05
100
AcDbCircle
 10
103.0295039454813
 20
356.5648067025993
 30
0.0
 40
0.3000000000000487
100
AcDbArc
 50
270.0000000000065
 51
326.309932474017
  0
LINE
  5
283
330
2
100
AcDbEntity
  8
UMRISS05
100
AcDbLine
 10
95.09005907302759
 20
419.2648067025993
 30
0.0
 11
95.09005907302753
 21
363.2648067025993
 31
0.0
  0
ARC
  5
284
330
2
100
AcDbEntity
  8
UMRISS05
100
AcDbCircle
 10
88.19005907302766
 20
355.2648067025992
 30
0.0
 40
0.9999999999999793
100
AcDbArc
 50
89.99999999999674
 51
180.0
  0
ARC
  5
285
330
2
100
AcDbEntity
  8
UMRISS05
100
AcDbCircle
 10
88.19005907302789
 20
427.2648067025992
 30
0.0
 40
1.000000000000001
100
AcDbArc
 50
180.0
 51
270.0
  0
ARC
  5
286
330
2
100
AcDbEntity
  8
UMRISS05
100
AcDbCircle
 10
80.69005907302761
 20
312.7648067025992
 30
0.0
 40
1.999999999999993
100
AcDbArc
 50
0.0
 51
90.0
  0
ARC
  5
287
330
2
100
AcDbEntity
  8
UMRISS05
100
AcDbCircle
 10
69.69005907302761
 20
312.7648067025992
 30
0.0
 40
1.999999999999994
100
AcDbArc
 50
90.0
 51
180.0
  0
ARC
  5
288
330
2
100
AcDbEntity
  8
UMRISS05
100
AcDbCircle
 10
69.6900590730275
 20
269.7648067025993
 30
0.0
 40
2.000000000000003
100
AcDbArc
 50
180.0
 51
270.0
  0
ARC
  5
289
330
2
100
AcDbEntity
  8
UMRISS05
100
AcDbCircle
 10
80.69005907302756
 20
269.7648067025993
 30
0.0
 40
1.999999999999994
100
AcDbArc
 50
270.0
 51
0.0
  0
LINE
  5
28A
330
2
100
AcDbEntity
  8
UMRISS05
100
AcDbLine
 10
69.69005907302761
 20
314.7648067025992
 30
0.0
 11
80.69005907302761
 21
314.7648067025992
 31
0.0
  0
LINE
  5
28B
330
2
100
AcDbEntity
  8
UMRISS05
100
AcDbLine
 10
67.69005907302755
 20
269.7648067025992
 30
0.0
 11
67.69005907302761
 21
312.7648067025992
 31
0.0
  0
LINE
  5
28C
330
2
100
AcDbEntity
  8
UMRISS05
100
AcDbLine
 10
80.6900590730275
 20
267.7648067025992
 30
0.0
 11
69.6900590730275
 21
267.7648067025993
 31
0.0
  0
LINE
  5
28D
330
2
100
AcDbEntity
  8
UMRISS05
100
AcDbLine
 10
82.6900590730276
 20
312.7648067025992
 30
0.0
 11
82.69005907302755
 21
269.7648067025992
 31
0.0
  0
LINE
  5
28E
330
2
100
AcDbEntity
  8
UMRISS05
100
AcDbLine
 10
90.69005907302756
 20
414.2648067025992
 30
0.0
 11
90.6900590730275
 21
394.3648067025991
 31
0.0
  0
ARC
  5
28F
330
2
100
AcDbEntity
  8
UMRISS05
100
AcDbCircle
 10
89.69005907302749
 20
414.2648067025992
 30
0.0
 40
1.000000000000005
100
AcDbArc
 50
0.0
 51
90.0
  0
LINE
  5
290
330
2
100
AcDbEntity
  8
UMRISS05
100
AcDbLine
 10
81.10427263540049
 20
415.2648067025991
 30
0.0
 11
89.69005907302749
 21
415.2648067025991
 31
0.0
  0
ARC
  5
291
330
2
100
AcDbEntity
  8
UMRISS05
100
AcDbCircle
 10
81.10427263540049
 20
414.2648067025991
 30
0.0
 40
1.000000000000009
100
AcDbArc
 50
90.0
 51
135.0000000000004
  0
LINE
  5
292
330
2
100
AcDbEntity
  8
UMRISS05
100
AcDbLine
 10
78.98295229184089
 20
413.5576999214126
 30
0.0
 11
80.39716585421393
 21
414.9719134837856
 31
0.0
  0
ARC
  5
293
330
2
100
AcDbEntity
  8
UMRISS05
100
AcDbCircle
 10
78.27584551065439
 20
414.2648067025992
 30
0.0
 40
1.000000000000001
100
AcDbArc
 50
270.0
 51
315.0000000000002
  0
LINE
  5
294
330
2
100
AcDbEntity
  8
UMRISS05
100
AcDbLine
 10
70.69005907302738
 20
413.2648067025992
 30
0.0
 11
78.27584551065439
 21
413.2648067025991
 31
0.0
  0
ARC
  5
295
330
2
100
AcDbEntity
  8
UMRISS05
100
AcDbCircle
 10
70.69005907302738
 20
412.2648067025992
 30
0.0
 40
1.000000000000005
100
AcDbArc
 50
90.0
 51
180.0
  0
LINE
  5
296
330
2
100
AcDbEntity
  8
UMRISS05
100
AcDbLine
 10
69.69005907302744
 20
370.2648067025992
 30
0.0
 11
69.69005907302744
 21
412.2648067025992
 31
0.0
  0
ARC
  5
297
330
2
100
AcDbEntity
  8
UMRISS05
100
AcDbCircle
 10
70.69005907302738
 20
370.2648067025993
 30
0.0
 40
0.9999999999999971
100
AcDbArc
 50
180.0
 51
270.0
  0
LINE
  5
298
330
2
100
AcDbEntity
  8
UMRISS05
100
AcDbLine
 10
78.27584551065439
 20
369.2648067025992
 30
0.0
 11
70.69005907302744
 21
369.2648067025993
 31
0.0
  0
ARC
  5
299
330
2
100
AcDbEntity
  8
UMRISS05
100
AcDbCircle
 10
78.27584551065427
 20
368.2648067025992
 30
0.0
 40
1.000000000000123
100
AcDbArc
 50
45.00000000000014
 51
89.99999999999674
  0
LINE
  5
29A
330
2
100
AcDbEntity
  8
UMRISS05
100
AcDbLine
 10
80.397165854214
 20
367.5576999214127
 30
0.0
 11
78.98295229184094
 21
368.9719134837858
 31
0.0
  0
ARC
  5
29B
330
2
100
AcDbEntity
  8
UMRISS05
100
AcDbCircle
 10
81.10427263540055
 20
368.2648067025992
 30
0.0
 40
1.000000000000014
100
AcDbArc
 50
224.9999999999994
 51
270.0
  0
LINE
  5
29C
330
2
100
AcDbEntity
  8
UMRISS05
100
AcDbLine
 10
89.69005907302744
 20
367.2648067025992
 30
0.0
 11
81.10427263540055
 21
367.2648067025992
 31
0.0
  0
ARC
  5
29D
330
2
100
AcDbEntity
  8
UMRISS05
100
AcDbCircle
 10
89.69005907302744
 20
368.2648067025992
 30
0.0
 40
0.9999999999999937
100
AcDbArc
 50
270.0
 51
0.0
  0
LINE
  5
29E
330
2
100
AcDbEntity
  8
UMRISS05
100
AcDbLine
 10
90.6900590730275
 20
388.1648067025991
 30
0.0
 11
90.69005907302743
 21
368.2648067025992
 31
0.0
  0
LINE
  5
29F
330
2
100
AcDbEntity
  8
UMRISS05
100
AcDbLine
 10
90.6900590730275
 20
394.3648067025991
 30
0.0
 11
91.69005907302773
 21
394.3648067025991
 31
0.0
  0
LINE
  5
2A0
330
2
100
AcDbEntity
  8
UMRISS05
100
AcDbLine
 10
91.69005907302773
 20
394.3648067025991
 30
0.0
 11
91.69005907302773
 21
388.1648067025991
 31
0.0
  0
LINE
  5
2A1
330
2
100
AcDbEntity
  8
UMRISS05
100
AcDbLine
 10
91.69005907302773
 20
388.1648067025991
 30
0.0
 11
90.6900590730275
 21
388.1648067025991
 31
0.0
  0
CIRCLE
  5
2A2
330
2
100
AcDbEntity
  8
UMRISS05
100
AcDbCircle
 10
75.1900590730275
 20
341.2648067025993
 30
0.0
 40
4.750000000000004
  0
CIRCLE
  5
2A3
330
2
100
AcDbEntity
  8
UMRISS05
100
AcDbCircle
 10
75.1900590730275
 20
341.2648067025993
 30
0.0
 40
3.500000000000002
  0
CIRCLE
  5
2A4
330
2
100
AcDbEntity
  8
UMRISS05
100
AcDbCircle
 10
75.69005907302789
 20
417.5148067025994
 30
0.0
 40
4.199999999999998
  0
CIRCLE
  5
2A5
330
2
100
AcDbEntity
  8
UMRISS05
100
AcDbCircle
 10
75.69005907302778
 20
365.0148067025993
 30
0.0
 40
4.2
  0
ARC
  5
2A6
330
2
100
AcDbEntity
  8
UMRISS05
100
AcDbCircle
 10
78.09005907302782
 20
406.7648067025992
 30
0.0
 40
4.000000000000008
100
AcDbArc
 50
0.0
 51
90.0
1001
GENIUS_GENOBJ-N-FIL_13
1002
{
1000
OWNER
1000
GEN
1002
}
1001
GENIUS_GENODEF_13
1002
{
1000
HIER
1070
     0
1002
}
1002
{
1000
MANEDIT
1070
     0
1002
}
1002
{
1000
NOSEL
1070
     0
1002
}
1002
{
1000
BEHIND
1070
     0
1002
}
1002
{
1000
OTHER
1070
     0
1002
}
1002
{
1000
REACTOR
1002
}
  0
LINE
  5
2A9
330
2
100
AcDbEntity
  8
UMRISS05
100
AcDbLine
 10
78.09005907302782
 20
410.7648067025992
 30
0.0
 11
74.69005907302784
 21
410.7648067025992
 31
0.0
  0
ARC
  5
2AA
330
2
100
AcDbEntity
  8
UMRISS05
100
AcDbCircle
 10
74.69005907302784
 20
406.7648067025992
 30
0.0
 40
4.000000000000006
100
AcDbArc
 50
90.0
 51
270.0
  0
LINE
  5
2AB
330
2
100
AcDbEntity
  8
UMRISS05
100
AcDbLine
 10
74.69005907302784
 20
402.7648067025991
 30
0.0
 11
78.09005907302782
 21
402.7648067025991
 31
0.0
  0
ARC
  5
2AC
330
2
100
AcDbEntity
  8
UMRISS05
100
AcDbCircle
 10
78.09005907302782
 20
406.7648067025992
 30
0.0
 40
4.000000000000008
100
AcDbArc
 50
270.0
 51
0.0
1001
GENIUS_GENODEF_13
1002
{
1000
HIER
1070
     0
1002
}
1002
{
1000
MANEDIT
1070
     0
1002
}
1002
{
1000
NOSEL
1070
     0
1002
}
1002
{
1000
BEHIND
1070
     0
1002
}
1002
{
1000
OTHER
1070
     0
1002
}
1002
{
1000
REACTOR
1002
}
1001
GENIUS_GENOBJ-N-FIL_13
1002
{
1000
OWNER
1000
GEN
1002
}
  0
ARC
  5
2AD
330
2
100
AcDbEntity
  8
UMRISS05
100
AcDbCircle
 10
78.09005907302775
 20
375.7648067025992
 30
0.0
 40
4.000000000000007
100
AcDbArc
 50
0.0
 51
90.0
  0
LINE
  5
2AE
330
2
100
AcDbEntity
  8
UMRISS05
100
AcDbLine
 10
78.09005907302775
 20
379.7648067025992
 30
0.0
 11
74.69005907302778
 21
379.7648067025992
 31
0.0
  0
ARC
  5
2AF
330
2
100
AcDbEntity
  8
UMRISS05
100
AcDbCircle
 10
74.69005907302778
 20
375.7648067025992
 30
0.0
 40
4.000000000000006
100
AcDbArc
 50
90.0
 51
270.0
  0
LINE
  5
2B0
330
2
100
AcDbEntity
  8
UMRISS05
100
AcDbLine
 10
74.69005907302778
 20
371.7648067025992
 30
0.0
 11
78.09005907302753
 21
371.764806702599
 31
0.0
  0
ARC
  5
2B1
330
2
100
AcDbEntity
  8
UMRISS05
100
AcDbCircle
 10
78.09005907302775
 20
375.7648067025992
 30
0.0
 40
4.000000000000008
100
AcDbArc
 50
269.9999999999968
 51
0.0
  0
LINE
  5
2B2
330
2
100
AcDbEntity
  8
UMRISS05
100
AcDbLine
 10
88.4900590730278
 20
368.3148067025992
 30
0.0
 11
88.49005907302785
 21
414.2148067025992
 31
0.0
  0
LINE
  5
2B3
330
2
100
AcDbEntity
  8
UMRISS05
100
AcDbLine
 10
82.09005907302787
 20
414.2148067025992
 30
0.0
 11
82.09005907302781
 21
368.3148067025992
 31
0.0
  0
LINE
  5
2B4
330
2
100
AcDbEntity
  8
UMRISS05
100
AcDbLine
 10
88.4900590730278
 20
368.3148067025992
 30
0.0
 11
79.64005907302748
 21
368.3148067025992
 31
0.0
  0
LINE
  5
2B5
330
2
100
AcDbEntity
  8
UMRISS05
100
AcDbLine
 10
79.64005907302743
 20
414.2148067025992
 30
0.0
 11
88.49005907302785
 21
414.2148067025992
 31
0.0
  0
LINE
  5
2B6
330
2
100
AcDbEntity
  8
UMRISS05
100
AcDbLine
 10
85.39005907302788
 20
368.3148067025991
 30
0.0
 11
85.39005907302788
 21
367.2648067025991
 31
0.0
  0
LINE
  5
2B7
330
2
100
AcDbEntity
  8
UMRISS05
100
AcDbLine
 10
85.39005907302794
 20
414.2148067025992
 30
0.0
 11
85.39005907302794
 21
415.2648067025991
 31
0.0
  0
ENDSEC
  0
SECTION
  2
OBJECTS
  0
DICTIONARY
  5
B
330
0
100
AcDbDictionary
281
     1
  3
ACAD_COLOR
350
4F
  3
ACAD_DETAILVIEWSTYLE
350
2DA
  3
ACAD_FIELDLIST
350
30E
  3
ACAD_GROUP
350
3C
  3
ACAD_LAYOUT
350
18
  3
ACAD_MATERIAL
350
D
  3
ACAD_MLEADERSTYLE
350
52
  3
ACAD_MLINESTYLE
350
3D
  3
ACAD_PLOTSETTINGS
350
3E
  3
ACAD_PLOTSTYLENAME
350
A
  3
ACAD_SCALELIST
350
50
  3
ACAD_SECTIONVIEWSTYLE
350
2E5
  3
ACAD_TABLESTYLE
350
51
  3
ACAD_VISUALSTYLE
350
30
  3
ACDB_RECOMPOSE_DATA
350
320
  3
AcDbVariableDictionary
350
312
  3
AcDsDecomposeData
350
326
  3
AcmDictionary
350
2CA
  3
AcmSystemVariableManager
350
33D
  3
AMG
350
2BA
  0
DICTIONARY
  5
20
330
1F
100
AcDbDictionary
280
     1
281
     1
  3
ACAD_LAYERFILTERS
360
21
  3
ACAD_LAYERSTATES
360
22
  3
ACLYDICTIONARY
360
23
  0
DICTIONARY
  5
7
330
6
100
AcDbDictionary
280
     1
281
     1
  3
ADSK_XREC_LAYER_RECONCILED
360
8
  0
DICTIONARY
  5
54
330
53
100
AcDbDictionary
280
     1
281
     1
  3
ADSK_XREC_LAYER_RECONCILED
360
55
  0
DICTIONARY
  5
11C
330
11B
100
AcDbDictionary
280
     1
281
     1
  3
ADSK_XREC_LAYER_RECONCILED
360
11D
  0
DICTIONARY
  5
A5
330
A4
100
AcDbDictionary
280
     1
281
     1
  3
ADSK_XREC_LAYER_RECONCILED
360
A6
  0
DICTIONARY
  5
13E
330
13D
100
AcDbDictionary
280
     1
281
     1
  3
ADSK_XREC_LAYER_RECONCILED
360
13F
  0
DICTIONARY
  5
3
330
2
100
AcDbDictionary
280
     1
281
     1
  3
ACAD_SORTENTS
360
2B8
  0
DICTIONARY
  5
336
330
F7
100
AcDbDictionary
280
     1
281
     1
  3
ACAD_MTEXT_RT
360
337
  0
DICTIONARY
  5
10A
330
109
100
AcDbDictionary
280
     1
281
     1
  3
ACMDIMBREAKPERSREACTOR
360
10B
  0
DICTIONARY
  5
4F
102
{ACAD_REACTORS
330
B
102
}
330
B
100
AcDbDictionary
281
     1
  0
DICTIONARY
  5
2DA
102
{ACAD_REACTORS
330
B
102
}
330
B
100
AcDbDictionary
281
     1
  3
Metric50
350
2E1
  0
FIELDLIST
  5
30E
102
{ACAD_REACTORS
330
B
102
}
330
B
100
AcDbIdSet
 90
        6
330
2DD
330
2DE
330
2DF
330
2E8
330
2E9
330
2EA
100
AcDbFieldList
  0
DICTIONARY
  5
3C
102
{ACAD_REACTORS
330
B
102
}
330
B
100
AcDbDictionary
281
     1
  0
DICTIONARY
  5
18
102
{ACAD_REACTORS
330
B
102
}
330
B
100
AcDbDictionary
281
     1
  3
Layout1
350
1E
  3
Model
350
17
  0
DICTIONARY
  5
D
102
{ACAD_REACTORS
330
B
102
}
330
B
100
AcDbDictionary
281
     1
  3
ByBlock
350
47
  3
ByLayer
350
3F
  3
Global
350
C
  0
DICTIONARY
  5
52
102
{ACAD_REACTORS
330
B
102
}
330
B
100
AcDbDictionary
281
     1
  0
DICTIONARY
  5
3D
102
{ACAD_REACTORS
330
B
102
}
330
B
100
AcDbDictionary
281
     1
  3
STANDARD
350
56
  0
DICTIONARY
  5
3E
102
{ACAD_REACTORS
330
B
102
}
330
B
100
AcDbDictionary
281
     1
  0
ACDBDICTIONARYWDFLT
  5
A
102
{ACAD_REACTORS
330
B
102
}
330
B
100
AcDbDictionary
281
     1
  3
Normal
350
9
100
AcDbDictionaryWithDefault
340
9
  0
DICTIONARY
  5
50
102
{ACAD_REACTORS
330
B
102
}
330
B
100
AcDbDictionary
281
     1
  3
A0
350
5B
  3
A1
350
5C
  3
A2
350
5D
  3
A3
350
5E
  3
A4
350
5F
  3
A5
350
60
  3
A6
350
61
  3
A7
350
62
  3
A8
350
63
  3
A9
350
64
  3
B0
350
65
  3
B1
350
66
  3
B2
350
67
  3
B3
350
68
  3
B4
350
69
  3
B5
350
6A
  3
B6
350
6B
  0
DICTIONARY
  5
2E5
102
{ACAD_REACTORS
330
B
102
}
330
B
100
AcDbDictionary
281
     1
  3
Metric50
350
2F0
  0
DICTIONARY
  5
51
102
{ACAD_REACTORS
330
B
102
}
330
B
100
AcDbDictionary
281
     1
  3
Standard
350
57
  0
DICTIONARY
  5
30
102
{ACAD_REACTORS
330
B
102
}
330
B
100
AcDbDictionary
281
     1
  3
2dWireframe
350
2F
  3
Realistic
350
59
  3
Wireframe
350
5A
  0
XRECORD
  5
320
102
{ACAD_REACTORS
330
B
102
}
330
B
100
AcDbXrecord
280
     1
 90
        1
330
57
  0
DICTIONARY
  5
312
102
{ACAD_REACTORS
330
B
102
}
330
B
100
AcDbDictionary
281
     1
  3
CANNOSCALE
350
317
  3
CMLEADERSTYLE
350
314
  3
CTABLESTYLE
350
313
  3
CVIEWDETAILSTYLE
350
315
  3
CVIEWSECTIONSTYLE
350
316
  3
DIMASSOC
350
31C
  3
HIDETEXT
350
31A
  3
INDEXCTL
350
319
  3
SOLIDHIST
350
31D
  3
SORTENTS
350
318
  3
XCLIPFRAME
350
31B
  0
DICTIONARY
  5
326
102
{ACAD_REACTORS
330
B
102
}
330
B
100
AcDbDictionary
281
     1
  3
AcDsRecords
350
328
  3
AcDsSchemas
350
327
1001
ACAD
1070
     2
  0
DICTIONARY
  5
2CA
102
{ACAD_REACTORS
330
B
102
}
330
B
100
AcDbDictionary
281
     1
  3
AcmStdDictionary
350
2CB
  0
DICTIONARY
  5
2BA
102
{ACAD_REACTORS
330
B
102
}
330
B
100
AcDbDictionary
281
     1
  3
AcMgSettings
350
2C4
  0
DICTIONARY
  5
21
102
{ACAD_REACTORS
330
20
102
}
330
20
100
AcDbDictionary
281
     1
  0
DICTIONARY
  5
22
102
{ACAD_REACTORS
330
20
102
}
330
20
100
AcDbDictionary
281
     1
  0
DICTIONARY
  5
23
102
{ACAD_REACTORS
330
20
102
}
330
20
100
AcDbDictionary
281
     1
1001
ACAD
1000
<All
  0
XRECORD
  5
8
102
{ACAD_REACTORS
330
7
102
}
330
7
100
AcDbXrecord
280
     1
290
     1
  0
XRECORD
  5
55
102
{ACAD_REACTORS
330
54
102
}
330
54
100
AcDbXrecord
280
     1
290
     1
  0
XRECORD
  5
11D
102
{ACAD_REACTORS
330
11C
102
}
330
11C
100
AcDbXrecord
280
     1
290
     1
  0
XRECORD
  5
A6
102
{ACAD_REACTORS
330
A5
102
}
330
A5
100
AcDbXrecord
280
     1
290
     1
  0
XRECORD
  5
13F
102
{ACAD_REACTORS
330
13E
102
}
330
13E
100
AcDbXrecord
280
     1
290
     1
  0
SORTENTSTABLE
  5
2B8
102
{ACAD_REACTORS
330
3
102
}
330
3
100
AcDbSortentsTable
330
2
331
296
  5
AE
331
292
  5
B2
331
28E
  5
B6
331
28A
  5
BA
331
21C
  5
210
331
257
  5
13C
331
218
  5
214
331
214
  5
218
331
253
  5
144
331
19A
  5
245
331
210
  5
21C
331
B5
  5
28F
331
12B
  5
25C
331
B1
  5
293
331
AD
  5
297
331
166
  5
249
331
A9
  5
29B
331
286
  5
BE
331
282
  5
C2
331
27E
  5
C6
331
27A
  5
CA
331
1D5
  5
23A
331
24F
  5
148
331
24B
  5
14C
331
247
  5
180
331
208
  5
223
331
204
  5
227
331
243
  5
1B4
331
200
  5
22B
331
D8
  5
26C
331
276
  5
CE
331
2B5
  5
81
331
272
  5
D2
331
2B1
  5
85
331
2AD
  5
89
331
26E
  5
D6
331
26A
  5
DA
331
2A9
  5
8D
331
23F
  5
1B8
331
1FC
  5
22D
331
23B
  5
1C8
331
237
  5
1F2
331
1F8
  5
231
331
1F4
  5
235
331
233
  5
1F6
331
1B9
  5
23E
331
95
  5
29F
331
D4
  5
270
331
14A
  5
24D
331
91
  5
2A3
331
D0
  5
274
331
CC
  5
278
331
146
  5
251
331
8D
  5
2A9
331
89
  5
2AD
331
C8
  5
27C
331
142
  5
255
331
266
  5
F6
331
2A5
  5
8F
331
262
  5
FA
331
2A1
  5
93
331
29D
  5
A3
331
25E
  5
11A
331
299
  5
AB
331
25A
  5
139
331
1B5
  5
242
331
22F
  5
1FA
331
22B
  5
200
331
227
  5
204
331
1E4
  5
239
331
223
  5
208
331
85
  5
2B1
331
C4
  5
280
331
FB
  5
261
331
13A
  5
259
331
81
  5
2B5
331
C0
  5
284
331
BC
  5
288
331
F7
  5
265
331
B8
  5
28C
331
295
  5
AF
331
291
  5
B3
331
28D
  5
B7
331
289
  5
BB
331
21F
  5
20D
331
21B
  5
211
331
217
  5
215
331
256
  5
141
331
213
  5
219
331
252
  5
145
331
B4
  5
290
331
B0
  5
294
331
AC
  5
298
331
A8
  5
29C
331
285
  5
BF
331
281
  5
C3
331
27D
  5
C7
331
279
  5
CB
331
20F
  5
21D
331
24E
  5
149
331
24A
  5
159
331
20B
  5
220
331
246
  5
18D
331
18D
  5
246
331
207
  5
224
331
1C8
  5
23B
331
203
  5
228
331
242
  5
1B5
331
E7
  5
269
331
11E
  5
25D
331
11A
  5
25E
331
159
  5
24A
331
275
  5
CF
331
2B4
  5
82
331
271
  5
D3
331
2B0
  5
86
331
2AC
  5
8A
331
26D
  5
D7
331
269
  5
E7
331
23E
  5
1B9
331
1FB
  5
22E
331
23A
  5
1D5
331
236
  5
1F3
331
1F7
  5
232
331
1B8
  5
23F
331
1F3
  5
236
331
232
  5
1F7
331
D7
  5
26D
331
94
  5
2A0
331
D3
  5
271
331
CF
  5
275
331
149
  5
24E
331
90
  5
2A4
331
CB
  5
279
331
145
  5
252
331
8C
  5
2AA
331
88
  5
2AE
331
141
  5
256
331
265
  5
F7
331
2A4
  5
90
331
261
  5
FB
331
2A0
  5
94
331
29C
  5
A8
331
25D
  5
11E
331
259
  5
13A
331
298
  5
AC
331
1B4
  5
243
331
22E
  5
1FB
331
22A
  5
201
331
226
  5
205
331
222
  5
209
331
C7
  5
27D
331
84
  5
2B2
331
C3
  5
281
331
FA
  5
262
331
139
  5
25A
331
80
  5
2B6
331
BF
  5
285
331
BB
  5
289
331
F6
  5
266
331
294
  5
B0
331
290
  5
B4
331
28C
  5
B8
331
288
  5
BC
331
21E
  5
20E
331
21A
  5
212
331
255
  5
142
331
212
  5
21A
331
251
  5
146
331
B7
  5
28D
331
B3
  5
291
331
AF
  5
295
331
AB
  5
299
331
284
  5
C0
331
280
  5
C4
331
27C
  5
C8
331
278
  5
CC
331
20E
  5
21E
331
24D
  5
14A
331
249
  5
166
331
20A
  5
221
331
206
  5
225
331
245
  5
19A
331
202
  5
229
331
241
  5
1B6
331
A3
  5
29D
331
6C
  5
2B7
331
DA
  5
26A
331
2B7
  5
6C
331
274
  5
D0
331
2B3
  5
83
331
270
  5
D4
331
2AF
  5
87
331
2AB
  5
8B
331
26C
  5
D8
331
268
  5
F4
331
23D
  5
1BA
331
239
  5
1E4
331
180
  5
247
331
1FA
  5
22F
331
235
  5
1F4
331
1BB
  5
23C
331
1F6
  5
233
331
1F2
  5
237
331
231
  5
1F8
331
D6
  5
26E
331
14C
  5
24B
331
93
  5
2A1
331
D2
  5
272
331
CE
  5
276
331
109
  5
25F
331
148
  5
24F
331
8F
  5
2A5
331
8B
  5
2AB
331
CA
  5
27A
331
144
  5
253
331
264
  5
F8
331
2A3
  5
91
331
260
  5
FC
331
29F
  5
95
331
29B
  5
A9
331
25C
  5
12B
331
258
  5
13B
331
1B7
  5
240
331
22D
  5
1FC
331
229
  5
202
331
225
  5
206
331
221
  5
20A
331
87
  5
2AF
331
C6
  5
27E
331
13C
  5
257
331
83
  5
2B3
331
C2
  5
282
331
BE
  5
286
331
F9
  5
263
331
138
  5
25B
331
BA
  5
28A
331
F5
  5
267
331
297
  5
AD
331
293
  5
B1
331
28F
  5
B5
331
28B
  5
B9
331
1A7
  5
244
331
21D
  5
20F
331
219
  5
213
331
215
  5
217
331
254
  5
143
331
211
  5
21B
331
250
  5
147
331
B6
  5
28E
331
B2
  5
292
331
AE
  5
296
331
AA
  5
29A
331
287
  5
BD
331
283
  5
C1
331
27F
  5
C5
331
27B
  5
C9
331
20D
  5
21F
331
24C
  5
14B
331
248
  5
173
331
209
  5
222
331
205
  5
226
331
244
  5
1A7
331
201
  5
22A
331
240
  5
1B7
331
D9
  5
26B
331
277
  5
CD
331
2B6
  5
80
331
273
  5
D1
331
2B2
  5
84
331
2AE
  5
88
331
26F
  5
D5
331
2AA
  5
8C
331
26B
  5
D9
331
1FD
  5
22C
331
23C
  5
1BB
331
238
  5
1E5
331
1F9
  5
230
331
1F5
  5
234
331
234
  5
1F5
331
1BA
  5
23D
331
230
  5
1F9
331
96
  5
29E
331
D5
  5
26F
331
14B
  5
24C
331
92
  5
2A2
331
D1
  5
273
331
CD
  5
277
331
147
  5
250
331
8E
  5
2A6
331
8A
  5
2AC
331
C9
  5
27B
331
143
  5
254
331
267
  5
F5
331
2A6
  5
8E
331
263
  5
F9
331
2A2
  5
92
331
25F
  5
109
331
29E
  5
96
331
29A
  5
AA
331
25B
  5
138
331
1B6
  5
241
331
173
  5
248
331
22C
  5
1FD
331
228
  5
203
331
224
  5
207
331
1E5
  5
238
331
220
  5
20B
331
86
  5
2B0
331
C5
  5
27F
331
13B
  5
258
331
82
  5
2B4
331
C1
  5
283
331
FC
  5
260
331
BD
  5
287
331
F8
  5
264
331
B9
  5
28B
331
F4
  5
268
  0
XRECORD
  5
337
102
{ACAD_REACTORS
330
336
102
}
330
336
100
AcDbXrecord
280
     1
 40
29448.0
  1
\A1;Drückerhöhe
  0
ACDBDETAILVIEWSTYLE
  5
2E1
102
{ACAD_XDICTIONARY
360
2E2
102
}
102
{ACAD_REACTORS
330
2DA
330
2E0
102
}
330
2DA
100
AcDbModelDocViewStyle
 70
     0
  3
Metric50
290
     0
100
AcDbDetailViewStyle
 70
     0
 71
     0
 90
        3
 71
     1
340
26
 40
5.0
340
0
 40
5.0
300

 40
0.0
280
     1
 71
     2
340
15
 90
       25
 71
     3
340
26
 40
5.0
 90
        0
 40
15.0
 90
        1
300
%<\AcVar ViewDetailId>% (%<\AcVar ViewScale \f "%sn">%)
 71
     4
340
15
 90
       25
340
15
 90
       25
280
     0
  0
LAYOUT
  5
1E
102
{ACAD_XDICTIONARY
360
32B
102
}
102
{ACAD_REACTORS
330
18
102
}
330
18
100
AcDbPlotSettings
  1

  2
\\mslklsv1\MSLKLP05
  4

  6

 40
0.0
 41
0.0
 42
0.0
 43
0.0
 44
0.0
 45
0.0
 46
0.0
 47
0.0
 48
0.0
 49
0.0
140
0.0
141
0.0
142
1.0
143
1.0
 70
   688
 72
     0
 73
     0
 74
     5
  7
Katalog 09.ctb
 75
    16
147
1.0
148
0.0
149
0.0
100
AcDbLayout
  1
Layout1
 70
     1
 71
     1
 10
0.0
 20
0.0
 11
12.0
 21
9.0
 12
0.0
 22
0.0
 32
0.0
 14
1.000000000000000E+20
 24
1.000000000000000E+20
 34
1.000000000000000E+20
 15
-1.000000000000000E+20
 25
-1.000000000000000E+20
 35
-1.000000000000000E+20
146
0.0
 13
0.0
 23
0.0
 33
0.0
 16
1.0
 26
0.0
 36
0.0
 17
0.0
 27
1.0
 37
0.0
 76
     0
330
1B
  0
LAYOUT
  5
17
102
{ACAD_XDICTIONARY
360
19
102
}
102
{ACAD_REACTORS
330
18
102
}
330
18
100
AcDbPlotSettings
  1

  2
\\mslklsv1\MSLKLP05
  4
A4
  6

 40
6.720416545867919
 41
6.720392704010009
 42
7.694076538085937
 43
4.011077880859375
 44
209.9733276367187
 45
296.9683227539062
 46
0.0
 47
0.0
 48
0.0
 49
0.0
140
0.0
141
0.0
142
1.0
143
2.49309260033622
 70
 11952
 72
     1
 73
     1
 74
     0
  7
Katalog 09.ctb
 75
     0
147
0.4011082459853835
148
235.6679059730945
149
-4.09529976950003
100
AcDbLayout
  1
Model
 70
     1
 71
     0
 10
0.0
 20
0.0
 11
12.0
 21
9.0
 12
0.0
 22
0.0
 32
0.0
 14
0.0
 24
0.0
 34
0.0
 15
0.0
 25
0.0
 35
0.0
146
0.0
 13
0.0
 23
0.0
 33
0.0
 16
1.0
 26
0.0
 36
0.0
 17
0.0
 27
1.0
 37
0.0
 76
     0
330
2
331
2E
1001
ACAD_PSEXT
1000
\\mslklsv1\MSLKLP05
1000
HP LaserJet 5000 Series PCL
1000
CAD
1000
HP LaserJet 5000N
1070
     0
  0
MATERIAL
  5
47
102
{ACAD_XDICTIONARY
360
48
102
}
102
{ACAD_REACTORS
330
D
102
}
330
D
100
AcDbMaterial
  1
ByBlock
 72
     0
 43
0.0008202099737533
 43
0.0
 43
0.0
 43
0.0
 43
0.0
 43
0.0008202099737533
 43
0.0
 43
0.0
 43
0.0
 43
0.0
 43
1.0
 43
0.0
 43
0.0
 43
0.0
 43
0.0
 43
1.0
 77
     0
 47
0.0008202099737533
 47
0.0
 47
0.0
 47
0.0
 47
0.0
 47
0.0008202099737533
 47
0.0
 47
0.0
 47
0.0
 47
0.0
 47
1.0
 47
0.0
 47
0.0
 47
0.0
 47
0.0
 47
1.0
171
     0
 49
0.0008202099737533
 49
0.0
 49
0.0
 49
0.0
 49
0.0
 49
0.0008202099737533
 49
0.0
 49
0.0
 49
0.0
 49
0.0
 49
1.0
 49
0.0
 49
0.0
 49
0.0
 49
0.0
 49
1.0
175
     0
142
0.0008202099737533
142
0.0
142
0.0
142
0.0
142
0.0
142
0.0008202099737533
142
0.0
142
0.0
142
0.0
142
0.0
142
1.0
142
0.0
142
0.0
142
0.0
142
0.0
142
1.0
179
     0
144
0.0008202099737533
144
0.0
144
0.0
144
0.0
144
0.0
144
0.0008202099737533
144
0.0
144
0.0
144
0.0
144
0.0
144
1.0
144
0.0
144
0.0
144
0.0
144
0.0
144
1.0
147
0.0008202099737533
147
0.0
147
0.0
147
0.0
147
0.0
147
0.0008202099737533
147
0.0
147
0.0
147
0.0
147
0.0
147
1.0
147
0.0
147
0.0
147
0.0
147
0.0
147
1.0
  0
MATERIAL
  5
3F
102
{ACAD_XDICTIONARY
360
40
102
}
102
{ACAD_REACTORS
330
D
102
}
330
D
100
AcDbMaterial
  1
ByLayer
 72
     0
 43
0.0008202099737533
 43
0.0
 43
0.0
 43
0.0
 43
0.0
 43
0.0008202099737533
 43
0.0
 43
0.0
 43
0.0
 43
0.0
 43
1.0
 43
0.0
 43
0.0
 43
0.0
 43
0.0
 43
1.0
 77
     0
 47
0.0008202099737533
 47
0.0
 47
0.0
 47
0.0
 47
0.0
 47
0.0008202099737533
 47
0.0
 47
0.0
 47
0.0
 47
0.0
 47
1.0
 47
0.0
 47
0.0
 47
0.0
 47
0.0
 47
1.0
171
     0
 49
0.0008202099737533
 49
0.0
 49
0.0
 49
0.0
 49
0.0
 49
0.0008202099737533
 49
0.0
 49
0.0
 49
0.0
 49
0.0
 49
1.0
 49
0.0
 49
0.0
 49
0.0
 49
0.0
 49
1.0
175
     0
142
0.0008202099737533
142
0.0
142
0.0
142
0.0
142
0.0
142
0.0008202099737533
142
0.0
142
0.0
142
0.0
142
0.0
142
1.0
142
0.0
142
0.0
142
0.0
142
0.0
142
1.0
179
     0
144
0.0008202099737533
144
0.0
144
0.0
144
0.0
144
0.0
144
0.0008202099737533
144
0.0
144
0.0
144
0.0
144
0.0
144
1.0
144
0.0
144
0.0
144
0.0
144
0.0
144
1.0
147
0.0008202099737533
147
0.0
147
0.0
147
0.0
147
0.0
147
0.0008202099737533
147
0.0
147
0.0
147
0.0
147
0.0
147
1.0
147
0.0
147
0.0
147
0.0
147
0.0
147
1.0
  0
MATERIAL
  5
C
102
{ACAD_XDICTIONARY
360
E
102
}
102
{ACAD_REACTORS
330
D
102
}
330
D
100
AcDbMaterial
  1
Global
 72
     0
 43
0.0008202099737533
 43
0.0
 43
0.0
 43
0.0
 43
0.0
 43
0.0008202099737533
 43
0.0
 43
0.0
 43
0.0
 43
0.0
 43
1.0
 43
0.0
 43
0.0
 43
0.0
 43
0.0
 43
1.0
 77
     0
 47
0.0008202099737533
 47
0.0
 47
0.0
 47
0.0
 47
0.0
 47
0.0008202099737533
 47
0.0
 47
0.0
 47
0.0
 47
0.0
 47
1.0
 47
0.0
 47
0.0
 47
0.0
 47
0.0
 47
1.0
171
     0
 49
0.0008202099737533
 49
0.0
 49
0.0
 49
0.0
 49
0.0
 49
0.0008202099737533
 49
0.0
 49
0.0
 49
0.0
 49
0.0
 49
1.0
 49
0.0
 49
0.0
 49
0.0
 49
0.0
 49
1.0
175
     0
142
0.0008202099737533
142
0.0
142
0.0
142
0.0
142
0.0
142
0.0008202099737533
142
0.0
142
0.0
142
0.0
142
0.0
142
1.0
142
0.0
142
0.0
142
0.0
142
0.0
142
1.0
179
     0
144
0.0008202099737533
144
0.0
144
0.0
144
0.0
144
0.0
144
0.0008202099737533
144
0.0
144
0.0
144
0.0
144
0.0
144
1.0
144
0.0
144
0.0
144
0.0
144
0.0
144
1.0
147
0.0008202099737533
147
0.0
147
0.0
147
0.0
147
0.0
147
0.0008202099737533
147
0.0
147
0.0
147
0.0
147
0.0
147
1.0
147
0.0
147
0.0
147
0.0
147
0.0
147
1.0
  0
MLINESTYLE
  5
56
102
{ACAD_REACTORS
330
3D
102
}
330
3D
100
AcDbMlineStyle
  2
STANDARD
 70
     0
  3

 62
     0
 51
90.0
 52
90.0
 71
     2
 49
0.5
 62
   256
  6
BYLAYER
 49
-0.5
 62
   256
  6
BYLAYER
  0
ACDBPLACEHOLDER
  5
9
102
{ACAD_REACTORS
330
A
102
}
330
A
  0
SCALE
  5
5B
102
{ACAD_REACTORS
330
50
102
}
330
50
100
AcDbScale
 70
     0
300
1:1
140
1.0
141
1.0
290
     1
  0
SCALE
  5
5C
102
{ACAD_REACTORS
330
50
102
}
330
50
100
AcDbScale
 70
     0
300
1:2
140
1.0
141
2.0
290
     0
  0
SCALE
  5
5D
102
{ACAD_REACTORS
330
50
102
}
330
50
100
AcDbScale
 70
     0
300
1:4
140
1.0
141
4.0
290
     0
  0
SCALE
  5
5E
102
{ACAD_REACTORS
330
50
102
}
330
50
100
AcDbScale
 70
     0
300
1:5
140
1.0
141
5.0
290
     0
  0
SCALE
  5
5F
102
{ACAD_REACTORS
330
50
102
}
330
50
100
AcDbScale
 70
     0
300
1:8
140
1.0
141
8.0
290
     0
  0
SCALE
  5
60
102
{ACAD_REACTORS
330
50
102
}
330
50
100
AcDbScale
 70
     0
300
1:10
140
1.0
141
10.0
290
     0
  0
SCALE
  5
61
102
{ACAD_REACTORS
330
50
102
}
330
50
100
AcDbScale
 70
     0
300
1:16
140
1.0
141
16.0
290
     0
  0
SCALE
  5
62
102
{ACAD_REACTORS
330
50
102
}
330
50
100
AcDbScale
 70
     0
300
1:20
140
1.0
141
20.0
290
     0
  0
SCALE
  5
63
102
{ACAD_REACTORS
330
50
102
}
330
50
100
AcDbScale
 70
     0
300
1:30
140
1.0
141
30.0
290
     0
  0
SCALE
  5
64
102
{ACAD_REACTORS
330
50
102
}
330
50
100
AcDbScale
 70
     0
300
1:40
140
1.0
141
40.0
290
     0
  0
SCALE
  5
65
102
{ACAD_REACTORS
330
50
102
}
330
50
100
AcDbScale
 70
     0
300
1:50
140
1.0
141
50.0
290
     0
  0
SCALE
  5
66
102
{ACAD_REACTORS
330
50
102
}
330
50
100
AcDbScale
 70
     0
300
1:100
140
1.0
141
100.0
290
     0
  0
SCALE
  5
67
102
{ACAD_REACTORS
330
50
102
}
330
50
100
AcDbScale
 70
     0
300
2:1
140
2.0
141
1.0
290
     0
  0
SCALE
  5
68
102
{ACAD_REACTORS
330
50
102
}
330
50
100
AcDbScale
 70
     0
300
4:1
140
4.0
141
1.0
290
     0
  0
SCALE
  5
69
102
{ACAD_REACTORS
330
50
102
}
330
50
100
AcDbScale
 70
     0
300
8:1
140
8.0
141
1.0
290
     0
  0
SCALE
  5
6A
102
{ACAD_REACTORS
330
50
102
}
330
50
100
AcDbScale
 70
     0
300
10:1
140
10.0
141
1.0
290
     0
  0
SCALE
  5
6B
102
{ACAD_REACTORS
330
50
102
}
330
50
100
AcDbScale
 70
     0
300
100:1
140
100.0
141
1.0
290
     0
  0
ACDBSECTIONVIEWSTYLE
  5
2F0
102
{ACAD_XDICTIONARY
360
2F1
102
}
102
{ACAD_REACTORS
330
2E5
330
2EF
102
}
330
2E5
100
AcDbModelDocViewStyle
 70
     0
  3
Metric50
290
     0
100
AcDbSectionViewStyle
 70
     0
 71
     0
 90
      102
 71
     1
340
26
 40
5.0
340
0
340
0
 40
5.0
300
I, O, Q, S, X, Z
 40
10.0
 90
        0
 40
2.5
 90
        0
 71
     2
340
15
 90
       25
340
15
 90
       50
 40
5.0
 40
2.5
 40
5.0
 71
     3
340
26
 40
5.0
 90
        0
 40
15.0
 90
        1
300
%<\AcVar ViewSectionStartId>%-%<\AcVar ViewSectionEndId>% (%<\AcVar ViewScale \f "%sn">%)
 71
     4
300
ANSI31
 40
1.0
 90
        0
290
     0
290
     0
 90
        6
 40
0.0
 40
1.570796326794896
 40
0.2617993877991494
 40
1.308996938995747
 40
-0.2617993877991494
 40
1.832595714594046
  0
TABLESTYLE
  5
57
102
{ACAD_XDICTIONARY
360
58
102
}
102
{ACAD_REACTORS
330
51
102
}
330
51
100
AcDbTableStyle
  3
Standard
 70
     0
 71
     0
 40
0.06
 41
0.06
280
     0
281
     0
  7
STANDARD
140
0.18
170
     2
 62
     0
 63
     7
283
     0
274
    -2
284
     1
 64
     0
275
    -2
285
     1
 65
     0
276
    -2
286
     1
 66
     0
277
    -2
287
     1
 67
     0
278
    -2
288
     1
 68
     0
279
    -2
289
     1
 69
     0
  7
STANDARD
140
0.25
170
     5
 62
     0
 63
     7
283
     0
274
    -2
284
     1
 64
     0
275
    -2
285
     1
 65
     0
276
    -2
286
     1
 66
     0
277
    -2
287
     1
 67
     0
278
    -2
288
     1
 68
     0
279
    -2
289
     1
 69
     0
  7
STANDARD
140
0.18
170
     5
 62
     0
 63
     7
283
     0
274
    -2
284
     1
 64
     0
275
    -2
285
     1
 65
     0
276
    -2
286
     1
 66
     0
277
    -2
287
     1
 67
     0
278
    -2
288
     1
 68
     0
279
    -2
289
     1
 69
     0
  0
VISUALSTYLE
  5
2F
102
{ACAD_XDICTIONARY
360
32D
102
}
102
{ACAD_REACTORS
330
30
102
}
330
30
100
AcDbVisualStyle
  2
2dWireframe
 70
     4
 71
     0
 72
     2
 73
     0
 90
        0
 40
-0.6
 41
-30.0
 62
     5
 63
     7
 74
     1
 91
        4
 64
     7
 65
   257
 75
     1
175
     1
 42
1.0
 92
        0
 66
   257
 43
1.0
 76
     1
 77
     6
 78
     2
 67
     7
 79
     5
170
     0
171
     0
290
     0
174
     0
 93
        1
 44
0.0
173
     0
291
     0
 45
0.0
1001
ACAD
1000
AcDbSavedByObjectVersion
1070
     0
  0
VISUALSTYLE
  5
59
102
{ACAD_XDICTIONARY
360
332
102
}
102
{ACAD_REACTORS
330
30
102
}
330
30
100
AcDbVisualStyle
  2
Realistic
 70
     8
 71
     2
 72
     2
 73
     0
 90
        0
 40
-0.6
 41
-30.0
 62
     5
 63
     7
 74
     1
 91
        0
 64
     7
 65
   257
 75
     1
175
     1
 42
1.0
 92
        8
 66
     8
 43
1.0
 76
     1
 77
     6
 78
     2
 67
     7
 79
     5
170
     0
171
     0
290
     0
174
     0
 93
       13
 44
0.0
173
     0
291
     0
 45
0.0
1001
ACAD
1000
AcDbSavedByObjectVersion
1070
     0
  0
VISUALSTYLE
  5
5A
102
{ACAD_XDICTIONARY
360
334
102
}
102
{ACAD_REACTORS
330
30
102
}
330
30
100
AcDbVisualStyle
  2
Wireframe
 70
     5
 71
     0
 72
     2
 73
     0
 90
        0
 40
-0.6
 41
-30.0
 62
     5
 63
     7
 74
     1
 91
        4
 64
     7
 65
   257
 75
     1
175
     1
 42
1.0
 92
        0
 66
   257
 43
1.0
 76
     1
 77
     6
 78
     2
 67
     7
 79
     3
170
     0
171
     0
290
     0
174
     0
 93
        1
 44
0.0
173
     0
291
     0
 45
0.0
1001
ACAD
1000
AcDbSavedByObjectVersion
1070
     0
  0
DICTIONARYVAR
  5
317
102
{ACAD_REACTORS
330
312
102
}
330
312
100
DictionaryVariables
280
     0
  1
1:1
  0
DICTIONARYVAR
  5
314
102
{ACAD_REACTORS
330
312
102
}
330
312
100
DictionaryVariables
280
     0
  1
STANDARD
  0
DICTIONARYVAR
  5
313
102
{ACAD_REACTORS
330
312
102
}
330
312
100
DictionaryVariables
280
     0
  1
STANDARD
  0
DICTIONARYVAR
  5
315
102
{ACAD_REACTORS
330
312
102
}
330
312
100
DictionaryVariables
280
     0
  1

  0
DICTIONARYVAR
  5
316
102
{ACAD_REACTORS
330
312
102
}
330
312
100
DictionaryVariables
280
     0
  1

  0
DICTIONARYVAR
  5
31C
102
{ACAD_REACTORS
330
312
102
}
330
312
100
DictionaryVariables
280
     0
  1
1
  0
DICTIONARYVAR
  5
31A
102
{ACAD_REACTORS
330
312
102
}
330
312
100
DictionaryVariables
280
     0
  1
1
  0
DICTIONARYVAR
  5
319
102
{ACAD_REACTORS
330
312
102
}
330
312
100
DictionaryVariables
280
     0
  1
0
  0
DICTIONARYVAR
  5
31D
102
{ACAD_REACTORS
330
312
102
}
330
312
100
DictionaryVariables
280
     0
  1
1
  0
DICTIONARYVAR
  5
318
102
{ACAD_REACTORS
330
312
102
}
330
312
100
DictionaryVariables
280
     0
  1
127
  0
DICTIONARYVAR
  5
31B
102
{ACAD_REACTORS
330
312
102
}
330
312
100
DictionaryVariables
280
     0
  1
0
  0
DICTIONARY
  5
328
102
{ACAD_REACTORS
330
326
102
}
330
326
100
AcDbDictionary
281
     1
  0
DICTIONARY
  5
327
102
{ACAD_REACTORS
330
326
102
}
330
326
100
AcDbDictionary
281
     1
  3
8796079418640
350
321
  3
8796079418656
350
322
  3
8796079418672
350
323
  3
8796079418688
350
324
  3
8796079418704
350
325
  0
DICTIONARY
  5
2CB
102
{ACAD_REACTORS
330
2CA
102
}
330
2CA
100
AcDbDictionary
281
     1
  0
DICTIONARY
  5
2C4
102
{ACAD_REACTORS
330
2BA
102
}
330
2BA
100
AcDbDictionary
281
     1
  3
DWGSETTINGS
350
2C3
  3
TRANSSETTINGS
350
2C5
  0
DICTIONARY
  5
2E2
330
2E1
100
AcDbDictionary
280
     1
281
     1
  3
ACAD_XREC_ROUNDTRIP
360
338
  0
DICTIONARY
  5
32B
330
1E
100
AcDbDictionary
280
     1
281
     1
  3
ACAD_XREC_ROUNDTRIP
360
32C
  0
DICTIONARY
  5
19
330
17
100
AcDbDictionary
280
     1
281
     1
  3
ACAD_XREC_ROUNDTRIP
360
32A
  0
DICTIONARY
  5
48
330
47
100
AcDbDictionary
280
     1
281
     1
  3
ACAD_XREC_ROUNDTRIP
360
330
  3
BUMPTILE
360
49
  3
DIFFUSETILE
360
4A
  3
OPACITYTILE
360
4B
  3
REFLECTIONTILE
360
4C
  3
REFRACTIONTILE
360
4D
  3
SPECULARTILE
360
4E
  0
DICTIONARY
  5
40
330
3F
100
AcDbDictionary
280
     1
281
     1
  3
ACAD_XREC_ROUNDTRIP
360
32F
  3
BUMPTILE
360
41
  3
DIFFUSETILE
360
42
  3
OPACITYTILE
360
43
  3
REFLECTIONTILE
360
44
  3
REFRACTIONTILE
360
45
  3
SPECULARTILE
360
46
  0
DICTIONARY
  5
E
330
C
100
AcDbDictionary
280
     1
281
     1
  3
ACAD_XREC_ROUNDTRIP
360
329
  3
BUMPTILE
360
F
  3
DIFFUSETILE
360
10
  3
OPACITYTILE
360
11
  3
REFLECTIONTILE
360
12
  3
REFRACTIONTILE
360
13
  3
SPECULARTILE
360
14
  0
DICTIONARY
  5
2F1
330
2F0
100
AcDbDictionary
280
     1
281
     1
  3
ACAD_XREC_ROUNDTRIP
360
339
  0
DICTIONARY
  5
58
330
57
100
AcDbDictionary
280
     1
281
     1
  3
ACAD_ROUNDTRIP_2008_TABLESTYLE_CELLSTYLEMAP
360
31E
  3
ACAD_XREC_ROUNDTRIP
360
331
  0
DICTIONARY
  5
32D
330
2F
100
AcDbDictionary
280
     1
281
     1
  3
ACAD_XREC_ROUNDTRIP
360
32E
  0
DICTIONARY
  5
332
330
59
100
AcDbDictionary
280
     1
281
     1
  3
ACAD_XREC_ROUNDTRIP
360
333
  0
DICTIONARY
  5
334
330
5A
100
AcDbDictionary
280
     1
281
     1
  3
ACAD_XREC_ROUNDTRIP
360
335
  0
XRECORD
  5
321
102
{ACAD_REACTORS
330
327
102
}
330
327
100
AcDbXrecord
280
     1
  1
AcDb_Thumbnail_Schema
102
{ATTRRECORD
341
322
  2
AcDbDs::TreatedAsObjectData
280
     1
291
     1
102
ATTRRECORD}
102
{ATTRRECORD
341
323
  2
AcDbDs::Legacy
280
     1
291
     1
102
ATTRRECORD}
  2
AcDbDs::ID
280
    10
 91
        8
102
{ATTRRECORD
341
324
  2
AcDs:Indexable
280
     1
291
     1
102
ATTRRECORD}
102
{ATTRRECORD
341
325
  2
AcDbDs::HandleAttribute
280
     7
282
     1
102
ATTRRECORD}
  2
Thumbnail_Data
280
    15
 91
        0
  0
XRECORD
  5
322
102
{ACAD_REACTORS
330
327
102
}
330
327
100
AcDbXrecord
280
     1
  1
AcDbDs::TreatedAsObjectDataSchema
  2
AcDbDs::TreatedAsObjectData
280
     1
 91
        0
  0
XRECORD
  5
323
102
{ACAD_REACTORS
330
327
102
}
330
327
100
AcDbXrecord
280
     1
  1
AcDbDs::LegacySchema
  2
AcDbDs::Legacy
280
     1
 91
        0
  0
XRECORD
  5
324
102
{ACAD_REACTORS
330
327
102
}
330
327
100
AcDbXrecord
280
     1
  1
AcDbDs::IndexedPropertySchema
  2
AcDs:Indexable
280
     1
 91
        0
  0
XRECORD
  5
325
102
{ACAD_REACTORS
330
327
102
}
330
327
100
AcDbXrecord
280
     1
  1
AcDbDs::HandleAttributeSchema
  2
AcDbDs::HandleAttribute
280
     7
 91
        1
284
     1
  0
XRECORD
  5
338
102
{ACAD_REACTORS
330
2E2
102
}
330
2E2
100
AcDbXrecord
280
     1
102
DISPLAYNAME
  1
Metric50
102
FLAGS
 90
        0
  0
XRECORD
  5
32C
102
{ACAD_REACTORS
330
32B
102
}
330
32B
100
AcDbXrecord
280
     1
102
SHADEPLOT
 70
     0
102
SHADEPLOTRESLEVEL
 70
     2
102
SHADEPLOTCUSTOMDPI
 70
   300
  0
XRECORD
  5
32A
102
{ACAD_REACTORS
330
19
102
}
330
19
100
AcDbXrecord
280
     1
102
SHADEPLOT
 70
     0
102
SHADEPLOTRESLEVEL
 70
     2
102
SHADEPLOTCUSTOMDPI
 70
   300
  0
XRECORD
  5
330
102
{ACAD_REACTORS
330
48
102
}
330
48
100
AcDbXrecord
280
     1
102
MATERIAL
148
0.0
149
0.0
149
0.0
 93
        0
 94
      127
282
     0
 72
     0
 77
     0
171
     0
175
     0
179
     0
273
     0
  0
XRECORD
  5
49
102
{ACAD_REACTORS
330
48
102
}
330
48
100
AcDbXrecord
280
     1
270
     1
271
     1
  0
XRECORD
  5
4A
102
{ACAD_REACTORS
330
48
102
}
330
48
100
AcDbXrecord
280
     1
270
     1
271
     1
  0
XRECORD
  5
4B
102
{ACAD_REACTORS
330
48
102
}
330
48
100
AcDbXrecord
280
     1
270
     1
271
     1
  0
XRECORD
  5
4C
102
{ACAD_REACTORS
330
48
102
}
330
48
100
AcDbXrecord
280
     1
270
     1
271
     1
  0
XRECORD
  5
4D
102
{ACAD_REACTORS
330
48
102
}
330
48
100
AcDbXrecord
280
     1
270
     1
271
     1
  0
XRECORD
  5
4E
102
{ACAD_REACTORS
330
48
102
}
330
48
100
AcDbXrecord
280
     1
270
     1
271
     1
  0
XRECORD
  5
32F
102
{ACAD_REACTORS
330
40
102
}
330
40
100
AcDbXrecord
280
     1
102
MATERIAL
148
0.0
149
0.0
149
0.0
 93
        0
 94
      127
282
     0
 72
     0
 77
     0
171
     0
175
     0
179
     0
273
     0
  0
XRECORD
  5
41
102
{ACAD_REACTORS
330
40
102
}
330
40
100
AcDbXrecord
280
     1
270
     1
271
     1
  0
XRECORD
  5
42
102
{ACAD_REACTORS
330
40
102
}
330
40
100
AcDbXrecord
280
     1
270
     1
271
     1
  0
XRECORD
  5
43
102
{ACAD_REACTORS
330
40
102
}
330
40
100
AcDbXrecord
280
     1
270
     1
271
     1
  0
XRECORD
  5
44
102
{ACAD_REACTORS
330
40
102
}
330
40
100
AcDbXrecord
280
     1
270
     1
271
     1
  0
XRECORD
  5
45
102
{ACAD_REACTORS
330
40
102
}
330
40
100
AcDbXrecord
280
     1
270
     1
271
     1
  0
XRECORD
  5
46
102
{ACAD_REACTORS
330
40
102
}
330
40
100
AcDbXrecord
280
     1
270
     1
271
     1
  0
XRECORD
  5
329
102
{ACAD_REACTORS
330
E
102
}
330
E
100
AcDbXrecord
280
     1
102
MATERIAL
148
0.0
149
0.0
149
0.0
 93
        0
 94
      127
282
     0
 72
     0
 77
     0
171
     0
175
     0
179
     0
273
     0
  0
XRECORD
  5
F
102
{ACAD_REACTORS
330
E
102
}
330
E
100
AcDbXrecord
280
     1
270
     1
271
     1
  0
XRECORD
  5
10
102
{ACAD_REACTORS
330
E
102
}
330
E
100
AcDbXrecord
280
     1
270
     1
271
     1
  0
XRECORD
  5
11
102
{ACAD_REACTORS
330
E
102
}
330
E
100
AcDbXrecord
280
     1
270
     1
271
     1
  0
XRECORD
  5
12
102
{ACAD_REACTORS
330
E
102
}
330
E
100
AcDbXrecord
280
     1
270
     1
271
     1
  0
XRECORD
  5
13
102
{ACAD_REACTORS
330
E
102
}
330
E
100
AcDbXrecord
280
     1
270
     1
271
     1
  0
XRECORD
  5
14
102
{ACAD_REACTORS
330
E
102
}
330
E
100
AcDbXrecord
280
     1
270
     1
271
     1
  0
XRECORD
  5
339
102
{ACAD_REACTORS
330
2F1
102
}
330
2F1
100
AcDbXrecord
280
     1
102
DISPLAYNAME
  1
Metric50
102
FLAGS
 90
        0
  0
CELLSTYLEMAP
  5
31E
102
{ACAD_REACTORS
330
58
102
}
330
58
100
AcDbCellStyleMap
 90
        3
300
CELLSTYLE
  1
TABLEFORMAT_BEGIN
 90
        5
170
     1
 91
        0
 92
    32768
 62
   257
 93
        1
300
CONTENTFORMAT
  1
CONTENTFORMAT_BEGIN
 90
        0
 91
        0
 92
        4
 93
        0
300

 40
0.0
140
1.0
 94
        5
 62
     0
340
26
144
0.25
309
CONTENTFORMAT_END
171
     0
 94
        6
 95
        1
302
GRIDFORMAT
  1
GRIDFORMAT_BEGIN
 90
        0
 91
        1
 62
     0
 92
       -2
340
0
 93
        0
 40
0.045
309
GRIDFORMAT_END
 95
        2
302
GRIDFORMAT
  1
GRIDFORMAT_BEGIN
 90
        0
 91
        1
 62
     0
 92
       -2
340
0
 93
        0
 40
0.045
309
GRIDFORMAT_END
 95
        4
302
GRIDFORMAT
  1
GRIDFORMAT_BEGIN
 90
        0
 91
        1
 62
     0
 92
       -2
340
0
 93
        0
 40
0.045
309
GRIDFORMAT_END
 95
        8
302
GRIDFORMAT
  1
GRIDFORMAT_BEGIN
 90
        0
 91
        1
 62
     0
 92
       -2
340
0
 93
        0
 40
0.045
309
GRIDFORMAT_END
 95
       16
302
GRIDFORMAT
  1
GRIDFORMAT_BEGIN
 90
        0
 91
        1
 62
     0
 92
       -2
340
0
 93
        0
 40
0.045
309
GRIDFORMAT_END
 95
       32
302
GRIDFORMAT
  1
GRIDFORMAT_BEGIN
 90
        0
 91
        1
 62
     0
 92
       -2
340
0
 93
        0
 40
0.045
309
GRIDFORMAT_END
309
TABLEFORMAT_END
  1
CELLSTYLE_BEGIN
 90
        1
 91
        1
300
_TITLE
309
CELLSTYLE_END
300
CELLSTYLE
  1
TABLEFORMAT_BEGIN
 90
        5
170
     1
 91
        0
 92
        0
 62
   257
 93
        1
300
CONTENTFORMAT
  1
CONTENTFORMAT_BEGIN
 90
        0
 91
        0
 92
        4
 93
        0
300

 40
0.0
140
1.0
 94
        5
 62
     0
340
26
144
0.18
309
CONTENTFORMAT_END
171
     0
 94
        6
 95
        1
302
GRIDFORMAT
  1
GRIDFORMAT_BEGIN
 90
        0
 91
        1
 62
     0
 92
       -2
340
0
 93
        0
 40
0.045
309
GRIDFORMAT_END
 95
        2
302
GRIDFORMAT
  1
GRIDFORMAT_BEGIN
 90
        0
 91
        1
 62
     0
 92
       -2
340
0
 93
        0
 40
0.045
309
GRIDFORMAT_END
 95
        4
302
GRIDFORMAT
  1
GRIDFORMAT_BEGIN
 90
        0
 91
        1
 62
     0
 92
       -2
340
0
 93
        0
 40
0.045
309
GRIDFORMAT_END
 95
        8
302
GRIDFORMAT
  1
GRIDFORMAT_BEGIN
 90
        0
 91
        1
 62
     0
 92
       -2
340
0
 93
        0
 40
0.045
309
GRIDFORMAT_END
 95
       16
302
GRIDFORMAT
  1
GRIDFORMAT_BEGIN
 90
        0
 91
        1
 62
     0
 92
       -2
340
0
 93
        0
 40
0.045
309
GRIDFORMAT_END
 95
       32
302
GRIDFORMAT
  1
GRIDFORMAT_BEGIN
 90
        0
 91
        1
 62
     0
 92
       -2
340
0
 93
        0
 40
0.045
309
GRIDFORMAT_END
309
TABLEFORMAT_END
  1
CELLSTYLE_BEGIN
 90
        2
 91
        1
300
_HEADER
309
CELLSTYLE_END
300
CELLSTYLE
  1
TABLEFORMAT_BEGIN
 90
        5
170
     1
 91
        0
 92
        0
 62
   257
 93
        1
300
CONTENTFORMAT
  1
CONTENTFORMAT_BEGIN
 90
        0
 91
        0
 92
        4
 93
        0
300

 40
0.0
140
1.0
 94
        2
 62
     0
340
26
144
0.18
309
CONTENTFORMAT_END
171
     0
 94
        6
 95
        1
302
GRIDFORMAT
  1
GRIDFORMAT_BEGIN
 90
        0
 91
        1
 62
     0
 92
       -2
340
0
 93
        0
 40
0.045
309
GRIDFORMAT_END
 95
        2
302
GRIDFORMAT
  1
GRIDFORMAT_BEGIN
 90
        0
 91
        1
 62
     0
 92
       -2
340
0
 93
        0
 40
0.045
309
GRIDFORMAT_END
 95
        4
302
GRIDFORMAT
  1
GRIDFORMAT_BEGIN
 90
        0
 91
        1
 62
     0
 92
       -2
340
0
 93
        0
 40
0.045
309
GRIDFORMAT_END
 95
        8
302
GRIDFORMAT
  1
GRIDFORMAT_BEGIN
 90
        0
 91
        1
 62
     0
 92
       -2
340
0
 93
        0
 40
0.045
309
GRIDFORMAT_END
 95
       16
302
GRIDFORMAT
  1
GRIDFORMAT_BEGIN
 90
        0
 91
        1
 62
     0
 92
       -2
340
0
 93
        0
 40
0.045
309
GRIDFORMAT_END
 95
       32
302
GRIDFORMAT
  1
GRIDFORMAT_BEGIN
 90
        0
 91
        1
 62
     0
 92
       -2
340
0
 93
        0
 40
0.045
309
GRIDFORMAT_END
309
TABLEFORMAT_END
  1
CELLSTYLE_BEGIN
 90
        3
 91
        2
300
_DATA
309
CELLSTYLE_END
  0
XRECORD
  5
331
102
{ACAD_REACTORS
330
58
102
}
330
58
100
AcDbXrecord
280
     1
102
ACAD_ROUNDTRIP_PRE2007_TABLESTYLE
 90
        4
 91
        0
  1

 92
        4
 93
        0
  2

 94
        4
 95
        0
  3

  0
XRECORD
  5
32E
102
{ACAD_REACTORS
330
32D
102
}
330
32D
100
AcDbXrecord
280
     1
102
RTVSPost2010Prop28
280
     1
102
RTVSPost2010PropOp28
 70
     1
102
RTVSPost2010Prop29
280
     1
102
RTVSPost2010PropOp29
 70
     1
102
RTVSPost2010Prop30
280
     0
102
RTVSPost2010PropOp30
 70
     1
102
RTVSPost2010Prop31
280
     0
102
RTVSPost2010PropOp31
 70
     1
102
RTVSPost2010Prop32
280
     0
102
RTVSPost2010PropOp32
 70
     1
102
RTVSPost2010Prop33
280
     0
102
RTVSPost2010PropOp33
 70
     1
102
RTVSPost2010Prop34
280
     0
102
RTVSPost2010PropOp34
 70
     1
102
RTVSPost2010Prop35
280
     0
102
RTVSPost2010PropOp35
 70
     1
102
RTVSPost2010Prop36
280
     0
102
RTVSPost2010PropOp36
 70
     1
102
RTVSPost2010Prop37
 90
       50
102
RTVSPost2010PropOp37
 70
     1
102
RTVSPost2010Prop38
140
0.0
102
RTVSPost2010PropOp38
 70
     1
102
RTVSPost2010Prop39
140
1.0
102
RTVSPost2010PropOp39
 70
     1
102
RTVSPost2010Prop40
 90
        0
102
RTVSPost2010PropOp40
 70
     1
102
RTVSPost2010Prop41ColorIndex
 90
       18
102
RTVSPost2010Prop41ColorRGB
 90
        0
102
RTVSPost2010PropOp41
 70
     1
102
RTVSPost2010Prop42
 90
       50
102
RTVSPost2010PropOp42
 70
     1
102
RTVSPost2010Prop43
 90
        3
102
RTVSPost2010PropOp43
 70
     1
102
RTVSPost2010Prop44ColorIndex
 90
        5
102
RTVSPost2010Prop44ColorRGB
 90
      255
102
RTVSPost2010PropOp44
 70
     1
102
RTVSPost2010Prop45
280
     0
102
RTVSPost2010PropOp45
 70
     1
102
RTVSPost2010Prop46
 90
       50
102
RTVSPost2010PropOp46
 70
     1
102
RTVSPost2010Prop47
 90
       50
102
RTVSPost2010PropOp47
 70
     1
102
RTVSPost2010Prop48
 90
       50
102
RTVSPost2010PropOp48
 70
     1
102
RTVSPost2010Prop49
280
     0
102
RTVSPost2010PropOp49
 70
     1
102
RTVSPost2010Prop50
 90
       50
102
RTVSPost2010PropOp50
 70
     1
102
RTVSPost2010Prop51ColorIndex
 90
      256
102
RTVSPost2010Prop51ColorRGB
 90
-16777216
102
RTVSPost2010PropOp51
 70
     0
102
RTVSPost2010Prop52
140
1.0
102
RTVSPost2010PropOp52
 70
     0
102
RTVSPost2010Prop53
 90
        2
102
RTVSPost2010PropOp53
 70
     1
102
RTVSPost2010Prop54
  1
strokes_ogs.tif
102
RTVSPost2010PropOp54
 70
     1
102
RTVSPost2010Prop55
280
     0
102
RTVSPost2010PropOp55
 70
     1
102
RTVSPost2010Prop56
140
1.0
102
RTVSPost2010PropOp56
 70
     1
102
RTVSPost2010Prop57
140
1.0
102
RTVSPost2010PropOp57
 70
     1
102
RTVSPropertyOp0
 70
     1
102
RTVSPropertyOp1
 70
     1
102
RTVSPropertyOp2
 70
     1
102
RTVSPropertyOp3
 70
     1
102
RTVSPropertyOp4
 70
     1
102
RTVSPropertyOp5
 70
     1
102
RTVSPropertyOp6
 70
     1
102
RTVSPropertyOp7
 70
     1
102
RTVSPropertyOp8
 70
     1
102
RTVSPropertyOp9
 70
     1
102
RTVSPropertyOp10
 70
     1
102
RTVSPropertyOp11
 70
     1
102
RTVSPropertyOp12
 70
     1
102
RTVSPropertyOp13
 70
     1
102
RTVSPropertyOp14
 70
     1
102
RTVSPropertyOp15
 70
     1
102
RTVSPropertyOp16
 70
     1
102
RTVSPropertyOp17
 70
     1
102
RTVSPropertyOp18
 70
     1
102
RTVSPropertyOp19
 70
     1
102
RTVSPropertyOp20
 70
     1
102
RTVSPropertyOp21
 70
     1
102
RTVSPropertyOp22
 70
     1
102
RTVSPropertyOp23
 70
     1
102
RTVSPropertyOp24
 70
     1
102
RTVSPropertyOp25
 70
     1
102
RTVSPropertyOp26
 70
     1
102
RTVSPropertyOp27
 70
     1
102
RTVSPropertyOp28
 70
     1
102
RTVSPropertyOp29
 70
     1
102
RTVSPropertyOp30
 70
     1
102
RTVSPropertyOp31
 70
     1
102
RTVSPropertyOp32
 70
     1
102
RTVSPropertyOp33
 70
     1
102
RTVSPropertyOp34
 70
     1
102
RTVSPropertyOp35
 70
     1
102
RTVSPropertyOp36
 70
     1
102
RTVSPropertyOp37
 70
     1
102
RTVSPropertyOp38
 70
     1
102
RTVSPropertyOp39
 70
     1
102
RTVSPropertyOp40
 70
     1
102
RTVSPropertyOp41
 70
     1
102
RTVSPropertyOp42
 70
     1
102
RTVSPropertyOp43
 70
     1
102
RTVSPropertyOp44
 70
     1
102
RTVSPropertyOp45
 70
     1
102
RTVSPropertyOp46
 70
     1
102
RTVSPropertyOp47
 70
     1
102
RTVSPropertyOp48
 70
     1
102
RTVSPropertyOp49
 70
     1
102
RTVSPropertyOp50
 70
     1
102
RTVSPropertyOp51
 70
     0
102
RTVSPropertyOp52
 70
     0
102
RTVSPropertyOp53
 70
     1
102
RTVSPropertyOp54
 70
     1
102
RTVSPropertyOp55
 70
     1
102
RTVSPropertyOp56
 70
     1
102
RTVSPropertyOp57
 70
     1
102
RTVSPropertyOp58
 70
     1
102
RTVSPropertyOp59
 70
     1
102
RTVSPropertyOp60
 70
     1
102
RTVSPropertyOp61
 70
     1
102
RTVSPropertyOp62
 70
     1
  0
XRECORD
  5
333
102
{ACAD_REACTORS
330
332
102
}
330
332
100
AcDbXrecord
280
     1
102
RTVSPost2010Prop28
280
     0
102
RTVSPost2010PropOp28
 70
     1
102
RTVSPost2010Prop29
280
     1
102
RTVSPost2010PropOp29
 70
     1
102
RTVSPost2010Prop30
280
     1
102
RTVSPost2010PropOp30
 70
     1
102
RTVSPost2010Prop31
280
     0
102
RTVSPost2010PropOp31
 70
     1
102
RTVSPost2010Prop32
280
     0
102
RTVSPost2010PropOp32
 70
     1
102
RTVSPost2010Prop33
280
     0
102
RTVSPost2010PropOp33
 70
     1
102
RTVSPost2010Prop34
280
     0
102
RTVSPost2010PropOp34
 70
     1
102
RTVSPost2010Prop35
280
     0
102
RTVSPost2010PropOp35
 70
     1
102
RTVSPost2010Prop36
280
     0
102
RTVSPost2010PropOp36
 70
     1
102
RTVSPost2010Prop37
 90
       50
102
RTVSPost2010PropOp37
 70
     1
102
RTVSPost2010Prop38
140
0.0
102
RTVSPost2010PropOp38
 70
     1
102
RTVSPost2010Prop39
140
1.0
102
RTVSPost2010PropOp39
 70
     1
102
RTVSPost2010Prop40
 90
        0
102
RTVSPost2010PropOp40
 70
     1
102
RTVSPost2010Prop41ColorIndex
 90
       18
102
RTVSPost2010Prop41ColorRGB
 90
        0
102
RTVSPost2010PropOp41
 70
     1
102
RTVSPost2010Prop42
 90
       50
102
RTVSPost2010PropOp42
 70
     1
102
RTVSPost2010Prop43
 90
        3
102
RTVSPost2010PropOp43
 70
     1
102
RTVSPost2010Prop44ColorIndex
 90
        5
102
RTVSPost2010Prop44ColorRGB
 90
      255
102
RTVSPost2010PropOp44
 70
     1
102
RTVSPost2010Prop45
280
     0
102
RTVSPost2010PropOp45
 70
     1
102
RTVSPost2010Prop46
 90
       50
102
RTVSPost2010PropOp46
 70
     1
102
RTVSPost2010Prop47
 90
       50
102
RTVSPost2010PropOp47
 70
     1
102
RTVSPost2010Prop48
 90
       50
102
RTVSPost2010PropOp48
 70
     1
102
RTVSPost2010Prop49
280
     0
102
RTVSPost2010PropOp49
 70
     1
102
RTVSPost2010Prop50
 90
       50
102
RTVSPost2010PropOp50
 70
     1
102
RTVSPost2010Prop51ColorIndex
 90
      256
102
RTVSPost2010Prop51ColorRGB
 90
-16777216
102
RTVSPost2010PropOp51
 70
     0
102
RTVSPost2010Prop52
140
1.0
102
RTVSPost2010PropOp52
 70
     0
102
RTVSPost2010Prop53
 90
        2
102
RTVSPost2010PropOp53
 70
     1
102
RTVSPost2010Prop54
  1
strokes_ogs.tif
102
RTVSPost2010PropOp54
 70
     1
102
RTVSPost2010Prop55
280
     0
102
RTVSPost2010PropOp55
 70
     1
102
RTVSPost2010Prop56
140
1.0
102
RTVSPost2010PropOp56
 70
     1
102
RTVSPost2010Prop57
140
1.0
102
RTVSPost2010PropOp57
 70
     1
102
RTVSPropertyOp0
 70
     1
102
RTVSPropertyOp1
 70
     1
102
RTVSPropertyOp2
 70
     1
102
RTVSPropertyOp3
 70
     1
102
RTVSPropertyOp4
 70
     1
102
RTVSPropertyOp5
 70
     1
102
RTVSPropertyOp6
 70
     1
102
RTVSPropertyOp7
 70
     1
102
RTVSPropertyOp8
 70
     1
102
RTVSPropertyOp9
 70
     1
102
RTVSPropertyOp10
 70
     1
102
RTVSPropertyOp11
 70
     1
102
RTVSPropertyOp12
 70
     1
102
RTVSPropertyOp13
 70
     1
102
RTVSPropertyOp14
 70
     1
102
RTVSPropertyOp15
 70
     1
102
RTVSPropertyOp16
 70
     1
102
RTVSPropertyOp17
 70
     1
102
RTVSPropertyOp18
 70
     1
102
RTVSPropertyOp19
 70
     1
102
RTVSPropertyOp20
 70
     1
102
RTVSPropertyOp21
 70
     1
102
RTVSPropertyOp22
 70
     1
102
RTVSPropertyOp23
 70
     1
102
RTVSPropertyOp24
 70
     1
102
RTVSPropertyOp25
 70
     1
102
RTVSPropertyOp26
 70
     1
102
RTVSPropertyOp27
 70
     1
102
RTVSPropertyOp28
 70
     1
102
RTVSPropertyOp29
 70
     1
102
RTVSPropertyOp30
 70
     1
102
RTVSPropertyOp31
 70
     1
102
RTVSPropertyOp32
 70
     1
102
RTVSPropertyOp33
 70
     1
102
RTVSPropertyOp34
 70
     1
102
RTVSPropertyOp35
 70
     1
102
RTVSPropertyOp36
 70
     1
102
RTVSPropertyOp37
 70
     1
102
RTVSPropertyOp38
 70
     1
102
RTVSPropertyOp39
 70
     1
102
RTVSPropertyOp40
 70
     1
102
RTVSPropertyOp41
 70
     1
102
RTVSPropertyOp42
 70
     1
102
RTVSPropertyOp43
 70
     1
102
RTVSPropertyOp44
 70
     1
102
RTVSPropertyOp45
 70
     1
102
RTVSPropertyOp46
 70
     1
102
RTVSPropertyOp47
 70
     1
102
RTVSPropertyOp48
 70
     1
102
RTVSPropertyOp49
 70
     1
102
RTVSPropertyOp50
 70
     1
102
RTVSPropertyOp51
 70
     0
102
RTVSPropertyOp52
 70
     0
102
RTVSPropertyOp53
 70
     1
102
RTVSPropertyOp54
 70
     1
102
RTVSPropertyOp55
 70
     1
102
RTVSPropertyOp56
 70
     1
102
RTVSPropertyOp57
 70
     1
102
RTVSPropertyOp58
 70
     1
102
RTVSPropertyOp59
 70
     1
102
RTVSPropertyOp60
 70
     1
102
RTVSPropertyOp61
 70
     1
102
RTVSPropertyOp62
 70
     1
  0
XRECORD
  5
335
102
{ACAD_REACTORS
330
334
102
}
330
334
100
AcDbXrecord
280
     1
102
RTVSPost2010Prop28
280
     0
102
RTVSPost2010PropOp28
 70
     1
102
RTVSPost2010Prop29
280
     1
102
RTVSPost2010PropOp29
 70
     1
102
RTVSPost2010Prop30
280
     1
102
RTVSPost2010PropOp30
 70
     1
102
RTVSPost2010Prop31
280
     0
102
RTVSPost2010PropOp31
 70
     1
102
RTVSPost2010Prop32
280
     0
102
RTVSPost2010PropOp32
 70
     1
102
RTVSPost2010Prop33
280
     0
102
RTVSPost2010PropOp33
 70
     1
102
RTVSPost2010Prop34
280
     0
102
RTVSPost2010PropOp34
 70
     1
102
RTVSPost2010Prop35
280
     0
102
RTVSPost2010PropOp35
 70
     1
102
RTVSPost2010Prop36
280
     0
102
RTVSPost2010PropOp36
 70
     1
102
RTVSPost2010Prop37
 90
       50
102
RTVSPost2010PropOp37
 70
     1
102
RTVSPost2010Prop38
140
0.0
102
RTVSPost2010PropOp38
 70
     1
102
RTVSPost2010Prop39
140
1.0
102
RTVSPost2010PropOp39
 70
     1
102
RTVSPost2010Prop40
 90
        0
102
RTVSPost2010PropOp40
 70
     1
102
RTVSPost2010Prop41ColorIndex
 90
       18
102
RTVSPost2010Prop41ColorRGB
 90
        0
102
RTVSPost2010PropOp41
 70
     1
102
RTVSPost2010Prop42
 90
       50
102
RTVSPost2010PropOp42
 70
     1
102
RTVSPost2010Prop43
 90
        3
102
RTVSPost2010PropOp43
 70
     1
102
RTVSPost2010Prop44ColorIndex
 90
        5
102
RTVSPost2010Prop44ColorRGB
 90
      255
102
RTVSPost2010PropOp44
 70
     1
102
RTVSPost2010Prop45
280
     0
102
RTVSPost2010PropOp45
 70
     1
102
RTVSPost2010Prop46
 90
       50
102
RTVSPost2010PropOp46
 70
     1
102
RTVSPost2010Prop47
 90
       50
102
RTVSPost2010PropOp47
 70
     1
102
RTVSPost2010Prop48
 90
       50
102
RTVSPost2010PropOp48
 70
     1
102
RTVSPost2010Prop49
280
     0
102
RTVSPost2010PropOp49
 70
     1
102
RTVSPost2010Prop50
 90
       50
102
RTVSPost2010PropOp50
 70
     1
102
RTVSPost2010Prop51ColorIndex
 90
      256
102
RTVSPost2010Prop51ColorRGB
 90
-16777216
102
RTVSPost2010PropOp51
 70
     0
102
RTVSPost2010Prop52
140
1.0
102
RTVSPost2010PropOp52
 70
     0
102
RTVSPost2010Prop53
 90
        2
102
RTVSPost2010PropOp53
 70
     1
102
RTVSPost2010Prop54
  1
strokes_ogs.tif
102
RTVSPost2010PropOp54
 70
     1
102
RTVSPost2010Prop55
280
     0
102
RTVSPost2010PropOp55
 70
     1
102
RTVSPost2010Prop56
140
1.0
102
RTVSPost2010PropOp56
 70
     1
102
RTVSPost2010Prop57
140
1.0
102
RTVSPost2010PropOp57
 70
     1
102
RTVSPropertyOp0
 70
     1
102
RTVSPropertyOp1
 70
     1
102
RTVSPropertyOp2
 70
     1
102
RTVSPropertyOp3
 70
     1
102
RTVSPropertyOp4
 70
     1
102
RTVSPropertyOp5
 70
     1
102
RTVSPropertyOp6
 70
     1
102
RTVSPropertyOp7
 70
     1
102
RTVSPropertyOp8
 70
     1
102
RTVSPropertyOp9
 70
     1
102
RTVSPropertyOp10
 70
     1
102
RTVSPropertyOp11
 70
     1
102
RTVSPropertyOp12
 70
     1
102
RTVSPropertyOp13
 70
     1
102
RTVSPropertyOp14
 70
     1
102
RTVSPropertyOp15
 70
     1
102
RTVSPropertyOp16
 70
     1
102
RTVSPropertyOp17
 70
     1
102
RTVSPropertyOp18
 70
     1
102
RTVSPropertyOp19
 70
     1
102
RTVSPropertyOp20
 70
     1
102
RTVSPropertyOp21
 70
     1
102
RTVSPropertyOp22
 70
     1
102
RTVSPropertyOp23
 70
     1
102
RTVSPropertyOp24
 70
     1
102
RTVSPropertyOp25
 70
     1
102
RTVSPropertyOp26
 70
     1
102
RTVSPropertyOp27
 70
     1
102
RTVSPropertyOp28
 70
     1
102
RTVSPropertyOp29
 70
     1
102
RTVSPropertyOp30
 70
     1
102
RTVSPropertyOp31
 70
     1
102
RTVSPropertyOp32
 70
     1
102
RTVSPropertyOp33
 70
     1
102
RTVSPropertyOp34
 70
     1
102
RTVSPropertyOp35
 70
     1
102
RTVSPropertyOp36
 70
     1
102
RTVSPropertyOp37
 70
     1
102
RTVSPropertyOp38
 70
     1
102
RTVSPropertyOp39
 70
     1
102
RTVSPropertyOp40
 70
     1
102
RTVSPropertyOp41
 70
     1
102
RTVSPropertyOp42
 70
     1
102
RTVSPropertyOp43
 70
     1
102
RTVSPropertyOp44
 70
     1
102
RTVSPropertyOp45
 70
     1
102
RTVSPropertyOp46
 70
     1
102
RTVSPropertyOp47
 70
     1
102
RTVSPropertyOp48
 70
     1
102
RTVSPropertyOp49
 70
     1
102
RTVSPropertyOp50
 70
     1
102
RTVSPropertyOp51
 70
     0
102
RTVSPropertyOp52
 70
     0
102
RTVSPropertyOp53
 70
     1
102
RTVSPropertyOp54
 70
     1
102
RTVSPropertyOp55
 70
     1
102
RTVSPropertyOp56
 70
     1
102
RTVSPropertyOp57
 70
     1
102
RTVSPropertyOp58
 70
     1
102
RTVSPropertyOp59
 70
     1
102
RTVSPropertyOp60
 70
     1
102
RTVSPropertyOp61
 70
     1
102
RTVSPropertyOp62
 70
     1
  0
ENDSEC
  0
EOF
