  0
SECTION
  2
HEADER
  9
$ACADVER
  1
AC1015
  9
$ACADMAINTVER
 70
    20
  9
$DWGCODEPAGE
  3
ANSI_1252
  9
$INSBASE
 10
0.0
 20
0.0
 30
0.0
  9
$EXTMIN
 10
-16.89342344296551
 20
5.520631286223306
 30
-0.0000000000000153
  9
$EXTMAX
 10
295.1922794718787
 20
479.4891369988784
 30
0.0000000000000153
  9
$LIMMIN
 10
0.0
 20
0.0
  9
$LIMMAX
 10
500.0
 20
600.0
  9
$ORTHOMODE
 70
     1
  9
$REGENMODE
 70
     1
  9
$FILLMODE
 70
     1
  9
$QTEXTMODE
 70
     0
  9
$MIRRTEXT
 70
     1
  9
$LTSCALE
 40
1.0
  9
$ATTMODE
 70
     1
  9
$TEXTSIZE
 40
2.399999999999999
  9
$TRACEWID
 40
0.05
  9
$TEXTSTYLE
  7
NORM
  9
$CLAYER
  8
UMRISS05
  9
$CELTYPE
  6
BYLAYER
  9
$CECOLOR
 62
   256
  9
$CELTSCALE
 40
1.0
  9
$DISPSILH
 70
     0
  9
$DIMSCALE
 40
1.0
  9
$DIMASZ
 40
4.0
  9
$DIMEXO
 40
0.0
  9
$DIMDLI
 40
8.0
  9
$DIMRND
 40
0.0
  9
$DIMDLE
 40
0.0
  9
$DIMEXE
 40
1.0
  9
$DIMTP
 40
0.0
  9
$DIMTM
 40
0.0
  9
$DIMTXT
 40
4.349999999999999
  9
$DIMCEN
 40
1.5
  9
$DIMTSZ
 40
0.0
  9
$DIMTOL
 70
     0
  9
$DIMLIM
 70
     0
  9
$DIMTIH
 70
     0
  9
$DIMTOH
 70
     0
  9
$DIMSE1
 70
     0
  9
$DIMSE2
 70
     0
  9
$DIMTAD
 70
     1
  9
$DIMZIN
 70
     8
  9
$DIMBLK
  1

  9
$DIMASO
 70
     1
  9
$DIMSHO
 70
     1
  9
$DIMPOST
  1

  9
$DIMAPOST
  1

  9
$DIMALT
 70
     0
  9
$DIMALTD
 70
     2
  9
$DIMALTF
 40
25.39999999999999
  9
$DIMLFAC
 40
1.0
  9
$DIMTOFL
 70
     1
  9
$DIMTVP
 40
0.0
  9
$DIMTIX
 70
     1
  9
$DIMSOXD
 70
     0
  9
$DIMSAH
 70
     0
  9
$DIMBLK1
  1

  9
$DIMBLK2
  1

  9
$DIMSTYLE
  2
Katalog 09
  9
$DIMCLRD
 70
     2
  9
$DIMCLRE
 70
     2
  9
$DIMCLRT
 70
     3
  9
$DIMTFAC
 40
0.4285714285714286
  9
$DIMGAP
 40
1.0
  9
$DIMJUST
 70
     0
  9
$DIMSD1
 70
     0
  9
$DIMSD2
 70
     0
  9
$DIMTOLJ
 70
     1
  9
$DIMTZIN
 70
     8
  9
$DIMALTZ
 70
     8
  9
$DIMALTTZ
 70
     8
  9
$DIMUPT
 70
     0
  9
$DIMDEC
 70
     2
  9
$DIMTDEC
 70
     2
  9
$DIMALTU
 70
     2
  9
$DIMALTTD
 70
     2
  9
$DIMTXSTY
  7
ARIAL-STANDARD
  9
$DIMAUNIT
 70
     0
  9
$DIMADEC
 70
     0
  9
$DIMALTRND
 40
0.0
  9
$DIMAZIN
 70
     0
  9
$DIMDSEP
 70
    46
  9
$DIMATFIT
 70
     3
  9
$DIMFRAC
 70
     0
  9
$DIMLDRBLK
  1

  9
$DIMLUNIT
 70
     2
  9
$DIMLWD
 70
    -2
  9
$DIMLWE
 70
    -2
  9
$DIMTMOVE
 70
     0
  9
$LUNITS
 70
     2
  9
$LUPREC
 70
     4
  9
$SKETCHINC
 40
0.1
  9
$FILLETRAD
 40
0.0
  9
$AUNITS
 70
     0
  9
$AUPREC
 70
     0
  9
$MENU
  1
.
  9
$ELEVATION
 40
0.0
  9
$PELEVATION
 40
0.0
  9
$THICKNESS
 40
0.0
  9
$LIMCHECK
 70
     0
  9
$CHAMFERA
 40
0.5
  9
$CHAMFERB
 40
0.5
  9
$CHAMFERC
 40
1.0
  9
$CHAMFERD
 40
0.0
  9
$SKPOLY
 70
     0
  9
$TDCREATE
 40
2451305.384745371
  9
$TDUCREATE
 40
2451305.343078704
  9
$TDUPDATE
 40
2457067.405211945
  9
$TDUUPDATE
 40
2457067.363545278
  9
$TDINDWG
 40
1.0004203819
  9
$TDUSRTIMER
 40
1.0004203819
  9
$USRTIMER
 70
     1
  9
$ANGBASE
 50
0.0
  9
$ANGDIR
 70
     0
  9
$PDMODE
 70
     0
  9
$PDSIZE
 40
0.0
  9
$PLINEWID
 40
0.0
  9
$SPLFRAME
 70
     0
  9
$SPLINETYPE
 70
     6
  9
$SPLINESEGS
 70
     8
  9
$HANDSEED
  5
38A
  9
$SURFTAB1
 70
     6
  9
$SURFTAB2
 70
     6
  9
$SURFTYPE
 70
     6
  9
$SURFU
 70
     6
  9
$SURFV
 70
     6
  9
$UCSBASE
  2

  9
$UCSNAME
  2

  9
$UCSORG
 10
0.0
 20
0.0
 30
0.0
  9
$UCSXDIR
 10
1.0
 20
0.0
 30
0.0
  9
$UCSYDIR
 10
0.0
 20
1.0
 30
0.0
  9
$UCSORTHOREF
  2

  9
$UCSORTHOVIEW
 70
     0
  9
$UCSORGTOP
 10
0.0
 20
0.0
 30
0.0
  9
$UCSORGBOTTOM
 10
0.0
 20
0.0
 30
0.0
  9
$UCSORGLEFT
 10
0.0
 20
0.0
 30
0.0
  9
$UCSORGRIGHT
 10
0.0
 20
0.0
 30
0.0
  9
$UCSORGFRONT
 10
0.0
 20
0.0
 30
0.0
  9
$UCSORGBACK
 10
0.0
 20
0.0
 30
0.0
  9
$PUCSBASE
  2

  9
$PUCSNAME
  2

  9
$PUCSORG
 10
0.0
 20
0.0
 30
0.0
  9
$PUCSXDIR
 10
1.0
 20
0.0
 30
0.0
  9
$PUCSYDIR
 10
0.0
 20
1.0
 30
0.0
  9
$PUCSORTHOREF
  2

  9
$PUCSORTHOVIEW
 70
     0
  9
$PUCSORGTOP
 10
0.0
 20
0.0
 30
0.0
  9
$PUCSORGBOTTOM
 10
0.0
 20
0.0
 30
0.0
  9
$PUCSORGLEFT
 10
0.0
 20
0.0
 30
0.0
  9
$PUCSORGRIGHT
 10
0.0
 20
0.0
 30
0.0
  9
$PUCSORGFRONT
 10
0.0
 20
0.0
 30
0.0
  9
$PUCSORGBACK
 10
0.0
 20
0.0
 30
0.0
  9
$USERI1
 70
     0
  9
$USERI2
 70
     0
  9
$USERI3
 70
     0
  9
$USERI4
 70
     0
  9
$USERI5
 70
     0
  9
$USERR1
 40
0.0
  9
$USERR2
 40
0.0
  9
$USERR3
 40
0.0
  9
$USERR4
 40
0.0
  9
$USERR5
 40
0.0
  9
$WORLDVIEW
 70
     1
  9
$SHADEDGE
 70
     3
  9
$SHADEDIF
 70
    70
  9
$TILEMODE
 70
     1
  9
$MAXACTVP
 70
    48
  9
$PINSBASE
 10
0.0
 20
0.0
 30
0.0
  9
$PLIMCHECK
 70
     0
  9
$PEXTMIN
 10
1.000000000000000E+20
 20
1.000000000000000E+20
 30
1.000000000000000E+20
  9
$PEXTMAX
 10
-1.000000000000000E+20
 20
-1.000000000000000E+20
 30
-1.000000000000000E+20
  9
$PLIMMIN
 10
0.0
 20
0.0
  9
$PLIMMAX
 10
12.0
 20
9.0
  9
$UNITMODE
 70
     0
  9
$VISRETAIN
 70
     1
  9
$PLINEGEN
 70
     0
  9
$PSLTSCALE
 70
     1
  9
$TREEDEPTH
 70
  3020
  9
$CMLSTYLE
  2
STANDARD
  9
$CMLJUST
 70
     0
  9
$CMLSCALE
 40
1.0
  9
$PROXYGRAPHICS
 70
     1
  9
$MEASUREMENT
 70
     1
  9
$CELWEIGHT
370
    -1
  9
$ENDCAPS
280
     0
  9
$JOINSTYLE
280
     0
  9
$LWDISPLAY
290
     0
  9
$INSUNITS
 70
     4
  9
$HYPERLINKBASE
  1

  9
$STYLESHEET
  1

  9
$XEDIT
290
     1
  9
$CEPSNTYPE
380
     0
  9
$PSTYLEMODE
290
     1
  9
$FINGERPRINTGUID
  2
{7D98CE6B-EB9B-4889-A09A-7F47456E4A46}
  9
$VERSIONGUID
  2
{098AC99E-5F1E-4EDB-820E-6823A7BAECF6}
  9
$EXTNAMES
290
     1
  9
$PSVPSCALE
 40
0.0
  9
$OLESTARTUP
290
     0
  0
ENDSEC
  0
SECTION
  2
CLASSES
  0
CLASS
  1
ACDBDICTIONARYWDFLT
  2
AcDbDictionaryWithDefault
  3
ObjectDBX Classes
 90
        0
280
     0
281
     0
  0
CLASS
  1
TABLESTYLE
  2
AcDbTableStyle
  3
ObjectDBX Classes
 90
     4095
280
     0
281
     0
  0
CLASS
  1
ACME_DOCUMENT
  2
AcMeDbDoc
  3
AcMeServices
 90
    33792
280
     0
281
     0
  0
CLASS
  1
AMGSETTINGSOBJ
  2
AmgSettingsObj
  3
"AcadM|Product Description: AutoCAD Mechanical|Company: Autodesk, Inc."
 90
     1024
280
     0
281
     0
  0
CLASS
  1
ACMESCOPE
  2
AcMeScope
  3
AcMeServices
 90
     1024
280
     0
281
     0
  0
CLASS
  1
ACMECOMMANDHISTORY
  2
AcMeCommandHistory
  3
AcMeServices
 90
    33792
280
     0
281
     0
  0
CLASS
  1
ACIMSYSVARMAN
  2
AcImSysVarManager
  3
AcMeServices
 90
     1024
280
     0
281
     0
  0
CLASS
  1
ACIMINTSYSVAR
  2
AcImIntSysVar
  3
AcMeServices
 90
     1024
280
     0
281
     0
  0
CLASS
  1
ACMEDRAWINGMAN
  2
AcMeDrawingMan
  3
AcMeServices
 90
    33792
280
     0
281
     0
  0
CLASS
  1
ACMEVIEW
  2
AcMeView
  3
AcMeServices
 90
    33792
280
     0
281
     0
  0
CLASS
  1
ACDBENTITYCACHE
  2
AcMeEntityCache
  3
AcMeServices
 90
    33792
280
     0
281
     0
  0
CLASS
  1
GSMANAGER
  2
AcMeGSManager
  3
AcMeServices
 90
    33792
280
     1
281
     0
  0
CLASS
  1
AMDTINTERNALREACTOR
  2
AmdtInternalReactor
  3
AcMeServices
 90
    33792
280
     0
281
     0
  0
CLASS
  1
ACMESTATEMGR
  2
AcMeStateMgr
  3
AcMeServices
 90
     1024
280
     0
281
     0
  0
CLASS
  1
ACGREFMASTER
  2
AcGrefMaster
  3
AcAttribServices
 90
     1024
280
     0
281
     0
  0
CLASS
  1
AM_DRAWING_MGR
  2
AcDmDwgMgr
  3
AcMechDwgViewMgmt
 90
    33792
280
     0
281
     0
  0
CLASS
  1
AM_DWG_DOCUMENT
  2
AcDmDwgDocument
  3
AcMechDwgViewMgmt
 90
    33792
280
     0
281
     0
  0
CLASS
  1
AM_DWG_SHEET
  2
AcDmSheet
  3
AcMechDwgViewMgmt
 90
    33792
280
     0
281
     0
  0
CLASS
  1
AM_VIEWDIMPARMAP
  2
AcDmViewDimParMap
  3
AcMechDwgViewMgmt
 90
    33792
280
     0
281
     0
  0
CLASS
  1
ACIMREALSYSVAR
  2
AcImRealSysVar
  3
AcMeServices
 90
    33792
280
     0
281
     0
  0
CLASS
  1
AM_DWGMGR_NAME
  2
AcDmDwgMgrName
  3
AcMechDwgViewMgmt
 90
    33792
280
     0
281
     0
  0
CLASS
  1
ACME_DATABASE
  2
AcMeDbDatabase
  3
AcMeServices
 90
    33792
280
     0
281
     0
  0
CLASS
  1
ACRFINSADJUSTERMGR
  2
AcRfInsAdjusterMgr
  3
AcMeServices
 90
    33792
280
     0
281
     0
  0
CLASS
  1
ACGREFACADMASTER
  2
AcGrefacadMaster
  3
AcGrefServices
 90
    33792
280
     0
281
     0
  0
CLASS
  1
AMDTMENUSTATEMGR
  2
AmdtMenuStateMgr
  3
McadcomServices
 90
    33792
280
     0
281
     0
  0
CLASS
  1
AMDTMCOMMENUSTATE
  2
AmdtMcomMenuState
  3
McadcomServices
 90
    33792
280
     0
281
     0
  0
CLASS
  1
AMIMASTER
  2
AmiMaster
  3
AmiServices
 90
    33792
280
     0
281
     0
  0
CLASS
  1
MAPIAMMOUDLE
  2
MApiAmModule
  3
MApiAmServices
 90
    33792
280
     0
281
     0
  0
CLASS
  1
ACIMSTRSYSVAR
  2
AcImStrSysVar
  3
AcMeServices
 90
     1024
280
     0
281
     0
  0
CLASS
  1
AMDTADMENUSTATE
  2
AmdtAdMenuState
  3
DesignerServices
 90
    33792
280
     1
281
     0
  0
CLASS
  1
ADAPPL
  2
AcAdAppl
  3
DesignerAssemblies
 90
    33792
280
     0
281
     0
  0
CLASS
  1
DEPMGR
  2
AcAdDepMgr
  3
DesignerAssemblies
 90
    33792
280
     0
281
     0
  0
CLASS
  1
PARAMMGR
  2
AcAdParamMgr
  3
DesignerAssemblies
 90
    33792
280
     0
281
     0
  0
CLASS
  1
PARAMSCOPE
  2
AcAdParamScope
  3
DesignerAssemblies
 90
    33792
280
     0
281
     0
  0
CLASS
  1
NAMEDAPPL
  2
AcAdNamedAppl
  3
DesignerAssemblies
 90
    33792
280
     0
281
     0
  0
CLASS
  1
AMDTDMMENUSTATE
  2
AmdtDmMenuState
  3
AcMechDwgViewMgmt
 90
    33792
280
     1
281
     0
  0
CLASS
  1
AMDTAMMENUSTATE
  2
AmdtAmMenuState
  3
DesignerAssemblies
 90
    33792
280
     0
281
     0
  0
CLASS
  1
ACAMPROJECT
  2
AcAmProject
  3
DesignerAssemblies
 90
    33792
280
     0
281
     0
  0
CLASS
  1
ACAMGRCOMPDEF
  2
AcAmGrCompDef
  3
DesignerAssemblies
 90
    33792
280
     0
281
     0
  0
CLASS
  1
ACCMCONTEXT
  2
AcCmContext
  3
DesignerAssemblies
 90
    33792
280
     0
281
     0
  0
CLASS
  1
ACAMCOMPDEF
  2
AcAmCompDef
  3
DesignerAssemblies
 90
    33792
280
     0
281
     0
  0
CLASS
  1
ACAMCOMPDEFMGR
  2
AcAmCompDefMgr
  3
DesignerAssemblies
 90
    33792
280
     0
281
     0
  0
CLASS
  1
AMCONTEXTMGR
  2
AcAmContextMgr
  3
DesignerAssemblies
 90
    33792
280
     0
281
     0
  0
CLASS
  1
ACAMCONTEXTMODELER
  2
AcAmContextModeler
  3
DesignerAssemblies
 90
    33792
280
     0
281
     0
  0
CLASS
  1
ACMDATADICTIONARY
  2
AcmDataDictionary
  3
"AcmSymBB|Product Description: AutoCAD Mechanical|Company: Autodesk, Inc."
 90
    33792
280
     0
281
     0
  0
CLASS
  1
CATALOGSTATE
  2
AcAmCatalogState
  3
DesignerAssemblies
 90
    33792
280
     0
281
     0
  0
CLASS
  1
ACAMGRCOMPDEFSET
  2
AcAmGrCompDefSet
  3
DesignerAssemblies
 90
    33792
280
     0
281
     0
  0
CLASS
  1
AMDTBROWSERDBTAB
  2
AmdtBrowserDbTab
  3
McadcomServices
 90
    33792
280
     0
281
     0
  0
CLASS
  1
CBROWSERAPPOBJECT
  2
CBrowserAppObject
  3
McadcomServices
 90
    33792
280
     0
281
     0
  0
CLASS
  1
DM_PLACEHOLDER
  2
AcDmSelsetPlaceholder
  3
McadcomServices
 90
    33792
280
     0
281
     0
  0
CLASS
  1
ACMSTANDARDANSI
  2
AcmStandardANSI
  3
"Amdt_StdImp|Product Description: AutoCAD Mechanical|Company: Autodesk, Inc."
 90
    33792
280
     0
281
     0
  0
CLASS
  1
AMGOBJPROPCFG
  2
AmgObjPropCfg
  3
"AmgLay|Product Description: AutoCAD Mechanical|Company: Autodesk, Inc."
 90
     1024
280
     0
281
     0
  0
CLASS
  1
ACMSURFSTANDARDANSI
  2
AcmSurfTextStdANSI
  3
"Amdt_StdImp|Product Description: AutoCAD Mechanical|Company: Autodesk, Inc."
 90
    33792
280
     0
281
     0
  0
CLASS
  1
ACMFCFSTANDARDANSI
  2
AcmFCFStdANSI
  3
"Amdt_StdImp|Product Description: AutoCAD Mechanical|Company: Autodesk, Inc."
 90
    33792
280
     0
281
     0
  0
CLASS
  1
ACMWELDSTANDARDANSI
  2
AcmWeldingStdANSI
  3
"Amdt_StdImp|Product Description: AutoCAD Mechanical|Company: Autodesk, Inc."
 90
    33792
280
     0
281
     0
  0
CLASS
  1
ACMIDSTANDARDANSI
  2
AcmIdStdANSI
  3
"Amdt_StdImp|Product Description: AutoCAD Mechanical|Company: Autodesk, Inc."
 90
    33792
280
     0
281
     0
  0
CLASS
  1
ACMDATUMSTANDARDANSI
  2
AcmDatumStdANSI
  3
"Amdt_StdImp|Product Description: AutoCAD Mechanical|Company: Autodesk, Inc."
 90
    33792
280
     0
281
     0
  0
CLASS
  1
ACMBOMSTANDARDANSI
  2
AcmBOMStdANSI
  3
"Amdt_StdImp|Product Description: AutoCAD Mechanical|Company: Autodesk, Inc."
 90
    33792
280
     0
281
     0
  0
CLASS
  1
ACMDETAILSTANDARDANSI
  2
AmdtDetailSymStdANSI
  3
"Amdt_StdImp|Product Description: AutoCAD Mechanical|Company: Autodesk, Inc."
 90
    33792
280
     0
281
     0
  0
CLASS
  1
ACMSECTIONSTANDARDANSI
  2
AmdtSectionSymStdANSI
  3
"Amdt_StdImp|Product Description: AutoCAD Mechanical|Company: Autodesk, Inc."
 90
    33792
280
     0
281
     0
  0
CLASS
  1
ACMCENTERLINESTANDARDANSI
  2
AmdtCenterLineStdANSI
  3
"Amdt_StdImp|Product Description: AutoCAD Mechanical|Company: Autodesk, Inc."
 90
    33792
280
     0
281
     0
  0
CLASS
  1
ACMTHREADLINESTANDARDANSI
  2
AmdtThreadLineStdANSI
  3
"Amdt_StdImp|Product Description: AutoCAD Mechanical|Company: Autodesk, Inc."
 90
    33792
280
     0
281
     0
  0
CLASS
  1
ACMNOTESTANDARDANSI
  2
AmdtNoteStdANSI
  3
"Amdt_StdImp|Product Description: AutoCAD Mechanical|Company: Autodesk, Inc."
 90
    33792
280
     0
281
     0
  0
CLASS
  1
AMDTNOTETEMPLATEDB
  2
AmdtNoteTemplateDB
  3
AcmSymBB|Product Description: AutoCAD Mechanical|Company: Autodesk, Inc.
 90
     1024
280
     0
281
     0
  0
CLASS
  1
ACAMGLAYSTD
  2
AcAmgLayStd
  3
"AmgLay|Product Description: AutoCAD Mechanical|Company: Autodesk, Inc."
 90
     1024
280
     0
281
     0
  0
CLASS
  1
ACAMGDIMSTD
  2
AcAmgDimStd
  3
"AmgDim|Product Description: AutoCAD Mechanical|Company: Autodesk, Inc."
 90
     1024
280
     0
281
     0
  0
CLASS
  1
ACAMGHOLECHARTSTDANSI
  2
AcAmgHoleChartStdANSI
  3
AmgDim|Product Description: AutoCAD Mechanical|Company: Autodesk, Inc.
 90
    33792
280
     0
281
     0
  0
CLASS
  1
ACAMGTITLESTD
  2
AcAmgTitleStd
  3
"AmgTitle|Product Description: AutoCAD Mechanical|Company: Autodesk, Inc."
 90
     1024
280
     0
281
     0
  0
CLASS
  1
ACAMGFILTERDAT
  2
AcAmgFilterDat
  3
"AcadM|Product Description: AutoCAD Mechanical|Company: Autodesk, Inc."
 90
    33792
280
     0
281
     0
  0
CLASS
  1
PLOTSETTINGS
  2
AcDbPlotSettings
  3
ObjectDBX Classes
 90
    32768
280
     0
281
     0
  0
CLASS
  1
ACMSTANDARDDIN
  2
AcmStandardDIN
  3
"Amdt_StdImp|Product Description: AutoCAD Mechanical|Company: Autodesk, Inc."
 90
     1024
280
     0
281
     0
  0
CLASS
  1
AMDTEDGESTANDARDDIN
  2
AmdtEdgeStdDIN
  3
"Amdt_StdImp|Product Description: AutoCAD Mechanical|Company: Autodesk, Inc."
 90
    33792
280
     0
281
     0
  0
CLASS
  1
ACMSURFSTANDARDDIN
  2
AcmSurfTextStdDIN
  3
"Amdt_StdImp|Product Description: AutoCAD Mechanical|Company: Autodesk, Inc."
 90
    33792
280
     0
281
     0
  0
CLASS
  1
ACMFCFSTANDARDDIN
  2
AcmFCFStdDIN
  3
"Amdt_StdImp|Product Description: AutoCAD Mechanical|Company: Autodesk, Inc."
 90
    33792
280
     0
281
     0
  0
CLASS
  1
ACMWELDSTANDARDDIN
  2
AcmWeldingStdDIN
  3
"Amdt_StdImp|Product Description: AutoCAD Mechanical|Company: Autodesk, Inc."
 90
     1024
280
     0
281
     0
  0
CLASS
  1
ACMIDSTANDARDDIN
  2
AcmIdStdDIN
  3
"Amdt_StdImp|Product Description: AutoCAD Mechanical|Company: Autodesk, Inc."
 90
    33792
280
     0
281
     0
  0
CLASS
  1
ACMDATUMSTANDARDDIN
  2
AcmDatumStdDIN
  3
"Amdt_StdImp|Product Description: AutoCAD Mechanical|Company: Autodesk, Inc."
 90
     1024
280
     0
281
     0
  0
CLASS
  1
ACMBOMSTANDARDDIN
  2
AcmBOMStdDIN
  3
"Amdt_StdImp|Product Description: AutoCAD Mechanical|Company: Autodesk, Inc."
 90
     1024
280
     0
281
     0
  0
CLASS
  1
ACMDETAILSTANDARDDIN
  2
AmdtDetailSymStdDIN
  3
"Amdt_StdImp|Product Description: AutoCAD Mechanical|Company: Autodesk, Inc."
 90
     1024
280
     0
281
     0
  0
CLASS
  1
ACMSECTIONSTANDARDDIN
  2
AmdtSectionSymStdDIN
  3
"Amdt_StdImp|Product Description: AutoCAD Mechanical|Company: Autodesk, Inc."
 90
     1024
280
     0
281
     0
  0
CLASS
  1
ACMCENTERLINESTANDARDDIN
  2
AmdtCenterLineStdDIN
  3
"Amdt_StdImp|Product Description: AutoCAD Mechanical|Company: Autodesk, Inc."
 90
     1024
280
     0
281
     0
  0
CLASS
  1
ACMNOTESTANDARDDIN
  2
AmdtNoteStdDIN
  3
"Amdt_StdImp|Product Description: AutoCAD Mechanical|Company: Autodesk, Inc."
 90
     1024
280
     0
281
     0
  0
CLASS
  1
ACAMGHOLECHARTSTDDIN
  2
AcAmgHoleChartStdDIN
  3
AmgDim|Product Description: AutoCAD Mechanical|Company: Autodesk, Inc.
 90
     1024
280
     0
281
     0
  0
CLASS
  1
ACMTHREADLINESTANDARDDIN
  2
AmdtThreadLineStdDIN
  3
"Amdt_StdImp|Product Description: AutoCAD Mechanical|Company: Autodesk, Inc."
 90
     1024
280
     0
281
     0
  0
CLASS
  1
ACMDATAENTRYBLOCK
  2
AcmDataEntryBlock
  3
AcmSymBB|Product Description: AutoCAD Mechanical|Company: Autodesk, Inc.
 90
    33792
280
     0
281
     0
  0
CLASS
  1
DICTIONARYVAR
  2
AcDbDictionaryVar
  3
ObjectDBX Classes
 90
        0
280
     0
281
     0
  0
CLASS
  1
SORTENTSTABLE
  2
AcDbSortentsTable
  3
ObjectDBX Classes
 90
        0
280
     0
281
     0
  0
CLASS
  1
MATERIAL
  2
AcDbMaterial
  3
ObjectDBX Classes
 90
     1153
280
     0
281
     0
  0
CLASS
  1
VISUALSTYLE
  2
AcDbVisualStyle
  3
ObjectDBX Classes
 90
     4095
280
     0
281
     0
  0
CLASS
  1
SCALE
  2
AcDbScale
  3
ObjectDBX Classes
 90
     1153
280
     0
281
     0
  0
CLASS
  1
MLEADERSTYLE
  2
AcDbMLeaderStyle
  3
ACDB_MLEADERSTYLE_CLASS
 90
    36863
280
     0
281
     0
  0
CLASS
  1
ACMTAPERSTANDARDANSI
  2
AcmTaperStdANSI
  3
"Amdt_StdImp|Product Description: AutoCAD Mechanical|Company: Autodesk, Inc."
 90
    33792
280
     0
281
     0
  0
CLASS
  1
ACMANOOTATIONVIEWSTANDARDANSI
  2
AmdtAnViewStdANSI
  3
"Amdt_StdImp|Product Description: AutoCAD Mechanical|Company: Autodesk, Inc."
 90
    33792
280
     0
281
     0
  0
CLASS
  1
ACMTAPERSTANDARDDIN
  2
AcmTaperStdDIN
  3
"Amdt_StdImp|Product Description: AutoCAD Mechanical|Company: Autodesk, Inc."
 90
     1024
280
     0
281
     0
  0
CLASS
  1
ACMANOOTATIONVIEWSTANDARDDIN
  2
AmdtAnViewStdDIN
  3
"Amdt_StdImp|Product Description: AutoCAD Mechanical|Company: Autodesk, Inc."
 90
     1024
280
     0
281
     0
  0
CLASS
  1
ACRFATTGENMGR
  2
AcRfAttGeneralMgr
  3
AcAttribServices
 90
    33792
280
     0
281
     0
  0
CLASS
  1
ACRFMCADAPIATTHOLDER
  2
AcRfMCADAPIAttHolder
  3
AcAttribServices
 90
    33792
280
     0
281
     0
  0
CLASS
  1
AMDTSYSATTR
  2
AmdtSystemAttribute
  3
AcAttribServices
 90
    33792
280
     0
281
     0
  0
CLASS
  1
CAMSSTRUCTBTNSTATE
  2
StructBtnState
  3
DesignerAssemblies
 90
    33792
280
     0
281
     0
  0
CLASS
  1
CELLSTYLEMAP
  2
AcDbCellStyleMap
  3
ObjectDBX Classes
 90
     1152
280
     0
281
     0
  0
CLASS
  1
AEC_REFEDIT_STATUS_TRACKER
  2
AecDbRefEditStatusTracker
  3
AecArchBase70|Product Desc: Autodesk Architectural Desktop 2007 |Company: Autodesk,Inc. |WEB Address: www.autodesk.com
 90
    32897
280
     1
281
     0
  0
CLASS
  1
NPOCOLLECTION
  2
AcDbImpNonPersistentObjectsCollection
  3
ObjectDBX Classes
 90
    33921
280
     0
281
     0
  0
CLASS
  1
ACDBLINERES
  2
AcDbLineRes
  3
AcGrefServices
 90
    33792
280
     0
281
     0
  0
CLASS
  1
AMDTNOTE
  2
AmdtNote
  3
"AcmSymBB|Product Description: AutoCAD Mechanical|Company: Autodesk, Inc."
 90
    33792
280
     0
281
     1
  0
CLASS
  1
AMDTFORMULAUPDATEDISPATCHER
  2
AmdtFormulaUpdateDispatcher
  3
AcMeServices
 90
    33792
280
     0
281
     0
  0
CLASS
  1
AMDTEDGESTANDARDDIN13715
  2
AmdtEdgeStdDIN13715
  3
"Amdt_StdImp|Product Description: AutoCAD Mechanical|Company: Autodesk, Inc."
 90
     1024
280
     0
281
     0
  0
CLASS
  1
ACMSURFSTANDARDDIN2002
  2
AcmSurfTextStdDIN2002
  3
"Amdt_StdImp|Product Description: AutoCAD Mechanical|Company: Autodesk, Inc."
 90
     1024
280
     0
281
     0
  0
CLASS
  1
ACMDIMBREAKPERSREACTOR
  2
AcmDimBreakPersReactor
  3
AmgDim|Product Description: AutoCAD Mechanical|Company: Autodesk, Inc.
 90
     1024
280
     0
281
     0
  0
CLASS
  1
ACDBSECTIONVIEWSTYLE
  2
AcDbSectionViewStyle
  3
ObjectDBX Classes
 90
     1025
280
     0
281
     0
  0
CLASS
  1
ACDBDETAILVIEWSTYLE
  2
AcDbDetailViewStyle
  3
ObjectDBX Classes
 90
     1025
280
     0
281
     0
  0
CLASS
  1
ACMFCFSTANDARDDIN2008
  2
AcmFCFStdDIN2008
  3
"Amdt_StdImp|Product Description: AutoCAD Mechanical|Company: Autodesk, Inc."
 90
     1024
280
     0
281
     0
  0
CLASS
  1
ACMIDSTANDARDDIN2008
  2
AcmIdStdDIN2008
  3
"Amdt_StdImp|Product Description: AutoCAD Mechanical|Company: Autodesk, Inc."
 90
     1024
280
     0
281
     0
  0
CLASS
  1
ACMSECTIONSTANDARDCUSTOM
  2
AmdtSectionSymStdCustom
  3
"Amdt_StdImp|Product Description: AutoCAD Mechanical|Company: Autodesk, Inc."
 90
     1024
280
     0
281
     0
  0
CLASS
  1
ACMDETAILTANDARDCUSTOM
  2
AmdtDetailSymStdCustom
  3
"Amdt_StdImp|Product Description: AutoCAD Mechanical|Company: Autodesk, Inc."
 90
     1024
280
     0
281
     0
  0
CLASS
  1
FIELD
  2
AcDbField
  3
ObjectDBX Classes
 90
     1152
280
     0
281
     0
  0
CLASS
  1
FIELDLIST
  2
AcDbFieldList
  3
ObjectDBX Classes
 90
     1152
280
     0
281
     0
  0
CLASS
  1
ACDBPLACEHOLDER
  2
AcDbPlaceHolder
  3
ObjectDBX Classes
 90
        0
280
     0
281
     0
  0
CLASS
  1
LAYOUT
  2
AcDbLayout
  3
ObjectDBX Classes
 90
        0
280
     0
281
     0
  0
ENDSEC
  0
SECTION
  2
TABLES
  0
TABLE
  2
VPORT
  5
2D
330
0
100
AcDbSymbolTable
 70
     1
  0
VPORT
  5
2E
330
2D
100
AcDbSymbolTableRecord
100
AcDbViewportTableRecord
  2
*Active
 70
     0
 10
0.0
 20
0.0
 11
1.0
 21
1.0
 12
143.1830795463945
 22
292.5221817685121
 13
0.0
 23
0.0
 14
10.0
 24
10.0
 15
10.0
 25
10.0
 16
0.0
 26
0.0
 36
1.0
 17
0.0
 27
0.0
 37
0.0
 40
476.3744378321469
 41
2.033022861981371
 42
50.0
 43
0.0
 44
0.0
 50
0.0
 51
0.0
 71
     0
 72
  5000
 73
     1
 74
     0
 75
     0
 76
     0
 77
     0
 78
     0
281
     0
 65
     1
110
0.0
120
0.0
130
0.0
111
1.0
121
0.0
131
0.0
112
0.0
122
1.0
132
0.0
 79
     0
146
0.0
1001
ACAD_NAV_VCDISPLAY
1070
     3
  0
ENDTAB
  0
TABLE
  2
LTYPE
  5
28
330
0
100
AcDbSymbolTable
 70
    14
  0
LTYPE
  5
29
330
28
100
AcDbSymbolTableRecord
100
AcDbLinetypeTableRecord
  2
BYBLOCK
 70
     0
  3

 72
    65
 73
     0
 40
0.0
  0
LTYPE
  5
2A
330
28
100
AcDbSymbolTableRecord
100
AcDbLinetypeTableRecord
  2
BYLAYER
 70
     0
  3

 72
    65
 73
     0
 40
0.0
  0
LTYPE
  5
15
330
28
100
AcDbSymbolTableRecord
100
AcDbLinetypeTableRecord
  2
CONTINUOUS
 70
     0
  3
Solid line
 72
    65
 73
     0
 40
0.0
  0
LTYPE
  5
99
330
28
100
AcDbSymbolTableRecord
100
AcDbLinetypeTableRecord
  2
STRICHPUNKT2
 70
     0
  3
Strichpunkt (.5x) _._._._._._._._._._._._._._._
 72
    65
 73
     4
 40
12.7
 49
6.349999999999999
 74
     0
 49
-3.174999999999999
 74
     0
 49
0.0
 74
     0
 49
-3.174999999999999
 74
     0
  0
LTYPE
  5
31D
330
28
100
AcDbSymbolTableRecord
100
AcDbLinetypeTableRecord
  2
ACDINWELD
 70
     0
  3
_ _ _ _ _
 72
    65
 73
     2
 40
2.0
 49
2.0
 74
     0
 49
-1.0
 74
     0
  0
LTYPE
  5
321
330
28
100
AcDbSymbolTableRecord
100
AcDbLinetypeTableRecord
  2
ACDINTGB
 70
     0
  3
__ . . __ . .
 72
    65
 73
     6
 40
9.0
 49
4.0
 74
     0
 49
-1.0
 74
     0
 49
1.0
 74
     0
 49
-1.0
 74
     0
 49
1.0
 74
     0
 49
-1.0
 74
     0
  0
LTYPE
  5
31F
330
28
100
AcDbSymbolTableRecord
100
AcDbLinetypeTableRecord
  2
ACDINTGL
 70
     0
  3
_ _ _ _ _
 72
    65
 73
     2
 40
3.0
 49
2.0
 74
     0
 49
-1.0
 74
     0
  0
LTYPE
  5
211
330
28
100
AcDbSymbolTableRecord
100
AcDbLinetypeTableRecord
  2
DASHED
 70
     0
  3
Dashed __ __ __ __ __ __ __ __ __ __ __ __ __ _
 72
    65
 73
     2
 40
19.05
 49
12.7
 74
     0
 49
-6.349999999999999
 74
     0
  0
LTYPE
  5
147
330
28
100
AcDbSymbolTableRecord
100
AcDbLinetypeTableRecord
  2
VERDECKT
 70
     0
  3
Verdeckt __ __ __ __ __ __ __ __ __ __ __ __ __
 72
    65
 73
     2
 40
9.524999999999998
 49
6.349999999999999
 74
     0
 49
-3.174999999999999
 74
     0
  0
LTYPE
  5
309
330
28
100
AcDbSymbolTableRecord
100
AcDbLinetypeTableRecord
  2
Amconstr
 70
     0
  3
_______________________
 72
    65
 73
     2
 40
9999.0
 49
9999.0
 74
     0
 49
0.0
 74
     0
  0
LTYPE
  5
30C
330
28
100
AcDbSymbolTableRecord
100
AcDbLinetypeTableRecord
  2
Amzigzag
 70
     0
  3
/\/-/\/-/\/-/\/-/\/-/\/
 72
    65
 73
     2
 40
11.0001
 49
0.0001
 74
     4
 75
   135
340
30D
 46
0.04
 50
0.0
 44
0.0
 45
0.0
 49
-11.0
 74
     0
  0
LTYPE
  5
306
330
28
100
AcDbSymbolTableRecord
100
AcDbLinetypeTableRecord
  2
AM_DIN_F_W050
 70
     0
  3
__ __ __ __ __ __ __ __ __ __ __ __ __ __ __
 72
    65
 73
     2
 40
6.25
 49
4.75
 74
     0
 49
-1.5
 74
     0
  0
LTYPE
  5
307
330
28
100
AcDbSymbolTableRecord
100
AcDbLinetypeTableRecord
  2
AM_DIN_G_W050
 70
     0
  3
____ . ____ . ____ . ____ . ____ . ____ . ____
 72
    65
 73
     4
 40
13.75
 49
9.75
 74
     0
 49
-1.5
 74
     0
 49
1.0
 74
     0
 49
-1.5
 74
     0
  0
LTYPE
  5
308
330
28
100
AcDbSymbolTableRecord
100
AcDbLinetypeTableRecord
  2
AM_DIN_K_W050
 70
     0
  3
_____ . . _____ . . _____ . . ____ .. ____
 72
    65
 73
     6
 40
16.25
 49
9.75
 74
     0
 49
-1.5
 74
     0
 49
1.0
 74
     0
 49
-1.5
 74
     0
 49
1.0
 74
     0
 49
-1.5
 74
     0
  0
LTYPE
  5
30A
330
28
100
AcDbSymbolTableRecord
100
AcDbLinetypeTableRecord
  2
AM_DIN_G_W050x2
 70
     0
  3
__ . __ . __ . __ . __ . __
 72
    65
 73
     4
 40
6.875
 49
4.75
 74
     0
 49
-0.875
 74
     0
 49
0.375
 74
     0
 49
-0.875
 74
     0
  0
LTYPE
  5
30B
330
28
100
AcDbSymbolTableRecord
100
AcDbLinetypeTableRecord
  2
AM_DIN_F_W050x2
 70
     0
  3
 _ _ _ _ _ _ _ _ _ _ _ _
 72
    65
 73
     2
 40
3.125
 49
2.25
 74
     0
 49
-0.875
 74
     0
  0
ENDTAB
  0
TABLE
  2
LAYER
  5
1F
102
{ACAD_XDICTIONARY
360
20
102
}
330
0
100
AcDbSymbolTable
 70
     8
  0
LAYER
  5
6
102
{ACAD_XDICTIONARY
360
7
102
}
330
1F
100
AcDbSymbolTableRecord
100
AcDbLayerTableRecord
  2
0
 70
     0
 62
     7
  6
CONTINUOUS
370
    -3
390
9
  0
LAYER
  5
53
102
{ACAD_XDICTIONARY
360
54
102
}
330
1F
100
AcDbSymbolTableRecord
100
AcDbLayerTableRecord
  2
UMRISS05
 70
     0
 62
     4
  6
CONTINUOUS
370
    -3
390
9
  0
LAYER
  5
106
102
{ACAD_XDICTIONARY
360
107
102
}
330
1F
100
AcDbSymbolTableRecord
100
AcDbLayerTableRecord
  2
BEMASSUNG
 70
     0
 62
     2
  6
CONTINUOUS
370
    -3
390
9
  0
LAYER
  5
96
102
{ACAD_XDICTIONARY
360
97
102
}
330
1F
100
AcDbSymbolTableRecord
100
AcDbLayerTableRecord
  2
ACHSEN
 70
     0
 62
     1
  6
STRICHPUNKT2
370
    -3
390
9
  0
LAYER
  5
7A
330
1F
100
AcDbSymbolTableRecord
100
AcDbLayerTableRecord
  2
DEFPOINTS
 70
     0
 62
     7
  6
CONTINUOUS
290
     0
370
    -3
390
9
  0
LAYER
  5
144
102
{ACAD_XDICTIONARY
360
145
102
}
330
1F
100
AcDbSymbolTableRecord
100
AcDbLayerTableRecord
  2
AVERDECKTE
 70
     0
 62
    13
  6
VERDECKT
370
    -3
390
9
  0
LAYER
  5
210
330
1F
100
AcDbSymbolTableRecord
100
AcDbLayerTableRecord
  2
Verdeckte Kanten(MSL)
 70
     0
 62
    11
  6
DASHED
370
    35
390
9
  0
LAYER
  5
6D
330
1F
100
AcDbSymbolTableRecord
100
AcDbLayerTableRecord
  2
AM_5
 70
     0
 62
     3
  6
CONTINUOUS
370
    25
390
9
1001
AcAecLayerStandard
1000

1000

  0
ENDTAB
  0
TABLE
  2
STYLE
  5
25
330
0
100
AcDbSymbolTable
 70
     5
  0
STYLE
  5
26
330
25
100
AcDbSymbolTableRecord
100
AcDbTextStyleTableRecord
  2
STANDARD
 70
     0
 40
0.0
 41
1.0
 50
0.0
 71
     0
 42
10.0
  3
txt
  4

  0
STYLE
  5
3A
330
25
100
AcDbSymbolTableRecord
100
AcDbTextStyleTableRecord
  2
NORM
 70
     0
 40
0.0
 41
0.8
 50
0.0
 71
     0
 42
2.399999999999999
  3
SIMPLEX.shx
  4

  0
STYLE
  5
31B
330
25
100
AcDbSymbolTableRecord
100
AcDbTextStyleTableRecord
  2
ACDINGDT
 70
     0
 40
0.0
 41
1.0
 50
0.0
 71
     0
 42
2.5
  3
amgdt.shx
  4

  0
STYLE
  5
35
330
25
100
AcDbSymbolTableRecord
100
AcDbTextStyleTableRecord
  2
ARIAL-STANDARD
 70
     0
 40
0.0
 41
1.0
 50
0.0
 71
     0
 42
3.5
  3
arial.ttf
  4

1001
ACAD
1000
Arial
1071
       34
  0
STYLE
  5
30D
330
25
100
AcDbSymbolTableRecord
100
AcDbTextStyleTableRecord
  2

 70
     1
 40
0.0
 41
1.0
 50
0.0
 71
     0
 42
2.5
  3
ltypeshp.shx
  4

  0
ENDTAB
  0
TABLE
  2
VIEW
  5
2B
330
0
100
AcDbSymbolTable
 70
     0
  0
ENDTAB
  0
TABLE
  2
UCS
  5
2C
330
0
100
AcDbSymbolTable
 70
     0
  0
ENDTAB
  0
TABLE
  2
APPID
  5
32
330
0
100
AcDbSymbolTable
 70
    15
  0
APPID
  5
24
330
32
100
AcDbSymbolTableRecord
100
AcDbRegAppTableRecord
  2
ACAD
 70
     0
  0
APPID
  5
25C
330
32
100
AcDbSymbolTableRecord
100
AcDbRegAppTableRecord
  2
GENIUS_GENODEF_13
 70
     0
  0
APPID
  5
34C
330
32
100
AcDbSymbolTableRecord
100
AcDbRegAppTableRecord
  2
ACAD_DSTYLE_DIMJOGGED_JOGANGLE_SYMBOL
 70
     0
  0
APPID
  5
37
330
32
100
AcDbSymbolTableRecord
100
AcDbRegAppTableRecord
  2
ACAD_DSTYLE_DIMJAG
 70
     0
  0
APPID
  5
36
330
32
100
AcDbSymbolTableRecord
100
AcDbRegAppTableRecord
  2
ACAD_DSTYLE_DIMBREAK
 70
     0
  0
APPID
  5
38
330
32
100
AcDbSymbolTableRecord
100
AcDbRegAppTableRecord
  2
ACAD_DSTYLE_DIMTALN
 70
     0
  0
APPID
  5
1A
330
32
100
AcDbSymbolTableRecord
100
AcDbRegAppTableRecord
  2
ACAD_PSEXT
 70
     0
  0
APPID
  5
7F
330
32
100
AcDbSymbolTableRecord
100
AcDbRegAppTableRecord
  2
ACAD_DSTYLE_DIMINSPECT
 70
     0
  0
APPID
  5
6E
330
32
100
AcDbSymbolTableRecord
100
AcDbRegAppTableRecord
  2
AcAecLayerStandard
 70
     0
  0
APPID
  5
25D
330
32
100
AcDbSymbolTableRecord
100
AcDbRegAppTableRecord
  2
GENIUS_GENOBJ-N-FIL_13
 70
     0
  0
APPID
  5
31
330
32
100
AcDbSymbolTableRecord
100
AcDbRegAppTableRecord
  2
ACAD_NAV_VCDISPLAY
 70
     0
  0
APPID
  5
35A
330
32
100
AcDbSymbolTableRecord
100
AcDbRegAppTableRecord
  2
ACATTRIBSERVICES
 70
     0
  0
APPID
  5
385
330
32
100
AcDbSymbolTableRecord
100
AcDbRegAppTableRecord
  2
ACAD_DSTYLE_DIM_LINETYPE
 70
     0
  0
APPID
  5
386
330
32
100
AcDbSymbolTableRecord
100
AcDbRegAppTableRecord
  2
ACAD_DSTYLE_DIM_EXT1_LINETYPE
 70
     0
  0
APPID
  5
387
330
32
100
AcDbSymbolTableRecord
100
AcDbRegAppTableRecord
  2
ACAD_DSTYLE_DIM_EXT2_LINETYPE
 70
     0
  0
ENDTAB
  0
TABLE
  2
DIMSTYLE
  5
33
330
0
100
AcDbSymbolTable
 70
    10
100
AcDbDimStyleTable
 71
     2
340
34
340
39
  0
DIMSTYLE
105
39
330
33
100
AcDbSymbolTableRecord
100
AcDbDimStyleTableRecord
  2
PROSPEKT
 70
     0
 40
1.5
 41
3.5
 42
0.5
 43
8.0
 44
1.3
 73
     0
 74
     0
 77
     1
 78
     8
140
3.5
141
1.5
143
25.39999999999999
146
0.5
147
1.0
172
     1
174
     1
176
     2
177
     2
178
     3
271
     2
272
     2
279
     2
284
     8
285
     8
286
     8
340
3A
  0
DIMSTYLE
105
34B
102
{ACAD_REACTORS
330
317
102
}
330
33
100
AcDbSymbolTableRecord
100
AcDbDimStyleTableRecord
  2
AM_DIN
 70
     0
  4
"
 41
3.5
 42
1.0
 43
10.0
 44
1.0
 47
0.1
 48
0.1
 73
     0
 74
     0
 77
     1
 78
     8
 79
     2
140
3.5
141
0.0
143
0.0393701
146
0.71
147
1.5
172
     1
176
   256
177
   256
178
     2
271
     2
272
     3
274
     4
283
     0
284
     8
340
26
371
    -1
372
    -1
1001
ACAD_DSTYLE_DIMJOGGED_JOGANGLE_SYMBOL
1070
   384
1040
1.570796326794896
1001
ACAD_DSTYLE_DIM_LINETYPE
1070
   380
1005
29
1001
ACAD_DSTYLE_DIM_EXT1_LINETYPE
1070
   381
1005
29
1001
ACAD_DSTYLE_DIM_EXT2_LINETYPE
1070
   382
1005
29
  0
DIMSTYLE
105
34D
330
33
100
AcDbSymbolTableRecord
100
AcDbDimStyleTableRecord
  2
AM_DIN$3
 70
     0
  4
"
 41
3.5
 42
1.0
 43
10.0
 44
1.0
 47
0.1
 48
0.1
 73
     0
 77
     1
 78
     8
 79
     2
140
3.5
141
0.0
143
0.0393701
146
0.71
147
1.5
176
   256
177
   256
178
     2
271
     2
272
     3
274
     4
283
     0
284
     8
288
     1
289
     0
340
26
371
    -1
372
    -1
1001
ACAD_DSTYLE_DIMJOGGED_JOGANGLE_SYMBOL
1070
   384
1040
1.570796326794896
1001
ACAD_DSTYLE_DIM_LINETYPE
1070
   380
1005
29
1001
ACAD_DSTYLE_DIM_EXT1_LINETYPE
1070
   381
1005
29
1001
ACAD_DSTYLE_DIM_EXT2_LINETYPE
1070
   382
1005
29
  0
DIMSTYLE
105
34E
330
33
100
AcDbSymbolTableRecord
100
AcDbDimStyleTableRecord
  2
AM_DIN$4
 70
     0
  4
"
 41
3.5
 42
1.0
 43
10.0
 44
1.0
 47
0.1
 48
0.1
 73
     0
 74
     0
 77
     1
 78
     8
 79
     2
140
3.5
141
0.0
143
0.0393701
146
0.71
147
1.5
172
     1
176
   256
177
   256
178
     2
271
     2
272
     3
274
     4
283
     0
284
     8
340
26
371
    -1
372
    -1
1001
ACAD_DSTYLE_DIMJOGGED_JOGANGLE_SYMBOL
1070
   384
1040
1.570796326794896
1001
ACAD_DSTYLE_DIM_LINETYPE
1070
   380
1005
29
1001
ACAD_DSTYLE_DIM_EXT1_LINETYPE
1070
   381
1005
29
1001
ACAD_DSTYLE_DIM_EXT2_LINETYPE
1070
   382
1005
29
  0
DIMSTYLE
105
34F
330
33
100
AcDbSymbolTableRecord
100
AcDbDimStyleTableRecord
  2
AM_DIN$6
 70
     0
  4
"
 41
3.5
 42
1.0
 43
10.0
 44
1.0
 47
0.1
 48
0.1
 73
     0
 74
     0
 78
     8
 79
     2
140
3.5
141
0.0
143
0.0393701
146
0.71
147
1.5
172
     1
176
   256
177
   256
178
     2
271
     2
272
     3
274
     4
283
     0
284
     8
340
26
371
    -1
372
    -1
1001
ACAD_DSTYLE_DIMJOGGED_JOGANGLE_SYMBOL
1070
   384
1040
1.570796326794896
1001
ACAD_DSTYLE_DIM_LINETYPE
1070
   380
1005
29
1001
ACAD_DSTYLE_DIM_EXT1_LINETYPE
1070
   381
1005
29
1001
ACAD_DSTYLE_DIM_EXT2_LINETYPE
1070
   382
1005
29
  0
DIMSTYLE
105
350
330
33
100
AcDbSymbolTableRecord
100
AcDbDimStyleTableRecord
  2
AM_DIN$7
 70
     0
  4
"
 41
3.5
 42
1.0
 43
10.0
 44
1.0
 47
0.1
 48
0.1
 73
     0
 74
     0
 77
     1
 78
     8
 79
     2
140
3.5
141
0.0
143
0.0393701
146
0.71
147
1.5
172
     1
176
   256
177
   256
178
     2
271
     2
272
     3
274
     4
283
     0
284
     8
340
26
371
    -1
372
    -1
1001
ACAD_DSTYLE_DIMJOGGED_JOGANGLE_SYMBOL
1070
   384
1040
1.570796326794896
1001
ACAD_DSTYLE_DIM_LINETYPE
1070
   380
1005
29
1001
ACAD_DSTYLE_DIM_EXT1_LINETYPE
1070
   381
1005
29
1001
ACAD_DSTYLE_DIM_EXT2_LINETYPE
1070
   382
1005
29
  0
DIMSTYLE
105
351
330
33
100
AcDbSymbolTableRecord
100
AcDbDimStyleTableRecord
  2
AM_DIN$SF
 70
     0
  4
"
 41
3.5
 42
1.0
 43
10.0
 44
1.0
 47
0.1
 48
0.1
 73
     0
 74
     0
 75
     1
 76
     1
 77
     1
 78
     8
 79
     2
140
3.5
141
0.0
143
0.0393701
146
0.71
147
1.5
172
     1
176
   256
177
   256
178
     2
271
     2
272
     3
274
     4
283
     0
284
     8
340
26
371
    -1
372
    -1
1001
ACAD_DSTYLE_DIMJOGGED_JOGANGLE_SYMBOL
1070
   384
1040
1.570796326794896
1001
ACAD_DSTYLE_DIM_LINETYPE
1070
   380
1005
29
1001
ACAD_DSTYLE_DIM_EXT1_LINETYPE
1070
   381
1005
29
1001
ACAD_DSTYLE_DIM_EXT2_LINETYPE
1070
   382
1005
29
  0
DIMSTYLE
105
352
330
33
100
AcDbSymbolTableRecord
100
AcDbDimStyleTableRecord
  2
AM_DIN$SH
 70
     0
  4
"
 41
3.5
 42
1.0
 43
10.0
 44
1.0
 47
0.1
 48
0.1
 73
     0
 74
     0
 75
     1
 76
     1
 77
     1
 78
     8
 79
     2
140
3.5
141
0.0
143
0.0393701
144
2.0
146
0.71
147
1.5
172
     1
173
     1
176
   256
177
   256
178
     2
271
     2
272
     3
274
     4
283
     0
284
     8
340
26
343
353
371
    -1
372
    -1
1001
ACAD_DSTYLE_DIMJOGGED_JOGANGLE_SYMBOL
1070
   384
1040
1.570796326794896
1001
ACAD_DSTYLE_DIM_LINETYPE
1070
   380
1005
29
1001
ACAD_DSTYLE_DIM_EXT1_LINETYPE
1070
   381
1005
29
1001
ACAD_DSTYLE_DIM_EXT2_LINETYPE
1070
   382
1005
29
  0
DIMSTYLE
105
34
102
{ACAD_REACTORS
330
1FF
330
1F2
330
1E3
330
1D0
330
1C0
330
1AE
330
1A1
330
194
330
187
330
17A
330
16D
330
160
330
153
330
132
330
125
330
118
330
10B
330
F4
330
E7
330
D2
330
C5
330
9D
102
}
330
33
100
AcDbSymbolTableRecord
100
AcDbDimStyleTableRecord
  2
Katalog 09
 70
     0
 41
4.0
 42
0.0
 43
8.0
 44
1.0
 73
     0
 74
     0
 77
     1
 78
     8
140
4.349999999999999
141
1.5
143
25.39999999999999
146
0.4285714285714286
147
1.0
172
     1
174
     1
176
     2
177
     2
178
     3
271
     2
272
     2
284
     8
285
     8
286
     8
340
35
1001
ACAD_DSTYLE_DIMBREAK
1070
   391
1040
3.75
1001
ACAD_DSTYLE_DIMJAG
1070
   388
1040
1.5
1001
ACAD_DSTYLE_DIMTALN
1070
   392
1070
     0
  0
DIMSTYLE
105
7E
102
{ACAD_REACTORS
330
6C
102
}
330
33
100
AcDbSymbolTableRecord
100
AcDbDimStyleTableRecord
  2
Katalog 09$0
 70
     0
 41
4.0
 42
0.0
 43
8.0
 44
1.0
 73
     0
 74
     0
 77
     1
 78
     8
140
4.349999999999999
141
1.5
143
25.39999999999999
146
0.4285714285714286
147
1.0
172
     1
174
     1
176
     2
177
     2
178
     3
271
     2
272
     2
284
     8
285
     8
286
     8
340
35
1001
ACAD_DSTYLE_DIMBREAK
1070
   391
1040
3.75
1001
ACAD_DSTYLE_DIMJAG
1070
   388
1040
1.5
  0
ENDTAB
  0
TABLE
  2
BLOCK_RECORD
  5
1
330
0
100
AcDbSymbolTable
 70
    25
  0
BLOCK_RECORD
  5
2
102
{ACAD_XDICTIONARY
360
3
102
}
330
1
100
AcDbSymbolTableRecord
100
AcDbBlockTableRecord
  2
*MODEL_SPACE
340
17
  0
BLOCK_RECORD
  5
1B
330
1
100
AcDbSymbolTableRecord
100
AcDbBlockTableRecord
  2
*PAPER_SPACE
340
1E
  0
BLOCK_RECORD
  5
353
330
1
100
AcDbSymbolTableRecord
100
AcDbBlockTableRecord
  2
GENAXEH
340
0
  0
BLOCK_RECORD
  5
200
330
1
100
AcDbSymbolTableRecord
100
AcDbBlockTableRecord
  2
*D1
340
0
  0
BLOCK_RECORD
  5
1F3
330
1
100
AcDbSymbolTableRecord
100
AcDbBlockTableRecord
  2
*D2
340
0
  0
BLOCK_RECORD
  5
1E4
330
1
100
AcDbSymbolTableRecord
100
AcDbBlockTableRecord
  2
*D3
340
0
  0
BLOCK_RECORD
  5
1D1
330
1
100
AcDbSymbolTableRecord
100
AcDbBlockTableRecord
  2
*D4
340
0
  0
BLOCK_RECORD
  5
1C1
330
1
100
AcDbSymbolTableRecord
100
AcDbBlockTableRecord
  2
*D5
340
0
  0
BLOCK_RECORD
  5
1AF
330
1
100
AcDbSymbolTableRecord
100
AcDbBlockTableRecord
  2
*D6
340
0
  0
BLOCK_RECORD
  5
1A2
330
1
100
AcDbSymbolTableRecord
100
AcDbBlockTableRecord
  2
*D7
340
0
  0
BLOCK_RECORD
  5
195
330
1
100
AcDbSymbolTableRecord
100
AcDbBlockTableRecord
  2
*D8
340
0
  0
BLOCK_RECORD
  5
188
330
1
100
AcDbSymbolTableRecord
100
AcDbBlockTableRecord
  2
*D9
340
0
  0
BLOCK_RECORD
  5
17B
330
1
100
AcDbSymbolTableRecord
100
AcDbBlockTableRecord
  2
*D10
340
0
  0
BLOCK_RECORD
  5
16E
330
1
100
AcDbSymbolTableRecord
100
AcDbBlockTableRecord
  2
*D11
340
0
  0
BLOCK_RECORD
  5
161
330
1
100
AcDbSymbolTableRecord
100
AcDbBlockTableRecord
  2
*D12
340
0
  0
BLOCK_RECORD
  5
154
330
1
100
AcDbSymbolTableRecord
100
AcDbBlockTableRecord
  2
*D13
340
0
  0
BLOCK_RECORD
  5
133
330
1
100
AcDbSymbolTableRecord
100
AcDbBlockTableRecord
  2
*D14
340
0
  0
BLOCK_RECORD
  5
126
330
1
100
AcDbSymbolTableRecord
100
AcDbBlockTableRecord
  2
*D15
340
0
  0
BLOCK_RECORD
  5
119
330
1
100
AcDbSymbolTableRecord
100
AcDbBlockTableRecord
  2
*D16
340
0
  0
BLOCK_RECORD
  5
10C
330
1
100
AcDbSymbolTableRecord
100
AcDbBlockTableRecord
  2
*D17
340
0
  0
BLOCK_RECORD
  5
F7
330
1
100
AcDbSymbolTableRecord
100
AcDbBlockTableRecord
  2
*D18
340
0
  0
BLOCK_RECORD
  5
E8
330
1
100
AcDbSymbolTableRecord
100
AcDbBlockTableRecord
  2
*D19
340
0
  0
BLOCK_RECORD
  5
D3
330
1
100
AcDbSymbolTableRecord
100
AcDbBlockTableRecord
  2
*D20
340
0
  0
BLOCK_RECORD
  5
C6
330
1
100
AcDbSymbolTableRecord
100
AcDbBlockTableRecord
  2
*D21
340
0
  0
BLOCK_RECORD
  5
9E
330
1
100
AcDbSymbolTableRecord
100
AcDbBlockTableRecord
  2
*D22
340
0
  0
BLOCK_RECORD
  5
336
330
1
100
AcDbSymbolTableRecord
100
AcDbBlockTableRecord
  2
_ACMFILLED30
340
0
  0
BLOCK_RECORD
  5
6F
330
1
100
AcDbSymbolTableRecord
100
AcDbBlockTableRecord
  2
*D24
340
0
  0
ENDTAB
  0
ENDSEC
  0
SECTION
  2
BLOCKS
  0
BLOCK
  5
5
330
2
100
AcDbEntity
  8
0
100
AcDbBlockBegin
  2
*MODEL_SPACE
 70
     0
 10
0.0
 20
0.0
 30
0.0
  3
*MODEL_SPACE
  1

  0
ENDBLK
  5
16
330
2
100
AcDbEntity
  8
0
100
AcDbBlockEnd
  0
BLOCK
  5
1C
330
1B
100
AcDbEntity
 67
     1
  8
0
100
AcDbBlockBegin
  2
*PAPER_SPACE
 70
     0
 10
0.0
 20
0.0
 30
0.0
  3
*PAPER_SPACE
  1

  0
ENDBLK
  5
1D
330
1B
100
AcDbEntity
 67
     1
  8
0
100
AcDbBlockEnd
  0
BLOCK
  5
354
330
353
100
AcDbEntity
  8
0
100
AcDbBlockBegin
  2
GENAXEH
 70
     0
 10
0.0
 20
0.0
 30
0.0
  3
GENAXEH
  1

  0
LINE
  5
355
330
353
100
AcDbEntity
  8
0
100
AcDbLine
 10
-1.0
 20
0.0
 30
0.0
 11
1.0
 21
0.0
 31
0.0
  0
ENDBLK
  5
356
330
353
100
AcDbEntity
  8
0
100
AcDbBlockEnd
  0
BLOCK
  5
201
330
200
100
AcDbEntity
  8
0
100
AcDbBlockBegin
  2
*D1
 70
     1
 10
0.0
 20
0.0
 30
0.0
  3
*D1
  1

  0
LINE
  5
202
330
200
100
AcDbEntity
  8
BEMASSUNG
 62
     2
370
    -2
100
AcDbLine
 10
161.6061745213899
 20
373.9439749130911
 30
0.0
 11
150.6935075872787
 21
373.9439749130911
 31
0.0
  0
LINE
  5
203
330
200
100
AcDbEntity
  8
BEMASSUNG
 62
     2
370
    -2
100
AcDbLine
 10
161.6061745213899
 20
435.943974913091
 30
0.0
 11
150.6935075872787
 21
435.943974913091
 31
0.0
  0
LINE
  5
204
330
200
100
AcDbEntity
  8
BEMASSUNG
 62
     2
370
    -2
100
AcDbLine
 10
151.6935075872787
 20
377.9439749130911
 30
0.0
 11
151.6935075872787
 21
431.943974913091
 31
0.0
  0
SOLID
  5
205
330
200
100
AcDbEntity
  8
BEMASSUNG
 62
     2
100
AcDbTrace
 10
151.026840920612
 20
377.9439749130911
 30
0.0
 11
152.3601742539453
 21
377.9439749130911
 31
0.0
 12
151.6935075872787
 22
373.9439749130911
 32
0.0
 13
151.6935075872787
 23
373.9439749130911
 33
0.0
  0
SOLID
  5
206
330
200
100
AcDbEntity
  8
BEMASSUNG
 62
     2
100
AcDbTrace
 10
151.026840920612
 20
431.943974913091
 30
0.0
 11
152.3601742539453
 21
431.943974913091
 31
0.0
 12
151.6935075872787
 22
435.943974913091
 32
0.0
 13
151.6935075872787
 23
435.943974913091
 33
0.0
  0
MTEXT
  5
207
330
200
100
AcDbEntity
  8
BEMASSUNG
 62
     3
100
AcDbMText
 10
148.4725150906893
 20
404.943974913091
 30
0.0
 40
4.349999999999999
 41
0.0
 71
     5
 72
     1
  1
\A1;62
  7
ARIAL-STANDARD
 11
0.0000000000000001
 21
1.0
 31
0.0
 73
     1
 44
1.0
1001
ACAD
1000
MTEXTBEGIN
1070
    73
1070
     1
1070
    44
1040
1.0
1070
    74
1070
     0
1000
MTEXTEND
  0
POINT
  5
208
330
200
100
AcDbEntity
  8
DEFPOINTS
 62
     0
100
AcDbPoint
 10
161.6061745213899
 20
373.9439749130911
 30
0.0
  0
POINT
  5
209
330
200
100
AcDbEntity
  8
DEFPOINTS
 62
     0
100
AcDbPoint
 10
161.6061745213899
 20
435.943974913091
 30
0.0
  0
POINT
  5
20A
330
200
100
AcDbEntity
  8
DEFPOINTS
 62
     0
100
AcDbPoint
 10
151.6935075872787
 20
435.943974913091
 30
0.0
  0
ENDBLK
  5
20B
330
200
100
AcDbEntity
  8
0
100
AcDbBlockEnd
  0
BLOCK
  5
1F4
330
1F3
100
AcDbEntity
  8
0
100
AcDbBlockBegin
  2
*D2
 70
     1
 10
0.0
 20
0.0
 30
0.0
  3
*D2
  1

  0
LINE
  5
1F5
330
1F3
100
AcDbEntity
  8
BEMASSUNG
 62
     2
370
    -2
100
AcDbLine
 10
161.6061745213899
 20
373.9439749130912
 30
0.0
 11
161.6061745213899
 21
343.7791645294181
 31
0.0
  0
LINE
  5
1F6
330
1F3
100
AcDbEntity
  8
BEMASSUNG
 62
     2
370
    -2
100
AcDbLine
 10
176.606174521389
 20
343.902714115236
 30
0.0
 11
176.606174521389
 21
345.7791645294181
 31
0.0
  0
LINE
  5
1F7
330
1F3
100
AcDbEntity
  8
BEMASSUNG
 62
     2
370
    -2
100
AcDbLine
 10
165.6061745213899
 20
344.779164529418
 30
0.0
 11
172.606174521389
 21
344.779164529418
 31
0.0
  0
SOLID
  5
1F8
330
1F3
100
AcDbEntity
  8
BEMASSUNG
 62
     2
100
AcDbTrace
 10
165.6061745213899
 20
345.4458311960847
 30
0.0
 11
165.6061745213899
 21
344.1124978627513
 31
0.0
 12
161.6061745213899
 22
344.779164529418
 32
0.0
 13
161.6061745213899
 23
344.779164529418
 33
0.0
  0
SOLID
  5
1F9
330
1F3
100
AcDbEntity
  8
BEMASSUNG
 62
     2
100
AcDbTrace
 10
172.606174521389
 20
345.4458311960847
 30
0.0
 11
172.606174521389
 21
344.1124978627513
 31
0.0
 12
176.606174521389
 22
344.779164529418
 32
0.0
 13
176.606174521389
 23
344.779164529418
 33
0.0
  0
MTEXT
  5
1FA
330
1F3
100
AcDbEntity
  8
BEMASSUNG
 62
     3
100
AcDbMText
 10
169.1061745213894
 20
348.0001570260074
 30
0.0
 40
4.349999999999999
 41
0.0
 71
     5
 72
     1
  1
\A1;15
  7
ARIAL-STANDARD
 73
     1
 44
1.0
1001
ACAD
1000
MTEXTBEGIN
1070
    73
1070
     1
1070
    44
1040
1.0
1070
    74
1070
     0
1000
MTEXTEND
  0
POINT
  5
1FB
330
1F3
100
AcDbEntity
  8
DEFPOINTS
 62
     0
100
AcDbPoint
 10
161.6061745213899
 20
373.9439749130912
 30
0.0
  0
POINT
  5
1FC
330
1F3
100
AcDbEntity
  8
DEFPOINTS
 62
     0
100
AcDbPoint
 10
176.606174521389
 20
343.902714115236
 30
0.0
  0
POINT
  5
1FD
330
1F3
100
AcDbEntity
  8
DEFPOINTS
 62
     0
100
AcDbPoint
 10
176.606174521389
 20
344.779164529418
 30
0.0
  0
ENDBLK
  5
1FE
330
1F3
100
AcDbEntity
  8
0
100
AcDbBlockEnd
  0
BLOCK
  5
1E5
330
1E4
100
AcDbEntity
  8
0
100
AcDbBlockBegin
  2
*D3
 70
     1
 10
0.0
 20
0.0
 30
0.0
  3
*D3
  1

  0
LINE
  5
1E6
330
1E4
100
AcDbEntity
  8
BEMASSUNG
 62
     2
370
    -2
100
AcDbLine
 10
179.606174521389
 20
206.4439749130909
 30
0.0
 11
179.606174521389
 21
194.0190785509433
 31
0.0
  0
LINE
  5
1E7
330
1E4
100
AcDbEntity
  8
BEMASSUNG
 62
     2
370
    -2
100
AcDbLine
 10
176.606174521389
 20
206.4439749130909
 30
0.0
 11
176.606174521389
 21
194.0190785509433
 31
0.0
  0
LINE
  5
1E8
330
1E4
100
AcDbEntity
  8
BEMASSUNG
 62
     2
370
    -2
100
AcDbLine
 10
183.606174521389
 20
195.0190785509433
 30
0.0
 11
187.606174521389
 21
195.0190785509433
 31
0.0
  0
LINE
  5
1E9
330
1E4
100
AcDbEntity
  8
BEMASSUNG
 62
     2
370
    -2
100
AcDbLine
 10
172.606174521389
 20
195.0190785509433
 30
0.0
 11
168.606174521389
 21
195.0190785509433
 31
0.0
  0
LINE
  5
1EA
330
1E4
100
AcDbEntity
  8
BEMASSUNG
 62
     2
370
    -2
100
AcDbLine
 10
179.606174521389
 20
195.0190785509433
 30
0.0
 11
176.606174521389
 21
195.0190785509433
 31
0.0
  0
SOLID
  5
1EB
330
1E4
100
AcDbEntity
  8
BEMASSUNG
 62
     2
100
AcDbTrace
 10
183.606174521389
 20
195.6857452176099
 30
0.0
 11
183.606174521389
 21
194.3524118842766
 31
0.0
 12
179.606174521389
 22
195.0190785509433
 32
0.0
 13
179.606174521389
 23
195.0190785509433
 33
0.0
  0
SOLID
  5
1EC
330
1E4
100
AcDbEntity
  8
BEMASSUNG
 62
     2
100
AcDbTrace
 10
172.606174521389
 20
195.6857452176099
 30
0.0
 11
172.606174521389
 21
194.3524118842766
 31
0.0
 12
176.606174521389
 22
195.0190785509433
 32
0.0
 13
176.606174521389
 23
195.0190785509433
 33
0.0
  0
MTEXT
  5
1ED
330
1E4
100
AcDbEntity
  8
BEMASSUNG
 62
     3
100
AcDbMText
 10
178.106174521389
 20
198.2415546764548
 30
0.0
 40
4.349999999999999
 41
0.0
 71
     5
 72
     1
  1
\A1;3
  7
ARIAL-STANDARD
 73
     1
 44
1.0
1001
ACAD
1000
MTEXTBEGIN
1070
    73
1070
     1
1070
    44
1040
1.0
1070
    74
1070
     0
1000
MTEXTEND
  0
POINT
  5
1EE
330
1E4
100
AcDbEntity
  8
DEFPOINTS
 62
     0
100
AcDbPoint
 10
179.606174521389
 20
206.4439749130909
 30
0.0
  0
POINT
  5
1EF
330
1E4
100
AcDbEntity
  8
DEFPOINTS
 62
     0
100
AcDbPoint
 10
176.606174521389
 20
206.4439749130909
 30
0.0
  0
POINT
  5
1F0
330
1E4
100
AcDbEntity
  8
DEFPOINTS
 62
     0
100
AcDbPoint
 10
176.606174521389
 20
195.0190785509433
 30
0.0
  0
ENDBLK
  5
1F1
330
1E4
100
AcDbEntity
  8
0
100
AcDbBlockEnd
  0
BLOCK
  5
1D2
330
1D1
100
AcDbEntity
  8
0
100
AcDbBlockBegin
  2
*D4
 70
     1
 10
0.0
 20
0.0
 30
0.0
  3
*D4
  1

  0
LINE
  5
1D3
330
1D1
100
AcDbEntity
  8
UMRISS05
 62
     2
370
    -2
100
AcDbLine
 10
64.836448855963
 20
162.5748949209283
 30
0.0
 11
64.836448855963
 21
178.2849831965837
 31
0.0
  0
LINE
  5
1D4
330
1D1
100
AcDbEntity
  8
UMRISS05
 62
     2
370
    -2
100
AcDbLine
 10
84.23644885596292
 20
162.5748949209283
 30
0.0
 11
84.23644885596292
 21
178.2849831965837
 31
0.0
  0
LINE
  5
1D5
330
1D1
100
AcDbEntity
  8
UMRISS05
 62
     2
370
    -2
100
AcDbLine
 10
68.836448855963
 20
177.2849831965837
 30
0.0
 11
80.23644885596292
 21
177.2849831965837
 31
0.0
  0
SOLID
  5
1D6
330
1D1
100
AcDbEntity
  8
UMRISS05
 62
     2
100
AcDbTrace
 10
68.836448855963
 20
177.9516498632504
 30
0.0
 11
68.836448855963
 21
176.6183165299171
 31
0.0
 12
64.836448855963
 22
177.2849831965837
 32
0.0
 13
64.836448855963
 23
177.2849831965837
 33
0.0
  0
SOLID
  5
1D7
330
1D1
100
AcDbEntity
  8
UMRISS05
 62
     2
100
AcDbTrace
 10
80.23644885596292
 20
177.9516498632504
 30
0.0
 11
80.23644885596292
 21
176.6183165299171
 31
0.0
 12
84.23644885596292
 22
177.2849831965837
 32
0.0
 13
84.23644885596292
 23
177.2849831965837
 33
0.0
  0
MTEXT
  5
1D8
330
1D1
100
AcDbEntity
  8
UMRISS05
 62
     3
100
AcDbMText
 10
74.53644885596296
 20
180.5059756931731
 30
0.0
 40
4.349999999999999
 41
0.0
 71
     5
 72
     1
  1
\A1;19.4
  7
ARIAL-STANDARD
 73
     1
 44
1.0
1001
ACAD
1000
MTEXTBEGIN
1070
    73
1070
     1
1070
    44
1040
1.0
1070
    74
1070
     0
1000
MTEXTEND
  0
POINT
  5
1D9
330
1D1
100
AcDbEntity
  8
DEFPOINTS
 62
     0
100
AcDbPoint
 10
64.836448855963
 20
162.5748949209283
 30
0.0
  0
POINT
  5
1DA
330
1D1
100
AcDbEntity
  8
DEFPOINTS
 62
     0
100
AcDbPoint
 10
84.23644885596292
 20
162.5748949209283
 30
0.0
  0
POINT
  5
1DB
330
1D1
100
AcDbEntity
  8
DEFPOINTS
 62
     0
100
AcDbPoint
 10
84.23644885596292
 20
177.2849831965837
 30
0.0
  0
ENDBLK
  5
1DC
330
1D1
100
AcDbEntity
  8
0
100
AcDbBlockEnd
  0
BLOCK
  5
1C2
330
1C1
100
AcDbEntity
  8
0
100
AcDbBlockBegin
  2
*D5
 70
     1
 10
0.0
 20
0.0
 30
0.0
  3
*D5
  1

  0
LINE
  5
1C3
330
1C1
100
AcDbEntity
  8
UMRISS05
 62
     2
370
    -2
100
AcDbLine
 10
64.836448855963
 20
162.5748949209286
 30
0.0
 11
64.836448855963
 21
171.1761936687997
 31
0.0
  0
LINE
  5
1C4
330
1C1
100
AcDbEntity
  8
UMRISS05
 62
     2
370
    -2
100
AcDbLine
 10
62.03644885596293
 20
147.5748949209408
 30
0.0
 11
62.03644885596293
 21
171.1761936687997
 31
0.0
  0
LINE
  5
1C5
330
1C1
100
AcDbEntity
  8
UMRISS05
 62
     2
370
    -2
100
AcDbLine
 10
68.836448855963
 20
170.1761936687997
 30
0.0
 11
72.836448855963
 21
170.1761936687997
 31
0.0
  0
LINE
  5
1C6
330
1C1
100
AcDbEntity
  8
UMRISS05
 62
     2
370
    -2
100
AcDbLine
 10
58.03644885596293
 20
170.1761936687997
 30
0.0
 11
44.03375444941448
 21
170.1761936687997
 31
0.0
  0
LINE
  5
1C7
330
1C1
100
AcDbEntity
  8
UMRISS05
 62
     2
370
    -2
100
AcDbLine
 10
64.836448855963
 20
170.1761936687997
 30
0.0
 11
62.03644885596293
 21
170.1761936687997
 31
0.0
  0
SOLID
  5
1C8
330
1C1
100
AcDbEntity
  8
UMRISS05
 62
     2
100
AcDbTrace
 10
68.836448855963
 20
170.8428603354664
 30
0.0
 11
68.836448855963
 21
169.5095270021331
 31
0.0
 12
64.836448855963
 22
170.1761936687997
 32
0.0
 13
64.836448855963
 23
170.1761936687997
 33
0.0
  0
SOLID
  5
1C9
330
1C1
100
AcDbEntity
  8
UMRISS05
 62
     2
100
AcDbTrace
 10
58.03644885596293
 20
170.8428603354664
 30
0.0
 11
58.03644885596293
 21
169.5095270021331
 31
0.0
 12
62.03644885596293
 22
170.1761936687997
 32
0.0
 13
62.03644885596293
 23
170.1761936687997
 33
0.0
  0
MTEXT
  5
1CA
330
1C1
100
AcDbEntity
  8
UMRISS05
 62
     3
100
AcDbMText
 10
49.03510165268869
 20
173.3971861653891
 30
0.0
 40
4.349999999999999
 41
0.0
 71
     5
 72
     1
  1
\A1;2.8
  7
ARIAL-STANDARD
 73
     1
 44
1.0
1001
ACAD
1000
MTEXTBEGIN
1070
    73
1070
     1
1070
    44
1040
1.0
1070
    74
1070
     0
1000
MTEXTEND
  0
POINT
  5
1CB
330
1C1
100
AcDbEntity
  8
DEFPOINTS
 62
     0
100
AcDbPoint
 10
64.836448855963
 20
162.5748949209286
 30
0.0
  0
POINT
  5
1CC
330
1C1
100
AcDbEntity
  8
DEFPOINTS
 62
     0
100
AcDbPoint
 10
62.03644885596293
 20
147.5748949209408
 30
0.0
  0
POINT
  5
1CD
330
1C1
100
AcDbEntity
  8
DEFPOINTS
 62
     0
100
AcDbPoint
 10
62.03644885596293
 20
170.1761936687997
 30
0.0
  0
ENDBLK
  5
1CE
330
1C1
100
AcDbEntity
  8
0
100
AcDbBlockEnd
  0
BLOCK
  5
1B0
330
1AF
100
AcDbEntity
  8
0
100
AcDbBlockBegin
  2
*D6
 70
     1
 10
0.0
 20
0.0
 30
0.0
  3
*D6
  1

  0
LINE
  5
1B1
330
1AF
100
AcDbEntity
  8
BEMASSUNG
 62
     2
370
    -2
100
AcDbLine
 10
88.5364488559926
 20
428.9439749130909
 30
0.0
 11
131.8685919862415
 21
428.9439749130909
 31
0.0
  0
LINE
  5
1B2
330
1AF
100
AcDbEntity
  8
BEMASSUNG
 62
     2
370
    -2
100
AcDbLine
 10
86.03644885599265
 20
476.4439749130919
 30
0.0
 11
131.8685919862415
 21
476.4439749130918
 31
0.0
  0
LINE
  5
1B3
330
1AF
100
AcDbEntity
  8
BEMASSUNG
 62
     2
370
    -2
100
AcDbLine
 10
130.8685919862415
 20
432.9439749130909
 30
0.0
 11
130.8685919862415
 21
472.4439749130918
 31
0.0
  0
SOLID
  5
1B4
330
1AF
100
AcDbEntity
  8
BEMASSUNG
 62
     2
100
AcDbTrace
 10
130.2019253195748
 20
432.9439749130909
 30
0.0
 11
131.5352586529081
 21
432.9439749130909
 31
0.0
 12
130.8685919862415
 22
428.9439749130909
 32
0.0
 13
130.8685919862415
 23
428.9439749130909
 33
0.0
  0
SOLID
  5
1B5
330
1AF
100
AcDbEntity
  8
BEMASSUNG
 62
     2
100
AcDbTrace
 10
130.2019253195748
 20
472.4439749130918
 30
0.0
 11
131.5352586529082
 21
472.4439749130918
 31
0.0
 12
130.8685919862415
 22
476.4439749130918
 32
0.0
 13
130.8685919862415
 23
476.4439749130918
 33
0.0
  0
MTEXT
  5
1B6
330
1AF
100
AcDbEntity
  8
BEMASSUNG
 62
     3
100
AcDbMText
 10
127.6565012631855
 20
452.6939749130914
 30
0.0
 40
4.349999999999999
 41
0.0
 71
     5
 72
     1
  1
\A1;47.5
  7
ARIAL-STANDARD
 11
0.0000000000000001
 21
1.0
 31
0.0
 73
     1
 44
1.0
1001
ACAD
1000
MTEXTBEGIN
1070
    73
1070
     1
1070
    44
1040
1.0
1070
    74
1070
     0
1000
MTEXTEND
  0
POINT
  5
1B7
330
1AF
100
AcDbEntity
  8
DEFPOINTS
 62
     0
100
AcDbPoint
 10
88.5364488559926
 20
428.9439749130909
 30
0.0
  0
POINT
  5
1B8
330
1AF
100
AcDbEntity
  8
DEFPOINTS
 62
     0
100
AcDbPoint
 10
86.03644885599265
 20
476.4439749130919
 30
0.0
  0
POINT
  5
1B9
330
1AF
100
AcDbEntity
  8
DEFPOINTS
 62
     0
100
AcDbPoint
 10
130.8685919862415
 20
476.4439749130918
 30
0.0
  0
ENDBLK
  5
1BA
330
1AF
100
AcDbEntity
  8
0
100
AcDbBlockEnd
  0
BLOCK
  5
1A3
330
1A2
100
AcDbEntity
  8
0
100
AcDbBlockBegin
  2
*D7
 70
     1
 10
0.0
 20
0.0
 30
0.0
  3
*D7
  1

  0
LINE
  5
1A4
330
1A2
100
AcDbEntity
  8
BEMASSUNG
 62
     2
370
    -2
100
AcDbLine
 10
88.53644885599255
 20
380.943974913091
 30
0.0
 11
131.8685919862415
 21
380.9439749130909
 31
0.0
  0
LINE
  5
1A5
330
1A2
100
AcDbEntity
  8
BEMASSUNG
 62
     2
370
    -2
100
AcDbLine
 10
88.5364488559926
 20
428.9439749130909
 30
0.0
 11
131.8685919862415
 21
428.9439749130909
 31
0.0
  0
LINE
  5
1A6
330
1A2
100
AcDbEntity
  8
BEMASSUNG
 62
     2
370
    -2
100
AcDbLine
 10
130.8685919862415
 20
384.9439749130909
 30
0.0
 11
130.8685919862415
 21
424.9439749130909
 31
0.0
  0
SOLID
  5
1A7
330
1A2
100
AcDbEntity
  8
BEMASSUNG
 62
     2
100
AcDbTrace
 10
130.2019253195748
 20
384.9439749130909
 30
0.0
 11
131.5352586529081
 21
384.9439749130909
 31
0.0
 12
130.8685919862415
 22
380.9439749130909
 32
0.0
 13
130.8685919862415
 23
380.9439749130909
 33
0.0
  0
SOLID
  5
1A8
330
1A2
100
AcDbEntity
  8
BEMASSUNG
 62
     2
100
AcDbTrace
 10
130.2019253195748
 20
424.9439749130909
 30
0.0
 11
131.5352586529081
 21
424.9439749130909
 31
0.0
 12
130.8685919862415
 22
428.9439749130909
 32
0.0
 13
130.8685919862415
 23
428.9439749130909
 33
0.0
  0
MTEXT
  5
1A9
330
1A2
100
AcDbEntity
  8
BEMASSUNG
 62
     3
100
AcDbMText
 10
127.647599489652
 20
404.9439749130909
 30
0.0
 40
4.349999999999999
 41
0.0
 71
     5
 72
     1
  1
\A1;48
  7
ARIAL-STANDARD
 11
0.0000000000000001
 21
1.0
 31
0.0
 73
     1
 44
1.0
1001
ACAD
1000
MTEXTBEGIN
1070
    73
1070
     1
1070
    44
1040
1.0
1070
    74
1070
     0
1000
MTEXTEND
  0
POINT
  5
1AA
330
1A2
100
AcDbEntity
  8
DEFPOINTS
 62
     0
100
AcDbPoint
 10
88.53644885599255
 20
380.943974913091
 30
0.0
  0
POINT
  5
1AB
330
1A2
100
AcDbEntity
  8
DEFPOINTS
 62
     0
100
AcDbPoint
 10
88.5364488559926
 20
428.9439749130909
 30
0.0
  0
POINT
  5
1AC
330
1A2
100
AcDbEntity
  8
DEFPOINTS
 62
     0
100
AcDbPoint
 10
130.8685919862415
 20
428.9439749130909
 30
0.0
  0
ENDBLK
  5
1AD
330
1A2
100
AcDbEntity
  8
0
100
AcDbBlockEnd
  0
BLOCK
  5
196
330
195
100
AcDbEntity
  8
0
100
AcDbBlockBegin
  2
*D8
 70
     1
 10
0.0
 20
0.0
 30
0.0
  3
*D8
  1

  0
LINE
  5
197
330
195
100
AcDbEntity
  8
BEMASSUNG
 62
     2
370
    -2
100
AcDbLine
 10
79.53644885599271
 20
328.443974913091
 30
0.0
 11
131.8685919862415
 21
328.4439749130909
 31
0.0
  0
LINE
  5
198
330
195
100
AcDbEntity
  8
BEMASSUNG
 62
     2
370
    -2
100
AcDbLine
 10
88.53644885599255
 20
380.943974913091
 30
0.0
 11
131.8685919862415
 21
380.9439749130909
 31
0.0
  0
LINE
  5
199
330
195
100
AcDbEntity
  8
BEMASSUNG
 62
     2
370
    -2
100
AcDbLine
 10
130.8685919862415
 20
332.4439749130909
 30
0.0
 11
130.8685919862415
 21
376.9439749130909
 31
0.0
  0
SOLID
  5
19A
330
195
100
AcDbEntity
  8
BEMASSUNG
 62
     2
100
AcDbTrace
 10
130.2019253195749
 20
332.4439749130909
 30
0.0
 11
131.5352586529082
 21
332.4439749130909
 31
0.0
 12
130.8685919862415
 22
328.4439749130909
 32
0.0
 13
130.8685919862415
 23
328.4439749130909
 33
0.0
  0
SOLID
  5
19B
330
195
100
AcDbEntity
  8
BEMASSUNG
 62
     2
100
AcDbTrace
 10
130.2019253195749
 20
376.9439749130909
 30
0.0
 11
131.5352586529082
 21
376.9439749130909
 31
0.0
 12
130.8685919862415
 22
380.9439749130909
 32
0.0
 13
130.8685919862415
 23
380.9439749130909
 33
0.0
  0
MTEXT
  5
19C
330
195
100
AcDbEntity
  8
BEMASSUNG
 62
     3
100
AcDbMText
 10
127.6475994896521
 20
354.693974913091
 30
0.0
 40
4.349999999999999
 41
0.0
 71
     5
 72
     1
  1
\A1;52.5
  7
ARIAL-STANDARD
 11
0.0000000000000001
 21
1.0
 31
0.0
 73
     1
 44
1.0
1001
ACAD
1000
MTEXTBEGIN
1070
    73
1070
     1
1070
    44
1040
1.0
1070
    74
1070
     0
1000
MTEXTEND
  0
POINT
  5
19D
330
195
100
AcDbEntity
  8
DEFPOINTS
 62
     0
100
AcDbPoint
 10
79.53644885599271
 20
328.443974913091
 30
0.0
  0
POINT
  5
19E
330
195
100
AcDbEntity
  8
DEFPOINTS
 62
     0
100
AcDbPoint
 10
88.53644885599255
 20
380.943974913091
 30
0.0
  0
POINT
  5
19F
330
195
100
AcDbEntity
  8
DEFPOINTS
 62
     0
100
AcDbPoint
 10
130.8685919862415
 20
380.9439749130909
 30
0.0
  0
ENDBLK
  5
1A0
330
195
100
AcDbEntity
  8
0
100
AcDbBlockEnd
  0
BLOCK
  5
189
330
188
100
AcDbEntity
  8
0
100
AcDbBlockBegin
  2
*D9
 70
     1
 10
0.0
 20
0.0
 30
0.0
  3
*D9
  1

  0
LINE
  5
18A
330
188
100
AcDbEntity
  8
BEMASSUNG
 62
     2
370
    -2
100
AcDbLine
 10
79.53644885599271
 20
281.443974913091
 30
0.0
 11
106.0956809022202
 21
281.443974913091
 31
0.0
  0
LINE
  5
18B
330
188
100
AcDbEntity
  8
BEMASSUNG
 62
     2
370
    -2
100
AcDbLine
 10
86.03644885599265
 20
206.443974913092
 30
0.0
 11
106.0956809022202
 21
206.443974913092
 31
0.0
  0
LINE
  5
18C
330
188
100
AcDbEntity
  8
BEMASSUNG
 62
     2
370
    -2
100
AcDbLine
 10
105.0956809022202
 20
277.443974913091
 30
0.0
 11
105.0956809022202
 21
210.443974913092
 31
0.0
  0
SOLID
  5
18D
330
188
100
AcDbEntity
  8
BEMASSUNG
 62
     2
100
AcDbTrace
 10
104.4290142355535
 20
277.443974913091
 30
0.0
 11
105.7623475688868
 21
277.443974913091
 31
0.0
 12
105.0956809022202
 22
281.443974913091
 32
0.0
 13
105.0956809022202
 23
281.443974913091
 33
0.0
  0
SOLID
  5
18E
330
188
100
AcDbEntity
  8
BEMASSUNG
 62
     2
100
AcDbTrace
 10
104.4290142355535
 20
210.443974913092
 30
0.0
 11
105.7623475688868
 21
210.443974913092
 31
0.0
 12
105.0956809022202
 22
206.443974913092
 32
0.0
 13
105.0956809022202
 23
206.443974913092
 33
0.0
  0
MTEXT
  5
18F
330
188
100
AcDbEntity
  8
BEMASSUNG
 62
     3
100
AcDbMText
 10
101.8835901791642
 20
243.9439749130915
 30
0.0
 40
4.349999999999999
 41
0.0
 71
     5
 72
     1
  1
\A1;75
  7
ARIAL-STANDARD
 11
0.0000000000000001
 21
1.0
 31
0.0
 73
     1
 44
1.0
1001
ACAD
1000
MTEXTBEGIN
1070
    73
1070
     1
1070
    44
1040
1.0
1070
    74
1070
     0
1000
MTEXTEND
  0
POINT
  5
190
330
188
100
AcDbEntity
  8
DEFPOINTS
 62
     0
100
AcDbPoint
 10
79.53644885599271
 20
281.443974913091
 30
0.0
  0
POINT
  5
191
330
188
100
AcDbEntity
  8
DEFPOINTS
 62
     0
100
AcDbPoint
 10
86.03644885599265
 20
206.443974913092
 30
0.0
  0
POINT
  5
192
330
188
100
AcDbEntity
  8
DEFPOINTS
 62
     0
100
AcDbPoint
 10
105.0956809022202
 20
206.443974913092
 30
0.0
  0
ENDBLK
  5
193
330
188
100
AcDbEntity
  8
0
100
AcDbBlockEnd
  0
BLOCK
  5
17C
330
17B
100
AcDbEntity
  8
0
100
AcDbBlockBegin
  2
*D10
 70
     1
 10
0.0
 20
0.0
 30
0.0
  3
*D10
  1

  0
LINE
  5
17D
330
17B
100
AcDbEntity
  8
BEMASSUNG
 62
     2
370
    -2
100
AcDbLine
 10
79.53644885599271
 20
281.443974913091
 30
0.0
 11
106.0956809022201
 21
281.443974913091
 31
0.0
  0
LINE
  5
17E
330
17B
100
AcDbEntity
  8
BEMASSUNG
 62
     2
370
    -2
100
AcDbLine
 10
79.53644885599266
 20
328.443974913091
 30
0.0
 11
106.0956809022202
 21
328.443974913091
 31
0.0
  0
LINE
  5
17F
330
17B
100
AcDbEntity
  8
BEMASSUNG
 62
     2
370
    -2
100
AcDbLine
 10
105.0956809022201
 20
285.443974913091
 30
0.0
 11
105.0956809022202
 21
324.443974913091
 31
0.0
  0
SOLID
  5
180
330
17B
100
AcDbEntity
  8
BEMASSUNG
 62
     2
100
AcDbTrace
 10
104.4290142355535
 20
285.443974913091
 30
0.0
 11
105.7623475688868
 21
285.443974913091
 31
0.0
 12
105.0956809022201
 22
281.443974913091
 32
0.0
 13
105.0956809022201
 23
281.443974913091
 33
0.0
  0
SOLID
  5
181
330
17B
100
AcDbEntity
  8
BEMASSUNG
 62
     2
100
AcDbTrace
 10
104.4290142355535
 20
324.443974913091
 30
0.0
 11
105.7623475688868
 21
324.443974913091
 31
0.0
 12
105.0956809022202
 22
328.443974913091
 32
0.0
 13
105.0956809022202
 23
328.443974913091
 33
0.0
  0
MTEXT
  5
182
330
17B
100
AcDbEntity
  8
BEMASSUNG
 62
     3
100
AcDbMText
 10
101.9206809022201
 20
304.943974913091
 30
0.0
 40
4.349999999999999
 41
0.0
 71
     5
 72
     1
  1
\A1;47
  7
ARIAL-STANDARD
 11
0.0000000000000001
 21
1.0
 31
0.0
 73
     1
 44
1.0
1001
ACAD
1000
MTEXTBEGIN
1070
    73
1070
     1
1070
    44
1040
1.0
1070
    74
1070
     0
1000
MTEXTEND
  0
POINT
  5
183
330
17B
100
AcDbEntity
  8
DEFPOINTS
 62
     0
100
AcDbPoint
 10
79.53644885599271
 20
281.443974913091
 30
0.0
  0
POINT
  5
184
330
17B
100
AcDbEntity
  8
DEFPOINTS
 62
     0
100
AcDbPoint
 10
79.53644885599266
 20
328.443974913091
 30
0.0
  0
POINT
  5
185
330
17B
100
AcDbEntity
  8
DEFPOINTS
 62
     0
100
AcDbPoint
 10
105.0956809022202
 20
328.443974913091
 30
0.0
  0
ENDBLK
  5
186
330
17B
100
AcDbEntity
  8
0
100
AcDbBlockEnd
  0
BLOCK
  5
16F
330
16E
100
AcDbEntity
  8
0
100
AcDbBlockBegin
  2
*D11
 70
     1
 10
0.0
 20
0.0
 30
0.0
  3
*D11
  1

  0
LINE
  5
170
330
16E
100
AcDbEntity
  8
BEMASSUNG
 62
     2
370
    -2
100
AcDbLine
 10
62.0364488559926
 20
206.443974913092
 30
0.0
 11
30.86113351697375
 21
206.443974913092
 31
0.0
  0
LINE
  5
171
330
16E
100
AcDbEntity
  8
BEMASSUNG
 62
     2
370
    -2
100
AcDbLine
 10
62.03644885599266
 20
476.4439749130919
 30
0.0
 11
30.86113351697381
 21
476.4439749130919
 31
0.0
  0
LINE
  5
172
330
16E
100
AcDbEntity
  8
BEMASSUNG
 62
     2
370
    -2
100
AcDbLine
 10
31.86113351697375
 20
210.443974913092
 30
0.0
 11
31.86113351697381
 21
472.4439749130919
 31
0.0
  0
SOLID
  5
173
330
16E
100
AcDbEntity
  8
BEMASSUNG
 62
     2
100
AcDbTrace
 10
31.19446685030708
 20
210.443974913092
 30
0.0
 11
32.52780018364042
 21
210.443974913092
 31
0.0
 12
31.86113351697375
 22
206.443974913092
 32
0.0
 13
31.86113351697375
 23
206.443974913092
 33
0.0
  0
SOLID
  5
174
330
16E
100
AcDbEntity
  8
BEMASSUNG
 62
     2
100
AcDbTrace
 10
31.19446685030714
 20
472.4439749130919
 30
0.0
 11
32.52780018364048
 21
472.4439749130919
 31
0.0
 12
31.86113351697381
 22
476.4439749130919
 32
0.0
 13
31.86113351697381
 23
476.4439749130919
 33
0.0
  0
MTEXT
  5
175
330
16E
100
AcDbEntity
  8
BEMASSUNG
 62
     3
100
AcDbMText
 10
28.64014102038437
 20
341.443974913092
 30
0.0
 40
4.349999999999999
 41
0.0
 71
     5
 72
     1
  1
\A1;270
  7
ARIAL-STANDARD
 11
0.0000000000000001
 21
1.0
 31
0.0
 73
     1
 44
1.0
1001
ACAD
1000
MTEXTBEGIN
1070
    73
1070
     1
1070
    44
1040
1.0
1070
    74
1070
     0
1000
MTEXTEND
  0
POINT
  5
176
330
16E
100
AcDbEntity
  8
DEFPOINTS
 62
     0
100
AcDbPoint
 10
62.0364488559926
 20
206.443974913092
 30
0.0
  0
POINT
  5
177
330
16E
100
AcDbEntity
  8
DEFPOINTS
 62
     0
100
AcDbPoint
 10
62.03644885599266
 20
476.4439749130919
 30
0.0
  0
POINT
  5
178
330
16E
100
AcDbEntity
  8
DEFPOINTS
 62
     0
100
AcDbPoint
 10
31.86113351697381
 20
476.4439749130919
 30
0.0
  0
ENDBLK
  5
179
330
16E
100
AcDbEntity
  8
0
100
AcDbBlockEnd
  0
BLOCK
  5
162
330
161
100
AcDbEntity
  8
0
100
AcDbBlockBegin
  2
*D12
 70
     1
 10
0.0
 20
0.0
 30
0.0
  3
*D12
  1

  0
LINE
  5
163
330
161
100
AcDbEntity
  8
BEMASSUNG
 62
     2
370
    -2
100
AcDbLine
 10
62.03644885599266
 20
206.443974913092
 30
0.0
 11
62.03644885599266
 21
193.9964059148116
 31
0.0
  0
LINE
  5
164
330
161
100
AcDbEntity
  8
BEMASSUNG
 62
     2
370
    -2
100
AcDbLine
 10
86.03644885599265
 20
206.443974913092
 30
0.0
 11
86.03644885599265
 21
193.9964059148116
 31
0.0
  0
LINE
  5
165
330
161
100
AcDbEntity
  8
BEMASSUNG
 62
     2
370
    -2
100
AcDbLine
 10
66.03644885599265
 20
194.9964059148116
 30
0.0
 11
82.03644885599265
 21
194.9964059148116
 31
0.0
  0
SOLID
  5
166
330
161
100
AcDbEntity
  8
BEMASSUNG
 62
     2
100
AcDbTrace
 10
66.03644885599265
 20
195.6630725814783
 30
0.0
 11
66.03644885599265
 21
194.329739248145
 31
0.0
 12
62.03644885599266
 22
194.9964059148116
 32
0.0
 13
62.03644885599266
 23
194.9964059148116
 33
0.0
  0
SOLID
  5
167
330
161
100
AcDbEntity
  8
BEMASSUNG
 62
     2
100
AcDbTrace
 10
82.03644885599265
 20
195.6630725814783
 30
0.0
 11
82.03644885599265
 21
194.329739248145
 31
0.0
 12
86.03644885599265
 22
194.9964059148116
 32
0.0
 13
86.03644885599265
 23
194.9964059148116
 33
0.0
  0
MTEXT
  5
168
330
161
100
AcDbEntity
  8
BEMASSUNG
 62
     3
100
AcDbMText
 10
74.45205658952199
 20
198.180307688345
 30
0.0
 40
4.349999999999999
 41
0.0
 71
     5
 72
     1
  1
\A1;24
  7
ARIAL-STANDARD
 73
     1
 44
1.0
1001
ACAD
1000
MTEXTBEGIN
1070
    73
1070
     1
1070
    44
1040
1.0
1070
    74
1070
     0
1000
MTEXTEND
  0
POINT
  5
169
330
161
100
AcDbEntity
  8
DEFPOINTS
 62
     0
100
AcDbPoint
 10
62.03644885599266
 20
206.443974913092
 30
0.0
  0
POINT
  5
16A
330
161
100
AcDbEntity
  8
DEFPOINTS
 62
     0
100
AcDbPoint
 10
86.03644885599265
 20
206.443974913092
 30
0.0
  0
POINT
  5
16B
330
161
100
AcDbEntity
  8
DEFPOINTS
 62
     0
100
AcDbPoint
 10
86.03644885599265
 20
194.9964059148116
 30
0.0
  0
ENDBLK
  5
16C
330
161
100
AcDbEntity
  8
0
100
AcDbBlockEnd
  0
BLOCK
  5
155
330
154
100
AcDbEntity
  8
0
100
AcDbBlockBegin
  2
*D13
 70
     1
 10
0.0
 20
0.0
 30
0.0
  3
*D13
  1

  0
LINE
  5
156
330
154
100
AcDbEntity
  8
BEMASSUNG
 62
     2
370
    -2
100
AcDbLine
 10
66.53644885599266
 20
283.443974913091
 30
0.0
 11
66.53644885599266
 21
250.4776626230158
 31
0.0
  0
LINE
  5
157
330
154
100
AcDbEntity
  8
BEMASSUNG
 62
     2
370
    -2
100
AcDbLine
 10
81.53644885599272
 20
283.443974913091
 30
0.0
 11
81.53644885599272
 21
250.4776626230158
 31
0.0
  0
LINE
  5
158
330
154
100
AcDbEntity
  8
BEMASSUNG
 62
     2
370
    -2
100
AcDbLine
 10
70.53644885599266
 20
251.4776626230158
 30
0.0
 11
77.53644885599271
 21
251.4776626230158
 31
0.0
  0
SOLID
  5
159
330
154
100
AcDbEntity
  8
BEMASSUNG
 62
     2
100
AcDbTrace
 10
70.53644885599266
 20
252.1443292896824
 30
0.0
 11
70.53644885599266
 21
250.8109959563491
 31
0.0
 12
66.53644885599266
 22
251.4776626230158
 32
0.0
 13
66.53644885599266
 23
251.4776626230158
 33
0.0
  0
SOLID
  5
15A
330
154
100
AcDbEntity
  8
BEMASSUNG
 62
     2
100
AcDbTrace
 10
77.53644885599271
 20
252.1443292896824
 30
0.0
 11
77.53644885599271
 21
250.8109959563491
 31
0.0
 12
81.53644885599272
 22
251.4776626230158
 32
0.0
 13
81.53644885599272
 23
251.4776626230158
 33
0.0
  0
MTEXT
  5
15B
330
154
100
AcDbEntity
  8
BEMASSUNG
 62
     3
100
AcDbMText
 10
74.03644885599272
 20
254.6986551196051
 30
0.0
 40
4.349999999999999
 41
0.0
 71
     5
 72
     1
  1
\A1;15
  7
ARIAL-STANDARD
 73
     1
 44
1.0
1001
ACAD
1000
MTEXTBEGIN
1070
    73
1070
     1
1070
    44
1040
1.0
1070
    74
1070
     0
1000
MTEXTEND
  0
POINT
  5
15C
330
154
100
AcDbEntity
  8
DEFPOINTS
 62
     0
100
AcDbPoint
 10
66.53644885599266
 20
283.443974913091
 30
0.0
  0
POINT
  5
15D
330
154
100
AcDbEntity
  8
DEFPOINTS
 62
     0
100
AcDbPoint
 10
81.53644885599272
 20
283.443974913091
 30
0.0
  0
POINT
  5
15E
330
154
100
AcDbEntity
  8
DEFPOINTS
 62
     0
100
AcDbPoint
 10
81.53644885599272
 20
251.4776626230158
 30
0.0
  0
ENDBLK
  5
15F
330
154
100
AcDbEntity
  8
0
100
AcDbBlockEnd
  0
BLOCK
  5
134
330
133
100
AcDbEntity
  8
0
100
AcDbBlockBegin
  2
*D14
 70
     1
 10
0.0
 20
0.0
 30
0.0
  3
*D14
  1

  0
LINE
  5
135
330
133
100
AcDbEntity
  8
UMRISS05
 62
     2
370
    -2
100
AcDbLine
 10
62.03644885599271
 20
206.443974913091
 30
0.0
 11
40.622188040723
 21
206.443974913091
 31
0.0
  0
LINE
  5
136
330
133
100
AcDbEntity
  8
UMRISS05
 62
     2
370
    -2
100
AcDbLine
 10
66.28644885599261
 20
219.443974913091
 30
0.0
 11
40.62218804072301
 21
219.443974913091
 31
0.0
  0
LINE
  5
137
330
133
100
AcDbEntity
  8
UMRISS05
 62
     2
370
    -2
100
AcDbLine
 10
41.62218804072302
 20
210.443974913091
 30
0.0
 11
41.62218804072302
 21
215.443974913091
 31
0.0
  0
SOLID
  5
138
330
133
100
AcDbEntity
  8
UMRISS05
 62
     2
100
AcDbTrace
 10
40.95552137405635
 20
210.443974913091
 30
0.0
 11
42.28885470738968
 21
210.443974913091
 31
0.0
 12
41.62218804072301
 22
206.443974913091
 32
0.0
 13
41.62218804072301
 23
206.443974913091
 33
0.0
  0
SOLID
  5
139
330
133
100
AcDbEntity
  8
UMRISS05
 62
     2
100
AcDbTrace
 10
40.95552137405635
 20
215.443974913091
 30
0.0
 11
42.28885470738968
 21
215.443974913091
 31
0.0
 12
41.62218804072302
 22
219.443974913091
 32
0.0
 13
41.62218804072302
 23
219.443974913091
 33
0.0
  0
MTEXT
  5
13A
330
133
100
AcDbEntity
  8
UMRISS05
 62
     3
100
AcDbMText
 10
38.39971191521139
 20
212.943974913091
 30
0.0
 40
4.349999999999999
 41
0.0
 71
     5
 72
     1
  1
\A1;13
  7
ARIAL-STANDARD
 11
0.0000000000000001
 21
1.0
 31
0.0
 73
     1
 44
1.0
1001
ACAD
1000
MTEXTBEGIN
1070
    73
1070
     1
1070
    44
1040
1.0
1070
    74
1070
     0
1000
MTEXTEND
  0
POINT
  5
13B
330
133
100
AcDbEntity
  8
DEFPOINTS
 62
     0
100
AcDbPoint
 10
62.03644885599271
 20
206.443974913091
 30
0.0
  0
POINT
  5
13C
330
133
100
AcDbEntity
  8
DEFPOINTS
 62
     0
100
AcDbPoint
 10
66.28644885599261
 20
219.443974913091
 30
0.0
  0
POINT
  5
13D
330
133
100
AcDbEntity
  8
DEFPOINTS
 62
     0
100
AcDbPoint
 10
41.62218804072302
 20
219.443974913091
 30
0.0
  0
ENDBLK
  5
13E
330
133
100
AcDbEntity
  8
0
100
AcDbBlockEnd
  0
BLOCK
  5
127
330
126
100
AcDbEntity
  8
0
100
AcDbBlockBegin
  2
*D15
 70
     1
 10
0.0
 20
0.0
 30
0.0
  3
*D15
  1

  0
LINE
  5
128
330
126
100
AcDbEntity
  8
UMRISS05
 62
     2
370
    -2
100
AcDbLine
 10
66.28644885599261
 20
463.4439749130909
 30
0.0
 11
40.622188040723
 21
463.4439749130909
 31
0.0
  0
LINE
  5
129
330
126
100
AcDbEntity
  8
UMRISS05
 62
     2
370
    -2
100
AcDbLine
 10
62.0364488559926
 20
476.443974913091
 30
0.0
 11
40.62218804072301
 21
476.443974913091
 31
0.0
  0
LINE
  5
12A
330
126
100
AcDbEntity
  8
UMRISS05
 62
     2
370
    -2
100
AcDbLine
 10
41.62218804072302
 20
467.4439749130909
 30
0.0
 11
41.62218804072302
 21
472.443974913091
 31
0.0
  0
SOLID
  5
12B
330
126
100
AcDbEntity
  8
UMRISS05
 62
     2
100
AcDbTrace
 10
40.95552137405635
 20
467.4439749130909
 30
0.0
 11
42.28885470738968
 21
467.4439749130909
 31
0.0
 12
41.62218804072301
 22
463.4439749130909
 32
0.0
 13
41.62218804072301
 23
463.4439749130909
 33
0.0
  0
SOLID
  5
12C
330
126
100
AcDbEntity
  8
UMRISS05
 62
     2
100
AcDbTrace
 10
40.95552137405635
 20
472.443974913091
 30
0.0
 11
42.28885470738968
 21
472.443974913091
 31
0.0
 12
41.62218804072302
 22
476.443974913091
 32
0.0
 13
41.62218804072302
 23
476.443974913091
 33
0.0
  0
MTEXT
  5
12D
330
126
100
AcDbEntity
  8
UMRISS05
 62
     3
100
AcDbMText
 10
38.39971191521134
 20
469.943974913091
 30
0.0
 40
4.349999999999999
 41
0.0
 71
     5
 72
     1
  1
\A1;13
  7
ARIAL-STANDARD
 11
0.0000000000000001
 21
1.0
 31
0.0
 73
     1
 44
1.0
1001
ACAD
1000
MTEXTBEGIN
1070
    73
1070
     1
1070
    44
1040
1.0
1070
    74
1070
     0
1000
MTEXTEND
  0
POINT
  5
12E
330
126
100
AcDbEntity
  8
DEFPOINTS
 62
     0
100
AcDbPoint
 10
66.28644885599261
 20
463.4439749130909
 30
0.0
  0
POINT
  5
12F
330
126
100
AcDbEntity
  8
DEFPOINTS
 62
     0
100
AcDbPoint
 10
62.0364488559926
 20
476.443974913091
 30
0.0
  0
POINT
  5
130
330
126
100
AcDbEntity
  8
DEFPOINTS
 62
     0
100
AcDbPoint
 10
41.62218804072302
 20
476.443974913091
 30
0.0
  0
ENDBLK
  5
131
330
126
100
AcDbEntity
  8
0
100
AcDbBlockEnd
  0
BLOCK
  5
11A
330
119
100
AcDbEntity
  8
0
100
AcDbBlockBegin
  2
*D16
 70
     1
 10
0.0
 20
0.0
 30
0.0
  3
*D16
  1

  0
LINE
  5
11B
330
119
100
AcDbEntity
  8
UMRISS05
 62
     2
370
    -2
100
AcDbLine
 10
66.28644885599261
 20
463.4439749130909
 30
0.0
 11
40.62218804072304
 21
463.4439749130909
 31
0.0
  0
LINE
  5
11C
330
119
100
AcDbEntity
  8
UMRISS05
 62
     2
370
    -2
100
AcDbLine
 10
66.28644885599261
 20
354.943974913091
 30
0.0
 11
40.62218804072301
 21
354.943974913091
 31
0.0
  0
LINE
  5
11D
330
119
100
AcDbEntity
  8
UMRISS05
 62
     2
370
    -2
100
AcDbLine
 10
41.62218804072304
 20
459.4439749130909
 30
0.0
 11
41.62218804072302
 21
358.943974913091
 31
0.0
  0
SOLID
  5
11E
330
119
100
AcDbEntity
  8
UMRISS05
 62
     2
100
AcDbTrace
 10
40.95552137405637
 20
459.4439749130909
 30
0.0
 11
42.2888547073897
 21
459.4439749130909
 31
0.0
 12
41.62218804072304
 22
463.4439749130909
 32
0.0
 13
41.62218804072304
 23
463.4439749130909
 33
0.0
  0
SOLID
  5
11F
330
119
100
AcDbEntity
  8
UMRISS05
 62
     2
100
AcDbTrace
 10
40.95552137405635
 20
358.943974913091
 30
0.0
 11
42.28885470738968
 21
358.943974913091
 31
0.0
 12
41.62218804072302
 22
354.943974913091
 32
0.0
 13
41.62218804072302
 23
354.943974913091
 33
0.0
  0
MTEXT
  5
120
330
119
100
AcDbEntity
  8
UMRISS05
 62
     3
100
AcDbMText
 10
38.40119554413361
 20
409.193974913091
 30
0.0
 40
4.349999999999999
 41
0.0
 71
     5
 72
     1
  1
\A1;108.5
  7
ARIAL-STANDARD
 11
0.0000000000000001
 21
1.0
 31
0.0
 73
     1
 44
1.0
1001
ACAD
1000
MTEXTBEGIN
1070
    73
1070
     1
1070
    44
1040
1.0
1070
    74
1070
     0
1000
MTEXTEND
  0
POINT
  5
121
330
119
100
AcDbEntity
  8
DEFPOINTS
 62
     0
100
AcDbPoint
 10
66.28644885599261
 20
463.4439749130909
 30
0.0
  0
POINT
  5
122
330
119
100
AcDbEntity
  8
DEFPOINTS
 62
     0
100
AcDbPoint
 10
66.28644885599261
 20
354.943974913091
 30
0.0
  0
POINT
  5
123
330
119
100
AcDbEntity
  8
DEFPOINTS
 62
     0
100
AcDbPoint
 10
41.62218804072302
 20
354.943974913091
 30
0.0
  0
ENDBLK
  5
124
330
119
100
AcDbEntity
  8
0
100
AcDbBlockEnd
  0
BLOCK
  5
10D
330
10C
100
AcDbEntity
  8
0
100
AcDbBlockBegin
  2
*D17
 70
     1
 10
0.0
 20
0.0
 30
0.0
  3
*D17
  1

  0
LINE
  5
10E
330
10C
100
AcDbEntity
  8
UMRISS05
 62
     2
370
    -2
100
AcDbLine
 10
66.28644885599261
 20
354.943974913091
 30
0.0
 11
40.62218804072304
 21
354.943974913091
 31
0.0
  0
LINE
  5
10F
330
10C
100
AcDbEntity
  8
UMRISS05
 62
     2
370
    -2
100
AcDbLine
 10
66.28644885599261
 20
219.443974913091
 30
0.0
 11
40.62218804072301
 21
219.443974913091
 31
0.0
  0
LINE
  5
110
330
10C
100
AcDbEntity
  8
UMRISS05
 62
     2
370
    -2
100
AcDbLine
 10
41.62218804072304
 20
350.943974913091
 30
0.0
 11
41.62218804072302
 21
223.443974913091
 31
0.0
  0
SOLID
  5
111
330
10C
100
AcDbEntity
  8
UMRISS05
 62
     2
100
AcDbTrace
 10
40.95552137405638
 20
350.943974913091
 30
0.0
 11
42.28885470738971
 21
350.943974913091
 31
0.0
 12
41.62218804072304
 22
354.943974913091
 32
0.0
 13
41.62218804072304
 23
354.943974913091
 33
0.0
  0
SOLID
  5
112
330
10C
100
AcDbEntity
  8
UMRISS05
 62
     2
100
AcDbTrace
 10
40.95552137405635
 20
223.443974913091
 30
0.0
 11
42.28885470738968
 21
223.443974913091
 31
0.0
 12
41.62218804072302
 22
219.443974913091
 32
0.0
 13
41.62218804072302
 23
219.443974913091
 33
0.0
  0
MTEXT
  5
113
330
10C
100
AcDbEntity
  8
UMRISS05
 62
     3
100
AcDbMText
 10
38.39971191521139
 20
287.193974913091
 30
0.0
 40
4.349999999999999
 41
0.0
 71
     5
 72
     1
  1
\A1;135.5
  7
ARIAL-STANDARD
 11
0.0000000000000001
 21
1.0
 31
0.0
 73
     1
 44
1.0
1001
ACAD
1000
MTEXTBEGIN
1070
    73
1070
     1
1070
    44
1040
1.0
1070
    74
1070
     0
1000
MTEXTEND
  0
POINT
  5
114
330
10C
100
AcDbEntity
  8
DEFPOINTS
 62
     0
100
AcDbPoint
 10
66.28644885599261
 20
354.943974913091
 30
0.0
  0
POINT
  5
115
330
10C
100
AcDbEntity
  8
DEFPOINTS
 62
     0
100
AcDbPoint
 10
66.28644885599261
 20
219.443974913091
 30
0.0
  0
POINT
  5
116
330
10C
100
AcDbEntity
  8
DEFPOINTS
 62
     0
100
AcDbPoint
 10
41.62218804072302
 20
219.443974913091
 30
0.0
  0
ENDBLK
  5
117
330
10C
100
AcDbEntity
  8
0
100
AcDbBlockEnd
  0
BLOCK
  5
F8
330
F7
100
AcDbEntity
  8
0
100
AcDbBlockBegin
  2
*D18
 70
     1
 10
0.0
 20
0.0
 30
0.0
  3
*D18
  1

  0
LINE
  5
F9
330
F7
100
AcDbEntity
  8
UMRISS05
 62
     2
370
    -2
100
AcDbLine
 10
121.0364488559926
 20
439.943974913091
 30
0.0
 11
128.6935919862415
 21
439.943974913091
 31
0.0
  0
LINE
  5
FA
330
F7
100
AcDbEntity
  8
UMRISS05
 62
     2
370
    -2
100
AcDbLine
 10
120.6167264197659
 20
369.943974913091
 30
0.0
 11
128.6935919862415
 21
369.943974913091
 31
0.0
  0
LINE
  5
FB
330
F7
100
AcDbEntity
  8
UMRISS05
 62
     2
370
    -2
100
AcDbLine
 10
139.4277004676387
 20
435.9439749130909
 30
0.0
 11
139.4277004676387
 21
373.9439749130909
 31
0.0
  0
SOLID
  5
FC
330
F7
100
AcDbEntity
  8
UMRISS05
 62
     2
100
AcDbTrace
 10
138.7610338009721
 20
435.9439749130909
 30
0.0
 11
140.0943671343054
 21
435.9439749130909
 31
0.0
 12
139.4277004676387
 22
439.9439749130909
 32
0.0
 13
139.4277004676387
 23
439.9439749130909
 33
0.0
  0
SOLID
  5
FD
330
F7
100
AcDbEntity
  8
UMRISS05
 62
     2
100
AcDbTrace
 10
138.7610338009721
 20
373.9439749130909
 30
0.0
 11
140.0943671343054
 21
373.9439749130909
 31
0.0
 12
139.4277004676387
 22
369.9439749130909
 32
0.0
 13
139.4277004676387
 23
369.9439749130909
 33
0.0
  0
MTEXT
  5
FE
330
F7
100
AcDbEntity
  8
UMRISS05
 62
     3
100
AcDbMText
 10
136.2067079710493
 20
404.943974913091
 30
0.0
 40
4.349999999999999
 41
0.0
 71
     5
 72
     1
  1
\A1;70
  7
ARIAL-STANDARD
 11
0.0000000000000001
 21
1.0
 31
0.0
 73
     1
 44
1.0
1001
ACAD
1000
MTEXTBEGIN
1070
    73
1070
     1
1070
    44
1040
1.0
1070
    74
1070
     0
1000
MTEXTEND
  0
POINT
  5
FF
330
F7
100
AcDbEntity
  8
DEFPOINTS
 62
     0
100
AcDbPoint
 10
121.0364488559926
 20
439.943974913091
 30
0.0
  0
POINT
  5
100
330
F7
100
AcDbEntity
  8
DEFPOINTS
 62
     0
100
AcDbPoint
 10
120.6167264197659
 20
369.943974913091
 30
0.0
  0
POINT
  5
101
330
F7
100
AcDbEntity
  8
DEFPOINTS
 62
     0
100
AcDbPoint
 10
139.4277004676387
 20
369.9439749130909
 30
0.0
  0
LINE
  5
102
330
F7
100
AcDbEntity
  8
UMRISS05
 62
     2
370
    -2
100
AcDbLine
 10
133.0435919862415
 20
369.9439749130909
 30
0.0
 11
140.4277004676387
 21
369.9439749130909
 31
0.0
  0
LINE
  5
103
330
F7
100
AcDbEntity
  8
UMRISS05
 62
     2
370
    -2
100
AcDbLine
 10
133.0435919862415
 20
439.9439749130909
 30
0.0
 11
140.4277004676387
 21
439.9439749130909
 31
0.0
  0
ENDBLK
  5
104
330
F7
100
AcDbEntity
  8
0
100
AcDbBlockEnd
  0
BLOCK
  5
E9
330
E8
100
AcDbEntity
  8
0
100
AcDbBlockBegin
  2
*D19
 70
     1
 10
0.0
 20
0.0
 30
0.0
  3
*D19
  1

  0
LINE
  5
EA
330
E8
100
AcDbEntity
  8
UMRISS05
 62
     2
370
    -2
100
AcDbLine
 10
122.0364488559926
 20
370.943974913091
 30
0.0
 11
122.0364488559926
 21
341.8642756901372
 31
0.0
  0
LINE
  5
EB
330
E8
100
AcDbEntity
  8
UMRISS05
 62
     2
370
    -2
100
AcDbLine
 10
74.0364488559926
 20
341.443974913091
 30
0.0
 11
74.0364488559926
 21
343.8642756901372
 31
0.0
  0
LINE
  5
EC
330
E8
100
AcDbEntity
  8
UMRISS05
 62
     2
370
    -2
100
AcDbLine
 10
118.0364488559926
 20
342.8642756901372
 30
0.0
 11
78.0364488559926
 21
342.8642756901372
 31
0.0
  0
SOLID
  5
ED
330
E8
100
AcDbEntity
  8
UMRISS05
 62
     2
100
AcDbTrace
 10
118.0364488559926
 20
343.5309423568039
 30
0.0
 11
118.0364488559926
 21
342.1976090234705
 31
0.0
 12
122.0364488559926
 22
342.8642756901372
 32
0.0
 13
122.0364488559926
 23
342.8642756901372
 33
0.0
  0
SOLID
  5
EE
330
E8
100
AcDbEntity
  8
UMRISS05
 62
     2
100
AcDbTrace
 10
78.0364488559926
 20
343.5309423568039
 30
0.0
 11
78.0364488559926
 21
342.1976090234705
 31
0.0
 12
74.0364488559926
 22
342.8642756901372
 32
0.0
 13
74.0364488559926
 23
342.8642756901372
 33
0.0
  0
MTEXT
  5
EF
330
E8
100
AcDbEntity
  8
UMRISS05
 62
     3
100
AcDbMText
 10
98.03644885599261
 20
346.0852681867266
 30
0.0
 40
4.349999999999999
 41
0.0
 71
     5
 72
     1
  1
\A1;48
  7
ARIAL-STANDARD
 73
     1
 44
1.0
1001
ACAD
1000
MTEXTBEGIN
1070
    73
1070
     1
1070
    44
1040
1.0
1070
    74
1070
     0
1000
MTEXTEND
  0
POINT
  5
F0
330
E8
100
AcDbEntity
  8
DEFPOINTS
 62
     0
100
AcDbPoint
 10
122.0364488559926
 20
370.943974913091
 30
0.0
  0
POINT
  5
F1
330
E8
100
AcDbEntity
  8
DEFPOINTS
 62
     0
100
AcDbPoint
 10
74.0364488559926
 20
341.443974913091
 30
0.0
  0
POINT
  5
F2
330
E8
100
AcDbEntity
  8
DEFPOINTS
 62
     0
100
AcDbPoint
 10
74.0364488559926
 20
342.8642756901372
 30
0.0
  0
ENDBLK
  5
F3
330
E8
100
AcDbEntity
  8
0
100
AcDbBlockEnd
  0
BLOCK
  5
D4
330
D3
100
AcDbEntity
  8
0
100
AcDbBlockBegin
  2
*D20
 70
     1
 10
0.0
 20
0.0
 30
0.0
  3
*D20
  1

  0
LINE
  5
D5
330
D3
100
AcDbEntity
  8
UMRISS05
 62
     2
370
    -2
100
AcDbLine
 10
66.01701589287916
 20
404.9439749130913
 30
0.0
 11
49.31894500448699
 21
404.9439749130913
 31
0.0
  0
LINE
  5
D6
330
D3
100
AcDbEntity
  8
UMRISS05
 62
     2
370
    -2
100
AcDbLine
 10
51.78662868084785
 20
360.943974913091
 30
0.0
 11
49.31894500448698
 21
360.943974913091
 31
0.0
  0
LINE
  5
D7
330
D3
100
AcDbEntity
  8
UMRISS05
 62
     2
370
    -2
100
AcDbLine
 10
50.31894500448699
 20
400.9439749130913
 30
0.0
 11
50.31894500448697
 21
364.943974913091
 31
0.0
  0
SOLID
  5
D8
330
D3
100
AcDbEntity
  8
UMRISS05
 62
     2
100
AcDbTrace
 10
49.65227833782033
 20
400.9439749130913
 30
0.0
 11
50.98561167115366
 21
400.9439749130913
 31
0.0
 12
50.31894500448699
 22
404.9439749130913
 32
0.0
 13
50.31894500448699
 23
404.9439749130913
 33
0.0
  0
SOLID
  5
D9
330
D3
100
AcDbEntity
  8
UMRISS05
 62
     2
100
AcDbTrace
 10
49.65227833782031
 20
364.943974913091
 30
0.0
 11
50.98561167115364
 21
364.943974913091
 31
0.0
 12
50.31894500448697
 22
360.943974913091
 32
0.0
 13
50.31894500448697
 23
360.943974913091
 33
0.0
  0
MTEXT
  5
DA
330
D3
100
AcDbEntity
  8
UMRISS05
 62
     3
100
AcDbMText
 10
47.14394500448692
 20
384.943974913091
 30
0.0
 40
4.349999999999999
 41
0.0
 71
     5
 72
     1
  1
\A1;44
  7
ARIAL-STANDARD
 11
0.0000000000000001
 21
1.0
 31
0.0
 73
     1
 44
1.0
1001
ACAD
1000
MTEXTBEGIN
1070
    73
1070
     1
1070
    44
1040
1.0
1070
    74
1070
     0
1000
MTEXTEND
  0
POINT
  5
DB
330
D3
100
AcDbEntity
  8
DEFPOINTS
 62
     0
100
AcDbPoint
 10
66.01701589287916
 20
404.9439749130913
 30
0.0
  0
POINT
  5
DC
330
D3
100
AcDbEntity
  8
DEFPOINTS
 62
     0
100
AcDbPoint
 10
51.78662868084785
 20
360.943974913091
 30
0.0
  0
POINT
  5
DD
330
D3
100
AcDbEntity
  8
DEFPOINTS
 62
     0
100
AcDbPoint
 10
50.31894500448697
 20
360.943974913091
 30
0.0
  0
ENDBLK
  5
DE
330
D3
100
AcDbEntity
  8
0
100
AcDbBlockEnd
  0
BLOCK
  5
C7
330
C6
100
AcDbEntity
  8
0
100
AcDbBlockBegin
  2
*D21
 70
     1
 10
0.0
 20
0.0
 30
0.0
  3
*D21
  1

  0
LINE
  5
C8
330
C6
100
AcDbEntity
  8
UMRISS05
 62
     2
370
    -2
100
AcDbLine
 10
51.78662868084785
 20
360.943974913091
 30
0.0
 11
49.31894500448699
 21
360.943974913091
 31
0.0
  0
LINE
  5
C9
330
C6
100
AcDbEntity
  8
UMRISS05
 62
     2
370
    -2
100
AcDbLine
 10
64.11652322736751
 20
304.943974913091
 30
0.0
 11
49.31894500448698
 21
304.943974913091
 31
0.0
  0
LINE
  5
CA
330
C6
100
AcDbEntity
  8
UMRISS05
 62
     2
370
    -2
100
AcDbLine
 10
50.31894500448698
 20
356.9439749130911
 30
0.0
 11
50.31894500448697
 21
308.943974913091
 31
0.0
  0
SOLID
  5
CB
330
C6
100
AcDbEntity
  8
UMRISS05
 62
     2
100
AcDbTrace
 10
49.65227833782032
 20
356.9439749130911
 30
0.0
 11
50.98561167115365
 21
356.9439749130911
 31
0.0
 12
50.31894500448698
 22
360.943974913091
 32
0.0
 13
50.31894500448698
 23
360.943974913091
 33
0.0
  0
SOLID
  5
CC
330
C6
100
AcDbEntity
  8
UMRISS05
 62
     2
100
AcDbTrace
 10
49.65227833782031
 20
308.943974913091
 30
0.0
 11
50.98561167115364
 21
308.943974913091
 31
0.0
 12
50.31894500448697
 22
304.943974913091
 32
0.0
 13
50.31894500448697
 23
304.943974913091
 33
0.0
  0
MTEXT
  5
CD
330
C6
100
AcDbEntity
  8
UMRISS05
 62
     3
100
AcDbMText
 10
47.09795250789756
 20
332.943974913091
 30
0.0
 40
4.349999999999999
 41
0.0
 71
     5
 72
     1
  1
\A1;56
  7
ARIAL-STANDARD
 11
0.0000000000000001
 21
1.0
 31
0.0
 73
     1
 44
1.0
1001
ACAD
1000
MTEXTBEGIN
1070
    73
1070
     1
1070
    44
1040
1.0
1070
    74
1070
     0
1000
MTEXTEND
  0
POINT
  5
CE
330
C6
100
AcDbEntity
  8
DEFPOINTS
 62
     0
100
AcDbPoint
 10
51.78662868084785
 20
360.943974913091
 30
0.0
  0
POINT
  5
CF
330
C6
100
AcDbEntity
  8
DEFPOINTS
 62
     0
100
AcDbPoint
 10
64.11652322736751
 20
304.943974913091
 30
0.0
  0
POINT
  5
D0
330
C6
100
AcDbEntity
  8
DEFPOINTS
 62
     0
100
AcDbPoint
 10
50.31894500448697
 20
304.943974913091
 30
0.0
  0
ENDBLK
  5
D1
330
C6
100
AcDbEntity
  8
0
100
AcDbBlockEnd
  0
BLOCK
  5
9F
330
9E
100
AcDbEntity
  8
0
100
AcDbBlockBegin
  2
*D22
 70
     1
 10
0.0
 20
0.0
 30
0.0
  3
*D22
  1

  0
LINE
  5
A0
330
9E
100
AcDbEntity
  8
UMRISS05
 62
     2
370
    -2
100
AcDbLine
 10
62.0364488559631
 20
144.5748949209407
 30
0.0
 11
62.0364488559631
 21
128.4030209970217
 31
0.0
  0
LINE
  5
A1
330
9E
100
AcDbEntity
  8
UMRISS05
 62
     2
370
    -2
100
AcDbLine
 10
122.036448855963
 20
144.5748949209407
 30
0.0
 11
122.036448855963
 21
128.4030209970217
 31
0.0
  0
LINE
  5
A2
330
9E
100
AcDbEntity
  8
UMRISS05
 62
     2
370
    -2
100
AcDbLine
 10
66.0364488559631
 20
129.4030209970217
 30
0.0
 11
118.036448855963
 21
129.4030209970217
 31
0.0
  0
SOLID
  5
A3
330
9E
100
AcDbEntity
  8
UMRISS05
 62
     2
100
AcDbTrace
 10
66.0364488559631
 20
130.0696876636884
 30
0.0
 11
66.0364488559631
 21
128.736354330355
 31
0.0
 12
62.0364488559631
 22
129.4030209970217
 32
0.0
 13
62.0364488559631
 23
129.4030209970217
 33
0.0
  0
SOLID
  5
A4
330
9E
100
AcDbEntity
  8
UMRISS05
 62
     2
100
AcDbTrace
 10
118.036448855963
 20
130.0696876636884
 30
0.0
 11
118.036448855963
 21
128.736354330355
 31
0.0
 12
122.036448855963
 22
129.4030209970217
 32
0.0
 13
122.036448855963
 23
129.4030209970217
 33
0.0
  0
MTEXT
  5
A5
330
9E
100
AcDbEntity
  8
UMRISS05
 62
     3
100
AcDbMText
 10
92.03644885596308
 20
132.6240134936111
 30
0.0
 40
4.349999999999999
 41
0.0
 71
     5
 72
     1
  1
\A1;60
  7
ARIAL-STANDARD
 73
     1
 44
1.0
1001
ACAD
1000
MTEXTBEGIN
1070
    73
1070
     1
1070
    44
1040
1.0
1070
    74
1070
     0
1000
MTEXTEND
  0
POINT
  5
A6
330
9E
100
AcDbEntity
  8
DEFPOINTS
 62
     0
100
AcDbPoint
 10
62.0364488559631
 20
144.5748949209407
 30
0.0
  0
POINT
  5
A7
330
9E
100
AcDbEntity
  8
DEFPOINTS
 62
     0
100
AcDbPoint
 10
122.036448855963
 20
144.5748949209407
 30
0.0
  0
POINT
  5
A8
330
9E
100
AcDbEntity
  8
DEFPOINTS
 62
     0
100
AcDbPoint
 10
122.036448855963
 20
129.4030209970217
 30
0.0
  0
ENDBLK
  5
A9
330
9E
100
AcDbEntity
  8
0
100
AcDbBlockEnd
  0
BLOCK
  5
337
330
336
100
AcDbEntity
  8
0
100
AcDbBlockBegin
  2
_ACMFILLED30
 70
     0
 10
0.0
 20
0.0
 30
0.0
  3
_ACMFILLED30
  1

  0
TRACE
  5
338
330
336
100
AcDbEntity
  8
UMRISS05
 62
     0
100
AcDbTrace
 10
-1.0
 20
-0.26794919
 30
0.0
 11
-1.0
 21
0.26794919
 31
0.0
 12
0.0
 22
0.0
 32
0.0
 13
0.0
 23
0.0
 33
0.0
  0
ENDBLK
  5
339
330
336
100
AcDbEntity
  8
0
100
AcDbBlockEnd
  0
BLOCK
  5
70
330
6F
100
AcDbEntity
  8
0
100
AcDbBlockBegin
  2
*D24
 70
     1
 10
0.0
 20
0.0
 30
0.0
  3
*D24
  1

  0
LINE
  5
71
330
6F
100
AcDbEntity
  8
AM_5
 62
     2
370
    -2
100
AcDbLine
 10
81.03644885599271
 20
427.8939749130909
 30
0.0
 11
81.03644885599271
 21
442.5977971373633
 31
0.0
  0
LINE
  5
72
330
6F
100
AcDbEntity
  8
AM_5
 62
     2
370
    -2
100
AcDbLine
 10
86.03644885599265
 20
440.943974913091
 30
0.0
 11
86.03644885599265
 21
442.5977971373633
 31
0.0
  0
LINE
  5
73
330
6F
100
AcDbEntity
  8
AM_5
 62
     2
370
    -2
100
AcDbLine
 10
77.03644885599271
 20
441.5977971373633
 30
0.0
 11
73.03644885599272
 21
441.5977971373633
 31
0.0
  0
LINE
  5
74
330
6F
100
AcDbEntity
  8
AM_5
 62
     2
370
    -2
100
AcDbLine
 10
90.03644885599266
 20
441.5977971373633
 30
0.0
 11
94.03644885599266
 21
441.5977971373633
 31
0.0
  0
LINE
  5
75
330
6F
100
AcDbEntity
  8
AM_5
 62
     2
370
    -2
100
AcDbLine
 10
81.03644885599271
 20
441.5977971373633
 30
0.0
 11
86.03644885599265
 21
441.5977971373633
 31
0.0
  0
SOLID
  5
76
330
6F
100
AcDbEntity
  8
AM_5
 62
     2
100
AcDbTrace
 10
77.03644885599271
 20
442.26446380403
 30
0.0
 11
77.03644885599271
 21
440.9311304706966
 31
0.0
 12
81.03644885599271
 22
441.5977971373633
 32
0.0
 13
81.03644885599271
 23
441.5977971373633
 33
0.0
  0
SOLID
  5
77
330
6F
100
AcDbEntity
  8
AM_5
 62
     2
100
AcDbTrace
 10
90.03644885599266
 20
442.26446380403
 30
0.0
 11
90.03644885599266
 21
440.9311304706966
 31
0.0
 12
86.03644885599265
 22
441.5977971373633
 32
0.0
 13
86.03644885599265
 23
441.5977971373633
 33
0.0
  0
MTEXT
  5
78
330
6F
100
AcDbEntity
  8
AM_5
 62
     3
100
AcDbMText
 10
83.53644885599269
 20
444.8098878604193
 30
0.0
 40
4.349999999999999
 41
0.0
 71
     5
 72
     1
  1
\A1;5
  7
ARIAL-STANDARD
 73
     1
 44
1.0
1001
ACAD
1000
MTEXTBEGIN
1070
    73
1070
     1
1070
    44
1040
1.0
1070
    74
1070
     0
1000
MTEXTEND
  0
POINT
  5
79
330
6F
100
AcDbEntity
  8
DEFPOINTS
 62
     0
100
AcDbPoint
 10
81.03644885599271
 20
427.8939749130909
 30
0.0
  0
POINT
  5
7B
330
6F
100
AcDbEntity
  8
DEFPOINTS
 62
     0
100
AcDbPoint
 10
86.03644885599265
 20
440.943974913091
 30
0.0
  0
POINT
  5
7C
330
6F
100
AcDbEntity
  8
DEFPOINTS
 62
     0
100
AcDbPoint
 10
86.03644885599265
 20
441.5977971373633
 30
0.0
  0
ENDBLK
  5
7D
330
6F
100
AcDbEntity
  8
0
100
AcDbBlockEnd
  0
ENDSEC
  0
SECTION
  2
ENTITIES
  0
DIMENSION
  5
6C
330
2
100
AcDbEntity
  8
AM_5
100
AcDbDimension
  2
*D24
 10
86.03644885599265
 20
441.5977971373633
 30
0.0
 11
83.53644885599269
 21
444.8098878604193
 31
0.0
 71
     5
 42
4.999999999999943
  3
Katalog 09$0
100
AcDbAlignedDimension
 13
81.03644885599271
 23
427.8939749130909
 33
0.0
 14
86.03644885599265
 24
440.943974913091
 34
0.0
100
AcDbRotatedDimension
1001
ACAD_DSTYLE_DIMINSPECT
1070
   396
1000
100%
1070
   395
1000

1070
   394
1070
    33
1070
   393
1070
     0
  0
LINE
  5
80
330
2
100
AcDbEntity
  8
UMRISS05
100
AcDbLine
 10
117.9364488559927
 20
432.943974913091
 30
0.0
 11
117.9364488559926
 21
376.9439749130911
 31
0.0
  0
CIRCLE
  5
81
330
2
100
AcDbEntity
  8
UMRISS05
100
AcDbCircle
 10
117.9364488559927
 20
433.943974913091
 30
0.0
 40
0.9999999999999861
  0
CIRCLE
  5
82
330
2
100
AcDbEntity
  8
UMRISS05
100
AcDbCircle
 10
117.9364488559926
 20
375.9439749130911
 30
0.0
 40
1.000000000000014
  0
LINE
  5
83
330
2
100
AcDbEntity
  8
UMRISS05
100
AcDbLine
 10
113.9364488559927
 20
432.943974913091
 30
0.0
 11
113.9364488559926
 21
376.9439749130911
 31
0.0
  0
CIRCLE
  5
84
330
2
100
AcDbEntity
  8
UMRISS05
100
AcDbCircle
 10
113.9364488559927
 20
433.943974913091
 30
0.0
 40
0.9999999999999861
  0
CIRCLE
  5
85
330
2
100
AcDbEntity
  8
UMRISS05
100
AcDbCircle
 10
113.9364488559926
 20
375.9439749130911
 30
0.0
 40
1.000000000000014
  0
LINE
  5
86
330
2
100
AcDbEntity
  8
UMRISS05
100
AcDbLine
 10
109.9364488559927
 20
432.943974913091
 30
0.0
 11
109.9364488559926
 21
376.9439749130911
 31
0.0
  0
CIRCLE
  5
87
330
2
100
AcDbEntity
  8
UMRISS05
100
AcDbCircle
 10
109.9364488559927
 20
433.943974913091
 30
0.0
 40
0.9999999999999861
  0
CIRCLE
  5
88
330
2
100
AcDbEntity
  8
UMRISS05
100
AcDbCircle
 10
109.9364488559926
 20
375.9439749130911
 30
0.0
 40
1.000000000000014
  0
LINE
  5
89
330
2
100
AcDbEntity
  8
UMRISS05
100
AcDbLine
 10
105.9364488559927
 20
432.943974913091
 30
0.0
 11
105.9364488559926
 21
376.9439749130911
 31
0.0
  0
CIRCLE
  5
8A
330
2
100
AcDbEntity
  8
UMRISS05
100
AcDbCircle
 10
105.9364488559927
 20
433.943974913091
 30
0.0
 40
0.9999999999999861
  0
CIRCLE
  5
8B
330
2
100
AcDbEntity
  8
UMRISS05
100
AcDbCircle
 10
105.9364488559926
 20
375.9439749130911
 30
0.0
 40
1.000000000000014
  0
LINE
  5
8C
330
2
100
AcDbEntity
  8
UMRISS05
100
AcDbLine
 10
101.9364488559927
 20
432.943974913091
 30
0.0
 11
101.9364488559926
 21
376.9439749130911
 31
0.0
  0
CIRCLE
  5
8D
330
2
100
AcDbEntity
  8
UMRISS05
100
AcDbCircle
 10
101.9364488559927
 20
433.943974913091
 30
0.0
 40
0.9999999999999861
  0
CIRCLE
  5
8E
330
2
100
AcDbEntity
  8
UMRISS05
100
AcDbCircle
 10
101.9364488559926
 20
375.9439749130911
 30
0.0
 40
1.000000000000014
  0
LINE
  5
8F
330
2
100
AcDbEntity
  8
UMRISS05
100
AcDbLine
 10
97.9364488559927
 20
432.943974913091
 30
0.0
 11
97.93644885599263
 21
376.9439749130911
 31
0.0
  0
CIRCLE
  5
90
330
2
100
AcDbEntity
  8
UMRISS05
100
AcDbCircle
 10
97.9364488559927
 20
433.943974913091
 30
0.0
 40
0.9999999999999861
  0
CIRCLE
  5
91
330
2
100
AcDbEntity
  8
UMRISS05
100
AcDbCircle
 10
97.93644885599263
 20
375.9439749130911
 30
0.0
 40
1.000000000000014
  0
LINE
  5
92
330
2
100
AcDbEntity
  8
UMRISS05
100
AcDbLine
 10
93.9364488559927
 20
432.943974913091
 30
0.0
 11
93.93644885599263
 21
376.9439749130911
 31
0.0
  0
CIRCLE
  5
93
330
2
100
AcDbEntity
  8
UMRISS05
100
AcDbCircle
 10
93.9364488559927
 20
433.943974913091
 30
0.0
 40
0.9999999999999861
  0
CIRCLE
  5
94
330
2
100
AcDbEntity
  8
UMRISS05
100
AcDbCircle
 10
93.93644885599263
 20
375.9439749130911
 30
0.0
 40
1.000000000000014
  0
LINE
  5
95
330
2
100
AcDbEntity
  8
ACHSEN
100
AcDbLine
 10
183.9832008360716
 20
449.4461295846241
 30
0.0
 11
172.455763628512
 21
449.4461295846241
 31
0.0
  0
LINE
  5
9A
330
2
100
AcDbEntity
  8
ACHSEN
100
AcDbLine
 10
183.0716837105761
 20
233.4461295846241
 30
0.0
 11
172.455763628512
 21
233.4461295846242
 31
0.0
  0
CIRCLE
  5
9B
330
2
100
AcDbEntity
  8
UMRISS05
100
AcDbCircle
 10
75.83644885599267
 20
389.443974913091
 30
0.0
 40
4.0
  0
CIRCLE
  5
9C
330
2
100
AcDbEntity
  8
UMRISS05
100
AcDbCircle
 10
75.83644885599267
 20
420.4439749130911
 30
0.0
 40
4.0
  0
DIMENSION
  5
9D
330
2
100
AcDbEntity
  8
UMRISS05
100
AcDbDimension
  2
*D22
 10
122.036448855963
 20
129.4030209970217
 30
0.0
 11
92.03644885596308
 21
132.6240134936111
 31
0.0
 71
     5
 42
59.99999999999994
  3
Katalog 09
100
AcDbAlignedDimension
 13
62.0364488559631
 23
144.5748949209407
 33
0.0
 14
122.036448855963
 24
144.5748949209407
 34
0.0
100
AcDbRotatedDimension
  0
LINE
  5
AA
330
2
100
AcDbEntity
  8
ACHSEN
100
AcDbLine
 10
183.0716837105761
 20
263.9461295846241
 30
0.0
 11
172.455763628512
 21
263.9461295846242
 31
0.0
  0
LINE
  5
AB
330
2
100
AcDbEntity
  8
ACHSEN
100
AcDbLine
 10
183.0716837105761
 20
274.946129584624
 30
0.0
 11
172.455763628512
 21
274.9461295846241
 31
0.0
  0
LINE
  5
AC
330
2
100
AcDbEntity
  8
UMRISS05
100
AcDbLine
 10
77.68295476640213
 20
421.2298144290329
 30
0.0
 11
76.23186398609033
 21
420.3441872234355
 31
0.0
  0
LINE
  5
AD
330
2
100
AcDbEntity
  8
UMRISS05
100
AcDbLine
 10
74.26862351860967
 20
419.1459857099803
 30
0.0
 11
73.95604921075181
 21
419.6581353971493
 31
0.0
  0
LINE
  5
AE
330
2
100
AcDbEntity
  8
UMRISS05
100
AcDbLine
 10
75.91928967823242
 20
420.8563369106045
 30
0.0
 11
77.37038045854422
 21
421.7419641162018
 31
0.0
  0
LINE
  5
AF
330
2
100
AcDbEntity
  8
UMRISS05
100
AcDbLine
 10
77.37038045854422
 20
421.7419641162018
 30
0.0
 11
77.68295476640213
 21
421.2298144290329
 31
0.0
  0
LINE
  5
B0
330
2
100
AcDbEntity
  8
UMRISS05
100
AcDbLine
 10
75.71971429892148
 20
420.0316129155777
 30
0.0
 11
74.26862351860967
 21
419.1459857099803
 31
0.0
  0
LINE
  5
B1
330
2
100
AcDbEntity
  8
UMRISS05
100
AcDbLine
 10
73.95604921075181
 20
419.6581353971493
 30
0.0
 11
75.40713999106356
 21
420.5437626027466
 31
0.0
  0
LINE
  5
B2
330
2
100
AcDbEntity
  8
UMRISS05
100
AcDbLine
 10
77.11749119168769
 20
418.8930964431238
 30
0.0
 11
76.60534150451884
 21
418.5805221352659
 31
0.0
  0
LINE
  5
B3
330
2
100
AcDbEntity
  8
UMRISS05
100
AcDbLine
 10
75.40713999106356
 20
420.5437626027466
 30
0.0
 11
74.52151278546626
 21
421.9948533830583
 31
0.0
  0
LINE
  5
B4
330
2
100
AcDbEntity
  8
UMRISS05
100
AcDbLine
 10
74.52151278546626
 20
421.9948533830583
 30
0.0
 11
75.03366247263511
 21
422.3074276909162
 31
0.0
  0
LINE
  5
B5
330
2
100
AcDbEntity
  8
UMRISS05
100
AcDbLine
 10
76.60534150451884
 20
418.5805221352659
 30
0.0
 11
75.71971429892148
 21
420.0316129155777
 31
0.0
  0
LINE
  5
B6
330
2
100
AcDbEntity
  8
UMRISS05
100
AcDbLine
 10
75.03366247263511
 20
422.3074276909162
 30
0.0
 11
75.91928967823242
 21
420.8563369106045
 31
0.0
  0
LINE
  5
B7
330
2
100
AcDbEntity
  8
UMRISS05
100
AcDbLine
 10
76.23186398609033
 20
420.3441872234355
 30
0.0
 11
77.11749119168769
 21
418.8930964431238
 31
0.0
  0
LINE
  5
B8
330
2
100
AcDbEntity
  8
UMRISS05
100
AcDbLine
 10
77.69990163381783
 20
390.2298144290327
 30
0.0
 11
76.24881085350603
 21
389.3441872234353
 31
0.0
  0
LINE
  5
B9
330
2
100
AcDbEntity
  8
UMRISS05
100
AcDbLine
 10
74.28557038602537
 20
388.1459857099801
 30
0.0
 11
73.97299607816751
 21
388.658135397149
 31
0.0
  0
LINE
  5
BA
330
2
100
AcDbEntity
  8
UMRISS05
100
AcDbLine
 10
75.93623654564812
 20
389.8563369106042
 30
0.0
 11
77.38732732595991
 21
390.7419641162015
 31
0.0
  0
LINE
  5
BB
330
2
100
AcDbEntity
  8
UMRISS05
100
AcDbLine
 10
77.38732732595991
 20
390.7419641162015
 30
0.0
 11
77.69990163381783
 21
390.2298144290327
 31
0.0
  0
LINE
  5
BC
330
2
100
AcDbEntity
  8
UMRISS05
100
AcDbLine
 10
75.73666116633717
 20
389.0316129155775
 30
0.0
 11
74.28557038602537
 21
388.1459857099801
 31
0.0
  0
LINE
  5
BD
330
2
100
AcDbEntity
  8
UMRISS05
100
AcDbLine
 10
73.97299607816751
 20
388.658135397149
 30
0.0
 11
75.42408685847926
 21
389.5437626027463
 31
0.0
  0
LINE
  5
BE
330
2
100
AcDbEntity
  8
UMRISS05
100
AcDbLine
 10
77.13443805910339
 20
387.8930964431236
 30
0.0
 11
76.62228837193453
 21
387.5805221352657
 31
0.0
  0
LINE
  5
BF
330
2
100
AcDbEntity
  8
UMRISS05
100
AcDbLine
 10
75.42408685847926
 20
389.5437626027463
 30
0.0
 11
74.53845965288195
 21
390.9948533830581
 31
0.0
  0
LINE
  5
C0
330
2
100
AcDbEntity
  8
UMRISS05
100
AcDbLine
 10
74.53845965288195
 20
390.9948533830581
 30
0.0
 11
75.05060934005081
 21
391.307427690916
 31
0.0
  0
LINE
  5
C1
330
2
100
AcDbEntity
  8
UMRISS05
100
AcDbLine
 10
76.62228837193453
 20
387.5805221352657
 30
0.0
 11
75.73666116633717
 21
389.0316129155775
 31
0.0
  0
LINE
  5
C2
330
2
100
AcDbEntity
  8
UMRISS05
100
AcDbLine
 10
75.05060934005081
 20
391.307427690916
 30
0.0
 11
75.93623654564812
 21
389.8563369106042
 31
0.0
  0
LINE
  5
C3
330
2
100
AcDbEntity
  8
UMRISS05
100
AcDbLine
 10
76.24881085350603
 20
389.3441872234353
 30
0.0
 11
77.13443805910339
 21
387.8930964431236
 31
0.0
  0
LINE
  5
C4
330
2
100
AcDbEntity
  8
ACHSEN
100
AcDbLine
 10
63.61652322736728
 20
304.943974913091
 30
0.0
 11
83.33635461742266
 21
304.943974913091
 31
0.0
  0
DIMENSION
  5
C5
330
2
100
AcDbEntity
  8
UMRISS05
100
AcDbDimension
  2
*D21
 10
50.31894500448697
 20
304.943974913091
 30
0.0
 11
47.09795250789756
 21
332.943974913091
 31
0.0
 71
     5
 42
56.00000000000005
  3
Katalog 09
100
AcDbAlignedDimension
 13
51.78662868084785
 23
360.943974913091
 33
0.0
 14
64.11652322736751
 24
304.943974913091
 34
0.0
 50
90.0
100
AcDbRotatedDimension
1001
ACAD_DSTYLE_DIMINSPECT
1070
   396
1000
100%
1070
   395
1000

1070
   394
1070
    33
1070
   393
1070
     0
  0
DIMENSION
  5
D2
330
2
100
AcDbEntity
  8
UMRISS05
100
AcDbDimension
  2
*D20
 10
50.31894500448697
 20
360.943974913091
 30
0.0
 11
50.31894500448692
 21
384.943974913091
 31
0.0
 70
   128
 71
     5
 42
44.00000000000028
  3
Katalog 09
100
AcDbAlignedDimension
 13
66.01701589287916
 23
404.9439749130913
 33
0.0
 14
51.78662868084785
 24
360.943974913091
 34
0.0
 50
90.0
100
AcDbRotatedDimension
1001
ACAD_DSTYLE_DIMINSPECT
1070
   396
1000
100%
1070
   395
1000

1070
   394
1070
    33
1070
   393
1070
     0
  0
LINE
  5
DF
330
2
100
AcDbEntity
  8
UMRISS05
100
AcDbLine
 10
61.78662868084785
 20
360.943974913091
 30
0.0
 11
51.78662868084785
 21
360.943974913091
 31
0.0
  0
TRACE
  5
E0
330
2
100
AcDbEntity
  8
UMRISS05
100
AcDbTrace
 10
-58.12637463084787
 20
365.943974913091
 30
-0.0000000000000014
 11
-55.44688273084784
 21
365.943974913091
 31
-0.0000000000000014
 12
-56.78662868084785
 22
360.943974913091
 32
-0.0000000000000014
 13
-56.78662868084785
 23
360.943974913091
 33
-0.0000000000000014
210
0.0
220
0.0
230
-1.0
  0
LINE
  5
E1
330
2
100
AcDbEntity
  8
UMRISS05
100
AcDbLine
 10
56.78662868084785
 20
365.943974913091
 30
0.0
 11
56.78662868084785
 21
370.943974913091
 31
0.0
  0
MTEXT
  5
E2
102
{ACAD_XDICTIONARY
360
381
102
}
330
2
100
AcDbEntity
  8
UMRISS05
 62
     3
100
AcDbMText
 10
205.6216051990069
 20
369.1071022733471
 30
0.0
 40
3.5
 41
0.0
 71
     5
 72
     1
  1
\A1;Dr\U+00FCckerh\U+00F6he
  7
ARIAL-STANDARD
 73
     1
 44
1.0
1001
ACAD
1000
MTEXTBEGIN
1070
    73
1070
     1
1070
    44
1040
1.0
1070
    74
1070
     0
1000
MTEXTEND
  0
LINE
  5
E3
330
2
100
AcDbEntity
  8
UMRISS05
100
AcDbLine
 10
193.3812703158931
 20
360.943974913091
 30
0.0
 11
183.3812703158931
 21
360.943974913091
 31
0.0
  0
TRACE
  5
E4
330
2
100
AcDbEntity
  8
UMRISS05
100
AcDbTrace
 10
-189.7210162658931
 20
365.943974913091
 30
-0.0000000000000046
 11
-187.0415243658931
 21
365.943974913091
 31
-0.0000000000000046
 12
-188.3812703158931
 22
360.943974913091
 32
-0.0000000000000046
 13
-188.3812703158931
 23
360.943974913091
 33
-0.0000000000000046
210
0.0
220
0.0
230
-1.0
  0
LINE
  5
E5
330
2
100
AcDbEntity
  8
UMRISS05
100
AcDbLine
 10
188.3812703158931
 20
365.943974913091
 30
0.0
 11
188.3812703158931
 21
370.943974913091
 31
0.0
  0
LINE
  5
E6
330
2
100
AcDbEntity
  8
ACHSEN
100
AcDbLine
 10
61.78662868084785
 20
360.943974913091
 30
0.0
 11
183.3812703158931
 21
360.943974913091
 31
0.0
  0
DIMENSION
  5
E7
330
2
100
AcDbEntity
  8
UMRISS05
100
AcDbDimension
  2
*D19
 10
74.0364488559926
 20
342.8642756901372
 30
0.0
 11
98.03644885599261
 21
346.0852681867266
 31
0.0
 71
     5
 42
48.0
  3
Katalog 09
100
AcDbAlignedDimension
 13
122.0364488559926
 23
370.943974913091
 33
0.0
 14
74.0364488559926
 24
341.443974913091
 34
0.0
100
AcDbRotatedDimension
  0
DIMENSION
  5
F4
102
{ACAD_XDICTIONARY
360
F5
102
}
102
{ACAD_REACTORS
330
F6
102
}
330
2
100
AcDbEntity
  8
UMRISS05
100
AcDbDimension
  2
*D18
 10
139.4277004676387
 20
369.9439749130909
 30
0.0
 11
139.4277004676387
 21
404.943974913091
 31
0.0
 70
   128
 71
     5
 42
70.0
  3
Katalog 09
100
AcDbAlignedDimension
 13
121.0364488559926
 23
439.943974913091
 33
0.0
 14
120.6167264197659
 24
369.943974913091
 34
0.0
 50
90.0
100
AcDbRotatedDimension
  0
TRACE
  5
105
330
2
100
AcDbEntity
  8
BEMASSUNG
  6
Continuous
 62
     2
100
AcDbTrace
 10
87.68505576591747
 20
428.1284201639159
 30
0.0
 11
88.65471057498217
 21
427.8839420600748
 31
0.0
 12
87.4364488559927
 22
425.0972166731655
 32
0.0
 13
87.4364488559927
 23
425.0972166731655
 33
0.0
  0
LINE
  5
109
330
2
100
AcDbEntity
  8
ACHSEN
100
AcDbLine
 10
81.78644885599215
 20
449.443974913091
 30
0.0
 11
66.28644885599214
 21
449.443974913091
 31
0.0
  0
LINE
  5
10A
330
2
100
AcDbEntity
  8
ACHSEN
100
AcDbLine
 10
81.78644885599226
 20
233.4439749130911
 30
0.0
 11
66.28644885599226
 21
233.4439749130911
 31
0.0
  0
DIMENSION
  5
10B
330
2
100
AcDbEntity
  8
UMRISS05
100
AcDbDimension
  2
*D17
 10
41.62218804072302
 20
219.443974913091
 30
0.0
 11
38.39971191521139
 21
287.193974913091
 31
0.0
 71
     5
 42
135.4999999999999
  3
Katalog 09
100
AcDbAlignedDimension
 13
66.28644885599261
 23
354.943974913091
 33
0.0
 14
66.28644885599261
 24
219.443974913091
 34
0.0
 50
90.0
100
AcDbRotatedDimension
  0
DIMENSION
  5
118
330
2
100
AcDbEntity
  8
UMRISS05
100
AcDbDimension
  2
*D16
 10
41.62218804072302
 20
354.943974913091
 30
0.0
 11
38.40119554413361
 21
409.193974913091
 31
0.0
 71
     5
 42
108.5
  3
Katalog 09
100
AcDbAlignedDimension
 13
66.28644885599261
 23
463.4439749130909
 33
0.0
 14
66.28644885599261
 24
354.943974913091
 34
0.0
 50
90.0
100
AcDbRotatedDimension
  0
DIMENSION
  5
125
330
2
100
AcDbEntity
  8
UMRISS05
100
AcDbDimension
  2
*D15
 10
41.62218804072302
 20
476.443974913091
 30
0.0
 11
38.39971191521134
 21
469.943974913091
 31
0.0
 71
     5
 42
13.00000000000006
  3
Katalog 09
100
AcDbAlignedDimension
 13
66.28644885599261
 23
463.4439749130909
 33
0.0
 14
62.0364488559926
 24
476.443974913091
 34
0.0
 50
90.0
100
AcDbRotatedDimension
  0
DIMENSION
  5
132
330
2
100
AcDbEntity
  8
UMRISS05
100
AcDbDimension
  2
*D14
 10
41.62218804072302
 20
219.443974913091
 30
0.0
 11
38.39971191521139
 21
212.943974913091
 31
0.0
 71
     5
 42
13.00000000000003
  3
Katalog 09
100
AcDbAlignedDimension
 13
62.03644885599271
 23
206.443974913091
 33
0.0
 14
66.28644885599261
 24
219.443974913091
 34
0.0
 50
90.0
100
AcDbRotatedDimension
  0
LINE
  5
13F
330
2
100
AcDbEntity
  8
BEMASSUNG
 62
     2
100
AcDbLine
 10
91.44672178966311
 20
446.4019272531046
 30
0.0
 11
88.16988317044978
 21
428.0061811119954
 31
0.0
  0
LINE
  5
140
330
2
100
AcDbEntity
  8
BEMASSUNG
 62
     2
100
AcDbLine
 10
93.27896086769646
 20
446.4019272531046
 30
0.0
 11
91.44672178966311
 21
446.4019272531046
 31
0.0
  0
LINE
  5
141
330
2
100
AcDbEntity
  8
ACHSEN
100
AcDbLine
 10
78.28644885599271
 20
274.943974913091
 30
0.0
 11
69.78644885599272
 21
274.943974913091
 31
0.0
  0
LINE
  5
142
330
2
100
AcDbEntity
  8
ACHSEN
100
AcDbLine
 10
78.28644885599271
 20
263.943974913091
 30
0.0
 11
69.78644885599272
 21
263.943974913091
 31
0.0
  0
ARC
  5
143
330
2
100
AcDbEntity
  8
AVERDECKTE
100
AcDbCircle
 10
82.73644885599276
 20
434.4439749130909
 30
0.0
 40
1.5
100
AcDbArc
 50
0.0
 51
90.0
  0
LINE
  5
148
330
2
100
AcDbEntity
  8
AVERDECKTE
100
AcDbLine
 10
84.23644885599276
 20
428.9439749130909
 30
0.0
 11
84.23644885599276
 21
434.4439749130909
 31
0.0
  0
LINE
  5
149
330
2
100
AcDbEntity
  8
AVERDECKTE
100
AcDbLine
 10
84.23644885599276
 20
375.443974913091
 30
0.0
 11
84.23644885599276
 21
380.943974913091
 31
0.0
  0
ARC
  5
14A
330
2
100
AcDbEntity
  8
AVERDECKTE
100
AcDbCircle
 10
66.33644885599278
 20
434.4439749130909
 30
0.0
 40
1.5
100
AcDbArc
 50
90.0
 51
180.0
  0
LINE
  5
14B
330
2
100
AcDbEntity
  8
AVERDECKTE
100
AcDbLine
 10
64.83644885599267
 20
375.4439749130909
 30
0.0
 11
64.83644885599279
 21
434.4439749130909
 31
0.0
  0
LINE
  5
14C
330
2
100
AcDbEntity
  8
AVERDECKTE
100
AcDbLine
 10
82.73644885599276
 20
435.943974913091
 30
0.0
 11
66.33644885599278
 21
435.943974913091
 31
0.0
  0
ARC
  5
14D
330
2
100
AcDbEntity
  8
AVERDECKTE
100
AcDbCircle
 10
66.33644885599267
 20
375.4439749130909
 30
0.0
 40
1.5
100
AcDbArc
 50
180.0
 51
270.0
  0
ARC
  5
14E
330
2
100
AcDbEntity
  8
AVERDECKTE
100
AcDbCircle
 10
82.73644885599276
 20
375.443974913091
 30
0.0
 40
1.5
100
AcDbArc
 50
270.0
 51
0.0
  0
LINE
  5
14F
330
2
100
AcDbEntity
  8
AVERDECKTE
100
AcDbLine
 10
82.73644885599276
 20
373.943974913091
 30
0.0
 11
66.33644885599267
 21
373.9439749130909
 31
0.0
  0
LINE
  5
150
330
2
100
AcDbEntity
  8
ACHSEN
100
AcDbLine
 10
83.33644885599245
 20
389.4439749130913
 30
0.0
 11
68.38644885599251
 21
389.4439749130913
 31
0.0
  0
LINE
  5
151
330
2
100
AcDbEntity
  8
ACHSEN
100
AcDbLine
 10
68.38644885599251
 20
420.4439749130912
 30
0.0
 11
83.25255512116143
 21
420.4439749130912
 31
0.0
  0
LINE
  5
152
330
2
100
AcDbEntity
  8
ACHSEN
100
AcDbLine
 10
66.01701589287916
 20
404.9439749130913
 30
0.0
 11
89.22240370219141
 21
404.9439749130913
 31
0.0
  0
DIMENSION
  5
153
330
2
100
AcDbEntity
  8
BEMASSUNG
100
AcDbDimension
  2
*D13
 10
81.53644885599272
 20
251.4776626230158
 30
0.0
 11
74.03644885599272
 21
251.4776626230158
 31
0.0
 70
   128
 71
     5
 42
15.00000000000006
  3
Katalog 09
100
AcDbAlignedDimension
 13
66.53644885599266
 23
283.443974913091
 33
0.0
 14
81.53644885599272
 24
283.443974913091
 34
0.0
100
AcDbRotatedDimension
  0
DIMENSION
  5
160
330
2
100
AcDbEntity
  8
BEMASSUNG
100
AcDbDimension
  2
*D12
 10
86.03644885599265
 20
194.9964059148116
 30
0.0
 11
74.45205658952199
 21
194.9964059148116
 31
0.0
 70
   128
  1
<>
 71
     5
 42
24.0
  3
Katalog 09
100
AcDbAlignedDimension
 13
62.03644885599266
 23
206.443974913092
 33
0.0
 14
86.03644885599265
 24
206.443974913092
 34
0.0
100
AcDbRotatedDimension
  0
DIMENSION
  5
16D
330
2
100
AcDbEntity
  8
BEMASSUNG
100
AcDbDimension
  2
*D11
 10
31.86113351697381
 20
476.4439749130919
 30
0.0
 11
31.86113351697372
 21
341.443974913092
 31
0.0
 70
   128
 71
     5
 42
269.9999999999999
  3
Katalog 09
100
AcDbAlignedDimension
 13
62.0364488559926
 23
206.443974913092
 33
0.0
 14
62.03644885599266
 24
476.4439749130919
 34
0.0
 50
90.0
100
AcDbRotatedDimension
  0
DIMENSION
  5
17A
330
2
100
AcDbEntity
  8
BEMASSUNG
100
AcDbDimension
  2
*D10
 10
105.0956809022202
 20
328.443974913091
 30
0.0
 11
101.9206809022201
 21
304.943974913091
 31
0.0
 71
     5
 42
47.0
  3
Katalog 09
100
AcDbAlignedDimension
 13
79.53644885599271
 23
281.443974913091
 33
0.0
 14
79.53644885599266
 24
328.443974913091
 34
0.0
 50
270.0
100
AcDbRotatedDimension
  0
DIMENSION
  5
187
330
2
100
AcDbEntity
  8
BEMASSUNG
100
AcDbDimension
  2
*D9
 10
105.0956809022202
 20
206.443974913092
 30
0.0
 11
101.8835901791642
 21
243.9439749130915
 31
0.0
 71
     5
 42
74.999999999999
  3
Katalog 09
100
AcDbAlignedDimension
 13
79.53644885599271
 23
281.443974913091
 33
0.0
 14
86.03644885599265
 24
206.443974913092
 34
0.0
 50
270.0
100
AcDbRotatedDimension
  0
DIMENSION
  5
194
102
{ACAD_REACTORS
330
F6
102
}
330
2
100
AcDbEntity
  8
BEMASSUNG
100
AcDbDimension
  2
*D8
 10
130.8685919862415
 20
380.9439749130909
 30
0.0
 11
130.8685919862415
 21
354.693974913091
 31
0.0
 70
   128
 71
     5
 42
52.5
  3
Katalog 09
100
AcDbAlignedDimension
 13
79.53644885599271
 23
328.443974913091
 33
0.0
 14
88.53644885599255
 24
380.943974913091
 34
0.0
 50
270.0
100
AcDbRotatedDimension
  0
DIMENSION
  5
1A1
330
2
100
AcDbEntity
  8
BEMASSUNG
100
AcDbDimension
  2
*D7
 10
130.8685919862415
 20
428.9439749130909
 30
0.0
 11
130.8685919862414
 21
404.9439749130909
 31
0.0
 70
   128
 71
     5
 42
47.99999999999994
  3
Katalog 09
100
AcDbAlignedDimension
 13
88.53644885599255
 23
380.943974913091
 33
0.0
 14
88.5364488559926
 24
428.9439749130909
 34
0.0
 50
270.0
100
AcDbRotatedDimension
  0
DIMENSION
  5
1AE
102
{ACAD_REACTORS
330
F6
102
}
330
2
100
AcDbEntity
  8
BEMASSUNG
100
AcDbDimension
  2
*D6
 10
130.8685919862415
 20
476.4439749130918
 30
0.0
 11
130.8685919862414
 21
452.6939749130914
 31
0.0
 70
   128
 71
     5
 42
47.50000000000096
  3
Katalog 09
100
AcDbAlignedDimension
 13
88.5364488559926
 23
428.9439749130909
 33
0.0
 14
86.03644885599265
 24
476.4439749130919
 34
0.0
 50
270.0
100
AcDbRotatedDimension
  0
LINE
  5
1BB
330
2
100
AcDbEntity
  8
ACHSEN
100
AcDbLine
 10
81.78644885599259
 20
463.4439749130909
 30
0.0
 11
66.28644885599261
 21
463.4439749130909
 31
0.0
  0
LINE
  5
1BC
330
2
100
AcDbEntity
  8
ACHSEN
100
AcDbLine
 10
81.78644885599259
 20
219.443974913091
 30
0.0
 11
66.28644885599261
 21
219.443974913091
 31
0.0
  0
LINE
  5
1BD
330
2
100
AcDbEntity
  8
ACHSEN
100
AcDbLine
 10
74.0364488559926
 20
203.443974913091
 30
0.0
 11
74.0364488559926
 21
479.4439749130908
 31
0.0
  0
LINE
  5
1BE
330
2
100
AcDbEntity
  8
ACHSEN
100
AcDbLine
 10
81.78644885599259
 20
354.943974913091
 30
0.0
 11
66.28644885599261
 21
354.943974913091
 31
0.0
  0
MTEXT
  5
1BF
330
2
100
AcDbEntity
  8
UMRISS05
 62
     3
100
AcDbMText
 10
107.0220335203955
 20
449.2379023064891
 30
0.0
 40
3.5
 41
0.0
 71
     5
 72
     1
  1
\A1;Verstellbereich\P-1 / +2mm
  7
ARIAL-STANDARD
 73
     1
 44
1.0
1001
ACAD
1000
MTEXTBEGIN
1070
    73
1070
     1
1070
    44
1040
1.0
1070
    74
1070
     0
1000
MTEXTEND
  0
DIMENSION
  5
1C0
330
2
100
AcDbEntity
  8
UMRISS05
100
AcDbDimension
  2
*D5
 10
62.03644885596293
 20
170.1761936687997
 30
0.0
 11
49.03510165268869
 21
170.1761936687997
 31
0.0
 70
   128
 71
     5
 42
2.800000000000068
  3
Katalog 09
100
AcDbAlignedDimension
 13
64.836448855963
 23
162.5748949209286
 33
0.0
 14
62.03644885596293
 24
147.5748949209408
 34
0.0
100
AcDbRotatedDimension
  0
LINE
  5
1CF
330
2
100
AcDbEntity
  8
ACHSEN
100
AcDbLine
 10
74.03644885610356
 20
165.8827051030563
 30
0.0
 11
74.03644885610356
 21
140.4558275036083
 31
0.0
  0
DIMENSION
  5
1D0
330
2
100
AcDbEntity
  8
UMRISS05
100
AcDbDimension
  2
*D4
 10
84.23644885596292
 20
177.2849831965837
 30
0.0
 11
74.53644885596296
 21
180.5059756931731
 31
0.0
 71
     5
 42
19.39999999999992
  3
Katalog 09
100
AcDbAlignedDimension
 13
64.836448855963
 23
162.5748949209283
 33
0.0
 14
84.23644885596292
 24
162.5748949209283
 34
0.0
100
AcDbRotatedDimension
  0
LINE
  5
1DD
330
2
100
AcDbEntity
  8
AVERDECKTE
100
AcDbLine
 10
179.606174521389
 20
381.8439749130911
 30
0.0
 11
168.6061745213899
 21
381.8439749130911
 31
0.0
  0
LINE
  5
1DE
330
2
100
AcDbEntity
  8
AVERDECKTE
100
AcDbLine
 10
179.606174521389
 20
428.0439749130912
 30
0.0
 11
168.6061745213898
 21
428.0439749130912
 31
0.0
  0
LINE
  5
1DF
330
2
100
AcDbEntity
  8
AVERDECKTE
100
AcDbLine
 10
168.6061745213898
 20
428.0439749130912
 30
0.0
 11
168.6061745213899
 21
381.8439749130911
 31
0.0
  0
LINE
  5
1E0
330
2
100
AcDbEntity
  8
ACHSEN
100
AcDbLine
 10
182.4566794534193
 20
219.4439749130909
 30
0.0
 11
172.6020286246768
 21
219.4439749130909
 31
0.0
  0
LINE
  5
1E1
330
2
100
AcDbEntity
  8
ACHSEN
100
AcDbLine
 10
182.3693556013235
 20
354.943974913091
 30
0.0
 11
172.705763628512
 21
354.9439749130911
 31
0.0
  0
LINE
  5
1E2
330
2
100
AcDbEntity
  8
ACHSEN
100
AcDbLine
 10
182.9585141874123
 20
463.4439749130908
 30
0.0
 11
172.8727141518649
 21
463.4439749130908
 31
0.0
  0
DIMENSION
  5
1E3
330
2
100
AcDbEntity
  8
BEMASSUNG
100
AcDbDimension
  2
*D3
 10
176.606174521389
 20
195.0190785509433
 30
0.0
 11
178.106174521389
 21
198.2415546764548
 31
0.0
 71
     5
 42
3.0
  3
Katalog 09
100
AcDbAlignedDimension
 13
179.606174521389
 23
206.4439749130909
 33
0.0
 14
176.606174521389
 24
206.4439749130909
 34
0.0
100
AcDbRotatedDimension
1001
ACAD_DSTYLE_DIMINSPECT
1070
   396
1000
100%
1070
   395
1000

1070
   394
1070
    33
1070
   393
1070
     0
  0
DIMENSION
  5
1F2
330
2
100
AcDbEntity
  8
BEMASSUNG
100
AcDbDimension
  2
*D2
 10
176.606174521389
 20
344.779164529418
 30
0.0
 11
169.1061745213894
 21
348.0001570260074
 31
0.0
 71
     5
 42
14.99999999999914
  3
Katalog 09
100
AcDbAlignedDimension
 13
161.6061745213899
 23
373.9439749130912
 33
0.0
 14
176.606174521389
 24
343.902714115236
 34
0.0
100
AcDbRotatedDimension
1001
ACAD_DSTYLE_DIMINSPECT
1070
   396
1000
100%
1070
   395
1000

1070
   394
1070
    33
1070
   393
1070
     0
  0
DIMENSION
  5
1FF
330
2
100
AcDbEntity
  8
BEMASSUNG
100
AcDbDimension
  2
*D1
 10
151.6935075872787
 20
435.943974913091
 30
0.0
 11
151.6935075872786
 21
404.943974913091
 31
0.0
 70
   128
 71
     5
 42
61.99999999999994
  3
Katalog 09
100
AcDbAlignedDimension
 13
161.6061745213899
 23
373.9439749130911
 33
0.0
 14
161.6061745213899
 24
435.943974913091
 34
0.0
 50
90.0
100
AcDbRotatedDimension
1001
ACAD_DSTYLE_DIMINSPECT
1070
   396
1000
100%
1070
   395
1000

1070
   394
1070
    33
1070
   393
1070
     0
  0
LINE
  5
20C
330
2
100
AcDbEntity
  8
UMRISS05
100
AcDbLine
 10
161.6061745213899
 20
435.943974913091
 30
0.0
 11
176.6061745213903
 21
435.943974913091
 31
0.0
  0
LINE
  5
20D
330
2
100
AcDbEntity
  8
UMRISS05
100
AcDbLine
 10
161.6061745213899
 20
373.9439749130912
 30
0.0
 11
161.6061745213899
 21
435.943974913091
 31
0.0
  0
LINE
  5
20E
330
2
100
AcDbEntity
  8
UMRISS05
100
AcDbLine
 10
161.6061745213899
 20
373.9439749130912
 30
0.0
 11
176.6061745213903
 21
373.9439749130912
 31
0.0
  0
LINE
  5
20F
330
2
100
AcDbEntity
  8
Verdeckte Kanten(MSL)
 48
5.713989734649658
100
AcDbLine
 10
179.606174521391
 20
328.4439749130909
 30
0.0
 11
176.6061745213909
 21
328.4439749130909
 31
0.0
  0
LINE
  5
212
330
2
100
AcDbEntity
  8
Verdeckte Kanten(MSL)
 48
5.713989734649658
100
AcDbLine
 10
179.606174521391
 20
281.4439749130909
 30
0.0
 11
176.6061745213909
 21
281.4439749130909
 31
0.0
  0
LINE
  5
213
330
2
100
AcDbEntity
  8
UMRISS05
100
AcDbLine
 10
176.606174521389
 20
206.4439749130909
 30
0.0
 11
179.606174521389
 21
206.4439749130909
 31
0.0
  0
LINE
  5
214
330
2
100
AcDbEntity
  8
UMRISS05
100
AcDbLine
 10
176.606174521389
 20
476.4439749130909
 30
0.0
 11
176.606174521389
 21
206.4439749130909
 31
0.0
  0
LINE
  5
215
330
2
100
AcDbEntity
  8
UMRISS05
100
AcDbLine
 10
176.606174521389
 20
476.4439749130909
 30
0.0
 11
179.606174521389
 21
476.4439749130909
 31
0.0
  0
LINE
  5
216
330
2
100
AcDbEntity
  8
UMRISS05
100
AcDbLine
 10
179.606174521389
 20
206.4439749130909
 30
0.0
 11
179.606174521389
 21
476.4439749130909
 31
0.0
  0
LINE
  5
217
330
2
100
AcDbEntity
  8
Verdeckte Kanten(MSL)
 48
3.366959810256958
100
AcDbLine
 10
177.8561745213926
 20
466.9439749130908
 30
0.0
 11
176.6061745213926
 21
468.1939749130909
 31
0.0
  0
LINE
  5
218
330
2
100
AcDbEntity
  8
Verdeckte Kanten(MSL)
 48
3.366959810256958
100
AcDbLine
 10
177.8561745213926
 20
459.9439749130908
 30
0.0
 11
176.6061745213926
 21
458.6939749130908
 31
0.0
  0
LINE
  5
219
330
2
100
AcDbEntity
  8
Verdeckte Kanten(MSL)
 48
3.366959810256958
100
AcDbLine
 10
177.8561745213926
 20
358.4439749130909
 30
0.0
 11
176.6061745213926
 21
359.6939749130909
 31
0.0
  0
LINE
  5
21A
330
2
100
AcDbEntity
  8
Verdeckte Kanten(MSL)
 48
3.366959810256958
100
AcDbLine
 10
177.8561745213926
 20
351.443974913091
 30
0.0
 11
176.6061745213926
 21
350.193974913091
 31
0.0
  0
LINE
  5
21B
330
2
100
AcDbEntity
  8
Verdeckte Kanten(MSL)
 48
26.5979061126709
100
AcDbLine
 10
177.8561745213926
 20
459.9439749130908
 30
0.0
 11
177.8561745213926
 21
466.9439749130908
 31
0.0
  0
LINE
  5
21C
330
2
100
AcDbEntity
  8
Verdeckte Kanten(MSL)
 48
26.5979061126709
100
AcDbLine
 10
177.8561745213926
 20
351.443974913091
 30
0.0
 11
177.8561745213926
 21
358.4439749130909
 31
0.0
  0
LINE
  5
21D
330
2
100
AcDbEntity
  8
Verdeckte Kanten(MSL)
 48
5.713989734649658
100
AcDbLine
 10
177.8561745213926
 20
215.9439749130909
 30
0.0
 11
177.8561745213926
 21
222.9439749130909
 31
0.0
  0
LINE
  5
21E
330
2
100
AcDbEntity
  8
Verdeckte Kanten(MSL)
 48
3.366959810256958
100
AcDbLine
 10
178.3561745213926
 20
459.9439749130908
 30
0.0
 11
179.6061745213926
 21
458.6939749130908
 31
0.0
  0
LINE
  5
21F
330
2
100
AcDbEntity
  8
Verdeckte Kanten(MSL)
 48
3.366959810256958
100
AcDbLine
 10
178.3561745213926
 20
466.9439749130908
 30
0.0
 11
179.6061745213926
 21
468.1939749130909
 31
0.0
  0
LINE
  5
220
330
2
100
AcDbEntity
  8
Verdeckte Kanten(MSL)
 48
3.366959810256958
100
AcDbLine
 10
178.3561745213926
 20
351.443974913091
 30
0.0
 11
179.6061745213926
 21
350.193974913091
 31
0.0
  0
LINE
  5
221
330
2
100
AcDbEntity
  8
Verdeckte Kanten(MSL)
 48
3.366959810256958
100
AcDbLine
 10
178.3561745213926
 20
358.4439749130909
 30
0.0
 11
179.6061745213926
 21
359.6939749130909
 31
0.0
  0
LINE
  5
222
330
2
100
AcDbEntity
  8
Verdeckte Kanten(MSL)
 48
0.9522482752799987
100
AcDbLine
 10
177.8561745213926
 20
459.9439749130908
 30
0.0
 11
178.3561745213926
 21
459.9439749130908
 31
0.0
  0
LINE
  5
223
330
2
100
AcDbEntity
  8
Verdeckte Kanten(MSL)
 48
0.9522482752799987
100
AcDbLine
 10
177.8561745213926
 20
466.9439749130908
 30
0.0
 11
178.3561745213926
 21
466.9439749130908
 31
0.0
  0
LINE
  5
224
330
2
100
AcDbEntity
  8
Verdeckte Kanten(MSL)
 48
0.9522482752799987
100
AcDbLine
 10
177.8561745213926
 20
351.443974913091
 30
0.0
 11
178.3561745213926
 21
351.443974913091
 31
0.0
  0
LINE
  5
225
330
2
100
AcDbEntity
  8
Verdeckte Kanten(MSL)
 48
0.9522482752799987
100
AcDbLine
 10
177.8561745213926
 20
358.4439749130909
 30
0.0
 11
178.3561745213926
 21
358.4439749130909
 31
0.0
  0
LINE
  5
226
330
2
100
AcDbEntity
  8
Verdeckte Kanten(MSL)
 48
26.5979061126709
100
AcDbLine
 10
178.3561745213926
 20
459.9439749130908
 30
0.0
 11
178.3561745213926
 21
466.9439749130908
 31
0.0
  0
LINE
  5
227
330
2
100
AcDbEntity
  8
Verdeckte Kanten(MSL)
 48
26.5979061126709
100
AcDbLine
 10
178.3561745213926
 20
351.443974913091
 30
0.0
 11
178.3561745213926
 21
358.4439749130909
 31
0.0
  0
LINE
  5
228
330
2
100
AcDbEntity
  8
Verdeckte Kanten(MSL)
 48
5.713989734649658
100
AcDbLine
 10
178.3561745213926
 20
215.9439749130909
 30
0.0
 11
178.3561745213926
 21
222.9439749130909
 31
0.0
  0
LINE
  5
229
330
2
100
AcDbEntity
  8
Verdeckte Kanten(MSL)
 48
5.713989734649658
100
AcDbLine
 10
176.6061745213926
 20
214.6939749130909
 30
0.0
 11
177.8561745213926
 21
215.9439749130909
 31
0.0
  0
LINE
  5
22A
330
2
100
AcDbEntity
  8
Verdeckte Kanten(MSL)
 48
5.713989734649658
100
AcDbLine
 10
177.8561745213926
 20
215.9439749130909
 30
0.0
 11
178.3561745213926
 21
215.9439749130909
 31
0.0
  0
LINE
  5
22B
330
2
100
AcDbEntity
  8
Verdeckte Kanten(MSL)
 48
5.713989734649658
100
AcDbLine
 10
178.3561745213926
 20
215.9439749130909
 30
0.0
 11
179.6061745213926
 21
214.6939749130909
 31
0.0
  0
LINE
  5
22C
330
2
100
AcDbEntity
  8
Verdeckte Kanten(MSL)
 48
5.713989734649658
100
AcDbLine
 10
179.6061745213926
 20
224.1939749130909
 30
0.0
 11
178.3561745213926
 21
222.9439749130909
 31
0.0
  0
LINE
  5
22D
330
2
100
AcDbEntity
  8
Verdeckte Kanten(MSL)
 48
5.713989734649658
100
AcDbLine
 10
178.3561745213926
 20
222.9439749130909
 30
0.0
 11
177.8561745213926
 21
222.9439749130909
 31
0.0
  0
LINE
  5
22E
330
2
100
AcDbEntity
  8
Verdeckte Kanten(MSL)
 48
5.713989734649658
100
AcDbLine
 10
177.8561745213926
 20
222.9439749130909
 30
0.0
 11
176.6061745213926
 21
224.1939749130909
 31
0.0
  0
LINE
  5
22F
330
2
100
AcDbEntity
  8
UMRISS05
100
AcDbLine
 10
83.28644885596309
 20
147.5748949209408
 30
0.0
 11
83.28644885596309
 21
152.0748949209288
 31
0.0
  0
LINE
  5
230
330
2
100
AcDbEntity
  8
UMRISS05
100
AcDbLine
 10
84.23644885596308
 20
162.5748949209283
 30
0.0
 11
82.7364488559631
 21
162.5748949209288
 31
0.0
  0
LINE
  5
231
330
2
100
AcDbEntity
  8
UMRISS05
100
AcDbLine
 10
66.336448855963
 20
162.5748949209288
 30
0.0
 11
82.7364488559631
 21
162.5748949209288
 31
0.0
  0
LINE
  5
232
330
2
100
AcDbEntity
  8
UMRISS05
100
AcDbLine
 10
66.336448855963
 20
162.5748949209288
 30
0.0
 11
64.836448855963
 21
162.5748949209283
 31
0.0
  0
LINE
  5
233
330
2
100
AcDbEntity
  8
UMRISS05
100
AcDbLine
 10
64.836448855963
 20
162.5748949209283
 30
0.0
 11
64.836448855963
 21
147.5748949209283
 31
0.0
  0
LINE
  5
234
330
2
100
AcDbEntity
  8
UMRISS05
100
AcDbLine
 10
84.23644885596308
 20
162.5748949209283
 30
0.0
 11
84.23644885596308
 21
152.0748949209283
 31
0.0
  0
LINE
  5
235
330
2
100
AcDbEntity
  8
UMRISS05
100
AcDbLine
 10
81.73644885596308
 20
147.5748949209287
 30
0.0
 11
81.73644885596308
 21
152.0748949209288
 31
0.0
  0
LINE
  5
236
330
2
100
AcDbEntity
  8
UMRISS05
100
AcDbLine
 10
81.73644885596308
 20
152.0748949209288
 30
0.0
 11
82.7364488559631
 21
152.0748949209288
 31
0.0
  0
LINE
  5
237
330
2
100
AcDbEntity
  8
UMRISS05
100
AcDbLine
 10
84.23644885596308
 20
152.0748949209283
 30
0.0
 11
82.7364488559631
 21
152.0748949209287
 31
0.0
  0
LINE
  5
238
330
2
100
AcDbEntity
  8
UMRISS05
100
AcDbLine
 10
122.036448855963
 20
144.5748949209407
 30
0.0
 11
122.036448855963
 21
147.5748949209408
 31
0.0
  0
LINE
  5
239
330
2
100
AcDbEntity
  8
UMRISS05
100
AcDbLine
 10
62.0364488559631
 20
147.5748949209408
 30
0.0
 11
62.0364488559631
 21
144.5748949209407
 31
0.0
  0
LINE
  5
23A
330
2
100
AcDbEntity
  8
UMRISS05
100
AcDbLine
 10
86.0364488559631
 20
147.5748949209408
 30
0.0
 11
86.0364488559631
 21
144.5748949209407
 31
0.0
  0
LINE
  5
23B
330
2
100
AcDbEntity
  8
UMRISS05
100
AcDbLine
 10
62.0364488559631
 20
144.5748949209407
 30
0.0
 11
122.036448855963
 21
144.5748949209407
 31
0.0
  0
LINE
  5
23C
330
2
100
AcDbEntity
  8
UMRISS05
100
AcDbLine
 10
122.036448855963
 20
147.5748949209408
 30
0.0
 11
62.0364488559631
 21
147.5748949209408
 31
0.0
  0
CIRCLE
  5
23D
330
2
100
AcDbEntity
  8
UMRISS05
100
AcDbCircle
 10
74.53644885599266
 20
431.1939749130912
 30
0.0
 40
3.749999999999999
  0
LINE
  5
23E
330
2
100
AcDbEntity
  8
UMRISS05
100
AcDbLine
 10
76.39990163381776
 20
431.979814429033
 30
0.0
 11
74.94881085350602
 21
431.0941872234357
 31
0.0
  0
LINE
  5
23F
330
2
100
AcDbEntity
  8
UMRISS05
100
AcDbLine
 10
72.98557038602536
 20
429.8959857099804
 30
0.0
 11
72.6729960781675
 21
430.4081353971493
 31
0.0
  0
LINE
  5
240
330
2
100
AcDbEntity
  8
UMRISS05
100
AcDbLine
 10
74.6362365456481
 20
431.6063369106045
 30
0.0
 11
76.0873273259599
 21
432.4919641162018
 31
0.0
  0
LINE
  5
241
330
2
100
AcDbEntity
  8
UMRISS05
100
AcDbLine
 10
76.0873273259599
 20
432.4919641162018
 30
0.0
 11
76.39990163381776
 21
431.979814429033
 31
0.0
  0
LINE
  5
242
330
2
100
AcDbEntity
  8
UMRISS05
100
AcDbLine
 10
74.43666116633716
 20
430.7816129155778
 30
0.0
 11
72.98557038602536
 21
429.8959857099804
 31
0.0
  0
LINE
  5
243
330
2
100
AcDbEntity
  8
UMRISS05
100
AcDbLine
 10
72.6729960781675
 20
430.4081353971493
 30
0.0
 11
74.12408685847925
 21
431.2937626027466
 31
0.0
  0
LINE
  5
244
330
2
100
AcDbEntity
  8
UMRISS05
100
AcDbLine
 10
75.83443805910338
 20
429.6430964431238
 30
0.0
 11
75.32228837193452
 21
429.3305221352659
 31
0.0
  0
LINE
  5
245
330
2
100
AcDbEntity
  8
UMRISS05
100
AcDbLine
 10
74.12408685847925
 20
431.2937626027466
 30
0.0
 11
73.23845965288194
 21
432.7448533830585
 31
0.0
  0
LINE
  5
246
330
2
100
AcDbEntity
  8
UMRISS05
100
AcDbLine
 10
73.23845965288194
 20
432.7448533830585
 30
0.0
 11
73.7506093400508
 21
433.0574276909163
 31
0.0
  0
LINE
  5
247
330
2
100
AcDbEntity
  8
UMRISS05
100
AcDbLine
 10
75.32228837193452
 20
429.3305221352659
 30
0.0
 11
74.43666116633716
 21
430.7816129155778
 31
0.0
  0
LINE
  5
248
330
2
100
AcDbEntity
  8
UMRISS05
100
AcDbLine
 10
73.7506093400508
 20
433.0574276909163
 30
0.0
 11
74.6362365456481
 21
431.6063369106045
 31
0.0
  0
LINE
  5
249
330
2
100
AcDbEntity
  8
UMRISS05
100
AcDbLine
 10
74.94881085350602
 20
431.0941872234357
 30
0.0
 11
75.83443805910338
 21
429.6430964431238
 31
0.0
  0
CIRCLE
  5
24A
330
2
100
AcDbEntity
  8
UMRISS05
100
AcDbCircle
 10
74.53644885599266
 20
378.6939749130908
 30
0.0
 40
3.749999999999999
  0
LINE
  5
24B
330
2
100
AcDbEntity
  8
UMRISS05
100
AcDbLine
 10
76.39990163381781
 20
379.4798144290327
 30
0.0
 11
74.94881085350602
 21
378.5941872234353
 31
0.0
  0
LINE
  5
24C
330
2
100
AcDbEntity
  8
UMRISS05
100
AcDbLine
 10
72.98557038602536
 20
377.3959857099801
 30
0.0
 11
72.6729960781675
 21
377.908135397149
 31
0.0
  0
LINE
  5
24D
330
2
100
AcDbEntity
  8
UMRISS05
100
AcDbLine
 10
74.6362365456481
 20
379.1063369106042
 30
0.0
 11
76.0873273259599
 21
379.9919641162015
 31
0.0
  0
LINE
  5
24E
330
2
100
AcDbEntity
  8
UMRISS05
100
AcDbLine
 10
76.0873273259599
 20
379.9919641162015
 30
0.0
 11
76.39990163381781
 21
379.4798144290327
 31
0.0
  0
LINE
  5
24F
330
2
100
AcDbEntity
  8
UMRISS05
100
AcDbLine
 10
74.43666116633716
 20
378.2816129155774
 30
0.0
 11
72.98557038602536
 21
377.3959857099801
 31
0.0
  0
LINE
  5
250
330
2
100
AcDbEntity
  8
UMRISS05
100
AcDbLine
 10
72.6729960781675
 20
377.908135397149
 30
0.0
 11
74.12408685847925
 21
378.7937626027463
 31
0.0
  0
LINE
  5
251
330
2
100
AcDbEntity
  8
UMRISS05
100
AcDbLine
 10
75.83443805910338
 20
377.1430964431236
 30
0.0
 11
75.32228837193452
 21
376.8305221352656
 31
0.0
  0
LINE
  5
252
330
2
100
AcDbEntity
  8
UMRISS05
100
AcDbLine
 10
74.12408685847925
 20
378.7937626027463
 30
0.0
 11
73.23845965288194
 21
380.2448533830581
 31
0.0
  0
LINE
  5
253
330
2
100
AcDbEntity
  8
UMRISS05
100
AcDbLine
 10
73.23845965288194
 20
380.2448533830581
 30
0.0
 11
73.7506093400508
 21
380.557427690916
 31
0.0
  0
LINE
  5
254
330
2
100
AcDbEntity
  8
UMRISS05
100
AcDbLine
 10
75.32228837193452
 20
376.8305221352656
 30
0.0
 11
74.43666116633716
 21
378.2816129155774
 31
0.0
  0
LINE
  5
255
330
2
100
AcDbEntity
  8
UMRISS05
100
AcDbLine
 10
73.7506093400508
 20
380.557427690916
 30
0.0
 11
74.6362365456481
 21
379.1063369106042
 31
0.0
  0
LINE
  5
256
330
2
100
AcDbEntity
  8
UMRISS05
100
AcDbLine
 10
74.94881085350602
 20
378.5941872234353
 30
0.0
 11
75.83443805910338
 21
377.1430964431236
 31
0.0
  0
ARC
  5
257
330
2
100
AcDbEntity
  8
UMRISS05
100
AcDbCircle
 10
77.03644885599266
 20
420.443974913091
 30
0.0
 40
4.000000000000022
100
AcDbArc
 50
0.0
 51
89.99999999999653
  0
LINE
  5
258
330
2
100
AcDbEntity
  8
UMRISS05
100
AcDbLine
 10
77.0364488559929
 20
424.4439749130909
 30
0.0
 11
73.63644885599263
 21
424.443974913091
 31
0.0
  0
ARC
  5
259
330
2
100
AcDbEntity
  8
UMRISS05
100
AcDbCircle
 10
73.63644885599263
 20
420.443974913091
 30
0.0
 40
4.000000000000016
100
AcDbArc
 50
90.0
 51
270.0
  0
LINE
  5
25A
330
2
100
AcDbEntity
  8
UMRISS05
100
AcDbLine
 10
73.63644885599263
 20
416.443974913091
 30
0.0
 11
77.03644885599266
 21
416.443974913091
 31
0.0
  0
ARC
  5
25B
330
2
100
AcDbEntity
  8
UMRISS05
100
AcDbCircle
 10
77.03644885599266
 20
420.443974913091
 30
0.0
 40
4.000000000000015
100
AcDbArc
 50
270.0
 51
0.0
1001
GENIUS_GENODEF_13
1002
{
1000
HIER
1070
     0
1002
}
1002
{
1000
MANEDIT
1070
     0
1002
}
1002
{
1000
NOSEL
1070
     0
1002
}
1002
{
1000
BEHIND
1070
     0
1002
}
1002
{
1000
OTHER
1070
     0
1002
}
1002
{
1000
REACTOR
1002
}
1001
GENIUS_GENOBJ-N-FIL_13
1002
{
1000
OWNER
1000
GEN
1002
}
  0
ARC
  5
25E
330
2
100
AcDbEntity
  8
UMRISS05
100
AcDbCircle
 10
77.03644885599266
 20
389.4439749130911
 30
0.0
 40
4.000000000000019
100
AcDbArc
 50
0.0
 51
90.0
1001
GENIUS_GENOBJ-N-FIL_13
1002
{
1000
OWNER
1000
GEN
1002
}
1001
GENIUS_GENODEF_13
1002
{
1000
HIER
1070
     0
1002
}
1002
{
1000
MANEDIT
1070
     0
1002
}
1002
{
1000
NOSEL
1070
     0
1002
}
1002
{
1000
BEHIND
1070
     0
1002
}
1002
{
1000
OTHER
1070
     0
1002
}
1002
{
1000
REACTOR
1002
}
  0
LINE
  5
25F
330
2
100
AcDbEntity
  8
UMRISS05
100
AcDbLine
 10
77.03644885599266
 20
393.4439749130911
 30
0.0
 11
73.63644885599263
 21
393.4439749130911
 31
0.0
  0
ARC
  5
260
330
2
100
AcDbEntity
  8
UMRISS05
100
AcDbCircle
 10
73.63644885599263
 20
389.4439749130911
 30
0.0
 40
4.000000000000016
100
AcDbArc
 50
90.0
 51
270.0
  0
LINE
  5
261
330
2
100
AcDbEntity
  8
UMRISS05
100
AcDbLine
 10
73.63644885599263
 20
385.4439749130911
 30
0.0
 11
77.03644885599266
 21
385.4439749130911
 31
0.0
  0
ARC
  5
262
330
2
100
AcDbEntity
  8
UMRISS05
100
AcDbCircle
 10
77.03644885599266
 20
389.4439749130911
 30
0.0
 40
4.000000000000019
100
AcDbArc
 50
270.0
 51
0.0
  0
LINE
  5
263
330
2
100
AcDbEntity
  8
UMRISS05
100
AcDbLine
 10
87.4364488559927
 20
381.9939749130911
 30
0.0
 11
87.4364488559927
 21
427.8939749130909
 31
0.0
  0
LINE
  5
264
330
2
100
AcDbEntity
  8
UMRISS05
100
AcDbLine
 10
81.03644885599271
 20
427.893974913091
 30
0.0
 11
81.03644885599271
 21
381.9939749130911
 31
0.0
  0
LINE
  5
265
330
2
100
AcDbEntity
  8
UMRISS05
100
AcDbLine
 10
87.4364488559927
 20
381.9939749130911
 30
0.0
 11
78.48644885599253
 21
381.9939749130911
 31
0.0
  0
LINE
  5
266
330
2
100
AcDbEntity
  8
UMRISS05
100
AcDbLine
 10
78.4864488559927
 20
427.8939749130909
 30
0.0
 11
87.4364488559927
 21
427.893974913091
 31
0.0
  0
LINE
  5
267
330
2
100
AcDbEntity
  8
UMRISS05
100
AcDbLine
 10
84.23644885599271
 20
381.9939749130909
 30
0.0
 11
84.23644885599271
 21
380.9439749130908
 31
0.0
  0
LINE
  5
268
330
2
100
AcDbEntity
  8
UMRISS05
100
AcDbLine
 10
84.23644885599271
 20
427.8939749130911
 30
0.0
 11
84.23644885599271
 21
428.9439749130909
 31
0.0
  0
CIRCLE
  5
269
330
2
100
AcDbEntity
  8
UMRISS05
100
AcDbCircle
 10
74.03644885599243
 20
263.943974913091
 30
0.0
 40
1.75
  0
CIRCLE
  5
26A
330
2
100
AcDbEntity
  8
UMRISS05
100
AcDbCircle
 10
74.03644885599243
 20
274.943974913091
 30
0.0
 40
1.75
  0
ARC
  5
26B
330
2
100
AcDbEntity
  8
UMRISS05
100
AcDbCircle
 10
76.53644885599311
 20
449.443974913091
 30
0.0
 40
2.649999999999999
100
AcDbArc
 50
270.0
 51
90.0
  0
LINE
  5
26C
330
2
100
AcDbEntity
  8
UMRISS05
100
AcDbLine
 10
71.53644885599311
 20
452.093974913091
 30
0.0
 11
76.53644885599311
 21
452.093974913091
 31
0.0
  0
ARC
  5
26D
330
2
100
AcDbEntity
  8
UMRISS05
100
AcDbCircle
 10
71.53644885599311
 20
449.443974913091
 30
0.0
 40
2.649999999999999
100
AcDbArc
 50
90.0
 51
270.0
  0
LINE
  5
26E
330
2
100
AcDbEntity
  8
UMRISS05
100
AcDbLine
 10
76.53644885599305
 20
446.793974913091
 30
0.0
 11
71.53644885599305
 21
446.793974913091
 31
0.0
  0
LINE
  5
26F
330
2
100
AcDbEntity
  8
UMRISS05
100
AcDbLine
 10
76.53644885599328
 20
230.7939749130911
 30
0.0
 11
71.53644885599328
 21
230.793974913091
 31
0.0
  0
ARC
  5
270
330
2
100
AcDbEntity
  8
UMRISS05
100
AcDbCircle
 10
76.53644885599323
 20
233.4439749130911
 30
0.0
 40
2.64999999999997
100
AcDbArc
 50
270.0
 51
90.0
  0
LINE
  5
271
330
2
100
AcDbEntity
  8
UMRISS05
100
AcDbLine
 10
71.53644885599317
 20
236.093974913091
 30
0.0
 11
76.53644885599317
 21
236.0939749130912
 31
0.0
  0
ARC
  5
272
330
2
100
AcDbEntity
  8
UMRISS05
100
AcDbCircle
 10
71.53644885599323
 20
233.4439749130909
 30
0.0
 40
2.64999999999997
100
AcDbArc
 50
90.0
 51
270.0
  0
CIRCLE
  5
273
330
2
100
AcDbEntity
  8
UMRISS05
100
AcDbCircle
 10
74.53644885599266
 20
378.693974913091
 30
0.0
 40
4.0
  0
CIRCLE
  5
274
330
2
100
AcDbEntity
  8
UMRISS05
100
AcDbCircle
 10
74.53644885599266
 20
431.1939749130909
 30
0.0
 40
4.0
  0
ARC
  5
275
330
2
100
AcDbEntity
  8
UMRISS05
100
AcDbCircle
 10
121.0364488559926
 20
438.9439749130909
 30
0.0
 40
0.9999999999999875
100
AcDbArc
 50
0.0
 51
90.0
  0
ARC
  5
276
330
2
100
AcDbEntity
  8
UMRISS05
100
AcDbCircle
 10
121.0364488559926
 20
370.943974913091
 30
0.0
 40
0.9999999999999964
100
AcDbArc
 50
270.0
 51
0.0
  0
LINE
  5
277
330
2
100
AcDbEntity
  8
UMRISS05
100
AcDbLine
 10
101.8758937284462
 20
369.943974913091
 30
0.0
 11
100.197003983539
 21
369.943974913091
 31
0.0
  0
LINE
  5
278
330
2
100
AcDbEntity
  8
UMRISS05
100
AcDbLine
 10
97.87589372844621
 20
369.9439749130911
 30
0.0
 11
96.19700398353906
 21
369.9439749130911
 31
0.0
  0
LINE
  5
279
330
2
100
AcDbEntity
  8
UMRISS05
100
AcDbLine
 10
93.87589372844628
 20
369.9439749130911
 30
0.0
 11
92.19700398353905
 21
369.9439749130911
 31
0.0
  0
LINE
  5
27A
330
2
100
AcDbEntity
  8
UMRISS05
100
AcDbLine
 10
89.87589372844622
 20
369.9439749130911
 30
0.0
 11
87.0364488559926
 21
369.9439749130911
 31
0.0
  0
LINE
  5
27B
330
2
100
AcDbEntity
  8
UMRISS05
100
AcDbLine
 10
86.0364488559926
 20
368.943974913091
 30
0.0
 11
86.0364488559926
 21
206.443974913091
 31
0.0
  0
LINE
  5
27C
330
2
100
AcDbEntity
  8
UMRISS05
100
AcDbLine
 10
86.0364488559926
 20
206.443974913091
 30
0.0
 11
62.0364488559926
 21
206.443974913091
 31
0.0
  0
LINE
  5
27D
330
2
100
AcDbEntity
  8
UMRISS05
100
AcDbLine
 10
62.0364488559926
 20
206.443974913091
 30
0.0
 11
62.03644885599266
 21
476.443974913091
 31
0.0
  0
LINE
  5
27E
330
2
100
AcDbEntity
  8
UMRISS05
100
AcDbLine
 10
62.03644885599266
 20
476.443974913091
 30
0.0
 11
86.03644885599265
 21
476.443974913091
 31
0.0
  0
LINE
  5
27F
330
2
100
AcDbEntity
  8
UMRISS05
100
AcDbLine
 10
86.03644885599265
 20
476.4439749130909
 30
0.0
 11
86.03644885599265
 21
440.943974913091
 31
0.0
  0
LINE
  5
280
330
2
100
AcDbEntity
  8
UMRISS05
100
AcDbLine
 10
87.03644885599265
 20
439.943974913091
 30
0.0
 11
89.87589372844622
 21
439.9439749130911
 31
0.0
  0
LINE
  5
281
330
2
100
AcDbEntity
  8
UMRISS05
100
AcDbLine
 10
92.19700398353905
 20
439.943974913091
 30
0.0
 11
93.87589372844621
 21
439.943974913091
 31
0.0
  0
LINE
  5
282
330
2
100
AcDbEntity
  8
UMRISS05
100
AcDbLine
 10
96.19700398353906
 20
439.943974913091
 30
0.0
 11
97.87589372844628
 21
439.943974913091
 31
0.0
  0
LINE
  5
283
330
2
100
AcDbEntity
  8
UMRISS05
100
AcDbLine
 10
100.197003983539
 20
439.943974913091
 30
0.0
 11
101.8758937284462
 21
439.943974913091
 31
0.0
  0
LINE
  5
284
330
2
100
AcDbEntity
  8
UMRISS05
100
AcDbLine
 10
104.197003983539
 20
439.943974913091
 30
0.0
 11
105.8758937284463
 21
439.943974913091
 31
0.0
  0
LINE
  5
285
330
2
100
AcDbEntity
  8
UMRISS05
100
AcDbLine
 10
108.197003983539
 20
439.943974913091
 30
0.0
 11
109.8758937284463
 21
439.943974913091
 31
0.0
  0
LINE
  5
286
330
2
100
AcDbEntity
  8
UMRISS05
100
AcDbLine
 10
112.197003983539
 20
439.943974913091
 30
0.0
 11
113.8758937284462
 21
439.9439749130911
 31
0.0
  0
LINE
  5
287
330
2
100
AcDbEntity
  8
UMRISS05
100
AcDbLine
 10
116.197003983539
 20
439.9439749130911
 30
0.0
 11
117.8758937284462
 21
439.943974913091
 31
0.0
  0
LINE
  5
288
330
2
100
AcDbEntity
  8
UMRISS05
100
AcDbLine
 10
120.197003983539
 20
439.943974913091
 30
0.0
 11
121.0364488559926
 21
439.943974913091
 31
0.0
  0
LINE
  5
289
330
2
100
AcDbEntity
  8
UMRISS05
100
AcDbLine
 10
122.0364488559926
 20
438.9439749130909
 30
0.0
 11
122.0364488559926
 21
370.943974913091
 31
0.0
  0
LINE
  5
28A
330
2
100
AcDbEntity
  8
UMRISS05
100
AcDbLine
 10
121.0364488559926
 20
369.943974913091
 30
0.0
 11
120.197003983539
 21
369.9439749130911
 31
0.0
  0
LINE
  5
28B
330
2
100
AcDbEntity
  8
UMRISS05
100
AcDbLine
 10
117.8758937284462
 20
369.943974913091
 30
0.0
 11
116.197003983539
 21
369.943974913091
 31
0.0
  0
LINE
  5
28C
330
2
100
AcDbEntity
  8
UMRISS05
100
AcDbLine
 10
113.8758937284462
 20
369.943974913091
 30
0.0
 11
112.197003983539
 21
369.943974913091
 31
0.0
  0
LINE
  5
28D
330
2
100
AcDbEntity
  8
UMRISS05
100
AcDbLine
 10
109.8758937284463
 20
369.943974913091
 30
0.0
 11
108.197003983539
 21
369.943974913091
 31
0.0
  0
LINE
  5
28E
330
2
100
AcDbEntity
  8
UMRISS05
100
AcDbLine
 10
105.8758937284462
 20
369.943974913091
 30
0.0
 11
104.197003983539
 21
369.9439749130911
 31
0.0
  0
LINE
  5
28F
330
2
100
AcDbEntity
  8
UMRISS05
100
AcDbLine
 10
99.28606394429397
 20
371.069552280639
 30
0.0
 11
99.94738889523768
 21
370.0775648542235
 31
0.0
  0
LINE
  5
290
330
2
100
AcDbEntity
  8
UMRISS05
100
AcDbLine
 10
98.12550881674759
 20
370.0775648542235
 30
0.0
 11
98.7868337676913
 21
371.069552280639
 31
0.0
  0
LINE
  5
291
330
2
100
AcDbEntity
  8
UMRISS05
100
AcDbLine
 10
95.28606394429402
 20
371.069552280639
 30
0.0
 11
95.94738889523767
 21
370.0775648542235
 31
0.0
  0
LINE
  5
292
330
2
100
AcDbEntity
  8
UMRISS05
100
AcDbLine
 10
94.12550881674759
 20
370.0775648542235
 30
0.0
 11
94.78683376769129
 21
371.069552280639
 31
0.0
  0
LINE
  5
293
330
2
100
AcDbEntity
  8
UMRISS05
100
AcDbLine
 10
91.28606394429397
 20
371.069552280639
 30
0.0
 11
91.94738889523767
 21
370.0775648542235
 31
0.0
  0
LINE
  5
294
330
2
100
AcDbEntity
  8
UMRISS05
100
AcDbLine
 10
90.12550881674759
 20
370.0775648542235
 30
0.0
 11
90.78683376769129
 21
371.069552280639
 31
0.0
  0
LINE
  5
295
330
2
100
AcDbEntity
  8
UMRISS05
100
AcDbLine
 10
90.78683376769129
 20
438.818397545543
 30
0.0
 11
90.12550881674759
 21
439.8103849719586
 31
0.0
  0
LINE
  5
296
330
2
100
AcDbEntity
  8
UMRISS05
100
AcDbLine
 10
91.94738889523767
 20
439.8103849719586
 30
0.0
 11
91.28606394429397
 21
438.818397545543
 31
0.0
  0
LINE
  5
297
330
2
100
AcDbEntity
  8
UMRISS05
100
AcDbLine
 10
94.78683376769129
 20
438.818397545543
 30
0.0
 11
94.12550881674759
 21
439.8103849719586
 31
0.0
  0
LINE
  5
298
330
2
100
AcDbEntity
  8
UMRISS05
100
AcDbLine
 10
95.94738889523767
 20
439.8103849719586
 30
0.0
 11
95.28606394429402
 21
438.818397545543
 31
0.0
  0
LINE
  5
299
330
2
100
AcDbEntity
  8
UMRISS05
100
AcDbLine
 10
98.7868337676913
 20
438.818397545543
 30
0.0
 11
98.12550881674759
 21
439.8103849719586
 31
0.0
  0
LINE
  5
29A
330
2
100
AcDbEntity
  8
UMRISS05
100
AcDbLine
 10
99.94738889523768
 20
439.8103849719586
 30
0.0
 11
99.28606394429397
 21
438.818397545543
 31
0.0
  0
LINE
  5
29B
330
2
100
AcDbEntity
  8
UMRISS05
100
AcDbLine
 10
102.7868337676913
 20
438.818397545543
 30
0.0
 11
102.1255088167476
 21
439.8103849719586
 31
0.0
  0
LINE
  5
29C
330
2
100
AcDbEntity
  8
UMRISS05
100
AcDbLine
 10
103.9473888952377
 20
439.8103849719586
 30
0.0
 11
103.286063944294
 21
438.818397545543
 31
0.0
  0
LINE
  5
29D
330
2
100
AcDbEntity
  8
UMRISS05
100
AcDbLine
 10
106.7868337676913
 20
438.818397545543
 30
0.0
 11
106.1255088167476
 21
439.8103849719586
 31
0.0
  0
LINE
  5
29E
330
2
100
AcDbEntity
  8
UMRISS05
100
AcDbLine
 10
107.9473888952376
 20
439.8103849719586
 30
0.0
 11
107.2860639442939
 21
438.818397545543
 31
0.0
  0
LINE
  5
29F
330
2
100
AcDbEntity
  8
UMRISS05
100
AcDbLine
 10
110.7868337676913
 20
438.818397545543
 30
0.0
 11
110.1255088167476
 21
439.8103849719586
 31
0.0
  0
LINE
  5
2A0
330
2
100
AcDbEntity
  8
UMRISS05
100
AcDbLine
 10
111.9473888952376
 20
439.8103849719586
 30
0.0
 11
111.2860639442939
 21
438.818397545543
 31
0.0
  0
LINE
  5
2A1
330
2
100
AcDbEntity
  8
UMRISS05
100
AcDbLine
 10
114.7868337676913
 20
438.818397545543
 30
0.0
 11
114.1255088167476
 21
439.8103849719586
 31
0.0
  0
LINE
  5
2A2
330
2
100
AcDbEntity
  8
UMRISS05
100
AcDbLine
 10
115.9473888952377
 20
439.8103849719586
 30
0.0
 11
115.2860639442939
 21
438.818397545543
 31
0.0
  0
LINE
  5
2A3
330
2
100
AcDbEntity
  8
UMRISS05
100
AcDbLine
 10
118.7868337676913
 20
438.818397545543
 30
0.0
 11
118.1255088167476
 21
439.8103849719586
 31
0.0
  0
LINE
  5
2A4
330
2
100
AcDbEntity
  8
UMRISS05
100
AcDbLine
 10
119.9473888952377
 20
439.8103849719586
 30
0.0
 11
119.2860639442939
 21
438.818397545543
 31
0.0
  0
LINE
  5
2A5
330
2
100
AcDbEntity
  8
UMRISS05
100
AcDbLine
 10
119.286063944294
 20
371.069552280639
 30
0.0
 11
119.9473888952377
 21
370.0775648542235
 31
0.0
  0
LINE
  5
2A6
330
2
100
AcDbEntity
  8
UMRISS05
100
AcDbLine
 10
118.1255088167476
 20
370.0775648542235
 30
0.0
 11
118.7868337676913
 21
371.069552280639
 31
0.0
  0
LINE
  5
2A7
330
2
100
AcDbEntity
  8
UMRISS05
100
AcDbLine
 10
115.286063944294
 20
371.069552280639
 30
0.0
 11
115.9473888952377
 21
370.0775648542235
 31
0.0
  0
LINE
  5
2A8
330
2
100
AcDbEntity
  8
UMRISS05
100
AcDbLine
 10
114.1255088167476
 20
370.0775648542234
 30
0.0
 11
114.7868337676913
 21
371.069552280639
 31
0.0
  0
LINE
  5
2A9
330
2
100
AcDbEntity
  8
UMRISS05
100
AcDbLine
 10
111.286063944294
 20
371.069552280639
 30
0.0
 11
111.9473888952376
 21
370.0775648542235
 31
0.0
  0
LINE
  5
2AA
330
2
100
AcDbEntity
  8
UMRISS05
100
AcDbLine
 10
110.1255088167476
 20
370.0775648542235
 30
0.0
 11
110.7868337676913
 21
371.069552280639
 31
0.0
  0
LINE
  5
2AB
330
2
100
AcDbEntity
  8
UMRISS05
100
AcDbLine
 10
107.286063944294
 20
371.069552280639
 30
0.0
 11
107.9473888952376
 21
370.0775648542235
 31
0.0
  0
LINE
  5
2AC
330
2
100
AcDbEntity
  8
UMRISS05
100
AcDbLine
 10
106.1255088167476
 20
370.0775648542235
 30
0.0
 11
106.7868337676913
 21
371.069552280639
 31
0.0
  0
LINE
  5
2AD
330
2
100
AcDbEntity
  8
UMRISS05
100
AcDbLine
 10
103.286063944294
 20
371.069552280639
 30
0.0
 11
103.9473888952377
 21
370.0775648542235
 31
0.0
  0
LINE
  5
2AE
330
2
100
AcDbEntity
  8
UMRISS05
100
AcDbLine
 10
102.1255088167476
 20
370.0775648542235
 30
0.0
 11
102.7868337676913
 21
371.069552280639
 31
0.0
  0
ARC
  5
2AF
330
2
100
AcDbEntity
  8
UMRISS05
100
AcDbCircle
 10
100.197003983539
 20
370.243974913091
 30
0.0
 40
0.3000000000000114
100
AcDbArc
 50
213.6900675259825
 51
270.0
  0
ARC
  5
2B0
330
2
100
AcDbEntity
  8
UMRISS05
100
AcDbCircle
 10
99.03644885599266
 20
370.9031422217714
 30
0.0
 40
0.300000000000011
100
AcDbArc
 50
33.69006752598253
 51
146.3099324740116
  0
ARC
  5
2B1
330
2
100
AcDbEntity
  8
UMRISS05
100
AcDbCircle
 10
97.87589372844621
 20
370.243974913091
 30
0.0
 40
0.3000000000000135
100
AcDbArc
 50
270.0000000000033
 51
326.3099324740216
  0
ARC
  5
2B2
330
2
100
AcDbEntity
  8
UMRISS05
100
AcDbCircle
 10
96.19700398353906
 20
370.243974913091
 30
0.0
 40
0.3000000000000114
100
AcDbArc
 50
213.6900675259825
 51
270.0
  0
ARC
  5
2B3
330
2
100
AcDbEntity
  8
UMRISS05
100
AcDbCircle
 10
95.03644885599266
 20
370.9031422217714
 30
0.0
 40
0.300000000000011
100
AcDbArc
 50
33.69006752598253
 51
146.3099324740116
  0
ARC
  5
2B4
330
2
100
AcDbEntity
  8
UMRISS05
100
AcDbCircle
 10
93.87589372844621
 20
370.2439749130911
 30
0.0
 40
0.3000000000000522
100
AcDbArc
 50
270.0000000000033
 51
326.3099324740167
  0
ARC
  5
2B5
330
2
100
AcDbEntity
  8
UMRISS05
100
AcDbCircle
 10
92.19700398353905
 20
370.243974913091
 30
0.0
 40
0.3000000000000114
100
AcDbArc
 50
213.6900675259825
 51
270.0
  0
ARC
  5
2B6
330
2
100
AcDbEntity
  8
UMRISS05
100
AcDbCircle
 10
91.03644885599265
 20
370.9031422217714
 30
0.0
 40
0.299999999999995
100
AcDbArc
 50
33.69006752597569
 51
146.3099324740116
  0
ARC
  5
2B7
330
2
100
AcDbEntity
  8
UMRISS05
100
AcDbCircle
 10
89.87589372844622
 20
370.2439749130911
 30
0.0
 40
0.3000000000000504
100
AcDbArc
 50
270.0000000000065
 51
326.3099324740167
  0
ARC
  5
2B8
330
2
100
AcDbEntity
  8
UMRISS05
100
AcDbCircle
 10
89.87589372844622
 20
439.643974913091
 30
0.0
 40
0.3000000000000291
100
AcDbArc
 50
33.69006752598428
 51
89.99999999999674
  0
ARC
  5
2B9
330
2
100
AcDbEntity
  8
UMRISS05
100
AcDbCircle
 10
91.03644885599265
 20
438.9848076044105
 30
0.0
 40
0.3000000000000035
100
AcDbArc
 50
213.6900675259757
 51
326.3099324740116
  0
ARC
  5
2BA
330
2
100
AcDbEntity
  8
UMRISS05
100
AcDbCircle
 10
92.19700398353905
 20
439.643974913091
 30
0.0
 40
0.3000000000000011
100
AcDbArc
 50
90.0000000000065
 51
146.3099324740243
  0
ARC
  5
2BB
330
2
100
AcDbEntity
  8
UMRISS05
100
AcDbCircle
 10
93.87589372844628
 20
439.643974913091
 30
0.0
 40
0.2999999999999936
100
AcDbArc
 50
33.69006752597569
 51
90.0
  0
ARC
  5
2BC
330
2
100
AcDbEntity
  8
UMRISS05
100
AcDbCircle
 10
95.03644885599266
 20
438.9848076044105
 30
0.0
 40
0.300000000000003
100
AcDbArc
 50
213.6900675259757
 51
326.3099324740116
  0
ARC
  5
2BD
330
2
100
AcDbEntity
  8
UMRISS05
100
AcDbCircle
 10
96.19700398353906
 20
439.643974913091
 30
0.0
 40
0.2999999999999987
100
AcDbArc
 50
90.0000000000065
 51
146.3099324740243
  0
ARC
  5
2BE
330
2
100
AcDbEntity
  8
UMRISS05
100
AcDbCircle
 10
97.87589372844628
 20
439.643974913091
 30
0.0
 40
0.2999999999999936
100
AcDbArc
 50
33.69006752597666
 51
90.0
  0
ARC
  5
2BF
330
2
100
AcDbEntity
  8
UMRISS05
100
AcDbCircle
 10
99.03644885599261
 20
438.9848076044105
 30
0.0
 40
0.3000000000000048
100
AcDbArc
 50
213.6900675259757
 51
326.3099324740116
  0
ARC
  5
2C0
330
2
100
AcDbEntity
  8
UMRISS05
100
AcDbCircle
 10
100.197003983539
 20
439.643974913091
 30
0.0
 40
0.2999999999999987
100
AcDbArc
 50
90.0000000000065
 51
146.3099324740243
  0
ARC
  5
2C1
330
2
100
AcDbEntity
  8
UMRISS05
100
AcDbCircle
 10
101.8758937284462
 20
439.643974913091
 30
0.0
 40
0.3000000000000025
100
AcDbArc
 50
33.69006752597666
 51
90.0
  0
ARC
  5
2C2
330
2
100
AcDbEntity
  8
UMRISS05
100
AcDbCircle
 10
103.0364488559926
 20
438.9848076044105
 30
0.0
 40
0.3000000000000005
100
AcDbArc
 50
213.6900675259757
 51
326.3099324740116
  0
ARC
  5
2C3
330
2
100
AcDbEntity
  8
UMRISS05
100
AcDbCircle
 10
104.197003983539
 20
439.643974913091
 30
0.0
 40
0.2999999999999968
100
AcDbArc
 50
90.0000000000065
 51
146.3099324740243
  0
ARC
  5
2C4
330
2
100
AcDbEntity
  8
UMRISS05
100
AcDbCircle
 10
105.8758937284463
 20
439.643974913091
 30
0.0
 40
0.3000000000000069
100
AcDbArc
 50
33.69006752598839
 51
90.0
  0
ARC
  5
2C5
330
2
100
AcDbEntity
  8
UMRISS05
100
AcDbCircle
 10
107.0364488559926
 20
438.9848076044105
 30
0.0
 40
0.3000000000000042
100
AcDbArc
 50
213.6900675259725
 51
326.3099324740116
  0
ARC
  5
2C6
330
2
100
AcDbEntity
  8
UMRISS05
100
AcDbCircle
 10
108.197003983539
 20
439.643974913091
 30
0.0
 40
0.2999999999999968
100
AcDbArc
 50
90.0000000000065
 51
146.3099324740243
  0
ARC
  5
2C7
330
2
100
AcDbEntity
  8
UMRISS05
100
AcDbCircle
 10
109.8758937284463
 20
439.643974913091
 30
0.0
 40
0.299999999999998
100
AcDbArc
 50
33.69006752597666
 51
90.0
  0
ARC
  5
2C8
330
2
100
AcDbEntity
  8
UMRISS05
100
AcDbCircle
 10
111.0364488559926
 20
438.9848076044105
 30
0.0
 40
0.3000000000000067
100
AcDbArc
 50
213.6900675259725
 51
326.3099324740116
  0
ARC
  5
2C9
330
2
100
AcDbEntity
  8
UMRISS05
100
AcDbCircle
 10
112.197003983539
 20
439.643974913091
 30
0.0
 40
0.2999999999999735
100
AcDbArc
 50
89.99999999999674
 51
146.3099324740233
  0
ARC
  5
2CA
330
2
100
AcDbEntity
  8
UMRISS05
100
AcDbCircle
 10
113.8758937284462
 20
439.643974913091
 30
0.0
 40
0.3000000000000025
100
AcDbArc
 50
33.69006752597666
 51
90.0
  0
ARC
  5
2CB
330
2
100
AcDbEntity
  8
UMRISS05
100
AcDbCircle
 10
115.0364488559926
 20
438.9848076044105
 30
0.0
 40
0.3000000000000042
100
AcDbArc
 50
213.6900675259725
 51
326.3099324740116
  0
ARC
  5
2CC
330
2
100
AcDbEntity
  8
UMRISS05
100
AcDbCircle
 10
116.197003983539
 20
439.643974913091
 30
0.0
 40
0.3000000000000055
100
AcDbArc
 50
89.99999999999349
 51
146.3099324740116
  0
ARC
  5
2CD
330
2
100
AcDbEntity
  8
UMRISS05
100
AcDbCircle
 10
117.8758937284462
 20
439.643974913091
 30
0.0
 40
0.2999999999999936
100
AcDbArc
 50
33.69006752597666
 51
90.0
  0
ARC
  5
2CE
330
2
100
AcDbEntity
  8
UMRISS05
100
AcDbCircle
 10
119.0364488559926
 20
438.9848076044105
 30
0.0
 40
0.3000000000000005
100
AcDbArc
 50
213.6900675259757
 51
326.3099324740116
  0
ARC
  5
2CF
330
2
100
AcDbEntity
  8
UMRISS05
100
AcDbCircle
 10
120.197003983539
 20
439.643974913091
 30
0.0
 40
0.2999999999999845
100
AcDbArc
 50
90.0
 51
146.3099324740216
  0
ARC
  5
2D0
330
2
100
AcDbEntity
  8
UMRISS05
100
AcDbCircle
 10
120.197003983539
 20
370.243974913091
 30
0.0
 40
0.2999999999999936
100
AcDbArc
 50
213.6900675259825
 51
270.0000000000033
  0
ARC
  5
2D1
330
2
100
AcDbEntity
  8
UMRISS05
100
AcDbCircle
 10
119.0364488559926
 20
370.9031422217714
 30
0.0
 40
0.3000000000000141
100
AcDbArc
 50
33.69006752597964
 51
146.3099324740116
  0
ARC
  5
2D2
330
2
100
AcDbEntity
  8
UMRISS05
100
AcDbCircle
 10
117.8758937284462
 20
370.2439749130911
 30
0.0
 40
0.3000000000000523
100
AcDbArc
 50
270.0000000000065
 51
326.3099324740167
  0
ARC
  5
2D3
330
2
100
AcDbEntity
  8
UMRISS05
100
AcDbCircle
 10
116.197003983539
 20
370.243974913091
 30
0.0
 40
0.3000000000000114
100
AcDbArc
 50
213.6900675259825
 51
270.0
  0
ARC
  5
2D4
330
2
100
AcDbEntity
  8
UMRISS05
100
AcDbCircle
 10
115.0364488559926
 20
370.9031422217714
 30
0.0
 40
0.3000000000000128
100
AcDbArc
 50
33.69006752598253
 51
146.3099324740116
  0
ARC
  5
2D5
330
2
100
AcDbEntity
  8
UMRISS05
100
AcDbCircle
 10
113.8758937284461
 20
370.2439749130911
 30
0.0
 40
0.3000000000000523
100
AcDbArc
 50
270.0000000000065
 51
326.3099324740167
  0
ARC
  5
2D6
330
2
100
AcDbEntity
  8
UMRISS05
100
AcDbCircle
 10
112.197003983539
 20
370.2439749130909
 30
0.0
 40
0.2999999999999403
100
AcDbArc
 50
213.6900675259725
 51
270.0000000000033
  0
ARC
  5
2D7
330
2
100
AcDbEntity
  8
UMRISS05
100
AcDbCircle
 10
111.0364488559926
 20
370.9031422217714
 30
0.0
 40
0.3000000000000104
100
AcDbArc
 50
33.69006752597964
 51
146.3099324740116
  0
ARC
  5
2D8
330
2
100
AcDbEntity
  8
UMRISS05
100
AcDbCircle
 10
109.8758937284462
 20
370.2439749130911
 30
0.0
 40
0.3000000000000523
100
AcDbArc
 50
270.0000000000065
 51
326.3099324740167
  0
ARC
  5
2D9
330
2
100
AcDbEntity
  8
UMRISS05
100
AcDbCircle
 10
108.197003983539
 20
370.243974913091
 30
0.0
 40
0.2999999999999581
100
AcDbArc
 50
213.6900675259784
 51
270.0000000000065
  0
ARC
  5
2DA
330
2
100
AcDbEntity
  8
UMRISS05
100
AcDbCircle
 10
107.0364488559926
 20
370.9031422217714
 30
0.0
 40
0.3000000000000104
100
AcDbArc
 50
33.69006752597964
 51
146.3099324740116
  0
ARC
  5
2DB
330
2
100
AcDbEntity
  8
UMRISS05
100
AcDbCircle
 10
105.8758937284462
 20
370.2439749130911
 30
0.0
 40
0.3000000000000523
100
AcDbArc
 50
270.0000000000065
 51
326.3099324740167
  0
ARC
  5
2DC
330
2
100
AcDbEntity
  8
UMRISS05
100
AcDbCircle
 10
104.197003983539
 20
370.243974913091
 30
0.0
 40
0.3000000000000114
100
AcDbArc
 50
213.6900675259797
 51
270.0
  0
ARC
  5
2DD
330
2
100
AcDbEntity
  8
UMRISS05
100
AcDbCircle
 10
103.0364488559926
 20
370.9031422217714
 30
0.0
 40
0.3000000000000092
100
AcDbArc
 50
33.69006752598253
 51
146.3099324740116
  0
ARC
  5
2DE
330
2
100
AcDbEntity
  8
UMRISS05
100
AcDbCircle
 10
101.8758937284462
 20
370.2439749130911
 30
0.0
 40
0.3000000000000486
100
AcDbArc
 50
270.0000000000065
 51
326.3099324740167
  0
ARC
  5
2DF
330
2
100
AcDbEntity
  8
UMRISS05
100
AcDbCircle
 10
87.0364488559926
 20
368.943974913091
 30
0.0
 40
0.9999999999999786
100
AcDbArc
 50
90.0
 51
180.0
  0
ARC
  5
2E0
330
2
100
AcDbEntity
  8
UMRISS05
100
AcDbCircle
 10
87.03644885599265
 20
440.943974913091
 30
0.0
 40
0.9999999999999985
100
AcDbArc
 50
180.0
 51
270.0
  0
ARC
  5
2E1
330
2
100
AcDbEntity
  8
UMRISS05
100
AcDbCircle
 10
79.5364488559926
 20
326.443974913091
 30
0.0
 40
1.999999999999991
100
AcDbArc
 50
0.0
 51
90.0
  0
ARC
  5
2E2
330
2
100
AcDbEntity
  8
UMRISS05
100
AcDbCircle
 10
68.53644885599255
 20
326.443974913091
 30
0.0
 40
1.999999999999992
100
AcDbArc
 50
90.0
 51
180.0
  0
ARC
  5
2E3
330
2
100
AcDbEntity
  8
UMRISS05
100
AcDbCircle
 10
68.53644885599249
 20
283.443974913091
 30
0.0
 40
2.000000000000006
100
AcDbArc
 50
180.0
 51
270.0
  0
ARC
  5
2E4
330
2
100
AcDbEntity
  8
UMRISS05
100
AcDbCircle
 10
79.53644885599249
 20
283.443974913091
 30
0.0
 40
1.999999999999992
100
AcDbArc
 50
270.0
 51
0.0
  0
LINE
  5
2E5
330
2
100
AcDbEntity
  8
UMRISS05
100
AcDbLine
 10
68.53644885599255
 20
328.443974913091
 30
0.0
 11
79.53644885599254
 21
328.4439749130909
 31
0.0
  0
LINE
  5
2E6
330
2
100
AcDbEntity
  8
UMRISS05
100
AcDbLine
 10
66.53644885599243
 20
283.443974913091
 30
0.0
 11
66.53644885599255
 21
326.443974913091
 31
0.0
  0
LINE
  5
2E7
330
2
100
AcDbEntity
  8
UMRISS05
100
AcDbLine
 10
79.53644885599243
 20
281.443974913091
 30
0.0
 11
68.53644885599243
 21
281.443974913091
 31
0.0
  0
LINE
  5
2E8
330
2
100
AcDbEntity
  8
UMRISS05
100
AcDbLine
 10
81.53644885599254
 20
326.443974913091
 30
0.0
 11
81.53644885599248
 21
283.443974913091
 31
0.0
  0
LINE
  5
2E9
330
2
100
AcDbEntity
  8
UMRISS05
100
AcDbLine
 10
89.5364488559926
 20
427.943974913091
 30
0.0
 11
89.5364488559926
 21
408.043974913091
 31
0.0
  0
ARC
  5
2EA
330
2
100
AcDbEntity
  8
UMRISS05
100
AcDbCircle
 10
88.53644885599265
 20
427.9439749130908
 30
0.0
 40
1.0
100
AcDbArc
 50
0.0
 51
90.0
  0
LINE
  5
2EB
330
2
100
AcDbEntity
  8
UMRISS05
100
AcDbLine
 10
79.9506624183656
 20
428.9439749130909
 30
0.0
 11
88.5364488559926
 21
428.9439749130909
 31
0.0
  0
ARC
  5
2EC
330
2
100
AcDbEntity
  8
UMRISS05
100
AcDbCircle
 10
79.9506624183656
 20
427.9439749130908
 30
0.0
 40
0.9999999999999792
100
AcDbArc
 50
90.0
 51
135.0000000000007
  0
LINE
  5
2ED
330
2
100
AcDbEntity
  8
UMRISS05
100
AcDbLine
 10
77.82934207480599
 20
427.2368681319044
 30
0.0
 11
79.24355563717904
 21
428.6510816942774
 31
0.0
  0
ARC
  5
2EE
330
2
100
AcDbEntity
  8
UMRISS05
100
AcDbCircle
 10
77.12223529361944
 20
427.943974913091
 30
0.0
 40
1.000000000000018
100
AcDbArc
 50
270.0
 51
315.0000000000002
  0
LINE
  5
2EF
330
2
100
AcDbEntity
  8
UMRISS05
100
AcDbLine
 10
69.53644885599249
 20
426.943974913091
 30
0.0
 11
77.12223529361944
 21
426.9439749130909
 31
0.0
  0
ARC
  5
2F0
330
2
100
AcDbEntity
  8
UMRISS05
100
AcDbCircle
 10
69.53644885599254
 20
425.9439749130909
 30
0.0
 40
1.000000000000003
100
AcDbArc
 50
90.0
 51
180.0
  0
LINE
  5
2F1
330
2
100
AcDbEntity
  8
UMRISS05
100
AcDbLine
 10
68.53644885599255
 20
383.9439749130911
 30
0.0
 11
68.53644885599255
 21
425.9439749130909
 31
0.0
  0
ARC
  5
2F2
330
2
100
AcDbEntity
  8
UMRISS05
100
AcDbCircle
 10
69.53644885599254
 20
383.9439749130911
 30
0.0
 40
0.9999999999999964
100
AcDbArc
 50
180.0
 51
270.0
  0
LINE
  5
2F3
330
2
100
AcDbEntity
  8
UMRISS05
100
AcDbLine
 10
77.12223529361949
 20
382.943974913091
 30
0.0
 11
69.53644885599254
 21
382.9439749130911
 31
0.0
  0
ARC
  5
2F4
330
2
100
AcDbEntity
  8
UMRISS05
100
AcDbCircle
 10
77.12223529361955
 20
381.9439749130911
 30
0.0
 40
0.9999999999997992
100
AcDbArc
 50
44.99999999999464
 51
90.00000000000323
  0
LINE
  5
2F5
330
2
100
AcDbEntity
  8
UMRISS05
100
AcDbLine
 10
79.24355563717916
 20
381.2368681319044
 30
0.0
 11
77.82934207480599
 21
382.6510816942775
 31
0.0
  0
ARC
  5
2F6
330
2
100
AcDbEntity
  8
UMRISS05
100
AcDbCircle
 10
79.9506624183656
 20
381.9439749130907
 30
0.0
 40
0.999999999999801
100
AcDbArc
 50
224.9999999999952
 51
270.0000000000033
  0
LINE
  5
2F7
330
2
100
AcDbEntity
  8
UMRISS05
100
AcDbLine
 10
88.53644885599255
 20
380.943974913091
 30
0.0
 11
79.95066241836565
 21
380.9439749130909
 31
0.0
  0
ARC
  5
2F8
330
2
100
AcDbEntity
  8
UMRISS05
100
AcDbCircle
 10
88.53644885599255
 20
381.943974913091
 30
0.0
 40
0.9999999999999943
100
AcDbArc
 50
270.0
 51
0.0
  0
LINE
  5
2F9
330
2
100
AcDbEntity
  8
UMRISS05
100
AcDbLine
 10
89.5364488559926
 20
401.843974913091
 30
0.0
 11
89.53644885599254
 21
381.943974913091
 31
0.0
  0
LINE
  5
2FA
330
2
100
AcDbEntity
  8
UMRISS05
100
AcDbLine
 10
89.5364488559926
 20
408.0439749130909
 30
0.0
 11
90.53644885599259
 21
408.0439749130909
 31
0.0
  0
LINE
  5
2FB
330
2
100
AcDbEntity
  8
UMRISS05
100
AcDbLine
 10
90.53644885599259
 20
408.043974913091
 30
0.0
 11
90.53644885599259
 21
401.843974913091
 31
0.0
  0
LINE
  5
2FC
330
2
100
AcDbEntity
  8
UMRISS05
100
AcDbLine
 10
90.53644885599259
 20
401.843974913091
 30
0.0
 11
89.5364488559926
 21
401.843974913091
 31
0.0
  0
CIRCLE
  5
2FD
330
2
100
AcDbEntity
  8
UMRISS05
100
AcDbCircle
 10
74.03644885599323
 20
219.443974913091
 30
0.0
 40
4.75
  0
CIRCLE
  5
2FE
330
2
100
AcDbEntity
  8
UMRISS05
100
AcDbCircle
 10
74.03644885599311
 20
463.4439749130909
 30
0.0
 40
4.75
  0
CIRCLE
  5
2FF
330
2
100
AcDbEntity
  8
UMRISS05
100
AcDbCircle
 10
74.03644885599266
 20
354.943974913091
 30
0.0
 40
4.75
  0
CIRCLE
  5
300
330
2
100
AcDbEntity
  8
UMRISS05
100
AcDbCircle
 10
74.03644885599311
 20
463.4439749130909
 30
0.0
 40
3.5
  0
CIRCLE
  5
301
330
2
100
AcDbEntity
  8
UMRISS05
100
AcDbCircle
 10
74.03644885599266
 20
354.943974913091
 30
0.0
 40
3.5
  0
CIRCLE
  5
302
330
2
100
AcDbEntity
  8
UMRISS05
100
AcDbCircle
 10
74.03644885599323
 20
219.443974913091
 30
0.0
 40
3.5
  0
ENDSEC
  0
SECTION
  2
OBJECTS
  0
DICTIONARY
  5
B
330
0
100
AcDbDictionary
281
     1
  3
ACAD_COLOR
350
4F
  3
ACAD_DETAILVIEWSTYLE
350
325
  3
ACAD_FIELDLIST
350
359
  3
ACAD_GROUP
350
3C
  3
ACAD_LAYOUT
350
18
  3
ACAD_MATERIAL
350
D
  3
ACAD_MLEADERSTYLE
350
52
  3
ACAD_MLINESTYLE
350
3D
  3
ACAD_PLOTSETTINGS
350
3E
  3
ACAD_PLOTSTYLENAME
350
A
  3
ACAD_SCALELIST
350
50
  3
ACAD_SECTIONVIEWSTYLE
350
330
  3
ACAD_TABLESTYLE
350
51
  3
ACAD_VISUALSTYLE
350
30
  3
ACDB_RECOMPOSE_DATA
350
36B
  3
AcDbVariableDictionary
350
35D
  3
AcDsDecomposeData
350
371
  3
AcmDictionary
350
315
  3
AcmSystemVariableManager
350
388
  3
AMG
350
305
  0
DICTIONARY
  5
20
330
1F
100
AcDbDictionary
280
     1
281
     1
  3
ACAD_LAYERFILTERS
360
21
  3
ACAD_LAYERSTATES
360
22
  3
ACLYDICTIONARY
360
23
  0
DICTIONARY
  5
7
330
6
100
AcDbDictionary
280
     1
281
     1
  3
ADSK_XREC_LAYER_RECONCILED
360
8
  0
DICTIONARY
  5
54
330
53
100
AcDbDictionary
280
     1
281
     1
  3
ADSK_XREC_LAYER_RECONCILED
360
55
  0
DICTIONARY
  5
107
330
106
100
AcDbDictionary
280
     1
281
     1
  3
ADSK_XREC_LAYER_RECONCILED
360
108
  0
DICTIONARY
  5
97
330
96
100
AcDbDictionary
280
     1
281
     1
  3
ADSK_XREC_LAYER_RECONCILED
360
98
  0
DICTIONARY
  5
145
330
144
100
AcDbDictionary
280
     1
281
     1
  3
ADSK_XREC_LAYER_RECONCILED
360
146
  0
DICTIONARY
  5
3
330
2
100
AcDbDictionary
280
     1
281
     1
  3
ACAD_SORTENTS
360
303
  0
DICTIONARY
  5
381
330
E2
100
AcDbDictionary
280
     1
281
     1
  3
ACAD_MTEXT_RT
360
382
  0
DICTIONARY
  5
F5
330
F4
100
AcDbDictionary
280
     1
281
     1
  3
ACMDIMBREAKPERSREACTOR
360
F6
  0
DICTIONARY
  5
4F
102
{ACAD_REACTORS
330
B
102
}
330
B
100
AcDbDictionary
281
     1
  0
DICTIONARY
  5
325
102
{ACAD_REACTORS
330
B
102
}
330
B
100
AcDbDictionary
281
     1
  3
Metric50
350
32C
  0
FIELDLIST
  5
359
102
{ACAD_REACTORS
330
B
102
}
330
B
100
AcDbIdSet
 90
        6
330
328
330
329
330
32A
330
333
330
334
330
335
100
AcDbFieldList
  0
DICTIONARY
  5
3C
102
{ACAD_REACTORS
330
B
102
}
330
B
100
AcDbDictionary
281
     1
  0
DICTIONARY
  5
18
102
{ACAD_REACTORS
330
B
102
}
330
B
100
AcDbDictionary
281
     1
  3
Layout1
350
1E
  3
Model
350
17
  0
DICTIONARY
  5
D
102
{ACAD_REACTORS
330
B
102
}
330
B
100
AcDbDictionary
281
     1
  3
ByBlock
350
47
  3
ByLayer
350
3F
  3
Global
350
C
  0
DICTIONARY
  5
52
102
{ACAD_REACTORS
330
B
102
}
330
B
100
AcDbDictionary
281
     1
  0
DICTIONARY
  5
3D
102
{ACAD_REACTORS
330
B
102
}
330
B
100
AcDbDictionary
281
     1
  3
STANDARD
350
56
  0
DICTIONARY
  5
3E
102
{ACAD_REACTORS
330
B
102
}
330
B
100
AcDbDictionary
281
     1
  0
ACDBDICTIONARYWDFLT
  5
A
102
{ACAD_REACTORS
330
B
102
}
330
B
100
AcDbDictionary
281
     1
  3
Normal
350
9
100
AcDbDictionaryWithDefault
340
9
  0
DICTIONARY
  5
50
102
{ACAD_REACTORS
330
B
102
}
330
B
100
AcDbDictionary
281
     1
  3
A0
350
5B
  3
A1
350
5C
  3
A2
350
5D
  3
A3
350
5E
  3
A4
350
5F
  3
A5
350
60
  3
A6
350
61
  3
A7
350
62
  3
A8
350
63
  3
A9
350
64
  3
B0
350
65
  3
B1
350
66
  3
B2
350
67
  3
B3
350
68
  3
B4
350
69
  3
B5
350
6A
  3
B6
350
6B
  0
DICTIONARY
  5
330
102
{ACAD_REACTORS
330
B
102
}
330
B
100
AcDbDictionary
281
     1
  3
Metric50
350
33B
  0
DICTIONARY
  5
51
102
{ACAD_REACTORS
330
B
102
}
330
B
100
AcDbDictionary
281
     1
  3
Standard
350
57
  0
DICTIONARY
  5
30
102
{ACAD_REACTORS
330
B
102
}
330
B
100
AcDbDictionary
281
     1
  3
2dWireframe
350
2F
  3
Realistic
350
59
  3
Wireframe
350
5A
  0
XRECORD
  5
36B
102
{ACAD_REACTORS
330
B
102
}
330
B
100
AcDbXrecord
280
     1
 90
        1
330
57
  0
DICTIONARY
  5
35D
102
{ACAD_REACTORS
330
B
102
}
330
B
100
AcDbDictionary
281
     1
  3
CANNOSCALE
350
362
  3
CMLEADERSTYLE
350
35F
  3
CTABLESTYLE
350
35E
  3
CVIEWDETAILSTYLE
350
360
  3
CVIEWSECTIONSTYLE
350
361
  3
DIMASSOC
350
367
  3
HIDETEXT
350
365
  3
INDEXCTL
350
364
  3
SOLIDHIST
350
368
  3
SORTENTS
350
363
  3
XCLIPFRAME
350
366
  0
DICTIONARY
  5
371
102
{ACAD_REACTORS
330
B
102
}
330
B
100
AcDbDictionary
281
     1
  3
AcDsRecords
350
373
  3
AcDsSchemas
350
372
1001
ACAD
1070
     2
  0
DICTIONARY
  5
315
102
{ACAD_REACTORS
330
B
102
}
330
B
100
AcDbDictionary
281
     1
  3
AcmStdDictionary
350
316
  0
DICTIONARY
  5
305
102
{ACAD_REACTORS
330
B
102
}
330
B
100
AcDbDictionary
281
     1
  3
AcMgSettings
350
30F
  0
DICTIONARY
  5
21
102
{ACAD_REACTORS
330
20
102
}
330
20
100
AcDbDictionary
281
     1
  0
DICTIONARY
  5
22
102
{ACAD_REACTORS
330
20
102
}
330
20
100
AcDbDictionary
281
     1
  0
DICTIONARY
  5
23
102
{ACAD_REACTORS
330
20
102
}
330
20
100
AcDbDictionary
281
     1
1001
ACAD
1000
<All
  0
XRECORD
  5
8
102
{ACAD_REACTORS
330
7
102
}
330
7
100
AcDbXrecord
280
     1
290
     1
  0
XRECORD
  5
55
102
{ACAD_REACTORS
330
54
102
}
330
54
100
AcDbXrecord
280
     1
290
     1
  0
XRECORD
  5
108
102
{ACAD_REACTORS
330
107
102
}
330
107
100
AcDbXrecord
280
     1
290
     1
  0
XRECORD
  5
98
102
{ACAD_REACTORS
330
97
102
}
330
97
100
AcDbXrecord
280
     1
290
     1
  0
XRECORD
  5
146
102
{ACAD_REACTORS
330
145
102
}
330
145
100
AcDbXrecord
280
     1
290
     1
  0
SORTENTSTABLE
  5
303
102
{ACAD_REACTORS
330
3
102
}
330
3
100
AcDbSortentsTable
330
2
331
296
  5
1E0
331
292
  5
1F2
331
2CD
  5
C4
331
28E
  5
20E
331
2C9
  5
E0
331
28A
  5
214
331
300
  5
81
331
21C
  5
282
331
257
  5
245
331
1DD
  5
299
331
218
  5
286
331
214
  5
28A
331
253
  5
249
331
B6
  5
2DB
331
B2
  5
2DF
331
AE
  5
2E3
331
AA
  5
2E7
331
286
  5
218
331
2C5
  5
E4
331
282
  5
21C
331
2C1
  5
F4
331
2FC
  5
85
331
2F8
  5
89
331
27E
  5
220
331
2BD
  5
10B
331
2B9
  5
13F
331
2F4
  5
8D
331
27A
  5
224
331
2F0
  5
91
331
24F
  5
24D
331
20C
  5
290
331
24B
  5
251
331
247
  5
255
331
243
  5
259
331
E5
  5
2C4
331
E1
  5
2C8
331
118
  5
2BC
331
153
  5
2A9
331
9A
  5
2EB
331
276
  5
228
331
2B5
  5
143
331
272
  5
22C
331
2B1
  5
14B
331
2EC
  5
95
331
2E8
  5
9D
331
26E
  5
230
331
2AD
  5
14F
331
2A9
  5
153
331
2E4
  5
AD
331
26A
  5
234
331
2E0
  5
B1
331
23F
  5
25F
331
23B
  5
263
331
237
  5
267
331
1BD
  5
29F
331
233
  5
26B
331
17A
  5
2A6
331
14F
  5
2AD
331
14B
  5
2B1
331
92
  5
2EF
331
8E
  5
2F3
331
143
  5
2B5
331
8A
  5
2F7
331
266
  5
238
331
2A5
  5
187
331
262
  5
23C
331
2A1
  5
1BB
331
2DC
  5
B5
331
25E
  5
240
331
29D
  5
1BF
331
2D8
  5
B9
331
299
  5
1DD
331
2D4
  5
BD
331
25A
  5
242
331
2D0
  5
C1
331
22F
  5
26F
331
22B
  5
273
331
227
  5
277
331
223
  5
27B
331
1E0
  5
296
331
86
  5
2FB
331
C5
  5
2CC
331
13F
  5
2B9
331
82
  5
2FF
331
C1
  5
2D0
331
BD
  5
2D4
331
B9
  5
2D8
331
F4
  5
2C1
331
295
  5
1E1
331
291
  5
1FF
331
2CC
  5
C5
331
28D
  5
20F
331
289
  5
215
331
2C8
  5
E1
331
21F
  5
27F
331
1A1
  5
2A3
331
21B
  5
283
331
217
  5
287
331
256
  5
246
331
213
  5
28B
331
252
  5
24A
331
B5
  5
2DC
331
B1
  5
2E0
331
AD
  5
2E4
331
285
  5
219
331
2C4
  5
E5
331
2FF
  5
82
331
281
  5
21D
331
2C0
  5
105
331
2FB
  5
86
331
2BC
  5
118
331
2F7
  5
8A
331
27D
  5
221
331
2B8
  5
140
331
2F3
  5
8E
331
279
  5
225
331
20F
  5
28D
331
24A
  5
252
331
1D0
  5
29A
331
246
  5
256
331
242
  5
25A
331
E4
  5
2C5
331
E0
  5
2C9
331
9D
  5
2E8
331
152
  5
2AA
331
275
  5
229
331
2B4
  5
148
331
2EF
  5
92
331
271
  5
22D
331
2B0
  5
14C
331
2EB
  5
9A
331
2E7
  5
AA
331
26D
  5
231
331
2AC
  5
150
331
2A8
  5
160
331
2E3
  5
AE
331
269
  5
235
331
1FF
  5
291
331
23E
  5
260
331
1C0
  5
29C
331
23A
  5
264
331
236
  5
268
331
1BC
  5
2A0
331
232
  5
26C
331
95
  5
2EC
331
14E
  5
2AE
331
14A
  5
2B2
331
91
  5
2F0
331
10B
  5
2BD
331
8D
  5
2F4
331
142
  5
2B6
331
89
  5
2F8
331
265
  5
239
331
2A4
  5
194
331
2DF
  5
B2
331
261
  5
23D
331
2A0
  5
1BC
331
2DB
  5
B6
331
2D7
  5
BA
331
29C
  5
1C0
331
298
  5
1DE
331
2D3
  5
BE
331
259
  5
243
331
22E
  5
270
331
22A
  5
274
331
226
  5
278
331
16D
  5
2A7
331
1E3
  5
293
331
222
  5
27C
331
85
  5
2FC
331
C4
  5
2CD
331
81
  5
300
331
C0
  5
2D1
331
BC
  5
2D5
331
B8
  5
2D9
331
132
  5
2BA
331
294
  5
1E2
331
290
  5
20C
331
2CF
  5
C2
331
2CB
  5
D2
331
28C
  5
212
331
288
  5
216
331
302
  5
6C
331
21E
  5
280
331
1DF
  5
297
331
21A
  5
284
331
216
  5
288
331
255
  5
247
331
212
  5
28C
331
251
  5
24B
331
B4
  5
2DD
331
B0
  5
2E1
331
AC
  5
2E5
331
2C7
  5
E2
331
284
  5
21A
331
2C3
  5
E6
331
2FE
  5
83
331
280
  5
21E
331
2BF
  5
109
331
2FA
  5
87
331
2BB
  5
125
331
2F6
  5
8B
331
27C
  5
222
331
278
  5
226
331
2F2
  5
8F
331
194
  5
2A4
331
20E
  5
28E
331
24D
  5
24F
331
249
  5
253
331
1CF
  5
29B
331
245
  5
257
331
241
  5
25B
331
E7
  5
2C2
331
E3
  5
2C6
331
DF
  5
2CA
331
9C
  5
2E9
331
151
  5
2AB
331
2B7
  5
141
331
274
  5
22A
331
2B3
  5
149
331
2EE
  5
93
331
270
  5
22E
331
2AF
  5
14D
331
2EA
  5
9B
331
2AB
  5
151
331
2E6
  5
AB
331
26C
  5
232
331
2E2
  5
AF
331
268
  5
236
331
23D
  5
261
331
239
  5
265
331
1BF
  5
29D
331
235
  5
269
331
1BB
  5
2A1
331
1F2
  5
292
331
231
  5
26D
331
94
  5
2ED
331
14D
  5
2AF
331
149
  5
2B3
331
90
  5
2F1
331
10A
  5
2BE
331
8C
  5
2F5
331
141
  5
2B7
331
88
  5
2F9
331
2A7
  5
16D
331
264
  5
23A
331
2A3
  5
1A1
331
2DE
  5
B3
331
260
  5
23E
331
29F
  5
1BD
331
2DA
  5
B7
331
2D6
  5
BB
331
29B
  5
1CF
331
2D2
  5
BF
331
258
  5
244
331
22D
  5
271
331
229
  5
275
331
225
  5
279
331
1E2
  5
294
331
221
  5
27D
331
84
  5
2FD
331
C3
  5
2CE
331
80
  5
301
331
BF
  5
2D2
331
BB
  5
2D6
331
297
  5
1DF
331
293
  5
1E3
331
28F
  5
20D
331
2CE
  5
C3
331
2CA
  5
DF
331
28B
  5
213
331
301
  5
80
331
21D
  5
281
331
1DE
  5
298
331
219
  5
285
331
215
  5
289
331
254
  5
248
331
250
  5
24C
331
B7
  5
2DA
331
B3
  5
2DE
331
AF
  5
2E2
331
125
  5
2BB
331
AB
  5
2E6
331
160
  5
2A8
331
287
  5
217
331
2C6
  5
E3
331
283
  5
21B
331
2C2
  5
E7
331
2FD
  5
84
331
2F9
  5
88
331
27F
  5
21F
331
2BE
  5
10A
331
2BA
  5
132
331
2F5
  5
8C
331
27B
  5
223
331
2F1
  5
90
331
20D
  5
28F
331
24C
  5
250
331
248
  5
254
331
244
  5
258
331
240
  5
25E
331
E6
  5
2C3
331
E2
  5
2C7
331
9B
  5
2EA
331
6C
  5
302
331
150
  5
2AC
331
277
  5
227
331
2B6
  5
142
331
273
  5
22B
331
2B2
  5
14A
331
2ED
  5
94
331
26F
  5
22F
331
2AE
  5
14E
331
2E9
  5
9C
331
2AA
  5
152
331
2E5
  5
AC
331
26B
  5
233
331
2E1
  5
B0
331
187
  5
2A5
331
23C
  5
262
331
238
  5
266
331
1BE
  5
29E
331
234
  5
26A
331
230
  5
26E
331
14C
  5
2B0
331
93
  5
2EE
331
D2
  5
2CB
331
148
  5
2B4
331
8F
  5
2F2
331
109
  5
2BF
331
105
  5
2C0
331
8B
  5
2F6
331
140
  5
2B8
331
267
  5
237
331
2A6
  5
17A
331
263
  5
23B
331
2A2
  5
1AE
331
2DD
  5
B4
331
25F
  5
23F
331
29E
  5
1BE
331
2D9
  5
B8
331
29A
  5
1D0
331
2D5
  5
BC
331
25B
  5
241
331
2D1
  5
C0
331
22C
  5
272
331
228
  5
276
331
1AE
  5
2A2
331
224
  5
27A
331
1E1
  5
295
331
220
  5
27E
331
87
  5
2FA
331
83
  5
2FE
331
C2
  5
2CF
331
BE
  5
2D3
331
BA
  5
2D7
  0
XRECORD
  5
382
102
{ACAD_REACTORS
330
381
102
}
330
381
100
AcDbXrecord
280
     1
 40
29448.0
  1
\A1;Drückerhöhe
  0
ACDBDETAILVIEWSTYLE
  5
32C
102
{ACAD_XDICTIONARY
360
32D
102
}
102
{ACAD_REACTORS
330
325
330
32B
102
}
330
325
100
AcDbModelDocViewStyle
 70
     0
  3
Metric50
290
     0
100
AcDbDetailViewStyle
 70
     0
 71
     0
 90
        3
 71
     1
340
26
 40
5.0
340
0
 40
5.0
300

 40
0.0
280
     1
 71
     2
340
15
 90
       25
 71
     3
340
26
 40
5.0
 90
        0
 40
15.0
 90
        1
300
%<\AcVar ViewDetailId>% (%<\AcVar ViewScale \f "%sn">%)
 71
     4
340
15
 90
       25
340
15
 90
       25
280
     0
  0
LAYOUT
  5
1E
102
{ACAD_XDICTIONARY
360
376
102
}
102
{ACAD_REACTORS
330
18
102
}
330
18
100
AcDbPlotSettings
  1

  2
\\mslklsv1\MSLKLP05
  4

  6

 40
0.0
 41
0.0
 42
0.0
 43
0.0
 44
0.0
 45
0.0
 46
0.0
 47
0.0
 48
0.0
 49
0.0
140
0.0
141
0.0
142
1.0
143
1.0
 70
   688
 72
     0
 73
     0
 74
     5
  7
Katalog 09.ctb
 75
    16
147
1.0
148
0.0
149
0.0
100
AcDbLayout
  1
Layout1
 70
     1
 71
     1
 10
0.0
 20
0.0
 11
12.0
 21
9.0
 12
0.0
 22
0.0
 32
0.0
 14
1.000000000000000E+20
 24
1.000000000000000E+20
 34
1.000000000000000E+20
 15
-1.000000000000000E+20
 25
-1.000000000000000E+20
 35
-1.000000000000000E+20
146
0.0
 13
0.0
 23
0.0
 33
0.0
 16
1.0
 26
0.0
 36
0.0
 17
0.0
 27
1.0
 37
0.0
 76
     0
330
1B
  0
LAYOUT
  5
17
102
{ACAD_XDICTIONARY
360
19
102
}
102
{ACAD_REACTORS
330
18
102
}
330
18
100
AcDbPlotSettings
  1

  2
\\mslklsv1\MSLKLP05
  4
A4
  6

 40
6.720416545867919
 41
6.720392704010009
 42
7.694076538085937
 43
4.011077880859375
 44
209.9733276367187
 45
296.9683227539062
 46
0.0
 47
0.0
 48
0.0
 49
0.0
140
0.0
141
0.0
142
1.0
143
2.49309260033622
 70
 11952
 72
     1
 73
     1
 74
     0
  7
Katalog 09.ctb
 75
     0
147
0.4011082459853835
148
235.6679059730945
149
-4.09529976950003
100
AcDbLayout
  1
Model
 70
     1
 71
     0
 10
0.0
 20
0.0
 11
12.0
 21
9.0
 12
0.0
 22
0.0
 32
0.0
 14
0.0
 24
0.0
 34
0.0
 15
0.0
 25
0.0
 35
0.0
146
0.0
 13
0.0
 23
0.0
 33
0.0
 16
1.0
 26
0.0
 36
0.0
 17
0.0
 27
1.0
 37
0.0
 76
     0
330
2
331
2E
1001
ACAD_PSEXT
1000
\\mslklsv1\MSLKLP05
1000
HP LaserJet 5000 Series PCL
1000
CAD
1000
HP LaserJet 5000N
1070
     0
  0
MATERIAL
  5
47
102
{ACAD_XDICTIONARY
360
48
102
}
102
{ACAD_REACTORS
330
D
102
}
330
D
100
AcDbMaterial
  1
ByBlock
 72
     0
 43
0.0008202099737533
 43
0.0
 43
0.0
 43
0.0
 43
0.0
 43
0.0008202099737533
 43
0.0
 43
0.0
 43
0.0
 43
0.0
 43
1.0
 43
0.0
 43
0.0
 43
0.0
 43
0.0
 43
1.0
 77
     0
 47
0.0008202099737533
 47
0.0
 47
0.0
 47
0.0
 47
0.0
 47
0.0008202099737533
 47
0.0
 47
0.0
 47
0.0
 47
0.0
 47
1.0
 47
0.0
 47
0.0
 47
0.0
 47
0.0
 47
1.0
171
     0
 49
0.0008202099737533
 49
0.0
 49
0.0
 49
0.0
 49
0.0
 49
0.0008202099737533
 49
0.0
 49
0.0
 49
0.0
 49
0.0
 49
1.0
 49
0.0
 49
0.0
 49
0.0
 49
0.0
 49
1.0
175
     0
142
0.0008202099737533
142
0.0
142
0.0
142
0.0
142
0.0
142
0.0008202099737533
142
0.0
142
0.0
142
0.0
142
0.0
142
1.0
142
0.0
142
0.0
142
0.0
142
0.0
142
1.0
179
     0
144
0.0008202099737533
144
0.0
144
0.0
144
0.0
144
0.0
144
0.0008202099737533
144
0.0
144
0.0
144
0.0
144
0.0
144
1.0
144
0.0
144
0.0
144
0.0
144
0.0
144
1.0
147
0.0008202099737533
147
0.0
147
0.0
147
0.0
147
0.0
147
0.0008202099737533
147
0.0
147
0.0
147
0.0
147
0.0
147
1.0
147
0.0
147
0.0
147
0.0
147
0.0
147
1.0
  0
MATERIAL
  5
3F
102
{ACAD_XDICTIONARY
360
40
102
}
102
{ACAD_REACTORS
330
D
102
}
330
D
100
AcDbMaterial
  1
ByLayer
 72
     0
 43
0.0008202099737533
 43
0.0
 43
0.0
 43
0.0
 43
0.0
 43
0.0008202099737533
 43
0.0
 43
0.0
 43
0.0
 43
0.0
 43
1.0
 43
0.0
 43
0.0
 43
0.0
 43
0.0
 43
1.0
 77
     0
 47
0.0008202099737533
 47
0.0
 47
0.0
 47
0.0
 47
0.0
 47
0.0008202099737533
 47
0.0
 47
0.0
 47
0.0
 47
0.0
 47
1.0
 47
0.0
 47
0.0
 47
0.0
 47
0.0
 47
1.0
171
     0
 49
0.0008202099737533
 49
0.0
 49
0.0
 49
0.0
 49
0.0
 49
0.0008202099737533
 49
0.0
 49
0.0
 49
0.0
 49
0.0
 49
1.0
 49
0.0
 49
0.0
 49
0.0
 49
0.0
 49
1.0
175
     0
142
0.0008202099737533
142
0.0
142
0.0
142
0.0
142
0.0
142
0.0008202099737533
142
0.0
142
0.0
142
0.0
142
0.0
142
1.0
142
0.0
142
0.0
142
0.0
142
0.0
142
1.0
179
     0
144
0.0008202099737533
144
0.0
144
0.0
144
0.0
144
0.0
144
0.0008202099737533
144
0.0
144
0.0
144
0.0
144
0.0
144
1.0
144
0.0
144
0.0
144
0.0
144
0.0
144
1.0
147
0.0008202099737533
147
0.0
147
0.0
147
0.0
147
0.0
147
0.0008202099737533
147
0.0
147
0.0
147
0.0
147
0.0
147
1.0
147
0.0
147
0.0
147
0.0
147
0.0
147
1.0
  0
MATERIAL
  5
C
102
{ACAD_XDICTIONARY
360
E
102
}
102
{ACAD_REACTORS
330
D
102
}
330
D
100
AcDbMaterial
  1
Global
 72
     0
 43
0.0008202099737533
 43
0.0
 43
0.0
 43
0.0
 43
0.0
 43
0.0008202099737533
 43
0.0
 43
0.0
 43
0.0
 43
0.0
 43
1.0
 43
0.0
 43
0.0
 43
0.0
 43
0.0
 43
1.0
 77
     0
 47
0.0008202099737533
 47
0.0
 47
0.0
 47
0.0
 47
0.0
 47
0.0008202099737533
 47
0.0
 47
0.0
 47
0.0
 47
0.0
 47
1.0
 47
0.0
 47
0.0
 47
0.0
 47
0.0
 47
1.0
171
     0
 49
0.0008202099737533
 49
0.0
 49
0.0
 49
0.0
 49
0.0
 49
0.0008202099737533
 49
0.0
 49
0.0
 49
0.0
 49
0.0
 49
1.0
 49
0.0
 49
0.0
 49
0.0
 49
0.0
 49
1.0
175
     0
142
0.0008202099737533
142
0.0
142
0.0
142
0.0
142
0.0
142
0.0008202099737533
142
0.0
142
0.0
142
0.0
142
0.0
142
1.0
142
0.0
142
0.0
142
0.0
142
0.0
142
1.0
179
     0
144
0.0008202099737533
144
0.0
144
0.0
144
0.0
144
0.0
144
0.0008202099737533
144
0.0
144
0.0
144
0.0
144
0.0
144
1.0
144
0.0
144
0.0
144
0.0
144
0.0
144
1.0
147
0.0008202099737533
147
0.0
147
0.0
147
0.0
147
0.0
147
0.0008202099737533
147
0.0
147
0.0
147
0.0
147
0.0
147
1.0
147
0.0
147
0.0
147
0.0
147
0.0
147
1.0
  0
MLINESTYLE
  5
56
102
{ACAD_REACTORS
330
3D
102
}
330
3D
100
AcDbMlineStyle
  2
STANDARD
 70
     0
  3

 62
     0
 51
90.0
 52
90.0
 71
     2
 49
0.5
 62
   256
  6
BYLAYER
 49
-0.5
 62
   256
  6
BYLAYER
  0
ACDBPLACEHOLDER
  5
9
102
{ACAD_REACTORS
330
A
102
}
330
A
  0
SCALE
  5
5B
102
{ACAD_REACTORS
330
50
102
}
330
50
100
AcDbScale
 70
     0
300
1:1
140
1.0
141
1.0
290
     1
  0
SCALE
  5
5C
102
{ACAD_REACTORS
330
50
102
}
330
50
100
AcDbScale
 70
     0
300
1:2
140
1.0
141
2.0
290
     0
  0
SCALE
  5
5D
102
{ACAD_REACTORS
330
50
102
}
330
50
100
AcDbScale
 70
     0
300
1:4
140
1.0
141
4.0
290
     0
  0
SCALE
  5
5E
102
{ACAD_REACTORS
330
50
102
}
330
50
100
AcDbScale
 70
     0
300
1:5
140
1.0
141
5.0
290
     0
  0
SCALE
  5
5F
102
{ACAD_REACTORS
330
50
102
}
330
50
100
AcDbScale
 70
     0
300
1:8
140
1.0
141
8.0
290
     0
  0
SCALE
  5
60
102
{ACAD_REACTORS
330
50
102
}
330
50
100
AcDbScale
 70
     0
300
1:10
140
1.0
141
10.0
290
     0
  0
SCALE
  5
61
102
{ACAD_REACTORS
330
50
102
}
330
50
100
AcDbScale
 70
     0
300
1:16
140
1.0
141
16.0
290
     0
  0
SCALE
  5
62
102
{ACAD_REACTORS
330
50
102
}
330
50
100
AcDbScale
 70
     0
300
1:20
140
1.0
141
20.0
290
     0
  0
SCALE
  5
63
102
{ACAD_REACTORS
330
50
102
}
330
50
100
AcDbScale
 70
     0
300
1:30
140
1.0
141
30.0
290
     0
  0
SCALE
  5
64
102
{ACAD_REACTORS
330
50
102
}
330
50
100
AcDbScale
 70
     0
300
1:40
140
1.0
141
40.0
290
     0
  0
SCALE
  5
65
102
{ACAD_REACTORS
330
50
102
}
330
50
100
AcDbScale
 70
     0
300
1:50
140
1.0
141
50.0
290
     0
  0
SCALE
  5
66
102
{ACAD_REACTORS
330
50
102
}
330
50
100
AcDbScale
 70
     0
300
1:100
140
1.0
141
100.0
290
     0
  0
SCALE
  5
67
102
{ACAD_REACTORS
330
50
102
}
330
50
100
AcDbScale
 70
     0
300
2:1
140
2.0
141
1.0
290
     0
  0
SCALE
  5
68
102
{ACAD_REACTORS
330
50
102
}
330
50
100
AcDbScale
 70
     0
300
4:1
140
4.0
141
1.0
290
     0
  0
SCALE
  5
69
102
{ACAD_REACTORS
330
50
102
}
330
50
100
AcDbScale
 70
     0
300
8:1
140
8.0
141
1.0
290
     0
  0
SCALE
  5
6A
102
{ACAD_REACTORS
330
50
102
}
330
50
100
AcDbScale
 70
     0
300
10:1
140
10.0
141
1.0
290
     0
  0
SCALE
  5
6B
102
{ACAD_REACTORS
330
50
102
}
330
50
100
AcDbScale
 70
     0
300
100:1
140
100.0
141
1.0
290
     0
  0
ACDBSECTIONVIEWSTYLE
  5
33B
102
{ACAD_XDICTIONARY
360
33C
102
}
102
{ACAD_REACTORS
330
330
330
33A
102
}
330
330
100
AcDbModelDocViewStyle
 70
     0
  3
Metric50
290
     0
100
AcDbSectionViewStyle
 70
     0
 71
     0
 90
      102
 71
     1
340
26
 40
5.0
340
0
340
0
 40
5.0
300
I, O, Q, S, X, Z
 40
10.0
 90
        0
 40
2.5
 90
        0
 71
     2
340
15
 90
       25
340
15
 90
       50
 40
5.0
 40
2.5
 40
5.0
 71
     3
340
26
 40
5.0
 90
        0
 40
15.0
 90
        1
300
%<\AcVar ViewSectionStartId>%-%<\AcVar ViewSectionEndId>% (%<\AcVar ViewScale \f "%sn">%)
 71
     4
300
ANSI31
 40
1.0
 90
        0
290
     0
290
     0
 90
        6
 40
0.0
 40
1.570796326794896
 40
0.2617993877991494
 40
1.308996938995747
 40
-0.2617993877991494
 40
1.832595714594046
  0
TABLESTYLE
  5
57
102
{ACAD_XDICTIONARY
360
58
102
}
102
{ACAD_REACTORS
330
51
102
}
330
51
100
AcDbTableStyle
  3
Standard
 70
     0
 71
     0
 40
0.06
 41
0.06
280
     0
281
     0
  7
STANDARD
140
0.18
170
     2
 62
     0
 63
     7
283
     0
274
    -2
284
     1
 64
     0
275
    -2
285
     1
 65
     0
276
    -2
286
     1
 66
     0
277
    -2
287
     1
 67
     0
278
    -2
288
     1
 68
     0
279
    -2
289
     1
 69
     0
  7
STANDARD
140
0.25
170
     5
 62
     0
 63
     7
283
     0
274
    -2
284
     1
 64
     0
275
    -2
285
     1
 65
     0
276
    -2
286
     1
 66
     0
277
    -2
287
     1
 67
     0
278
    -2
288
     1
 68
     0
279
    -2
289
     1
 69
     0
  7
STANDARD
140
0.18
170
     5
 62
     0
 63
     7
283
     0
274
    -2
284
     1
 64
     0
275
    -2
285
     1
 65
     0
276
    -2
286
     1
 66
     0
277
    -2
287
     1
 67
     0
278
    -2
288
     1
 68
     0
279
    -2
289
     1
 69
     0
  0
VISUALSTYLE
  5
2F
102
{ACAD_XDICTIONARY
360
378
102
}
102
{ACAD_REACTORS
330
30
102
}
330
30
100
AcDbVisualStyle
  2
2dWireframe
 70
     4
 71
     0
 72
     2
 73
     0
 90
        0
 40
-0.6
 41
-30.0
 62
     5
 63
     7
 74
     1
 91
        4
 64
     7
 65
   257
 75
     1
175
     1
 42
1.0
 92
        0
 66
   257
 43
1.0
 76
     1
 77
     6
 78
     2
 67
     7
 79
     5
170
     0
171
     0
290
     0
174
     0
 93
        1
 44
0.0
173
     0
291
     0
 45
0.0
1001
ACAD
1000
AcDbSavedByObjectVersion
1070
     0
  0
VISUALSTYLE
  5
59
102
{ACAD_XDICTIONARY
360
37D
102
}
102
{ACAD_REACTORS
330
30
102
}
330
30
100
AcDbVisualStyle
  2
Realistic
 70
     8
 71
     2
 72
     2
 73
     0
 90
        0
 40
-0.6
 41
-30.0
 62
     5
 63
     7
 74
     1
 91
        0
 64
     7
 65
   257
 75
     1
175
     1
 42
1.0
 92
        8
 66
     8
 43
1.0
 76
     1
 77
     6
 78
     2
 67
     7
 79
     5
170
     0
171
     0
290
     0
174
     0
 93
       13
 44
0.0
173
     0
291
     0
 45
0.0
1001
ACAD
1000
AcDbSavedByObjectVersion
1070
     0
  0
VISUALSTYLE
  5
5A
102
{ACAD_XDICTIONARY
360
37F
102
}
102
{ACAD_REACTORS
330
30
102
}
330
30
100
AcDbVisualStyle
  2
Wireframe
 70
     5
 71
     0
 72
     2
 73
     0
 90
        0
 40
-0.6
 41
-30.0
 62
     5
 63
     7
 74
     1
 91
        4
 64
     7
 65
   257
 75
     1
175
     1
 42
1.0
 92
        0
 66
   257
 43
1.0
 76
     1
 77
     6
 78
     2
 67
     7
 79
     3
170
     0
171
     0
290
     0
174
     0
 93
        1
 44
0.0
173
     0
291
     0
 45
0.0
1001
ACAD
1000
AcDbSavedByObjectVersion
1070
     0
  0
DICTIONARYVAR
  5
362
102
{ACAD_REACTORS
330
35D
102
}
330
35D
100
DictionaryVariables
280
     0
  1
1:1
  0
DICTIONARYVAR
  5
35F
102
{ACAD_REACTORS
330
35D
102
}
330
35D
100
DictionaryVariables
280
     0
  1
STANDARD
  0
DICTIONARYVAR
  5
35E
102
{ACAD_REACTORS
330
35D
102
}
330
35D
100
DictionaryVariables
280
     0
  1
STANDARD
  0
DICTIONARYVAR
  5
360
102
{ACAD_REACTORS
330
35D
102
}
330
35D
100
DictionaryVariables
280
     0
  1

  0
DICTIONARYVAR
  5
361
102
{ACAD_REACTORS
330
35D
102
}
330
35D
100
DictionaryVariables
280
     0
  1

  0
DICTIONARYVAR
  5
367
102
{ACAD_REACTORS
330
35D
102
}
330
35D
100
DictionaryVariables
280
     0
  1
1
  0
DICTIONARYVAR
  5
365
102
{ACAD_REACTORS
330
35D
102
}
330
35D
100
DictionaryVariables
280
     0
  1
1
  0
DICTIONARYVAR
  5
364
102
{ACAD_REACTORS
330
35D
102
}
330
35D
100
DictionaryVariables
280
     0
  1
0
  0
DICTIONARYVAR
  5
368
102
{ACAD_REACTORS
330
35D
102
}
330
35D
100
DictionaryVariables
280
     0
  1
1
  0
DICTIONARYVAR
  5
363
102
{ACAD_REACTORS
330
35D
102
}
330
35D
100
DictionaryVariables
280
     0
  1
127
  0
DICTIONARYVAR
  5
366
102
{ACAD_REACTORS
330
35D
102
}
330
35D
100
DictionaryVariables
280
     0
  1
0
  0
DICTIONARY
  5
373
102
{ACAD_REACTORS
330
371
102
}
330
371
100
AcDbDictionary
281
     1
  0
DICTIONARY
  5
372
102
{ACAD_REACTORS
330
371
102
}
330
371
100
AcDbDictionary
281
     1
  3
8796080456256
350
36C
  3
8796080456272
350
36D
  3
8796080456288
350
36E
  3
8796080456304
350
36F
  3
8796080456320
350
370
  0
DICTIONARY
  5
316
102
{ACAD_REACTORS
330
315
102
}
330
315
100
AcDbDictionary
281
     1
  0
DICTIONARY
  5
30F
102
{ACAD_REACTORS
330
305
102
}
330
305
100
AcDbDictionary
281
     1
  3
DWGSETTINGS
350
30E
  3
TRANSSETTINGS
350
310
  0
DICTIONARY
  5
32D
330
32C
100
AcDbDictionary
280
     1
281
     1
  3
ACAD_XREC_ROUNDTRIP
360
383
  0
DICTIONARY
  5
376
330
1E
100
AcDbDictionary
280
     1
281
     1
  3
ACAD_XREC_ROUNDTRIP
360
377
  0
DICTIONARY
  5
19
330
17
100
AcDbDictionary
280
     1
281
     1
  3
ACAD_XREC_ROUNDTRIP
360
375
  0
DICTIONARY
  5
48
330
47
100
AcDbDictionary
280
     1
281
     1
  3
ACAD_XREC_ROUNDTRIP
360
37B
  3
BUMPTILE
360
49
  3
DIFFUSETILE
360
4A
  3
OPACITYTILE
360
4B
  3
REFLECTIONTILE
360
4C
  3
REFRACTIONTILE
360
4D
  3
SPECULARTILE
360
4E
  0
DICTIONARY
  5
40
330
3F
100
AcDbDictionary
280
     1
281
     1
  3
ACAD_XREC_ROUNDTRIP
360
37A
  3
BUMPTILE
360
41
  3
DIFFUSETILE
360
42
  3
OPACITYTILE
360
43
  3
REFLECTIONTILE
360
44
  3
REFRACTIONTILE
360
45
  3
SPECULARTILE
360
46
  0
DICTIONARY
  5
E
330
C
100
AcDbDictionary
280
     1
281
     1
  3
ACAD_XREC_ROUNDTRIP
360
374
  3
BUMPTILE
360
F
  3
DIFFUSETILE
360
10
  3
OPACITYTILE
360
11
  3
REFLECTIONTILE
360
12
  3
REFRACTIONTILE
360
13
  3
SPECULARTILE
360
14
  0
DICTIONARY
  5
33C
330
33B
100
AcDbDictionary
280
     1
281
     1
  3
ACAD_XREC_ROUNDTRIP
360
384
  0
DICTIONARY
  5
58
330
57
100
AcDbDictionary
280
     1
281
     1
  3
ACAD_ROUNDTRIP_2008_TABLESTYLE_CELLSTYLEMAP
360
369
  3
ACAD_XREC_ROUNDTRIP
360
37C
  0
DICTIONARY
  5
378
330
2F
100
AcDbDictionary
280
     1
281
     1
  3
ACAD_XREC_ROUNDTRIP
360
379
  0
DICTIONARY
  5
37D
330
59
100
AcDbDictionary
280
     1
281
     1
  3
ACAD_XREC_ROUNDTRIP
360
37E
  0
DICTIONARY
  5
37F
330
5A
100
AcDbDictionary
280
     1
281
     1
  3
ACAD_XREC_ROUNDTRIP
360
380
  0
XRECORD
  5
36C
102
{ACAD_REACTORS
330
372
102
}
330
372
100
AcDbXrecord
280
     1
  1
AcDb_Thumbnail_Schema
102
{ATTRRECORD
341
36D
  2
AcDbDs::TreatedAsObjectData
280
     1
291
     1
102
ATTRRECORD}
102
{ATTRRECORD
341
36E
  2
AcDbDs::Legacy
280
     1
291
     1
102
ATTRRECORD}
  2
AcDbDs::ID
280
    10
 91
        8
102
{ATTRRECORD
341
36F
  2
AcDs:Indexable
280
     1
291
     1
102
ATTRRECORD}
102
{ATTRRECORD
341
370
  2
AcDbDs::HandleAttribute
280
     7
282
     1
102
ATTRRECORD}
  2
Thumbnail_Data
280
    15
 91
        0
  0
XRECORD
  5
36D
102
{ACAD_REACTORS
330
372
102
}
330
372
100
AcDbXrecord
280
     1
  1
AcDbDs::TreatedAsObjectDataSchema
  2
AcDbDs::TreatedAsObjectData
280
     1
 91
        0
  0
XRECORD
  5
36E
102
{ACAD_REACTORS
330
372
102
}
330
372
100
AcDbXrecord
280
     1
  1
AcDbDs::LegacySchema
  2
AcDbDs::Legacy
280
     1
 91
        0
  0
XRECORD
  5
36F
102
{ACAD_REACTORS
330
372
102
}
330
372
100
AcDbXrecord
280
     1
  1
AcDbDs::IndexedPropertySchema
  2
AcDs:Indexable
280
     1
 91
        0
  0
XRECORD
  5
370
102
{ACAD_REACTORS
330
372
102
}
330
372
100
AcDbXrecord
280
     1
  1
AcDbDs::HandleAttributeSchema
  2
AcDbDs::HandleAttribute
280
     7
 91
        1
284
     1
  0
XRECORD
  5
383
102
{ACAD_REACTORS
330
32D
102
}
330
32D
100
AcDbXrecord
280
     1
102
DISPLAYNAME
  1
Metric50
102
FLAGS
 90
        0
  0
XRECORD
  5
377
102
{ACAD_REACTORS
330
376
102
}
330
376
100
AcDbXrecord
280
     1
102
SHADEPLOT
 70
     0
102
SHADEPLOTRESLEVEL
 70
     2
102
SHADEPLOTCUSTOMDPI
 70
   300
  0
XRECORD
  5
375
102
{ACAD_REACTORS
330
19
102
}
330
19
100
AcDbXrecord
280
     1
102
SHADEPLOT
 70
     0
102
SHADEPLOTRESLEVEL
 70
     2
102
SHADEPLOTCUSTOMDPI
 70
   300
  0
XRECORD
  5
37B
102
{ACAD_REACTORS
330
48
102
}
330
48
100
AcDbXrecord
280
     1
102
MATERIAL
148
0.0
149
0.0
149
0.0
 93
        0
 94
      127
282
     0
 72
     0
 77
     0
171
     0
175
     0
179
     0
273
     0
  0
XRECORD
  5
49
102
{ACAD_REACTORS
330
48
102
}
330
48
100
AcDbXrecord
280
     1
270
     1
271
     1
  0
XRECORD
  5
4A
102
{ACAD_REACTORS
330
48
102
}
330
48
100
AcDbXrecord
280
     1
270
     1
271
     1
  0
XRECORD
  5
4B
102
{ACAD_REACTORS
330
48
102
}
330
48
100
AcDbXrecord
280
     1
270
     1
271
     1
  0
XRECORD
  5
4C
102
{ACAD_REACTORS
330
48
102
}
330
48
100
AcDbXrecord
280
     1
270
     1
271
     1
  0
XRECORD
  5
4D
102
{ACAD_REACTORS
330
48
102
}
330
48
100
AcDbXrecord
280
     1
270
     1
271
     1
  0
XRECORD
  5
4E
102
{ACAD_REACTORS
330
48
102
}
330
48
100
AcDbXrecord
280
     1
270
     1
271
     1
  0
XRECORD
  5
37A
102
{ACAD_REACTORS
330
40
102
}
330
40
100
AcDbXrecord
280
     1
102
MATERIAL
148
0.0
149
0.0
149
0.0
 93
        0
 94
      127
282
     0
 72
     0
 77
     0
171
     0
175
     0
179
     0
273
     0
  0
XRECORD
  5
41
102
{ACAD_REACTORS
330
40
102
}
330
40
100
AcDbXrecord
280
     1
270
     1
271
     1
  0
XRECORD
  5
42
102
{ACAD_REACTORS
330
40
102
}
330
40
100
AcDbXrecord
280
     1
270
     1
271
     1
  0
XRECORD
  5
43
102
{ACAD_REACTORS
330
40
102
}
330
40
100
AcDbXrecord
280
     1
270
     1
271
     1
  0
XRECORD
  5
44
102
{ACAD_REACTORS
330
40
102
}
330
40
100
AcDbXrecord
280
     1
270
     1
271
     1
  0
XRECORD
  5
45
102
{ACAD_REACTORS
330
40
102
}
330
40
100
AcDbXrecord
280
     1
270
     1
271
     1
  0
XRECORD
  5
46
102
{ACAD_REACTORS
330
40
102
}
330
40
100
AcDbXrecord
280
     1
270
     1
271
     1
  0
XRECORD
  5
374
102
{ACAD_REACTORS
330
E
102
}
330
E
100
AcDbXrecord
280
     1
102
MATERIAL
148
0.0
149
0.0
149
0.0
 93
        0
 94
      127
282
     0
 72
     0
 77
     0
171
     0
175
     0
179
     0
273
     0
  0
XRECORD
  5
F
102
{ACAD_REACTORS
330
E
102
}
330
E
100
AcDbXrecord
280
     1
270
     1
271
     1
  0
XRECORD
  5
10
102
{ACAD_REACTORS
330
E
102
}
330
E
100
AcDbXrecord
280
     1
270
     1
271
     1
  0
XRECORD
  5
11
102
{ACAD_REACTORS
330
E
102
}
330
E
100
AcDbXrecord
280
     1
270
     1
271
     1
  0
XRECORD
  5
12
102
{ACAD_REACTORS
330
E
102
}
330
E
100
AcDbXrecord
280
     1
270
     1
271
     1
  0
XRECORD
  5
13
102
{ACAD_REACTORS
330
E
102
}
330
E
100
AcDbXrecord
280
     1
270
     1
271
     1
  0
XRECORD
  5
14
102
{ACAD_REACTORS
330
E
102
}
330
E
100
AcDbXrecord
280
     1
270
     1
271
     1
  0
XRECORD
  5
384
102
{ACAD_REACTORS
330
33C
102
}
330
33C
100
AcDbXrecord
280
     1
102
DISPLAYNAME
  1
Metric50
102
FLAGS
 90
        0
  0
CELLSTYLEMAP
  5
369
102
{ACAD_REACTORS
330
58
102
}
330
58
100
AcDbCellStyleMap
 90
        3
300
CELLSTYLE
  1
TABLEFORMAT_BEGIN
 90
        5
170
     1
 91
        0
 92
    32768
 62
   257
 93
        1
300
CONTENTFORMAT
  1
CONTENTFORMAT_BEGIN
 90
        0
 91
        0
 92
        4
 93
        0
300

 40
0.0
140
1.0
 94
        5
 62
     0
340
26
144
0.25
309
CONTENTFORMAT_END
171
     0
 94
        6
 95
        1
302
GRIDFORMAT
  1
GRIDFORMAT_BEGIN
 90
        0
 91
        1
 62
     0
 92
       -2
340
0
 93
        0
 40
0.045
309
GRIDFORMAT_END
 95
        2
302
GRIDFORMAT
  1
GRIDFORMAT_BEGIN
 90
        0
 91
        1
 62
     0
 92
       -2
340
0
 93
        0
 40
0.045
309
GRIDFORMAT_END
 95
        4
302
GRIDFORMAT
  1
GRIDFORMAT_BEGIN
 90
        0
 91
        1
 62
     0
 92
       -2
340
0
 93
        0
 40
0.045
309
GRIDFORMAT_END
 95
        8
302
GRIDFORMAT
  1
GRIDFORMAT_BEGIN
 90
        0
 91
        1
 62
     0
 92
       -2
340
0
 93
        0
 40
0.045
309
GRIDFORMAT_END
 95
       16
302
GRIDFORMAT
  1
GRIDFORMAT_BEGIN
 90
        0
 91
        1
 62
     0
 92
       -2
340
0
 93
        0
 40
0.045
309
GRIDFORMAT_END
 95
       32
302
GRIDFORMAT
  1
GRIDFORMAT_BEGIN
 90
        0
 91
        1
 62
     0
 92
       -2
340
0
 93
        0
 40
0.045
309
GRIDFORMAT_END
309
TABLEFORMAT_END
  1
CELLSTYLE_BEGIN
 90
        1
 91
        1
300
_TITLE
309
CELLSTYLE_END
300
CELLSTYLE
  1
TABLEFORMAT_BEGIN
 90
        5
170
     1
 91
        0
 92
        0
 62
   257
 93
        1
300
CONTENTFORMAT
  1
CONTENTFORMAT_BEGIN
 90
        0
 91
        0
 92
        4
 93
        0
300

 40
0.0
140
1.0
 94
        5
 62
     0
340
26
144
0.18
309
CONTENTFORMAT_END
171
     0
 94
        6
 95
        1
302
GRIDFORMAT
  1
GRIDFORMAT_BEGIN
 90
        0
 91
        1
 62
     0
 92
       -2
340
0
 93
        0
 40
0.045
309
GRIDFORMAT_END
 95
        2
302
GRIDFORMAT
  1
GRIDFORMAT_BEGIN
 90
        0
 91
        1
 62
     0
 92
       -2
340
0
 93
        0
 40
0.045
309
GRIDFORMAT_END
 95
        4
302
GRIDFORMAT
  1
GRIDFORMAT_BEGIN
 90
        0
 91
        1
 62
     0
 92
       -2
340
0
 93
        0
 40
0.045
309
GRIDFORMAT_END
 95
        8
302
GRIDFORMAT
  1
GRIDFORMAT_BEGIN
 90
        0
 91
        1
 62
     0
 92
       -2
340
0
 93
        0
 40
0.045
309
GRIDFORMAT_END
 95
       16
302
GRIDFORMAT
  1
GRIDFORMAT_BEGIN
 90
        0
 91
        1
 62
     0
 92
       -2
340
0
 93
        0
 40
0.045
309
GRIDFORMAT_END
 95
       32
302
GRIDFORMAT
  1
GRIDFORMAT_BEGIN
 90
        0
 91
        1
 62
     0
 92
       -2
340
0
 93
        0
 40
0.045
309
GRIDFORMAT_END
309
TABLEFORMAT_END
  1
CELLSTYLE_BEGIN
 90
        2
 91
        1
300
_HEADER
309
CELLSTYLE_END
300
CELLSTYLE
  1
TABLEFORMAT_BEGIN
 90
        5
170
     1
 91
        0
 92
        0
 62
   257
 93
        1
300
CONTENTFORMAT
  1
CONTENTFORMAT_BEGIN
 90
        0
 91
        0
 92
        4
 93
        0
300

 40
0.0
140
1.0
 94
        2
 62
     0
340
26
144
0.18
309
CONTENTFORMAT_END
171
     0
 94
        6
 95
        1
302
GRIDFORMAT
  1
GRIDFORMAT_BEGIN
 90
        0
 91
        1
 62
     0
 92
       -2
340
0
 93
        0
 40
0.045
309
GRIDFORMAT_END
 95
        2
302
GRIDFORMAT
  1
GRIDFORMAT_BEGIN
 90
        0
 91
        1
 62
     0
 92
       -2
340
0
 93
        0
 40
0.045
309
GRIDFORMAT_END
 95
        4
302
GRIDFORMAT
  1
GRIDFORMAT_BEGIN
 90
        0
 91
        1
 62
     0
 92
       -2
340
0
 93
        0
 40
0.045
309
GRIDFORMAT_END
 95
        8
302
GRIDFORMAT
  1
GRIDFORMAT_BEGIN
 90
        0
 91
        1
 62
     0
 92
       -2
340
0
 93
        0
 40
0.045
309
GRIDFORMAT_END
 95
       16
302
GRIDFORMAT
  1
GRIDFORMAT_BEGIN
 90
        0
 91
        1
 62
     0
 92
       -2
340
0
 93
        0
 40
0.045
309
GRIDFORMAT_END
 95
       32
302
GRIDFORMAT
  1
GRIDFORMAT_BEGIN
 90
        0
 91
        1
 62
     0
 92
       -2
340
0
 93
        0
 40
0.045
309
GRIDFORMAT_END
309
TABLEFORMAT_END
  1
CELLSTYLE_BEGIN
 90
        3
 91
        2
300
_DATA
309
CELLSTYLE_END
  0
XRECORD
  5
37C
102
{ACAD_REACTORS
330
58
102
}
330
58
100
AcDbXrecord
280
     1
102
ACAD_ROUNDTRIP_PRE2007_TABLESTYLE
 90
        4
 91
        0
  1

 92
        4
 93
        0
  2

 94
        4
 95
        0
  3

  0
XRECORD
  5
379
102
{ACAD_REACTORS
330
378
102
}
330
378
100
AcDbXrecord
280
     1
102
RTVSPost2010Prop28
280
     1
102
RTVSPost2010PropOp28
 70
     1
102
RTVSPost2010Prop29
280
     1
102
RTVSPost2010PropOp29
 70
     1
102
RTVSPost2010Prop30
280
     0
102
RTVSPost2010PropOp30
 70
     1
102
RTVSPost2010Prop31
280
     0
102
RTVSPost2010PropOp31
 70
     1
102
RTVSPost2010Prop32
280
     0
102
RTVSPost2010PropOp32
 70
     1
102
RTVSPost2010Prop33
280
     0
102
RTVSPost2010PropOp33
 70
     1
102
RTVSPost2010Prop34
280
     0
102
RTVSPost2010PropOp34
 70
     1
102
RTVSPost2010Prop35
280
     0
102
RTVSPost2010PropOp35
 70
     1
102
RTVSPost2010Prop36
280
     0
102
RTVSPost2010PropOp36
 70
     1
102
RTVSPost2010Prop37
 90
       50
102
RTVSPost2010PropOp37
 70
     1
102
RTVSPost2010Prop38
140
0.0
102
RTVSPost2010PropOp38
 70
     1
102
RTVSPost2010Prop39
140
1.0
102
RTVSPost2010PropOp39
 70
     1
102
RTVSPost2010Prop40
 90
        0
102
RTVSPost2010PropOp40
 70
     1
102
RTVSPost2010Prop41ColorIndex
 90
       18
102
RTVSPost2010Prop41ColorRGB
 90
        0
102
RTVSPost2010PropOp41
 70
     1
102
RTVSPost2010Prop42
 90
       50
102
RTVSPost2010PropOp42
 70
     1
102
RTVSPost2010Prop43
 90
        3
102
RTVSPost2010PropOp43
 70
     1
102
RTVSPost2010Prop44ColorIndex
 90
        5
102
RTVSPost2010Prop44ColorRGB
 90
      255
102
RTVSPost2010PropOp44
 70
     1
102
RTVSPost2010Prop45
280
     0
102
RTVSPost2010PropOp45
 70
     1
102
RTVSPost2010Prop46
 90
       50
102
RTVSPost2010PropOp46
 70
     1
102
RTVSPost2010Prop47
 90
       50
102
RTVSPost2010PropOp47
 70
     1
102
RTVSPost2010Prop48
 90
       50
102
RTVSPost2010PropOp48
 70
     1
102
RTVSPost2010Prop49
280
     0
102
RTVSPost2010PropOp49
 70
     1
102
RTVSPost2010Prop50
 90
       50
102
RTVSPost2010PropOp50
 70
     1
102
RTVSPost2010Prop51ColorIndex
 90
      256
102
RTVSPost2010Prop51ColorRGB
 90
-16777216
102
RTVSPost2010PropOp51
 70
     0
102
RTVSPost2010Prop52
140
1.0
102
RTVSPost2010PropOp52
 70
     0
102
RTVSPost2010Prop53
 90
        2
102
RTVSPost2010PropOp53
 70
     1
102
RTVSPost2010Prop54
  1
strokes_ogs.tif
102
RTVSPost2010PropOp54
 70
     1
102
RTVSPost2010Prop55
280
     0
102
RTVSPost2010PropOp55
 70
     1
102
RTVSPost2010Prop56
140
1.0
102
RTVSPost2010PropOp56
 70
     1
102
RTVSPost2010Prop57
140
1.0
102
RTVSPost2010PropOp57
 70
     1
102
RTVSPropertyOp0
 70
     1
102
RTVSPropertyOp1
 70
     1
102
RTVSPropertyOp2
 70
     1
102
RTVSPropertyOp3
 70
     1
102
RTVSPropertyOp4
 70
     1
102
RTVSPropertyOp5
 70
     1
102
RTVSPropertyOp6
 70
     1
102
RTVSPropertyOp7
 70
     1
102
RTVSPropertyOp8
 70
     1
102
RTVSPropertyOp9
 70
     1
102
RTVSPropertyOp10
 70
     1
102
RTVSPropertyOp11
 70
     1
102
RTVSPropertyOp12
 70
     1
102
RTVSPropertyOp13
 70
     1
102
RTVSPropertyOp14
 70
     1
102
RTVSPropertyOp15
 70
     1
102
RTVSPropertyOp16
 70
     1
102
RTVSPropertyOp17
 70
     1
102
RTVSPropertyOp18
 70
     1
102
RTVSPropertyOp19
 70
     1
102
RTVSPropertyOp20
 70
     1
102
RTVSPropertyOp21
 70
     1
102
RTVSPropertyOp22
 70
     1
102
RTVSPropertyOp23
 70
     1
102
RTVSPropertyOp24
 70
     1
102
RTVSPropertyOp25
 70
     1
102
RTVSPropertyOp26
 70
     1
102
RTVSPropertyOp27
 70
     1
102
RTVSPropertyOp28
 70
     1
102
RTVSPropertyOp29
 70
     1
102
RTVSPropertyOp30
 70
     1
102
RTVSPropertyOp31
 70
     1
102
RTVSPropertyOp32
 70
     1
102
RTVSPropertyOp33
 70
     1
102
RTVSPropertyOp34
 70
     1
102
RTVSPropertyOp35
 70
     1
102
RTVSPropertyOp36
 70
     1
102
RTVSPropertyOp37
 70
     1
102
RTVSPropertyOp38
 70
     1
102
RTVSPropertyOp39
 70
     1
102
RTVSPropertyOp40
 70
     1
102
RTVSPropertyOp41
 70
     1
102
RTVSPropertyOp42
 70
     1
102
RTVSPropertyOp43
 70
     1
102
RTVSPropertyOp44
 70
     1
102
RTVSPropertyOp45
 70
     1
102
RTVSPropertyOp46
 70
     1
102
RTVSPropertyOp47
 70
     1
102
RTVSPropertyOp48
 70
     1
102
RTVSPropertyOp49
 70
     1
102
RTVSPropertyOp50
 70
     1
102
RTVSPropertyOp51
 70
     0
102
RTVSPropertyOp52
 70
     0
102
RTVSPropertyOp53
 70
     1
102
RTVSPropertyOp54
 70
     1
102
RTVSPropertyOp55
 70
     1
102
RTVSPropertyOp56
 70
     1
102
RTVSPropertyOp57
 70
     1
102
RTVSPropertyOp58
 70
     1
102
RTVSPropertyOp59
 70
     1
102
RTVSPropertyOp60
 70
     1
102
RTVSPropertyOp61
 70
     1
102
RTVSPropertyOp62
 70
     1
  0
XRECORD
  5
37E
102
{ACAD_REACTORS
330
37D
102
}
330
37D
100
AcDbXrecord
280
     1
102
RTVSPost2010Prop28
280
     0
102
RTVSPost2010PropOp28
 70
     1
102
RTVSPost2010Prop29
280
     1
102
RTVSPost2010PropOp29
 70
     1
102
RTVSPost2010Prop30
280
     1
102
RTVSPost2010PropOp30
 70
     1
102
RTVSPost2010Prop31
280
     0
102
RTVSPost2010PropOp31
 70
     1
102
RTVSPost2010Prop32
280
     0
102
RTVSPost2010PropOp32
 70
     1
102
RTVSPost2010Prop33
280
     0
102
RTVSPost2010PropOp33
 70
     1
102
RTVSPost2010Prop34
280
     0
102
RTVSPost2010PropOp34
 70
     1
102
RTVSPost2010Prop35
280
     0
102
RTVSPost2010PropOp35
 70
     1
102
RTVSPost2010Prop36
280
     0
102
RTVSPost2010PropOp36
 70
     1
102
RTVSPost2010Prop37
 90
       50
102
RTVSPost2010PropOp37
 70
     1
102
RTVSPost2010Prop38
140
0.0
102
RTVSPost2010PropOp38
 70
     1
102
RTVSPost2010Prop39
140
1.0
102
RTVSPost2010PropOp39
 70
     1
102
RTVSPost2010Prop40
 90
        0
102
RTVSPost2010PropOp40
 70
     1
102
RTVSPost2010Prop41ColorIndex
 90
       18
102
RTVSPost2010Prop41ColorRGB
 90
        0
102
RTVSPost2010PropOp41
 70
     1
102
RTVSPost2010Prop42
 90
       50
102
RTVSPost2010PropOp42
 70
     1
102
RTVSPost2010Prop43
 90
        3
102
RTVSPost2010PropOp43
 70
     1
102
RTVSPost2010Prop44ColorIndex
 90
        5
102
RTVSPost2010Prop44ColorRGB
 90
      255
102
RTVSPost2010PropOp44
 70
     1
102
RTVSPost2010Prop45
280
     0
102
RTVSPost2010PropOp45
 70
     1
102
RTVSPost2010Prop46
 90
       50
102
RTVSPost2010PropOp46
 70
     1
102
RTVSPost2010Prop47
 90
       50
102
RTVSPost2010PropOp47
 70
     1
102
RTVSPost2010Prop48
 90
       50
102
RTVSPost2010PropOp48
 70
     1
102
RTVSPost2010Prop49
280
     0
102
RTVSPost2010PropOp49
 70
     1
102
RTVSPost2010Prop50
 90
       50
102
RTVSPost2010PropOp50
 70
     1
102
RTVSPost2010Prop51ColorIndex
 90
      256
102
RTVSPost2010Prop51ColorRGB
 90
-16777216
102
RTVSPost2010PropOp51
 70
     0
102
RTVSPost2010Prop52
140
1.0
102
RTVSPost2010PropOp52
 70
     0
102
RTVSPost2010Prop53
 90
        2
102
RTVSPost2010PropOp53
 70
     1
102
RTVSPost2010Prop54
  1
strokes_ogs.tif
102
RTVSPost2010PropOp54
 70
     1
102
RTVSPost2010Prop55
280
     0
102
RTVSPost2010PropOp55
 70
     1
102
RTVSPost2010Prop56
140
1.0
102
RTVSPost2010PropOp56
 70
     1
102
RTVSPost2010Prop57
140
1.0
102
RTVSPost2010PropOp57
 70
     1
102
RTVSPropertyOp0
 70
     1
102
RTVSPropertyOp1
 70
     1
102
RTVSPropertyOp2
 70
     1
102
RTVSPropertyOp3
 70
     1
102
RTVSPropertyOp4
 70
     1
102
RTVSPropertyOp5
 70
     1
102
RTVSPropertyOp6
 70
     1
102
RTVSPropertyOp7
 70
     1
102
RTVSPropertyOp8
 70
     1
102
RTVSPropertyOp9
 70
     1
102
RTVSPropertyOp10
 70
     1
102
RTVSPropertyOp11
 70
     1
102
RTVSPropertyOp12
 70
     1
102
RTVSPropertyOp13
 70
     1
102
RTVSPropertyOp14
 70
     1
102
RTVSPropertyOp15
 70
     1
102
RTVSPropertyOp16
 70
     1
102
RTVSPropertyOp17
 70
     1
102
RTVSPropertyOp18
 70
     1
102
RTVSPropertyOp19
 70
     1
102
RTVSPropertyOp20
 70
     1
102
RTVSPropertyOp21
 70
     1
102
RTVSPropertyOp22
 70
     1
102
RTVSPropertyOp23
 70
     1
102
RTVSPropertyOp24
 70
     1
102
RTVSPropertyOp25
 70
     1
102
RTVSPropertyOp26
 70
     1
102
RTVSPropertyOp27
 70
     1
102
RTVSPropertyOp28
 70
     1
102
RTVSPropertyOp29
 70
     1
102
RTVSPropertyOp30
 70
     1
102
RTVSPropertyOp31
 70
     1
102
RTVSPropertyOp32
 70
     1
102
RTVSPropertyOp33
 70
     1
102
RTVSPropertyOp34
 70
     1
102
RTVSPropertyOp35
 70
     1
102
RTVSPropertyOp36
 70
     1
102
RTVSPropertyOp37
 70
     1
102
RTVSPropertyOp38
 70
     1
102
RTVSPropertyOp39
 70
     1
102
RTVSPropertyOp40
 70
     1
102
RTVSPropertyOp41
 70
     1
102
RTVSPropertyOp42
 70
     1
102
RTVSPropertyOp43
 70
     1
102
RTVSPropertyOp44
 70
     1
102
RTVSPropertyOp45
 70
     1
102
RTVSPropertyOp46
 70
     1
102
RTVSPropertyOp47
 70
     1
102
RTVSPropertyOp48
 70
     1
102
RTVSPropertyOp49
 70
     1
102
RTVSPropertyOp50
 70
     1
102
RTVSPropertyOp51
 70
     0
102
RTVSPropertyOp52
 70
     0
102
RTVSPropertyOp53
 70
     1
102
RTVSPropertyOp54
 70
     1
102
RTVSPropertyOp55
 70
     1
102
RTVSPropertyOp56
 70
     1
102
RTVSPropertyOp57
 70
     1
102
RTVSPropertyOp58
 70
     1
102
RTVSPropertyOp59
 70
     1
102
RTVSPropertyOp60
 70
     1
102
RTVSPropertyOp61
 70
     1
102
RTVSPropertyOp62
 70
     1
  0
XRECORD
  5
380
102
{ACAD_REACTORS
330
37F
102
}
330
37F
100
AcDbXrecord
280
     1
102
RTVSPost2010Prop28
280
     0
102
RTVSPost2010PropOp28
 70
     1
102
RTVSPost2010Prop29
280
     1
102
RTVSPost2010PropOp29
 70
     1
102
RTVSPost2010Prop30
280
     1
102
RTVSPost2010PropOp30
 70
     1
102
RTVSPost2010Prop31
280
     0
102
RTVSPost2010PropOp31
 70
     1
102
RTVSPost2010Prop32
280
     0
102
RTVSPost2010PropOp32
 70
     1
102
RTVSPost2010Prop33
280
     0
102
RTVSPost2010PropOp33
 70
     1
102
RTVSPost2010Prop34
280
     0
102
RTVSPost2010PropOp34
 70
     1
102
RTVSPost2010Prop35
280
     0
102
RTVSPost2010PropOp35
 70
     1
102
RTVSPost2010Prop36
280
     0
102
RTVSPost2010PropOp36
 70
     1
102
RTVSPost2010Prop37
 90
       50
102
RTVSPost2010PropOp37
 70
     1
102
RTVSPost2010Prop38
140
0.0
102
RTVSPost2010PropOp38
 70
     1
102
RTVSPost2010Prop39
140
1.0
102
RTVSPost2010PropOp39
 70
     1
102
RTVSPost2010Prop40
 90
        0
102
RTVSPost2010PropOp40
 70
     1
102
RTVSPost2010Prop41ColorIndex
 90
       18
102
RTVSPost2010Prop41ColorRGB
 90
        0
102
RTVSPost2010PropOp41
 70
     1
102
RTVSPost2010Prop42
 90
       50
102
RTVSPost2010PropOp42
 70
     1
102
RTVSPost2010Prop43
 90
        3
102
RTVSPost2010PropOp43
 70
     1
102
RTVSPost2010Prop44ColorIndex
 90
        5
102
RTVSPost2010Prop44ColorRGB
 90
      255
102
RTVSPost2010PropOp44
 70
     1
102
RTVSPost2010Prop45
280
     0
102
RTVSPost2010PropOp45
 70
     1
102
RTVSPost2010Prop46
 90
       50
102
RTVSPost2010PropOp46
 70
     1
102
RTVSPost2010Prop47
 90
       50
102
RTVSPost2010PropOp47
 70
     1
102
RTVSPost2010Prop48
 90
       50
102
RTVSPost2010PropOp48
 70
     1
102
RTVSPost2010Prop49
280
     0
102
RTVSPost2010PropOp49
 70
     1
102
RTVSPost2010Prop50
 90
       50
102
RTVSPost2010PropOp50
 70
     1
102
RTVSPost2010Prop51ColorIndex
 90
      256
102
RTVSPost2010Prop51ColorRGB
 90
-16777216
102
RTVSPost2010PropOp51
 70
     0
102
RTVSPost2010Prop52
140
1.0
102
RTVSPost2010PropOp52
 70
     0
102
RTVSPost2010Prop53
 90
        2
102
RTVSPost2010PropOp53
 70
     1
102
RTVSPost2010Prop54
  1
strokes_ogs.tif
102
RTVSPost2010PropOp54
 70
     1
102
RTVSPost2010Prop55
280
     0
102
RTVSPost2010PropOp55
 70
     1
102
RTVSPost2010Prop56
140
1.0
102
RTVSPost2010PropOp56
 70
     1
102
RTVSPost2010Prop57
140
1.0
102
RTVSPost2010PropOp57
 70
     1
102
RTVSPropertyOp0
 70
     1
102
RTVSPropertyOp1
 70
     1
102
RTVSPropertyOp2
 70
     1
102
RTVSPropertyOp3
 70
     1
102
RTVSPropertyOp4
 70
     1
102
RTVSPropertyOp5
 70
     1
102
RTVSPropertyOp6
 70
     1
102
RTVSPropertyOp7
 70
     1
102
RTVSPropertyOp8
 70
     1
102
RTVSPropertyOp9
 70
     1
102
RTVSPropertyOp10
 70
     1
102
RTVSPropertyOp11
 70
     1
102
RTVSPropertyOp12
 70
     1
102
RTVSPropertyOp13
 70
     1
102
RTVSPropertyOp14
 70
     1
102
RTVSPropertyOp15
 70
     1
102
RTVSPropertyOp16
 70
     1
102
RTVSPropertyOp17
 70
     1
102
RTVSPropertyOp18
 70
     1
102
RTVSPropertyOp19
 70
     1
102
RTVSPropertyOp20
 70
     1
102
RTVSPropertyOp21
 70
     1
102
RTVSPropertyOp22
 70
     1
102
RTVSPropertyOp23
 70
     1
102
RTVSPropertyOp24
 70
     1
102
RTVSPropertyOp25
 70
     1
102
RTVSPropertyOp26
 70
     1
102
RTVSPropertyOp27
 70
     1
102
RTVSPropertyOp28
 70
     1
102
RTVSPropertyOp29
 70
     1
102
RTVSPropertyOp30
 70
     1
102
RTVSPropertyOp31
 70
     1
102
RTVSPropertyOp32
 70
     1
102
RTVSPropertyOp33
 70
     1
102
RTVSPropertyOp34
 70
     1
102
RTVSPropertyOp35
 70
     1
102
RTVSPropertyOp36
 70
     1
102
RTVSPropertyOp37
 70
     1
102
RTVSPropertyOp38
 70
     1
102
RTVSPropertyOp39
 70
     1
102
RTVSPropertyOp40
 70
     1
102
RTVSPropertyOp41
 70
     1
102
RTVSPropertyOp42
 70
     1
102
RTVSPropertyOp43
 70
     1
102
RTVSPropertyOp44
 70
     1
102
RTVSPropertyOp45
 70
     1
102
RTVSPropertyOp46
 70
     1
102
RTVSPropertyOp47
 70
     1
102
RTVSPropertyOp48
 70
     1
102
RTVSPropertyOp49
 70
     1
102
RTVSPropertyOp50
 70
     1
102
RTVSPropertyOp51
 70
     0
102
RTVSPropertyOp52
 70
     0
102
RTVSPropertyOp53
 70
     1
102
RTVSPropertyOp54
 70
     1
102
RTVSPropertyOp55
 70
     1
102
RTVSPropertyOp56
 70
     1
102
RTVSPropertyOp57
 70
     1
102
RTVSPropertyOp58
 70
     1
102
RTVSPropertyOp59
 70
     1
102
RTVSPropertyOp60
 70
     1
102
RTVSPropertyOp61
 70
     1
102
RTVSPropertyOp62
 70
     1
  0
ENDSEC
  0
EOF
