  0
SECTION
  2
HEADER
  9
$ACADVER
  1
AC1015
  9
$ACADMAINTVER
 70
    20
  9
$DWGCODEPAGE
  3
ANSI_1252
  9
$INSBASE
 10
0.0
 20
0.0
 30
0.0
  9
$EXTMIN
 10
-16.87765079230747
 20
5.524899613073637
 30
0.0
  9
$EXTMAX
 10
290.25
 20
293.3693061365864
 30
0.0
  9
$LIMMIN
 10
0.0
 20
0.0
  9
$LIMMAX
 10
500.0
 20
600.0
  9
$ORTHOMODE
 70
     1
  9
$REGENMODE
 70
     1
  9
$FILLMODE
 70
     1
  9
$QTEXTMODE
 70
     0
  9
$MIRRTEXT
 70
     1
  9
$LTSCALE
 40
1.0
  9
$ATTMODE
 70
     1
  9
$TEXTSIZE
 40
2.399999999999999
  9
$TRACEWID
 40
0.05
  9
$TEXTSTYLE
  7
NORM
  9
$CLAYER
  8
UMRISS05
  9
$CELTYPE
  6
BYLAYER
  9
$CECOLOR
 62
   256
  9
$CELTSCALE
 40
1.0
  9
$DISPSILH
 70
     0
  9
$DIMSCALE
 40
1.0
  9
$DIMASZ
 40
4.0
  9
$DIMEXO
 40
0.0
  9
$DIMDLI
 40
8.0
  9
$DIMRND
 40
0.0
  9
$DIMDLE
 40
0.0
  9
$DIMEXE
 40
1.0
  9
$DIMTP
 40
0.0
  9
$DIMTM
 40
0.0
  9
$DIMTXT
 40
4.349999999999999
  9
$DIMCEN
 40
1.5
  9
$DIMTSZ
 40
0.0
  9
$DIMTOL
 70
     0
  9
$DIMLIM
 70
     0
  9
$DIMTIH
 70
     0
  9
$DIMTOH
 70
     0
  9
$DIMSE1
 70
     0
  9
$DIMSE2
 70
     0
  9
$DIMTAD
 70
     1
  9
$DIMZIN
 70
     8
  9
$DIMBLK
  1

  9
$DIMASO
 70
     1
  9
$DIMSHO
 70
     1
  9
$DIMPOST
  1

  9
$DIMAPOST
  1

  9
$DIMALT
 70
     0
  9
$DIMALTD
 70
     2
  9
$DIMALTF
 40
25.39999999999999
  9
$DIMLFAC
 40
1.0
  9
$DIMTOFL
 70
     1
  9
$DIMTVP
 40
0.0
  9
$DIMTIX
 70
     1
  9
$DIMSOXD
 70
     0
  9
$DIMSAH
 70
     0
  9
$DIMBLK1
  1

  9
$DIMBLK2
  1

  9
$DIMSTYLE
  2
Katalog 09
  9
$DIMCLRD
 70
     2
  9
$DIMCLRE
 70
     2
  9
$DIMCLRT
 70
     3
  9
$DIMTFAC
 40
0.4285714285714286
  9
$DIMGAP
 40
1.0
  9
$DIMJUST
 70
     0
  9
$DIMSD1
 70
     0
  9
$DIMSD2
 70
     0
  9
$DIMTOLJ
 70
     1
  9
$DIMTZIN
 70
     8
  9
$DIMALTZ
 70
     8
  9
$DIMALTTZ
 70
     8
  9
$DIMUPT
 70
     0
  9
$DIMDEC
 70
     2
  9
$DIMTDEC
 70
     2
  9
$DIMALTU
 70
     2
  9
$DIMALTTD
 70
     2
  9
$DIMTXSTY
  7
ARIAL-STANDARD
  9
$DIMAUNIT
 70
     0
  9
$DIMADEC
 70
     0
  9
$DIMALTRND
 40
0.0
  9
$DIMAZIN
 70
     0
  9
$DIMDSEP
 70
    46
  9
$DIMATFIT
 70
     3
  9
$DIMFRAC
 70
     0
  9
$DIMLDRBLK
  1

  9
$DIMLUNIT
 70
     2
  9
$DIMLWD
 70
    -2
  9
$DIMLWE
 70
    -2
  9
$DIMTMOVE
 70
     0
  9
$LUNITS
 70
     2
  9
$LUPREC
 70
     4
  9
$SKETCHINC
 40
0.1
  9
$FILLETRAD
 40
0.0
  9
$AUNITS
 70
     0
  9
$AUPREC
 70
     0
  9
$MENU
  1
.
  9
$ELEVATION
 40
0.0
  9
$PELEVATION
 40
0.0
  9
$THICKNESS
 40
0.0
  9
$LIMCHECK
 70
     0
  9
$CHAMFERA
 40
0.5
  9
$CHAMFERB
 40
0.5
  9
$CHAMFERC
 40
1.0
  9
$CHAMFERD
 40
0.0
  9
$SKPOLY
 70
     0
  9
$TDCREATE
 40
2451305.384745371
  9
$TDUCREATE
 40
2451305.343078704
  9
$TDUPDATE
 40
2457067.404402917
  9
$TDUUPDATE
 40
2457067.362736250
  9
$TDINDWG
 40
0.9480568403
  9
$TDUSRTIMER
 40
0.9480568403
  9
$USRTIMER
 70
     1
  9
$ANGBASE
 50
0.0
  9
$ANGDIR
 70
     0
  9
$PDMODE
 70
     0
  9
$PDSIZE
 40
0.0
  9
$PLINEWID
 40
0.0
  9
$SPLFRAME
 70
     0
  9
$SPLINETYPE
 70
     6
  9
$SPLINESEGS
 70
     8
  9
$HANDSEED
  5
273
  9
$SURFTAB1
 70
     6
  9
$SURFTAB2
 70
     6
  9
$SURFTYPE
 70
     6
  9
$SURFU
 70
     6
  9
$SURFV
 70
     6
  9
$UCSBASE
  2

  9
$UCSNAME
  2

  9
$UCSORG
 10
0.0
 20
0.0
 30
0.0
  9
$UCSXDIR
 10
1.0
 20
0.0
 30
0.0
  9
$UCSYDIR
 10
0.0
 20
1.0
 30
0.0
  9
$UCSORTHOREF
  2

  9
$UCSORTHOVIEW
 70
     0
  9
$UCSORGTOP
 10
0.0
 20
0.0
 30
0.0
  9
$UCSORGBOTTOM
 10
0.0
 20
0.0
 30
0.0
  9
$UCSORGLEFT
 10
0.0
 20
0.0
 30
0.0
  9
$UCSORGRIGHT
 10
0.0
 20
0.0
 30
0.0
  9
$UCSORGFRONT
 10
0.0
 20
0.0
 30
0.0
  9
$UCSORGBACK
 10
0.0
 20
0.0
 30
0.0
  9
$PUCSBASE
  2

  9
$PUCSNAME
  2

  9
$PUCSORG
 10
0.0
 20
0.0
 30
0.0
  9
$PUCSXDIR
 10
1.0
 20
0.0
 30
0.0
  9
$PUCSYDIR
 10
0.0
 20
1.0
 30
0.0
  9
$PUCSORTHOREF
  2

  9
$PUCSORTHOVIEW
 70
     0
  9
$PUCSORGTOP
 10
0.0
 20
0.0
 30
0.0
  9
$PUCSORGBOTTOM
 10
0.0
 20
0.0
 30
0.0
  9
$PUCSORGLEFT
 10
0.0
 20
0.0
 30
0.0
  9
$PUCSORGRIGHT
 10
0.0
 20
0.0
 30
0.0
  9
$PUCSORGFRONT
 10
0.0
 20
0.0
 30
0.0
  9
$PUCSORGBACK
 10
0.0
 20
0.0
 30
0.0
  9
$USERI1
 70
     0
  9
$USERI2
 70
     0
  9
$USERI3
 70
     0
  9
$USERI4
 70
     0
  9
$USERI5
 70
     0
  9
$USERR1
 40
0.0
  9
$USERR2
 40
0.0
  9
$USERR3
 40
0.0
  9
$USERR4
 40
0.0
  9
$USERR5
 40
0.0
  9
$WORLDVIEW
 70
     1
  9
$SHADEDGE
 70
     3
  9
$SHADEDIF
 70
    70
  9
$TILEMODE
 70
     1
  9
$MAXACTVP
 70
    48
  9
$PINSBASE
 10
0.0
 20
0.0
 30
0.0
  9
$PLIMCHECK
 70
     0
  9
$PEXTMIN
 10
1.000000000000000E+20
 20
1.000000000000000E+20
 30
1.000000000000000E+20
  9
$PEXTMAX
 10
-1.000000000000000E+20
 20
-1.000000000000000E+20
 30
-1.000000000000000E+20
  9
$PLIMMIN
 10
0.0
 20
0.0
  9
$PLIMMAX
 10
12.0
 20
9.0
  9
$UNITMODE
 70
     0
  9
$VISRETAIN
 70
     1
  9
$PLINEGEN
 70
     0
  9
$PSLTSCALE
 70
     1
  9
$TREEDEPTH
 70
  3020
  9
$CMLSTYLE
  2
STANDARD
  9
$CMLJUST
 70
     0
  9
$CMLSCALE
 40
1.0
  9
$PROXYGRAPHICS
 70
     1
  9
$MEASUREMENT
 70
     1
  9
$CELWEIGHT
370
    -1
  9
$ENDCAPS
280
     0
  9
$JOINSTYLE
280
     0
  9
$LWDISPLAY
290
     0
  9
$INSUNITS
 70
     4
  9
$HYPERLINKBASE
  1

  9
$STYLESHEET
  1

  9
$XEDIT
290
     1
  9
$CEPSNTYPE
380
     0
  9
$PSTYLEMODE
290
     1
  9
$FINGERPRINTGUID
  2
{6D8F94B8-148E-4531-BA00-C3C808D0B86B}
  9
$VERSIONGUID
  2
{038FD54D-8A81-407D-9489-F88A95CEF081}
  9
$EXTNAMES
290
     1
  9
$PSVPSCALE
 40
0.0
  9
$OLESTARTUP
290
     0
  0
ENDSEC
  0
SECTION
  2
CLASSES
  0
CLASS
  1
ACDBDICTIONARYWDFLT
  2
AcDbDictionaryWithDefault
  3
ObjectDBX Classes
 90
        0
280
     0
281
     0
  0
CLASS
  1
TABLESTYLE
  2
AcDbTableStyle
  3
ObjectDBX Classes
 90
     4095
280
     0
281
     0
  0
CLASS
  1
ACME_DOCUMENT
  2
AcMeDbDoc
  3
AcMeServices
 90
    33792
280
     0
281
     0
  0
CLASS
  1
AMGSETTINGSOBJ
  2
AmgSettingsObj
  3
"AcadM|Product Description: AutoCAD Mechanical|Company: Autodesk, Inc."
 90
     1024
280
     0
281
     0
  0
CLASS
  1
ACMESCOPE
  2
AcMeScope
  3
AcMeServices
 90
     1024
280
     0
281
     0
  0
CLASS
  1
ACMECOMMANDHISTORY
  2
AcMeCommandHistory
  3
AcMeServices
 90
    33792
280
     0
281
     0
  0
CLASS
  1
ACIMSYSVARMAN
  2
AcImSysVarManager
  3
AcMeServices
 90
     1024
280
     0
281
     0
  0
CLASS
  1
ACIMINTSYSVAR
  2
AcImIntSysVar
  3
AcMeServices
 90
     1024
280
     0
281
     0
  0
CLASS
  1
ACMEDRAWINGMAN
  2
AcMeDrawingMan
  3
AcMeServices
 90
    33792
280
     0
281
     0
  0
CLASS
  1
ACMEVIEW
  2
AcMeView
  3
AcMeServices
 90
    33792
280
     0
281
     0
  0
CLASS
  1
ACDBENTITYCACHE
  2
AcMeEntityCache
  3
AcMeServices
 90
    33792
280
     0
281
     0
  0
CLASS
  1
GSMANAGER
  2
AcMeGSManager
  3
AcMeServices
 90
    33792
280
     1
281
     0
  0
CLASS
  1
AMDTINTERNALREACTOR
  2
AmdtInternalReactor
  3
AcMeServices
 90
    33792
280
     0
281
     0
  0
CLASS
  1
ACMESTATEMGR
  2
AcMeStateMgr
  3
AcMeServices
 90
     1024
280
     0
281
     0
  0
CLASS
  1
ACGREFMASTER
  2
AcGrefMaster
  3
AcAttribServices
 90
     1024
280
     0
281
     0
  0
CLASS
  1
AM_DRAWING_MGR
  2
AcDmDwgMgr
  3
AcMechDwgViewMgmt
 90
    33792
280
     0
281
     0
  0
CLASS
  1
AM_DWG_DOCUMENT
  2
AcDmDwgDocument
  3
AcMechDwgViewMgmt
 90
    33792
280
     0
281
     0
  0
CLASS
  1
AM_DWG_SHEET
  2
AcDmSheet
  3
AcMechDwgViewMgmt
 90
    33792
280
     0
281
     0
  0
CLASS
  1
AM_VIEWDIMPARMAP
  2
AcDmViewDimParMap
  3
AcMechDwgViewMgmt
 90
    33792
280
     0
281
     0
  0
CLASS
  1
ACIMREALSYSVAR
  2
AcImRealSysVar
  3
AcMeServices
 90
    33792
280
     0
281
     0
  0
CLASS
  1
AM_DWGMGR_NAME
  2
AcDmDwgMgrName
  3
AcMechDwgViewMgmt
 90
    33792
280
     0
281
     0
  0
CLASS
  1
ACME_DATABASE
  2
AcMeDbDatabase
  3
AcMeServices
 90
    33792
280
     0
281
     0
  0
CLASS
  1
ACRFINSADJUSTERMGR
  2
AcRfInsAdjusterMgr
  3
AcMeServices
 90
    33792
280
     0
281
     0
  0
CLASS
  1
ACGREFACADMASTER
  2
AcGrefacadMaster
  3
AcGrefServices
 90
    33792
280
     0
281
     0
  0
CLASS
  1
AMDTMENUSTATEMGR
  2
AmdtMenuStateMgr
  3
McadcomServices
 90
    33792
280
     0
281
     0
  0
CLASS
  1
AMDTMCOMMENUSTATE
  2
AmdtMcomMenuState
  3
McadcomServices
 90
    33792
280
     0
281
     0
  0
CLASS
  1
AMIMASTER
  2
AmiMaster
  3
AmiServices
 90
    33792
280
     0
281
     0
  0
CLASS
  1
MAPIAMMOUDLE
  2
MApiAmModule
  3
MApiAmServices
 90
    33792
280
     0
281
     0
  0
CLASS
  1
ACIMSTRSYSVAR
  2
AcImStrSysVar
  3
AcMeServices
 90
     1024
280
     0
281
     0
  0
CLASS
  1
AMDTADMENUSTATE
  2
AmdtAdMenuState
  3
DesignerServices
 90
    33792
280
     1
281
     0
  0
CLASS
  1
ADAPPL
  2
AcAdAppl
  3
DesignerAssemblies
 90
    33792
280
     0
281
     0
  0
CLASS
  1
DEPMGR
  2
AcAdDepMgr
  3
DesignerAssemblies
 90
    33792
280
     0
281
     0
  0
CLASS
  1
PARAMMGR
  2
AcAdParamMgr
  3
DesignerAssemblies
 90
    33792
280
     0
281
     0
  0
CLASS
  1
PARAMSCOPE
  2
AcAdParamScope
  3
DesignerAssemblies
 90
    33792
280
     0
281
     0
  0
CLASS
  1
NAMEDAPPL
  2
AcAdNamedAppl
  3
DesignerAssemblies
 90
    33792
280
     0
281
     0
  0
CLASS
  1
AMDTDMMENUSTATE
  2
AmdtDmMenuState
  3
AcMechDwgViewMgmt
 90
    33792
280
     1
281
     0
  0
CLASS
  1
AMDTAMMENUSTATE
  2
AmdtAmMenuState
  3
DesignerAssemblies
 90
    33792
280
     0
281
     0
  0
CLASS
  1
ACAMPROJECT
  2
AcAmProject
  3
DesignerAssemblies
 90
    33792
280
     0
281
     0
  0
CLASS
  1
ACAMGRCOMPDEF
  2
AcAmGrCompDef
  3
DesignerAssemblies
 90
    33792
280
     0
281
     0
  0
CLASS
  1
ACCMCONTEXT
  2
AcCmContext
  3
DesignerAssemblies
 90
    33792
280
     0
281
     0
  0
CLASS
  1
ACAMCOMPDEF
  2
AcAmCompDef
  3
DesignerAssemblies
 90
    33792
280
     0
281
     0
  0
CLASS
  1
ACAMCOMPDEFMGR
  2
AcAmCompDefMgr
  3
DesignerAssemblies
 90
    33792
280
     0
281
     0
  0
CLASS
  1
AMCONTEXTMGR
  2
AcAmContextMgr
  3
DesignerAssemblies
 90
    33792
280
     0
281
     0
  0
CLASS
  1
ACAMCONTEXTMODELER
  2
AcAmContextModeler
  3
DesignerAssemblies
 90
    33792
280
     0
281
     0
  0
CLASS
  1
ACMDATADICTIONARY
  2
AcmDataDictionary
  3
"AcmSymBB|Product Description: AutoCAD Mechanical|Company: Autodesk, Inc."
 90
    33792
280
     0
281
     0
  0
CLASS
  1
CATALOGSTATE
  2
AcAmCatalogState
  3
DesignerAssemblies
 90
    33792
280
     0
281
     0
  0
CLASS
  1
ACAMGRCOMPDEFSET
  2
AcAmGrCompDefSet
  3
DesignerAssemblies
 90
    33792
280
     0
281
     0
  0
CLASS
  1
AMDTBROWSERDBTAB
  2
AmdtBrowserDbTab
  3
McadcomServices
 90
    33792
280
     0
281
     0
  0
CLASS
  1
CBROWSERAPPOBJECT
  2
CBrowserAppObject
  3
McadcomServices
 90
    33792
280
     0
281
     0
  0
CLASS
  1
DM_PLACEHOLDER
  2
AcDmSelsetPlaceholder
  3
McadcomServices
 90
    33792
280
     0
281
     0
  0
CLASS
  1
ACMSTANDARDANSI
  2
AcmStandardANSI
  3
"Amdt_StdImp|Product Description: AutoCAD Mechanical|Company: Autodesk, Inc."
 90
    33792
280
     0
281
     0
  0
CLASS
  1
AMGOBJPROPCFG
  2
AmgObjPropCfg
  3
"AmgLay|Product Description: AutoCAD Mechanical|Company: Autodesk, Inc."
 90
     1024
280
     0
281
     0
  0
CLASS
  1
ACMSURFSTANDARDANSI
  2
AcmSurfTextStdANSI
  3
"Amdt_StdImp|Product Description: AutoCAD Mechanical|Company: Autodesk, Inc."
 90
    33792
280
     0
281
     0
  0
CLASS
  1
ACMFCFSTANDARDANSI
  2
AcmFCFStdANSI
  3
"Amdt_StdImp|Product Description: AutoCAD Mechanical|Company: Autodesk, Inc."
 90
    33792
280
     0
281
     0
  0
CLASS
  1
ACMWELDSTANDARDANSI
  2
AcmWeldingStdANSI
  3
"Amdt_StdImp|Product Description: AutoCAD Mechanical|Company: Autodesk, Inc."
 90
    33792
280
     0
281
     0
  0
CLASS
  1
ACMIDSTANDARDANSI
  2
AcmIdStdANSI
  3
"Amdt_StdImp|Product Description: AutoCAD Mechanical|Company: Autodesk, Inc."
 90
    33792
280
     0
281
     0
  0
CLASS
  1
ACMDATUMSTANDARDANSI
  2
AcmDatumStdANSI
  3
"Amdt_StdImp|Product Description: AutoCAD Mechanical|Company: Autodesk, Inc."
 90
    33792
280
     0
281
     0
  0
CLASS
  1
ACMBOMSTANDARDANSI
  2
AcmBOMStdANSI
  3
"Amdt_StdImp|Product Description: AutoCAD Mechanical|Company: Autodesk, Inc."
 90
    33792
280
     0
281
     0
  0
CLASS
  1
ACMDETAILSTANDARDANSI
  2
AmdtDetailSymStdANSI
  3
"Amdt_StdImp|Product Description: AutoCAD Mechanical|Company: Autodesk, Inc."
 90
    33792
280
     0
281
     0
  0
CLASS
  1
ACMSECTIONSTANDARDANSI
  2
AmdtSectionSymStdANSI
  3
"Amdt_StdImp|Product Description: AutoCAD Mechanical|Company: Autodesk, Inc."
 90
    33792
280
     0
281
     0
  0
CLASS
  1
ACMCENTERLINESTANDARDANSI
  2
AmdtCenterLineStdANSI
  3
"Amdt_StdImp|Product Description: AutoCAD Mechanical|Company: Autodesk, Inc."
 90
    33792
280
     0
281
     0
  0
CLASS
  1
ACMTHREADLINESTANDARDANSI
  2
AmdtThreadLineStdANSI
  3
"Amdt_StdImp|Product Description: AutoCAD Mechanical|Company: Autodesk, Inc."
 90
    33792
280
     0
281
     0
  0
CLASS
  1
ACMNOTESTANDARDANSI
  2
AmdtNoteStdANSI
  3
"Amdt_StdImp|Product Description: AutoCAD Mechanical|Company: Autodesk, Inc."
 90
    33792
280
     0
281
     0
  0
CLASS
  1
AMDTNOTETEMPLATEDB
  2
AmdtNoteTemplateDB
  3
AcmSymBB|Product Description: AutoCAD Mechanical|Company: Autodesk, Inc.
 90
     1024
280
     0
281
     0
  0
CLASS
  1
ACAMGLAYSTD
  2
AcAmgLayStd
  3
"AmgLay|Product Description: AutoCAD Mechanical|Company: Autodesk, Inc."
 90
     1024
280
     0
281
     0
  0
CLASS
  1
ACAMGDIMSTD
  2
AcAmgDimStd
  3
"AmgDim|Product Description: AutoCAD Mechanical|Company: Autodesk, Inc."
 90
     1024
280
     0
281
     0
  0
CLASS
  1
ACAMGHOLECHARTSTDANSI
  2
AcAmgHoleChartStdANSI
  3
AmgDim|Product Description: AutoCAD Mechanical|Company: Autodesk, Inc.
 90
    33792
280
     0
281
     0
  0
CLASS
  1
ACAMGTITLESTD
  2
AcAmgTitleStd
  3
"AmgTitle|Product Description: AutoCAD Mechanical|Company: Autodesk, Inc."
 90
     1024
280
     0
281
     0
  0
CLASS
  1
ACAMGFILTERDAT
  2
AcAmgFilterDat
  3
"AcadM|Product Description: AutoCAD Mechanical|Company: Autodesk, Inc."
 90
    33792
280
     0
281
     0
  0
CLASS
  1
PLOTSETTINGS
  2
AcDbPlotSettings
  3
ObjectDBX Classes
 90
    32768
280
     0
281
     0
  0
CLASS
  1
ACMSTANDARDDIN
  2
AcmStandardDIN
  3
"Amdt_StdImp|Product Description: AutoCAD Mechanical|Company: Autodesk, Inc."
 90
     1024
280
     0
281
     0
  0
CLASS
  1
AMDTEDGESTANDARDDIN
  2
AmdtEdgeStdDIN
  3
"Amdt_StdImp|Product Description: AutoCAD Mechanical|Company: Autodesk, Inc."
 90
    33792
280
     0
281
     0
  0
CLASS
  1
ACMSURFSTANDARDDIN
  2
AcmSurfTextStdDIN
  3
"Amdt_StdImp|Product Description: AutoCAD Mechanical|Company: Autodesk, Inc."
 90
    33792
280
     0
281
     0
  0
CLASS
  1
ACMFCFSTANDARDDIN
  2
AcmFCFStdDIN
  3
"Amdt_StdImp|Product Description: AutoCAD Mechanical|Company: Autodesk, Inc."
 90
    33792
280
     0
281
     0
  0
CLASS
  1
ACMWELDSTANDARDDIN
  2
AcmWeldingStdDIN
  3
"Amdt_StdImp|Product Description: AutoCAD Mechanical|Company: Autodesk, Inc."
 90
     1024
280
     0
281
     0
  0
CLASS
  1
ACMIDSTANDARDDIN
  2
AcmIdStdDIN
  3
"Amdt_StdImp|Product Description: AutoCAD Mechanical|Company: Autodesk, Inc."
 90
    33792
280
     0
281
     0
  0
CLASS
  1
ACMDATUMSTANDARDDIN
  2
AcmDatumStdDIN
  3
"Amdt_StdImp|Product Description: AutoCAD Mechanical|Company: Autodesk, Inc."
 90
     1024
280
     0
281
     0
  0
CLASS
  1
ACMBOMSTANDARDDIN
  2
AcmBOMStdDIN
  3
"Amdt_StdImp|Product Description: AutoCAD Mechanical|Company: Autodesk, Inc."
 90
     1024
280
     0
281
     0
  0
CLASS
  1
ACMDETAILSTANDARDDIN
  2
AmdtDetailSymStdDIN
  3
"Amdt_StdImp|Product Description: AutoCAD Mechanical|Company: Autodesk, Inc."
 90
     1024
280
     0
281
     0
  0
CLASS
  1
ACMSECTIONSTANDARDDIN
  2
AmdtSectionSymStdDIN
  3
"Amdt_StdImp|Product Description: AutoCAD Mechanical|Company: Autodesk, Inc."
 90
     1024
280
     0
281
     0
  0
CLASS
  1
ACMCENTERLINESTANDARDDIN
  2
AmdtCenterLineStdDIN
  3
"Amdt_StdImp|Product Description: AutoCAD Mechanical|Company: Autodesk, Inc."
 90
     1024
280
     0
281
     0
  0
CLASS
  1
ACMNOTESTANDARDDIN
  2
AmdtNoteStdDIN
  3
"Amdt_StdImp|Product Description: AutoCAD Mechanical|Company: Autodesk, Inc."
 90
     1024
280
     0
281
     0
  0
CLASS
  1
ACAMGHOLECHARTSTDDIN
  2
AcAmgHoleChartStdDIN
  3
AmgDim|Product Description: AutoCAD Mechanical|Company: Autodesk, Inc.
 90
     1024
280
     0
281
     0
  0
CLASS
  1
ACMTHREADLINESTANDARDDIN
  2
AmdtThreadLineStdDIN
  3
"Amdt_StdImp|Product Description: AutoCAD Mechanical|Company: Autodesk, Inc."
 90
     1024
280
     0
281
     0
  0
CLASS
  1
ACMDATAENTRYBLOCK
  2
AcmDataEntryBlock
  3
AcmSymBB|Product Description: AutoCAD Mechanical|Company: Autodesk, Inc.
 90
    33792
280
     0
281
     0
  0
CLASS
  1
DICTIONARYVAR
  2
AcDbDictionaryVar
  3
ObjectDBX Classes
 90
        0
280
     0
281
     0
  0
CLASS
  1
SORTENTSTABLE
  2
AcDbSortentsTable
  3
ObjectDBX Classes
 90
        0
280
     0
281
     0
  0
CLASS
  1
MATERIAL
  2
AcDbMaterial
  3
ObjectDBX Classes
 90
     1153
280
     0
281
     0
  0
CLASS
  1
VISUALSTYLE
  2
AcDbVisualStyle
  3
ObjectDBX Classes
 90
     4095
280
     0
281
     0
  0
CLASS
  1
SCALE
  2
AcDbScale
  3
ObjectDBX Classes
 90
     1153
280
     0
281
     0
  0
CLASS
  1
MLEADERSTYLE
  2
AcDbMLeaderStyle
  3
ACDB_MLEADERSTYLE_CLASS
 90
    36863
280
     0
281
     0
  0
CLASS
  1
ACMTAPERSTANDARDANSI
  2
AcmTaperStdANSI
  3
"Amdt_StdImp|Product Description: AutoCAD Mechanical|Company: Autodesk, Inc."
 90
    33792
280
     0
281
     0
  0
CLASS
  1
ACMANOOTATIONVIEWSTANDARDANSI
  2
AmdtAnViewStdANSI
  3
"Amdt_StdImp|Product Description: AutoCAD Mechanical|Company: Autodesk, Inc."
 90
    33792
280
     0
281
     0
  0
CLASS
  1
ACMTAPERSTANDARDDIN
  2
AcmTaperStdDIN
  3
"Amdt_StdImp|Product Description: AutoCAD Mechanical|Company: Autodesk, Inc."
 90
     1024
280
     0
281
     0
  0
CLASS
  1
ACMANOOTATIONVIEWSTANDARDDIN
  2
AmdtAnViewStdDIN
  3
"Amdt_StdImp|Product Description: AutoCAD Mechanical|Company: Autodesk, Inc."
 90
     1024
280
     0
281
     0
  0
CLASS
  1
ACRFATTGENMGR
  2
AcRfAttGeneralMgr
  3
AcAttribServices
 90
    33792
280
     0
281
     0
  0
CLASS
  1
ACRFMCADAPIATTHOLDER
  2
AcRfMCADAPIAttHolder
  3
AcAttribServices
 90
    33792
280
     0
281
     0
  0
CLASS
  1
AMDTSYSATTR
  2
AmdtSystemAttribute
  3
AcAttribServices
 90
    33792
280
     0
281
     0
  0
CLASS
  1
CAMSSTRUCTBTNSTATE
  2
StructBtnState
  3
DesignerAssemblies
 90
    33792
280
     0
281
     0
  0
CLASS
  1
CELLSTYLEMAP
  2
AcDbCellStyleMap
  3
ObjectDBX Classes
 90
     1152
280
     0
281
     0
  0
CLASS
  1
AEC_REFEDIT_STATUS_TRACKER
  2
AecDbRefEditStatusTracker
  3
AecArchBase70|Product Desc: Autodesk Architectural Desktop 2007 |Company: Autodesk,Inc. |WEB Address: www.autodesk.com
 90
    32897
280
     1
281
     0
  0
CLASS
  1
NPOCOLLECTION
  2
AcDbImpNonPersistentObjectsCollection
  3
ObjectDBX Classes
 90
    33921
280
     0
281
     0
  0
CLASS
  1
ACDBLINERES
  2
AcDbLineRes
  3
AcGrefServices
 90
    33792
280
     0
281
     0
  0
CLASS
  1
AMDTNOTE
  2
AmdtNote
  3
"AcmSymBB|Product Description: AutoCAD Mechanical|Company: Autodesk, Inc."
 90
    33792
280
     0
281
     1
  0
CLASS
  1
AMDTFORMULAUPDATEDISPATCHER
  2
AmdtFormulaUpdateDispatcher
  3
AcMeServices
 90
    33792
280
     0
281
     0
  0
CLASS
  1
AMDTEDGESTANDARDDIN13715
  2
AmdtEdgeStdDIN13715
  3
"Amdt_StdImp|Product Description: AutoCAD Mechanical|Company: Autodesk, Inc."
 90
     1024
280
     0
281
     0
  0
CLASS
  1
ACMSURFSTANDARDDIN2002
  2
AcmSurfTextStdDIN2002
  3
"Amdt_StdImp|Product Description: AutoCAD Mechanical|Company: Autodesk, Inc."
 90
     1024
280
     0
281
     0
  0
CLASS
  1
ACDBSECTIONVIEWSTYLE
  2
AcDbSectionViewStyle
  3
ObjectDBX Classes
 90
     1025
280
     0
281
     0
  0
CLASS
  1
ACDBDETAILVIEWSTYLE
  2
AcDbDetailViewStyle
  3
ObjectDBX Classes
 90
     1025
280
     0
281
     0
  0
CLASS
  1
ACMFCFSTANDARDDIN2008
  2
AcmFCFStdDIN2008
  3
"Amdt_StdImp|Product Description: AutoCAD Mechanical|Company: Autodesk, Inc."
 90
     1024
280
     0
281
     0
  0
CLASS
  1
ACMIDSTANDARDDIN2008
  2
AcmIdStdDIN2008
  3
"Amdt_StdImp|Product Description: AutoCAD Mechanical|Company: Autodesk, Inc."
 90
     1024
280
     0
281
     0
  0
CLASS
  1
ACMSECTIONSTANDARDCUSTOM
  2
AmdtSectionSymStdCustom
  3
"Amdt_StdImp|Product Description: AutoCAD Mechanical|Company: Autodesk, Inc."
 90
     1024
280
     0
281
     0
  0
CLASS
  1
ACMDETAILTANDARDCUSTOM
  2
AmdtDetailSymStdCustom
  3
"Amdt_StdImp|Product Description: AutoCAD Mechanical|Company: Autodesk, Inc."
 90
     1024
280
     0
281
     0
  0
CLASS
  1
FIELD
  2
AcDbField
  3
ObjectDBX Classes
 90
     1152
280
     0
281
     0
  0
CLASS
  1
FIELDLIST
  2
AcDbFieldList
  3
ObjectDBX Classes
 90
     1152
280
     0
281
     0
  0
CLASS
  1
ACDBPLACEHOLDER
  2
AcDbPlaceHolder
  3
ObjectDBX Classes
 90
        0
280
     0
281
     0
  0
CLASS
  1
LAYOUT
  2
AcDbLayout
  3
ObjectDBX Classes
 90
        0
280
     0
281
     0
  0
ENDSEC
  0
SECTION
  2
TABLES
  0
TABLE
  2
VPORT
  5
2D
330
0
100
AcDbSymbolTable
 70
     1
  0
VPORT
  5
2E
330
2D
100
AcDbSymbolTableRecord
100
AcDbViewportTableRecord
  2
*Active
 70
     0
 10
0.0
 20
0.0
 11
1.0
 21
1.0
 12
121.5890362199578
 22
181.9886312899613
 13
0.0
 23
0.0
 14
10.0
 24
10.0
 15
10.0
 25
10.0
 16
0.0
 26
0.0
 36
1.0
 17
0.0
 27
0.0
 37
0.0
 40
293.3585626997236
 41
2.033022861981371
 42
50.0
 43
0.0
 44
0.0
 50
0.0
 51
0.0
 71
     0
 72
  5000
 73
     1
 74
     0
 75
     0
 76
     0
 77
     0
 78
     0
281
     0
 65
     1
110
0.0
120
0.0
130
0.0
111
1.0
121
0.0
131
0.0
112
0.0
122
1.0
132
0.0
 79
     0
146
0.0
1001
ACAD_NAV_VCDISPLAY
1070
     3
  0
ENDTAB
  0
TABLE
  2
LTYPE
  5
28
330
0
100
AcDbSymbolTable
 70
    14
  0
LTYPE
  5
29
330
28
100
AcDbSymbolTableRecord
100
AcDbLinetypeTableRecord
  2
BYBLOCK
 70
     0
  3

 72
    65
 73
     0
 40
0.0
  0
LTYPE
  5
2A
330
28
100
AcDbSymbolTableRecord
100
AcDbLinetypeTableRecord
  2
BYLAYER
 70
     0
  3

 72
    65
 73
     0
 40
0.0
  0
LTYPE
  5
15
330
28
100
AcDbSymbolTableRecord
100
AcDbLinetypeTableRecord
  2
CONTINUOUS
 70
     0
  3
Solid line
 72
    65
 73
     0
 40
0.0
  0
LTYPE
  5
C9
330
28
100
AcDbSymbolTableRecord
100
AcDbLinetypeTableRecord
  2
STRICHPUNKT2
 70
     0
  3
Strichpunkt (.5x) _._._._._._._._._._._._._._._
 72
    65
 73
     4
 40
12.7
 49
6.349999999999999
 74
     0
 49
-3.174999999999999
 74
     0
 49
0.0
 74
     0
 49
-3.174999999999999
 74
     0
  0
LTYPE
  5
206
330
28
100
AcDbSymbolTableRecord
100
AcDbLinetypeTableRecord
  2
ACDINWELD
 70
     0
  3
_ _ _ _ _
 72
    65
 73
     2
 40
2.0
 49
2.0
 74
     0
 49
-1.0
 74
     0
  0
LTYPE
  5
20A
330
28
100
AcDbSymbolTableRecord
100
AcDbLinetypeTableRecord
  2
ACDINTGB
 70
     0
  3
__ . . __ . .
 72
    65
 73
     6
 40
9.0
 49
4.0
 74
     0
 49
-1.0
 74
     0
 49
1.0
 74
     0
 49
-1.0
 74
     0
 49
1.0
 74
     0
 49
-1.0
 74
     0
  0
LTYPE
  5
208
330
28
100
AcDbSymbolTableRecord
100
AcDbLinetypeTableRecord
  2
ACDINTGL
 70
     0
  3
_ _ _ _ _
 72
    65
 73
     2
 40
3.0
 49
2.0
 74
     0
 49
-1.0
 74
     0
  0
LTYPE
  5
CE
330
28
100
AcDbSymbolTableRecord
100
AcDbLinetypeTableRecord
  2
DASHED
 70
     0
  3
Dashed __ __ __ __ __ __ __ __ __ __ __ __ __ _
 72
    65
 73
     2
 40
19.05
 49
12.7
 74
     0
 49
-6.349999999999999
 74
     0
  0
LTYPE
  5
11C
330
28
100
AcDbSymbolTableRecord
100
AcDbLinetypeTableRecord
  2
VERDECKT
 70
     0
  3
Verdeckt __ __ __ __ __ __ __ __ __ __ __ __ __
 72
    65
 73
     2
 40
9.524999999999998
 49
6.349999999999999
 74
     0
 49
-3.174999999999999
 74
     0
  0
LTYPE
  5
1F2
330
28
100
AcDbSymbolTableRecord
100
AcDbLinetypeTableRecord
  2
Amconstr
 70
     0
  3
_______________________
 72
    65
 73
     2
 40
9999.0
 49
9999.0
 74
     0
 49
0.0
 74
     0
  0
LTYPE
  5
1F5
330
28
100
AcDbSymbolTableRecord
100
AcDbLinetypeTableRecord
  2
Amzigzag
 70
     0
  3
/\/-/\/-/\/-/\/-/\/-/\/
 72
    65
 73
     2
 40
11.0001
 49
0.0001
 74
     4
 75
   135
340
1F6
 46
0.04
 50
0.0
 44
0.0
 45
0.0
 49
-11.0
 74
     0
  0
LTYPE
  5
1EF
330
28
100
AcDbSymbolTableRecord
100
AcDbLinetypeTableRecord
  2
AM_DIN_F_W050
 70
     0
  3
__ __ __ __ __ __ __ __ __ __ __ __ __ __ __
 72
    65
 73
     2
 40
6.25
 49
4.75
 74
     0
 49
-1.5
 74
     0
  0
LTYPE
  5
1F0
330
28
100
AcDbSymbolTableRecord
100
AcDbLinetypeTableRecord
  2
AM_DIN_G_W050
 70
     0
  3
____ . ____ . ____ . ____ . ____ . ____ . ____
 72
    65
 73
     4
 40
13.75
 49
9.75
 74
     0
 49
-1.5
 74
     0
 49
1.0
 74
     0
 49
-1.5
 74
     0
  0
LTYPE
  5
1F1
330
28
100
AcDbSymbolTableRecord
100
AcDbLinetypeTableRecord
  2
AM_DIN_K_W050
 70
     0
  3
_____ . . _____ . . _____ . . ____ .. ____
 72
    65
 73
     6
 40
16.25
 49
9.75
 74
     0
 49
-1.5
 74
     0
 49
1.0
 74
     0
 49
-1.5
 74
     0
 49
1.0
 74
     0
 49
-1.5
 74
     0
  0
LTYPE
  5
1F3
330
28
100
AcDbSymbolTableRecord
100
AcDbLinetypeTableRecord
  2
AM_DIN_G_W050x2
 70
     0
  3
__ . __ . __ . __ . __ . __
 72
    65
 73
     4
 40
6.875
 49
4.75
 74
     0
 49
-0.875
 74
     0
 49
0.375
 74
     0
 49
-0.875
 74
     0
  0
LTYPE
  5
1F4
330
28
100
AcDbSymbolTableRecord
100
AcDbLinetypeTableRecord
  2
AM_DIN_F_W050x2
 70
     0
  3
 _ _ _ _ _ _ _ _ _ _ _ _
 72
    65
 73
     2
 40
3.125
 49
2.25
 74
     0
 49
-0.875
 74
     0
  0
ENDTAB
  0
TABLE
  2
LAYER
  5
1F
102
{ACAD_XDICTIONARY
360
20
102
}
330
0
100
AcDbSymbolTable
 70
     8
  0
LAYER
  5
6
102
{ACAD_XDICTIONARY
360
7
102
}
330
1F
100
AcDbSymbolTableRecord
100
AcDbLayerTableRecord
  2
0
 70
     0
 62
     7
  6
CONTINUOUS
370
    -3
390
9
  0
LAYER
  5
53
102
{ACAD_XDICTIONARY
360
54
102
}
330
1F
100
AcDbSymbolTableRecord
100
AcDbLayerTableRecord
  2
UMRISS05
 70
     0
 62
     4
  6
CONTINUOUS
370
    -3
390
9
  0
LAYER
  5
113
102
{ACAD_XDICTIONARY
360
114
102
}
330
1F
100
AcDbSymbolTableRecord
100
AcDbLayerTableRecord
  2
BEMASSUNG
 70
     0
 62
     2
  6
CONTINUOUS
370
    -3
390
9
  0
LAYER
  5
C6
102
{ACAD_XDICTIONARY
360
C7
102
}
330
1F
100
AcDbSymbolTableRecord
100
AcDbLayerTableRecord
  2
ACHSEN
 70
     0
 62
     1
  6
STRICHPUNKT2
370
    -3
390
9
  0
LAYER
  5
7A
330
1F
100
AcDbSymbolTableRecord
100
AcDbLayerTableRecord
  2
DEFPOINTS
 70
     0
 62
     7
  6
CONTINUOUS
290
     0
370
    -3
390
9
  0
LAYER
  5
119
102
{ACAD_XDICTIONARY
360
11A
102
}
330
1F
100
AcDbSymbolTableRecord
100
AcDbLayerTableRecord
  2
AVERDECKTE
 70
     0
 62
    13
  6
VERDECKT
370
    -3
390
9
  0
LAYER
  5
CD
330
1F
100
AcDbSymbolTableRecord
100
AcDbLayerTableRecord
  2
Verdeckte Kanten(MSL)
 70
     0
 62
    11
  6
DASHED
370
    35
390
9
  0
LAYER
  5
6D
330
1F
100
AcDbSymbolTableRecord
100
AcDbLayerTableRecord
  2
AM_5
 70
     0
 62
     3
  6
CONTINUOUS
370
    25
390
9
1001
AcAecLayerStandard
1000

1000

  0
ENDTAB
  0
TABLE
  2
STYLE
  5
25
330
0
100
AcDbSymbolTable
 70
     5
  0
STYLE
  5
26
330
25
100
AcDbSymbolTableRecord
100
AcDbTextStyleTableRecord
  2
STANDARD
 70
     0
 40
0.0
 41
1.0
 50
0.0
 71
     0
 42
10.0
  3
txt
  4

  0
STYLE
  5
3A
330
25
100
AcDbSymbolTableRecord
100
AcDbTextStyleTableRecord
  2
NORM
 70
     0
 40
0.0
 41
0.8
 50
0.0
 71
     0
 42
2.399999999999999
  3
SIMPLEX.shx
  4

  0
STYLE
  5
204
330
25
100
AcDbSymbolTableRecord
100
AcDbTextStyleTableRecord
  2
ACDINGDT
 70
     0
 40
0.0
 41
1.0
 50
0.0
 71
     0
 42
2.5
  3
amgdt.shx
  4

  0
STYLE
  5
35
330
25
100
AcDbSymbolTableRecord
100
AcDbTextStyleTableRecord
  2
ARIAL-STANDARD
 70
     0
 40
0.0
 41
1.0
 50
0.0
 71
     0
 42
3.5
  3
arial.ttf
  4

1001
ACAD
1000
Arial
1071
       34
  0
STYLE
  5
1F6
330
25
100
AcDbSymbolTableRecord
100
AcDbTextStyleTableRecord
  2

 70
     1
 40
0.0
 41
1.0
 50
0.0
 71
     0
 42
2.5
  3
ltypeshp.shx
  4

  0
ENDTAB
  0
TABLE
  2
VIEW
  5
2B
330
0
100
AcDbSymbolTable
 70
     0
  0
ENDTAB
  0
TABLE
  2
UCS
  5
2C
330
0
100
AcDbSymbolTable
 70
     0
  0
ENDTAB
  0
TABLE
  2
APPID
  5
32
330
0
100
AcDbSymbolTable
 70
    13
  0
APPID
  5
24
330
32
100
AcDbSymbolTableRecord
100
AcDbRegAppTableRecord
  2
ACAD
 70
     0
  0
APPID
  5
235
330
32
100
AcDbSymbolTableRecord
100
AcDbRegAppTableRecord
  2
ACAD_DSTYLE_DIMJOGGED_JOGANGLE_SYMBOL
 70
     0
  0
APPID
  5
37
330
32
100
AcDbSymbolTableRecord
100
AcDbRegAppTableRecord
  2
ACAD_DSTYLE_DIMJAG
 70
     0
  0
APPID
  5
36
330
32
100
AcDbSymbolTableRecord
100
AcDbRegAppTableRecord
  2
ACAD_DSTYLE_DIMBREAK
 70
     0
  0
APPID
  5
38
330
32
100
AcDbSymbolTableRecord
100
AcDbRegAppTableRecord
  2
ACAD_DSTYLE_DIMTALN
 70
     0
  0
APPID
  5
1A
330
32
100
AcDbSymbolTableRecord
100
AcDbRegAppTableRecord
  2
ACAD_PSEXT
 70
     0
  0
APPID
  5
7F
330
32
100
AcDbSymbolTableRecord
100
AcDbRegAppTableRecord
  2
ACAD_DSTYLE_DIMINSPECT
 70
     0
  0
APPID
  5
6E
330
32
100
AcDbSymbolTableRecord
100
AcDbRegAppTableRecord
  2
AcAecLayerStandard
 70
     0
  0
APPID
  5
31
330
32
100
AcDbSymbolTableRecord
100
AcDbRegAppTableRecord
  2
ACAD_NAV_VCDISPLAY
 70
     0
  0
APPID
  5
243
330
32
100
AcDbSymbolTableRecord
100
AcDbRegAppTableRecord
  2
ACATTRIBSERVICES
 70
     0
  0
APPID
  5
26E
330
32
100
AcDbSymbolTableRecord
100
AcDbRegAppTableRecord
  2
ACAD_DSTYLE_DIM_LINETYPE
 70
     0
  0
APPID
  5
26F
330
32
100
AcDbSymbolTableRecord
100
AcDbRegAppTableRecord
  2
ACAD_DSTYLE_DIM_EXT1_LINETYPE
 70
     0
  0
APPID
  5
270
330
32
100
AcDbSymbolTableRecord
100
AcDbRegAppTableRecord
  2
ACAD_DSTYLE_DIM_EXT2_LINETYPE
 70
     0
  0
ENDTAB
  0
TABLE
  2
DIMSTYLE
  5
33
330
0
100
AcDbSymbolTable
 70
    10
100
AcDbDimStyleTable
 71
     2
340
34
340
39
  0
DIMSTYLE
105
39
330
33
100
AcDbSymbolTableRecord
100
AcDbDimStyleTableRecord
  2
PROSPEKT
 70
     0
 40
1.5
 41
3.5
 42
0.5
 43
8.0
 44
1.3
 73
     0
 74
     0
 77
     1
 78
     8
140
3.5
141
1.5
143
25.39999999999999
146
0.5
147
1.0
172
     1
174
     1
176
     2
177
     2
178
     3
271
     2
272
     2
279
     2
284
     8
285
     8
286
     8
340
3A
  0
DIMSTYLE
105
234
102
{ACAD_REACTORS
330
200
102
}
330
33
100
AcDbSymbolTableRecord
100
AcDbDimStyleTableRecord
  2
AM_DIN
 70
     0
  4
"
 41
3.5
 42
1.0
 43
10.0
 44
1.0
 47
0.1
 48
0.1
 73
     0
 74
     0
 77
     1
 78
     8
 79
     2
140
3.5
141
0.0
143
0.0393701
146
0.71
147
1.5
172
     1
176
   256
177
   256
178
     2
271
     2
272
     3
274
     4
283
     0
284
     8
340
26
371
    -1
372
    -1
1001
ACAD_DSTYLE_DIMJOGGED_JOGANGLE_SYMBOL
1070
   384
1040
1.570796326794896
1001
ACAD_DSTYLE_DIM_LINETYPE
1070
   380
1005
29
1001
ACAD_DSTYLE_DIM_EXT1_LINETYPE
1070
   381
1005
29
1001
ACAD_DSTYLE_DIM_EXT2_LINETYPE
1070
   382
1005
29
  0
DIMSTYLE
105
236
330
33
100
AcDbSymbolTableRecord
100
AcDbDimStyleTableRecord
  2
AM_DIN$3
 70
     0
  4
"
 41
3.5
 42
1.0
 43
10.0
 44
1.0
 47
0.1
 48
0.1
 73
     0
 77
     1
 78
     8
 79
     2
140
3.5
141
0.0
143
0.0393701
146
0.71
147
1.5
176
   256
177
   256
178
     2
271
     2
272
     3
274
     4
283
     0
284
     8
288
     1
289
     0
340
26
371
    -1
372
    -1
1001
ACAD_DSTYLE_DIMJOGGED_JOGANGLE_SYMBOL
1070
   384
1040
1.570796326794896
1001
ACAD_DSTYLE_DIM_LINETYPE
1070
   380
1005
29
1001
ACAD_DSTYLE_DIM_EXT1_LINETYPE
1070
   381
1005
29
1001
ACAD_DSTYLE_DIM_EXT2_LINETYPE
1070
   382
1005
29
  0
DIMSTYLE
105
237
330
33
100
AcDbSymbolTableRecord
100
AcDbDimStyleTableRecord
  2
AM_DIN$4
 70
     0
  4
"
 41
3.5
 42
1.0
 43
10.0
 44
1.0
 47
0.1
 48
0.1
 73
     0
 74
     0
 77
     1
 78
     8
 79
     2
140
3.5
141
0.0
143
0.0393701
146
0.71
147
1.5
172
     1
176
   256
177
   256
178
     2
271
     2
272
     3
274
     4
283
     0
284
     8
340
26
371
    -1
372
    -1
1001
ACAD_DSTYLE_DIMJOGGED_JOGANGLE_SYMBOL
1070
   384
1040
1.570796326794896
1001
ACAD_DSTYLE_DIM_LINETYPE
1070
   380
1005
29
1001
ACAD_DSTYLE_DIM_EXT1_LINETYPE
1070
   381
1005
29
1001
ACAD_DSTYLE_DIM_EXT2_LINETYPE
1070
   382
1005
29
  0
DIMSTYLE
105
238
330
33
100
AcDbSymbolTableRecord
100
AcDbDimStyleTableRecord
  2
AM_DIN$6
 70
     0
  4
"
 41
3.5
 42
1.0
 43
10.0
 44
1.0
 47
0.1
 48
0.1
 73
     0
 74
     0
 78
     8
 79
     2
140
3.5
141
0.0
143
0.0393701
146
0.71
147
1.5
172
     1
176
   256
177
   256
178
     2
271
     2
272
     3
274
     4
283
     0
284
     8
340
26
371
    -1
372
    -1
1001
ACAD_DSTYLE_DIMJOGGED_JOGANGLE_SYMBOL
1070
   384
1040
1.570796326794896
1001
ACAD_DSTYLE_DIM_LINETYPE
1070
   380
1005
29
1001
ACAD_DSTYLE_DIM_EXT1_LINETYPE
1070
   381
1005
29
1001
ACAD_DSTYLE_DIM_EXT2_LINETYPE
1070
   382
1005
29
  0
DIMSTYLE
105
239
330
33
100
AcDbSymbolTableRecord
100
AcDbDimStyleTableRecord
  2
AM_DIN$7
 70
     0
  4
"
 41
3.5
 42
1.0
 43
10.0
 44
1.0
 47
0.1
 48
0.1
 73
     0
 74
     0
 77
     1
 78
     8
 79
     2
140
3.5
141
0.0
143
0.0393701
146
0.71
147
1.5
172
     1
176
   256
177
   256
178
     2
271
     2
272
     3
274
     4
283
     0
284
     8
340
26
371
    -1
372
    -1
1001
ACAD_DSTYLE_DIMJOGGED_JOGANGLE_SYMBOL
1070
   384
1040
1.570796326794896
1001
ACAD_DSTYLE_DIM_LINETYPE
1070
   380
1005
29
1001
ACAD_DSTYLE_DIM_EXT1_LINETYPE
1070
   381
1005
29
1001
ACAD_DSTYLE_DIM_EXT2_LINETYPE
1070
   382
1005
29
  0
DIMSTYLE
105
23A
330
33
100
AcDbSymbolTableRecord
100
AcDbDimStyleTableRecord
  2
AM_DIN$SF
 70
     0
  4
"
 41
3.5
 42
1.0
 43
10.0
 44
1.0
 47
0.1
 48
0.1
 73
     0
 74
     0
 75
     1
 76
     1
 77
     1
 78
     8
 79
     2
140
3.5
141
0.0
143
0.0393701
146
0.71
147
1.5
172
     1
176
   256
177
   256
178
     2
271
     2
272
     3
274
     4
283
     0
284
     8
340
26
371
    -1
372
    -1
1001
ACAD_DSTYLE_DIMJOGGED_JOGANGLE_SYMBOL
1070
   384
1040
1.570796326794896
1001
ACAD_DSTYLE_DIM_LINETYPE
1070
   380
1005
29
1001
ACAD_DSTYLE_DIM_EXT1_LINETYPE
1070
   381
1005
29
1001
ACAD_DSTYLE_DIM_EXT2_LINETYPE
1070
   382
1005
29
  0
DIMSTYLE
105
23B
330
33
100
AcDbSymbolTableRecord
100
AcDbDimStyleTableRecord
  2
AM_DIN$SH
 70
     0
  4
"
 41
3.5
 42
1.0
 43
10.0
 44
1.0
 47
0.1
 48
0.1
 73
     0
 74
     0
 75
     1
 76
     1
 77
     1
 78
     8
 79
     2
140
3.5
141
0.0
143
0.0393701
144
2.0
146
0.71
147
1.5
172
     1
173
     1
176
   256
177
   256
178
     2
271
     2
272
     3
274
     4
283
     0
284
     8
340
26
343
23C
371
    -1
372
    -1
1001
ACAD_DSTYLE_DIMJOGGED_JOGANGLE_SYMBOL
1070
   384
1040
1.570796326794896
1001
ACAD_DSTYLE_DIM_LINETYPE
1070
   380
1005
29
1001
ACAD_DSTYLE_DIM_EXT1_LINETYPE
1070
   381
1005
29
1001
ACAD_DSTYLE_DIM_EXT2_LINETYPE
1070
   382
1005
29
  0
DIMSTYLE
105
34
102
{ACAD_REACTORS
330
198
330
18B
330
17E
330
171
330
164
330
14B
330
12F
330
13E
330
120
330
103
330
F4
330
E5
330
D8
330
B2
102
}
330
33
100
AcDbSymbolTableRecord
100
AcDbDimStyleTableRecord
  2
Katalog 09
 70
     0
 41
4.0
 42
0.0
 43
8.0
 44
1.0
 73
     0
 74
     0
 77
     1
 78
     8
140
4.349999999999999
141
1.5
143
25.39999999999999
146
0.4285714285714286
147
1.0
172
     1
174
     1
176
     2
177
     2
178
     3
271
     2
272
     2
284
     8
285
     8
286
     8
340
35
1001
ACAD_DSTYLE_DIMBREAK
1070
   391
1040
3.75
1001
ACAD_DSTYLE_DIMJAG
1070
   388
1040
1.5
1001
ACAD_DSTYLE_DIMTALN
1070
   392
1070
     0
  0
DIMSTYLE
105
7E
102
{ACAD_REACTORS
330
6C
102
}
330
33
100
AcDbSymbolTableRecord
100
AcDbDimStyleTableRecord
  2
Katalog 09$0
 70
     0
 41
4.0
 42
0.0
 43
8.0
 44
1.0
 73
     0
 74
     0
 77
     1
 78
     8
140
4.349999999999999
141
1.5
143
25.39999999999999
146
0.4285714285714286
147
1.0
172
     1
174
     1
176
     2
177
     2
178
     3
271
     2
272
     2
284
     8
285
     8
286
     8
340
35
1001
ACAD_DSTYLE_DIMBREAK
1070
   391
1040
3.75
1001
ACAD_DSTYLE_DIMJAG
1070
   388
1040
1.5
  0
ENDTAB
  0
TABLE
  2
BLOCK_RECORD
  5
1
330
0
100
AcDbSymbolTable
 70
    17
  0
BLOCK_RECORD
  5
2
102
{ACAD_XDICTIONARY
360
3
102
}
330
1
100
AcDbSymbolTableRecord
100
AcDbBlockTableRecord
  2
*MODEL_SPACE
340
17
  0
BLOCK_RECORD
  5
1B
330
1
100
AcDbSymbolTableRecord
100
AcDbBlockTableRecord
  2
*PAPER_SPACE
340
1E
  0
BLOCK_RECORD
  5
23C
330
1
100
AcDbSymbolTableRecord
100
AcDbBlockTableRecord
  2
GENAXEH
340
0
  0
BLOCK_RECORD
  5
199
330
1
100
AcDbSymbolTableRecord
100
AcDbBlockTableRecord
  2
*D1
340
0
  0
BLOCK_RECORD
  5
18C
330
1
100
AcDbSymbolTableRecord
100
AcDbBlockTableRecord
  2
*D2
340
0
  0
BLOCK_RECORD
  5
17F
330
1
100
AcDbSymbolTableRecord
100
AcDbBlockTableRecord
  2
*D3
340
0
  0
BLOCK_RECORD
  5
172
330
1
100
AcDbSymbolTableRecord
100
AcDbBlockTableRecord
  2
*D4
340
0
  0
BLOCK_RECORD
  5
165
330
1
100
AcDbSymbolTableRecord
100
AcDbBlockTableRecord
  2
*D5
340
0
  0
BLOCK_RECORD
  5
14C
330
1
100
AcDbSymbolTableRecord
100
AcDbBlockTableRecord
  2
*D6
340
0
  0
BLOCK_RECORD
  5
13F
330
1
100
AcDbSymbolTableRecord
100
AcDbBlockTableRecord
  2
*D7
340
0
  0
BLOCK_RECORD
  5
130
330
1
100
AcDbSymbolTableRecord
100
AcDbBlockTableRecord
  2
*D8
340
0
  0
BLOCK_RECORD
  5
121
330
1
100
AcDbSymbolTableRecord
100
AcDbBlockTableRecord
  2
*D9
340
0
  0
BLOCK_RECORD
  5
104
330
1
100
AcDbSymbolTableRecord
100
AcDbBlockTableRecord
  2
*D10
340
0
  0
BLOCK_RECORD
  5
F5
330
1
100
AcDbSymbolTableRecord
100
AcDbBlockTableRecord
  2
*D11
340
0
  0
BLOCK_RECORD
  5
E6
330
1
100
AcDbSymbolTableRecord
100
AcDbBlockTableRecord
  2
*D12
340
0
  0
BLOCK_RECORD
  5
D9
330
1
100
AcDbSymbolTableRecord
100
AcDbBlockTableRecord
  2
*D13
340
0
  0
BLOCK_RECORD
  5
B3
330
1
100
AcDbSymbolTableRecord
100
AcDbBlockTableRecord
  2
*D14
340
0
  0
BLOCK_RECORD
  5
21F
330
1
100
AcDbSymbolTableRecord
100
AcDbBlockTableRecord
  2
_ACMFILLED30
340
0
  0
BLOCK_RECORD
  5
6F
330
1
100
AcDbSymbolTableRecord
100
AcDbBlockTableRecord
  2
*D16
340
0
  0
ENDTAB
  0
ENDSEC
  0
SECTION
  2
BLOCKS
  0
BLOCK
  5
5
330
2
100
AcDbEntity
  8
0
100
AcDbBlockBegin
  2
*MODEL_SPACE
 70
     0
 10
0.0
 20
0.0
 30
0.0
  3
*MODEL_SPACE
  1

  0
ENDBLK
  5
16
330
2
100
AcDbEntity
  8
0
100
AcDbBlockEnd
  0
BLOCK
  5
1C
330
1B
100
AcDbEntity
 67
     1
  8
0
100
AcDbBlockBegin
  2
*PAPER_SPACE
 70
     0
 10
0.0
 20
0.0
 30
0.0
  3
*PAPER_SPACE
  1

  0
ENDBLK
  5
1D
330
1B
100
AcDbEntity
 67
     1
  8
0
100
AcDbBlockEnd
  0
BLOCK
  5
23D
330
23C
100
AcDbEntity
  8
0
100
AcDbBlockBegin
  2
GENAXEH
 70
     0
 10
0.0
 20
0.0
 30
0.0
  3
GENAXEH
  1

  0
LINE
  5
23E
330
23C
100
AcDbEntity
  8
0
100
AcDbLine
 10
-1.0
 20
0.0
 30
0.0
 11
1.0
 21
0.0
 31
0.0
  0
ENDBLK
  5
23F
330
23C
100
AcDbEntity
  8
0
100
AcDbBlockEnd
  0
BLOCK
  5
19A
330
199
100
AcDbEntity
  8
0
100
AcDbBlockBegin
  2
*D1
 70
     1
 10
0.0
 20
0.0
 30
0.0
  3
*D1
  1

  0
LINE
  5
19B
330
199
100
AcDbEntity
  8
BEMASSUNG
 62
     2
370
    -2
100
AcDbLine
 10
85.3351940517764
 20
254.1635022760914
 30
0.0
 11
104.8944260980039
 21
254.1635022760914
 31
0.0
  0
LINE
  5
19C
330
199
100
AcDbEntity
  8
BEMASSUNG
 62
     2
370
    -2
100
AcDbLine
 10
85.83519405177638
 20
275.163502276092
 30
0.0
 11
104.8944260980039
 21
275.163502276092
 31
0.0
  0
LINE
  5
19D
330
199
100
AcDbEntity
  8
BEMASSUNG
 62
     2
370
    -2
100
AcDbLine
 10
103.8944260980039
 20
258.1635022760914
 30
0.0
 11
103.8944260980039
 21
271.163502276092
 31
0.0
  0
SOLID
  5
19E
330
199
100
AcDbEntity
  8
BEMASSUNG
 62
     2
100
AcDbTrace
 10
103.2277594313373
 20
258.1635022760914
 30
0.0
 11
104.5610927646706
 21
258.1635022760914
 31
0.0
 12
103.8944260980039
 22
254.1635022760914
 32
0.0
 13
103.8944260980039
 23
254.1635022760914
 33
0.0
  0
SOLID
  5
19F
330
199
100
AcDbEntity
  8
BEMASSUNG
 62
     2
100
AcDbTrace
 10
103.2277594313373
 20
271.163502276092
 30
0.0
 11
104.5610927646706
 21
271.163502276092
 31
0.0
 12
103.8944260980039
 22
275.163502276092
 32
0.0
 13
103.8944260980039
 23
275.163502276092
 33
0.0
  0
MTEXT
  5
1A0
330
199
100
AcDbEntity
  8
BEMASSUNG
 62
     3
100
AcDbMText
 10
100.7105243244705
 20
264.6635022760917
 30
0.0
 40
4.349999999999999
 41
0.0
 71
     5
 72
     1
  1
\A1;21
  7
ARIAL-STANDARD
 11
0.0000000000000001
 21
1.0
 31
0.0
 73
     1
 44
1.0
1001
ACAD
1000
MTEXTBEGIN
1070
    73
1070
     1
1070
    44
1040
1.0
1070
    74
1070
     0
1000
MTEXTEND
  0
POINT
  5
1A1
330
199
100
AcDbEntity
  8
DEFPOINTS
 62
     0
100
AcDbPoint
 10
85.3351940517764
 20
254.1635022760914
 30
0.0
  0
POINT
  5
1A2
330
199
100
AcDbEntity
  8
DEFPOINTS
 62
     0
100
AcDbPoint
 10
85.83519405177638
 20
275.163502276092
 30
0.0
  0
POINT
  5
1A3
330
199
100
AcDbEntity
  8
DEFPOINTS
 62
     0
100
AcDbPoint
 10
103.8944260980039
 20
275.163502276092
 30
0.0
  0
ENDBLK
  5
1A4
330
199
100
AcDbEntity
  8
0
100
AcDbBlockEnd
  0
BLOCK
  5
18D
330
18C
100
AcDbEntity
  8
0
100
AcDbBlockBegin
  2
*D2
 70
     1
 10
0.0
 20
0.0
 30
0.0
  3
*D2
  1

  0
LINE
  5
18E
330
18C
100
AcDbEntity
  8
BEMASSUNG
 62
     2
370
    -2
100
AcDbLine
 10
85.33519405177647
 20
206.1635022760914
 30
0.0
 11
104.8944260980039
 21
206.1635022760914
 31
0.0
  0
LINE
  5
18F
330
18C
100
AcDbEntity
  8
BEMASSUNG
 62
     2
370
    -2
100
AcDbLine
 10
85.3351940517764
 20
254.1635022760914
 30
0.0
 11
104.8944260980039
 21
254.1635022760914
 31
0.0
  0
LINE
  5
190
330
18C
100
AcDbEntity
  8
BEMASSUNG
 62
     2
370
    -2
100
AcDbLine
 10
103.8944260980039
 20
210.1635022760914
 30
0.0
 11
103.8944260980039
 21
250.1635022760914
 31
0.0
  0
SOLID
  5
191
330
18C
100
AcDbEntity
  8
BEMASSUNG
 62
     2
100
AcDbTrace
 10
103.2277594313373
 20
210.1635022760914
 30
0.0
 11
104.5610927646706
 21
210.1635022760914
 31
0.0
 12
103.8944260980039
 22
206.1635022760914
 32
0.0
 13
103.8944260980039
 23
206.1635022760914
 33
0.0
  0
SOLID
  5
192
330
18C
100
AcDbEntity
  8
BEMASSUNG
 62
     2
100
AcDbTrace
 10
103.2277594313373
 20
250.1635022760914
 30
0.0
 11
104.5610927646706
 21
250.1635022760914
 31
0.0
 12
103.8944260980039
 22
254.1635022760914
 32
0.0
 13
103.8944260980039
 23
254.1635022760914
 33
0.0
  0
MTEXT
  5
193
330
18C
100
AcDbEntity
  8
BEMASSUNG
 62
     3
100
AcDbMText
 10
100.6734336014145
 20
230.1635022760915
 30
0.0
 40
4.349999999999999
 41
0.0
 71
     5
 72
     1
  1
\A1;48
  7
ARIAL-STANDARD
 11
0.0000000000000001
 21
1.0
 31
0.0
 73
     1
 44
1.0
1001
ACAD
1000
MTEXTBEGIN
1070
    73
1070
     1
1070
    44
1040
1.0
1070
    74
1070
     0
1000
MTEXTEND
  0
POINT
  5
194
330
18C
100
AcDbEntity
  8
DEFPOINTS
 62
     0
100
AcDbPoint
 10
85.33519405177647
 20
206.1635022760914
 30
0.0
  0
POINT
  5
195
330
18C
100
AcDbEntity
  8
DEFPOINTS
 62
     0
100
AcDbPoint
 10
85.3351940517764
 20
254.1635022760914
 30
0.0
  0
POINT
  5
196
330
18C
100
AcDbEntity
  8
DEFPOINTS
 62
     0
100
AcDbPoint
 10
103.8944260980039
 20
254.1635022760914
 30
0.0
  0
ENDBLK
  5
197
330
18C
100
AcDbEntity
  8
0
100
AcDbBlockEnd
  0
BLOCK
  5
180
330
17F
100
AcDbEntity
  8
0
100
AcDbBlockBegin
  2
*D3
 70
     1
 10
0.0
 20
0.0
 30
0.0
  3
*D3
  1

  0
LINE
  5
181
330
17F
100
AcDbEntity
  8
BEMASSUNG
 62
     2
370
    -2
100
AcDbLine
 10
85.83519405177641
 20
185.1635022760908
 30
0.0
 11
104.8944260980039
 21
185.1635022760908
 31
0.0
  0
LINE
  5
182
330
17F
100
AcDbEntity
  8
BEMASSUNG
 62
     2
370
    -2
100
AcDbLine
 10
85.33519405177647
 20
206.1635022760914
 30
0.0
 11
104.8944260980039
 21
206.1635022760914
 31
0.0
  0
LINE
  5
183
330
17F
100
AcDbEntity
  8
BEMASSUNG
 62
     2
370
    -2
100
AcDbLine
 10
103.8944260980039
 20
189.1635022760908
 30
0.0
 11
103.8944260980039
 21
202.1635022760914
 31
0.0
  0
SOLID
  5
184
330
17F
100
AcDbEntity
  8
BEMASSUNG
 62
     2
100
AcDbTrace
 10
103.2277594313373
 20
189.1635022760908
 30
0.0
 11
104.5610927646706
 21
189.1635022760908
 31
0.0
 12
103.8944260980039
 22
185.1635022760908
 32
0.0
 13
103.8944260980039
 23
185.1635022760908
 33
0.0
  0
SOLID
  5
185
330
17F
100
AcDbEntity
  8
BEMASSUNG
 62
     2
100
AcDbTrace
 10
103.2277594313373
 20
202.1635022760914
 30
0.0
 11
104.5610927646706
 21
202.1635022760914
 31
0.0
 12
103.8944260980039
 22
206.1635022760914
 32
0.0
 13
103.8944260980039
 23
206.1635022760914
 33
0.0
  0
MTEXT
  5
186
330
17F
100
AcDbEntity
  8
BEMASSUNG
 62
     3
100
AcDbMText
 10
100.7105243244705
 20
195.6635022760911
 30
0.0
 40
4.349999999999999
 41
0.0
 71
     5
 72
     1
  1
\A1;21
  7
ARIAL-STANDARD
 11
0.0000000000000001
 21
1.0
 31
0.0
 73
     1
 44
1.0
1001
ACAD
1000
MTEXTBEGIN
1070
    73
1070
     1
1070
    44
1040
1.0
1070
    74
1070
     0
1000
MTEXTEND
  0
POINT
  5
187
330
17F
100
AcDbEntity
  8
DEFPOINTS
 62
     0
100
AcDbPoint
 10
85.83519405177641
 20
185.1635022760908
 30
0.0
  0
POINT
  5
188
330
17F
100
AcDbEntity
  8
DEFPOINTS
 62
     0
100
AcDbPoint
 10
85.33519405177647
 20
206.1635022760914
 30
0.0
  0
POINT
  5
189
330
17F
100
AcDbEntity
  8
DEFPOINTS
 62
     0
100
AcDbPoint
 10
103.8944260980039
 20
206.1635022760914
 30
0.0
  0
ENDBLK
  5
18A
330
17F
100
AcDbEntity
  8
0
100
AcDbBlockEnd
  0
BLOCK
  5
173
330
172
100
AcDbEntity
  8
0
100
AcDbBlockBegin
  2
*D4
 70
     1
 10
0.0
 20
0.0
 30
0.0
  3
*D4
  1

  0
LINE
  5
174
330
172
100
AcDbEntity
  8
BEMASSUNG
 62
     2
370
    -2
100
AcDbLine
 10
85.83519405177638
 20
185.1635022760918
 30
0.0
 11
113.4516331042394
 21
185.1635022760918
 31
0.0
  0
LINE
  5
175
330
172
100
AcDbEntity
  8
BEMASSUNG
 62
     2
370
    -2
100
AcDbLine
 10
85.83519405177638
 20
275.163502276092
 30
0.0
 11
113.4516331042394
 21
275.163502276092
 31
0.0
  0
LINE
  5
176
330
172
100
AcDbEntity
  8
BEMASSUNG
 62
     2
370
    -2
100
AcDbLine
 10
112.4516331042394
 20
189.1635022760917
 30
0.0
 11
112.4516331042394
 21
271.163502276092
 31
0.0
  0
SOLID
  5
177
330
172
100
AcDbEntity
  8
BEMASSUNG
 62
     2
100
AcDbTrace
 10
111.7849664375727
 20
189.1635022760917
 30
0.0
 11
113.118299770906
 21
189.1635022760917
 31
0.0
 12
112.4516331042394
 22
185.1635022760918
 32
0.0
 13
112.4516331042394
 23
185.1635022760918
 33
0.0
  0
SOLID
  5
178
330
172
100
AcDbEntity
  8
BEMASSUNG
 62
     2
100
AcDbTrace
 10
111.7849664375727
 20
271.163502276092
 30
0.0
 11
113.1182997709061
 21
271.163502276092
 31
0.0
 12
112.4516331042394
 22
275.163502276092
 32
0.0
 13
112.4516331042394
 23
275.163502276092
 33
0.0
  0
MTEXT
  5
179
330
172
100
AcDbEntity
  8
BEMASSUNG
 62
     3
100
AcDbMText
 10
109.23064060765
 20
230.6334233612222
 30
0.0
 40
4.349999999999999
 41
0.0
 71
     5
 72
     1
  1
\A1;90
  7
ARIAL-STANDARD
 11
0.0000000000000001
 21
1.0
 31
0.0
 73
     1
 44
1.0
1001
ACAD
1000
MTEXTBEGIN
1070
    73
1070
     1
1070
    44
1040
1.0
1070
    74
1070
     0
1000
MTEXTEND
  0
POINT
  5
17A
330
172
100
AcDbEntity
  8
DEFPOINTS
 62
     0
100
AcDbPoint
 10
85.83519405177638
 20
185.1635022760918
 30
0.0
  0
POINT
  5
17B
330
172
100
AcDbEntity
  8
DEFPOINTS
 62
     0
100
AcDbPoint
 10
85.83519405177638
 20
275.163502276092
 30
0.0
  0
POINT
  5
17C
330
172
100
AcDbEntity
  8
DEFPOINTS
 62
     0
100
AcDbPoint
 10
112.4516331042394
 20
275.163502276092
 30
0.0
  0
ENDBLK
  5
17D
330
172
100
AcDbEntity
  8
0
100
AcDbBlockEnd
  0
BLOCK
  5
166
330
165
100
AcDbEntity
  8
0
100
AcDbBlockBegin
  2
*D5
 70
     1
 10
0.0
 20
0.0
 30
0.0
  3
*D5
  1

  0
LINE
  5
167
330
165
100
AcDbEntity
  8
BEMASSUNG
 62
     2
370
    -2
100
AcDbLine
 10
59.83519405177637
 20
185.1635022760918
 30
0.0
 11
59.83519405177637
 21
168.2013381150258
 31
0.0
  0
LINE
  5
168
330
165
100
AcDbEntity
  8
BEMASSUNG
 62
     2
370
    -2
100
AcDbLine
 10
85.83519405177638
 20
185.1635022760918
 30
0.0
 11
85.83519405177638
 21
168.2013381150258
 31
0.0
  0
LINE
  5
169
330
165
100
AcDbEntity
  8
BEMASSUNG
 62
     2
370
    -2
100
AcDbLine
 10
63.83519405177636
 20
169.2013381150258
 30
0.0
 11
81.83519405177637
 21
169.2013381150258
 31
0.0
  0
SOLID
  5
16A
330
165
100
AcDbEntity
  8
BEMASSUNG
 62
     2
100
AcDbTrace
 10
63.83519405177636
 20
169.8680047816924
 30
0.0
 11
63.83519405177636
 21
168.5346714483591
 31
0.0
 12
59.83519405177637
 22
169.2013381150258
 32
0.0
 13
59.83519405177637
 23
169.2013381150258
 33
0.0
  0
SOLID
  5
16B
330
165
100
AcDbEntity
  8
BEMASSUNG
 62
     2
100
AcDbTrace
 10
81.83519405177637
 20
169.8680047816924
 30
0.0
 11
81.83519405177637
 21
168.5346714483591
 31
0.0
 12
85.83519405177638
 22
169.2013381150258
 32
0.0
 13
85.83519405177638
 23
169.2013381150258
 33
0.0
  0
MTEXT
  5
16C
330
165
100
AcDbEntity
  8
BEMASSUNG
 62
     3
100
AcDbMText
 10
73.25080178530578
 20
172.4223306116151
 30
0.0
 40
4.349999999999999
 41
0.0
 71
     5
 72
     1
  1
\A1;26
  7
ARIAL-STANDARD
 73
     1
 44
1.0
1001
ACAD
1000
MTEXTBEGIN
1070
    73
1070
     1
1070
    44
1040
1.0
1070
    74
1070
     0
1000
MTEXTEND
  0
POINT
  5
16D
330
165
100
AcDbEntity
  8
DEFPOINTS
 62
     0
100
AcDbPoint
 10
59.83519405177637
 20
185.1635022760918
 30
0.0
  0
POINT
  5
16E
330
165
100
AcDbEntity
  8
DEFPOINTS
 62
     0
100
AcDbPoint
 10
85.83519405177638
 20
185.1635022760918
 30
0.0
  0
POINT
  5
16F
330
165
100
AcDbEntity
  8
DEFPOINTS
 62
     0
100
AcDbPoint
 10
85.83519405177638
 20
169.2013381150258
 30
0.0
  0
ENDBLK
  5
170
330
165
100
AcDbEntity
  8
0
100
AcDbBlockEnd
  0
BLOCK
  5
14D
330
14C
100
AcDbEntity
  8
0
100
AcDbBlockBegin
  2
*D6
 70
     1
 10
0.0
 20
0.0
 30
0.0
  3
*D6
  1

  0
LINE
  5
14E
330
14C
100
AcDbEntity
  8
BEMASSUNG
 62
     2
370
    -2
100
AcDbLine
 10
152.8142086737318
 20
199.1635022760915
 30
0.0
 11
139.462227039412
 21
199.1635022760915
 31
0.0
  0
LINE
  5
14F
330
14C
100
AcDbEntity
  8
BEMASSUNG
 62
     2
370
    -2
100
AcDbLine
 10
152.8142086737318
 20
261.1635022760915
 30
0.0
 11
139.462227039412
 21
261.1635022760915
 31
0.0
  0
LINE
  5
150
330
14C
100
AcDbEntity
  8
BEMASSUNG
 62
     2
370
    -2
100
AcDbLine
 10
140.462227039412
 20
203.1635022760915
 30
0.0
 11
140.462227039412
 21
257.1635022760915
 31
0.0
  0
SOLID
  5
151
330
14C
100
AcDbEntity
  8
BEMASSUNG
 62
     2
100
AcDbTrace
 10
139.7955603727453
 20
203.1635022760915
 30
0.0
 11
141.1288937060787
 21
203.1635022760915
 31
0.0
 12
140.462227039412
 22
199.1635022760915
 32
0.0
 13
140.462227039412
 23
199.1635022760915
 33
0.0
  0
SOLID
  5
152
330
14C
100
AcDbEntity
  8
BEMASSUNG
 62
     2
100
AcDbTrace
 10
139.7955603727453
 20
257.1635022760915
 30
0.0
 11
141.1288937060787
 21
257.1635022760915
 31
0.0
 12
140.462227039412
 22
261.1635022760915
 32
0.0
 13
140.462227039412
 23
261.1635022760915
 33
0.0
  0
MTEXT
  5
153
330
14C
100
AcDbEntity
  8
BEMASSUNG
 62
     3
100
AcDbMText
 10
137.2412345428226
 20
230.1635022760915
 30
0.0
 40
4.349999999999999
 41
0.0
 71
     5
 72
     1
  1
\A1;62
  7
ARIAL-STANDARD
 11
0.0000000000000001
 21
1.0
 31
0.0
 73
     1
 44
1.0
1001
ACAD
1000
MTEXTBEGIN
1070
    73
1070
     1
1070
    44
1040
1.0
1070
    74
1070
     0
1000
MTEXTEND
  0
POINT
  5
154
330
14C
100
AcDbEntity
  8
DEFPOINTS
 62
     0
100
AcDbPoint
 10
152.8142086737318
 20
199.1635022760915
 30
0.0
  0
POINT
  5
155
330
14C
100
AcDbEntity
  8
DEFPOINTS
 62
     0
100
AcDbPoint
 10
152.8142086737318
 20
261.1635022760915
 30
0.0
  0
POINT
  5
156
330
14C
100
AcDbEntity
  8
DEFPOINTS
 62
     0
100
AcDbPoint
 10
140.462227039412
 20
261.1635022760915
 30
0.0
  0
ENDBLK
  5
157
330
14C
100
AcDbEntity
  8
0
100
AcDbBlockEnd
  0
BLOCK
  5
140
330
13F
100
AcDbEntity
  8
0
100
AcDbBlockBegin
  2
*D7
 70
     1
 10
0.0
 20
0.0
 30
0.0
  3
*D7
  1

  0
LINE
  5
141
330
13F
100
AcDbEntity
  8
BEMASSUNG
 62
     2
370
    -2
100
AcDbLine
 10
152.8142086737318
 20
199.1635022760917
 30
0.0
 11
152.8142086737318
 21
172.8825355078084
 31
0.0
  0
LINE
  5
142
330
13F
100
AcDbEntity
  8
BEMASSUNG
 62
     2
370
    -2
100
AcDbLine
 10
167.8142086737303
 20
185.1635022760909
 30
0.0
 11
167.8142086737303
 21
172.8825355078084
 31
0.0
  0
LINE
  5
143
330
13F
100
AcDbEntity
  8
BEMASSUNG
 62
     2
370
    -2
100
AcDbLine
 10
156.8142086737318
 20
173.8825355078084
 30
0.0
 11
163.8142086737303
 21
173.8825355078084
 31
0.0
  0
SOLID
  5
144
330
13F
100
AcDbEntity
  8
BEMASSUNG
 62
     2
100
AcDbTrace
 10
156.8142086737318
 20
174.5492021744751
 30
0.0
 11
156.8142086737318
 21
173.2158688411418
 31
0.0
 12
152.8142086737318
 22
173.8825355078084
 32
0.0
 13
152.8142086737318
 23
173.8825355078084
 33
0.0
  0
SOLID
  5
145
330
13F
100
AcDbEntity
  8
BEMASSUNG
 62
     2
100
AcDbTrace
 10
163.8142086737303
 20
174.5492021744751
 30
0.0
 11
163.8142086737303
 21
173.2158688411418
 31
0.0
 12
167.8142086737303
 22
173.8825355078084
 32
0.0
 13
167.8142086737303
 23
173.8825355078084
 33
0.0
  0
MTEXT
  5
146
330
13F
100
AcDbEntity
  8
BEMASSUNG
 62
     3
100
AcDbMText
 10
160.3142086737311
 20
177.1035280043978
 30
0.0
 40
4.349999999999999
 41
0.0
 71
     5
 72
     1
  1
\A1;15
  7
ARIAL-STANDARD
 73
     1
 44
1.0
1001
ACAD
1000
MTEXTBEGIN
1070
    73
1070
     1
1070
    44
1040
1.0
1070
    74
1070
     0
1000
MTEXTEND
  0
POINT
  5
147
330
13F
100
AcDbEntity
  8
DEFPOINTS
 62
     0
100
AcDbPoint
 10
152.8142086737318
 20
199.1635022760917
 30
0.0
  0
POINT
  5
148
330
13F
100
AcDbEntity
  8
DEFPOINTS
 62
     0
100
AcDbPoint
 10
167.8142086737303
 20
185.1635022760909
 30
0.0
  0
POINT
  5
149
330
13F
100
AcDbEntity
  8
DEFPOINTS
 62
     0
100
AcDbPoint
 10
167.8142086737303
 20
173.8825355078084
 30
0.0
  0
ENDBLK
  5
14A
330
13F
100
AcDbEntity
  8
0
100
AcDbBlockEnd
  0
BLOCK
  5
131
330
130
100
AcDbEntity
  8
0
100
AcDbBlockBegin
  2
*D8
 70
     1
 10
0.0
 20
0.0
 30
0.0
  3
*D8
  1

  0
LINE
  5
132
330
130
100
AcDbEntity
  8
BEMASSUNG
 62
     2
370
    -2
100
AcDbLine
 10
170.8142086737303
 20
185.1635022760909
 30
0.0
 11
170.8142086737303
 21
164.2721593527764
 31
0.0
  0
LINE
  5
133
330
130
100
AcDbEntity
  8
BEMASSUNG
 62
     2
370
    -2
100
AcDbLine
 10
167.8142086737303
 20
185.1635022760909
 30
0.0
 11
167.8142086737303
 21
164.2721593527764
 31
0.0
  0
LINE
  5
134
330
130
100
AcDbEntity
  8
BEMASSUNG
 62
     2
370
    -2
100
AcDbLine
 10
174.8142086737303
 20
165.2721593527764
 30
0.0
 11
178.8142086737303
 21
165.2721593527764
 31
0.0
  0
LINE
  5
135
330
130
100
AcDbEntity
  8
BEMASSUNG
 62
     2
370
    -2
100
AcDbLine
 10
163.8142086737303
 20
165.2721593527764
 30
0.0
 11
159.8142086737303
 21
165.2721593527764
 31
0.0
  0
LINE
  5
136
330
130
100
AcDbEntity
  8
BEMASSUNG
 62
     2
370
    -2
100
AcDbLine
 10
170.8142086737303
 20
165.2721593527764
 30
0.0
 11
167.8142086737303
 21
165.2721593527764
 31
0.0
  0
SOLID
  5
137
330
130
100
AcDbEntity
  8
BEMASSUNG
 62
     2
100
AcDbTrace
 10
174.8142086737303
 20
165.9388260194431
 30
0.0
 11
174.8142086737303
 21
164.6054926861098
 31
0.0
 12
170.8142086737303
 22
165.2721593527764
 32
0.0
 13
170.8142086737303
 23
165.2721593527764
 33
0.0
  0
SOLID
  5
138
330
130
100
AcDbEntity
  8
BEMASSUNG
 62
     2
100
AcDbTrace
 10
163.8142086737303
 20
165.9388260194431
 30
0.0
 11
163.8142086737303
 21
164.6054926861098
 31
0.0
 12
167.8142086737303
 22
165.2721593527764
 32
0.0
 13
167.8142086737303
 23
165.2721593527764
 33
0.0
  0
MTEXT
  5
139
330
130
100
AcDbEntity
  8
BEMASSUNG
 62
     3
100
AcDbMText
 10
169.3142086737303
 20
168.494635478288
 30
0.0
 40
4.349999999999999
 41
0.0
 71
     5
 72
     1
  1
\A1;3
  7
ARIAL-STANDARD
 73
     1
 44
1.0
1001
ACAD
1000
MTEXTBEGIN
1070
    73
1070
     1
1070
    44
1040
1.0
1070
    74
1070
     0
1000
MTEXTEND
  0
POINT
  5
13A
330
130
100
AcDbEntity
  8
DEFPOINTS
 62
     0
100
AcDbPoint
 10
170.8142086737303
 20
185.1635022760909
 30
0.0
  0
POINT
  5
13B
330
130
100
AcDbEntity
  8
DEFPOINTS
 62
     0
100
AcDbPoint
 10
167.8142086737303
 20
185.1635022760909
 30
0.0
  0
POINT
  5
13C
330
130
100
AcDbEntity
  8
DEFPOINTS
 62
     0
100
AcDbPoint
 10
167.8142086737303
 20
165.2721593527764
 30
0.0
  0
ENDBLK
  5
13D
330
130
100
AcDbEntity
  8
0
100
AcDbBlockEnd
  0
BLOCK
  5
122
330
121
100
AcDbEntity
  8
0
100
AcDbBlockBegin
  2
*D9
 70
     1
 10
0.0
 20
0.0
 30
0.0
  3
*D9
  1

  0
LINE
  5
123
330
121
100
AcDbEntity
  8
UMRISS05
 62
     2
370
    -2
100
AcDbLine
 10
63.63519405163589
 20
133.9619147529272
 30
0.0
 11
63.63519405163589
 21
149.6720030285826
 31
0.0
  0
LINE
  5
124
330
121
100
AcDbEntity
  8
UMRISS05
 62
     2
370
    -2
100
AcDbLine
 10
83.03519405163582
 20
133.9619147529272
 30
0.0
 11
83.03519405163582
 21
149.6720030285826
 31
0.0
  0
LINE
  5
125
330
121
100
AcDbEntity
  8
UMRISS05
 62
     2
370
    -2
100
AcDbLine
 10
67.63519405163589
 20
148.6720030285826
 30
0.0
 11
79.03519405163582
 21
148.6720030285826
 31
0.0
  0
SOLID
  5
126
330
121
100
AcDbEntity
  8
UMRISS05
 62
     2
100
AcDbTrace
 10
67.63519405163589
 20
149.3386696952492
 30
0.0
 11
67.63519405163589
 21
148.0053363619159
 31
0.0
 12
63.63519405163589
 22
148.6720030285826
 32
0.0
 13
63.63519405163589
 23
148.6720030285826
 33
0.0
  0
SOLID
  5
127
330
121
100
AcDbEntity
  8
UMRISS05
 62
     2
100
AcDbTrace
 10
79.03519405163582
 20
149.3386696952492
 30
0.0
 11
79.03519405163582
 21
148.0053363619159
 31
0.0
 12
83.03519405163582
 22
148.6720030285826
 32
0.0
 13
83.03519405163582
 23
148.6720030285826
 33
0.0
  0
MTEXT
  5
128
330
121
100
AcDbEntity
  8
UMRISS05
 62
     3
100
AcDbMText
 10
73.33519405163585
 20
151.8929955251719
 30
0.0
 40
4.349999999999999
 41
0.0
 71
     5
 72
     1
  1
\A1;19.4
  7
ARIAL-STANDARD
 73
     1
 44
1.0
1001
ACAD
1000
MTEXTBEGIN
1070
    73
1070
     1
1070
    44
1040
1.0
1070
    74
1070
     0
1000
MTEXTEND
  0
POINT
  5
129
330
121
100
AcDbEntity
  8
DEFPOINTS
 62
     0
100
AcDbPoint
 10
63.63519405163589
 20
133.9619147529272
 30
0.0
  0
POINT
  5
12A
330
121
100
AcDbEntity
  8
DEFPOINTS
 62
     0
100
AcDbPoint
 10
83.03519405163582
 20
133.9619147529272
 30
0.0
  0
POINT
  5
12B
330
121
100
AcDbEntity
  8
DEFPOINTS
 62
     0
100
AcDbPoint
 10
83.03519405163582
 20
148.6720030285826
 30
0.0
  0
ENDBLK
  5
12C
330
121
100
AcDbEntity
  8
0
100
AcDbBlockEnd
  0
BLOCK
  5
105
330
104
100
AcDbEntity
  8
0
100
AcDbBlockBegin
  2
*D10
 70
     1
 10
0.0
 20
0.0
 30
0.0
  3
*D10
  1

  0
LINE
  5
106
330
104
100
AcDbEntity
  8
UMRISS05
 62
     2
370
    -2
100
AcDbLine
 10
63.63519405163589
 20
133.9619147529274
 30
0.0
 11
63.63519405163589
 21
142.5632135007986
 31
0.0
  0
LINE
  5
107
330
104
100
AcDbEntity
  8
UMRISS05
 62
     2
370
    -2
100
AcDbLine
 10
59.83519405163583
 20
118.9619147529396
 30
0.0
 11
59.83519405163583
 21
142.5632135007986
 31
0.0
  0
LINE
  5
108
330
104
100
AcDbEntity
  8
UMRISS05
 62
     2
370
    -2
100
AcDbLine
 10
67.63519405163589
 20
141.5632135007986
 30
0.0
 11
71.63519405163589
 21
141.5632135007986
 31
0.0
  0
LINE
  5
109
330
104
100
AcDbEntity
  8
UMRISS05
 62
     2
370
    -2
100
AcDbLine
 10
55.83519405163584
 20
141.5632135007986
 30
0.0
 11
41.90964834904375
 21
141.5632135007986
 31
0.0
  0
LINE
  5
10A
330
104
100
AcDbEntity
  8
UMRISS05
 62
     2
370
    -2
100
AcDbLine
 10
63.63519405163589
 20
141.5632135007986
 30
0.0
 11
59.83519405163583
 21
141.5632135007986
 31
0.0
  0
SOLID
  5
10B
330
104
100
AcDbEntity
  8
UMRISS05
 62
     2
100
AcDbTrace
 10
67.63519405163589
 20
142.2298801674652
 30
0.0
 11
67.63519405163589
 21
140.8965468341319
 31
0.0
 12
63.63519405163589
 22
141.5632135007986
 32
0.0
 13
63.63519405163589
 23
141.5632135007986
 33
0.0
  0
SOLID
  5
10C
330
104
100
AcDbEntity
  8
UMRISS05
 62
     2
100
AcDbTrace
 10
55.83519405163584
 20
142.2298801674652
 30
0.0
 11
55.83519405163584
 21
140.8965468341319
 31
0.0
 12
59.83519405163583
 22
141.5632135007986
 32
0.0
 13
59.83519405163583
 23
141.5632135007986
 33
0.0
  0
MTEXT
  5
10D
330
104
100
AcDbEntity
  8
UMRISS05
 62
     3
100
AcDbMText
 10
46.87242120033979
 20
144.7856896263102
 30
0.0
 40
4.349999999999999
 41
0.0
 71
     5
 72
     1
  1
\A1;3.8
  7
ARIAL-STANDARD
 73
     1
 44
1.0
1001
ACAD
1000
MTEXTBEGIN
1070
    73
1070
     1
1070
    44
1040
1.0
1070
    74
1070
     0
1000
MTEXTEND
  0
POINT
  5
10E
330
104
100
AcDbEntity
  8
DEFPOINTS
 62
     0
100
AcDbPoint
 10
63.63519405163589
 20
133.9619147529274
 30
0.0
  0
POINT
  5
10F
330
104
100
AcDbEntity
  8
DEFPOINTS
 62
     0
100
AcDbPoint
 10
59.83519405163583
 20
118.9619147529396
 30
0.0
  0
POINT
  5
110
330
104
100
AcDbEntity
  8
DEFPOINTS
 62
     0
100
AcDbPoint
 10
59.83519405163583
 20
141.5632135007986
 30
0.0
  0
ENDBLK
  5
111
330
104
100
AcDbEntity
  8
0
100
AcDbBlockEnd
  0
BLOCK
  5
F6
330
F5
100
AcDbEntity
  8
0
100
AcDbBlockBegin
  2
*D11
 70
     1
 10
0.0
 20
0.0
 30
0.0
  3
*D11
  1

  0
LINE
  5
F7
330
F5
100
AcDbEntity
  8
UMRISS05
 62
     2
370
    -2
100
AcDbLine
 10
59.83519405177641
 20
185.1635022760908
 30
0.0
 11
39.38870654603196
 21
185.1635022760908
 31
0.0
  0
LINE
  5
F8
330
F5
100
AcDbEntity
  8
UMRISS05
 62
     2
370
    -2
100
AcDbLine
 10
65.0851940517764
 20
193.1635022760909
 30
0.0
 11
39.38870654603196
 21
193.163502276091
 31
0.0
  0
LINE
  5
F9
330
F5
100
AcDbEntity
  8
UMRISS05
 62
     2
370
    -2
100
AcDbLine
 10
40.38870654603195
 20
181.1635022760908
 30
0.0
 11
40.38870654603195
 21
177.1635022760908
 31
0.0
  0
LINE
  5
FA
330
F5
100
AcDbEntity
  8
UMRISS05
 62
     2
370
    -2
100
AcDbLine
 10
40.38870654603195
 20
197.163502276091
 30
0.0
 11
40.38870654603195
 21
201.163502276091
 31
0.0
  0
LINE
  5
FB
330
F5
100
AcDbEntity
  8
UMRISS05
 62
     2
370
    -2
100
AcDbLine
 10
40.38870654603195
 20
185.1635022760908
 30
0.0
 11
40.38870654603195
 21
193.163502276091
 31
0.0
  0
SOLID
  5
FC
330
F5
100
AcDbEntity
  8
UMRISS05
 62
     2
100
AcDbTrace
 10
39.72203987936529
 20
181.1635022760908
 30
0.0
 11
41.05537321269862
 21
181.1635022760908
 31
0.0
 12
40.38870654603195
 22
185.1635022760908
 32
0.0
 13
40.38870654603195
 23
185.1635022760908
 33
0.0
  0
SOLID
  5
FD
330
F5
100
AcDbEntity
  8
UMRISS05
 62
     2
100
AcDbTrace
 10
39.72203987936529
 20
197.163502276091
 30
0.0
 11
41.05537321269862
 21
197.163502276091
 31
0.0
 12
40.38870654603195
 22
193.163502276091
 32
0.0
 13
40.38870654603195
 23
193.163502276091
 33
0.0
  0
MTEXT
  5
FE
330
F5
100
AcDbEntity
  8
UMRISS05
 62
     3
100
AcDbMText
 10
37.16771404944257
 20
189.1635022760909
 30
0.0
 40
4.349999999999999
 41
0.0
 71
     5
 72
     1
  1
\A1;8
  7
ARIAL-STANDARD
 11
0.0000000000000001
 21
1.0
 31
0.0
 73
     1
 44
1.0
1001
ACAD
1000
MTEXTBEGIN
1070
    73
1070
     1
1070
    44
1040
1.0
1070
    74
1070
     0
1000
MTEXTEND
  0
POINT
  5
FF
330
F5
100
AcDbEntity
  8
DEFPOINTS
 62
     0
100
AcDbPoint
 10
59.83519405177641
 20
185.1635022760908
 30
0.0
  0
POINT
  5
100
330
F5
100
AcDbEntity
  8
DEFPOINTS
 62
     0
100
AcDbPoint
 10
65.0851940517764
 20
193.1635022760909
 30
0.0
  0
POINT
  5
101
330
F5
100
AcDbEntity
  8
DEFPOINTS
 62
     0
100
AcDbPoint
 10
40.38870654603195
 20
193.163502276091
 30
0.0
  0
ENDBLK
  5
102
330
F5
100
AcDbEntity
  8
0
100
AcDbBlockEnd
  0
BLOCK
  5
E7
330
E6
100
AcDbEntity
  8
0
100
AcDbBlockBegin
  2
*D12
 70
     1
 10
0.0
 20
0.0
 30
0.0
  3
*D12
  1

  0
LINE
  5
E8
330
E6
100
AcDbEntity
  8
UMRISS05
 62
     2
370
    -2
100
AcDbLine
 10
65.08519405177634
 20
267.1635022760912
 30
0.0
 11
39.38870654603195
 21
267.1635022760912
 31
0.0
  0
LINE
  5
E9
330
E6
100
AcDbEntity
  8
UMRISS05
 62
     2
370
    -2
100
AcDbLine
 10
59.83519405177633
 20
275.1635022760912
 30
0.0
 11
39.38870654603196
 21
275.1635022760912
 31
0.0
  0
LINE
  5
EA
330
E6
100
AcDbEntity
  8
UMRISS05
 62
     2
370
    -2
100
AcDbLine
 10
40.38870654603194
 20
263.1635022760912
 30
0.0
 11
40.38870654603194
 21
259.1635022760912
 31
0.0
  0
LINE
  5
EB
330
E6
100
AcDbEntity
  8
UMRISS05
 62
     2
370
    -2
100
AcDbLine
 10
40.38870654603195
 20
279.1635022760912
 30
0.0
 11
40.38870654603195
 21
283.1635022760912
 31
0.0
  0
LINE
  5
EC
330
E6
100
AcDbEntity
  8
UMRISS05
 62
     2
370
    -2
100
AcDbLine
 10
40.38870654603194
 20
267.1635022760912
 30
0.0
 11
40.38870654603195
 21
275.1635022760912
 31
0.0
  0
SOLID
  5
ED
330
E6
100
AcDbEntity
  8
UMRISS05
 62
     2
100
AcDbTrace
 10
39.72203987936529
 20
263.1635022760912
 30
0.0
 11
41.05537321269861
 21
263.1635022760912
 31
0.0
 12
40.38870654603194
 22
267.1635022760912
 32
0.0
 13
40.38870654603194
 23
267.1635022760912
 33
0.0
  0
SOLID
  5
EE
330
E6
100
AcDbEntity
  8
UMRISS05
 62
     2
100
AcDbTrace
 10
39.72203987936529
 20
279.1635022760912
 30
0.0
 11
41.05537321269862
 21
279.1635022760912
 31
0.0
 12
40.38870654603195
 22
275.1635022760912
 32
0.0
 13
40.38870654603195
 23
275.1635022760912
 33
0.0
  0
MTEXT
  5
EF
330
E6
100
AcDbEntity
  8
UMRISS05
 62
     3
100
AcDbMText
 10
37.16771404944255
 20
271.1635022760912
 30
0.0
 40
4.349999999999999
 41
0.0
 71
     5
 72
     1
  1
\A1;8
  7
ARIAL-STANDARD
 11
0.0000000000000001
 21
1.0
 31
0.0
 73
     1
 44
1.0
1001
ACAD
1000
MTEXTBEGIN
1070
    73
1070
     1
1070
    44
1040
1.0
1070
    74
1070
     0
1000
MTEXTEND
  0
POINT
  5
F0
330
E6
100
AcDbEntity
  8
DEFPOINTS
 62
     0
100
AcDbPoint
 10
65.08519405177634
 20
267.1635022760912
 30
0.0
  0
POINT
  5
F1
330
E6
100
AcDbEntity
  8
DEFPOINTS
 62
     0
100
AcDbPoint
 10
59.83519405177633
 20
275.1635022760912
 30
0.0
  0
POINT
  5
F2
330
E6
100
AcDbEntity
  8
DEFPOINTS
 62
     0
100
AcDbPoint
 10
40.38870654603195
 20
275.1635022760912
 30
0.0
  0
ENDBLK
  5
F3
330
E6
100
AcDbEntity
  8
0
100
AcDbBlockEnd
  0
BLOCK
  5
DA
330
D9
100
AcDbEntity
  8
0
100
AcDbBlockBegin
  2
*D13
 70
     1
 10
0.0
 20
0.0
 30
0.0
  3
*D13
  1

  0
LINE
  5
DB
330
D9
100
AcDbEntity
  8
UMRISS05
 62
     2
370
    -2
100
AcDbLine
 10
65.08519405177634
 20
267.1635022760912
 30
0.0
 11
39.38870654603197
 21
267.1635022760912
 31
0.0
  0
LINE
  5
DC
330
D9
100
AcDbEntity
  8
UMRISS05
 62
     2
370
    -2
100
AcDbLine
 10
65.0851940517764
 20
193.1635022760909
 30
0.0
 11
39.38870654603196
 21
193.163502276091
 31
0.0
  0
LINE
  5
DD
330
D9
100
AcDbEntity
  8
UMRISS05
 62
     2
370
    -2
100
AcDbLine
 10
40.38870654603196
 20
263.1635022760912
 30
0.0
 11
40.38870654603195
 21
197.163502276091
 31
0.0
  0
SOLID
  5
DE
330
D9
100
AcDbEntity
  8
UMRISS05
 62
     2
100
AcDbTrace
 10
39.72203987936531
 20
263.1635022760912
 30
0.0
 11
41.05537321269863
 21
263.1635022760912
 31
0.0
 12
40.38870654603196
 22
267.1635022760912
 32
0.0
 13
40.38870654603196
 23
267.1635022760912
 33
0.0
  0
SOLID
  5
DF
330
D9
100
AcDbEntity
  8
UMRISS05
 62
     2
100
AcDbTrace
 10
39.72203987936529
 20
197.163502276091
 30
0.0
 11
41.05537321269862
 21
197.163502276091
 31
0.0
 12
40.38870654603195
 22
193.163502276091
 32
0.0
 13
40.38870654603195
 23
193.163502276091
 33
0.0
  0
MTEXT
  5
E0
330
D9
100
AcDbEntity
  8
UMRISS05
 62
     3
100
AcDbMText
 10
37.21370654603193
 20
226.1635022760912
 30
0.0
 40
4.349999999999999
 41
0.0
 71
     5
 72
     1
  1
\A1;74
  7
ARIAL-STANDARD
 11
0.0000000000000001
 21
1.0
 31
0.0
 73
     1
 44
1.0
1001
ACAD
1000
MTEXTBEGIN
1070
    73
1070
     1
1070
    44
1040
1.0
1070
    74
1070
     0
1000
MTEXTEND
  0
POINT
  5
E1
330
D9
100
AcDbEntity
  8
DEFPOINTS
 62
     0
100
AcDbPoint
 10
65.08519405177634
 20
267.1635022760912
 30
0.0
  0
POINT
  5
E2
330
D9
100
AcDbEntity
  8
DEFPOINTS
 62
     0
100
AcDbPoint
 10
65.0851940517764
 20
193.1635022760909
 30
0.0
  0
POINT
  5
E3
330
D9
100
AcDbEntity
  8
DEFPOINTS
 62
     0
100
AcDbPoint
 10
40.38870654603195
 20
193.163502276091
 30
0.0
  0
ENDBLK
  5
E4
330
D9
100
AcDbEntity
  8
0
100
AcDbBlockEnd
  0
BLOCK
  5
B4
330
B3
100
AcDbEntity
  8
0
100
AcDbBlockBegin
  2
*D14
 70
     1
 10
0.0
 20
0.0
 30
0.0
  3
*D14
  1

  0
LINE
  5
B5
330
B3
100
AcDbEntity
  8
UMRISS05
 62
     2
370
    -2
100
AcDbLine
 10
64.81576108866295
 20
230.1635022760917
 30
0.0
 11
47.70615340571144
 21
230.1635022760918
 31
0.0
  0
LINE
  5
B6
330
B3
100
AcDbEntity
  8
UMRISS05
 62
     2
370
    -2
100
AcDbLine
 10
50.17383708207233
 20
186.1635022760917
 30
0.0
 11
47.70615340571143
 21
186.1635022760917
 31
0.0
  0
LINE
  5
B7
330
B3
100
AcDbEntity
  8
UMRISS05
 62
     2
370
    -2
100
AcDbLine
 10
48.70615340571144
 20
226.1635022760918
 30
0.0
 11
48.70615340571143
 21
190.1635022760917
 31
0.0
  0
SOLID
  5
B8
330
B3
100
AcDbEntity
  8
UMRISS05
 62
     2
100
AcDbTrace
 10
48.03948673904478
 20
226.1635022760918
 30
0.0
 11
49.3728200723781
 21
226.1635022760918
 31
0.0
 12
48.70615340571144
 22
230.1635022760918
 32
0.0
 13
48.70615340571144
 23
230.1635022760918
 33
0.0
  0
SOLID
  5
B9
330
B3
100
AcDbEntity
  8
UMRISS05
 62
     2
100
AcDbTrace
 10
48.03948673904477
 20
190.1635022760917
 30
0.0
 11
49.3728200723781
 21
190.1635022760917
 31
0.0
 12
48.70615340571143
 22
186.1635022760917
 32
0.0
 13
48.70615340571143
 23
186.1635022760917
 33
0.0
  0
MTEXT
  5
BA
330
B3
100
AcDbEntity
  8
UMRISS05
 62
     3
100
AcDbMText
 10
45.53115340571141
 20
210.1635022760917
 30
0.0
 40
4.349999999999999
 41
0.0
 71
     5
 72
     1
  1
\A1;44
  7
ARIAL-STANDARD
 11
0.0000000000000001
 21
1.0
 31
0.0
 73
     1
 44
1.0
1001
ACAD
1000
MTEXTBEGIN
1070
    73
1070
     1
1070
    44
1040
1.0
1070
    74
1070
     0
1000
MTEXTEND
  0
POINT
  5
BB
330
B3
100
AcDbEntity
  8
DEFPOINTS
 62
     0
100
AcDbPoint
 10
64.81576108866295
 20
230.1635022760917
 30
0.0
  0
POINT
  5
BC
330
B3
100
AcDbEntity
  8
DEFPOINTS
 62
     0
100
AcDbPoint
 10
50.17383708207233
 20
186.1635022760917
 30
0.0
  0
POINT
  5
BD
330
B3
100
AcDbEntity
  8
DEFPOINTS
 62
     0
100
AcDbPoint
 10
48.70615340571143
 20
186.1635022760917
 30
0.0
  0
ENDBLK
  5
BE
330
B3
100
AcDbEntity
  8
0
100
AcDbBlockEnd
  0
BLOCK
  5
220
330
21F
100
AcDbEntity
  8
0
100
AcDbBlockBegin
  2
_ACMFILLED30
 70
     0
 10
0.0
 20
0.0
 30
0.0
  3
_ACMFILLED30
  1

  0
TRACE
  5
221
330
21F
100
AcDbEntity
  8
UMRISS05
 62
     0
100
AcDbTrace
 10
-1.0
 20
-0.26794919
 30
0.0
 11
-1.0
 21
0.26794919
 31
0.0
 12
0.0
 22
0.0
 32
0.0
 13
0.0
 23
0.0
 33
0.0
  0
ENDBLK
  5
222
330
21F
100
AcDbEntity
  8
0
100
AcDbBlockEnd
  0
BLOCK
  5
70
330
6F
100
AcDbEntity
  8
0
100
AcDbBlockBegin
  2
*D16
 70
     1
 10
0.0
 20
0.0
 30
0.0
  3
*D16
  1

  0
LINE
  5
71
330
6F
100
AcDbEntity
  8
AM_5
 62
     2
370
    -2
100
AcDbLine
 10
80.03519405177646
 20
207.2135022760917
 30
0.0
 11
80.03519405177646
 21
233.4270600655302
 31
0.0
  0
LINE
  5
72
330
6F
100
AcDbEntity
  8
AM_5
 62
     2
370
    -2
100
AcDbLine
 10
85.83519405177641
 20
186.1635022760917
 30
0.0
 11
85.83519405177641
 21
233.4270600655302
 31
0.0
  0
LINE
  5
73
330
6F
100
AcDbEntity
  8
AM_5
 62
     2
370
    -2
100
AcDbLine
 10
89.83519405177641
 20
232.4270600655302
 30
0.0
 11
93.83519405177642
 21
232.4270600655302
 31
0.0
  0
LINE
  5
74
330
6F
100
AcDbEntity
  8
AM_5
 62
     2
370
    -2
100
AcDbLine
 10
76.03519405177646
 20
232.4270600655302
 30
0.0
 11
62.10668109133988
 21
232.4270600655302
 31
0.0
  0
LINE
  5
75
330
6F
100
AcDbEntity
  8
AM_5
 62
     2
370
    -2
100
AcDbLine
 10
85.83519405177641
 20
232.4270600655302
 30
0.0
 11
80.03519405177646
 21
232.4270600655302
 31
0.0
  0
SOLID
  5
76
330
6F
100
AcDbEntity
  8
AM_5
 62
     2
100
AcDbTrace
 10
89.83519405177641
 20
233.0937267321969
 30
0.0
 11
89.83519405177641
 21
231.7603933988635
 31
0.0
 12
85.83519405177641
 22
232.4270600655302
 32
0.0
 13
85.83519405177641
 23
232.4270600655302
 33
0.0
  0
SOLID
  5
77
330
6F
100
AcDbEntity
  8
AM_5
 62
     2
100
AcDbTrace
 10
76.03519405177646
 20
233.0937267321969
 30
0.0
 11
76.03519405177646
 21
231.7603933988635
 31
0.0
 12
80.03519405177646
 22
232.4270600655302
 32
0.0
 13
80.03519405177646
 23
232.4270600655302
 33
0.0
  0
MTEXT
  5
78
330
6F
100
AcDbEntity
  8
AM_5
 62
     3
100
AcDbMText
 10
67.07093757155816
 20
235.6480525621196
 30
0.0
 40
4.349999999999999
 41
0.0
 71
     5
 72
     1
  1
\A1;5.8
  7
ARIAL-STANDARD
 73
     1
 44
1.0
1001
ACAD
1000
MTEXTBEGIN
1070
    73
1070
     1
1070
    44
1040
1.0
1070
    74
1070
     0
1000
MTEXTEND
  0
POINT
  5
79
330
6F
100
AcDbEntity
  8
DEFPOINTS
 62
     0
100
AcDbPoint
 10
80.03519405177646
 20
207.2135022760917
 30
0.0
  0
POINT
  5
7B
330
6F
100
AcDbEntity
  8
DEFPOINTS
 62
     0
100
AcDbPoint
 10
85.83519405177641
 20
186.1635022760917
 30
0.0
  0
POINT
  5
7C
330
6F
100
AcDbEntity
  8
DEFPOINTS
 62
     0
100
AcDbPoint
 10
85.83519405177641
 20
232.4270600655302
 30
0.0
  0
ENDBLK
  5
7D
330
6F
100
AcDbEntity
  8
0
100
AcDbBlockEnd
  0
ENDSEC
  0
SECTION
  2
ENTITIES
  0
DIMENSION
  5
6C
330
2
100
AcDbEntity
  8
AM_5
100
AcDbDimension
  2
*D16
 10
85.83519405177641
 20
232.4270600655302
 30
0.0
 11
67.07093757155816
 21
232.4270600655302
 31
0.0
 70
   128
 71
     5
 42
5.799999999999954
  3
Katalog 09$0
100
AcDbAlignedDimension
 13
80.03519405177646
 23
207.2135022760917
 33
0.0
 14
85.83519405177641
 24
186.1635022760917
 34
0.0
100
AcDbRotatedDimension
1001
ACAD_DSTYLE_DIMINSPECT
1070
   396
1000
100%
1070
   395
1000

1070
   394
1070
    33
1070
   393
1070
     0
  0
CIRCLE
  5
80
330
2
100
AcDbEntity
  8
UMRISS05
100
AcDbCircle
 10
74.63519405177644
 20
214.6635022760916
 30
0.0
 40
4.0
  0
CIRCLE
  5
81
330
2
100
AcDbEntity
  8
UMRISS05
100
AcDbCircle
 10
74.63519405177645
 20
245.6635022760916
 30
0.0
 40
4.0
  0
LINE
  5
82
330
2
100
AcDbEntity
  8
UMRISS05
100
AcDbLine
 10
75.19872614990898
 20
204.6991536741236
 30
0.0
 11
73.74754597371005
 21
203.8136729593663
 31
0.0
  0
LINE
  5
83
330
2
100
AcDbEntity
  8
UMRISS05
100
AcDbLine
 10
71.78418455885249
 20
202.6156696394007
 30
0.0
 11
71.47166195364407
 21
203.1278508780592
 31
0.0
  0
LINE
  5
84
330
2
100
AcDbEntity
  8
UMRISS05
100
AcDbLine
 10
73.43502336850152
 20
204.3258541980248
 30
0.0
 11
74.88620354470056
 21
205.211334912782
 31
0.0
  0
LINE
  5
85
330
2
100
AcDbEntity
  8
UMRISS05
100
AcDbLine
 10
74.88620354470056
 20
205.211334912782
 30
0.0
 11
75.19872614990898
 21
204.6991536741236
 31
0.0
  0
LINE
  5
86
330
2
100
AcDbEntity
  8
UMRISS05
100
AcDbLine
 10
73.23536473505154
 20
203.5011503541579
 30
0.0
 11
71.78418455885249
 21
202.6156696394007
 31
0.0
  0
LINE
  5
87
330
2
100
AcDbEntity
  8
UMRISS05
100
AcDbLine
 10
71.47166195364407
 20
203.1278508780592
 30
0.0
 11
72.92284212984312
 21
204.0133315928164
 31
0.0
  0
LINE
  5
88
330
2
100
AcDbEntity
  8
UMRISS05
100
AcDbLine
 10
74.63302668846729
 20
202.3624927831674
 30
0.0
 11
74.12084544980878
 21
202.0499701779589
 31
0.0
  0
LINE
  5
89
330
2
100
AcDbEntity
  8
UMRISS05
100
AcDbLine
 10
72.92284212984312
 20
204.0133315928164
 30
0.0
 11
72.03736141508587
 21
205.4645117690154
 31
0.0
  0
LINE
  5
8A
330
2
100
AcDbEntity
  8
UMRISS05
100
AcDbLine
 10
72.03736141508587
 20
205.4645117690154
 30
0.0
 11
72.54954265374427
 21
205.7770343742238
 31
0.0
  0
LINE
  5
8B
330
2
100
AcDbEntity
  8
UMRISS05
100
AcDbLine
 10
74.12084544980878
 20
202.0499701779589
 30
0.0
 11
73.23536473505154
 21
203.5011503541579
 31
0.0
  0
LINE
  5
8C
330
2
100
AcDbEntity
  8
UMRISS05
100
AcDbLine
 10
72.54954265374427
 20
205.7770343742238
 30
0.0
 11
73.43502336850152
 21
204.3258541980248
 31
0.0
  0
LINE
  5
8D
330
2
100
AcDbEntity
  8
UMRISS05
100
AcDbLine
 10
73.74754597371005
 20
203.8136729593663
 30
0.0
 11
74.63302668846729
 21
202.3624927831674
 31
0.0
  0
LINE
  5
8E
330
2
100
AcDbEntity
  8
UMRISS05
100
AcDbLine
 10
76.49872614990894
 20
215.4491536741237
 30
0.0
 11
75.04754597371001
 21
214.5636729593665
 31
0.0
  0
LINE
  5
8F
330
2
100
AcDbEntity
  8
UMRISS05
100
AcDbLine
 10
73.08418455885245
 20
213.3656696394008
 30
0.0
 11
72.77166195364404
 21
213.8778508780593
 31
0.0
  0
LINE
  5
90
330
2
100
AcDbEntity
  8
UMRISS05
100
AcDbLine
 10
74.73502336850149
 20
215.075854198025
 30
0.0
 11
76.18620354470053
 21
215.9613349127822
 31
0.0
  0
LINE
  5
91
330
2
100
AcDbEntity
  8
UMRISS05
100
AcDbLine
 10
76.18620354470053
 20
215.9613349127822
 30
0.0
 11
76.49872614990894
 21
215.4491536741237
 31
0.0
  0
LINE
  5
92
330
2
100
AcDbEntity
  8
UMRISS05
100
AcDbLine
 10
74.5353647350515
 20
214.2511503541581
 30
0.0
 11
73.08418455885245
 21
213.3656696394008
 31
0.0
  0
LINE
  5
93
330
2
100
AcDbEntity
  8
UMRISS05
100
AcDbLine
 10
72.77166195364404
 20
213.8778508780593
 30
0.0
 11
74.22284212984308
 21
214.7633315928165
 31
0.0
  0
LINE
  5
94
330
2
100
AcDbEntity
  8
UMRISS05
100
AcDbLine
 10
75.93302668846726
 20
213.1124927831675
 30
0.0
 11
75.42084544980875
 21
212.799970177959
 31
0.0
  0
LINE
  5
95
330
2
100
AcDbEntity
  8
UMRISS05
100
AcDbLine
 10
74.22284212984308
 20
214.7633315928165
 30
0.0
 11
73.33736141508584
 21
216.2145117690156
 31
0.0
  0
LINE
  5
96
330
2
100
AcDbEntity
  8
UMRISS05
100
AcDbLine
 10
73.33736141508584
 20
216.2145117690156
 30
0.0
 11
73.84954265374424
 21
216.527034374224
 31
0.0
  0
LINE
  5
97
330
2
100
AcDbEntity
  8
UMRISS05
100
AcDbLine
 10
75.42084544980875
 20
212.799970177959
 30
0.0
 11
74.5353647350515
 21
214.2511503541581
 31
0.0
  0
LINE
  5
98
330
2
100
AcDbEntity
  8
UMRISS05
100
AcDbLine
 10
73.84954265374424
 20
216.527034374224
 30
0.0
 11
74.73502336850149
 21
215.075854198025
 31
0.0
  0
LINE
  5
99
330
2
100
AcDbEntity
  8
UMRISS05
100
AcDbLine
 10
75.04754597371001
 20
214.5636729593665
 30
0.0
 11
75.93302668846726
 21
213.1124927831675
 31
0.0
  0
LINE
  5
9A
330
2
100
AcDbEntity
  8
UMRISS05
100
AcDbLine
 10
76.49872614990896
 20
246.4491536741238
 30
0.0
 11
75.04754597371003
 21
245.5636729593666
 31
0.0
  0
LINE
  5
9B
330
2
100
AcDbEntity
  8
UMRISS05
100
AcDbLine
 10
73.08418455885247
 20
244.3656696394009
 30
0.0
 11
72.77166195364405
 21
244.8778508780594
 31
0.0
  0
LINE
  5
9C
330
2
100
AcDbEntity
  8
UMRISS05
100
AcDbLine
 10
74.7350233685015
 20
246.075854198025
 30
0.0
 11
76.18620354470055
 21
246.9613349127822
 31
0.0
  0
LINE
  5
9D
330
2
100
AcDbEntity
  8
UMRISS05
100
AcDbLine
 10
76.18620354470055
 20
246.9613349127822
 30
0.0
 11
76.49872614990896
 21
246.4491536741238
 31
0.0
  0
LINE
  5
9E
330
2
100
AcDbEntity
  8
UMRISS05
100
AcDbLine
 10
74.53536473505152
 20
245.2511503541582
 30
0.0
 11
73.08418455885247
 21
244.3656696394009
 31
0.0
  0
LINE
  5
9F
330
2
100
AcDbEntity
  8
UMRISS05
100
AcDbLine
 10
72.77166195364405
 20
244.8778508780594
 30
0.0
 11
74.2228421298431
 21
245.7633315928166
 31
0.0
  0
LINE
  5
A0
330
2
100
AcDbEntity
  8
UMRISS05
100
AcDbLine
 10
75.93302668846728
 20
244.1124927831676
 30
0.0
 11
75.42084544980877
 21
243.7999701779591
 31
0.0
  0
LINE
  5
A1
330
2
100
AcDbEntity
  8
UMRISS05
100
AcDbLine
 10
74.2228421298431
 20
245.7633315928166
 30
0.0
 11
73.33736141508585
 21
247.2145117690156
 31
0.0
  0
LINE
  5
A2
330
2
100
AcDbEntity
  8
UMRISS05
100
AcDbLine
 10
73.33736141508585
 20
247.2145117690156
 30
0.0
 11
73.84954265374425
 21
247.527034374224
 31
0.0
  0
LINE
  5
A3
330
2
100
AcDbEntity
  8
UMRISS05
100
AcDbLine
 10
75.42084544980877
 20
243.7999701779591
 30
0.0
 11
74.53536473505152
 21
245.2511503541582
 31
0.0
  0
LINE
  5
A4
330
2
100
AcDbEntity
  8
UMRISS05
100
AcDbLine
 10
73.84954265374425
 20
247.527034374224
 30
0.0
 11
74.7350233685015
 21
246.075854198025
 31
0.0
  0
LINE
  5
A5
330
2
100
AcDbEntity
  8
UMRISS05
100
AcDbLine
 10
75.04754597371003
 20
245.5636729593666
 30
0.0
 11
75.93302668846728
 21
244.1124927831676
 31
0.0
  0
LINE
  5
A6
330
2
100
AcDbEntity
  8
UMRISS05
100
AcDbLine
 10
75.19872614990894
 20
257.1991536741235
 30
0.0
 11
73.74754597371
 21
256.3136729593663
 31
0.0
  0
LINE
  5
A7
330
2
100
AcDbEntity
  8
UMRISS05
100
AcDbLine
 10
71.78418455885244
 20
255.1156696394006
 30
0.0
 11
71.47166195364403
 21
255.6278508780591
 31
0.0
  0
LINE
  5
A8
330
2
100
AcDbEntity
  8
UMRISS05
100
AcDbLine
 10
73.43502336850147
 20
256.8258541980247
 30
0.0
 11
74.88620354470052
 21
257.711334912782
 31
0.0
  0
LINE
  5
A9
330
2
100
AcDbEntity
  8
UMRISS05
100
AcDbLine
 10
74.88620354470052
 20
257.711334912782
 30
0.0
 11
75.19872614990894
 21
257.1991536741235
 31
0.0
  0
LINE
  5
AA
330
2
100
AcDbEntity
  8
UMRISS05
100
AcDbLine
 10
73.23536473505149
 20
256.0011503541578
 30
0.0
 11
71.78418455885244
 21
255.1156696394006
 31
0.0
  0
LINE
  5
AB
330
2
100
AcDbEntity
  8
UMRISS05
100
AcDbLine
 10
71.47166195364403
 20
255.6278508780591
 30
0.0
 11
72.92284212984307
 21
256.5133315928163
 31
0.0
  0
LINE
  5
AC
330
2
100
AcDbEntity
  8
UMRISS05
100
AcDbLine
 10
74.63302668846726
 20
254.8624927831673
 30
0.0
 11
74.12084544980874
 21
254.5499701779588
 31
0.0
  0
LINE
  5
AD
330
2
100
AcDbEntity
  8
UMRISS05
100
AcDbLine
 10
72.92284212984307
 20
256.5133315928163
 30
0.0
 11
72.03736141508582
 21
257.9645117690154
 31
0.0
  0
LINE
  5
AE
330
2
100
AcDbEntity
  8
UMRISS05
100
AcDbLine
 10
72.03736141508582
 20
257.9645117690154
 30
0.0
 11
72.54954265374422
 21
258.2770343742238
 31
0.0
  0
LINE
  5
AF
330
2
100
AcDbEntity
  8
UMRISS05
100
AcDbLine
 10
74.12084544980874
 20
254.5499701779588
 30
0.0
 11
73.23536473505149
 21
256.0011503541578
 31
0.0
  0
LINE
  5
B0
330
2
100
AcDbEntity
  8
UMRISS05
100
AcDbLine
 10
72.54954265374422
 20
258.2770343742238
 30
0.0
 11
73.43502336850147
 21
256.8258541980247
 31
0.0
  0
LINE
  5
B1
330
2
100
AcDbEntity
  8
UMRISS05
100
AcDbLine
 10
73.74754597371
 20
256.3136729593663
 30
0.0
 11
74.63302668846726
 21
254.8624927831673
 31
0.0
  0
DIMENSION
  5
B2
330
2
100
AcDbEntity
  8
UMRISS05
100
AcDbDimension
  2
*D14
 10
48.70615340571143
 20
186.1635022760917
 30
0.0
 11
48.7061534057114
 21
210.1635022760917
 31
0.0
 70
   128
 71
     5
 42
44.00000000000003
  3
Katalog 09
100
AcDbAlignedDimension
 13
64.81576108866295
 23
230.1635022760917
 33
0.0
 14
50.17383708207233
 24
186.1635022760917
 34
0.0
 50
90.0
100
AcDbRotatedDimension
1001
ACAD_DSTYLE_DIMINSPECT
1070
   396
1000
100%
1070
   395
1000

1070
   394
1070
    33
1070
   393
1070
     0
  0
LINE
  5
BF
330
2
100
AcDbEntity
  8
UMRISS05
100
AcDbLine
 10
60.17383708207233
 20
186.1635022760917
 30
0.0
 11
50.17383708207233
 21
186.1635022760917
 31
0.0
  0
TRACE
  5
C0
330
2
100
AcDbEntity
  8
UMRISS05
100
AcDbTrace
 10
-56.51358303207235
 20
191.1635022760917
 30
-0.0000000000000014
 11
-53.83409113207233
 21
191.1635022760917
 31
-0.0000000000000014
 12
-55.17383708207233
 22
186.1635022760917
 32
-0.0000000000000014
 13
-55.17383708207233
 23
186.1635022760917
 33
-0.0000000000000014
210
0.0
220
0.0
230
-1.0
  0
LINE
  5
C1
330
2
100
AcDbEntity
  8
UMRISS05
100
AcDbLine
 10
55.17383708207233
 20
191.1635022760917
 30
0.0
 11
55.17383708207233
 21
196.1635022760917
 31
0.0
  0
LINE
  5
C2
330
2
100
AcDbEntity
  8
UMRISS05
100
AcDbLine
 10
183.7022648145943
 20
186.1635022760917
 30
0.0
 11
173.7022648145943
 21
186.1635022760917
 31
0.0
  0
TRACE
  5
C3
330
2
100
AcDbEntity
  8
UMRISS05
100
AcDbTrace
 10
-180.0420107645943
 20
191.1635022760917
 30
-0.0000000000000044
 11
-177.3625188645943
 21
191.1635022760917
 31
-0.0000000000000044
 12
-178.7022648145943
 22
186.1635022760917
 32
-0.0000000000000044
 13
-178.7022648145943
 23
186.1635022760917
 33
-0.0000000000000044
210
0.0
220
0.0
230
-1.0
  0
LINE
  5
C4
330
2
100
AcDbEntity
  8
UMRISS05
100
AcDbLine
 10
178.7022648145943
 20
191.1635022760917
 30
0.0
 11
178.7022648145943
 21
196.1635022760917
 31
0.0
  0
LINE
  5
C5
330
2
100
AcDbEntity
  8
ACHSEN
100
AcDbLine
 10
60.17383708207233
 20
186.1635022760917
 30
0.0
 11
173.7022648145943
 21
186.1635022760917
 31
0.0
  0
CIRCLE
  5
CA
330
2
100
AcDbEntity
  8
UMRISS05
100
AcDbCircle
 10
72.83519405177639
 20
193.1635022760909
 30
0.0
 40
2.750000000000017
  0
CIRCLE
  5
CB
330
2
100
AcDbEntity
  8
UMRISS05
100
AcDbCircle
 10
72.83519405177634
 20
267.1635022760912
 30
0.0
 40
2.750000000000017
  0
LINE
  5
CC
330
2
100
AcDbEntity
  8
Verdeckte Kanten(MSL)
 48
1.90459656715393
100
AcDbLine
 10
167.8142086737341
 20
190.4135022760912
 30
0.0
 11
168.8142086737341
 21
190.4135022760912
 31
0.0
  0
LINE
  5
CF
330
2
100
AcDbEntity
  8
Verdeckte Kanten(MSL)
 48
1.90459656715393
100
AcDbLine
 10
167.8142086737341
 20
195.9135022760911
 30
0.0
 11
168.8142086737341
 21
195.9135022760911
 31
0.0
  0
LINE
  5
D0
330
2
100
AcDbEntity
  8
Verdeckte Kanten(MSL)
 48
1.90459656715393
100
AcDbLine
 10
167.8142086737341
 20
264.4135022760914
 30
0.0
 11
168.8142086737341
 21
264.4135022760914
 31
0.0
  0
LINE
  5
D1
330
2
100
AcDbEntity
  8
Verdeckte Kanten(MSL)
 48
1.90459656715393
100
AcDbLine
 10
167.8142086737341
 20
269.9135022760914
 30
0.0
 11
168.8142086737341
 21
269.9135022760914
 31
0.0
  0
LINE
  5
D2
330
2
100
AcDbEntity
  8
Verdeckte Kanten(MSL)
 48
5.387195587158203
100
AcDbLine
 10
168.8142086737341
 20
190.4135022760912
 30
0.0
 11
170.8142086737342
 21
188.4135022760911
 31
0.0
  0
LINE
  5
D3
330
2
100
AcDbEntity
  8
Verdeckte Kanten(MSL)
 48
5.387195587158203
100
AcDbLine
 10
168.8142086737341
 20
195.9135022760911
 30
0.0
 11
170.8142086737342
 21
197.9135022760911
 31
0.0
  0
LINE
  5
D4
330
2
100
AcDbEntity
  8
Verdeckte Kanten(MSL)
 48
5.387195587158203
100
AcDbLine
 10
168.8142086737341
 20
264.4135022760914
 30
0.0
 11
170.8142086737341
 21
262.4135022760913
 31
0.0
  0
LINE
  5
D5
330
2
100
AcDbEntity
  8
Verdeckte Kanten(MSL)
 48
5.387195587158203
100
AcDbLine
 10
168.8142086737341
 20
269.9135022760914
 30
0.0
 11
170.8142086737341
 21
271.9135022760914
 31
0.0
  0
LINE
  5
D6
330
2
100
AcDbEntity
  8
Verdeckte Kanten(MSL)
 48
20.89835548400879
100
AcDbLine
 10
168.8142086737341
 20
195.9135022760912
 30
0.0
 11
168.8142086737341
 21
190.4135022760912
 31
0.0
  0
LINE
  5
D7
330
2
100
AcDbEntity
  8
Verdeckte Kanten(MSL)
 48
20.89835548400879
100
AcDbLine
 10
168.8142086737341
 20
269.9135022760914
 30
0.0
 11
168.8142086737341
 21
264.4135022760914
 31
0.0
  0
DIMENSION
  5
D8
330
2
100
AcDbEntity
  8
UMRISS05
100
AcDbDimension
  2
*D13
 10
40.38870654603195
 20
193.163502276091
 30
0.0
 11
40.38870654603193
 21
226.1635022760912
 31
0.0
 70
   128
 71
     5
 42
74.00000000000019
  3
Katalog 09
100
AcDbAlignedDimension
 13
65.08519405177634
 23
267.1635022760912
 33
0.0
 14
65.0851940517764
 24
193.1635022760909
 34
0.0
 50
90.0
100
AcDbRotatedDimension
  0
DIMENSION
  5
E5
330
2
100
AcDbEntity
  8
UMRISS05
100
AcDbDimension
  2
*D12
 10
40.38870654603195
 20
275.1635022760912
 30
0.0
 11
37.16771404944255
 21
271.1635022760912
 31
0.0
 71
     5
 42
7.999999999999943
  3
Katalog 09
100
AcDbAlignedDimension
 13
65.08519405177634
 23
267.1635022760912
 33
0.0
 14
59.83519405177633
 24
275.1635022760912
 34
0.0
 50
90.0
100
AcDbRotatedDimension
  0
DIMENSION
  5
F4
330
2
100
AcDbEntity
  8
UMRISS05
100
AcDbDimension
  2
*D11
 10
40.38870654603195
 20
193.163502276091
 30
0.0
 11
37.16771404944257
 21
189.1635022760909
 31
0.0
 71
     5
 42
8.000000000000198
  3
Katalog 09
100
AcDbAlignedDimension
 13
59.83519405177641
 23
185.1635022760908
 33
0.0
 14
65.0851940517764
 24
193.1635022760909
 34
0.0
 50
90.0
100
AcDbRotatedDimension
  0
DIMENSION
  5
103
330
2
100
AcDbEntity
  8
UMRISS05
100
AcDbDimension
  2
*D10
 10
59.83519405163583
 20
141.5632135007986
 30
0.0
 11
46.87242120033979
 21
141.5632135007986
 31
0.0
 70
   128
 71
     5
 42
3.800000000000054
  3
Katalog 09
100
AcDbAlignedDimension
 13
63.63519405163589
 23
133.9619147529274
 33
0.0
 14
59.83519405163583
 24
118.9619147529396
 34
0.0
100
AcDbRotatedDimension
  0
TRACE
  5
112
330
2
100
AcDbEntity
  8
BEMASSUNG
  6
Continuous
 62
     2
100
AcDbTrace
 10
87.36948675807973
 20
253.2110655692632
 30
0.0
 11
88.25768332207118
 21
252.7516019083347
 31
0.0
 12
86.43519405177645
 22
250.3167440361663
 32
0.0
 13
86.43519405177645
 23
250.3167440361663
 33
0.0
  0
LINE
  5
116
330
2
100
AcDbEntity
  8
BEMASSUNG
 62
     2
100
AcDbLine
 10
101.2090046882542
 20
284.8806480454573
 30
0.0
 11
87.81358504007547
 21
252.9813337387989
 31
0.0
  0
LINE
  5
117
330
2
100
AcDbEntity
  8
BEMASSUNG
 62
     2
100
AcDbLine
 10
105.9187607237658
 20
284.8806480454573
 30
0.0
 11
101.2090046882542
 21
284.8806480454573
 31
0.0
  0
LINE
  5
118
330
2
100
AcDbEntity
  8
AVERDECKTE
100
AcDbLine
 10
170.814208673731
 20
207.0635022760916
 30
0.0
 11
159.8142086737318
 21
207.0635022760916
 31
0.0
  0
LINE
  5
11D
330
2
100
AcDbEntity
  8
AVERDECKTE
100
AcDbLine
 10
170.814208673731
 20
253.2635022760917
 30
0.0
 11
159.8142086737318
 21
253.2635022760917
 31
0.0
  0
LINE
  5
11E
330
2
100
AcDbEntity
  8
AVERDECKTE
100
AcDbLine
 10
159.8142086737318
 20
253.2635022760917
 30
0.0
 11
159.8142086737318
 21
207.0635022760916
 31
0.0
  0
LINE
  5
11F
330
2
100
AcDbEntity
  8
ACHSEN
100
AcDbLine
 10
72.83519405177642
 20
137.2697249350551
 30
0.0
 11
72.83519405177642
 21
111.8428473356072
 31
0.0
  0
DIMENSION
  5
120
330
2
100
AcDbEntity
  8
UMRISS05
100
AcDbDimension
  2
*D9
 10
83.03519405163582
 20
148.6720030285826
 30
0.0
 11
73.33519405163585
 21
151.8929955251719
 31
0.0
 71
     5
 42
19.39999999999993
  3
Katalog 09
100
AcDbAlignedDimension
 13
63.63519405163589
 23
133.9619147529272
 33
0.0
 14
83.03519405163582
 24
133.9619147529272
 34
0.0
100
AcDbRotatedDimension
  0
LINE
  5
12D
330
2
100
AcDbEntity
  8
ACHSEN
100
AcDbLine
 10
173.327389753665
 20
193.1635022760912
 30
0.0
 11
163.6637977808535
 21
193.1635022760912
 31
0.0
  0
LINE
  5
12E
330
2
100
AcDbEntity
  8
ACHSEN
100
AcDbLine
 10
173.4165483397538
 20
267.0621512349859
 30
0.0
 11
163.3307483042064
 21
267.0621512349859
 31
0.0
  0
DIMENSION
  5
12F
330
2
100
AcDbEntity
  8
BEMASSUNG
100
AcDbDimension
  2
*D8
 10
167.8142086737303
 20
165.2721593527764
 30
0.0
 11
169.3142086737303
 21
168.494635478288
 31
0.0
 71
     5
 42
3.0
  3
Katalog 09
100
AcDbAlignedDimension
 13
170.8142086737303
 23
185.1635022760909
 33
0.0
 14
167.8142086737303
 24
185.1635022760909
 34
0.0
100
AcDbRotatedDimension
1001
ACAD_DSTYLE_DIMINSPECT
1070
   396
1000
100%
1070
   395
1000

1070
   394
1070
    33
1070
   393
1070
     0
  0
DIMENSION
  5
13E
330
2
100
AcDbEntity
  8
BEMASSUNG
100
AcDbDimension
  2
*D7
 10
167.8142086737303
 20
173.8825355078084
 30
0.0
 11
160.3142086737311
 21
173.8825355078084
 31
0.0
 70
   128
 71
     5
 42
14.99999999999846
  3
Katalog 09
100
AcDbAlignedDimension
 13
152.8142086737318
 23
199.1635022760917
 33
0.0
 14
167.8142086737303
 24
185.1635022760909
 34
0.0
100
AcDbRotatedDimension
1001
ACAD_DSTYLE_DIMINSPECT
1070
   396
1000
100%
1070
   395
1000

1070
   394
1070
    33
1070
   393
1070
     0
  0
DIMENSION
  5
14B
330
2
100
AcDbEntity
  8
BEMASSUNG
100
AcDbDimension
  2
*D6
 10
140.462227039412
 20
261.1635022760915
 30
0.0
 11
137.2412345428226
 21
230.1635022760915
 31
0.0
 71
     5
 42
61.99999999999997
  3
Katalog 09
100
AcDbAlignedDimension
 13
152.8142086737318
 23
199.1635022760915
 33
0.0
 14
152.8142086737318
 24
261.1635022760915
 34
0.0
 50
90.0
100
AcDbRotatedDimension
1001
ACAD_DSTYLE_DIMINSPECT
1070
   396
1000
100%
1070
   395
1000

1070
   394
1070
    33
1070
   393
1070
     0
  0
ARC
  5
158
330
2
100
AcDbEntity
  8
AVERDECKTE
100
AcDbCircle
 10
81.53519405177652
 20
259.6635022760914
 30
0.0
 40
1.5
100
AcDbArc
 50
0.0
 51
90.0
  0
LINE
  5
159
330
2
100
AcDbEntity
  8
AVERDECKTE
100
AcDbLine
 10
83.03519405177652
 20
254.1635022760914
 30
0.0
 11
83.03519405177652
 21
259.6635022760914
 31
0.0
  0
LINE
  5
15A
330
2
100
AcDbEntity
  8
AVERDECKTE
100
AcDbLine
 10
83.03519405177652
 20
200.6635022760914
 30
0.0
 11
83.03519405177652
 21
206.1635022760914
 31
0.0
  0
ARC
  5
15B
330
2
100
AcDbEntity
  8
AVERDECKTE
100
AcDbCircle
 10
65.13519405177655
 20
259.6635022760914
 30
0.0
 40
1.5
100
AcDbArc
 50
90.0
 51
180.0
  0
LINE
  5
15C
330
2
100
AcDbEntity
  8
AVERDECKTE
100
AcDbLine
 10
63.63519405177649
 20
200.6635022760913
 30
0.0
 11
63.63519405177655
 21
259.6635022760914
 31
0.0
  0
LINE
  5
15D
330
2
100
AcDbEntity
  8
AVERDECKTE
100
AcDbLine
 10
81.53519405177652
 20
261.1635022760914
 30
0.0
 11
65.13519405177655
 21
261.1635022760914
 31
0.0
  0
ARC
  5
15E
330
2
100
AcDbEntity
  8
AVERDECKTE
100
AcDbCircle
 10
65.1351940517765
 20
200.6635022760913
 30
0.0
 40
1.5
100
AcDbArc
 50
180.0
 51
270.0
  0
ARC
  5
15F
330
2
100
AcDbEntity
  8
AVERDECKTE
100
AcDbCircle
 10
81.53519405177652
 20
200.6635022760914
 30
0.0
 40
1.5
100
AcDbArc
 50
270.0
 51
0.0
  0
LINE
  5
160
330
2
100
AcDbEntity
  8
AVERDECKTE
100
AcDbLine
 10
81.53519405177652
 20
199.1635022760913
 30
0.0
 11
65.1351940517765
 21
199.1635022760912
 31
0.0
  0
LINE
  5
161
330
2
100
AcDbEntity
  8
ACHSEN
100
AcDbLine
 10
82.13519405177626
 20
214.6635022760916
 30
0.0
 11
67.18519405177628
 21
214.6635022760916
 31
0.0
  0
LINE
  5
162
330
2
100
AcDbEntity
  8
ACHSEN
100
AcDbLine
 10
67.18519405177628
 20
245.6635022760917
 30
0.0
 11
82.05130031694523
 21
245.6635022760917
 31
0.0
  0
LINE
  5
163
330
2
100
AcDbEntity
  8
ACHSEN
100
AcDbLine
 10
64.81576108866295
 20
230.1635022760917
 30
0.0
 11
88.0211488979752
 21
230.1635022760917
 31
0.0
  0
DIMENSION
  5
164
330
2
100
AcDbEntity
  8
BEMASSUNG
100
AcDbDimension
  2
*D5
 10
85.83519405177638
 20
169.2013381150258
 30
0.0
 11
73.25080178530578
 21
169.2013381150258
 31
0.0
 70
   128
  1
<>
 71
     5
 42
26.0
  3
Katalog 09
100
AcDbAlignedDimension
 13
59.83519405177637
 23
185.1635022760918
 33
0.0
 14
85.83519405177638
 24
185.1635022760918
 34
0.0
100
AcDbRotatedDimension
  0
DIMENSION
  5
171
330
2
100
AcDbEntity
  8
BEMASSUNG
100
AcDbDimension
  2
*D4
 10
112.4516331042394
 20
275.163502276092
 30
0.0
 11
112.4516331042393
 21
230.6334233612222
 31
0.0
 70
   128
 71
     5
 42
90.00000000000019
  3
Katalog 09
100
AcDbAlignedDimension
 13
85.83519405177638
 23
185.1635022760918
 33
0.0
 14
85.83519405177638
 24
275.163502276092
 34
0.0
 50
90.0
100
AcDbRotatedDimension
  0
DIMENSION
  5
17E
330
2
100
AcDbEntity
  8
BEMASSUNG
100
AcDbDimension
  2
*D3
 10
103.8944260980039
 20
206.1635022760914
 30
0.0
 11
100.7105243244705
 21
195.6635022760911
 31
0.0
 71
     5
 42
21.00000000000057
  3
Katalog 09
100
AcDbAlignedDimension
 13
85.83519405177641
 23
185.1635022760908
 33
0.0
 14
85.33519405177647
 24
206.1635022760914
 34
0.0
 50
270.0
100
AcDbRotatedDimension
  0
DIMENSION
  5
18B
330
2
100
AcDbEntity
  8
BEMASSUNG
100
AcDbDimension
  2
*D2
 10
103.8944260980039
 20
254.1635022760914
 30
0.0
 11
100.6734336014145
 21
230.1635022760915
 31
0.0
 71
     5
 42
48.00000000000006
  3
Katalog 09
100
AcDbAlignedDimension
 13
85.33519405177647
 23
206.1635022760914
 33
0.0
 14
85.3351940517764
 24
254.1635022760914
 34
0.0
 50
270.0
100
AcDbRotatedDimension
  0
DIMENSION
  5
198
330
2
100
AcDbEntity
  8
BEMASSUNG
100
AcDbDimension
  2
*D1
 10
103.8944260980039
 20
275.163502276092
 30
0.0
 11
100.7105243244705
 21
264.6635022760917
 31
0.0
 71
     5
 42
21.00000000000054
  3
Katalog 09
100
AcDbAlignedDimension
 13
85.3351940517764
 23
254.1635022760914
 33
0.0
 14
85.83519405177638
 24
275.163502276092
 34
0.0
 50
270.0
100
AcDbRotatedDimension
  0
LINE
  5
1A5
330
2
100
AcDbEntity
  8
ACHSEN
100
AcDbLine
 10
80.58519405177634
 20
267.1635022760912
 30
0.0
 11
65.08519405177634
 21
267.1635022760912
 31
0.0
  0
LINE
  5
1A6
330
2
100
AcDbEntity
  8
ACHSEN
100
AcDbLine
 10
80.58519405177639
 20
193.1635022760909
 30
0.0
 11
65.0851940517764
 21
193.1635022760909
 31
0.0
  0
LINE
  5
1A7
330
2
100
AcDbEntity
  8
ACHSEN
100
AcDbLine
 10
72.83519405177639
 20
181.8147900359019
 30
0.0
 11
72.83519405177634
 21
278.1635022760911
 31
0.0
  0
LINE
  5
1A8
330
2
100
AcDbEntity
  8
UMRISS05
100
AcDbLine
 10
82.28519405163586
 20
118.9619147529253
 30
0.0
 11
82.28519405163586
 21
123.4619147529253
 31
0.0
  0
LINE
  5
1A9
330
2
100
AcDbEntity
  8
UMRISS05
100
AcDbLine
 10
86.43519405163587
 20
118.3619147529252
 30
0.0
 11
85.83519405163588
 21
118.3619147529253
 31
0.0
  0
LINE
  5
1AA
330
2
100
AcDbEntity
  8
UMRISS05
100
AcDbLine
 10
86.43519405163587
 20
117.4619147529252
 30
0.0
 11
86.43519405163587
 21
118.3619147529252
 31
0.0
  0
ARC
  5
1AB
330
2
100
AcDbEntity
  8
UMRISS05
100
AcDbCircle
 10
84.93519405163588
 20
117.4619147529252
 30
0.0
 40
1.499999999999996
100
AcDbArc
 50
306.8698976458439
 51
0.0
  0
LINE
  5
1AC
330
2
100
AcDbEntity
  8
UMRISS05
100
AcDbLine
 10
84.83519405163589
 20
115.9619147529252
 30
0.0
 11
84.93519405163587
 21
115.9619147529252
 31
0.0
  0
LINE
  5
1AD
330
2
100
AcDbEntity
  8
UMRISS05
100
AcDbLine
 10
83.03519405163584
 20
133.9619147529272
 30
0.0
 11
81.53519405163583
 21
133.9619147529276
 31
0.0
  0
LINE
  5
1AE
330
2
100
AcDbEntity
  8
UMRISS05
100
AcDbLine
 10
65.13519405163589
 20
133.9619147529276
 30
0.0
 11
81.53519405163583
 21
133.9619147529276
 31
0.0
  0
LINE
  5
1AF
330
2
100
AcDbEntity
  8
UMRISS05
100
AcDbLine
 10
65.13519405163588
 20
133.9619147529276
 30
0.0
 11
63.63519405163587
 21
133.9619147529272
 31
0.0
  0
LINE
  5
1B0
330
2
100
AcDbEntity
  8
UMRISS05
100
AcDbLine
 10
63.63519405163589
 20
133.9619147529272
 30
0.0
 11
63.63519405163589
 21
118.9619147529272
 31
0.0
  0
LINE
  5
1B1
330
2
100
AcDbEntity
  8
UMRISS05
100
AcDbLine
 10
83.03519405163582
 20
133.9619147529272
 30
0.0
 11
83.03519405163582
 21
123.4619147529272
 31
0.0
  0
LINE
  5
1B2
330
2
100
AcDbEntity
  8
UMRISS05
100
AcDbLine
 10
80.53519405163584
 20
118.9619147529276
 30
0.0
 11
80.53519405163584
 21
123.4619147529276
 31
0.0
  0
LINE
  5
1B3
330
2
100
AcDbEntity
  8
UMRISS05
100
AcDbLine
 10
80.53519405163584
 20
123.4619147529276
 30
0.0
 11
81.53519405163583
 21
123.4619147529276
 31
0.0
  0
LINE
  5
1B4
330
2
100
AcDbEntity
  8
UMRISS05
100
AcDbLine
 10
83.03519405163584
 20
123.4619147529272
 30
0.0
 11
81.53519405163583
 21
123.4619147529276
 31
0.0
  0
LINE
  5
1B5
330
2
100
AcDbEntity
  8
UMRISS05
100
AcDbLine
 10
59.83519405163583
 20
118.9619147529396
 30
0.0
 11
59.83519405163583
 21
115.9619147529396
 31
0.0
  0
LINE
  5
1B6
330
2
100
AcDbEntity
  8
UMRISS05
100
AcDbLine
 10
85.83519405163588
 20
118.9619147529396
 30
0.0
 11
85.83519405163588
 21
115.9619147529396
 31
0.0
  0
LINE
  5
1B7
330
2
100
AcDbEntity
  8
UMRISS05
100
AcDbLine
 10
59.83519405163583
 20
115.9619147529396
 30
0.0
 11
85.83519405163588
 21
115.9619147529396
 31
0.0
  0
LINE
  5
1B8
330
2
100
AcDbEntity
  8
UMRISS05
100
AcDbLine
 10
85.83519405163588
 20
118.9619147529396
 30
0.0
 11
59.83519405163583
 21
118.9619147529396
 31
0.0
  0
LINE
  5
1B9
330
2
100
AcDbEntity
  8
UMRISS05
100
AcDbLine
 10
152.8142086737318
 20
261.1635022760915
 30
0.0
 11
167.8142086737323
 21
261.1635022760915
 31
0.0
  0
LINE
  5
1BA
330
2
100
AcDbEntity
  8
UMRISS05
100
AcDbLine
 10
152.8142086737318
 20
199.1635022760917
 30
0.0
 11
152.8142086737318
 21
261.1635022760915
 31
0.0
  0
LINE
  5
1BB
330
2
100
AcDbEntity
  8
UMRISS05
100
AcDbLine
 10
152.8142086737318
 20
199.1635022760917
 30
0.0
 11
167.8142086737323
 21
199.1635022760917
 31
0.0
  0
LINE
  5
1BC
330
2
100
AcDbEntity
  8
UMRISS05
100
AcDbLine
 10
167.8142086737303
 20
185.1635022760909
 30
0.0
 11
170.8142086737303
 21
185.1635022760909
 31
0.0
  0
LINE
  5
1BD
330
2
100
AcDbEntity
  8
UMRISS05
100
AcDbLine
 10
167.8142086737302
 20
275.1635022760913
 30
0.0
 11
167.8142086737303
 21
185.1635022760909
 31
0.0
  0
LINE
  5
1BE
330
2
100
AcDbEntity
  8
UMRISS05
100
AcDbLine
 10
167.8142086737302
 20
275.1635022760913
 30
0.0
 11
170.8142086737302
 21
275.1635022760913
 31
0.0
  0
LINE
  5
1BF
330
2
100
AcDbEntity
  8
UMRISS05
100
AcDbLine
 10
170.8142086737303
 20
185.1635022760909
 30
0.0
 11
170.8142086737302
 21
275.1635022760913
 31
0.0
  0
CIRCLE
  5
1C0
330
2
100
AcDbEntity
  8
UMRISS05
100
AcDbCircle
 10
73.33519405177637
 20
256.4135022760913
 30
0.0
 40
4.2
  0
CIRCLE
  5
1C1
330
2
100
AcDbEntity
  8
UMRISS05
100
AcDbCircle
 10
73.33519405177646
 20
203.9135022760914
 30
0.0
 40
4.2
  0
ARC
  5
1C2
330
2
100
AcDbEntity
  8
UMRISS05
100
AcDbCircle
 10
76.03519405177646
 20
245.6635022760916
 30
0.0
 40
4.000000000000001
100
AcDbArc
 50
0.0
 51
90.0
  0
LINE
  5
1C3
330
2
100
AcDbEntity
  8
UMRISS05
100
AcDbLine
 10
76.03519405177646
 20
249.6635022760916
 30
0.0
 11
72.63519405177643
 21
249.6635022760916
 31
0.0
  0
ARC
  5
1C4
330
2
100
AcDbEntity
  8
UMRISS05
100
AcDbCircle
 10
72.63519405177645
 20
245.6635022760916
 30
0.0
 40
3.999999999999999
100
AcDbArc
 50
90.0
 51
270.0
  0
LINE
  5
1C5
330
2
100
AcDbEntity
  8
UMRISS05
100
AcDbLine
 10
72.63519405177645
 20
241.6635022760916
 30
0.0
 11
76.03519405177646
 21
241.6635022760916
 31
0.0
  0
ARC
  5
1C6
330
2
100
AcDbEntity
  8
UMRISS05
100
AcDbCircle
 10
76.03519405177646
 20
245.6635022760916
 30
0.0
 40
4.000000000000001
100
AcDbArc
 50
270.0
 51
0.0
  0
ARC
  5
1C7
330
2
100
AcDbEntity
  8
UMRISS05
100
AcDbCircle
 10
76.03519405177646
 20
214.6635022760917
 30
0.0
 40
4.0
100
AcDbArc
 50
0.0
 51
90.0
  0
LINE
  5
1C8
330
2
100
AcDbEntity
  8
UMRISS05
100
AcDbLine
 10
76.03519405177646
 20
218.6635022760917
 30
0.0
 11
72.63519405177645
 21
218.6635022760917
 31
0.0
  0
ARC
  5
1C9
330
2
100
AcDbEntity
  8
UMRISS05
100
AcDbCircle
 10
72.63519405177645
 20
214.6635022760917
 30
0.0
 40
3.999999999999999
100
AcDbArc
 50
90.0
 51
270.0
  0
LINE
  5
1CA
330
2
100
AcDbEntity
  8
UMRISS05
100
AcDbLine
 10
72.63519405177645
 20
210.6635022760917
 30
0.0
 11
76.03519405177646
 21
210.6635022760917
 31
0.0
  0
ARC
  5
1CB
330
2
100
AcDbEntity
  8
UMRISS05
100
AcDbCircle
 10
76.03519405177646
 20
214.6635022760917
 30
0.0
 40
4.000000000000001
100
AcDbArc
 50
270.0
 51
0.0
  0
LINE
  5
1CC
330
2
100
AcDbEntity
  8
UMRISS05
100
AcDbLine
 10
86.43519405177647
 20
207.2135022760917
 30
0.0
 11
86.43519405177645
 21
253.1135022760915
 31
0.0
  0
LINE
  5
1CD
330
2
100
AcDbEntity
  8
UMRISS05
100
AcDbLine
 10
86.43519405177647
 20
207.2135022760917
 30
0.0
 11
77.28519405177616
 21
207.2135022760917
 31
0.0
  0
LINE
  5
1CE
330
2
100
AcDbEntity
  8
UMRISS05
100
AcDbLine
 10
77.28519405177666
 20
253.1135022760915
 30
0.0
 11
86.43519405177645
 21
253.1135022760916
 31
0.0
  0
LINE
  5
1CF
330
2
100
AcDbEntity
  8
UMRISS05
100
AcDbLine
 10
80.03519405177645
 20
253.1135022760916
 30
0.0
 11
80.03519405177646
 21
207.2135022760917
 31
0.0
  0
LINE
  5
1D0
330
2
100
AcDbEntity
  8
UMRISS05
100
AcDbLine
 10
83.03519405177643
 20
207.2135022760917
 30
0.0
 11
83.03519405177643
 21
206.1635022760915
 31
0.0
  0
LINE
  5
1D1
330
2
100
AcDbEntity
  8
UMRISS05
100
AcDbLine
 10
83.03519405177642
 20
253.1135022760915
 30
0.0
 11
83.03519405177642
 21
254.1635022760913
 31
0.0
  0
LINE
  5
1D2
330
2
100
AcDbEntity
  8
UMRISS05
100
AcDbLine
 10
85.83519405177645
 20
205.6635022760914
 30
0.0
 11
85.83519405177641
 21
185.1635022760908
 31
0.0
  0
LINE
  5
1D3
330
2
100
AcDbEntity
  8
UMRISS05
100
AcDbLine
 10
85.83519405177641
 20
185.1635022760908
 30
0.0
 11
59.83519405177641
 21
185.1635022760908
 31
0.0
  0
LINE
  5
1D4
330
2
100
AcDbEntity
  8
UMRISS05
100
AcDbLine
 10
59.83519405177641
 20
185.1635022760908
 30
0.0
 11
59.83519405177633
 21
275.1635022760912
 31
0.0
  0
LINE
  5
1D5
330
2
100
AcDbEntity
  8
UMRISS05
100
AcDbLine
 10
59.83519405177633
 20
275.1635022760912
 30
0.0
 11
85.83519405177636
 21
275.1635022760912
 31
0.0
  0
LINE
  5
1D6
330
2
100
AcDbEntity
  8
UMRISS05
100
AcDbLine
 10
85.83519405177636
 20
275.1635022760912
 30
0.0
 11
85.83519405177645
 21
254.6635022760914
 31
0.0
  0
CIRCLE
  5
1D7
330
2
100
AcDbEntity
  8
UMRISS05
100
AcDbCircle
 10
73.33519405177643
 20
256.4135022760913
 30
0.0
 40
4.0
  0
CIRCLE
  5
1D8
330
2
100
AcDbEntity
  8
UMRISS05
100
AcDbCircle
 10
73.33519405177644
 20
203.9135022760914
 30
0.0
 40
4.0
  0
ARC
  5
1D9
330
2
100
AcDbEntity
  8
UMRISS05
100
AcDbCircle
 10
78.74940761414951
 20
207.1635022760915
 30
0.0
 40
1.000000000000049
100
AcDbArc
 50
225.0000000000022
 51
269.9999999999988
  0
LINE
  5
1DA
330
2
100
AcDbEntity
  8
UMRISS05
100
AcDbLine
 10
78.04230083296293
 20
206.4563954949048
 30
0.0
 11
76.6280872705899
 21
207.870609057278
 31
0.0
  0
ARC
  5
1DB
330
2
100
AcDbEntity
  8
UMRISS05
100
AcDbCircle
 10
75.92098048940332
 20
207.1635022760913
 30
0.0
 40
1.000000000000048
100
AcDbArc
 50
45.00000000000272
 51
90.0
  0
LINE
  5
1DC
330
2
100
AcDbEntity
  8
UMRISS05
100
AcDbLine
 10
75.92098048940333
 20
208.1635022760914
 30
0.0
 11
68.33519405177644
 21
208.1635022760914
 31
0.0
  0
ARC
  5
1DD
330
2
100
AcDbEntity
  8
UMRISS05
100
AcDbCircle
 10
68.33519405177648
 20
209.1635022760914
 30
0.0
 40
1.000000000000049
100
AcDbArc
 50
180.0
 51
269.9999999999976
  0
LINE
  5
1DE
330
2
100
AcDbEntity
  8
UMRISS05
100
AcDbLine
 10
67.33519405177642
 20
209.1635022760914
 30
0.0
 11
67.33519405177642
 21
251.1635022760914
 31
0.0
  0
ARC
  5
1DF
330
2
100
AcDbEntity
  8
UMRISS05
100
AcDbCircle
 10
68.33519405177648
 20
251.1635022760913
 30
0.0
 40
1.000000000000045
100
AcDbArc
 50
90.00000000000447
 51
180.0
  0
LINE
  5
1E0
330
2
100
AcDbEntity
  8
UMRISS05
100
AcDbLine
 10
68.33519405177644
 20
252.1635022760914
 30
0.0
 11
75.92098048940333
 21
252.1635022760914
 31
0.0
  0
ARC
  5
1E1
330
2
100
AcDbEntity
  8
UMRISS05
100
AcDbCircle
 10
75.92098048940333
 20
253.1635022760913
 30
0.0
 40
0.9999999999999431
100
AcDbArc
 50
270.0
 51
315.0000000000013
  0
LINE
  5
1E2
330
2
100
AcDbEntity
  8
UMRISS05
100
AcDbLine
 10
76.6280872705899
 20
252.4563954949048
 30
0.0
 11
78.04230083296293
 21
253.8706090572779
 31
0.0
  0
ARC
  5
1E3
330
2
100
AcDbEntity
  8
UMRISS05
100
AcDbCircle
 10
78.74940761414951
 20
253.1635022760913
 30
0.0
 40
1.000000000000051
100
AcDbArc
 50
90.00000000000245
 51
134.9999999999996
  0
LINE
  5
1E4
330
2
100
AcDbEntity
  8
UMRISS05
100
AcDbLine
 10
78.74940761414947
 20
254.1635022760914
 30
0.0
 11
85.33519405177646
 21
254.1635022760914
 31
0.0
  0
LINE
  5
1E5
330
2
100
AcDbEntity
  8
UMRISS05
100
AcDbLine
 10
85.33519405177647
 20
206.1635022760914
 30
0.0
 11
78.74940761414947
 21
206.1635022760914
 31
0.0
  0
ARC
  5
1E6
330
2
100
AcDbEntity
  8
UMRISS05
100
AcDbCircle
 10
85.33519405177647
 20
254.6635022760914
 30
0.0
 40
0.4999999999999627
100
AcDbArc
 50
269.9999999999919
 51
0.0
  0
ARC
  5
1E7
330
2
100
AcDbEntity
  8
UMRISS05
100
AcDbCircle
 10
85.33519405177651
 20
205.6635022760914
 30
0.0
 40
0.4999999999999716
100
AcDbArc
 50
0.0
 51
90.00000000000406
  0
CIRCLE
  5
1E8
330
2
100
AcDbEntity
  8
UMRISS05
100
AcDbCircle
 10
72.83519405177639
 20
193.1635022760909
 30
0.0
 40
4.75
  0
CIRCLE
  5
1E9
330
2
100
AcDbEntity
  8
UMRISS05
100
AcDbCircle
 10
72.83519405177634
 20
267.1635022760912
 30
0.0
 40
4.75
  0
MTEXT
  5
1EA
330
2
100
AcDbEntity
  8
UMRISS05
 62
     3
100
AcDbMText
 10
121.2760481670433
 20
287.7166230988419
 30
0.0
 40
3.5
 41
0.0
 71
     5
 72
     1
  1
\A1;Verstellbereich\P-1 / +2mm
  7
ARIAL-STANDARD
 73
     1
 44
1.0
1001
ACAD
1000
MTEXTBEGIN
1070
    73
1070
     1
1070
    44
1040
1.0
1070
    74
1070
     0
1000
MTEXTEND
  0
MTEXT
  5
1EB
102
{ACAD_XDICTIONARY
360
26A
102
}
330
2
100
AcDbEntity
  8
UMRISS05
 62
     3
100
AcDbMText
 10
195.9425996977081
 20
194.3266296363478
 30
0.0
 40
3.5
 41
0.0
 71
     5
 72
     1
  1
\A1;Dr\U+00FCckerh\U+00F6he
  7
ARIAL-STANDARD
 73
     1
 44
1.0
1001
ACAD
1000
MTEXTBEGIN
1070
    73
1070
     1
1070
    44
1040
1.0
1070
    74
1070
     0
1000
MTEXTEND
  0
ENDSEC
  0
SECTION
  2
OBJECTS
  0
DICTIONARY
  5
B
330
0
100
AcDbDictionary
281
     1
  3
ACAD_COLOR
350
4F
  3
ACAD_DETAILVIEWSTYLE
350
20E
  3
ACAD_FIELDLIST
350
242
  3
ACAD_GROUP
350
3C
  3
ACAD_LAYOUT
350
18
  3
ACAD_MATERIAL
350
D
  3
ACAD_MLEADERSTYLE
350
52
  3
ACAD_MLINESTYLE
350
3D
  3
ACAD_PLOTSETTINGS
350
3E
  3
ACAD_PLOTSTYLENAME
350
A
  3
ACAD_SCALELIST
350
50
  3
ACAD_SECTIONVIEWSTYLE
350
219
  3
ACAD_TABLESTYLE
350
51
  3
ACAD_VISUALSTYLE
350
30
  3
ACDB_RECOMPOSE_DATA
350
254
  3
AcDbVariableDictionary
350
246
  3
AcDsDecomposeData
350
25A
  3
AcmDictionary
350
1FE
  3
AcmSystemVariableManager
350
271
  3
AMG
350
1EE
  0
DICTIONARY
  5
20
330
1F
100
AcDbDictionary
280
     1
281
     1
  3
ACAD_LAYERFILTERS
360
21
  3
ACAD_LAYERSTATES
360
22
  3
ACLYDICTIONARY
360
23
  0
DICTIONARY
  5
7
330
6
100
AcDbDictionary
280
     1
281
     1
  3
ADSK_XREC_LAYER_RECONCILED
360
8
  0
DICTIONARY
  5
54
330
53
100
AcDbDictionary
280
     1
281
     1
  3
ADSK_XREC_LAYER_RECONCILED
360
55
  0
DICTIONARY
  5
114
330
113
100
AcDbDictionary
280
     1
281
     1
  3
ADSK_XREC_LAYER_RECONCILED
360
115
  0
DICTIONARY
  5
C7
330
C6
100
AcDbDictionary
280
     1
281
     1
  3
ADSK_XREC_LAYER_RECONCILED
360
C8
  0
DICTIONARY
  5
11A
330
119
100
AcDbDictionary
280
     1
281
     1
  3
ADSK_XREC_LAYER_RECONCILED
360
11B
  0
DICTIONARY
  5
3
330
2
100
AcDbDictionary
280
     1
281
     1
  3
ACAD_SORTENTS
360
1EC
  0
DICTIONARY
  5
26A
330
1EB
100
AcDbDictionary
280
     1
281
     1
  3
ACAD_MTEXT_RT
360
26B
  0
DICTIONARY
  5
4F
102
{ACAD_REACTORS
330
B
102
}
330
B
100
AcDbDictionary
281
     1
  0
DICTIONARY
  5
20E
102
{ACAD_REACTORS
330
B
102
}
330
B
100
AcDbDictionary
281
     1
  3
Metric50
350
215
  0
FIELDLIST
  5
242
102
{ACAD_REACTORS
330
B
102
}
330
B
100
AcDbIdSet
 90
        6
330
211
330
212
330
213
330
21C
330
21D
330
21E
100
AcDbFieldList
  0
DICTIONARY
  5
3C
102
{ACAD_REACTORS
330
B
102
}
330
B
100
AcDbDictionary
281
     1
  0
DICTIONARY
  5
18
102
{ACAD_REACTORS
330
B
102
}
330
B
100
AcDbDictionary
281
     1
  3
Layout1
350
1E
  3
Model
350
17
  0
DICTIONARY
  5
D
102
{ACAD_REACTORS
330
B
102
}
330
B
100
AcDbDictionary
281
     1
  3
ByBlock
350
47
  3
ByLayer
350
3F
  3
Global
350
C
  0
DICTIONARY
  5
52
102
{ACAD_REACTORS
330
B
102
}
330
B
100
AcDbDictionary
281
     1
  0
DICTIONARY
  5
3D
102
{ACAD_REACTORS
330
B
102
}
330
B
100
AcDbDictionary
281
     1
  3
STANDARD
350
56
  0
DICTIONARY
  5
3E
102
{ACAD_REACTORS
330
B
102
}
330
B
100
AcDbDictionary
281
     1
  0
ACDBDICTIONARYWDFLT
  5
A
102
{ACAD_REACTORS
330
B
102
}
330
B
100
AcDbDictionary
281
     1
  3
Normal
350
9
100
AcDbDictionaryWithDefault
340
9
  0
DICTIONARY
  5
50
102
{ACAD_REACTORS
330
B
102
}
330
B
100
AcDbDictionary
281
     1
  3
A0
350
5B
  3
A1
350
5C
  3
A2
350
5D
  3
A3
350
5E
  3
A4
350
5F
  3
A5
350
60
  3
A6
350
61
  3
A7
350
62
  3
A8
350
63
  3
A9
350
64
  3
B0
350
65
  3
B1
350
66
  3
B2
350
67
  3
B3
350
68
  3
B4
350
69
  3
B5
350
6A
  3
B6
350
6B
  0
DICTIONARY
  5
219
102
{ACAD_REACTORS
330
B
102
}
330
B
100
AcDbDictionary
281
     1
  3
Metric50
350
224
  0
DICTIONARY
  5
51
102
{ACAD_REACTORS
330
B
102
}
330
B
100
AcDbDictionary
281
     1
  3
Standard
350
57
  0
DICTIONARY
  5
30
102
{ACAD_REACTORS
330
B
102
}
330
B
100
AcDbDictionary
281
     1
  3
2dWireframe
350
2F
  3
Realistic
350
59
  3
Wireframe
350
5A
  0
XRECORD
  5
254
102
{ACAD_REACTORS
330
B
102
}
330
B
100
AcDbXrecord
280
     1
 90
        1
330
57
  0
DICTIONARY
  5
246
102
{ACAD_REACTORS
330
B
102
}
330
B
100
AcDbDictionary
281
     1
  3
CANNOSCALE
350
24B
  3
CMLEADERSTYLE
350
248
  3
CTABLESTYLE
350
247
  3
CVIEWDETAILSTYLE
350
249
  3
CVIEWSECTIONSTYLE
350
24A
  3
DIMASSOC
350
250
  3
HIDETEXT
350
24E
  3
INDEXCTL
350
24D
  3
SOLIDHIST
350
251
  3
SORTENTS
350
24C
  3
XCLIPFRAME
350
24F
  0
DICTIONARY
  5
25A
102
{ACAD_REACTORS
330
B
102
}
330
B
100
AcDbDictionary
281
     1
  3
AcDsRecords
350
25C
  3
AcDsSchemas
350
25B
1001
ACAD
1070
     2
  0
DICTIONARY
  5
1FE
102
{ACAD_REACTORS
330
B
102
}
330
B
100
AcDbDictionary
281
     1
  3
AcmStdDictionary
350
1FF
  0
DICTIONARY
  5
1EE
102
{ACAD_REACTORS
330
B
102
}
330
B
100
AcDbDictionary
281
     1
  3
AcMgSettings
350
1F8
  0
DICTIONARY
  5
21
102
{ACAD_REACTORS
330
20
102
}
330
20
100
AcDbDictionary
281
     1
  0
DICTIONARY
  5
22
102
{ACAD_REACTORS
330
20
102
}
330
20
100
AcDbDictionary
281
     1
  0
DICTIONARY
  5
23
102
{ACAD_REACTORS
330
20
102
}
330
20
100
AcDbDictionary
281
     1
1001
ACAD
1000
<All
  0
XRECORD
  5
8
102
{ACAD_REACTORS
330
7
102
}
330
7
100
AcDbXrecord
280
     1
290
     1
  0
XRECORD
  5
55
102
{ACAD_REACTORS
330
54
102
}
330
54
100
AcDbXrecord
280
     1
290
     1
  0
XRECORD
  5
115
102
{ACAD_REACTORS
330
114
102
}
330
114
100
AcDbXrecord
280
     1
290
     1
  0
XRECORD
  5
C8
102
{ACAD_REACTORS
330
C7
102
}
330
C7
100
AcDbXrecord
280
     1
290
     1
  0
XRECORD
  5
11B
102
{ACAD_REACTORS
330
11A
102
}
330
11A
100
AcDbXrecord
280
     1
290
     1
  0
SORTENTSTABLE
  5
1EC
102
{ACAD_REACTORS
330
3
102
}
330
3
100
AcDbSortentsTable
330
2
331
1A6
  5
D5
331
1DD
  5
8C
331
1D9
  5
90
331
B2
  5
1B8
331
AE
  5
1BC
331
163
  5
112
331
AA
  5
1C0
331
120
  5
15C
331
1D5
  5
94
331
1D1
  5
98
331
1CD
  5
9C
331
1C9
  5
A0
331
A6
  5
1C4
331
E5
  5
17E
331
15F
  5
11D
331
15B
  5
12D
331
A2
  5
1C8
331
9E
  5
1CC
331
118
  5
160
331
9A
  5
1D0
331
1C5
  5
A4
331
1C1
  5
A8
331
17E
  5
E5
331
1BD
  5
AC
331
1B9
  5
B0
331
96
  5
1D4
331
D5
  5
1A6
331
92
  5
1D8
331
D1
  5
1AA
331
8E
  5
1DC
331
8A
  5
1E0
331
1B5
  5
C0
331
1B1
  5
C4
331
1AD
  5
CC
331
1E8
  5
81
331
1E4
  5
85
331
1A9
  5
D2
331
1E0
  5
89
331
C5
  5
1B0
331
86
  5
1E4
331
82
  5
1E8
331
C1
  5
1B5
331
F4
  5
171
331
1A5
  5
D6
331
1DC
  5
8D
331
1D8
  5
91
331
12F
  5
159
331
B1
  5
1B9
331
AD
  5
1BD
331
162
  5
116
331
A9
  5
1C1
331
1D4
  5
95
331
1D0
  5
99
331
1CC
  5
9D
331
1C8
  5
A1
331
6C
  5
1EB
331
A5
  5
1C5
331
11F
  5
15D
331
15E
  5
11E
331
15A
  5
12E
331
A1
  5
1C9
331
117
  5
161
331
9D
  5
1CD
331
D8
  5
18B
331
99
  5
1D1
331
1C4
  5
A5
331
1C0
  5
A9
331
1BC
  5
AD
331
1B8
  5
B1
331
95
  5
1D5
331
D4
  5
1A7
331
91
  5
1D9
331
D0
  5
1AB
331
8D
  5
1DD
331
CC
  5
1AD
331
103
  5
164
331
89
  5
1E1
331
1B4
  5
C1
331
171
  5
F4
331
1B0
  5
C5
331
1EB
  5
1B4
331
1AC
  5
CF
331
1E7
  5
82
331
1A8
  5
D3
331
1E3
  5
86
331
85
  5
1E5
331
C4
  5
1B1
331
13E
  5
158
331
81
  5
1E9
331
C0
  5
1B6
331
1DF
  5
8A
331
1DB
  5
8E
331
198
  5
D7
331
12E
  5
15A
331
B0
  5
1BA
331
AC
  5
1BE
331
161
  5
117
331
A8
  5
1C2
331
1D7
  5
92
331
1D3
  5
96
331
1CF
  5
9A
331
1CB
  5
9E
331
A4
  5
1C6
331
11E
  5
15E
331
15D
  5
11F
331
159
  5
12F
331
A0
  5
1CA
331
116
  5
162
331
9C
  5
1CE
331
112
  5
163
331
98
  5
1D2
331
1C7
  5
A2
331
1C3
  5
A6
331
1BF
  5
AA
331
1BB
  5
AE
331
D7
  5
198
331
94
  5
1D6
331
D3
  5
1A8
331
90
  5
1DA
331
CF
  5
1AC
331
8C
  5
1DE
331
CB
  5
1AE
331
88
  5
1E2
331
1B7
  5
B2
331
1B3
  5
C2
331
1AF
  5
CA
331
1EA
  5
6C
331
1AB
  5
D0
331
1E6
  5
83
331
1E2
  5
87
331
84
  5
1E6
331
C3
  5
1B2
331
80
  5
1EA
331
BF
  5
1B7
331
1A7
  5
D4
331
1DE
  5
8B
331
1DA
  5
8F
331
12D
  5
15B
331
AF
  5
1BB
331
164
  5
103
331
AB
  5
1BF
331
160
  5
118
331
1D6
  5
93
331
1D2
  5
97
331
1CE
  5
9B
331
1CA
  5
9F
331
18B
  5
D8
331
A7
  5
1C3
331
A3
  5
1C7
331
11D
  5
15F
331
15C
  5
120
331
158
  5
13E
331
9F
  5
1CB
331
9B
  5
1CF
331
1C6
  5
A3
331
1C2
  5
A7
331
1BE
  5
AB
331
1BA
  5
AF
331
D6
  5
1A5
331
97
  5
1D3
331
93
  5
1D7
331
D2
  5
1A9
331
8F
  5
1DB
331
8B
  5
1DF
331
CA
  5
1AF
331
1B6
  5
BF
331
1B2
  5
C3
331
1AE
  5
CB
331
1E9
  5
80
331
1E5
  5
84
331
1AA
  5
D1
331
1E1
  5
88
331
87
  5
1E3
331
83
  5
1E7
331
C2
  5
1B3
  0
XRECORD
  5
26B
102
{ACAD_REACTORS
330
26A
102
}
330
26A
100
AcDbXrecord
280
     1
 40
29448.0
  1
\A1;Drückerhöhe
  0
ACDBDETAILVIEWSTYLE
  5
215
102
{ACAD_XDICTIONARY
360
216
102
}
102
{ACAD_REACTORS
330
20E
330
214
102
}
330
20E
100
AcDbModelDocViewStyle
 70
     0
  3
Metric50
290
     0
100
AcDbDetailViewStyle
 70
     0
 71
     0
 90
        3
 71
     1
340
26
 40
5.0
340
0
 40
5.0
300

 40
0.0
280
     1
 71
     2
340
15
 90
       25
 71
     3
340
26
 40
5.0
 90
        0
 40
15.0
 90
        1
300
%<\AcVar ViewDetailId>% (%<\AcVar ViewScale \f "%sn">%)
 71
     4
340
15
 90
       25
340
15
 90
       25
280
     0
  0
LAYOUT
  5
1E
102
{ACAD_XDICTIONARY
360
25F
102
}
102
{ACAD_REACTORS
330
18
102
}
330
18
100
AcDbPlotSettings
  1

  2
\\mslklsv1\MSLKLP05
  4

  6

 40
0.0
 41
0.0
 42
0.0
 43
0.0
 44
0.0
 45
0.0
 46
0.0
 47
0.0
 48
0.0
 49
0.0
140
0.0
141
0.0
142
1.0
143
1.0
 70
   688
 72
     0
 73
     0
 74
     5
  7
Katalog 09.ctb
 75
    16
147
1.0
148
0.0
149
0.0
100
AcDbLayout
  1
Layout1
 70
     1
 71
     1
 10
0.0
 20
0.0
 11
12.0
 21
9.0
 12
0.0
 22
0.0
 32
0.0
 14
1.000000000000000E+20
 24
1.000000000000000E+20
 34
1.000000000000000E+20
 15
-1.000000000000000E+20
 25
-1.000000000000000E+20
 35
-1.000000000000000E+20
146
0.0
 13
0.0
 23
0.0
 33
0.0
 16
1.0
 26
0.0
 36
0.0
 17
0.0
 27
1.0
 37
0.0
 76
     0
330
1B
  0
LAYOUT
  5
17
102
{ACAD_XDICTIONARY
360
19
102
}
102
{ACAD_REACTORS
330
18
102
}
330
18
100
AcDbPlotSettings
  1

  2
\\mslklsv1\MSLKLP05
  4
A4
  6

 40
6.720416545867919
 41
6.720392704010009
 42
7.694076538085937
 43
4.011077880859375
 44
209.9733276367187
 45
296.9683227539062
 46
0.0
 47
0.0
 48
0.0
 49
0.0
140
0.0
141
0.0
142
1.0
143
2.49309260033622
 70
 11952
 72
     1
 73
     1
 74
     0
  7
Katalog 09.ctb
 75
     0
147
0.4011082459853835
148
235.6679059730945
149
-4.09529976950003
100
AcDbLayout
  1
Model
 70
     1
 71
     0
 10
0.0
 20
0.0
 11
12.0
 21
9.0
 12
0.0
 22
0.0
 32
0.0
 14
0.0
 24
0.0
 34
0.0
 15
0.0
 25
0.0
 35
0.0
146
0.0
 13
0.0
 23
0.0
 33
0.0
 16
1.0
 26
0.0
 36
0.0
 17
0.0
 27
1.0
 37
0.0
 76
     0
330
2
331
2E
1001
ACAD_PSEXT
1000
\\mslklsv1\MSLKLP05
1000
HP LaserJet 5000 Series PCL
1000
CAD
1000
HP LaserJet 5000N
1070
     0
  0
MATERIAL
  5
47
102
{ACAD_XDICTIONARY
360
48
102
}
102
{ACAD_REACTORS
330
D
102
}
330
D
100
AcDbMaterial
  1
ByBlock
 72
     0
 43
0.0008202099737533
 43
0.0
 43
0.0
 43
0.0
 43
0.0
 43
0.0008202099737533
 43
0.0
 43
0.0
 43
0.0
 43
0.0
 43
1.0
 43
0.0
 43
0.0
 43
0.0
 43
0.0
 43
1.0
 77
     0
 47
0.0008202099737533
 47
0.0
 47
0.0
 47
0.0
 47
0.0
 47
0.0008202099737533
 47
0.0
 47
0.0
 47
0.0
 47
0.0
 47
1.0
 47
0.0
 47
0.0
 47
0.0
 47
0.0
 47
1.0
171
     0
 49
0.0008202099737533
 49
0.0
 49
0.0
 49
0.0
 49
0.0
 49
0.0008202099737533
 49
0.0
 49
0.0
 49
0.0
 49
0.0
 49
1.0
 49
0.0
 49
0.0
 49
0.0
 49
0.0
 49
1.0
175
     0
142
0.0008202099737533
142
0.0
142
0.0
142
0.0
142
0.0
142
0.0008202099737533
142
0.0
142
0.0
142
0.0
142
0.0
142
1.0
142
0.0
142
0.0
142
0.0
142
0.0
142
1.0
179
     0
144
0.0008202099737533
144
0.0
144
0.0
144
0.0
144
0.0
144
0.0008202099737533
144
0.0
144
0.0
144
0.0
144
0.0
144
1.0
144
0.0
144
0.0
144
0.0
144
0.0
144
1.0
147
0.0008202099737533
147
0.0
147
0.0
147
0.0
147
0.0
147
0.0008202099737533
147
0.0
147
0.0
147
0.0
147
0.0
147
1.0
147
0.0
147
0.0
147
0.0
147
0.0
147
1.0
  0
MATERIAL
  5
3F
102
{ACAD_XDICTIONARY
360
40
102
}
102
{ACAD_REACTORS
330
D
102
}
330
D
100
AcDbMaterial
  1
ByLayer
 72
     0
 43
0.0008202099737533
 43
0.0
 43
0.0
 43
0.0
 43
0.0
 43
0.0008202099737533
 43
0.0
 43
0.0
 43
0.0
 43
0.0
 43
1.0
 43
0.0
 43
0.0
 43
0.0
 43
0.0
 43
1.0
 77
     0
 47
0.0008202099737533
 47
0.0
 47
0.0
 47
0.0
 47
0.0
 47
0.0008202099737533
 47
0.0
 47
0.0
 47
0.0
 47
0.0
 47
1.0
 47
0.0
 47
0.0
 47
0.0
 47
0.0
 47
1.0
171
     0
 49
0.0008202099737533
 49
0.0
 49
0.0
 49
0.0
 49
0.0
 49
0.0008202099737533
 49
0.0
 49
0.0
 49
0.0
 49
0.0
 49
1.0
 49
0.0
 49
0.0
 49
0.0
 49
0.0
 49
1.0
175
     0
142
0.0008202099737533
142
0.0
142
0.0
142
0.0
142
0.0
142
0.0008202099737533
142
0.0
142
0.0
142
0.0
142
0.0
142
1.0
142
0.0
142
0.0
142
0.0
142
0.0
142
1.0
179
     0
144
0.0008202099737533
144
0.0
144
0.0
144
0.0
144
0.0
144
0.0008202099737533
144
0.0
144
0.0
144
0.0
144
0.0
144
1.0
144
0.0
144
0.0
144
0.0
144
0.0
144
1.0
147
0.0008202099737533
147
0.0
147
0.0
147
0.0
147
0.0
147
0.0008202099737533
147
0.0
147
0.0
147
0.0
147
0.0
147
1.0
147
0.0
147
0.0
147
0.0
147
0.0
147
1.0
  0
MATERIAL
  5
C
102
{ACAD_XDICTIONARY
360
E
102
}
102
{ACAD_REACTORS
330
D
102
}
330
D
100
AcDbMaterial
  1
Global
 72
     0
 43
0.0008202099737533
 43
0.0
 43
0.0
 43
0.0
 43
0.0
 43
0.0008202099737533
 43
0.0
 43
0.0
 43
0.0
 43
0.0
 43
1.0
 43
0.0
 43
0.0
 43
0.0
 43
0.0
 43
1.0
 77
     0
 47
0.0008202099737533
 47
0.0
 47
0.0
 47
0.0
 47
0.0
 47
0.0008202099737533
 47
0.0
 47
0.0
 47
0.0
 47
0.0
 47
1.0
 47
0.0
 47
0.0
 47
0.0
 47
0.0
 47
1.0
171
     0
 49
0.0008202099737533
 49
0.0
 49
0.0
 49
0.0
 49
0.0
 49
0.0008202099737533
 49
0.0
 49
0.0
 49
0.0
 49
0.0
 49
1.0
 49
0.0
 49
0.0
 49
0.0
 49
0.0
 49
1.0
175
     0
142
0.0008202099737533
142
0.0
142
0.0
142
0.0
142
0.0
142
0.0008202099737533
142
0.0
142
0.0
142
0.0
142
0.0
142
1.0
142
0.0
142
0.0
142
0.0
142
0.0
142
1.0
179
     0
144
0.0008202099737533
144
0.0
144
0.0
144
0.0
144
0.0
144
0.0008202099737533
144
0.0
144
0.0
144
0.0
144
0.0
144
1.0
144
0.0
144
0.0
144
0.0
144
0.0
144
1.0
147
0.0008202099737533
147
0.0
147
0.0
147
0.0
147
0.0
147
0.0008202099737533
147
0.0
147
0.0
147
0.0
147
0.0
147
1.0
147
0.0
147
0.0
147
0.0
147
0.0
147
1.0
  0
MLINESTYLE
  5
56
102
{ACAD_REACTORS
330
3D
102
}
330
3D
100
AcDbMlineStyle
  2
STANDARD
 70
     0
  3

 62
     0
 51
90.0
 52
90.0
 71
     2
 49
0.5
 62
   256
  6
BYLAYER
 49
-0.5
 62
   256
  6
BYLAYER
  0
ACDBPLACEHOLDER
  5
9
102
{ACAD_REACTORS
330
A
102
}
330
A
  0
SCALE
  5
5B
102
{ACAD_REACTORS
330
50
102
}
330
50
100
AcDbScale
 70
     0
300
1:1
140
1.0
141
1.0
290
     1
  0
SCALE
  5
5C
102
{ACAD_REACTORS
330
50
102
}
330
50
100
AcDbScale
 70
     0
300
1:2
140
1.0
141
2.0
290
     0
  0
SCALE
  5
5D
102
{ACAD_REACTORS
330
50
102
}
330
50
100
AcDbScale
 70
     0
300
1:4
140
1.0
141
4.0
290
     0
  0
SCALE
  5
5E
102
{ACAD_REACTORS
330
50
102
}
330
50
100
AcDbScale
 70
     0
300
1:5
140
1.0
141
5.0
290
     0
  0
SCALE
  5
5F
102
{ACAD_REACTORS
330
50
102
}
330
50
100
AcDbScale
 70
     0
300
1:8
140
1.0
141
8.0
290
     0
  0
SCALE
  5
60
102
{ACAD_REACTORS
330
50
102
}
330
50
100
AcDbScale
 70
     0
300
1:10
140
1.0
141
10.0
290
     0
  0
SCALE
  5
61
102
{ACAD_REACTORS
330
50
102
}
330
50
100
AcDbScale
 70
     0
300
1:16
140
1.0
141
16.0
290
     0
  0
SCALE
  5
62
102
{ACAD_REACTORS
330
50
102
}
330
50
100
AcDbScale
 70
     0
300
1:20
140
1.0
141
20.0
290
     0
  0
SCALE
  5
63
102
{ACAD_REACTORS
330
50
102
}
330
50
100
AcDbScale
 70
     0
300
1:30
140
1.0
141
30.0
290
     0
  0
SCALE
  5
64
102
{ACAD_REACTORS
330
50
102
}
330
50
100
AcDbScale
 70
     0
300
1:40
140
1.0
141
40.0
290
     0
  0
SCALE
  5
65
102
{ACAD_REACTORS
330
50
102
}
330
50
100
AcDbScale
 70
     0
300
1:50
140
1.0
141
50.0
290
     0
  0
SCALE
  5
66
102
{ACAD_REACTORS
330
50
102
}
330
50
100
AcDbScale
 70
     0
300
1:100
140
1.0
141
100.0
290
     0
  0
SCALE
  5
67
102
{ACAD_REACTORS
330
50
102
}
330
50
100
AcDbScale
 70
     0
300
2:1
140
2.0
141
1.0
290
     0
  0
SCALE
  5
68
102
{ACAD_REACTORS
330
50
102
}
330
50
100
AcDbScale
 70
     0
300
4:1
140
4.0
141
1.0
290
     0
  0
SCALE
  5
69
102
{ACAD_REACTORS
330
50
102
}
330
50
100
AcDbScale
 70
     0
300
8:1
140
8.0
141
1.0
290
     0
  0
SCALE
  5
6A
102
{ACAD_REACTORS
330
50
102
}
330
50
100
AcDbScale
 70
     0
300
10:1
140
10.0
141
1.0
290
     0
  0
SCALE
  5
6B
102
{ACAD_REACTORS
330
50
102
}
330
50
100
AcDbScale
 70
     0
300
100:1
140
100.0
141
1.0
290
     0
  0
ACDBSECTIONVIEWSTYLE
  5
224
102
{ACAD_XDICTIONARY
360
225
102
}
102
{ACAD_REACTORS
330
219
330
223
102
}
330
219
100
AcDbModelDocViewStyle
 70
     0
  3
Metric50
290
     0
100
AcDbSectionViewStyle
 70
     0
 71
     0
 90
      102
 71
     1
340
26
 40
5.0
340
0
340
0
 40
5.0
300
I, O, Q, S, X, Z
 40
10.0
 90
        0
 40
2.5
 90
        0
 71
     2
340
15
 90
       25
340
15
 90
       50
 40
5.0
 40
2.5
 40
5.0
 71
     3
340
26
 40
5.0
 90
        0
 40
15.0
 90
        1
300
%<\AcVar ViewSectionStartId>%-%<\AcVar ViewSectionEndId>% (%<\AcVar ViewScale \f "%sn">%)
 71
     4
300
ANSI31
 40
1.0
 90
        0
290
     0
290
     0
 90
        6
 40
0.0
 40
1.570796326794896
 40
0.2617993877991494
 40
1.308996938995747
 40
-0.2617993877991494
 40
1.832595714594046
  0
TABLESTYLE
  5
57
102
{ACAD_XDICTIONARY
360
58
102
}
102
{ACAD_REACTORS
330
51
102
}
330
51
100
AcDbTableStyle
  3
Standard
 70
     0
 71
     0
 40
0.06
 41
0.06
280
     0
281
     0
  7
STANDARD
140
0.18
170
     2
 62
     0
 63
     7
283
     0
274
    -2
284
     1
 64
     0
275
    -2
285
     1
 65
     0
276
    -2
286
     1
 66
     0
277
    -2
287
     1
 67
     0
278
    -2
288
     1
 68
     0
279
    -2
289
     1
 69
     0
  7
STANDARD
140
0.25
170
     5
 62
     0
 63
     7
283
     0
274
    -2
284
     1
 64
     0
275
    -2
285
     1
 65
     0
276
    -2
286
     1
 66
     0
277
    -2
287
     1
 67
     0
278
    -2
288
     1
 68
     0
279
    -2
289
     1
 69
     0
  7
STANDARD
140
0.18
170
     5
 62
     0
 63
     7
283
     0
274
    -2
284
     1
 64
     0
275
    -2
285
     1
 65
     0
276
    -2
286
     1
 66
     0
277
    -2
287
     1
 67
     0
278
    -2
288
     1
 68
     0
279
    -2
289
     1
 69
     0
  0
VISUALSTYLE
  5
2F
102
{ACAD_XDICTIONARY
360
261
102
}
102
{ACAD_REACTORS
330
30
102
}
330
30
100
AcDbVisualStyle
  2
2dWireframe
 70
     4
 71
     0
 72
     2
 73
     0
 90
        0
 40
-0.6
 41
-30.0
 62
     5
 63
     7
 74
     1
 91
        4
 64
     7
 65
   257
 75
     1
175
     1
 42
1.0
 92
        0
 66
   257
 43
1.0
 76
     1
 77
     6
 78
     2
 67
     7
 79
     5
170
     0
171
     0
290
     0
174
     0
 93
        1
 44
0.0
173
     0
291
     0
 45
0.0
1001
ACAD
1000
AcDbSavedByObjectVersion
1070
     0
  0
VISUALSTYLE
  5
59
102
{ACAD_XDICTIONARY
360
266
102
}
102
{ACAD_REACTORS
330
30
102
}
330
30
100
AcDbVisualStyle
  2
Realistic
 70
     8
 71
     2
 72
     2
 73
     0
 90
        0
 40
-0.6
 41
-30.0
 62
     5
 63
     7
 74
     1
 91
        0
 64
     7
 65
   257
 75
     1
175
     1
 42
1.0
 92
        8
 66
     8
 43
1.0
 76
     1
 77
     6
 78
     2
 67
     7
 79
     5
170
     0
171
     0
290
     0
174
     0
 93
       13
 44
0.0
173
     0
291
     0
 45
0.0
1001
ACAD
1000
AcDbSavedByObjectVersion
1070
     0
  0
VISUALSTYLE
  5
5A
102
{ACAD_XDICTIONARY
360
268
102
}
102
{ACAD_REACTORS
330
30
102
}
330
30
100
AcDbVisualStyle
  2
Wireframe
 70
     5
 71
     0
 72
     2
 73
     0
 90
        0
 40
-0.6
 41
-30.0
 62
     5
 63
     7
 74
     1
 91
        4
 64
     7
 65
   257
 75
     1
175
     1
 42
1.0
 92
        0
 66
   257
 43
1.0
 76
     1
 77
     6
 78
     2
 67
     7
 79
     3
170
     0
171
     0
290
     0
174
     0
 93
        1
 44
0.0
173
     0
291
     0
 45
0.0
1001
ACAD
1000
AcDbSavedByObjectVersion
1070
     0
  0
DICTIONARYVAR
  5
24B
102
{ACAD_REACTORS
330
246
102
}
330
246
100
DictionaryVariables
280
     0
  1
1:1
  0
DICTIONARYVAR
  5
248
102
{ACAD_REACTORS
330
246
102
}
330
246
100
DictionaryVariables
280
     0
  1
STANDARD
  0
DICTIONARYVAR
  5
247
102
{ACAD_REACTORS
330
246
102
}
330
246
100
DictionaryVariables
280
     0
  1
STANDARD
  0
DICTIONARYVAR
  5
249
102
{ACAD_REACTORS
330
246
102
}
330
246
100
DictionaryVariables
280
     0
  1

  0
DICTIONARYVAR
  5
24A
102
{ACAD_REACTORS
330
246
102
}
330
246
100
DictionaryVariables
280
     0
  1

  0
DICTIONARYVAR
  5
250
102
{ACAD_REACTORS
330
246
102
}
330
246
100
DictionaryVariables
280
     0
  1
1
  0
DICTIONARYVAR
  5
24E
102
{ACAD_REACTORS
330
246
102
}
330
246
100
DictionaryVariables
280
     0
  1
1
  0
DICTIONARYVAR
  5
24D
102
{ACAD_REACTORS
330
246
102
}
330
246
100
DictionaryVariables
280
     0
  1
0
  0
DICTIONARYVAR
  5
251
102
{ACAD_REACTORS
330
246
102
}
330
246
100
DictionaryVariables
280
     0
  1
1
  0
DICTIONARYVAR
  5
24C
102
{ACAD_REACTORS
330
246
102
}
330
246
100
DictionaryVariables
280
     0
  1
127
  0
DICTIONARYVAR
  5
24F
102
{ACAD_REACTORS
330
246
102
}
330
246
100
DictionaryVariables
280
     0
  1
0
  0
DICTIONARY
  5
25C
102
{ACAD_REACTORS
330
25A
102
}
330
25A
100
AcDbDictionary
281
     1
  0
DICTIONARY
  5
25B
102
{ACAD_REACTORS
330
25A
102
}
330
25A
100
AcDbDictionary
281
     1
  3
8796087873536
350
258
  3
8796087873552
350
259
  3
8796088311632
350
255
  3
8796088311648
350
256
  3
8796088311664
350
257
  0
DICTIONARY
  5
1FF
102
{ACAD_REACTORS
330
1FE
102
}
330
1FE
100
AcDbDictionary
281
     1
  0
DICTIONARY
  5
1F8
102
{ACAD_REACTORS
330
1EE
102
}
330
1EE
100
AcDbDictionary
281
     1
  3
DWGSETTINGS
350
1F7
  3
TRANSSETTINGS
350
1F9
  0
DICTIONARY
  5
216
330
215
100
AcDbDictionary
280
     1
281
     1
  3
ACAD_XREC_ROUNDTRIP
360
26C
  0
DICTIONARY
  5
25F
330
1E
100
AcDbDictionary
280
     1
281
     1
  3
ACAD_XREC_ROUNDTRIP
360
260
  0
DICTIONARY
  5
19
330
17
100
AcDbDictionary
280
     1
281
     1
  3
ACAD_XREC_ROUNDTRIP
360
25E
  0
DICTIONARY
  5
48
330
47
100
AcDbDictionary
280
     1
281
     1
  3
ACAD_XREC_ROUNDTRIP
360
264
  3
BUMPTILE
360
49
  3
DIFFUSETILE
360
4A
  3
OPACITYTILE
360
4B
  3
REFLECTIONTILE
360
4C
  3
REFRACTIONTILE
360
4D
  3
SPECULARTILE
360
4E
  0
DICTIONARY
  5
40
330
3F
100
AcDbDictionary
280
     1
281
     1
  3
ACAD_XREC_ROUNDTRIP
360
263
  3
BUMPTILE
360
41
  3
DIFFUSETILE
360
42
  3
OPACITYTILE
360
43
  3
REFLECTIONTILE
360
44
  3
REFRACTIONTILE
360
45
  3
SPECULARTILE
360
46
  0
DICTIONARY
  5
E
330
C
100
AcDbDictionary
280
     1
281
     1
  3
ACAD_XREC_ROUNDTRIP
360
25D
  3
BUMPTILE
360
F
  3
DIFFUSETILE
360
10
  3
OPACITYTILE
360
11
  3
REFLECTIONTILE
360
12
  3
REFRACTIONTILE
360
13
  3
SPECULARTILE
360
14
  0
DICTIONARY
  5
225
330
224
100
AcDbDictionary
280
     1
281
     1
  3
ACAD_XREC_ROUNDTRIP
360
26D
  0
DICTIONARY
  5
58
330
57
100
AcDbDictionary
280
     1
281
     1
  3
ACAD_ROUNDTRIP_2008_TABLESTYLE_CELLSTYLEMAP
360
252
  3
ACAD_XREC_ROUNDTRIP
360
265
  0
DICTIONARY
  5
261
330
2F
100
AcDbDictionary
280
     1
281
     1
  3
ACAD_XREC_ROUNDTRIP
360
262
  0
DICTIONARY
  5
266
330
59
100
AcDbDictionary
280
     1
281
     1
  3
ACAD_XREC_ROUNDTRIP
360
267
  0
DICTIONARY
  5
268
330
5A
100
AcDbDictionary
280
     1
281
     1
  3
ACAD_XREC_ROUNDTRIP
360
269
  0
XRECORD
  5
258
102
{ACAD_REACTORS
330
25B
102
}
330
25B
100
AcDbXrecord
280
     1
  1
AcDbDs::IndexedPropertySchema
  2
AcDs:Indexable
280
     1
 91
        0
  0
XRECORD
  5
259
102
{ACAD_REACTORS
330
25B
102
}
330
25B
100
AcDbXrecord
280
     1
  1
AcDbDs::HandleAttributeSchema
  2
AcDbDs::HandleAttribute
280
     7
 91
        1
284
     1
  0
XRECORD
  5
255
102
{ACAD_REACTORS
330
25B
102
}
330
25B
100
AcDbXrecord
280
     1
  1
AcDb_Thumbnail_Schema
102
{ATTRRECORD
341
256
  2
AcDbDs::TreatedAsObjectData
280
     1
291
     1
102
ATTRRECORD}
102
{ATTRRECORD
341
257
  2
AcDbDs::Legacy
280
     1
291
     1
102
ATTRRECORD}
  2
AcDbDs::ID
280
    10
 91
        8
102
{ATTRRECORD
341
258
  2
AcDs:Indexable
280
     1
291
     1
102
ATTRRECORD}
102
{ATTRRECORD
341
259
  2
AcDbDs::HandleAttribute
280
     7
282
     1
102
ATTRRECORD}
  2
Thumbnail_Data
280
    15
 91
        0
  0
XRECORD
  5
256
102
{ACAD_REACTORS
330
25B
102
}
330
25B
100
AcDbXrecord
280
     1
  1
AcDbDs::TreatedAsObjectDataSchema
  2
AcDbDs::TreatedAsObjectData
280
     1
 91
        0
  0
XRECORD
  5
257
102
{ACAD_REACTORS
330
25B
102
}
330
25B
100
AcDbXrecord
280
     1
  1
AcDbDs::LegacySchema
  2
AcDbDs::Legacy
280
     1
 91
        0
  0
XRECORD
  5
26C
102
{ACAD_REACTORS
330
216
102
}
330
216
100
AcDbXrecord
280
     1
102
DISPLAYNAME
  1
Metric50
102
FLAGS
 90
        0
  0
XRECORD
  5
260
102
{ACAD_REACTORS
330
25F
102
}
330
25F
100
AcDbXrecord
280
     1
102
SHADEPLOT
 70
     0
102
SHADEPLOTRESLEVEL
 70
     2
102
SHADEPLOTCUSTOMDPI
 70
   300
  0
XRECORD
  5
25E
102
{ACAD_REACTORS
330
19
102
}
330
19
100
AcDbXrecord
280
     1
102
SHADEPLOT
 70
     0
102
SHADEPLOTRESLEVEL
 70
     2
102
SHADEPLOTCUSTOMDPI
 70
   300
  0
XRECORD
  5
264
102
{ACAD_REACTORS
330
48
102
}
330
48
100
AcDbXrecord
280
     1
102
MATERIAL
148
0.0
149
0.0
149
0.0
 93
        0
 94
      127
282
     0
 72
     0
 77
     0
171
     0
175
     0
179
     0
273
     0
  0
XRECORD
  5
49
102
{ACAD_REACTORS
330
48
102
}
330
48
100
AcDbXrecord
280
     1
270
     1
271
     1
  0
XRECORD
  5
4A
102
{ACAD_REACTORS
330
48
102
}
330
48
100
AcDbXrecord
280
     1
270
     1
271
     1
  0
XRECORD
  5
4B
102
{ACAD_REACTORS
330
48
102
}
330
48
100
AcDbXrecord
280
     1
270
     1
271
     1
  0
XRECORD
  5
4C
102
{ACAD_REACTORS
330
48
102
}
330
48
100
AcDbXrecord
280
     1
270
     1
271
     1
  0
XRECORD
  5
4D
102
{ACAD_REACTORS
330
48
102
}
330
48
100
AcDbXrecord
280
     1
270
     1
271
     1
  0
XRECORD
  5
4E
102
{ACAD_REACTORS
330
48
102
}
330
48
100
AcDbXrecord
280
     1
270
     1
271
     1
  0
XRECORD
  5
263
102
{ACAD_REACTORS
330
40
102
}
330
40
100
AcDbXrecord
280
     1
102
MATERIAL
148
0.0
149
0.0
149
0.0
 93
        0
 94
      127
282
     0
 72
     0
 77
     0
171
     0
175
     0
179
     0
273
     0
  0
XRECORD
  5
41
102
{ACAD_REACTORS
330
40
102
}
330
40
100
AcDbXrecord
280
     1
270
     1
271
     1
  0
XRECORD
  5
42
102
{ACAD_REACTORS
330
40
102
}
330
40
100
AcDbXrecord
280
     1
270
     1
271
     1
  0
XRECORD
  5
43
102
{ACAD_REACTORS
330
40
102
}
330
40
100
AcDbXrecord
280
     1
270
     1
271
     1
  0
XRECORD
  5
44
102
{ACAD_REACTORS
330
40
102
}
330
40
100
AcDbXrecord
280
     1
270
     1
271
     1
  0
XRECORD
  5
45
102
{ACAD_REACTORS
330
40
102
}
330
40
100
AcDbXrecord
280
     1
270
     1
271
     1
  0
XRECORD
  5
46
102
{ACAD_REACTORS
330
40
102
}
330
40
100
AcDbXrecord
280
     1
270
     1
271
     1
  0
XRECORD
  5
25D
102
{ACAD_REACTORS
330
E
102
}
330
E
100
AcDbXrecord
280
     1
102
MATERIAL
148
0.0
149
0.0
149
0.0
 93
        0
 94
      127
282
     0
 72
     0
 77
     0
171
     0
175
     0
179
     0
273
     0
  0
XRECORD
  5
F
102
{ACAD_REACTORS
330
E
102
}
330
E
100
AcDbXrecord
280
     1
270
     1
271
     1
  0
XRECORD
  5
10
102
{ACAD_REACTORS
330
E
102
}
330
E
100
AcDbXrecord
280
     1
270
     1
271
     1
  0
XRECORD
  5
11
102
{ACAD_REACTORS
330
E
102
}
330
E
100
AcDbXrecord
280
     1
270
     1
271
     1
  0
XRECORD
  5
12
102
{ACAD_REACTORS
330
E
102
}
330
E
100
AcDbXrecord
280
     1
270
     1
271
     1
  0
XRECORD
  5
13
102
{ACAD_REACTORS
330
E
102
}
330
E
100
AcDbXrecord
280
     1
270
     1
271
     1
  0
XRECORD
  5
14
102
{ACAD_REACTORS
330
E
102
}
330
E
100
AcDbXrecord
280
     1
270
     1
271
     1
  0
XRECORD
  5
26D
102
{ACAD_REACTORS
330
225
102
}
330
225
100
AcDbXrecord
280
     1
102
DISPLAYNAME
  1
Metric50
102
FLAGS
 90
        0
  0
CELLSTYLEMAP
  5
252
102
{ACAD_REACTORS
330
58
102
}
330
58
100
AcDbCellStyleMap
 90
        3
300
CELLSTYLE
  1
TABLEFORMAT_BEGIN
 90
        5
170
     1
 91
        0
 92
    32768
 62
   257
 93
        1
300
CONTENTFORMAT
  1
CONTENTFORMAT_BEGIN
 90
        0
 91
        0
 92
        4
 93
        0
300

 40
0.0
140
1.0
 94
        5
 62
     0
340
26
144
0.25
309
CONTENTFORMAT_END
171
     0
 94
        6
 95
        1
302
GRIDFORMAT
  1
GRIDFORMAT_BEGIN
 90
        0
 91
        1
 62
     0
 92
       -2
340
0
 93
        0
 40
0.045
309
GRIDFORMAT_END
 95
        2
302
GRIDFORMAT
  1
GRIDFORMAT_BEGIN
 90
        0
 91
        1
 62
     0
 92
       -2
340
0
 93
        0
 40
0.045
309
GRIDFORMAT_END
 95
        4
302
GRIDFORMAT
  1
GRIDFORMAT_BEGIN
 90
        0
 91
        1
 62
     0
 92
       -2
340
0
 93
        0
 40
0.045
309
GRIDFORMAT_END
 95
        8
302
GRIDFORMAT
  1
GRIDFORMAT_BEGIN
 90
        0
 91
        1
 62
     0
 92
       -2
340
0
 93
        0
 40
0.045
309
GRIDFORMAT_END
 95
       16
302
GRIDFORMAT
  1
GRIDFORMAT_BEGIN
 90
        0
 91
        1
 62
     0
 92
       -2
340
0
 93
        0
 40
0.045
309
GRIDFORMAT_END
 95
       32
302
GRIDFORMAT
  1
GRIDFORMAT_BEGIN
 90
        0
 91
        1
 62
     0
 92
       -2
340
0
 93
        0
 40
0.045
309
GRIDFORMAT_END
309
TABLEFORMAT_END
  1
CELLSTYLE_BEGIN
 90
        1
 91
        1
300
_TITLE
309
CELLSTYLE_END
300
CELLSTYLE
  1
TABLEFORMAT_BEGIN
 90
        5
170
     1
 91
        0
 92
        0
 62
   257
 93
        1
300
CONTENTFORMAT
  1
CONTENTFORMAT_BEGIN
 90
        0
 91
        0
 92
        4
 93
        0
300

 40
0.0
140
1.0
 94
        5
 62
     0
340
26
144
0.18
309
CONTENTFORMAT_END
171
     0
 94
        6
 95
        1
302
GRIDFORMAT
  1
GRIDFORMAT_BEGIN
 90
        0
 91
        1
 62
     0
 92
       -2
340
0
 93
        0
 40
0.045
309
GRIDFORMAT_END
 95
        2
302
GRIDFORMAT
  1
GRIDFORMAT_BEGIN
 90
        0
 91
        1
 62
     0
 92
       -2
340
0
 93
        0
 40
0.045
309
GRIDFORMAT_END
 95
        4
302
GRIDFORMAT
  1
GRIDFORMAT_BEGIN
 90
        0
 91
        1
 62
     0
 92
       -2
340
0
 93
        0
 40
0.045
309
GRIDFORMAT_END
 95
        8
302
GRIDFORMAT
  1
GRIDFORMAT_BEGIN
 90
        0
 91
        1
 62
     0
 92
       -2
340
0
 93
        0
 40
0.045
309
GRIDFORMAT_END
 95
       16
302
GRIDFORMAT
  1
GRIDFORMAT_BEGIN
 90
        0
 91
        1
 62
     0
 92
       -2
340
0
 93
        0
 40
0.045
309
GRIDFORMAT_END
 95
       32
302
GRIDFORMAT
  1
GRIDFORMAT_BEGIN
 90
        0
 91
        1
 62
     0
 92
       -2
340
0
 93
        0
 40
0.045
309
GRIDFORMAT_END
309
TABLEFORMAT_END
  1
CELLSTYLE_BEGIN
 90
        2
 91
        1
300
_HEADER
309
CELLSTYLE_END
300
CELLSTYLE
  1
TABLEFORMAT_BEGIN
 90
        5
170
     1
 91
        0
 92
        0
 62
   257
 93
        1
300
CONTENTFORMAT
  1
CONTENTFORMAT_BEGIN
 90
        0
 91
        0
 92
        4
 93
        0
300

 40
0.0
140
1.0
 94
        2
 62
     0
340
26
144
0.18
309
CONTENTFORMAT_END
171
     0
 94
        6
 95
        1
302
GRIDFORMAT
  1
GRIDFORMAT_BEGIN
 90
        0
 91
        1
 62
     0
 92
       -2
340
0
 93
        0
 40
0.045
309
GRIDFORMAT_END
 95
        2
302
GRIDFORMAT
  1
GRIDFORMAT_BEGIN
 90
        0
 91
        1
 62
     0
 92
       -2
340
0
 93
        0
 40
0.045
309
GRIDFORMAT_END
 95
        4
302
GRIDFORMAT
  1
GRIDFORMAT_BEGIN
 90
        0
 91
        1
 62
     0
 92
       -2
340
0
 93
        0
 40
0.045
309
GRIDFORMAT_END
 95
        8
302
GRIDFORMAT
  1
GRIDFORMAT_BEGIN
 90
        0
 91
        1
 62
     0
 92
       -2
340
0
 93
        0
 40
0.045
309
GRIDFORMAT_END
 95
       16
302
GRIDFORMAT
  1
GRIDFORMAT_BEGIN
 90
        0
 91
        1
 62
     0
 92
       -2
340
0
 93
        0
 40
0.045
309
GRIDFORMAT_END
 95
       32
302
GRIDFORMAT
  1
GRIDFORMAT_BEGIN
 90
        0
 91
        1
 62
     0
 92
       -2
340
0
 93
        0
 40
0.045
309
GRIDFORMAT_END
309
TABLEFORMAT_END
  1
CELLSTYLE_BEGIN
 90
        3
 91
        2
300
_DATA
309
CELLSTYLE_END
  0
XRECORD
  5
265
102
{ACAD_REACTORS
330
58
102
}
330
58
100
AcDbXrecord
280
     1
102
ACAD_ROUNDTRIP_PRE2007_TABLESTYLE
 90
        4
 91
        0
  1

 92
        4
 93
        0
  2

 94
        4
 95
        0
  3

  0
XRECORD
  5
262
102
{ACAD_REACTORS
330
261
102
}
330
261
100
AcDbXrecord
280
     1
102
RTVSPost2010Prop28
280
     1
102
RTVSPost2010PropOp28
 70
     1
102
RTVSPost2010Prop29
280
     1
102
RTVSPost2010PropOp29
 70
     1
102
RTVSPost2010Prop30
280
     0
102
RTVSPost2010PropOp30
 70
     1
102
RTVSPost2010Prop31
280
     0
102
RTVSPost2010PropOp31
 70
     1
102
RTVSPost2010Prop32
280
     0
102
RTVSPost2010PropOp32
 70
     1
102
RTVSPost2010Prop33
280
     0
102
RTVSPost2010PropOp33
 70
     1
102
RTVSPost2010Prop34
280
     0
102
RTVSPost2010PropOp34
 70
     1
102
RTVSPost2010Prop35
280
     0
102
RTVSPost2010PropOp35
 70
     1
102
RTVSPost2010Prop36
280
     0
102
RTVSPost2010PropOp36
 70
     1
102
RTVSPost2010Prop37
 90
       50
102
RTVSPost2010PropOp37
 70
     1
102
RTVSPost2010Prop38
140
0.0
102
RTVSPost2010PropOp38
 70
     1
102
RTVSPost2010Prop39
140
1.0
102
RTVSPost2010PropOp39
 70
     1
102
RTVSPost2010Prop40
 90
        0
102
RTVSPost2010PropOp40
 70
     1
102
RTVSPost2010Prop41ColorIndex
 90
       18
102
RTVSPost2010Prop41ColorRGB
 90
        0
102
RTVSPost2010PropOp41
 70
     1
102
RTVSPost2010Prop42
 90
       50
102
RTVSPost2010PropOp42
 70
     1
102
RTVSPost2010Prop43
 90
        3
102
RTVSPost2010PropOp43
 70
     1
102
RTVSPost2010Prop44ColorIndex
 90
        5
102
RTVSPost2010Prop44ColorRGB
 90
      255
102
RTVSPost2010PropOp44
 70
     1
102
RTVSPost2010Prop45
280
     0
102
RTVSPost2010PropOp45
 70
     1
102
RTVSPost2010Prop46
 90
       50
102
RTVSPost2010PropOp46
 70
     1
102
RTVSPost2010Prop47
 90
       50
102
RTVSPost2010PropOp47
 70
     1
102
RTVSPost2010Prop48
 90
       50
102
RTVSPost2010PropOp48
 70
     1
102
RTVSPost2010Prop49
280
     0
102
RTVSPost2010PropOp49
 70
     1
102
RTVSPost2010Prop50
 90
       50
102
RTVSPost2010PropOp50
 70
     1
102
RTVSPost2010Prop51ColorIndex
 90
      256
102
RTVSPost2010Prop51ColorRGB
 90
-16777216
102
RTVSPost2010PropOp51
 70
     0
102
RTVSPost2010Prop52
140
1.0
102
RTVSPost2010PropOp52
 70
     0
102
RTVSPost2010Prop53
 90
        2
102
RTVSPost2010PropOp53
 70
     1
102
RTVSPost2010Prop54
  1
strokes_ogs.tif
102
RTVSPost2010PropOp54
 70
     1
102
RTVSPost2010Prop55
280
     0
102
RTVSPost2010PropOp55
 70
     1
102
RTVSPost2010Prop56
140
1.0
102
RTVSPost2010PropOp56
 70
     1
102
RTVSPost2010Prop57
140
1.0
102
RTVSPost2010PropOp57
 70
     1
102
RTVSPropertyOp0
 70
     1
102
RTVSPropertyOp1
 70
     1
102
RTVSPropertyOp2
 70
     1
102
RTVSPropertyOp3
 70
     1
102
RTVSPropertyOp4
 70
     1
102
RTVSPropertyOp5
 70
     1
102
RTVSPropertyOp6
 70
     1
102
RTVSPropertyOp7
 70
     1
102
RTVSPropertyOp8
 70
     1
102
RTVSPropertyOp9
 70
     1
102
RTVSPropertyOp10
 70
     1
102
RTVSPropertyOp11
 70
     1
102
RTVSPropertyOp12
 70
     1
102
RTVSPropertyOp13
 70
     1
102
RTVSPropertyOp14
 70
     1
102
RTVSPropertyOp15
 70
     1
102
RTVSPropertyOp16
 70
     1
102
RTVSPropertyOp17
 70
     1
102
RTVSPropertyOp18
 70
     1
102
RTVSPropertyOp19
 70
     1
102
RTVSPropertyOp20
 70
     1
102
RTVSPropertyOp21
 70
     1
102
RTVSPropertyOp22
 70
     1
102
RTVSPropertyOp23
 70
     1
102
RTVSPropertyOp24
 70
     1
102
RTVSPropertyOp25
 70
     1
102
RTVSPropertyOp26
 70
     1
102
RTVSPropertyOp27
 70
     1
102
RTVSPropertyOp28
 70
     1
102
RTVSPropertyOp29
 70
     1
102
RTVSPropertyOp30
 70
     1
102
RTVSPropertyOp31
 70
     1
102
RTVSPropertyOp32
 70
     1
102
RTVSPropertyOp33
 70
     1
102
RTVSPropertyOp34
 70
     1
102
RTVSPropertyOp35
 70
     1
102
RTVSPropertyOp36
 70
     1
102
RTVSPropertyOp37
 70
     1
102
RTVSPropertyOp38
 70
     1
102
RTVSPropertyOp39
 70
     1
102
RTVSPropertyOp40
 70
     1
102
RTVSPropertyOp41
 70
     1
102
RTVSPropertyOp42
 70
     1
102
RTVSPropertyOp43
 70
     1
102
RTVSPropertyOp44
 70
     1
102
RTVSPropertyOp45
 70
     1
102
RTVSPropertyOp46
 70
     1
102
RTVSPropertyOp47
 70
     1
102
RTVSPropertyOp48
 70
     1
102
RTVSPropertyOp49
 70
     1
102
RTVSPropertyOp50
 70
     1
102
RTVSPropertyOp51
 70
     0
102
RTVSPropertyOp52
 70
     0
102
RTVSPropertyOp53
 70
     1
102
RTVSPropertyOp54
 70
     1
102
RTVSPropertyOp55
 70
     1
102
RTVSPropertyOp56
 70
     1
102
RTVSPropertyOp57
 70
     1
102
RTVSPropertyOp58
 70
     1
102
RTVSPropertyOp59
 70
     1
102
RTVSPropertyOp60
 70
     1
102
RTVSPropertyOp61
 70
     1
102
RTVSPropertyOp62
 70
     1
  0
XRECORD
  5
267
102
{ACAD_REACTORS
330
266
102
}
330
266
100
AcDbXrecord
280
     1
102
RTVSPost2010Prop28
280
     0
102
RTVSPost2010PropOp28
 70
     1
102
RTVSPost2010Prop29
280
     1
102
RTVSPost2010PropOp29
 70
     1
102
RTVSPost2010Prop30
280
     1
102
RTVSPost2010PropOp30
 70
     1
102
RTVSPost2010Prop31
280
     0
102
RTVSPost2010PropOp31
 70
     1
102
RTVSPost2010Prop32
280
     0
102
RTVSPost2010PropOp32
 70
     1
102
RTVSPost2010Prop33
280
     0
102
RTVSPost2010PropOp33
 70
     1
102
RTVSPost2010Prop34
280
     0
102
RTVSPost2010PropOp34
 70
     1
102
RTVSPost2010Prop35
280
     0
102
RTVSPost2010PropOp35
 70
     1
102
RTVSPost2010Prop36
280
     0
102
RTVSPost2010PropOp36
 70
     1
102
RTVSPost2010Prop37
 90
       50
102
RTVSPost2010PropOp37
 70
     1
102
RTVSPost2010Prop38
140
0.0
102
RTVSPost2010PropOp38
 70
     1
102
RTVSPost2010Prop39
140
1.0
102
RTVSPost2010PropOp39
 70
     1
102
RTVSPost2010Prop40
 90
        0
102
RTVSPost2010PropOp40
 70
     1
102
RTVSPost2010Prop41ColorIndex
 90
       18
102
RTVSPost2010Prop41ColorRGB
 90
        0
102
RTVSPost2010PropOp41
 70
     1
102
RTVSPost2010Prop42
 90
       50
102
RTVSPost2010PropOp42
 70
     1
102
RTVSPost2010Prop43
 90
        3
102
RTVSPost2010PropOp43
 70
     1
102
RTVSPost2010Prop44ColorIndex
 90
        5
102
RTVSPost2010Prop44ColorRGB
 90
      255
102
RTVSPost2010PropOp44
 70
     1
102
RTVSPost2010Prop45
280
     0
102
RTVSPost2010PropOp45
 70
     1
102
RTVSPost2010Prop46
 90
       50
102
RTVSPost2010PropOp46
 70
     1
102
RTVSPost2010Prop47
 90
       50
102
RTVSPost2010PropOp47
 70
     1
102
RTVSPost2010Prop48
 90
       50
102
RTVSPost2010PropOp48
 70
     1
102
RTVSPost2010Prop49
280
     0
102
RTVSPost2010PropOp49
 70
     1
102
RTVSPost2010Prop50
 90
       50
102
RTVSPost2010PropOp50
 70
     1
102
RTVSPost2010Prop51ColorIndex
 90
      256
102
RTVSPost2010Prop51ColorRGB
 90
-16777216
102
RTVSPost2010PropOp51
 70
     0
102
RTVSPost2010Prop52
140
1.0
102
RTVSPost2010PropOp52
 70
     0
102
RTVSPost2010Prop53
 90
        2
102
RTVSPost2010PropOp53
 70
     1
102
RTVSPost2010Prop54
  1
strokes_ogs.tif
102
RTVSPost2010PropOp54
 70
     1
102
RTVSPost2010Prop55
280
     0
102
RTVSPost2010PropOp55
 70
     1
102
RTVSPost2010Prop56
140
1.0
102
RTVSPost2010PropOp56
 70
     1
102
RTVSPost2010Prop57
140
1.0
102
RTVSPost2010PropOp57
 70
     1
102
RTVSPropertyOp0
 70
     1
102
RTVSPropertyOp1
 70
     1
102
RTVSPropertyOp2
 70
     1
102
RTVSPropertyOp3
 70
     1
102
RTVSPropertyOp4
 70
     1
102
RTVSPropertyOp5
 70
     1
102
RTVSPropertyOp6
 70
     1
102
RTVSPropertyOp7
 70
     1
102
RTVSPropertyOp8
 70
     1
102
RTVSPropertyOp9
 70
     1
102
RTVSPropertyOp10
 70
     1
102
RTVSPropertyOp11
 70
     1
102
RTVSPropertyOp12
 70
     1
102
RTVSPropertyOp13
 70
     1
102
RTVSPropertyOp14
 70
     1
102
RTVSPropertyOp15
 70
     1
102
RTVSPropertyOp16
 70
     1
102
RTVSPropertyOp17
 70
     1
102
RTVSPropertyOp18
 70
     1
102
RTVSPropertyOp19
 70
     1
102
RTVSPropertyOp20
 70
     1
102
RTVSPropertyOp21
 70
     1
102
RTVSPropertyOp22
 70
     1
102
RTVSPropertyOp23
 70
     1
102
RTVSPropertyOp24
 70
     1
102
RTVSPropertyOp25
 70
     1
102
RTVSPropertyOp26
 70
     1
102
RTVSPropertyOp27
 70
     1
102
RTVSPropertyOp28
 70
     1
102
RTVSPropertyOp29
 70
     1
102
RTVSPropertyOp30
 70
     1
102
RTVSPropertyOp31
 70
     1
102
RTVSPropertyOp32
 70
     1
102
RTVSPropertyOp33
 70
     1
102
RTVSPropertyOp34
 70
     1
102
RTVSPropertyOp35
 70
     1
102
RTVSPropertyOp36
 70
     1
102
RTVSPropertyOp37
 70
     1
102
RTVSPropertyOp38
 70
     1
102
RTVSPropertyOp39
 70
     1
102
RTVSPropertyOp40
 70
     1
102
RTVSPropertyOp41
 70
     1
102
RTVSPropertyOp42
 70
     1
102
RTVSPropertyOp43
 70
     1
102
RTVSPropertyOp44
 70
     1
102
RTVSPropertyOp45
 70
     1
102
RTVSPropertyOp46
 70
     1
102
RTVSPropertyOp47
 70
     1
102
RTVSPropertyOp48
 70
     1
102
RTVSPropertyOp49
 70
     1
102
RTVSPropertyOp50
 70
     1
102
RTVSPropertyOp51
 70
     0
102
RTVSPropertyOp52
 70
     0
102
RTVSPropertyOp53
 70
     1
102
RTVSPropertyOp54
 70
     1
102
RTVSPropertyOp55
 70
     1
102
RTVSPropertyOp56
 70
     1
102
RTVSPropertyOp57
 70
     1
102
RTVSPropertyOp58
 70
     1
102
RTVSPropertyOp59
 70
     1
102
RTVSPropertyOp60
 70
     1
102
RTVSPropertyOp61
 70
     1
102
RTVSPropertyOp62
 70
     1
  0
XRECORD
  5
269
102
{ACAD_REACTORS
330
268
102
}
330
268
100
AcDbXrecord
280
     1
102
RTVSPost2010Prop28
280
     0
102
RTVSPost2010PropOp28
 70
     1
102
RTVSPost2010Prop29
280
     1
102
RTVSPost2010PropOp29
 70
     1
102
RTVSPost2010Prop30
280
     1
102
RTVSPost2010PropOp30
 70
     1
102
RTVSPost2010Prop31
280
     0
102
RTVSPost2010PropOp31
 70
     1
102
RTVSPost2010Prop32
280
     0
102
RTVSPost2010PropOp32
 70
     1
102
RTVSPost2010Prop33
280
     0
102
RTVSPost2010PropOp33
 70
     1
102
RTVSPost2010Prop34
280
     0
102
RTVSPost2010PropOp34
 70
     1
102
RTVSPost2010Prop35
280
     0
102
RTVSPost2010PropOp35
 70
     1
102
RTVSPost2010Prop36
280
     0
102
RTVSPost2010PropOp36
 70
     1
102
RTVSPost2010Prop37
 90
       50
102
RTVSPost2010PropOp37
 70
     1
102
RTVSPost2010Prop38
140
0.0
102
RTVSPost2010PropOp38
 70
     1
102
RTVSPost2010Prop39
140
1.0
102
RTVSPost2010PropOp39
 70
     1
102
RTVSPost2010Prop40
 90
        0
102
RTVSPost2010PropOp40
 70
     1
102
RTVSPost2010Prop41ColorIndex
 90
       18
102
RTVSPost2010Prop41ColorRGB
 90
        0
102
RTVSPost2010PropOp41
 70
     1
102
RTVSPost2010Prop42
 90
       50
102
RTVSPost2010PropOp42
 70
     1
102
RTVSPost2010Prop43
 90
        3
102
RTVSPost2010PropOp43
 70
     1
102
RTVSPost2010Prop44ColorIndex
 90
        5
102
RTVSPost2010Prop44ColorRGB
 90
      255
102
RTVSPost2010PropOp44
 70
     1
102
RTVSPost2010Prop45
280
     0
102
RTVSPost2010PropOp45
 70
     1
102
RTVSPost2010Prop46
 90
       50
102
RTVSPost2010PropOp46
 70
     1
102
RTVSPost2010Prop47
 90
       50
102
RTVSPost2010PropOp47
 70
     1
102
RTVSPost2010Prop48
 90
       50
102
RTVSPost2010PropOp48
 70
     1
102
RTVSPost2010Prop49
280
     0
102
RTVSPost2010PropOp49
 70
     1
102
RTVSPost2010Prop50
 90
       50
102
RTVSPost2010PropOp50
 70
     1
102
RTVSPost2010Prop51ColorIndex
 90
      256
102
RTVSPost2010Prop51ColorRGB
 90
-16777216
102
RTVSPost2010PropOp51
 70
     0
102
RTVSPost2010Prop52
140
1.0
102
RTVSPost2010PropOp52
 70
     0
102
RTVSPost2010Prop53
 90
        2
102
RTVSPost2010PropOp53
 70
     1
102
RTVSPost2010Prop54
  1
strokes_ogs.tif
102
RTVSPost2010PropOp54
 70
     1
102
RTVSPost2010Prop55
280
     0
102
RTVSPost2010PropOp55
 70
     1
102
RTVSPost2010Prop56
140
1.0
102
RTVSPost2010PropOp56
 70
     1
102
RTVSPost2010Prop57
140
1.0
102
RTVSPost2010PropOp57
 70
     1
102
RTVSPropertyOp0
 70
     1
102
RTVSPropertyOp1
 70
     1
102
RTVSPropertyOp2
 70
     1
102
RTVSPropertyOp3
 70
     1
102
RTVSPropertyOp4
 70
     1
102
RTVSPropertyOp5
 70
     1
102
RTVSPropertyOp6
 70
     1
102
RTVSPropertyOp7
 70
     1
102
RTVSPropertyOp8
 70
     1
102
RTVSPropertyOp9
 70
     1
102
RTVSPropertyOp10
 70
     1
102
RTVSPropertyOp11
 70
     1
102
RTVSPropertyOp12
 70
     1
102
RTVSPropertyOp13
 70
     1
102
RTVSPropertyOp14
 70
     1
102
RTVSPropertyOp15
 70
     1
102
RTVSPropertyOp16
 70
     1
102
RTVSPropertyOp17
 70
     1
102
RTVSPropertyOp18
 70
     1
102
RTVSPropertyOp19
 70
     1
102
RTVSPropertyOp20
 70
     1
102
RTVSPropertyOp21
 70
     1
102
RTVSPropertyOp22
 70
     1
102
RTVSPropertyOp23
 70
     1
102
RTVSPropertyOp24
 70
     1
102
RTVSPropertyOp25
 70
     1
102
RTVSPropertyOp26
 70
     1
102
RTVSPropertyOp27
 70
     1
102
RTVSPropertyOp28
 70
     1
102
RTVSPropertyOp29
 70
     1
102
RTVSPropertyOp30
 70
     1
102
RTVSPropertyOp31
 70
     1
102
RTVSPropertyOp32
 70
     1
102
RTVSPropertyOp33
 70
     1
102
RTVSPropertyOp34
 70
     1
102
RTVSPropertyOp35
 70
     1
102
RTVSPropertyOp36
 70
     1
102
RTVSPropertyOp37
 70
     1
102
RTVSPropertyOp38
 70
     1
102
RTVSPropertyOp39
 70
     1
102
RTVSPropertyOp40
 70
     1
102
RTVSPropertyOp41
 70
     1
102
RTVSPropertyOp42
 70
     1
102
RTVSPropertyOp43
 70
     1
102
RTVSPropertyOp44
 70
     1
102
RTVSPropertyOp45
 70
     1
102
RTVSPropertyOp46
 70
     1
102
RTVSPropertyOp47
 70
     1
102
RTVSPropertyOp48
 70
     1
102
RTVSPropertyOp49
 70
     1
102
RTVSPropertyOp50
 70
     1
102
RTVSPropertyOp51
 70
     0
102
RTVSPropertyOp52
 70
     0
102
RTVSPropertyOp53
 70
     1
102
RTVSPropertyOp54
 70
     1
102
RTVSPropertyOp55
 70
     1
102
RTVSPropertyOp56
 70
     1
102
RTVSPropertyOp57
 70
     1
102
RTVSPropertyOp58
 70
     1
102
RTVSPropertyOp59
 70
     1
102
RTVSPropertyOp60
 70
     1
102
RTVSPropertyOp61
 70
     1
102
RTVSPropertyOp62
 70
     1
  0
ENDSEC
  0
EOF
