  0
SECTION
  2
HEADER
  9
$ACADVER
  1
AC1015
  9
$ACADMAINTVER
 70
    20
  9
$DWGCODEPAGE
  3
ANSI_1252
  9
$INSBASE
 10
0.0
 20
0.0
 30
0.0
  9
$EXTMIN
 10
-20.25318095076896
 20
6.629879535688365
 30
0.0
  9
$EXTMAX
 10
348.3
 20
421.9129809130387
 30
0.0
  9
$LIMMIN
 10
0.0
 20
0.0
  9
$LIMMAX
 10
600.0
 20
700.0
  9
$ORTHOMODE
 70
     1
  9
$REGENMODE
 70
     1
  9
$FILLMODE
 70
     1
  9
$QTEXTMODE
 70
     0
  9
$MIRRTEXT
 70
     1
  9
$LTSCALE
 40
1.0
  9
$ATTMODE
 70
     1
  9
$TEXTSIZE
 40
10.0
  9
$TRACEWID
 40
0.05
  9
$TEXTSTYLE
  7
NORM
  9
$CLAYER
  8
BEMASSUNG
  9
$CELTYPE
  6
BYLAYER
  9
$CECOLOR
 62
   256
  9
$CELTSCALE
 40
1.0
  9
$DISPSILH
 70
     0
  9
$DIMSCALE
 40
1.0
  9
$DIMASZ
 40
4.0
  9
$DIMEXO
 40
0.0
  9
$DIMDLI
 40
8.0
  9
$DIMRND
 40
0.0
  9
$DIMDLE
 40
0.0
  9
$DIMEXE
 40
1.0
  9
$DIMTP
 40
0.0
  9
$DIMTM
 40
0.0
  9
$DIMTXT
 40
4.349999999999999
  9
$DIMCEN
 40
1.5
  9
$DIMTSZ
 40
0.0
  9
$DIMTOL
 70
     0
  9
$DIMLIM
 70
     0
  9
$DIMTIH
 70
     0
  9
$DIMTOH
 70
     0
  9
$DIMSE1
 70
     0
  9
$DIMSE2
 70
     0
  9
$DIMTAD
 70
     1
  9
$DIMZIN
 70
     8
  9
$DIMBLK
  1

  9
$DIMASO
 70
     1
  9
$DIMSHO
 70
     1
  9
$DIMPOST
  1

  9
$DIMAPOST
  1

  9
$DIMALT
 70
     0
  9
$DIMALTD
 70
     2
  9
$DIMALTF
 40
25.39999999999999
  9
$DIMLFAC
 40
1.0
  9
$DIMTOFL
 70
     1
  9
$DIMTVP
 40
0.0
  9
$DIMTIX
 70
     1
  9
$DIMSOXD
 70
     0
  9
$DIMSAH
 70
     0
  9
$DIMBLK1
  1

  9
$DIMBLK2
  1

  9
$DIMSTYLE
  2
Katalog 09
  9
$DIMCLRD
 70
     2
  9
$DIMCLRE
 70
     2
  9
$DIMCLRT
 70
     3
  9
$DIMTFAC
 40
0.4285714285714286
  9
$DIMGAP
 40
1.0
  9
$DIMJUST
 70
     0
  9
$DIMSD1
 70
     0
  9
$DIMSD2
 70
     0
  9
$DIMTOLJ
 70
     1
  9
$DIMTZIN
 70
     8
  9
$DIMALTZ
 70
     8
  9
$DIMALTTZ
 70
     8
  9
$DIMUPT
 70
     0
  9
$DIMDEC
 70
     2
  9
$DIMTDEC
 70
     2
  9
$DIMALTU
 70
     2
  9
$DIMALTTD
 70
     2
  9
$DIMTXSTY
  7
ARIAL-STANDARD
  9
$DIMAUNIT
 70
     0
  9
$DIMADEC
 70
     0
  9
$DIMALTRND
 40
0.0
  9
$DIMAZIN
 70
     0
  9
$DIMDSEP
 70
    46
  9
$DIMATFIT
 70
     3
  9
$DIMFRAC
 70
     0
  9
$DIMLDRBLK
  1

  9
$DIMLUNIT
 70
     2
  9
$DIMLWD
 70
    -2
  9
$DIMLWE
 70
    -2
  9
$DIMTMOVE
 70
     0
  9
$LUNITS
 70
     2
  9
$LUPREC
 70
     4
  9
$SKETCHINC
 40
0.1
  9
$FILLETRAD
 40
0.0
  9
$AUNITS
 70
     0
  9
$AUPREC
 70
     0
  9
$MENU
  1
.
  9
$ELEVATION
 40
0.0
  9
$PELEVATION
 40
0.0
  9
$THICKNESS
 40
0.0
  9
$LIMCHECK
 70
     0
  9
$CHAMFERA
 40
0.5
  9
$CHAMFERB
 40
0.5
  9
$CHAMFERC
 40
1.0
  9
$CHAMFERD
 40
0.0
  9
$SKPOLY
 70
     0
  9
$TDCREATE
 40
2451317.556842628
  9
$TDUCREATE
 40
2451317.515175960
  9
$TDUPDATE
 40
2457067.395968993
  9
$TDUUPDATE
 40
2457067.354302326
  9
$TDINDWG
 40
1.9474330556
  9
$TDUSRTIMER
 40
1.9474330556
  9
$USRTIMER
 70
     1
  9
$ANGBASE
 50
0.0
  9
$ANGDIR
 70
     0
  9
$PDMODE
 70
     0
  9
$PDSIZE
 40
0.0
  9
$PLINEWID
 40
0.0
  9
$SPLFRAME
 70
     0
  9
$SPLINETYPE
 70
     6
  9
$SPLINESEGS
 70
     8
  9
$HANDSEED
  5
428
  9
$SURFTAB1
 70
     6
  9
$SURFTAB2
 70
     6
  9
$SURFTYPE
 70
     6
  9
$SURFU
 70
     6
  9
$SURFV
 70
     6
  9
$UCSBASE
  2

  9
$UCSNAME
  2

  9
$UCSORG
 10
0.0
 20
0.0
 30
0.0
  9
$UCSXDIR
 10
1.0
 20
0.0
 30
0.0
  9
$UCSYDIR
 10
0.0
 20
1.0
 30
0.0
  9
$UCSORTHOREF
  2

  9
$UCSORTHOVIEW
 70
     0
  9
$UCSORGTOP
 10
0.0
 20
0.0
 30
0.0
  9
$UCSORGBOTTOM
 10
0.0
 20
0.0
 30
0.0
  9
$UCSORGLEFT
 10
0.0
 20
0.0
 30
0.0
  9
$UCSORGRIGHT
 10
0.0
 20
0.0
 30
0.0
  9
$UCSORGFRONT
 10
0.0
 20
0.0
 30
0.0
  9
$UCSORGBACK
 10
0.0
 20
0.0
 30
0.0
  9
$PUCSBASE
  2

  9
$PUCSNAME
  2

  9
$PUCSORG
 10
0.0
 20
0.0
 30
0.0
  9
$PUCSXDIR
 10
1.0
 20
0.0
 30
0.0
  9
$PUCSYDIR
 10
0.0
 20
1.0
 30
0.0
  9
$PUCSORTHOREF
  2

  9
$PUCSORTHOVIEW
 70
     0
  9
$PUCSORGTOP
 10
0.0
 20
0.0
 30
0.0
  9
$PUCSORGBOTTOM
 10
0.0
 20
0.0
 30
0.0
  9
$PUCSORGLEFT
 10
0.0
 20
0.0
 30
0.0
  9
$PUCSORGRIGHT
 10
0.0
 20
0.0
 30
0.0
  9
$PUCSORGFRONT
 10
0.0
 20
0.0
 30
0.0
  9
$PUCSORGBACK
 10
0.0
 20
0.0
 30
0.0
  9
$USERI1
 70
     0
  9
$USERI2
 70
     0
  9
$USERI3
 70
     0
  9
$USERI4
 70
     0
  9
$USERI5
 70
     0
  9
$USERR1
 40
0.0
  9
$USERR2
 40
0.0
  9
$USERR3
 40
0.0
  9
$USERR4
 40
0.0
  9
$USERR5
 40
0.0
  9
$WORLDVIEW
 70
     1
  9
$SHADEDGE
 70
     3
  9
$SHADEDIF
 70
    70
  9
$TILEMODE
 70
     1
  9
$MAXACTVP
 70
    48
  9
$PINSBASE
 10
0.0
 20
0.0
 30
0.0
  9
$PLIMCHECK
 70
     0
  9
$PEXTMIN
 10
1.000000000000000E+20
 20
1.000000000000000E+20
 30
1.000000000000000E+20
  9
$PEXTMAX
 10
-1.000000000000000E+20
 20
-1.000000000000000E+20
 30
-1.000000000000000E+20
  9
$PLIMMIN
 10
0.0
 20
0.0
  9
$PLIMMAX
 10
12.0
 20
9.0
  9
$UNITMODE
 70
     0
  9
$VISRETAIN
 70
     1
  9
$PLINEGEN
 70
     0
  9
$PSLTSCALE
 70
     1
  9
$TREEDEPTH
 70
  3020
  9
$CMLSTYLE
  2
STANDARD
  9
$CMLJUST
 70
     0
  9
$CMLSCALE
 40
1.0
  9
$PROXYGRAPHICS
 70
     1
  9
$MEASUREMENT
 70
     1
  9
$CELWEIGHT
370
    -1
  9
$ENDCAPS
280
     0
  9
$JOINSTYLE
280
     0
  9
$LWDISPLAY
290
     0
  9
$INSUNITS
 70
     4
  9
$HYPERLINKBASE
  1

  9
$STYLESHEET
  1

  9
$XEDIT
290
     1
  9
$CEPSNTYPE
380
     0
  9
$PSTYLEMODE
290
     1
  9
$FINGERPRINTGUID
  2
{4E038B97-B3E6-4E03-8627-91E2486EFC12}
  9
$VERSIONGUID
  2
{72B70C31-51AC-4F49-8B30-C5CA7EDA0AF0}
  9
$EXTNAMES
290
     1
  9
$PSVPSCALE
 40
0.0
  9
$OLESTARTUP
290
     0
  0
ENDSEC
  0
SECTION
  2
CLASSES
  0
CLASS
  1
ACDBDICTIONARYWDFLT
  2
AcDbDictionaryWithDefault
  3
ObjectDBX Classes
 90
        0
280
     0
281
     0
  0
CLASS
  1
ACDBPLACEHOLDER
  2
AcDbPlaceHolder
  3
ObjectDBX Classes
 90
        0
280
     0
281
     0
  0
CLASS
  1
LAYOUT
  2
AcDbLayout
  3
ObjectDBX Classes
 90
        0
280
     0
281
     0
  0
CLASS
  1
ACME_DOCUMENT
  2
AcMeDbDoc
  3
AcMeServices
 90
    33792
280
     0
281
     0
  0
CLASS
  1
AMGSETTINGSOBJ
  2
AmgSettingsObj
  3
"AcadM|Product Description: AutoCAD Mechanical|Company: Autodesk, Inc."
 90
     1024
280
     0
281
     0
  0
CLASS
  1
ACMESCOPE
  2
AcMeScope
  3
AcMeServices
 90
     1024
280
     0
281
     0
  0
CLASS
  1
ACMECOMMANDHISTORY
  2
AcMeCommandHistory
  3
AcMeServices
 90
    33792
280
     0
281
     0
  0
CLASS
  1
ACIMSYSVARMAN
  2
AcImSysVarManager
  3
AcMeServices
 90
     1024
280
     0
281
     0
  0
CLASS
  1
ACIMREALSYSVAR
  2
AcImRealSysVar
  3
AcMeServices
 90
    33792
280
     0
281
     0
  0
CLASS
  1
ACIMINTSYSVAR
  2
AcImIntSysVar
  3
AcMeServices
 90
     1024
280
     0
281
     0
  0
CLASS
  1
ACMEDRAWINGMAN
  2
AcMeDrawingMan
  3
AcMeServices
 90
    33792
280
     0
281
     0
  0
CLASS
  1
ACMEVIEW
  2
AcMeView
  3
AcMeServices
 90
    33792
280
     0
281
     0
  0
CLASS
  1
ACDBENTITYCACHE
  2
AcMeEntityCache
  3
AcMeServices
 90
    33792
280
     0
281
     0
  0
CLASS
  1
GSMANAGER
  2
AcMeGSManager
  3
AcMeServices
 90
    33792
280
     1
281
     0
  0
CLASS
  1
AMDTINTERNALREACTOR
  2
AmdtInternalReactor
  3
AcMeServices
 90
    33792
280
     0
281
     0
  0
CLASS
  1
ACMESTATEMGR
  2
AcMeStateMgr
  3
AcMeServices
 90
     1024
280
     0
281
     0
  0
CLASS
  1
ACGREFMASTER
  2
AcGrefMaster
  3
AcAttribServices
 90
     1024
280
     0
281
     0
  0
CLASS
  1
ACME_DATABASE
  2
AcMeDbDatabase
  3
AcMeServices
 90
    33792
280
     0
281
     0
  0
CLASS
  1
ACRFINSADJUSTERMGR
  2
AcRfInsAdjusterMgr
  3
AcMeServices
 90
    33792
280
     0
281
     0
  0
CLASS
  1
ACGREFACADMASTER
  2
AcGrefacadMaster
  3
AcGrefServices
 90
    33792
280
     0
281
     0
  0
CLASS
  1
AMIMASTER
  2
AmiMaster
  3
AmiServices
 90
    33792
280
     0
281
     0
  0
CLASS
  1
ACMDATADICTIONARY
  2
AcmDataDictionary
  3
"AcmSymBB|Product Description: AutoCAD Mechanical|Company: Autodesk, Inc."
 90
    33792
280
     0
281
     0
  0
CLASS
  1
ACMDATAENTRYBLOCK
  2
AcmDataEntryBlock
  3
AcmSymBB|Product Description: AutoCAD Mechanical|Company: Autodesk, Inc.
 90
    33792
280
     0
281
     0
  0
CLASS
  1
ACIMSTRSYSVAR
  2
AcImStrSysVar
  3
AcMeServices
 90
     1024
280
     0
281
     0
  0
CLASS
  1
ACMSTANDARDDIN
  2
AcmStandardDIN
  3
"Amdt_StdImp|Product Description: AutoCAD Mechanical|Company: Autodesk, Inc."
 90
     1024
280
     0
281
     0
  0
CLASS
  1
AMGOBJPROPCFG
  2
AmgObjPropCfg
  3
"AmgLay|Product Description: AutoCAD Mechanical|Company: Autodesk, Inc."
 90
     1024
280
     0
281
     0
  0
CLASS
  1
AMDTEDGESTANDARDDIN
  2
AmdtEdgeStdDIN
  3
"Amdt_StdImp|Product Description: AutoCAD Mechanical|Company: Autodesk, Inc."
 90
    33792
280
     0
281
     0
  0
CLASS
  1
ACMSURFSTANDARDDIN
  2
AcmSurfTextStdDIN
  3
"Amdt_StdImp|Product Description: AutoCAD Mechanical|Company: Autodesk, Inc."
 90
    33792
280
     0
281
     0
  0
CLASS
  1
ACMFCFSTANDARDDIN
  2
AcmFCFStdDIN
  3
"Amdt_StdImp|Product Description: AutoCAD Mechanical|Company: Autodesk, Inc."
 90
    33792
280
     0
281
     0
  0
CLASS
  1
ACMWELDSTANDARDDIN
  2
AcmWeldingStdDIN
  3
"Amdt_StdImp|Product Description: AutoCAD Mechanical|Company: Autodesk, Inc."
 90
     1024
280
     0
281
     0
  0
CLASS
  1
ACMIDSTANDARDDIN
  2
AcmIdStdDIN
  3
"Amdt_StdImp|Product Description: AutoCAD Mechanical|Company: Autodesk, Inc."
 90
    33792
280
     0
281
     0
  0
CLASS
  1
ACMDATUMSTANDARDDIN
  2
AcmDatumStdDIN
  3
"Amdt_StdImp|Product Description: AutoCAD Mechanical|Company: Autodesk, Inc."
 90
     1024
280
     0
281
     0
  0
CLASS
  1
ACMBOMSTANDARDDIN
  2
AcmBOMStdDIN
  3
"Amdt_StdImp|Product Description: AutoCAD Mechanical|Company: Autodesk, Inc."
 90
     1024
280
     0
281
     0
  0
CLASS
  1
ACMDETAILSTANDARDDIN
  2
AmdtDetailSymStdDIN
  3
"Amdt_StdImp|Product Description: AutoCAD Mechanical|Company: Autodesk, Inc."
 90
     1024
280
     0
281
     0
  0
CLASS
  1
ACMSECTIONSTANDARDDIN
  2
AmdtSectionSymStdDIN
  3
"Amdt_StdImp|Product Description: AutoCAD Mechanical|Company: Autodesk, Inc."
 90
     1024
280
     0
281
     0
  0
CLASS
  1
ACMCENTERLINESTANDARDDIN
  2
AmdtCenterLineStdDIN
  3
"Amdt_StdImp|Product Description: AutoCAD Mechanical|Company: Autodesk, Inc."
 90
     1024
280
     0
281
     0
  0
CLASS
  1
ACMNOTESTANDARDDIN
  2
AmdtNoteStdDIN
  3
"Amdt_StdImp|Product Description: AutoCAD Mechanical|Company: Autodesk, Inc."
 90
     1024
280
     0
281
     0
  0
CLASS
  1
ACAMGLAYSTD
  2
AcAmgLayStd
  3
"AmgLay|Product Description: AutoCAD Mechanical|Company: Autodesk, Inc."
 90
     1024
280
     0
281
     0
  0
CLASS
  1
ACAMGDIMSTD
  2
AcAmgDimStd
  3
"AmgDim|Product Description: AutoCAD Mechanical|Company: Autodesk, Inc."
 90
     1024
280
     0
281
     0
  0
CLASS
  1
ACAMGHOLECHARTSTDDIN
  2
AcAmgHoleChartStdDIN
  3
AmgDim|Product Description: AutoCAD Mechanical|Company: Autodesk, Inc.
 90
     1024
280
     0
281
     0
  0
CLASS
  1
ACAMGTITLESTD
  2
AcAmgTitleStd
  3
"AmgTitle|Product Description: AutoCAD Mechanical|Company: Autodesk, Inc."
 90
     1024
280
     0
281
     0
  0
CLASS
  1
ACAMGFILTERDAT
  2
AcAmgFilterDat
  3
"AcadM|Product Description: AutoCAD Mechanical|Company: Autodesk, Inc."
 90
    33792
280
     0
281
     0
  0
CLASS
  1
LAYER_INDEX
  2
AcDbLayerIndex
  3
ObjectDBX Classes
 90
    32768
280
     0
281
     0
  0
CLASS
  1
IDBUFFER
  2
AcDbIdBuffer
  3
ObjectDBX Classes
 90
    32768
280
     0
281
     0
  0
CLASS
  1
DICTIONARYVAR
  2
AcDbDictionaryVar
  3
ObjectDBX Classes
 90
        0
280
     0
281
     0
  0
CLASS
  1
MATERIAL
  2
AcDbMaterial
  3
ObjectDBX Classes
 90
     1153
280
     0
281
     0
  0
CLASS
  1
VISUALSTYLE
  2
AcDbVisualStyle
  3
ObjectDBX Classes
 90
     4095
280
     0
281
     0
  0
CLASS
  1
TABLESTYLE
  2
AcDbTableStyle
  3
ObjectDBX Classes
 90
     4095
280
     0
281
     0
  0
CLASS
  1
SCALE
  2
AcDbScale
  3
ObjectDBX Classes
 90
     1153
280
     0
281
     0
  0
CLASS
  1
MLEADERSTYLE
  2
AcDbMLeaderStyle
  3
ACDB_MLEADERSTYLE_CLASS
 90
    36863
280
     0
281
     0
  0
CLASS
  1
AM_DRAWING_MGR
  2
AcDmDwgMgr
  3
AcMechDwgViewMgmt
 90
    33792
280
     0
281
     0
  0
CLASS
  1
AM_DWG_DOCUMENT
  2
AcDmDwgDocument
  3
AcMechDwgViewMgmt
 90
    33792
280
     0
281
     0
  0
CLASS
  1
AM_DWG_SHEET
  2
AcDmSheet
  3
AcMechDwgViewMgmt
 90
    33792
280
     0
281
     0
  0
CLASS
  1
AM_VIEWDIMPARMAP
  2
AcDmViewDimParMap
  3
AcMechDwgViewMgmt
 90
    33792
280
     0
281
     0
  0
CLASS
  1
AM_DWGMGR_NAME
  2
AcDmDwgMgrName
  3
AcMechDwgViewMgmt
 90
    33792
280
     0
281
     0
  0
CLASS
  1
AMDTMENUSTATEMGR
  2
AmdtMenuStateMgr
  3
McadcomServices
 90
    33792
280
     0
281
     0
  0
CLASS
  1
AMDTMCOMMENUSTATE
  2
AmdtMcomMenuState
  3
McadcomServices
 90
    33792
280
     0
281
     0
  0
CLASS
  1
MAPIAMMOUDLE
  2
MApiAmModule
  3
MApiAmServices
 90
    33792
280
     0
281
     0
  0
CLASS
  1
AMDTADMENUSTATE
  2
AmdtAdMenuState
  3
DesignerServices
 90
    33792
280
     1
281
     0
  0
CLASS
  1
ADAPPL
  2
AcAdAppl
  3
DesignerAssemblies
 90
    33792
280
     0
281
     0
  0
CLASS
  1
DEPMGR
  2
AcAdDepMgr
  3
DesignerAssemblies
 90
    33792
280
     0
281
     0
  0
CLASS
  1
PARAMMGR
  2
AcAdParamMgr
  3
DesignerAssemblies
 90
    33792
280
     0
281
     0
  0
CLASS
  1
PARAMSCOPE
  2
AcAdParamScope
  3
DesignerAssemblies
 90
    33792
280
     0
281
     0
  0
CLASS
  1
NAMEDAPPL
  2
AcAdNamedAppl
  3
DesignerAssemblies
 90
    33792
280
     0
281
     0
  0
CLASS
  1
AMDTDMMENUSTATE
  2
AmdtDmMenuState
  3
AcMechDwgViewMgmt
 90
    33792
280
     1
281
     0
  0
CLASS
  1
AMDTAMMENUSTATE
  2
AmdtAmMenuState
  3
DesignerAssemblies
 90
    33792
280
     0
281
     0
  0
CLASS
  1
ACAMPROJECT
  2
AcAmProject
  3
DesignerAssemblies
 90
    33792
280
     0
281
     0
  0
CLASS
  1
ACAMGRCOMPDEF
  2
AcAmGrCompDef
  3
DesignerAssemblies
 90
    33792
280
     0
281
     0
  0
CLASS
  1
ACCMCONTEXT
  2
AcCmContext
  3
DesignerAssemblies
 90
    33792
280
     0
281
     0
  0
CLASS
  1
ACAMCOMPDEF
  2
AcAmCompDef
  3
DesignerAssemblies
 90
    33792
280
     0
281
     0
  0
CLASS
  1
ACAMCOMPDEFMGR
  2
AcAmCompDefMgr
  3
DesignerAssemblies
 90
    33792
280
     0
281
     0
  0
CLASS
  1
AMCONTEXTMGR
  2
AcAmContextMgr
  3
DesignerAssemblies
 90
    33792
280
     0
281
     0
  0
CLASS
  1
ACAMCONTEXTMODELER
  2
AcAmContextModeler
  3
DesignerAssemblies
 90
    33792
280
     0
281
     0
  0
CLASS
  1
ACRFATTGENMGR
  2
AcRfAttGeneralMgr
  3
AcAttribServices
 90
    33792
280
     0
281
     0
  0
CLASS
  1
ACRFOBJATTMGR
  2
AcRfObjAttGroupMgr
  3
AcAttribServices
 90
    33792
280
     0
281
     0
  0
CLASS
  1
ACRFMCADAPIATTHOLDER
  2
AcRfMCADAPIAttHolder
  3
AcAttribServices
 90
    33792
280
     0
281
     0
  0
CLASS
  1
AMDTSYSATTR
  2
AmdtSystemAttribute
  3
AcAttribServices
 90
    33792
280
     0
281
     0
  0
CLASS
  1
ACMTHREADLINESTANDARDDIN
  2
AmdtThreadLineStdDIN
  3
"Amdt_StdImp|Product Description: AutoCAD Mechanical|Company: Autodesk, Inc."
 90
     1024
280
     0
281
     0
  0
CLASS
  1
ACMTAPERSTANDARDDIN
  2
AcmTaperStdDIN
  3
"Amdt_StdImp|Product Description: AutoCAD Mechanical|Company: Autodesk, Inc."
 90
     1024
280
     0
281
     0
  0
CLASS
  1
ACMANOOTATIONVIEWSTANDARDDIN
  2
AmdtAnViewStdDIN
  3
"Amdt_StdImp|Product Description: AutoCAD Mechanical|Company: Autodesk, Inc."
 90
     1024
280
     0
281
     0
  0
CLASS
  1
CATALOGSTATE
  2
AcAmCatalogState
  3
DesignerAssemblies
 90
    33792
280
     0
281
     0
  0
CLASS
  1
ACAMGRCOMPDEFSET
  2
AcAmGrCompDefSet
  3
DesignerAssemblies
 90
    33792
280
     0
281
     0
  0
CLASS
  1
AMDTBROWSERDBTAB
  2
AmdtBrowserDbTab
  3
McadcomServices
 90
    33792
280
     0
281
     0
  0
CLASS
  1
CBROWSERAPPOBJECT
  2
CBrowserAppObject
  3
McadcomServices
 90
    33792
280
     0
281
     0
  0
CLASS
  1
DM_PLACEHOLDER
  2
AcDmSelsetPlaceholder
  3
McadcomServices
 90
    33792
280
     0
281
     0
  0
CLASS
  1
CAMSSTRUCTBTNSTATE
  2
StructBtnState
  3
DesignerAssemblies
 90
    33792
280
     0
281
     0
  0
CLASS
  1
CELLSTYLEMAP
  2
AcDbCellStyleMap
  3
ObjectDBX Classes
 90
     1152
280
     0
281
     0
  0
CLASS
  1
PLOTSETTINGS
  2
AcDbPlotSettings
  3
ObjectDBX Classes
 90
    32768
280
     0
281
     0
  0
CLASS
  1
AEC_REFEDIT_STATUS_TRACKER
  2
AecDbRefEditStatusTracker
  3
AecArchBase70|Product Desc: Autodesk Architectural Desktop 2007 |Company: Autodesk,Inc. |WEB Address: www.autodesk.com
 90
    32897
280
     1
281
     0
  0
CLASS
  1
NPOCOLLECTION
  2
AcDbImpNonPersistentObjectsCollection
  3
ObjectDBX Classes
 90
    33921
280
     0
281
     0
  0
CLASS
  1
SORTENTSTABLE
  2
AcDbSortentsTable
  3
ObjectDBX Classes
 90
        0
280
     0
281
     0
  0
CLASS
  1
AMDTEDGESTANDARDDIN13715
  2
AmdtEdgeStdDIN13715
  3
"Amdt_StdImp|Product Description: AutoCAD Mechanical|Company: Autodesk, Inc."
 90
     1024
280
     0
281
     0
  0
CLASS
  1
ACMSURFSTANDARDDIN2002
  2
AcmSurfTextStdDIN2002
  3
"Amdt_StdImp|Product Description: AutoCAD Mechanical|Company: Autodesk, Inc."
 90
     1024
280
     0
281
     0
  0
CLASS
  1
AMDTNOTETEMPLATEDB
  2
AmdtNoteTemplateDB
  3
AcmSymBB|Product Description: AutoCAD Mechanical|Company: Autodesk, Inc.
 90
     1024
280
     0
281
     0
  0
CLASS
  1
ACMDIMBREAKPERSREACTOR
  2
AcmDimBreakPersReactor
  3
AmgDim|Product Description: AutoCAD Mechanical|Company: Autodesk, Inc.
 90
     1024
280
     0
281
     0
  0
CLASS
  1
ACDBSECTIONVIEWSTYLE
  2
AcDbSectionViewStyle
  3
ObjectDBX Classes
 90
     1025
280
     0
281
     0
  0
CLASS
  1
ACDBDETAILVIEWSTYLE
  2
AcDbDetailViewStyle
  3
ObjectDBX Classes
 90
     1025
280
     0
281
     0
  0
CLASS
  1
ACMFCFSTANDARDDIN2008
  2
AcmFCFStdDIN2008
  3
"Amdt_StdImp|Product Description: AutoCAD Mechanical|Company: Autodesk, Inc."
 90
     1024
280
     0
281
     0
  0
CLASS
  1
ACMIDSTANDARDDIN2008
  2
AcmIdStdDIN2008
  3
"Amdt_StdImp|Product Description: AutoCAD Mechanical|Company: Autodesk, Inc."
 90
     1024
280
     0
281
     0
  0
CLASS
  1
ACMSECTIONSTANDARDCUSTOM
  2
AmdtSectionSymStdCustom
  3
"Amdt_StdImp|Product Description: AutoCAD Mechanical|Company: Autodesk, Inc."
 90
     1024
280
     0
281
     0
  0
CLASS
  1
ACMDETAILTANDARDCUSTOM
  2
AmdtDetailSymStdCustom
  3
"Amdt_StdImp|Product Description: AutoCAD Mechanical|Company: Autodesk, Inc."
 90
     1024
280
     0
281
     0
  0
CLASS
  1
FIELD
  2
AcDbField
  3
ObjectDBX Classes
 90
     1152
280
     0
281
     0
  0
CLASS
  1
FIELDLIST
  2
AcDbFieldList
  3
ObjectDBX Classes
 90
     1152
280
     0
281
     0
  0
ENDSEC
  0
SECTION
  2
TABLES
  0
TABLE
  2
VPORT
  5
2C
330
0
100
AcDbSymbolTable
 70
     1
  0
VPORT
  5
2D
330
2C
100
AcDbSymbolTableRecord
100
AcDbViewportTableRecord
  2
*Active
 70
     0
 10
0.0
 20
0.0
 11
1.0
 21
1.0
 12
63.1563052307207
 22
205.8325431454809
 13
0.0
 23
0.0
 14
10.0
 24
10.0
 15
10.0
 25
10.0
 16
0.0
 26
0.0
 36
1.0
 17
0.0
 27
0.0
 37
0.0
 40
675.6703083922103
 41
2.033022861981371
 42
50.0
 43
0.0
 44
0.0
 50
0.0
 51
0.0
 71
     0
 72
  5000
 73
     1
 74
     0
 75
     0
 76
     0
 77
     0
 78
     1
281
     0
 65
     1
110
0.0
120
0.0
130
0.0
111
1.0
121
0.0
131
0.0
112
0.0
122
1.0
132
0.0
 79
     0
146
0.0
1001
ACAD_NAV_VCDISPLAY
1070
     3
  0
ENDTAB
  0
TABLE
  2
LTYPE
  5
27
330
0
100
AcDbSymbolTable
 70
    14
  0
LTYPE
  5
28
330
27
100
AcDbSymbolTableRecord
100
AcDbLinetypeTableRecord
  2
BYBLOCK
 70
     0
  3

 72
    65
 73
     0
 40
0.0
  0
LTYPE
  5
29
330
27
100
AcDbSymbolTableRecord
100
AcDbLinetypeTableRecord
  2
BYLAYER
 70
     0
  3

 72
    65
 73
     0
 40
0.0
  0
LTYPE
  5
1E
330
27
100
AcDbSymbolTableRecord
100
AcDbLinetypeTableRecord
  2
CONTINUOUS
 70
     0
  3
Solid line
 72
    65
 73
     0
 40
0.0
  0
LTYPE
  5
82
330
27
100
AcDbSymbolTableRecord
100
AcDbLinetypeTableRecord
  2
STRICHPUNKT2
 70
     0
  3
Strichpunkt (.5x) _._._._._._._._._._._._._._._
 72
    65
 73
     4
 40
12.7
 49
6.349999999999999
 74
     0
 49
-3.174999999999999
 74
     0
 49
0.0
 74
     0
 49
-3.174999999999999
 74
     0
  0
LTYPE
  5
167
330
27
100
AcDbSymbolTableRecord
100
AcDbLinetypeTableRecord
  2
VERDECKT2
 70
     0
  3
Verdeckt (.5x) _ _ _ _ _ _ _ _ _ _ _ _ _ _ _ _ 
 72
    65
 73
     2
 40
4.762499999999999
 49
3.174999999999999
 74
     0
 49
-1.587499999999999
 74
     0
  0
LTYPE
  5
3BD
330
27
100
AcDbSymbolTableRecord
100
AcDbLinetypeTableRecord
  2
ACDINWELD
 70
     0
  3
_ _ _ _ _
 72
    65
 73
     2
 40
2.0
 49
2.0
 74
     0
 49
-1.0
 74
     0
  0
LTYPE
  5
3C1
330
27
100
AcDbSymbolTableRecord
100
AcDbLinetypeTableRecord
  2
ACDINTGB
 70
     0
  3
__ . . __ . .
 72
    65
 73
     6
 40
9.0
 49
4.0
 74
     0
 49
-1.0
 74
     0
 49
1.0
 74
     0
 49
-1.0
 74
     0
 49
1.0
 74
     0
 49
-1.0
 74
     0
  0
LTYPE
  5
3BF
330
27
100
AcDbSymbolTableRecord
100
AcDbLinetypeTableRecord
  2
ACDINTGL
 70
     0
  3
_ _ _ _ _
 72
    65
 73
     2
 40
3.0
 49
2.0
 74
     0
 49
-1.0
 74
     0
  0
LTYPE
  5
1C6
330
27
100
AcDbSymbolTableRecord
100
AcDbLinetypeTableRecord
  2
DASHED
 70
     0
  3
Dashed __ __ __ __ __ __ __ __ __ __ __ __ __ _
 72
    65
 73
     2
 40
19.05
 49
12.7
 74
     0
 49
-6.349999999999999
 74
     0
  0
LTYPE
  5
3A9
330
27
100
AcDbSymbolTableRecord
100
AcDbLinetypeTableRecord
  2
Amconstr
 70
     0
  3
_______________________
 72
    65
 73
     2
 40
9999.0
 49
9999.0
 74
     0
 49
0.0
 74
     0
  0
LTYPE
  5
3AC
330
27
100
AcDbSymbolTableRecord
100
AcDbLinetypeTableRecord
  2
Amzigzag
 70
     0
  3
/\/-/\/-/\/-/\/-/\/-/\/
 72
    65
 73
     2
 40
11.0001
 49
0.0001
 74
     4
 75
   135
340
3AD
 46
0.04
 50
0.0
 44
0.0
 45
0.0
 49
-11.0
 74
     0
  0
LTYPE
  5
3A6
330
27
100
AcDbSymbolTableRecord
100
AcDbLinetypeTableRecord
  2
AM_DIN_F_W050
 70
     0
  3
__ __ __ __ __ __ __ __ __ __ __ __ __ __ __
 72
    65
 73
     2
 40
6.25
 49
4.75
 74
     0
 49
-1.5
 74
     0
  0
LTYPE
  5
3A7
330
27
100
AcDbSymbolTableRecord
100
AcDbLinetypeTableRecord
  2
AM_DIN_G_W050
 70
     0
  3
____ . ____ . ____ . ____ . ____ . ____ . ____
 72
    65
 73
     4
 40
13.75
 49
9.75
 74
     0
 49
-1.5
 74
     0
 49
1.0
 74
     0
 49
-1.5
 74
     0
  0
LTYPE
  5
3A8
330
27
100
AcDbSymbolTableRecord
100
AcDbLinetypeTableRecord
  2
AM_DIN_K_W050
 70
     0
  3
_____ . . _____ . . _____ . . ____ .. ____
 72
    65
 73
     6
 40
16.25
 49
9.75
 74
     0
 49
-1.5
 74
     0
 49
1.0
 74
     0
 49
-1.5
 74
     0
 49
1.0
 74
     0
 49
-1.5
 74
     0
  0
LTYPE
  5
3AA
330
27
100
AcDbSymbolTableRecord
100
AcDbLinetypeTableRecord
  2
AM_DIN_G_W050x2
 70
     0
  3
__ . __ . __ . __ . __ . __
 72
    65
 73
     4
 40
6.875
 49
4.75
 74
     0
 49
-0.875
 74
     0
 49
0.375
 74
     0
 49
-0.875
 74
     0
  0
LTYPE
  5
3AB
330
27
100
AcDbSymbolTableRecord
100
AcDbLinetypeTableRecord
  2
AM_DIN_F_W050x2
 70
     0
  3
 _ _ _ _ _ _ _ _ _ _ _ _
 72
    65
 73
     2
 40
3.125
 49
2.25
 74
     0
 49
-0.875
 74
     0
  0
ENDTAB
  0
TABLE
  2
LAYER
  5
F
102
{ACAD_XDICTIONARY
360
1F
102
}
330
0
100
AcDbSymbolTable
 70
     9
  0
LAYER
  5
10
102
{ACAD_XDICTIONARY
360
11
102
}
330
F
100
AcDbSymbolTableRecord
100
AcDbLayerTableRecord
  2
0
 70
     0
 62
     7
  6
CONTINUOUS
370
    -3
390
13
  0
LAYER
  5
105
102
{ACAD_XDICTIONARY
360
106
102
}
330
F
100
AcDbSymbolTableRecord
100
AcDbLayerTableRecord
  2
UMRISS05
 70
     0
 62
     4
  6
CONTINUOUS
370
    -3
390
13
  0
LAYER
  5
50
102
{ACAD_XDICTIONARY
360
51
102
}
330
F
100
AcDbSymbolTableRecord
100
AcDbLayerTableRecord
  2
BEMASSUNG
 70
     0
 62
     2
  6
CONTINUOUS
370
    -3
390
13
  0
LAYER
  5
7F
102
{ACAD_XDICTIONARY
360
80
102
}
330
F
100
AcDbSymbolTableRecord
100
AcDbLayerTableRecord
  2
ACHSEN
 70
     0
 62
     1
  6
STRICHPUNKT2
370
    -3
390
13
  0
LAYER
  5
164
102
{ACAD_XDICTIONARY
360
165
102
}
330
F
100
AcDbSymbolTableRecord
100
AcDbLayerTableRecord
  2
AVERDECKTE
 70
     0
 62
    13
  6
VERDECKT2
370
    -3
390
13
  0
LAYER
  5
78
330
F
100
AcDbSymbolTableRecord
100
AcDbLayerTableRecord
  2
DEFPOINTS
 70
     0
 62
     7
  6
CONTINUOUS
290
     0
370
    -3
390
13
  0
LAYER
  5
1F7
330
F
100
AcDbSymbolTableRecord
100
AcDbLayerTableRecord
  2
Sichtbare Kanten(MSL)
 70
     0
 62
     7
  6
CONTINUOUS
370
    50
390
13
  0
LAYER
  5
1C5
330
F
100
AcDbSymbolTableRecord
100
AcDbLayerTableRecord
  2
Verdeckte Kanten(MSL)
 70
     0
 62
    11
  6
DASHED
370
    35
390
13
  0
LAYER
  5
6B
330
F
100
AcDbSymbolTableRecord
100
AcDbLayerTableRecord
  2
AM_5
 70
     0
 62
     3
  6
CONTINUOUS
370
    25
390
13
1001
AcAecLayerStandard
1000

1000

  0
ENDTAB
  0
TABLE
  2
STYLE
  5
24
330
0
100
AcDbSymbolTable
 70
     5
  0
STYLE
  5
25
330
24
100
AcDbSymbolTableRecord
100
AcDbTextStyleTableRecord
  2
STANDARD
 70
     0
 40
0.0
 41
1.0
 50
0.0
 71
     0
 42
10.0
  3
txt
  4

  0
STYLE
  5
53
330
24
100
AcDbSymbolTableRecord
100
AcDbTextStyleTableRecord
  2
NORM
 70
     0
 40
0.0
 41
1.0
 50
0.0
 71
     0
 42
10.0
  3
SIMPLEX
  4

  0
STYLE
  5
3BB
330
24
100
AcDbSymbolTableRecord
100
AcDbTextStyleTableRecord
  2
ACDINGDT
 70
     0
 40
0.0
 41
1.0
 50
0.0
 71
     0
 42
10.0
  3
amgdt.shx
  4

  0
STYLE
  5
34
330
24
100
AcDbSymbolTableRecord
100
AcDbTextStyleTableRecord
  2
ARIAL-STANDARD
 70
     0
 40
0.0
 41
1.0
 50
0.0
 71
     0
 42
3.5
  3
arial.ttf
  4

1001
ACAD
1000
Arial
1071
       34
  0
STYLE
  5
3AD
330
24
100
AcDbSymbolTableRecord
100
AcDbTextStyleTableRecord
  2

 70
     1
 40
0.0
 41
1.0
 50
0.0
 71
     0
 42
2.5
  3
ltypeshp.shx
  4

  0
ENDTAB
  0
TABLE
  2
VIEW
  5
2A
330
0
100
AcDbSymbolTable
 70
     0
  0
ENDTAB
  0
TABLE
  2
UCS
  5
2B
330
0
100
AcDbSymbolTable
 70
     0
  0
ENDTAB
  0
TABLE
  2
APPID
  5
31
330
0
100
AcDbSymbolTable
 70
    13
  0
APPID
  5
23
330
31
100
AcDbSymbolTableRecord
100
AcDbRegAppTableRecord
  2
ACAD
 70
     0
  0
APPID
  5
3EC
330
31
100
AcDbSymbolTableRecord
100
AcDbRegAppTableRecord
  2
ACAD_DSTYLE_DIMJOGGED_JOGANGLE_SYMBOL
 70
     0
  0
APPID
  5
36
330
31
100
AcDbSymbolTableRecord
100
AcDbRegAppTableRecord
  2
ACAD_DSTYLE_DIMJAG
 70
     0
  0
APPID
  5
35
330
31
100
AcDbSymbolTableRecord
100
AcDbRegAppTableRecord
  2
ACAD_DSTYLE_DIMBREAK
 70
     0
  0
APPID
  5
37
330
31
100
AcDbSymbolTableRecord
100
AcDbRegAppTableRecord
  2
ACAD_DSTYLE_DIMTALN
 70
     0
  0
APPID
  5
7D
330
31
100
AcDbSymbolTableRecord
100
AcDbRegAppTableRecord
  2
ACAD_DSTYLE_DIMINSPECT
 70
     0
  0
APPID
  5
154
330
31
100
AcDbSymbolTableRecord
100
AcDbRegAppTableRecord
  2
ACAD_DSTYLE_DIMRADIAL_EXTENSION
 70
     0
  0
APPID
  5
30
330
31
100
AcDbSymbolTableRecord
100
AcDbRegAppTableRecord
  2
ACAD_NAV_VCDISPLAY
 70
     0
  0
APPID
  5
6C
330
31
100
AcDbSymbolTableRecord
100
AcDbRegAppTableRecord
  2
AcAecLayerStandard
 70
     0
  0
APPID
  5
3FA
330
31
100
AcDbSymbolTableRecord
100
AcDbRegAppTableRecord
  2
ACATTRIBSERVICES
 70
     0
  0
APPID
  5
423
330
31
100
AcDbSymbolTableRecord
100
AcDbRegAppTableRecord
  2
ACAD_DSTYLE_DIM_LINETYPE
 70
     0
  0
APPID
  5
424
330
31
100
AcDbSymbolTableRecord
100
AcDbRegAppTableRecord
  2
ACAD_DSTYLE_DIM_EXT1_LINETYPE
 70
     0
  0
APPID
  5
425
330
31
100
AcDbSymbolTableRecord
100
AcDbRegAppTableRecord
  2
ACAD_DSTYLE_DIM_EXT2_LINETYPE
 70
     0
  0
ENDTAB
  0
TABLE
  2
DIMSTYLE
  5
32
330
0
100
AcDbSymbolTable
 70
     9
100
AcDbDimStyleTable
 71
     1
340
33
  0
DIMSTYLE
105
3EB
102
{ACAD_REACTORS
330
3B7
102
}
330
32
100
AcDbSymbolTableRecord
100
AcDbDimStyleTableRecord
  2
AM_DIN
 70
     0
  4
"
 41
3.5
 42
1.0
 43
10.0
 44
1.0
 47
0.1
 48
0.1
 73
     0
 74
     0
 77
     1
 78
     8
 79
     2
140
3.5
141
0.0
143
0.0393701
146
0.71
147
1.5
172
     1
176
   256
177
   256
178
     2
271
     2
272
     3
274
     4
283
     0
284
     8
340
25
371
    -1
372
    -1
1001
ACAD_DSTYLE_DIMJOGGED_JOGANGLE_SYMBOL
1070
   384
1040
1.570796326794896
1001
ACAD_DSTYLE_DIM_LINETYPE
1070
   380
1005
28
1001
ACAD_DSTYLE_DIM_EXT1_LINETYPE
1070
   381
1005
28
1001
ACAD_DSTYLE_DIM_EXT2_LINETYPE
1070
   382
1005
28
  0
DIMSTYLE
105
3ED
330
32
100
AcDbSymbolTableRecord
100
AcDbDimStyleTableRecord
  2
AM_DIN$3
 70
     0
  4
"
 41
3.5
 42
1.0
 43
10.0
 44
1.0
 47
0.1
 48
0.1
 73
     0
 77
     1
 78
     8
 79
     2
140
3.5
141
0.0
143
0.0393701
146
0.71
147
1.5
176
   256
177
   256
178
     2
271
     2
272
     3
274
     4
283
     0
284
     8
288
     1
289
     0
340
25
371
    -1
372
    -1
1001
ACAD_DSTYLE_DIMJOGGED_JOGANGLE_SYMBOL
1070
   384
1040
1.570796326794896
1001
ACAD_DSTYLE_DIM_LINETYPE
1070
   380
1005
28
1001
ACAD_DSTYLE_DIM_EXT1_LINETYPE
1070
   381
1005
28
1001
ACAD_DSTYLE_DIM_EXT2_LINETYPE
1070
   382
1005
28
  0
DIMSTYLE
105
3EE
330
32
100
AcDbSymbolTableRecord
100
AcDbDimStyleTableRecord
  2
AM_DIN$4
 70
     0
  4
"
 41
3.5
 42
1.0
 43
10.0
 44
1.0
 47
0.1
 48
0.1
 73
     0
 74
     0
 77
     1
 78
     8
 79
     2
140
3.5
141
0.0
143
0.0393701
146
0.71
147
1.5
172
     1
176
   256
177
   256
178
     2
271
     2
272
     3
274
     4
283
     0
284
     8
340
25
371
    -1
372
    -1
1001
ACAD_DSTYLE_DIMJOGGED_JOGANGLE_SYMBOL
1070
   384
1040
1.570796326794896
1001
ACAD_DSTYLE_DIM_LINETYPE
1070
   380
1005
28
1001
ACAD_DSTYLE_DIM_EXT1_LINETYPE
1070
   381
1005
28
1001
ACAD_DSTYLE_DIM_EXT2_LINETYPE
1070
   382
1005
28
  0
DIMSTYLE
105
3EF
330
32
100
AcDbSymbolTableRecord
100
AcDbDimStyleTableRecord
  2
AM_DIN$6
 70
     0
  4
"
 41
3.5
 42
1.0
 43
10.0
 44
1.0
 47
0.1
 48
0.1
 73
     0
 74
     0
 78
     8
 79
     2
140
3.5
141
0.0
143
0.0393701
146
0.71
147
1.5
172
     1
176
   256
177
   256
178
     2
271
     2
272
     3
274
     4
283
     0
284
     8
340
25
371
    -1
372
    -1
1001
ACAD_DSTYLE_DIMJOGGED_JOGANGLE_SYMBOL
1070
   384
1040
1.570796326794896
1001
ACAD_DSTYLE_DIM_LINETYPE
1070
   380
1005
28
1001
ACAD_DSTYLE_DIM_EXT1_LINETYPE
1070
   381
1005
28
1001
ACAD_DSTYLE_DIM_EXT2_LINETYPE
1070
   382
1005
28
  0
DIMSTYLE
105
3F0
330
32
100
AcDbSymbolTableRecord
100
AcDbDimStyleTableRecord
  2
AM_DIN$7
 70
     0
  4
"
 41
3.5
 42
1.0
 43
10.0
 44
1.0
 47
0.1
 48
0.1
 73
     0
 74
     0
 77
     1
 78
     8
 79
     2
140
3.5
141
0.0
143
0.0393701
146
0.71
147
1.5
172
     1
176
   256
177
   256
178
     2
271
     2
272
     3
274
     4
283
     0
284
     8
340
25
371
    -1
372
    -1
1001
ACAD_DSTYLE_DIMJOGGED_JOGANGLE_SYMBOL
1070
   384
1040
1.570796326794896
1001
ACAD_DSTYLE_DIM_LINETYPE
1070
   380
1005
28
1001
ACAD_DSTYLE_DIM_EXT1_LINETYPE
1070
   381
1005
28
1001
ACAD_DSTYLE_DIM_EXT2_LINETYPE
1070
   382
1005
28
  0
DIMSTYLE
105
3F1
330
32
100
AcDbSymbolTableRecord
100
AcDbDimStyleTableRecord
  2
AM_DIN$SF
 70
     0
  4
"
 41
3.5
 42
1.0
 43
10.0
 44
1.0
 47
0.1
 48
0.1
 73
     0
 74
     0
 75
     1
 76
     1
 77
     1
 78
     8
 79
     2
140
3.5
141
0.0
143
0.0393701
146
0.71
147
1.5
172
     1
176
   256
177
   256
178
     2
271
     2
272
     3
274
     4
283
     0
284
     8
340
25
371
    -1
372
    -1
1001
ACAD_DSTYLE_DIMJOGGED_JOGANGLE_SYMBOL
1070
   384
1040
1.570796326794896
1001
ACAD_DSTYLE_DIM_LINETYPE
1070
   380
1005
28
1001
ACAD_DSTYLE_DIM_EXT1_LINETYPE
1070
   381
1005
28
1001
ACAD_DSTYLE_DIM_EXT2_LINETYPE
1070
   382
1005
28
  0
DIMSTYLE
105
3F2
330
32
100
AcDbSymbolTableRecord
100
AcDbDimStyleTableRecord
  2
AM_DIN$SH
 70
     0
  4
"
 41
3.5
 42
1.0
 43
10.0
 44
1.0
 47
0.1
 48
0.1
 73
     0
 74
     0
 75
     1
 76
     1
 77
     1
 78
     8
 79
     2
140
3.5
141
0.0
143
0.0393701
144
2.0
146
0.71
147
1.5
172
     1
173
     1
176
   256
177
   256
178
     2
271
     2
272
     3
274
     4
283
     0
284
     8
340
25
343
3F3
371
    -1
372
    -1
1001
ACAD_DSTYLE_DIMJOGGED_JOGANGLE_SYMBOL
1070
   384
1040
1.570796326794896
1001
ACAD_DSTYLE_DIM_LINETYPE
1070
   380
1005
28
1001
ACAD_DSTYLE_DIM_EXT1_LINETYPE
1070
   381
1005
28
1001
ACAD_DSTYLE_DIM_EXT2_LINETYPE
1070
   382
1005
28
  0
DIMSTYLE
105
33
102
{ACAD_REACTORS
330
247
330
23A
330
155
330
14A
330
138
330
126
330
116
330
102
330
F5
330
E8
330
DB
330
CE
330
C1
330
B4
330
9F
330
92
330
85
102
}
330
32
100
AcDbSymbolTableRecord
100
AcDbDimStyleTableRecord
  2
Katalog 09
 70
     0
 41
4.0
 42
0.0
 43
8.0
 44
1.0
 73
     0
 74
     0
 77
     1
 78
     8
140
4.349999999999999
141
1.5
143
25.39999999999999
146
0.4285714285714286
147
1.0
172
     1
174
     1
176
     2
177
     2
178
     3
271
     2
272
     2
284
     8
285
     8
286
     8
340
34
1001
ACAD_DSTYLE_DIMBREAK
1070
   391
1040
3.75
1001
ACAD_DSTYLE_DIMJAG
1070
   388
1040
1.5
1001
ACAD_DSTYLE_DIMTALN
1070
   392
1070
     0
  0
DIMSTYLE
105
7C
102
{ACAD_REACTORS
330
6A
102
}
330
32
100
AcDbSymbolTableRecord
100
AcDbDimStyleTableRecord
  2
Katalog 09$0
 70
     0
 41
4.0
 42
0.0
 43
8.0
 44
1.0
 73
     0
 74
     0
 77
     1
 78
     8
140
4.349999999999999
141
1.5
143
25.39999999999999
146
0.4285714285714286
147
1.0
172
     1
174
     1
176
     2
177
     2
178
     3
271
     2
272
     2
284
     8
285
     8
286
     8
340
34
1001
ACAD_DSTYLE_DIMBREAK
1070
   391
1040
3.75
1001
ACAD_DSTYLE_DIMJAG
1070
   388
1040
1.5
  0
ENDTAB
  0
TABLE
  2
BLOCK_RECORD
  5
1
330
0
100
AcDbSymbolTable
 70
    20
  0
BLOCK_RECORD
  5
2
102
{ACAD_XDICTIONARY
360
3
102
}
330
1
100
AcDbSymbolTableRecord
100
AcDbBlockTableRecord
  2
*MODEL_SPACE
340
7
  0
BLOCK_RECORD
  5
B
330
1
100
AcDbSymbolTableRecord
100
AcDbBlockTableRecord
  2
*PAPER_SPACE
340
E
  0
BLOCK_RECORD
  5
3F3
330
1
100
AcDbSymbolTableRecord
100
AcDbBlockTableRecord
  2
GENAXEH
340
0
  0
BLOCK_RECORD
  5
248
330
1
100
AcDbSymbolTableRecord
100
AcDbBlockTableRecord
  2
*D1
340
0
  0
BLOCK_RECORD
  5
23B
330
1
100
AcDbSymbolTableRecord
100
AcDbBlockTableRecord
  2
*D2
340
0
  0
BLOCK_RECORD
  5
156
330
1
100
AcDbSymbolTableRecord
100
AcDbBlockTableRecord
  2
*D3
340
0
  0
BLOCK_RECORD
  5
14B
330
1
100
AcDbSymbolTableRecord
100
AcDbBlockTableRecord
  2
*D4
340
0
  0
BLOCK_RECORD
  5
13B
330
1
100
AcDbSymbolTableRecord
100
AcDbBlockTableRecord
  2
*D5
340
0
  0
BLOCK_RECORD
  5
129
330
1
100
AcDbSymbolTableRecord
100
AcDbBlockTableRecord
  2
*D6
340
0
  0
BLOCK_RECORD
  5
119
330
1
100
AcDbSymbolTableRecord
100
AcDbBlockTableRecord
  2
*D7
340
0
  0
BLOCK_RECORD
  5
108
330
1
100
AcDbSymbolTableRecord
100
AcDbBlockTableRecord
  2
*D8
340
0
  0
BLOCK_RECORD
  5
F6
330
1
100
AcDbSymbolTableRecord
100
AcDbBlockTableRecord
  2
*D9
340
0
  0
BLOCK_RECORD
  5
E9
330
1
100
AcDbSymbolTableRecord
100
AcDbBlockTableRecord
  2
*D10
340
0
  0
BLOCK_RECORD
  5
DC
330
1
100
AcDbSymbolTableRecord
100
AcDbBlockTableRecord
  2
*D11
340
0
  0
BLOCK_RECORD
  5
CF
330
1
100
AcDbSymbolTableRecord
100
AcDbBlockTableRecord
  2
*D12
340
0
  0
BLOCK_RECORD
  5
C2
330
1
100
AcDbSymbolTableRecord
100
AcDbBlockTableRecord
  2
*D13
340
0
  0
BLOCK_RECORD
  5
B5
330
1
100
AcDbSymbolTableRecord
100
AcDbBlockTableRecord
  2
*D14
340
0
  0
BLOCK_RECORD
  5
A0
330
1
100
AcDbSymbolTableRecord
100
AcDbBlockTableRecord
  2
*D15
340
0
  0
BLOCK_RECORD
  5
93
330
1
100
AcDbSymbolTableRecord
100
AcDbBlockTableRecord
  2
*D16
340
0
  0
BLOCK_RECORD
  5
86
330
1
100
AcDbSymbolTableRecord
100
AcDbBlockTableRecord
  2
*D17
340
0
  0
BLOCK_RECORD
  5
3D6
330
1
100
AcDbSymbolTableRecord
100
AcDbBlockTableRecord
  2
_ACMFILLED30
340
0
  0
BLOCK_RECORD
  5
6D
330
1
100
AcDbSymbolTableRecord
100
AcDbBlockTableRecord
  2
*D19
340
0
  0
ENDTAB
  0
ENDSEC
  0
SECTION
  2
BLOCKS
  0
BLOCK
  5
5
330
2
100
AcDbEntity
  8
0
100
AcDbBlockBegin
  2
*MODEL_SPACE
 70
     0
 10
0.0
 20
0.0
 30
0.0
  3
*MODEL_SPACE
  1

  0
ENDBLK
  5
6
330
2
100
AcDbEntity
  8
0
100
AcDbBlockEnd
  0
BLOCK
  5
C
330
B
100
AcDbEntity
 67
     1
  8
0
100
AcDbBlockBegin
  2
*PAPER_SPACE
 70
     0
 10
0.0
 20
0.0
 30
0.0
  3
*PAPER_SPACE
  1

  0
ENDBLK
  5
D
330
B
100
AcDbEntity
 67
     1
  8
0
100
AcDbBlockEnd
  0
BLOCK
  5
3F4
330
3F3
100
AcDbEntity
  8
0
100
AcDbBlockBegin
  2
GENAXEH
 70
     0
 10
0.0
 20
0.0
 30
0.0
  3
GENAXEH
  1

  0
LINE
  5
3F5
330
3F3
100
AcDbEntity
  8
0
100
AcDbLine
 10
-1.0
 20
0.0
 30
0.0
 11
1.0
 21
0.0
 31
0.0
  0
ENDBLK
  5
3F6
330
3F3
100
AcDbEntity
  8
0
100
AcDbBlockEnd
  0
BLOCK
  5
249
330
248
100
AcDbEntity
  8
0
100
AcDbBlockBegin
  2
*D1
 70
     1
 10
0.0
 20
0.0
 30
0.0
  3
*D1
  1

  0
LINE
  5
24A
330
248
100
AcDbEntity
  8
BEMASSUNG
 62
     2
370
    -2
100
AcDbLine
 10
150.0877588376316
 20
145.169076673166
 30
0.0
 11
122.980613972595
 21
145.169076673166
 31
0.0
  0
LINE
  5
24B
330
248
100
AcDbEntity
  8
BEMASSUNG
 62
     2
370
    -2
100
AcDbLine
 10
150.0877588376316
 20
155.1690766731639
 30
0.0
 11
122.980613972595
 21
155.1690766731639
 31
0.0
  0
LINE
  5
24C
330
248
100
AcDbEntity
  8
BEMASSUNG
 62
     2
370
    -2
100
AcDbLine
 10
123.980613972595
 20
141.169076673166
 30
0.0
 11
123.980613972595
 21
137.169076673166
 31
0.0
  0
LINE
  5
24D
330
248
100
AcDbEntity
  8
BEMASSUNG
 62
     2
370
    -2
100
AcDbLine
 10
123.980613972595
 20
159.1690766731639
 30
0.0
 11
123.980613972595
 21
163.1690766731639
 31
0.0
  0
LINE
  5
24E
330
248
100
AcDbEntity
  8
BEMASSUNG
 62
     2
370
    -2
100
AcDbLine
 10
123.980613972595
 20
145.169076673166
 30
0.0
 11
123.980613972595
 21
155.1690766731639
 31
0.0
  0
SOLID
  5
24F
330
248
100
AcDbEntity
  8
BEMASSUNG
 62
     2
100
AcDbTrace
 10
123.3139473059283
 20
141.169076673166
 30
0.0
 11
124.6472806392617
 21
141.169076673166
 31
0.0
 12
123.980613972595
 22
145.169076673166
 32
0.0
 13
123.980613972595
 23
145.169076673166
 33
0.0
  0
SOLID
  5
250
330
248
100
AcDbEntity
  8
BEMASSUNG
 62
     2
100
AcDbTrace
 10
123.3139473059283
 20
159.1690766731639
 30
0.0
 11
124.6472806392617
 21
159.1690766731639
 31
0.0
 12
123.980613972595
 22
155.1690766731639
 32
0.0
 13
123.980613972595
 23
155.1690766731639
 33
0.0
  0
MTEXT
  5
251
330
248
100
AcDbEntity
  8
BEMASSUNG
 62
     3
100
AcDbMText
 10
120.7596214760056
 20
150.1690766731649
 30
0.0
 40
4.349999999999999
 41
0.0
 71
     5
 72
     1
  1
\A1;10
  7
ARIAL-STANDARD
 11
0.0000000000000001
 21
1.0
 31
0.0
 73
     1
 44
1.0
1001
ACAD
1000
MTEXTBEGIN
1070
    73
1070
     1
1070
    44
1040
1.0
1070
    74
1070
     0
1000
MTEXTEND
  0
POINT
  5
252
330
248
100
AcDbEntity
  8
DEFPOINTS
 62
     0
100
AcDbPoint
 10
150.0877588376316
 20
145.169076673166
 30
0.0
  0
POINT
  5
253
330
248
100
AcDbEntity
  8
DEFPOINTS
 62
     0
100
AcDbPoint
 10
150.0877588376316
 20
155.1690766731639
 30
0.0
  0
POINT
  5
254
330
248
100
AcDbEntity
  8
DEFPOINTS
 62
     0
100
AcDbPoint
 10
123.980613972595
 20
155.1690766731639
 30
0.0
  0
ENDBLK
  5
255
330
248
100
AcDbEntity
  8
0
100
AcDbBlockEnd
  0
BLOCK
  5
23C
330
23B
100
AcDbEntity
  8
0
100
AcDbBlockBegin
  2
*D2
 70
     1
 10
0.0
 20
0.0
 30
0.0
  3
*D2
  1

  0
LINE
  5
23D
330
23B
100
AcDbEntity
  8
BEMASSUNG
 62
     2
370
    -2
100
AcDbLine
 10
149.0877588376315
 20
154.1690766731639
 30
0.0
 11
149.0877588376315
 21
170.0267428832039
 31
0.0
  0
LINE
  5
23E
330
23B
100
AcDbEntity
  8
BEMASSUNG
 62
     2
370
    -2
100
AcDbLine
 10
169.0877588376316
 20
154.1690766731639
 30
0.0
 11
169.0877588376316
 21
170.0267428832039
 31
0.0
  0
LINE
  5
23F
330
23B
100
AcDbEntity
  8
BEMASSUNG
 62
     2
370
    -2
100
AcDbLine
 10
153.0877588376315
 20
169.0267428832039
 30
0.0
 11
165.0877588376316
 21
169.0267428832039
 31
0.0
  0
SOLID
  5
240
330
23B
100
AcDbEntity
  8
BEMASSUNG
 62
     2
100
AcDbTrace
 10
153.0877588376315
 20
169.6934095498706
 30
0.0
 11
153.0877588376315
 21
168.3600762165373
 31
0.0
 12
149.0877588376315
 22
169.0267428832039
 32
0.0
 13
149.0877588376315
 23
169.0267428832039
 33
0.0
  0
SOLID
  5
241
330
23B
100
AcDbEntity
  8
BEMASSUNG
 62
     2
100
AcDbTrace
 10
165.0877588376316
 20
169.6934095498706
 30
0.0
 11
165.0877588376316
 21
168.3600762165373
 31
0.0
 12
169.0877588376316
 22
169.0267428832039
 32
0.0
 13
169.0877588376316
 23
169.0267428832039
 33
0.0
  0
MTEXT
  5
242
330
23B
100
AcDbEntity
  8
BEMASSUNG
 62
     3
100
AcDbMText
 10
159.0051889934646
 20
172.2477353797933
 30
0.0
 40
4.349999999999999
 41
0.0
 71
     5
 72
     1
  1
\A1;20
  7
ARIAL-STANDARD
 73
     1
 44
1.0
1001
ACAD
1000
MTEXTBEGIN
1070
    73
1070
     1
1070
    44
1040
1.0
1070
    74
1070
     0
1000
MTEXTEND
  0
POINT
  5
243
330
23B
100
AcDbEntity
  8
DEFPOINTS
 62
     0
100
AcDbPoint
 10
149.0877588376315
 20
154.1690766731639
 30
0.0
  0
POINT
  5
244
330
23B
100
AcDbEntity
  8
DEFPOINTS
 62
     0
100
AcDbPoint
 10
169.0877588376316
 20
154.1690766731639
 30
0.0
  0
POINT
  5
245
330
23B
100
AcDbEntity
  8
DEFPOINTS
 62
     0
100
AcDbPoint
 10
169.0877588376316
 20
169.0267428832039
 30
0.0
  0
ENDBLK
  5
246
330
23B
100
AcDbEntity
  8
0
100
AcDbBlockEnd
  0
BLOCK
  5
157
330
156
100
AcDbEntity
  8
0
100
AcDbBlockBegin
  2
*D3
 70
     1
 10
0.0
 20
0.0
 30
0.0
  3
*D3
  1

  0
LINE
  5
158
330
156
100
AcDbEntity
  8
BEMASSUNG
 62
     2
370
    -2
100
AcDbLine
 10
219.9487670186952
 20
293.0372636900414
 30
0.0
 11
219.9487670186952
 21
294.0372636900414
 31
0.0
  0
LINE
  5
159
330
156
100
AcDbEntity
  8
BEMASSUNG
 62
     2
370
    -2
100
AcDbLine
 10
229.9487670186952
 20
293.0372636900414
 30
0.0
 11
229.9487670186952
 21
294.0372636900414
 31
0.0
  0
LINE
  5
15A
330
156
100
AcDbEntity
  8
BEMASSUNG
 62
     2
370
    -2
100
AcDbLine
 10
225.9487670186952
 20
293.0372636900414
 30
0.0
 11
223.9487670186952
 21
293.0372636900414
 31
0.0
  0
LINE
  5
15B
330
156
100
AcDbEntity
  8
BEMASSUNG
 62
     2
370
    -2
100
AcDbLine
 10
219.9487670186952
 20
293.0372636900414
 30
0.0
 11
204.766212448435
 21
293.0372636900414
 31
0.0
  0
SOLID
  5
15C
330
156
100
AcDbEntity
  8
BEMASSUNG
 62
     2
100
AcDbTrace
 10
225.9487670186952
 20
293.7039303567081
 30
0.0
 11
225.9487670186952
 21
292.3705970233747
 31
0.0
 12
229.9487670186952
 22
293.0372636900414
 32
0.0
 13
229.9487670186952
 23
293.0372636900414
 33
0.0
  0
SOLID
  5
15D
330
156
100
AcDbEntity
  8
BEMASSUNG
 62
     2
100
AcDbTrace
 10
223.9487670186952
 20
293.7039303567081
 30
0.0
 11
223.9487670186952
 21
292.3705970233747
 31
0.0
 12
219.9487670186952
 22
293.0372636900414
 32
0.0
 13
219.9487670186952
 23
293.0372636900414
 33
0.0
  0
MTEXT
  5
15E
330
156
100
AcDbEntity
  8
BEMASSUNG
 62
     3
100
AcDbMText
 10
208.6696742492535
 20
296.2582561866308
 30
0.0
 40
4.349999999999999
 41
0.0
 71
     5
 72
     1
  1
\A1;10
  7
ARIAL-STANDARD
 73
     1
 44
1.0
1001
ACAD
1000
MTEXTBEGIN
1070
    73
1070
     1
1070
    44
1040
1.0
1070
    74
1070
     0
1000
MTEXTEND
  0
POINT
  5
15F
330
156
100
AcDbEntity
  8
DEFPOINTS
 62
     0
100
AcDbPoint
 10
219.9487670186952
 20
293.0372636900414
 30
0.0
  0
POINT
  5
160
330
156
100
AcDbEntity
  8
DEFPOINTS
 62
     0
100
AcDbPoint
 10
229.9487670186952
 20
293.0372636900414
 30
0.0
  0
POINT
  5
161
330
156
100
AcDbEntity
  8
DEFPOINTS
 62
     0
100
AcDbPoint
 10
229.9487670186952
 20
293.0372636900414
 30
0.0
  0
ENDBLK
  5
162
330
156
100
AcDbEntity
  8
0
100
AcDbBlockEnd
  0
BLOCK
  5
14C
330
14B
100
AcDbEntity
  8
0
100
AcDbBlockBegin
  2
*D4
 70
     1
 10
0.0
 20
0.0
 30
0.0
  3
*D4
  1

  0
LINE
  5
14D
330
14B
100
AcDbEntity
  8
BEMASSUNG
 62
     2
370
    -2
100
AcDbLine
 10
208.9733011965171
 20
417.2604758599864
 30
0.0
 11
218.8490968657078
 21
408.7704703015076
 31
0.0
  0
MTEXT
  5
14E
330
14B
100
AcDbEntity
  8
BEMASSUNG
 62
     3
100
AcDbMText
 10
214.4943489723159
 20
416.7617684253722
 30
0.0
 40
4.349999999999999
 41
0.0
 71
     5
 72
     1
  1
\A1;R8
  7
ARIAL-STANDARD
 11
0.758305846082279
 21
-0.6518989521370925
 31
0.0
 73
     1
 44
1.0
1001
ACAD
1000
MTEXTBEGIN
1070
    73
1070
     1
1070
    44
1040
1.0
1070
    74
1070
     0
1000
MTEXTEND
  0
LINE
  5
14F
330
14B
100
AcDbEntity
  8
BEMASSUNG
 62
     2
370
    -2
100
AcDbLine
 10
227.9487670186951
 20
400.9476828758626
 30
0.0
 11
221.8823202500369
 21
406.1628744929593
 31
0.0
  0
SOLID
  5
150
330
14B
100
AcDbEntity
  8
BEMASSUNG
 62
     2
100
AcDbTrace
 10
219.2836961671325
 20
409.2760075322292
 30
0.0
 11
218.4144975642831
 21
408.2649330707861
 31
0.0
 12
221.8823202500369
 22
406.1628744929593
 32
0.0
 13
221.8823202500369
 23
406.1628744929593
 33
0.0
  0
POINT
  5
151
330
14B
100
AcDbEntity
  8
DEFPOINTS
 62
     0
100
AcDbPoint
 10
221.8823202500369
 20
406.1628744929593
 30
0.0
  0
POINT
  5
152
330
14B
100
AcDbEntity
  8
DEFPOINTS
 62
     0
100
AcDbPoint
 10
227.9487670186951
 20
400.9476828758626
 30
0.0
  0
ENDBLK
  5
153
330
14B
100
AcDbEntity
  8
0
100
AcDbBlockEnd
  0
BLOCK
  5
13C
330
13B
100
AcDbEntity
  8
0
100
AcDbBlockBegin
  2
*D5
 70
     1
 10
0.0
 20
0.0
 30
0.0
  3
*D5
  1

  0
LINE
  5
13D
330
13B
100
AcDbEntity
  8
UMRISS05
 62
     2
370
    -2
100
AcDbLine
 10
150.0877588376762
 20
191.9476828758628
 30
0.0
 11
122.9806139725964
 21
191.9476828758628
 31
0.0
  0
LINE
  5
13E
330
13B
100
AcDbEntity
  8
UMRISS05
 62
     2
370
    -2
100
AcDbLine
 10
152.3377588376762
 20
204.4476828758628
 30
0.0
 11
136.2486881099956
 21
204.4476828758628
 31
0.0
  0
LINE
  5
13F
330
13B
100
AcDbEntity
  8
UMRISS05
 62
     2
370
    -2
100
AcDbLine
 10
123.9806139725964
 20
187.9476828758628
 30
0.0
 11
123.9806139725964
 21
183.9476828758628
 31
0.0
  0
LINE
  5
140
330
13B
100
AcDbEntity
  8
UMRISS05
 62
     2
370
    -2
100
AcDbLine
 10
123.9806139725964
 20
208.4476828758628
 30
0.0
 11
123.9806139725964
 21
212.4476828758628
 31
0.0
  0
LINE
  5
141
330
13B
100
AcDbEntity
  8
UMRISS05
 62
     2
370
    -2
100
AcDbLine
 10
123.9806139725964
 20
191.9476828758628
 30
0.0
 11
123.9806139725964
 21
204.4476828758628
 31
0.0
  0
SOLID
  5
142
330
13B
100
AcDbEntity
  8
UMRISS05
 62
     2
100
AcDbTrace
 10
123.3139473059298
 20
187.9476828758628
 30
0.0
 11
124.6472806392631
 21
187.9476828758628
 31
0.0
 12
123.9806139725964
 22
191.9476828758628
 32
0.0
 13
123.9806139725964
 23
191.9476828758628
 33
0.0
  0
SOLID
  5
143
330
13B
100
AcDbEntity
  8
UMRISS05
 62
     2
100
AcDbTrace
 10
123.3139473059298
 20
208.4476828758628
 30
0.0
 11
124.6472806392631
 21
208.4476828758628
 31
0.0
 12
123.9806139725964
 22
204.4476828758628
 32
0.0
 13
123.9806139725964
 23
204.4476828758628
 33
0.0
  0
MTEXT
  5
144
330
13B
100
AcDbEntity
  8
UMRISS05
 62
     3
100
AcDbMText
 10
120.7596214760071
 20
198.1976828758628
 30
0.0
 40
4.349999999999999
 41
0.0
 71
     5
 72
     1
  1
\A1;12.5
  7
ARIAL-STANDARD
 11
0.0000000000000001
 21
1.0
 31
0.0
 73
     1
 44
1.0
1001
ACAD
1000
MTEXTBEGIN
1070
    73
1070
     1
1070
    44
1040
1.0
1070
    74
1070
     0
1000
MTEXTEND
  0
POINT
  5
145
330
13B
100
AcDbEntity
  8
DEFPOINTS
 62
     0
100
AcDbPoint
 10
150.0877588376762
 20
191.9476828758628
 30
0.0
  0
POINT
  5
146
330
13B
100
AcDbEntity
  8
DEFPOINTS
 62
     0
100
AcDbPoint
 10
152.3377588376762
 20
204.4476828758628
 30
0.0
  0
POINT
  5
147
330
13B
100
AcDbEntity
  8
DEFPOINTS
 62
     0
100
AcDbPoint
 10
123.9806139725964
 20
204.4476828758628
 30
0.0
  0
LINE
  5
148
330
13B
100
AcDbEntity
  8
UMRISS05
 62
     2
370
    -2
100
AcDbLine
 10
131.8986881099955
 20
204.4476828758628
 30
0.0
 11
122.9806139725964
 21
204.4476828758628
 31
0.0
  0
ENDBLK
  5
149
330
13B
100
AcDbEntity
  8
0
100
AcDbBlockEnd
  0
BLOCK
  5
12A
330
129
100
AcDbEntity
  8
0
100
AcDbBlockBegin
  2
*D6
 70
     1
 10
0.0
 20
0.0
 30
0.0
  3
*D6
  1

  0
LINE
  5
12B
330
129
100
AcDbEntity
  8
UMRISS05
 62
     2
370
    -2
100
AcDbLine
 10
152.3377588376762
 20
396.4476828758629
 30
0.0
 11
136.2486881099955
 21
396.447682875863
 31
0.0
  0
LINE
  5
12C
330
129
100
AcDbEntity
  8
UMRISS05
 62
     2
370
    -2
100
AcDbLine
 10
150.0877588376762
 20
408.9476828758628
 30
0.0
 11
122.9806139725964
 21
408.9476828758629
 31
0.0
  0
LINE
  5
12D
330
129
100
AcDbEntity
  8
UMRISS05
 62
     2
370
    -2
100
AcDbLine
 10
123.9806139725964
 20
392.447682875863
 30
0.0
 11
123.9806139725964
 21
388.4476828758629
 31
0.0
  0
LINE
  5
12E
330
129
100
AcDbEntity
  8
UMRISS05
 62
     2
370
    -2
100
AcDbLine
 10
123.9806139725964
 20
412.9476828758629
 30
0.0
 11
123.9806139725965
 21
416.9476828758629
 31
0.0
  0
LINE
  5
12F
330
129
100
AcDbEntity
  8
UMRISS05
 62
     2
370
    -2
100
AcDbLine
 10
123.9806139725964
 20
396.447682875863
 30
0.0
 11
123.9806139725964
 21
408.9476828758629
 31
0.0
  0
SOLID
  5
130
330
129
100
AcDbEntity
  8
UMRISS05
 62
     2
100
AcDbTrace
 10
123.3139473059298
 20
392.447682875863
 30
0.0
 11
124.6472806392631
 21
392.447682875863
 31
0.0
 12
123.9806139725964
 22
396.447682875863
 32
0.0
 13
123.9806139725964
 23
396.447682875863
 33
0.0
  0
SOLID
  5
131
330
129
100
AcDbEntity
  8
UMRISS05
 62
     2
100
AcDbTrace
 10
123.3139473059298
 20
412.9476828758629
 30
0.0
 11
124.6472806392631
 21
412.9476828758629
 31
0.0
 12
123.9806139725964
 22
408.9476828758629
 32
0.0
 13
123.9806139725964
 23
408.9476828758629
 33
0.0
  0
MTEXT
  5
132
330
129
100
AcDbEntity
  8
UMRISS05
 62
     3
100
AcDbMText
 10
120.759621476007
 20
402.6976828758629
 30
0.0
 40
4.349999999999999
 41
0.0
 71
     5
 72
     1
  1
\A1;12.5
  7
ARIAL-STANDARD
 11
0.0000000000000001
 21
1.0
 31
0.0
 73
     1
 44
1.0
1001
ACAD
1000
MTEXTBEGIN
1070
    73
1070
     1
1070
    44
1040
1.0
1070
    74
1070
     0
1000
MTEXTEND
  0
POINT
  5
133
330
129
100
AcDbEntity
  8
DEFPOINTS
 62
     0
100
AcDbPoint
 10
152.3377588376762
 20
396.4476828758629
 30
0.0
  0
POINT
  5
134
330
129
100
AcDbEntity
  8
DEFPOINTS
 62
     0
100
AcDbPoint
 10
150.0877588376762
 20
408.9476828758628
 30
0.0
  0
POINT
  5
135
330
129
100
AcDbEntity
  8
DEFPOINTS
 62
     0
100
AcDbPoint
 10
123.9806139725964
 20
408.9476828758629
 30
0.0
  0
LINE
  5
136
330
129
100
AcDbEntity
  8
UMRISS05
 62
     2
370
    -2
100
AcDbLine
 10
126.4537358589723
 20
396.447682875863
 30
0.0
 11
122.9806139725964
 21
396.447682875863
 31
0.0
  0
ENDBLK
  5
137
330
129
100
AcDbEntity
  8
0
100
AcDbBlockEnd
  0
BLOCK
  5
11A
330
119
100
AcDbEntity
  8
0
100
AcDbBlockBegin
  2
*D7
 70
     1
 10
0.0
 20
0.0
 30
0.0
  3
*D7
  1

  0
LINE
  5
11B
330
119
100
AcDbEntity
  8
UMRISS05
 62
     2
370
    -2
100
AcDbLine
 10
152.3377588376762
 20
396.4476828758629
 30
0.0
 11
136.2486881099955
 21
396.447682875863
 31
0.0
  0
LINE
  5
11C
330
119
100
AcDbEntity
  8
UMRISS05
 62
     2
370
    -2
100
AcDbLine
 10
152.3377588376762
 20
361.4476828758629
 30
0.0
 11
136.2486881099956
 21
361.4476828758629
 31
0.0
  0
LINE
  5
11D
330
119
100
AcDbEntity
  8
UMRISS05
 62
     2
370
    -2
100
AcDbLine
 10
123.9806139725964
 20
392.447682875863
 30
0.0
 11
123.9806139725964
 21
365.447682875863
 31
0.0
  0
SOLID
  5
11E
330
119
100
AcDbEntity
  8
UMRISS05
 62
     2
100
AcDbTrace
 10
123.3139473059298
 20
392.447682875863
 30
0.0
 11
124.6472806392631
 21
392.447682875863
 31
0.0
 12
123.9806139725964
 22
396.447682875863
 32
0.0
 13
123.9806139725964
 23
396.447682875863
 33
0.0
  0
SOLID
  5
11F
330
119
100
AcDbEntity
  8
UMRISS05
 62
     2
100
AcDbTrace
 10
123.3139473059298
 20
365.447682875863
 30
0.0
 11
124.6472806392631
 21
365.447682875863
 31
0.0
 12
123.9806139725964
 22
361.4476828758629
 32
0.0
 13
123.9806139725964
 23
361.4476828758629
 33
0.0
  0
MTEXT
  5
120
330
119
100
AcDbEntity
  8
UMRISS05
 62
     3
100
AcDbMText
 10
120.7581378470848
 20
381.0684240069305
 30
0.0
 40
4.349999999999999
 41
0.0
 71
     5
 72
     1
  1
\A1;35
  7
ARIAL-STANDARD
 11
0.0000000000000001
 21
1.0
 31
0.0
 73
     1
 44
1.0
1001
ACAD
1000
MTEXTBEGIN
1070
    73
1070
     1
1070
    44
1040
1.0
1070
    74
1070
     0
1000
MTEXTEND
  0
POINT
  5
121
330
119
100
AcDbEntity
  8
DEFPOINTS
 62
     0
100
AcDbPoint
 10
152.3377588376762
 20
396.4476828758629
 30
0.0
  0
POINT
  5
122
330
119
100
AcDbEntity
  8
DEFPOINTS
 62
     0
100
AcDbPoint
 10
152.3377588376762
 20
361.4476828758629
 30
0.0
  0
POINT
  5
123
330
119
100
AcDbEntity
  8
DEFPOINTS
 62
     0
100
AcDbPoint
 10
123.9806139725964
 20
361.4476828758629
 30
0.0
  0
LINE
  5
124
330
119
100
AcDbEntity
  8
UMRISS05
 62
     2
370
    -2
100
AcDbLine
 10
131.8986881099955
 20
361.4476828758629
 30
0.0
 11
122.9806139725964
 21
361.4476828758629
 31
0.0
  0
ENDBLK
  5
125
330
119
100
AcDbEntity
  8
0
100
AcDbBlockEnd
  0
BLOCK
  5
109
330
108
100
AcDbEntity
  8
0
100
AcDbBlockBegin
  2
*D8
 70
     1
 10
0.0
 20
0.0
 30
0.0
  3
*D8
  1

  0
LINE
  5
10A
330
108
100
AcDbEntity
  8
UMRISS05
 62
     2
370
    -2
100
AcDbLine
 10
152.3377588376762
 20
361.4476828758629
 30
0.0
 11
136.2486881099956
 21
361.4476828758629
 31
0.0
  0
LINE
  5
10B
330
108
100
AcDbEntity
  8
UMRISS05
 62
     2
370
    -2
100
AcDbLine
 10
152.3377588376762
 20
204.4476828758628
 30
0.0
 11
136.2486881099956
 21
204.4476828758628
 31
0.0
  0
LINE
  5
10C
330
108
100
AcDbEntity
  8
UMRISS05
 62
     2
370
    -2
100
AcDbLine
 10
123.9806139725965
 20
357.4476828758629
 30
0.0
 11
123.9806139725964
 21
208.4476828758628
 31
0.0
  0
SOLID
  5
10D
330
108
100
AcDbEntity
  8
UMRISS05
 62
     2
100
AcDbTrace
 10
123.3139473059298
 20
357.4476828758629
 30
0.0
 11
124.6472806392632
 21
357.4476828758629
 31
0.0
 12
123.9806139725965
 22
361.4476828758629
 32
0.0
 13
123.9806139725965
 23
361.4476828758629
 33
0.0
  0
SOLID
  5
10E
330
108
100
AcDbEntity
  8
UMRISS05
 62
     2
100
AcDbTrace
 10
123.3139473059298
 20
208.4476828758628
 30
0.0
 11
124.6472806392631
 21
208.4476828758628
 31
0.0
 12
123.9806139725964
 22
204.4476828758628
 32
0.0
 13
123.9806139725964
 23
204.4476828758628
 33
0.0
  0
MTEXT
  5
10F
330
108
100
AcDbEntity
  8
UMRISS05
 62
     3
100
AcDbMText
 10
120.7596214760071
 20
282.9476828758629
 30
0.0
 40
4.349999999999999
 41
0.0
 71
     5
 72
     1
  1
\A1;157
  7
ARIAL-STANDARD
 11
0.0000000000000001
 21
1.0
 31
0.0
 73
     1
 44
1.0
1001
ACAD
1000
MTEXTBEGIN
1070
    73
1070
     1
1070
    44
1040
1.0
1070
    74
1070
     0
1000
MTEXTEND
  0
POINT
  5
110
330
108
100
AcDbEntity
  8
DEFPOINTS
 62
     0
100
AcDbPoint
 10
152.3377588376762
 20
361.4476828758629
 30
0.0
  0
POINT
  5
111
330
108
100
AcDbEntity
  8
DEFPOINTS
 62
     0
100
AcDbPoint
 10
152.3377588376762
 20
204.4476828758628
 30
0.0
  0
POINT
  5
112
330
108
100
AcDbEntity
  8
DEFPOINTS
 62
     0
100
AcDbPoint
 10
123.9806139725964
 20
204.4476828758628
 30
0.0
  0
LINE
  5
113
330
108
100
AcDbEntity
  8
UMRISS05
 62
     2
370
    -2
100
AcDbLine
 10
131.8986881099955
 20
204.4476828758628
 30
0.0
 11
126.1556139725964
 21
204.4476828758628
 31
0.0
  0
LINE
  5
114
330
108
100
AcDbEntity
  8
UMRISS05
 62
     2
370
    -2
100
AcDbLine
 10
131.8986881099955
 20
361.4476828758629
 30
0.0
 11
122.9806139725965
 21
361.4476828758629
 31
0.0
  0
ENDBLK
  5
115
330
108
100
AcDbEntity
  8
0
100
AcDbBlockEnd
  0
BLOCK
  5
F7
330
F6
100
AcDbEntity
  8
0
100
AcDbBlockBegin
  2
*D9
 70
     1
 10
0.0
 20
0.0
 30
0.0
  3
*D9
  1

  0
LINE
  5
F8
330
F6
100
AcDbEntity
  8
BEMASSUNG
 62
     2
370
    -2
100
AcDbLine
 10
163.0877588376763
 20
388.9476828758628
 30
0.0
 11
189.1469908839026
 21
388.9476828758628
 31
0.0
  0
LINE
  5
F9
330
F6
100
AcDbEntity
  8
BEMASSUNG
 62
     2
370
    -2
100
AcDbLine
 10
168.0877588376762
 20
408.9476828758628
 30
0.0
 11
189.1469908839026
 21
408.9476828758628
 31
0.0
  0
LINE
  5
FA
330
F6
100
AcDbEntity
  8
BEMASSUNG
 62
     2
370
    -2
100
AcDbLine
 10
188.1469908839026
 20
392.9476828758628
 30
0.0
 11
188.1469908839026
 21
404.9476828758628
 31
0.0
  0
SOLID
  5
FB
330
F6
100
AcDbEntity
  8
BEMASSUNG
 62
     2
100
AcDbTrace
 10
187.480324217236
 20
392.9476828758628
 30
0.0
 11
188.8136575505692
 21
392.9476828758628
 31
0.0
 12
188.1469908839026
 22
388.9476828758628
 32
0.0
 13
188.1469908839026
 23
388.9476828758628
 33
0.0
  0
SOLID
  5
FC
330
F6
100
AcDbEntity
  8
BEMASSUNG
 62
     2
100
AcDbTrace
 10
187.480324217236
 20
404.9476828758628
 30
0.0
 11
188.8136575505692
 21
404.9476828758628
 31
0.0
 12
188.1469908839026
 22
408.9476828758628
 32
0.0
 13
188.1469908839026
 23
408.9476828758628
 33
0.0
  0
MTEXT
  5
FD
330
F6
100
AcDbEntity
  8
BEMASSUNG
 62
     3
100
AcDbMText
 10
184.9259983873132
 20
398.9476828758629
 30
0.0
 40
4.349999999999999
 41
0.0
 71
     5
 72
     1
  1
\A1;20
  7
ARIAL-STANDARD
 11
0.0000000000000001
 21
1.0
 31
0.0
 73
     1
 44
1.0
1001
ACAD
1000
MTEXTBEGIN
1070
    73
1070
     1
1070
    44
1040
1.0
1070
    74
1070
     0
1000
MTEXTEND
  0
POINT
  5
FE
330
F6
100
AcDbEntity
  8
DEFPOINTS
 62
     0
100
AcDbPoint
 10
163.0877588376763
 20
388.9476828758628
 30
0.0
  0
POINT
  5
FF
330
F6
100
AcDbEntity
  8
DEFPOINTS
 62
     0
100
AcDbPoint
 10
168.0877588376762
 20
408.9476828758628
 30
0.0
  0
POINT
  5
100
330
F6
100
AcDbEntity
  8
DEFPOINTS
 62
     0
100
AcDbPoint
 10
188.1469908839026
 20
408.9476828758628
 30
0.0
  0
ENDBLK
  5
101
330
F6
100
AcDbEntity
  8
0
100
AcDbBlockEnd
  0
BLOCK
  5
EA
330
E9
100
AcDbEntity
  8
0
100
AcDbBlockBegin
  2
*D10
 70
     1
 10
0.0
 20
0.0
 30
0.0
  3
*D10
  1

  0
LINE
  5
EB
330
E9
100
AcDbEntity
  8
BEMASSUNG
 62
     2
370
    -2
100
AcDbLine
 10
163.0877588376763
 20
368.9476828758624
 30
0.0
 11
189.1469908839026
 21
368.9476828758624
 31
0.0
  0
LINE
  5
EC
330
E9
100
AcDbEntity
  8
BEMASSUNG
 62
     2
370
    -2
100
AcDbLine
 10
163.0877588376763
 20
388.9476828758632
 30
0.0
 11
189.1469908839026
 21
388.9476828758632
 31
0.0
  0
LINE
  5
ED
330
E9
100
AcDbEntity
  8
BEMASSUNG
 62
     2
370
    -2
100
AcDbLine
 10
188.1469908839027
 20
372.9476828758624
 30
0.0
 11
188.1469908839027
 21
384.9476828758632
 31
0.0
  0
SOLID
  5
EE
330
E9
100
AcDbEntity
  8
BEMASSUNG
 62
     2
100
AcDbTrace
 10
187.480324217236
 20
372.9476828758624
 30
0.0
 11
188.8136575505693
 21
372.9476828758624
 31
0.0
 12
188.1469908839027
 22
368.9476828758624
 32
0.0
 13
188.1469908839027
 23
368.9476828758624
 33
0.0
  0
SOLID
  5
EF
330
E9
100
AcDbEntity
  8
BEMASSUNG
 62
     2
100
AcDbTrace
 10
187.480324217236
 20
384.9476828758632
 30
0.0
 11
188.8136575505693
 21
384.9476828758632
 31
0.0
 12
188.1469908839027
 22
388.9476828758632
 32
0.0
 13
188.1469908839027
 23
388.9476828758632
 33
0.0
  0
MTEXT
  5
F0
330
E9
100
AcDbEntity
  8
BEMASSUNG
 62
     3
100
AcDbMText
 10
184.9259983873132
 20
378.9476828758628
 30
0.0
 40
4.349999999999999
 41
0.0
 71
     5
 72
     1
  1
\A1;20
  7
ARIAL-STANDARD
 11
0.0000000000000001
 21
1.0
 31
0.0
 73
     1
 44
1.0
1001
ACAD
1000
MTEXTBEGIN
1070
    73
1070
     1
1070
    44
1040
1.0
1070
    74
1070
     0
1000
MTEXTEND
  0
POINT
  5
F1
330
E9
100
AcDbEntity
  8
DEFPOINTS
 62
     0
100
AcDbPoint
 10
163.0877588376763
 20
368.9476828758624
 30
0.0
  0
POINT
  5
F2
330
E9
100
AcDbEntity
  8
DEFPOINTS
 62
     0
100
AcDbPoint
 10
163.0877588376763
 20
388.9476828758632
 30
0.0
  0
POINT
  5
F3
330
E9
100
AcDbEntity
  8
DEFPOINTS
 62
     0
100
AcDbPoint
 10
188.1469908839027
 20
388.9476828758632
 30
0.0
  0
ENDBLK
  5
F4
330
E9
100
AcDbEntity
  8
0
100
AcDbBlockEnd
  0
BLOCK
  5
DD
330
DC
100
AcDbEntity
  8
0
100
AcDbBlockBegin
  2
*D11
 70
     1
 10
0.0
 20
0.0
 30
0.0
  3
*D11
  1

  0
LINE
  5
DE
330
DC
100
AcDbEntity
  8
BEMASSUNG
 62
     2
370
    -2
100
AcDbLine
 10
162.5877588376761
 20
269.9476828758628
 30
0.0
 11
189.1469908839026
 21
269.9476828758628
 31
0.0
  0
LINE
  5
DF
330
DC
100
AcDbEntity
  8
BEMASSUNG
 62
     2
370
    -2
100
AcDbLine
 10
163.0877588376763
 20
368.9476828758628
 30
0.0
 11
189.1469908839026
 21
368.9476828758628
 31
0.0
  0
LINE
  5
E0
330
DC
100
AcDbEntity
  8
BEMASSUNG
 62
     2
370
    -2
100
AcDbLine
 10
188.1469908839026
 20
273.9476828758628
 30
0.0
 11
188.1469908839026
 21
364.9476828758628
 31
0.0
  0
SOLID
  5
E1
330
DC
100
AcDbEntity
  8
BEMASSUNG
 62
     2
100
AcDbTrace
 10
187.4803242172359
 20
273.9476828758628
 30
0.0
 11
188.8136575505692
 21
273.9476828758628
 31
0.0
 12
188.1469908839026
 22
269.9476828758628
 32
0.0
 13
188.1469908839026
 23
269.9476828758628
 33
0.0
  0
SOLID
  5
E2
330
DC
100
AcDbEntity
  8
BEMASSUNG
 62
     2
100
AcDbTrace
 10
187.480324217236
 20
364.9476828758628
 30
0.0
 11
188.8136575505692
 21
364.9476828758628
 31
0.0
 12
188.1469908839026
 22
368.9476828758628
 32
0.0
 13
188.1469908839026
 23
368.9476828758628
 33
0.0
  0
MTEXT
  5
E3
330
DC
100
AcDbEntity
  8
BEMASSUNG
 62
     3
100
AcDbMText
 10
184.9259983873132
 20
319.4476828758629
 30
0.0
 40
4.349999999999999
 41
0.0
 71
     5
 72
     1
  1
\A1;99
  7
ARIAL-STANDARD
 11
0.0000000000000001
 21
1.0
 31
0.0
 73
     1
 44
1.0
1001
ACAD
1000
MTEXTBEGIN
1070
    73
1070
     1
1070
    44
1040
1.0
1070
    74
1070
     0
1000
MTEXTEND
  0
POINT
  5
E4
330
DC
100
AcDbEntity
  8
DEFPOINTS
 62
     0
100
AcDbPoint
 10
162.5877588376761
 20
269.9476828758628
 30
0.0
  0
POINT
  5
E5
330
DC
100
AcDbEntity
  8
DEFPOINTS
 62
     0
100
AcDbPoint
 10
163.0877588376763
 20
368.9476828758628
 30
0.0
  0
POINT
  5
E6
330
DC
100
AcDbEntity
  8
DEFPOINTS
 62
     0
100
AcDbPoint
 10
188.1469908839026
 20
368.9476828758628
 30
0.0
  0
ENDBLK
  5
E7
330
DC
100
AcDbEntity
  8
0
100
AcDbBlockEnd
  0
BLOCK
  5
D0
330
CF
100
AcDbEntity
  8
0
100
AcDbBlockBegin
  2
*D12
 70
     1
 10
0.0
 20
0.0
 30
0.0
  3
*D12
  1

  0
LINE
  5
D1
330
CF
100
AcDbEntity
  8
BEMASSUNG
 62
     2
370
    -2
100
AcDbLine
 10
168.5877588376762
 20
229.947682875863
 30
0.0
 11
189.1469908839026
 21
229.947682875863
 31
0.0
  0
LINE
  5
D2
330
CF
100
AcDbEntity
  8
BEMASSUNG
 62
     2
370
    -2
100
AcDbLine
 10
168.0877588376762
 20
191.9476828758628
 30
0.0
 11
189.1469908839026
 21
191.9476828758628
 31
0.0
  0
LINE
  5
D3
330
CF
100
AcDbEntity
  8
BEMASSUNG
 62
     2
370
    -2
100
AcDbLine
 10
188.1469908839026
 20
225.947682875863
 30
0.0
 11
188.1469908839026
 21
195.9476828758628
 31
0.0
  0
SOLID
  5
D4
330
CF
100
AcDbEntity
  8
BEMASSUNG
 62
     2
100
AcDbTrace
 10
187.480324217236
 20
225.947682875863
 30
0.0
 11
188.8136575505693
 21
225.947682875863
 31
0.0
 12
188.1469908839026
 22
229.947682875863
 32
0.0
 13
188.1469908839026
 23
229.947682875863
 33
0.0
  0
SOLID
  5
D5
330
CF
100
AcDbEntity
  8
BEMASSUNG
 62
     2
100
AcDbTrace
 10
187.480324217236
 20
195.9476828758628
 30
0.0
 11
188.8136575505693
 21
195.9476828758628
 31
0.0
 12
188.1469908839026
 22
191.9476828758628
 32
0.0
 13
188.1469908839026
 23
191.9476828758628
 33
0.0
  0
MTEXT
  5
D6
330
CF
100
AcDbEntity
  8
BEMASSUNG
 62
     3
100
AcDbMText
 10
184.924514758391
 20
210.947682875863
 30
0.0
 40
4.349999999999999
 41
0.0
 71
     5
 72
     1
  1
\A1;38
  7
ARIAL-STANDARD
 11
0.0000000000000001
 21
1.0
 31
0.0
 73
     1
 44
1.0
1001
ACAD
1000
MTEXTBEGIN
1070
    73
1070
     1
1070
    44
1040
1.0
1070
    74
1070
     0
1000
MTEXTEND
  0
POINT
  5
D7
330
CF
100
AcDbEntity
  8
DEFPOINTS
 62
     0
100
AcDbPoint
 10
168.5877588376762
 20
229.947682875863
 30
0.0
  0
POINT
  5
D8
330
CF
100
AcDbEntity
  8
DEFPOINTS
 62
     0
100
AcDbPoint
 10
168.0877588376762
 20
191.9476828758628
 30
0.0
  0
POINT
  5
D9
330
CF
100
AcDbEntity
  8
DEFPOINTS
 62
     0
100
AcDbPoint
 10
188.1469908839026
 20
191.9476828758628
 30
0.0
  0
ENDBLK
  5
DA
330
CF
100
AcDbEntity
  8
0
100
AcDbBlockEnd
  0
BLOCK
  5
C3
330
C2
100
AcDbEntity
  8
0
100
AcDbBlockBegin
  2
*D13
 70
     1
 10
0.0
 20
0.0
 30
0.0
  3
*D13
  1

  0
LINE
  5
C4
330
C2
100
AcDbEntity
  8
BEMASSUNG
 62
     2
370
    -2
100
AcDbLine
 10
168.5877588376762
 20
229.947682875863
 30
0.0
 11
189.1469908839026
 21
229.947682875863
 31
0.0
  0
LINE
  5
C5
330
C2
100
AcDbEntity
  8
BEMASSUNG
 62
     2
370
    -2
100
AcDbLine
 10
162.5877588376761
 20
269.9476828758628
 30
0.0
 11
189.1469908839026
 21
269.9476828758628
 31
0.0
  0
LINE
  5
C6
330
C2
100
AcDbEntity
  8
BEMASSUNG
 62
     2
370
    -2
100
AcDbLine
 10
188.1469908839026
 20
233.947682875863
 30
0.0
 11
188.1469908839026
 21
265.9476828758628
 31
0.0
  0
SOLID
  5
C7
330
C2
100
AcDbEntity
  8
BEMASSUNG
 62
     2
100
AcDbTrace
 10
187.480324217236
 20
233.947682875863
 30
0.0
 11
188.8136575505692
 21
233.947682875863
 31
0.0
 12
188.1469908839026
 22
229.947682875863
 32
0.0
 13
188.1469908839026
 23
229.947682875863
 33
0.0
  0
SOLID
  5
C8
330
C2
100
AcDbEntity
  8
BEMASSUNG
 62
     2
100
AcDbTrace
 10
187.480324217236
 20
265.9476828758628
 30
0.0
 11
188.8136575505692
 21
265.9476828758628
 31
0.0
 12
188.1469908839026
 22
269.9476828758628
 32
0.0
 13
188.1469908839026
 23
269.9476828758628
 33
0.0
  0
MTEXT
  5
C9
330
C2
100
AcDbEntity
  8
BEMASSUNG
 62
     3
100
AcDbMText
 10
184.9259983873132
 20
249.9476828758629
 30
0.0
 40
4.349999999999999
 41
0.0
 71
     5
 72
     1
  1
\A1;40
  7
ARIAL-STANDARD
 11
0.0000000000000001
 21
1.0
 31
0.0
 73
     1
 44
1.0
1001
ACAD
1000
MTEXTBEGIN
1070
    73
1070
     1
1070
    44
1040
1.0
1070
    74
1070
     0
1000
MTEXTEND
  0
POINT
  5
CA
330
C2
100
AcDbEntity
  8
DEFPOINTS
 62
     0
100
AcDbPoint
 10
168.5877588376762
 20
229.947682875863
 30
0.0
  0
POINT
  5
CB
330
C2
100
AcDbEntity
  8
DEFPOINTS
 62
     0
100
AcDbPoint
 10
162.5877588376761
 20
269.9476828758628
 30
0.0
  0
POINT
  5
CC
330
C2
100
AcDbEntity
  8
DEFPOINTS
 62
     0
100
AcDbPoint
 10
188.1469908839026
 20
269.9476828758628
 30
0.0
  0
ENDBLK
  5
CD
330
C2
100
AcDbEntity
  8
0
100
AcDbBlockEnd
  0
BLOCK
  5
B6
330
B5
100
AcDbEntity
  8
0
100
AcDbBlockBegin
  2
*D14
 70
     1
 10
0.0
 20
0.0
 30
0.0
  3
*D14
  1

  0
LINE
  5
B7
330
B5
100
AcDbEntity
  8
BEMASSUNG
 62
     2
370
    -2
100
AcDbLine
 10
168.0877588376762
 20
191.9476828758628
 30
0.0
 11
198.5256788535901
 21
191.9476828758628
 31
0.0
  0
LINE
  5
B8
330
B5
100
AcDbEntity
  8
BEMASSUNG
 62
     2
370
    -2
100
AcDbLine
 10
168.0877588376762
 20
408.9476828758628
 30
0.0
 11
198.5256788535901
 21
408.9476828758628
 31
0.0
  0
LINE
  5
B9
330
B5
100
AcDbEntity
  8
BEMASSUNG
 62
     2
370
    -2
100
AcDbLine
 10
197.5256788535901
 20
195.9476828758628
 30
0.0
 11
197.5256788535901
 21
404.9476828758628
 31
0.0
  0
SOLID
  5
BA
330
B5
100
AcDbEntity
  8
BEMASSUNG
 62
     2
100
AcDbTrace
 10
196.8590121869234
 20
195.9476828758628
 30
0.0
 11
198.1923455202568
 21
195.9476828758628
 31
0.0
 12
197.5256788535901
 22
191.9476828758628
 32
0.0
 13
197.5256788535901
 23
191.9476828758628
 33
0.0
  0
SOLID
  5
BB
330
B5
100
AcDbEntity
  8
BEMASSUNG
 62
     2
100
AcDbTrace
 10
196.8590121869235
 20
404.9476828758628
 30
0.0
 11
198.1923455202568
 21
404.9476828758628
 31
0.0
 12
197.5256788535901
 22
408.9476828758628
 32
0.0
 13
197.5256788535901
 23
408.9476828758628
 33
0.0
  0
MTEXT
  5
BC
330
B5
100
AcDbEntity
  8
BEMASSUNG
 62
     3
100
AcDbMText
 10
194.3417770800566
 20
302.1780441790231
 30
0.0
 40
4.349999999999999
 41
0.0
 71
     5
 72
     1
  1
\A1;217
  7
ARIAL-STANDARD
 11
0.0000000000000001
 21
1.0
 31
0.0
 73
     1
 44
1.0
1001
ACAD
1000
MTEXTBEGIN
1070
    73
1070
     1
1070
    44
1040
1.0
1070
    74
1070
     0
1000
MTEXTEND
  0
POINT
  5
BD
330
B5
100
AcDbEntity
  8
DEFPOINTS
 62
     0
100
AcDbPoint
 10
168.0877588376762
 20
191.9476828758628
 30
0.0
  0
POINT
  5
BE
330
B5
100
AcDbEntity
  8
DEFPOINTS
 62
     0
100
AcDbPoint
 10
168.0877588376762
 20
408.9476828758628
 30
0.0
  0
POINT
  5
BF
330
B5
100
AcDbEntity
  8
DEFPOINTS
 62
     0
100
AcDbPoint
 10
197.5256788535901
 20
408.9476828758628
 30
0.0
  0
ENDBLK
  5
C0
330
B5
100
AcDbEntity
  8
0
100
AcDbBlockEnd
  0
BLOCK
  5
A1
330
A0
100
AcDbEntity
  8
0
100
AcDbBlockBegin
  2
*D15
 70
     1
 10
0.0
 20
0.0
 30
0.0
  3
*D15
  1

  0
LINE
  5
A2
330
A0
100
AcDbEntity
  8
BEMASSUNG
 62
     2
370
    -2
100
AcDbLine
 10
150.5877588376762
 20
408.9476828758628
 30
0.0
 11
133.0736881099955
 21
408.9476828758628
 31
0.0
  0
LINE
  5
A3
330
A0
100
AcDbEntity
  8
BEMASSUNG
 62
     2
370
    -2
100
AcDbLine
 10
151.8365849129643
 20
378.9476828758629
 30
0.0
 11
133.0736881099955
 21
378.9476828758629
 31
0.0
  0
LINE
  5
A4
330
A0
100
AcDbEntity
  8
BEMASSUNG
 62
     2
370
    -2
100
AcDbLine
 10
134.0736881099955
 20
404.9476828758628
 30
0.0
 11
134.0736881099955
 21
382.9476828758629
 31
0.0
  0
SOLID
  5
A5
330
A0
100
AcDbEntity
  8
BEMASSUNG
 62
     2
100
AcDbTrace
 10
133.4070214433289
 20
404.9476828758628
 30
0.0
 11
134.7403547766622
 21
404.9476828758628
 31
0.0
 12
134.0736881099955
 22
408.9476828758628
 32
0.0
 13
134.0736881099955
 23
408.9476828758628
 33
0.0
  0
SOLID
  5
A6
330
A0
100
AcDbEntity
  8
BEMASSUNG
 62
     2
100
AcDbTrace
 10
133.4070214433289
 20
382.9476828758629
 30
0.0
 11
134.7403547766622
 21
382.9476828758629
 31
0.0
 12
134.0736881099955
 22
378.9476828758629
 32
0.0
 13
134.0736881099955
 23
378.9476828758629
 33
0.0
  0
MTEXT
  5
A7
330
A0
100
AcDbEntity
  8
BEMASSUNG
 62
     3
100
AcDbMText
 10
130.8512119844839
 20
393.9476828758629
 30
0.0
 40
4.349999999999999
 41
0.0
 71
     5
 72
     1
  1
\A1;30
  7
ARIAL-STANDARD
 11
0.0000000000000001
 21
1.0
 31
0.0
 73
     1
 44
1.0
1001
ACAD
1000
MTEXTBEGIN
1070
    73
1070
     1
1070
    44
1040
1.0
1070
    74
1070
     0
1000
MTEXTEND
  0
POINT
  5
A8
330
A0
100
AcDbEntity
  8
DEFPOINTS
 62
     0
100
AcDbPoint
 10
150.5877588376762
 20
408.9476828758628
 30
0.0
  0
POINT
  5
A9
330
A0
100
AcDbEntity
  8
DEFPOINTS
 62
     0
100
AcDbPoint
 10
151.8365849129643
 20
378.9476828758629
 30
0.0
  0
POINT
  5
AA
330
A0
100
AcDbEntity
  8
DEFPOINTS
 62
     0
100
AcDbPoint
 10
134.0736881099955
 20
378.9476828758629
 30
0.0
  0
ENDBLK
  5
AB
330
A0
100
AcDbEntity
  8
0
100
AcDbBlockEnd
  0
BLOCK
  5
94
330
93
100
AcDbEntity
  8
0
100
AcDbBlockBegin
  2
*D16
 70
     1
 10
0.0
 20
0.0
 30
0.0
  3
*D16
  1

  0
LINE
  5
95
330
93
100
AcDbEntity
  8
BEMASSUNG
 62
     2
370
    -2
100
AcDbLine
 10
151.8365849129643
 20
378.9476828758629
 30
0.0
 11
133.0736881099956
 21
378.9476828758629
 31
0.0
  0
LINE
  5
96
330
93
100
AcDbEntity
  8
BEMASSUNG
 62
     2
370
    -2
100
AcDbLine
 10
146.0024836165814
 20
248.9478109419708
 30
0.0
 11
133.0736881099955
 21
248.9478109419708
 31
0.0
  0
LINE
  5
97
330
93
100
AcDbEntity
  8
BEMASSUNG
 62
     2
370
    -2
100
AcDbLine
 10
134.0736881099956
 20
374.9476828758629
 30
0.0
 11
134.0736881099955
 21
252.9478109419708
 31
0.0
  0
SOLID
  5
98
330
93
100
AcDbEntity
  8
BEMASSUNG
 62
     2
100
AcDbTrace
 10
133.4070214433289
 20
374.9476828758629
 30
0.0
 11
134.7403547766622
 21
374.9476828758629
 31
0.0
 12
134.0736881099956
 22
378.9476828758629
 32
0.0
 13
134.0736881099956
 23
378.9476828758629
 33
0.0
  0
SOLID
  5
99
330
93
100
AcDbEntity
  8
BEMASSUNG
 62
     2
100
AcDbTrace
 10
133.4070214433289
 20
252.9478109419708
 30
0.0
 11
134.7403547766622
 21
252.9478109419708
 31
0.0
 12
134.0736881099955
 22
248.9478109419708
 32
0.0
 13
134.0736881099955
 23
248.9478109419708
 33
0.0
  0
MTEXT
  5
9A
330
93
100
AcDbEntity
  8
BEMASSUNG
 62
     3
100
AcDbMText
 10
130.8512119844839
 20
313.9477469089169
 30
0.0
 40
4.349999999999999
 41
0.0
 71
     5
 72
     1
  1
\A1;130
  7
ARIAL-STANDARD
 11
0.0000000000000001
 21
1.0
 31
0.0
 73
     1
 44
1.0
1001
ACAD
1000
MTEXTBEGIN
1070
    73
1070
     1
1070
    44
1040
1.0
1070
    74
1070
     0
1000
MTEXTEND
  0
POINT
  5
9B
330
93
100
AcDbEntity
  8
DEFPOINTS
 62
     0
100
AcDbPoint
 10
151.8365849129643
 20
378.9476828758629
 30
0.0
  0
POINT
  5
9C
330
93
100
AcDbEntity
  8
DEFPOINTS
 62
     0
100
AcDbPoint
 10
146.0024836165814
 20
248.9478109419708
 30
0.0
  0
POINT
  5
9D
330
93
100
AcDbEntity
  8
DEFPOINTS
 62
     0
100
AcDbPoint
 10
134.0736881099955
 20
248.9478109419708
 30
0.0
  0
ENDBLK
  5
9E
330
93
100
AcDbEntity
  8
0
100
AcDbBlockEnd
  0
BLOCK
  5
87
330
86
100
AcDbEntity
  8
0
100
AcDbBlockBegin
  2
*D17
 70
     1
 10
0.0
 20
0.0
 30
0.0
  3
*D17
  1

  0
LINE
  5
88
330
86
100
AcDbEntity
  8
BEMASSUNG
 62
     2
370
    -2
100
AcDbLine
 10
146.0024836165814
 20
248.9478109419708
 30
0.0
 11
133.0736881099956
 21
248.9478109419708
 31
0.0
  0
LINE
  5
89
330
86
100
AcDbEntity
  8
BEMASSUNG
 62
     2
370
    -2
100
AcDbLine
 10
150.5877588376762
 20
191.9476828758627
 30
0.0
 11
133.0736881099955
 21
191.9476828758627
 31
0.0
  0
LINE
  5
8A
330
86
100
AcDbEntity
  8
BEMASSUNG
 62
     2
370
    -2
100
AcDbLine
 10
134.0736881099956
 20
244.9478109419708
 30
0.0
 11
134.0736881099956
 21
195.9476828758628
 31
0.0
  0
SOLID
  5
8B
330
86
100
AcDbEntity
  8
BEMASSUNG
 62
     2
100
AcDbTrace
 10
133.4070214433289
 20
244.9478109419708
 30
0.0
 11
134.7403547766622
 21
244.9478109419708
 31
0.0
 12
134.0736881099956
 22
248.9478109419708
 32
0.0
 13
134.0736881099956
 23
248.9478109419708
 33
0.0
  0
SOLID
  5
8C
330
86
100
AcDbEntity
  8
BEMASSUNG
 62
     2
100
AcDbTrace
 10
133.4070214433289
 20
195.9476828758628
 30
0.0
 11
134.7403547766622
 21
195.9476828758628
 31
0.0
 12
134.0736881099955
 22
191.9476828758627
 32
0.0
 13
134.0736881099955
 23
191.9476828758627
 33
0.0
  0
MTEXT
  5
8D
330
86
100
AcDbEntity
  8
BEMASSUNG
 62
     3
100
AcDbMText
 10
130.8615973869396
 20
220.4477469089168
 30
0.0
 40
4.349999999999999
 41
0.0
 71
     5
 72
     1
  1
\A1;57
  7
ARIAL-STANDARD
 11
0.0000000000000001
 21
1.0
 31
0.0
 73
     1
 44
1.0
1001
ACAD
1000
MTEXTBEGIN
1070
    73
1070
     1
1070
    44
1040
1.0
1070
    74
1070
     0
1000
MTEXTEND
  0
POINT
  5
8E
330
86
100
AcDbEntity
  8
DEFPOINTS
 62
     0
100
AcDbPoint
 10
146.0024836165814
 20
248.9478109419708
 30
0.0
  0
POINT
  5
8F
330
86
100
AcDbEntity
  8
DEFPOINTS
 62
     0
100
AcDbPoint
 10
150.5877588376762
 20
191.9476828758627
 30
0.0
  0
POINT
  5
90
330
86
100
AcDbEntity
  8
DEFPOINTS
 62
     0
100
AcDbPoint
 10
134.0736881099955
 20
191.9476828758627
 30
0.0
  0
ENDBLK
  5
91
330
86
100
AcDbEntity
  8
0
100
AcDbBlockEnd
  0
BLOCK
  5
3D7
330
3D6
100
AcDbEntity
  8
0
100
AcDbBlockBegin
  2
_ACMFILLED30
 70
     0
 10
0.0
 20
0.0
 30
0.0
  3
_ACMFILLED30
  1

  0
TRACE
  5
3D8
330
3D6
100
AcDbEntity
  8
BEMASSUNG
 62
     0
100
AcDbTrace
 10
-1.0
 20
-0.26794919
 30
0.0
 11
-1.0
 21
0.26794919
 31
0.0
 12
0.0
 22
0.0
 32
0.0
 13
0.0
 23
0.0
 33
0.0
  0
ENDBLK
  5
3D9
330
3D6
100
AcDbEntity
  8
0
100
AcDbBlockEnd
  0
BLOCK
  5
6E
330
6D
100
AcDbEntity
  8
0
100
AcDbBlockBegin
  2
*D19
 70
     1
 10
0.0
 20
0.0
 30
0.0
  3
*D19
  1

  0
LINE
  5
6F
330
6D
100
AcDbEntity
  8
AM_5
 62
     2
370
    -2
100
AcDbLine
 10
166.0877588376763
 20
378.9476828758628
 30
0.0
 11
166.0877588376763
 21
342.5355936442693
 31
0.0
  0
LINE
  5
70
330
6D
100
AcDbEntity
  8
AM_5
 62
     2
370
    -2
100
AcDbLine
 10
169.0877588376762
 20
378.9476828758628
 30
0.0
 11
169.0877588376762
 21
342.5355936442693
 31
0.0
  0
LINE
  5
71
330
6D
100
AcDbEntity
  8
AM_5
 62
     2
370
    -2
100
AcDbLine
 10
162.0877588376763
 20
343.5355936442693
 30
0.0
 11
158.0877588376763
 21
343.5355936442693
 31
0.0
  0
LINE
  5
72
330
6D
100
AcDbEntity
  8
AM_5
 62
     2
370
    -2
100
AcDbLine
 10
173.0877588376762
 20
343.5355936442693
 30
0.0
 11
177.0877588376762
 21
343.5355936442693
 31
0.0
  0
LINE
  5
73
330
6D
100
AcDbEntity
  8
AM_5
 62
     2
370
    -2
100
AcDbLine
 10
166.0877588376763
 20
343.5355936442693
 30
0.0
 11
169.0877588376762
 21
343.5355936442693
 31
0.0
  0
SOLID
  5
74
330
6D
100
AcDbEntity
  8
AM_5
 62
     2
100
AcDbTrace
 10
162.0877588376763
 20
344.202260310936
 30
0.0
 11
162.0877588376763
 21
342.8689269776026
 31
0.0
 12
166.0877588376763
 22
343.5355936442693
 32
0.0
 13
166.0877588376763
 23
343.5355936442693
 33
0.0
  0
SOLID
  5
75
330
6D
100
AcDbEntity
  8
AM_5
 62
     2
100
AcDbTrace
 10
173.0877588376762
 20
344.202260310936
 30
0.0
 11
173.0877588376762
 21
342.8689269776026
 31
0.0
 12
169.0877588376762
 22
343.5355936442693
 32
0.0
 13
169.0877588376762
 23
343.5355936442693
 33
0.0
  0
MTEXT
  5
76
330
6D
100
AcDbEntity
  8
AM_5
 62
     3
100
AcDbMText
 10
167.5877588376763
 20
346.7580697697809
 30
0.0
 40
4.349999999999999
 41
0.0
 71
     5
 72
     1
  1
\A1;3
  7
ARIAL-STANDARD
 73
     1
 44
1.0
1001
ACAD
1000
MTEXTBEGIN
1070
    73
1070
     1
1070
    44
1040
1.0
1070
    74
1070
     0
1000
MTEXTEND
  0
POINT
  5
77
330
6D
100
AcDbEntity
  8
DEFPOINTS
 62
     0
100
AcDbPoint
 10
166.0877588376763
 20
378.9476828758628
 30
0.0
  0
POINT
  5
79
330
6D
100
AcDbEntity
  8
DEFPOINTS
 62
     0
100
AcDbPoint
 10
169.0877588376762
 20
378.9476828758628
 30
0.0
  0
POINT
  5
7A
330
6D
100
AcDbEntity
  8
DEFPOINTS
 62
     0
100
AcDbPoint
 10
169.0877588376762
 20
343.5355936442693
 30
0.0
  0
ENDBLK
  5
7B
330
6D
100
AcDbEntity
  8
0
100
AcDbBlockEnd
  0
ENDSEC
  0
SECTION
  2
ENTITIES
  0
DIMENSION
  5
6A
330
2
100
AcDbEntity
  8
AM_5
100
AcDbDimension
  2
*D19
 10
169.0877588376762
 20
343.5355936442693
 30
0.0
 11
167.5877588376763
 21
346.7580697697809
 31
0.0
 71
     5
 42
2.999999999999914
  3
Katalog 09$0
100
AcDbAlignedDimension
 13
166.0877588376763
 23
378.9476828758628
 33
0.0
 14
169.0877588376762
 24
378.9476828758628
 34
0.0
 50
0.0000000000000114
100
AcDbRotatedDimension
1001
ACAD_DSTYLE_DIMINSPECT
1070
   396
1000
100%
1070
   395
1000

1070
   394
1070
    33
1070
   393
1070
     0
  0
LINE
  5
7E
330
2
100
AcDbEntity
  8
ACHSEN
100
AcDbLine
 10
218.1992530168619
 20
204.4476828758628
 30
0.0
 11
231.699253016862
 21
204.4476828758628
 31
0.0
  0
LINE
  5
83
330
2
100
AcDbEntity
  8
ACHSEN
100
AcDbLine
 10
218.1992530168619
 20
361.4476828758629
 30
0.0
 11
231.699253016862
 21
361.4476828758629
 31
0.0
  0
LINE
  5
84
330
2
100
AcDbEntity
  8
ACHSEN
100
AcDbLine
 10
218.1992530168619
 20
396.4476828758629
 30
0.0
 11
231.699253016862
 21
396.4476828758629
 31
0.0
  0
DIMENSION
  5
85
102
{ACAD_REACTORS
330
104
330
13A
102
}
330
2
100
AcDbEntity
  8
BEMASSUNG
100
AcDbDimension
  2
*D17
 10
134.0736881099955
 20
191.9476828758627
 30
0.0
 11
130.8615973869396
 21
220.4477469089168
 31
0.0
 71
     5
 42
57.00012806610806
  3
Katalog 09
100
AcDbAlignedDimension
 13
146.0024836165814
 23
248.9478109419708
 33
0.0
 14
150.5877588376762
 24
191.9476828758627
 34
0.0
 50
90.0
100
AcDbRotatedDimension
  0
DIMENSION
  5
92
102
{ACAD_REACTORS
330
118
330
104
102
}
330
2
100
AcDbEntity
  8
BEMASSUNG
100
AcDbDimension
  2
*D16
 10
134.0736881099955
 20
248.9478109419708
 30
0.0
 11
130.8512119844839
 21
313.9477469089169
 31
0.0
 71
     5
 42
129.9998719338921
  3
Katalog 09
100
AcDbAlignedDimension
 13
151.8365849129643
 23
378.9476828758629
 33
0.0
 14
146.0024836165814
 24
248.9478109419708
 34
0.0
 50
90.0
100
AcDbRotatedDimension
  0
DIMENSION
  5
9F
102
{ACAD_REACTORS
330
118
330
128
102
}
330
2
100
AcDbEntity
  8
BEMASSUNG
100
AcDbDimension
  2
*D15
 10
134.0736881099955
 20
378.9476828758629
 30
0.0
 11
130.8512119844839
 21
393.9476828758629
 31
0.0
 71
     5
 42
29.99999999999995
  3
Katalog 09
100
AcDbAlignedDimension
 13
150.5877588376762
 23
408.9476828758628
 33
0.0
 14
151.8365849129643
 24
378.9476828758629
 34
0.0
 50
90.0
100
AcDbRotatedDimension
  0
LINE
  5
AC
330
2
100
AcDbEntity
  8
ACHSEN
100
AcDbLine
 10
146.0024836165814
 20
248.9478109419708
 30
0.0
 11
171.1511123364564
 21
248.9478109419708
 31
0.0
  0
LINE
  5
AD
330
2
100
AcDbEntity
  8
ACHSEN
100
AcDbLine
 10
151.8365849129643
 20
378.9476828758629
 30
0.0
 11
167.8377588376763
 21
378.9476828758629
 31
0.0
  0
LINE
  5
AE
330
2
100
AcDbEntity
  8
ACHSEN
100
AcDbLine
 10
152.3377588376762
 20
204.4476828758628
 30
0.0
 11
165.8377588376762
 21
204.4476828758628
 31
0.0
  0
LINE
  5
AF
330
2
100
AcDbEntity
  8
ACHSEN
100
AcDbLine
 10
159.0877588376762
 20
211.1976828758628
 30
0.0
 11
159.0877588376762
 21
197.6976828758628
 31
0.0
  0
LINE
  5
B0
330
2
100
AcDbEntity
  8
ACHSEN
100
AcDbLine
 10
152.3377588376762
 20
361.4476828758629
 30
0.0
 11
165.8377588376762
 21
361.4476828758629
 31
0.0
  0
LINE
  5
B1
330
2
100
AcDbEntity
  8
ACHSEN
100
AcDbLine
 10
159.0877588376762
 20
368.1976828758629
 30
0.0
 11
159.0877588376762
 21
354.6976828758629
 31
0.0
  0
LINE
  5
B2
330
2
100
AcDbEntity
  8
ACHSEN
100
AcDbLine
 10
152.3377588376762
 20
396.4476828758629
 30
0.0
 11
165.8377588376762
 21
396.4476828758629
 31
0.0
  0
LINE
  5
B3
330
2
100
AcDbEntity
  8
ACHSEN
100
AcDbLine
 10
159.0877588376762
 20
403.1976828758629
 30
0.0
 11
159.0877588376762
 21
389.6976828758629
 31
0.0
  0
DIMENSION
  5
B4
330
2
100
AcDbEntity
  8
BEMASSUNG
100
AcDbDimension
  2
*D14
 10
197.5256788535901
 20
408.9476828758628
 30
0.0
 11
197.5256788535901
 21
302.1780441790231
 31
0.0
 70
   128
 71
     5
 42
217.0
  3
Katalog 09
100
AcDbAlignedDimension
 13
168.0877588376762
 23
191.9476828758628
 33
0.0
 14
168.0877588376762
 24
408.9476828758628
 34
0.0
 50
90.0
100
AcDbRotatedDimension
  0
DIMENSION
  5
C1
330
2
100
AcDbEntity
  8
BEMASSUNG
100
AcDbDimension
  2
*D13
 10
188.1469908839026
 20
269.9476828758628
 30
0.0
 11
184.9259983873132
 21
249.9476828758629
 31
0.0
 71
     5
 42
39.99999999999989
  3
Katalog 09
100
AcDbAlignedDimension
 13
168.5877588376762
 23
229.947682875863
 33
0.0
 14
162.5877588376761
 24
269.9476828758628
 34
0.0
 50
270.0
100
AcDbRotatedDimension
  0
DIMENSION
  5
CE
330
2
100
AcDbEntity
  8
BEMASSUNG
100
AcDbDimension
  2
*D12
 10
188.1469908839026
 20
191.9476828758628
 30
0.0
 11
184.924514758391
 21
210.947682875863
 31
0.0
 71
     5
 42
38.00000000000017
  3
Katalog 09
100
AcDbAlignedDimension
 13
168.5877588376762
 23
229.947682875863
 33
0.0
 14
168.0877588376762
 24
191.9476828758628
 34
0.0
 50
270.0
100
AcDbRotatedDimension
  0
DIMENSION
  5
DB
330
2
100
AcDbEntity
  8
BEMASSUNG
100
AcDbDimension
  2
*D11
 10
188.1469908839026
 20
368.9476828758628
 30
0.0
 11
184.9259983873132
 21
319.4476828758629
 31
0.0
 71
     5
 42
99.0
  3
Katalog 09
100
AcDbAlignedDimension
 13
162.5877588376761
 23
269.9476828758628
 33
0.0
 14
163.0877588376763
 24
368.9476828758628
 34
0.0
 50
270.0
100
AcDbRotatedDimension
  0
DIMENSION
  5
E8
330
2
100
AcDbEntity
  8
BEMASSUNG
100
AcDbDimension
  2
*D10
 10
188.1469908839027
 20
388.9476828758632
 30
0.0
 11
184.9259983873132
 21
378.9476828758628
 31
0.0
 71
     5
 42
20.00000000000085
  3
Katalog 09
100
AcDbAlignedDimension
 13
163.0877588376763
 23
368.9476828758624
 33
0.0
 14
163.0877588376763
 24
388.9476828758632
 34
0.0
 50
270.0
100
AcDbRotatedDimension
  0
DIMENSION
  5
F5
330
2
100
AcDbEntity
  8
BEMASSUNG
100
AcDbDimension
  2
*D9
 10
188.1469908839026
 20
408.9476828758628
 30
0.0
 11
184.9259983873132
 21
398.9476828758629
 31
0.0
 71
     5
 42
20.0
  3
Katalog 09
100
AcDbAlignedDimension
 13
163.0877588376763
 23
388.9476828758628
 33
0.0
 14
168.0877588376762
 24
408.9476828758628
 34
0.0
 50
270.0
100
AcDbRotatedDimension
  0
DIMENSION
  5
102
102
{ACAD_XDICTIONARY
360
103
102
}
102
{ACAD_REACTORS
330
118
330
104
102
}
330
2
100
AcDbEntity
  8
UMRISS05
100
AcDbDimension
  2
*D8
 10
123.9806139725964
 20
204.4476828758628
 30
0.0
 11
120.7596214760071
 21
282.9476828758629
 31
0.0
 71
     5
 42
157.0000000000001
  3
Katalog 09
100
AcDbAlignedDimension
 13
152.3377588376762
 23
361.4476828758629
 33
0.0
 14
152.3377588376762
 24
204.4476828758628
 34
0.0
 50
90.0
100
AcDbRotatedDimension
  0
DIMENSION
  5
116
102
{ACAD_XDICTIONARY
360
117
102
}
102
{ACAD_REACTORS
330
118
102
}
330
2
100
AcDbEntity
  8
UMRISS05
100
AcDbDimension
  2
*D7
 10
123.9806139725964
 20
361.4476828758629
 30
0.0
 11
123.9806139725964
 21
381.0684240069305
 31
0.0
 70
   128
 71
     5
 42
35.0
  3
Katalog 09
100
AcDbAlignedDimension
 13
152.3377588376762
 23
396.4476828758629
 33
0.0
 14
152.3377588376762
 24
361.4476828758629
 34
0.0
 50
90.0
100
AcDbRotatedDimension
  0
DIMENSION
  5
126
102
{ACAD_XDICTIONARY
360
127
102
}
102
{ACAD_REACTORS
330
118
330
128
102
}
330
2
100
AcDbEntity
  8
UMRISS05
100
AcDbDimension
  2
*D6
 10
123.9806139725964
 20
408.9476828758629
 30
0.0
 11
120.759621476007
 21
402.6976828758629
 31
0.0
 71
     5
 42
12.49999999999994
  3
Katalog 09
100
AcDbAlignedDimension
 13
152.3377588376762
 23
396.4476828758629
 33
0.0
 14
150.0877588376762
 24
408.9476828758628
 34
0.0
 50
90.0
100
AcDbRotatedDimension
  0
DIMENSION
  5
138
102
{ACAD_XDICTIONARY
360
139
102
}
102
{ACAD_REACTORS
330
104
330
13A
102
}
330
2
100
AcDbEntity
  8
UMRISS05
100
AcDbDimension
  2
*D5
 10
123.9806139725964
 20
204.4476828758628
 30
0.0
 11
120.7596214760071
 21
198.1976828758628
 31
0.0
 71
     5
 42
12.5
  3
Katalog 09
100
AcDbAlignedDimension
 13
150.0877588376762
 23
191.9476828758628
 33
0.0
 14
152.3377588376762
 24
204.4476828758628
 34
0.0
 50
90.0
100
AcDbRotatedDimension
  0
DIMENSION
  5
14A
330
2
100
AcDbEntity
  8
BEMASSUNG
100
AcDbDimension
  2
*D4
 10
227.9487670186951
 20
400.9476828758626
 30
0.0
 11
214.4943489723159
 21
416.7617684253722
 31
0.0
 70
     4
 71
     5
 42
7.999999999999886
  3
Katalog 09
100
AcDbRadialDimension
 15
221.8823202500369
 25
406.1628744929593
 35
0.0
 40
0.0
1001
ACAD_DSTYLE_DIMRADIAL_EXTENSION
1070
   387
1070
     1
1070
   388
1040
1.570796326794896
1070
   390
1040
3.141592653589793
  0
DIMENSION
  5
155
330
2
100
AcDbEntity
  8
BEMASSUNG
100
AcDbDimension
  2
*D3
 10
229.9487670186952
 20
293.0372636900414
 30
0.0
 11
208.6696742492535
 21
293.0372636900414
 31
0.0
 70
   128
 71
     5
 42
10.00000000000005
  3
Katalog 09
100
AcDbAlignedDimension
 13
219.9487670186952
 23
293.0372636900414
 33
0.0
 14
229.9487670186952
 24
293.0372636900414
 34
0.0
100
AcDbRotatedDimension
1001
ACAD_DSTYLE_DIMINSPECT
1070
   396
1000
100%
1070
   395
1000

1070
   394
1070
    33
1070
   393
1070
     0
  0
LINE
  5
163
330
2
100
AcDbEntity
  8
AVERDECKTE
100
AcDbLine
 10
227.898767018698
 20
276.0430628758628
 30
0.0
 11
227.9487670186979
 21
275.9930628758628
 31
0.0
  0
LINE
  5
168
330
2
100
AcDbEntity
  8
AVERDECKTE
100
AcDbLine
 10
227.898767018698
 20
281.8523028758628
 30
0.0
 11
227.9487670186979
 21
281.9023028758628
 31
0.0
  0
LINE
  5
169
330
2
100
AcDbEntity
  8
AVERDECKTE
100
AcDbLine
 10
229.9487670186979
 20
283.5976828758628
 30
0.0
 11
229.6441470186979
 21
283.5976828758628
 31
0.0
  0
LINE
  5
16A
330
2
100
AcDbEntity
  8
AVERDECKTE
100
AcDbLine
 10
229.9487670186979
 20
274.2976828758628
 30
0.0
 11
229.6441470186979
 21
274.2976828758628
 31
0.0
  0
LINE
  5
16B
330
2
100
AcDbEntity
  8
AVERDECKTE
100
AcDbLine
 10
227.9487670186979
 20
275.9930628758628
 30
0.0
 11
229.6441470186979
 21
274.2976828758628
 31
0.0
  0
LINE
  5
16C
330
2
100
AcDbEntity
  8
AVERDECKTE
100
AcDbLine
 10
227.248767018698
 20
276.6930628758629
 30
0.0
 11
227.898767018698
 21
276.0430628758628
 31
0.0
  0
LINE
  5
16D
330
2
100
AcDbEntity
  8
AVERDECKTE
100
AcDbLine
 10
227.9487670186979
 20
281.9023028758628
 30
0.0
 11
229.6441470186979
 21
283.5976828758628
 31
0.0
  0
LINE
  5
16E
330
2
100
AcDbEntity
  8
AVERDECKTE
100
AcDbLine
 10
227.248767018698
 20
281.2023028758628
 30
0.0
 11
227.898767018698
 21
281.8523028758628
 31
0.0
  0
LINE
  5
16F
330
2
100
AcDbEntity
  8
AVERDECKTE
100
AcDbLine
 10
222.5487670186979
 20
281.4476828758628
 30
0.0
 11
222.4396270186979
 21
281.4476828758628
 31
0.0
  0
LINE
  5
170
330
2
100
AcDbEntity
  8
AVERDECKTE
100
AcDbLine
 10
222.5487670186979
 20
276.4476828758628
 30
0.0
 11
222.4396270186979
 21
276.4476828758628
 31
0.0
  0
LINE
  5
171
330
2
100
AcDbEntity
  8
AVERDECKTE
100
AcDbLine
 10
229.6441470186979
 20
283.5976828758628
 30
0.0
 11
229.6441470186979
 21
274.2976828758628
 31
0.0
  0
LINE
  5
172
330
2
100
AcDbEntity
  8
AVERDECKTE
100
AcDbLine
 10
221.9487670186979
 20
276.9384428758628
 30
0.0
 11
222.4396270186979
 21
276.4476828758628
 31
0.0
  0
LINE
  5
173
330
2
100
AcDbEntity
  8
AVERDECKTE
100
AcDbLine
 10
221.9487670186979
 20
280.9569228758628
 30
0.0
 11
222.4396270186979
 21
281.4476828758628
 31
0.0
  0
LINE
  5
174
330
2
100
AcDbEntity
  8
AVERDECKTE
100
AcDbLine
 10
222.4396270186979
 20
281.4476828758628
 30
0.0
 11
222.4396270186979
 21
276.4476828758628
 31
0.0
  0
LINE
  5
175
330
2
100
AcDbEntity
  8
AVERDECKTE
100
AcDbLine
 10
229.9487670186979
 20
223.5976828758628
 30
0.0
 11
229.6441470186979
 21
223.5976828758628
 31
0.0
  0
LINE
  5
176
330
2
100
AcDbEntity
  8
AVERDECKTE
100
AcDbLine
 10
229.9487670186979
 20
214.2976828758628
 30
0.0
 11
229.6441470186979
 21
214.2976828758628
 31
0.0
  0
LINE
  5
177
330
2
100
AcDbEntity
  8
AVERDECKTE
100
AcDbLine
 10
227.248767018698
 20
216.6930628758628
 30
0.0
 11
229.6441470186979
 21
214.2976828758628
 31
0.0
  0
LINE
  5
178
330
2
100
AcDbEntity
  8
AVERDECKTE
100
AcDbLine
 10
227.248767018698
 20
221.2023028758628
 30
0.0
 11
229.6441470186979
 21
223.5976828758628
 31
0.0
  0
LINE
  5
179
330
2
100
AcDbEntity
  8
AVERDECKTE
100
AcDbLine
 10
222.5487670186979
 20
221.4476828758628
 30
0.0
 11
222.4396270186979
 21
221.4476828758628
 31
0.0
  0
LINE
  5
17A
330
2
100
AcDbEntity
  8
AVERDECKTE
100
AcDbLine
 10
222.5487670186979
 20
216.4476828758628
 30
0.0
 11
222.4396270186979
 21
216.4476828758628
 31
0.0
  0
LINE
  5
17B
330
2
100
AcDbEntity
  8
AVERDECKTE
100
AcDbLine
 10
229.6441470186979
 20
223.5976828758628
 30
0.0
 11
229.6441470186979
 21
214.2976828758628
 31
0.0
  0
LINE
  5
17C
330
2
100
AcDbEntity
  8
AVERDECKTE
100
AcDbLine
 10
221.9487670186979
 20
216.9384428758628
 30
0.0
 11
222.4396270186979
 21
216.4476828758628
 31
0.0
  0
LINE
  5
17D
330
2
100
AcDbEntity
  8
AVERDECKTE
100
AcDbLine
 10
221.9487670186979
 20
220.9569228758628
 30
0.0
 11
222.4396270186979
 21
221.4476828758628
 31
0.0
  0
LINE
  5
17E
330
2
100
AcDbEntity
  8
AVERDECKTE
100
AcDbLine
 10
222.4396270186979
 20
221.4476828758628
 30
0.0
 11
222.4396270186979
 21
216.4476828758628
 31
0.0
  0
LINE
  5
17F
330
2
100
AcDbEntity
  8
AVERDECKTE
100
AcDbLine
 10
223.2235752566597
 20
214.9476828758628
 30
0.0
 11
226.5739587807348
 21
214.9476828758628
 31
0.0
  0
LINE
  5
180
330
2
100
AcDbEntity
  8
AVERDECKTE
100
AcDbLine
 10
223.2235752566597
 20
222.9476828758627
 30
0.0
 11
226.5739587807348
 21
222.9476828758627
 31
0.0
  0
LINE
  5
181
330
2
100
AcDbEntity
  8
AVERDECKTE
100
AcDbLine
 10
223.2235752566591
 20
218.9476828758628
 30
0.0
 11
226.5739587807341
 21
218.9476828758628
 31
0.0
  0
LINE
  5
182
330
2
100
AcDbEntity
  8
AVERDECKTE
100
AcDbLine
 10
227.248767018698
 20
222.3976828758627
 30
0.0
 11
226.9312243706437
 21
222.9476828758628
 31
0.0
  0
LINE
  5
183
330
2
100
AcDbEntity
  8
AVERDECKTE
100
AcDbLine
 10
227.248767018698
 20
215.4976828758628
 30
0.0
 11
226.9312243706437
 21
214.9476828758628
 31
0.0
  0
LINE
  5
184
330
2
100
AcDbEntity
  8
AVERDECKTE
100
AcDbLine
 10
222.5487670186979
 20
215.4976828758627
 30
0.0
 11
222.8663096667523
 21
214.9476828758628
 31
0.0
  0
LINE
  5
185
330
2
100
AcDbEntity
  8
AVERDECKTE
100
AcDbLine
 10
222.5487670186979
 20
222.3976828758627
 30
0.0
 11
222.8663096667523
 21
222.9476828758628
 31
0.0
  0
SPLINE
  5
186
330
2
100
AcDbEntity
  8
AVERDECKTE
100
AcDbSpline
210
0.0
220
0.0
230
1.0
 70
    12
 71
     2
 72
     6
 73
     3
 74
     0
 42
0.000000001
 43
0.0000000001
 40
0.0
 40
0.0
 40
0.0
 40
0.4673744552311663
 40
0.4673744552311663
 40
0.4673744552311663
 10
226.5739587807341
 20
218.9476828758628
 30
0.0
 41
1.0
 10
227.2406254474011
 20
220.9476828758628
 30
0.0
 41
1.154700538379251
 10
226.5739587807348
 20
222.9476828758627
 30
0.0
 41
1.0
  0
SPLINE
  5
187
330
2
100
AcDbEntity
  8
AVERDECKTE
100
AcDbSpline
210
0.0
220
0.0
230
1.0
 70
    28
 71
     2
 72
     6
 73
     3
 74
     0
 42
0.000000001
 43
0.0000000001
 40
0.0
 40
0.0
 40
0.0
 40
0.2336872276155839
 40
0.2336872276155839
 40
0.2336872276155839
 10
226.5739587807348
 20
222.9476828758627
 30
0.0
 41
1.0
 10
226.9312243706433
 20
222.9476828758627
 30
0.0
 41
1.077350269189625
 10
226.9312243706437
 20
222.9476828758628
 30
0.0
 41
1.077350269189624
  0
SPLINE
  5
188
330
2
100
AcDbEntity
  8
AVERDECKTE
100
AcDbSpline
210
0.0
220
0.0
230
1.0
 70
    28
 71
     2
 72
     6
 73
     3
 74
     0
 42
0.000000001
 43
0.0000000001
 40
0.2336872276155836
 40
0.2336872276155836
 40
0.2336872276155836
 40
0.4673744552311675
 40
0.4673744552311675
 40
0.4673744552311675
 10
226.9312243706437
 20
214.9476828758628
 30
0.0
 41
1.077350269189625
 10
226.9312243706433
 20
214.9476828758628
 30
0.0
 41
1.077350269189625
 10
226.5739587807348
 20
214.9476828758628
 30
0.0
 41
1.0
  0
SPLINE
  5
189
330
2
100
AcDbEntity
  8
AVERDECKTE
100
AcDbSpline
210
0.0
220
0.0
230
1.0
 70
    12
 71
     2
 72
     6
 73
     3
 74
     0
 42
0.000000001
 43
0.0000000001
 40
0.0
 40
0.0
 40
0.0
 40
0.4673744552311672
 40
0.4673744552311672
 40
0.4673744552311672
 10
226.5739587807348
 20
214.9476828758628
 30
0.0
 41
1.0
 10
227.2406254474012
 20
216.9476828758628
 30
0.0
 41
1.154700538379254
 10
226.5739587807341
 20
218.9476828758628
 30
0.0
 41
1.0
  0
SPLINE
  5
18A
330
2
100
AcDbEntity
  8
AVERDECKTE
100
AcDbSpline
210
0.0
220
0.0
230
1.0
 70
    28
 71
     2
 72
     6
 73
     3
 74
     0
 42
0.000000001
 43
0.0000000001
 40
0.2336872276155819
 40
0.2336872276155819
 40
0.2336872276155819
 40
0.4673744552311656
 40
0.4673744552311656
 40
0.4673744552311656
 10
222.8663096667523
 20
222.9476828758628
 30
0.0
 41
1.077350269189624
 10
222.8663096667519
 20
222.9476828758627
 30
0.0
 41
1.077350269189625
 10
223.2235752566597
 20
222.9476828758627
 30
0.0
 41
1.0
  0
SPLINE
  5
18B
330
2
100
AcDbEntity
  8
AVERDECKTE
100
AcDbSpline
210
0.0
220
0.0
230
1.0
 70
    12
 71
     2
 72
     6
 73
     3
 74
     0
 42
0.000000001
 43
0.0000000001
 40
0.0
 40
0.0
 40
0.0
 40
0.4673744552311663
 40
0.4673744552311663
 40
0.4673744552311663
 10
223.2235752566597
 20
222.9476828758627
 30
0.0
 41
1.0
 10
222.5569085899928
 20
220.9476828758628
 30
0.0
 41
1.154700538379252
 10
223.2235752566591
 20
218.9476828758628
 30
0.0
 41
1.0
  0
SPLINE
  5
18C
330
2
100
AcDbEntity
  8
AVERDECKTE
100
AcDbSpline
210
0.0
220
0.0
230
1.0
 70
    12
 71
     2
 72
     6
 73
     3
 74
     0
 42
0.000000001
 43
0.0000000001
 40
0.0
 40
0.0
 40
0.0
 40
0.4673744552311678
 40
0.4673744552311678
 40
0.4673744552311678
 10
223.2235752566591
 20
218.9476828758628
 30
0.0
 41
1.0
 10
222.5569085899928
 20
216.9476828758628
 30
0.0
 41
1.154700538379248
 10
223.2235752566597
 20
214.9476828758628
 30
0.0
 41
1.0
  0
SPLINE
  5
18D
330
2
100
AcDbEntity
  8
AVERDECKTE
100
AcDbSpline
210
0.0
220
0.0
230
1.0
 70
    28
 71
     2
 72
     6
 73
     3
 74
     0
 42
0.000000001
 43
0.0000000001
 40
0.0
 40
0.0
 40
0.0
 40
0.2336872276155836
 40
0.2336872276155836
 40
0.2336872276155836
 10
223.2235752566597
 20
214.9476828758628
 30
0.0
 41
1.0
 10
222.8663096667519
 20
214.9476828758628
 30
0.0
 41
1.077350269189625
 10
222.8663096667523
 20
214.9476828758628
 30
0.0
 41
1.077350269189625
  0
LINE
  5
18E
330
2
100
AcDbEntity
  8
AVERDECKTE
100
AcDbLine
 10
227.248767018698
 20
215.4976828758628
 30
0.0
 11
227.248767018698
 21
222.3976828758627
 31
0.0
  0
LINE
  5
18F
330
2
100
AcDbEntity
  8
AVERDECKTE
100
AcDbLine
 10
222.5487670186979
 20
222.3976828758627
 30
0.0
 11
222.5487670186979
 21
215.4976828758628
 31
0.0
  0
LINE
  5
190
330
2
100
AcDbEntity
  8
AVERDECKTE
100
AcDbLine
 10
223.2235752566597
 20
274.9476828758628
 30
0.0
 11
226.5739587807348
 21
274.9476828758628
 31
0.0
  0
LINE
  5
191
330
2
100
AcDbEntity
  8
AVERDECKTE
100
AcDbLine
 10
223.2235752566597
 20
282.9476828758627
 30
0.0
 11
226.5739587807348
 21
282.9476828758627
 31
0.0
  0
LINE
  5
192
330
2
100
AcDbEntity
  8
AVERDECKTE
100
AcDbLine
 10
223.2235752566591
 20
278.9476828758628
 30
0.0
 11
226.5739587807341
 21
278.9476828758628
 31
0.0
  0
LINE
  5
193
330
2
100
AcDbEntity
  8
AVERDECKTE
100
AcDbLine
 10
227.248767018698
 20
282.3976828758628
 30
0.0
 11
226.9312243706437
 21
282.9476828758627
 31
0.0
  0
LINE
  5
194
330
2
100
AcDbEntity
  8
AVERDECKTE
100
AcDbLine
 10
227.248767018698
 20
275.4976828758628
 30
0.0
 11
226.9312243706437
 21
274.9476828758628
 31
0.0
  0
LINE
  5
195
330
2
100
AcDbEntity
  8
AVERDECKTE
100
AcDbLine
 10
222.5487670186979
 20
275.4976828758628
 30
0.0
 11
222.8663096667523
 21
274.9476828758628
 31
0.0
  0
LINE
  5
196
330
2
100
AcDbEntity
  8
AVERDECKTE
100
AcDbLine
 10
222.5487670186979
 20
282.3976828758628
 30
0.0
 11
222.8663096667523
 21
282.9476828758627
 31
0.0
  0
SPLINE
  5
197
330
2
100
AcDbEntity
  8
AVERDECKTE
100
AcDbSpline
210
0.0
220
0.0
230
1.0
 70
    12
 71
     2
 72
     6
 73
     3
 74
     0
 42
0.000000001
 43
0.0000000001
 40
0.0
 40
0.0
 40
0.0
 40
0.4673744552311663
 40
0.4673744552311663
 40
0.4673744552311663
 10
226.5739587807341
 20
278.9476828758628
 30
0.0
 41
1.0
 10
227.2406254474011
 20
280.9476828758628
 30
0.0
 41
1.154700538379251
 10
226.5739587807348
 20
282.9476828758627
 30
0.0
 41
1.0
  0
SPLINE
  5
198
330
2
100
AcDbEntity
  8
AVERDECKTE
100
AcDbSpline
210
0.0
220
0.0
230
1.0
 70
    28
 71
     2
 72
     6
 73
     3
 74
     0
 42
0.000000001
 43
0.0000000001
 40
0.0
 40
0.0
 40
0.0
 40
0.2336872276155839
 40
0.2336872276155839
 40
0.2336872276155839
 10
226.5739587807348
 20
282.9476828758627
 30
0.0
 41
1.0
 10
226.9312243706433
 20
282.9476828758629
 30
0.0
 41
1.077350269189625
 10
226.9312243706437
 20
282.9476828758629
 30
0.0
 41
1.077350269189624
  0
SPLINE
  5
199
330
2
100
AcDbEntity
  8
AVERDECKTE
100
AcDbSpline
210
0.0
220
0.0
230
1.0
 70
    28
 71
     2
 72
     6
 73
     3
 74
     0
 42
0.000000001
 43
0.0000000001
 40
0.2336872276155836
 40
0.2336872276155836
 40
0.2336872276155836
 40
0.4673744552311675
 40
0.4673744552311675
 40
0.4673744552311675
 10
226.9312243706437
 20
274.9476828758628
 30
0.0
 41
1.077350269189625
 10
226.9312243706433
 20
274.9476828758628
 30
0.0
 41
1.077350269189625
 10
226.5739587807348
 20
274.9476828758628
 30
0.0
 41
1.0
  0
SPLINE
  5
19A
330
2
100
AcDbEntity
  8
AVERDECKTE
100
AcDbSpline
210
0.0
220
0.0
230
1.0
 70
    12
 71
     2
 72
     6
 73
     3
 74
     0
 42
0.000000001
 43
0.0000000001
 40
0.0
 40
0.0
 40
0.0
 40
0.4673744552311672
 40
0.4673744552311672
 40
0.4673744552311672
 10
226.5739587807348
 20
274.9476828758628
 30
0.0
 41
1.0
 10
227.2406254474012
 20
276.9476828758628
 30
0.0
 41
1.154700538379254
 10
226.5739587807341
 20
278.9476828758628
 30
0.0
 41
1.0
  0
SPLINE
  5
19B
330
2
100
AcDbEntity
  8
AVERDECKTE
100
AcDbSpline
210
0.0
220
0.0
230
1.0
 70
    28
 71
     2
 72
     6
 73
     3
 74
     0
 42
0.000000001
 43
0.0000000001
 40
0.2336872276155819
 40
0.2336872276155819
 40
0.2336872276155819
 40
0.4673744552311656
 40
0.4673744552311656
 40
0.4673744552311656
 10
222.8663096667523
 20
282.9476828758629
 30
0.0
 41
1.077350269189624
 10
222.8663096667519
 20
282.9476828758629
 30
0.0
 41
1.077350269189625
 10
223.2235752566597
 20
282.9476828758627
 30
0.0
 41
1.0
  0
SPLINE
  5
19C
330
2
100
AcDbEntity
  8
AVERDECKTE
100
AcDbSpline
210
0.0
220
0.0
230
1.0
 70
    12
 71
     2
 72
     6
 73
     3
 74
     0
 42
0.000000001
 43
0.0000000001
 40
0.0
 40
0.0
 40
0.0
 40
0.4673744552311663
 40
0.4673744552311663
 40
0.4673744552311663
 10
223.2235752566597
 20
282.9476828758627
 30
0.0
 41
1.0
 10
222.5569085899928
 20
280.9476828758628
 30
0.0
 41
1.154700538379252
 10
223.2235752566591
 20
278.9476828758628
 30
0.0
 41
1.0
  0
SPLINE
  5
19D
330
2
100
AcDbEntity
  8
AVERDECKTE
100
AcDbSpline
210
0.0
220
0.0
230
1.0
 70
    12
 71
     2
 72
     6
 73
     3
 74
     0
 42
0.000000001
 43
0.0000000001
 40
0.0
 40
0.0
 40
0.0
 40
0.4673744552311678
 40
0.4673744552311678
 40
0.4673744552311678
 10
223.2235752566591
 20
278.9476828758628
 30
0.0
 41
1.0
 10
222.5569085899928
 20
276.9476828758628
 30
0.0
 41
1.154700538379248
 10
223.2235752566597
 20
274.9476828758628
 30
0.0
 41
1.0
  0
SPLINE
  5
19E
330
2
100
AcDbEntity
  8
AVERDECKTE
100
AcDbSpline
210
0.0
220
0.0
230
1.0
 70
    28
 71
     2
 72
     6
 73
     3
 74
     0
 42
0.000000001
 43
0.0000000001
 40
0.0
 40
0.0
 40
0.0
 40
0.2336872276155836
 40
0.2336872276155836
 40
0.2336872276155836
 10
223.2235752566597
 20
274.9476828758628
 30
0.0
 41
1.0
 10
222.8663096667519
 20
274.9476828758628
 30
0.0
 41
1.077350269189625
 10
222.8663096667523
 20
274.9476828758628
 30
0.0
 41
1.077350269189625
  0
LINE
  5
19F
330
2
100
AcDbEntity
  8
AVERDECKTE
100
AcDbLine
 10
227.248767018698
 20
275.4976828758628
 30
0.0
 11
227.248767018698
 21
282.3976828758628
 31
0.0
  0
LINE
  5
1A0
330
2
100
AcDbEntity
  8
AVERDECKTE
100
AcDbLine
 10
222.5487670186979
 20
282.3976828758628
 30
0.0
 11
222.5487670186979
 21
275.4976828758628
 31
0.0
  0
LINE
  5
1A1
330
2
100
AcDbEntity
  8
UMRISS05
100
AcDbLine
 10
221.4987670186949
 20
213.5476828758629
 30
0.0
 11
221.4987670186948
 21
284.5476828758629
 31
0.0
  0
LINE
  5
1A2
330
2
100
AcDbEntity
  8
UMRISS05
100
AcDbLine
 10
227.8987670186948
 20
213.5476828758629
 30
0.0
 11
221.4987670186949
 21
213.5476828758629
 31
0.0
  0
LINE
  5
1A3
330
2
100
AcDbEntity
  8
UMRISS05
100
AcDbLine
 10
227.8987670186948
 20
225.0476828758629
 30
0.0
 11
227.8987670186948
 21
213.5476828758629
 31
0.0
  0
LINE
  5
1A4
330
2
100
AcDbEntity
  8
UMRISS05
100
AcDbLine
 10
229.8987670186948
 20
225.0476828758629
 30
0.0
 11
227.8987670186948
 21
225.0476828758629
 31
0.0
  0
LINE
  5
1A5
330
2
100
AcDbEntity
  8
UMRISS05
100
AcDbLine
 10
229.8987670186948
 20
273.0476828758628
 30
0.0
 11
229.8987670186948
 21
225.0476828758629
 31
0.0
  0
LINE
  5
1A6
330
2
100
AcDbEntity
  8
UMRISS05
100
AcDbLine
 10
227.8987670186948
 20
273.0476828758629
 30
0.0
 11
229.8987670186948
 21
273.0476828758628
 31
0.0
  0
LINE
  5
1A7
330
2
100
AcDbEntity
  8
UMRISS05
100
AcDbLine
 10
227.8987670186948
 20
284.5476828758629
 30
0.0
 11
227.8987670186948
 21
273.0476828758629
 31
0.0
  0
LINE
  5
1A8
330
2
100
AcDbEntity
  8
UMRISS05
100
AcDbLine
 10
221.4987670186948
 20
284.5476828758629
 30
0.0
 11
227.8987670186948
 21
284.5476828758629
 31
0.0
  0
LINE
  5
1A9
330
2
100
AcDbEntity
  8
UMRISS05
100
AcDbLine
 10
229.9487670186958
 20
251.16494830102
 30
0.0
 11
229.9487670186958
 21
272.6476828758628
 31
0.0
  0
ARC
  5
1AA
330
2
100
AcDbEntity
  8
AVERDECKTE
100
AcDbCircle
 10
225.448767018697
 20
274.4476828758628
 30
0.0
 40
1.499999999999997
100
AcDbArc
 50
270.0
 51
0.0
  0
LINE
  5
1AB
330
2
100
AcDbEntity
  8
AVERDECKTE
100
AcDbLine
 10
225.448767018697
 20
272.9476828758628
 30
0.0
 11
221.948767018697
 21
272.9476828758628
 31
0.0
  0
ARC
  5
1AC
330
2
100
AcDbEntity
  8
AVERDECKTE
100
AcDbCircle
 10
225.448767018697
 20
223.447682875863
 30
0.0
 40
1.499999999999996
100
AcDbArc
 50
0.0
 51
90.0
  0
LINE
  5
1AD
330
2
100
AcDbEntity
  8
AVERDECKTE
100
AcDbLine
 10
221.948767018697
 20
224.9476828758631
 30
0.0
 11
225.448767018697
 21
224.9476828758631
 31
0.0
  0
LINE
  5
1AE
330
2
100
AcDbEntity
  8
AVERDECKTE
100
AcDbLine
 10
226.948767018697
 20
223.447682875863
 30
0.0
 11
226.948767018697
 21
214.0816574720787
 31
0.0
  0
LINE
  5
1AF
330
2
100
AcDbEntity
  8
AVERDECKTE
100
AcDbLine
 10
226.948767018697
 20
283.8137082796473
 30
0.0
 11
226.948767018697
 21
274.4476828758628
 31
0.0
  0
LINE
  5
1B0
330
2
100
AcDbEntity
  8
AVERDECKTE
100
AcDbLine
 10
223.948767018697
 20
269.9476828758628
 30
0.0
 11
229.448767018697
 21
269.9476828758628
 31
0.0
  0
ARC
  5
1B1
330
2
100
AcDbEntity
  8
AVERDECKTE
100
AcDbCircle
 10
223.948767018697
 20
268.9476828758629
 30
0.0
 40
0.9999999999999991
100
AcDbArc
 50
90.0
 51
180.0
  0
LINE
  5
1B2
330
2
100
AcDbEntity
  8
AVERDECKTE
100
AcDbLine
 10
222.9487670186957
 20
246.8719281794301
 30
0.0
 11
222.9487670186965
 21
256.8218025505123
 31
0.0
  0
LINE
  5
1B3
330
2
100
AcDbEntity
  8
AVERDECKTE
100
AcDbLine
 10
222.9487670186965
 20
256.8218025505123
 30
0.0
 11
222.9487670186965
 21
266.9476828758629
 31
0.0
  0
LINE
  5
1B4
330
2
100
AcDbEntity
  8
AVERDECKTE
100
AcDbLine
 10
222.948767018697
 20
268.9476828758629
 30
0.0
 11
222.9487670186965
 21
266.9476828758629
 31
0.0
  0
SPLINE
  5
1B5
330
2
100
AcDbEntity
  8
UMRISS05
100
AcDbSpline
210
0.0
220
0.0
230
1.0
 70
     8
 71
     3
 72
    12
 73
     8
 74
     0
 42
0.000000001
 43
0.0000000001
 40
0.0938779158852285
 40
0.0938779158852285
 40
0.0938779158852285
 40
0.0938779158852285
 40
0.1023308802209409
 40
0.1023308802209409
 40
0.1323047453175167
 40
0.1323047453175167
 40
0.1498693254828793
 40
0.1498693254828793
 40
0.1498693254828793
 40
0.1498693254828793
 10
229.8987670186957
 20
250.5535891563474
 30
0.0
 10
229.9043570751765
 20
250.5851561712978
 30
0.0
 10
229.9093501158699
 20
250.6165618873783
 30
0.0
 10
229.9298312631801
 20
250.7588116890159
 30
0.0
 10
229.9394091131112
 20
250.8682369951203
 30
0.0
 10
229.947402369471
 20
251.0397298853764
 30
0.0
 10
229.9487670186958
 20
251.1026223714009
 30
0.0
 10
229.9487670186958
 20
251.16494830102
 30
0.0
  0
ARC
  5
1B6
330
2
100
AcDbEntity
  8
UMRISS05
100
AcDbCircle
 10
229.4487670186955
 20
229.447682875863
 30
0.0
 40
0.5000000000000174
100
AcDbArc
 50
0.0
 51
25.84193276315974
  0
SPLINE
  5
1B7
330
2
100
AcDbEntity
  8
AVERDECKTE
100
AcDbSpline
210
0.0
220
0.0
230
1.0
 70
     8
 71
     3
 72
    20
 73
    16
 74
     0
 42
0.000000001
 43
0.0000000001
 40
0.0
 40
0.0
 40
0.0
 40
0.0
 40
0.1041336460282929
 40
0.1041336460282929
 40
0.2082672920565858
 40
0.2082672920565858
 40
0.3124009380848787
 40
0.3124009380848787
 40
0.3640126012625169
 40
0.3640126012625169
 40
0.4403761523165776
 40
0.4403761523165776
 40
0.4924237589611434
 40
0.4924237589611434
 40
0.5206682301414645
 40
0.5206682301414645
 40
0.5206682301414645
 40
0.5206682301414645
 10
229.9487670187
 20
253.0641180826612
 30
0.0
 10
229.9487670187001
 20
252.724380347513
 30
0.0
 10
229.9412027523274
 20
252.382582460786
 30
0.0
 10
229.8919249020579
 20
251.7025538571568
 30
0.0
 10
229.8506088250076
 20
251.3643040724513
 30
0.0
 10
229.7031792799778
 20
250.69519713806
 30
0.0
 10
229.5969981528876
 20
250.3603435213805
 30
0.0
 10
229.3438907502356
 20
249.8798662468655
 30
0.0
 10
229.2448204830072
 20
249.7250373565027
 30
0.0
 10
228.9455124776206
 20
249.3591423933734
 30
0.0
 10
228.7204759691247
 20
249.1594528270406
 30
0.0
 10
228.2538752558146
 20
248.9086978688467
 30
0.0
 10
228.0433164032952
 20
248.8327116782103
 30
0.0
 10
227.69743346643
 20
248.7704725958637
 30
0.0
 10
227.5725054475089
 20
248.7593095172735
 30
0.0
 10
227.4487670187006
 20
248.7593095172735
 30
0.0
  0
LINE
  5
1B8
330
2
100
AcDbEntity
  8
AVERDECKTE
100
AcDbLine
 10
227.4487670187006
 20
248.7593095172735
 30
0.0
 11
223.9487670187007
 21
248.7593095172735
 31
0.0
  0
SPLINE
  5
1B9
330
2
100
AcDbEntity
  8
AVERDECKTE
100
AcDbSpline
210
0.0
220
0.0
230
1.0
 70
     8
 71
     3
 72
    18
 73
    14
 74
     0
 42
0.000000001
 43
0.0000000001
 40
0.0
 40
0.0
 40
0.0
 40
0.0
 40
0.0584181276479688
 40
0.0584181276479688
 40
0.1168362552959376
 40
0.1168362552959376
 40
0.1752543829439064
 40
0.1752543829439064
 40
0.2336725105918752
 40
0.2336725105918752
 40
0.2746248693533896
 40
0.2746248693533896
 40
0.292090638239844
 40
0.292090638239844
 40
0.292090638239844
 40
0.292090638239844
 10
222.9487670187006
 20
247.0373885292648
 30
0.0
 10
222.9487670187006
 20
247.1983168361977
 30
0.0
 10
222.9651969352821
 20
247.3623368035004
 30
0.0
 10
223.0297279965549
 20
247.6830994083381
 30
0.0
 10
223.0775927266568
 20
247.8393431991134
 30
0.0
 10
223.2022843952627
 20
248.1323078544619
 30
0.0
 10
223.2803360646217
 20
248.2708415488537
 30
0.0
 10
223.4587563957693
 20
248.5062277595579
 30
0.0
 10
223.5608644905301
 20
248.6040678633795
 30
0.0
 10
223.7327362789706
 20
248.7119683240115
 30
0.0
 10
223.8016970183766
 20
248.739388142974
 30
0.0
 10
223.8945020754522
 20
248.756792398491
 30
0.0
 10
223.9217220456315
 20
248.7593095172735
 30
0.0
 10
223.9487670187007
 20
248.7593095172735
 30
0.0
  0
SPLINE
  5
1BA
330
2
100
AcDbEntity
  8
AVERDECKTE
100
AcDbSpline
210
0.0
220
0.0
230
1.0
 70
     8
 71
     3
 72
    22
 73
    18
 74
     0
 42
0.000000001
 43
0.0000000001
 40
0.0000000000000001
 40
0.0000000000000001
 40
0.0000000000000001
 40
0.0000000000000001
 40
0.0199966939416256
 40
0.0199966939416256
 40
0.0426302907298599
 40
0.0426302907298599
 40
0.0744373865625722
 40
0.0744373865625722
 40
0.1275465347901327
 40
0.1275465347901327
 40
0.2006944863748961
 40
0.2006944863748961
 40
0.2738424379596594
 40
0.2738424379596594
 40
0.3469903895444228
 40
0.3469903895444228
 40
0.365739757923817
 40
0.365739757923817
 40
0.365739757923817
 40
0.365739757923817
 10
223.9487670186957
 20
249.4479390080786
 30
0.0
 10
223.9354447055569
 20
249.4479390080786
 30
0.0
 10
223.9214779645976
 20
249.4461135482236
 30
0.0
 10
223.8810040742562
 20
249.4332268202991
 30
0.0
 10
223.8533862083518
 20
249.4204369187164
 30
0.0
 10
223.7769462475821
 20
249.3702229876178
 30
0.0
 10
223.7260958044817
 20
249.3259297141247
 30
0.0
 10
223.5917724850375
 20
249.1792132121176
 30
0.0
 10
223.5102550872792
 20
249.060157606722
 30
0.0
 10
223.3383390738584
 20
248.7517394412773
 30
0.0
 10
223.2537670102125
 20
248.5504994932903
 30
0.0
 10
223.1162518294706
 20
248.1357854703367
 30
0.0
 10
223.0625375941013
 20
247.9205740790968
 30
0.0
 10
222.9844168216608
 20
247.4829928055811
 30
0.0
 10
222.9602317975818
 20
247.2610508514423
 30
0.0
 10
222.9498388175775
 20
246.9843923377528
 30
0.0
 10
222.9487670186953
 20
246.9280605477218
 30
0.0
 10
222.9487670186957
 20
246.8719281794255
 30
0.0
  0
LINE
  5
1BB
330
2
100
AcDbEntity
  8
AVERDECKTE
100
AcDbLine
 10
223.9487670186957
 20
249.4479390080786
 30
0.0
 11
228.9487670186955
 21
249.4479390080786
 31
0.0
  0
SPLINE
  5
1BC
330
2
100
AcDbEntity
  8
AVERDECKTE
100
AcDbSpline
210
0.0
220
0.0
230
1.0
 70
     8
 71
     3
 72
    18
 73
    14
 74
     0
 42
0.000000001
 43
0.0000000001
 40
0.0
 40
0.0
 40
0.0
 40
0.0
 40
0.0072572562090771
 40
0.0072572562090771
 40
0.0153553029308351
 40
0.0153553029308351
 40
0.0261839517494377
 40
0.0261839517494377
 40
0.0429953746896634
 40
0.0429953746896634
 40
0.072357015124365
 40
0.072357015124365
 40
0.0938779158852285
 40
0.0938779158852285
 40
0.0938779158852285
 40
0.0938779158852285
 10
228.9487670186955
 20
249.4479390080786
 30
0.0
 10
229.0257466440207
 20
249.4479390080786
 30
0.0
 10
229.1025477158644
 20
249.4608434480446
 30
0.0
 10
229.2462599436403
 20
249.5061525892915
 30
0.0
 10
229.3111034298048
 20
249.539612607247
 30
0.0
 10
229.4389183387381
 20
249.6234289218896
 30
0.0
 10
229.4946222318622
 20
249.6754863178282
 30
0.0
 10
229.6106902631834
 20
249.803122767501
 30
0.0
 10
229.6591900977559
 20
249.8784151507184
 30
0.0
 10
229.768648545553
 20
250.0776606276222
 30
0.0
 10
229.810219114895
 20
250.1950092677425
 30
0.0
 10
229.8664331083071
 20
250.391806979393
 30
0.0
 10
229.8845349639996
 20
250.4732208300322
 30
0.0
 10
229.8987670186957
 20
250.5535891563474
 30
0.0
  0
ARC
  5
1BD
330
2
100
AcDbEntity
  8
AVERDECKTE
100
AcDbCircle
 10
229.4487670186957
 20
229.447682875863
 30
0.0
 40
0.5000000000000018
100
AcDbArc
 50
25.84193276316709
 51
90.0
  0
LINE
  5
1BE
330
2
100
AcDbEntity
  8
AVERDECKTE
100
AcDbLine
 10
229.4487670186957
 20
229.947682875863
 30
0.0
 11
223.9487670186957
 21
229.947682875863
 31
0.0
  0
ARC
  5
1BF
330
2
100
AcDbEntity
  8
AVERDECKTE
100
AcDbCircle
 10
223.9487670186957
 20
230.947682875863
 30
0.0
 40
0.9999999999999902
100
AcDbArc
 50
180.0
 51
270.0
  0
LINE
  5
1C0
330
2
100
AcDbEntity
  8
AVERDECKTE
100
AcDbLine
 10
222.9487670186957
 20
230.947682875863
 30
0.0
 11
222.9487670186957
 21
246.8719281794278
 31
0.0
  0
ARC
  5
1C1
330
2
100
AcDbEntity
  8
AVERDECKTE
100
AcDbCircle
 10
229.448767018697
 20
270.4476828758628
 30
0.0
 40
0.4999999999999984
100
AcDbArc
 50
270.0
 51
0.0
  0
LINE
  5
1C2
330
2
100
AcDbEntity
  8
UMRISS05
100
AcDbLine
 10
229.9487670186955
 20
225.2476828758631
 30
0.0
 11
229.9487670186955
 21
229.447682875863
 31
0.0
  0
ARC
  5
1C3
330
2
100
AcDbEntity
  8
UMRISS05
100
AcDbCircle
 10
229.6487670186957
 20
272.6476828758628
 30
0.0
 40
0.2999999999999996
100
AcDbArc
 50
0.0
 51
33.55730976191914
  0
ARC
  5
1C4
330
2
100
AcDbEntity
  8
Verdeckte Kanten(MSL)
 48
0.5628011226654053
100
AcDbCircle
 10
229.6487670186957
 20
272.6476828758628
 30
0.0
 40
0.2999999999999987
100
AcDbArc
 50
33.55730976191914
 51
90.0
  0
ARC
  5
1C7
330
2
100
AcDbEntity
  8
AVERDECKTE
100
AcDbCircle
 10
227.7487670186955
 20
273.2476828758628
 30
0.0
 40
0.3000000000000009
100
AcDbArc
 50
180.0
 51
270.0
  0
LINE
  5
1C8
330
2
100
AcDbEntity
  8
Verdeckte Kanten(MSL)
 48
2.094223260879516
100
AcDbLine
 10
228.9487670186955
 20
272.9476828758628
 30
0.0
 11
229.6487670186957
 21
272.9476828758628
 31
0.0
  0
LINE
  5
1C9
330
2
100
AcDbEntity
  8
Verdeckte Kanten(MSL)
 48
2.285535812377929
100
AcDbLine
 10
228.9487670186955
 20
272.9476828758628
 30
0.0
 11
227.7487670186955
 21
272.9476828758628
 31
0.0
  0
SPLINE
  5
1CA
330
2
100
AcDbEntity
  8
AVERDECKTE
100
AcDbSpline
210
0.0
220
0.0
230
1.0
 70
    24
 71
     3
 72
    10
 73
     6
 74
     0
 42
0.000000001
 43
0.0000000001
 40
0.1516596720115528
 40
0.1516596720115528
 40
0.1516596720115528
 40
0.1516596720115528
 40
0.1745986399803537
 40
0.1745986399803537
 40
0.2098674857202263
 40
0.2098674857202263
 40
0.2098674857202263
 40
0.2098674857202263
 10
227.2291517764294
 20
272.9476828758628
 30
0.0
 10
227.305615002992
 20
272.9476828758628
 30
0.0
 10
227.3933478767548
 20
272.9476828758628
 30
0.0
 10
227.5642000370388
 20
272.9476828758628
 30
0.0
 10
227.6656375520758
 20
272.9476828758628
 30
0.0
 10
227.7487670186999
 20
272.9476828758628
 30
0.0
  0
LINE
  5
1CB
330
2
100
AcDbEntity
  8
AVERDECKTE
100
AcDbLine
 10
227.2291517764294
 20
272.9476828758628
 30
0.0
 11
225.4487670187
 21
272.9476828758628
 31
0.0
  0
LINE
  5
1CC
330
2
100
AcDbEntity
  8
AVERDECKTE
100
AcDbLine
 10
227.2291517764294
 20
224.9476828758631
 30
0.0
 11
225.4487670187
 21
224.9476828758631
 31
0.0
  0
ARC
  5
1CD
330
2
100
AcDbEntity
  8
Verdeckte Kanten(MSL)
 48
0.0822069570422173
100
AcDbCircle
 10
229.6487670186956
 20
225.2476828758631
 30
0.0
 40
0.3000000000000162
100
AcDbArc
 50
318.1896851042159
 51
326.4426902380837
  0
LINE
  5
1CE
330
2
100
AcDbEntity
  8
AVERDECKTE
100
AcDbLine
 10
227.4487670186955
 20
214.9476828758631
 30
0.0
 11
227.4487670186955
 21
224.647682875863
 31
0.0
  0
ARC
  5
1CF
330
2
100
AcDbEntity
  8
AVERDECKTE
100
AcDbCircle
 10
226.4487670186956
 20
214.9476828758631
 30
0.0
 40
0.9999999999999946
100
AcDbArc
 50
270.0
 51
0.0
  0
LINE
  5
1D0
330
2
100
AcDbEntity
  8
AVERDECKTE
100
AcDbLine
 10
222.9487670186955
 20
213.9476828758631
 30
0.0
 11
226.4487670186956
 21
213.9476828758631
 31
0.0
  0
ARC
  5
1D1
330
2
100
AcDbEntity
  8
AVERDECKTE
100
AcDbCircle
 10
222.9487670186955
 20
214.9476828758631
 30
0.0
 40
0.9999999999999943
100
AcDbArc
 50
180.0
 51
270.0
  0
ARC
  5
1D2
330
2
100
AcDbEntity
  8
AVERDECKTE
100
AcDbCircle
 10
222.9487670186955
 20
282.9476828758627
 30
0.0
 40
1.000000000000001
100
AcDbArc
 50
90.0
 51
180.0
  0
LINE
  5
1D3
330
2
100
AcDbEntity
  8
AVERDECKTE
100
AcDbLine
 10
226.4487670186956
 20
283.9476828758628
 30
0.0
 11
222.9487670186955
 21
283.9476828758628
 31
0.0
  0
ARC
  5
1D4
330
2
100
AcDbEntity
  8
AVERDECKTE
100
AcDbCircle
 10
226.4487670186956
 20
282.9476828758627
 30
0.0
 40
0.9999999999999968
100
AcDbArc
 50
0.0
 51
90.0
  0
ARC
  5
1D5
330
2
100
AcDbEntity
  8
AVERDECKTE
100
AcDbCircle
 10
227.7487670186955
 20
224.647682875863
 30
0.0
 40
0.2999999999999987
100
AcDbArc
 50
90.0
 51
180.0
  0
LINE
  5
1D6
330
2
100
AcDbEntity
  8
AVERDECKTE
100
AcDbLine
 10
221.9487670186956
 20
282.9476828758627
 30
0.0
 11
221.9487670186956
 21
214.9476828758631
 31
0.0
  0
LINE
  5
1D7
330
2
100
AcDbEntity
  8
AVERDECKTE
100
AcDbLine
 10
227.4487670186955
 20
273.2476828758628
 30
0.0
 11
227.4487670186955
 21
282.9476828758627
 31
0.0
  0
SPLINE
  5
1D8
330
2
100
AcDbEntity
  8
AVERDECKTE
100
AcDbSpline
210
0.0
220
0.0
230
1.0
 70
    24
 71
     3
 72
    10
 73
     6
 74
     0
 42
0.000000001
 43
0.0000000001
 40
0.0
 40
0.0
 40
0.0
 40
0.0
 40
0.0352688457398727
 40
0.0352688457398727
 40
0.0582078137086736
 40
0.0582078137086736
 40
0.0582078137086736
 40
0.0582078137086736
 10
227.7487670186999
 20
224.9476828758631
 30
0.0
 10
227.6656375520758
 20
224.9476828758631
 30
0.0
 10
227.5642000370388
 20
224.9476828758631
 30
0.0
 10
227.3933478767548
 20
224.9476828758631
 30
0.0
 10
227.305615002992
 20
224.9476828758631
 30
0.0
 10
227.2291517764294
 20
224.9476828758631
 30
0.0
  0
LINE
  5
1D9
330
2
100
AcDbEntity
  8
Verdeckte Kanten(MSL)
 48
0.2856044769287109
100
AcDbLine
 10
227.7487670186955
 20
224.9476828758631
 30
0.0
 11
227.8987670186955
 21
224.9476828758631
 31
0.0
  0
ARC
  5
1DA
330
2
100
AcDbEntity
  8
UMRISS05
100
AcDbCircle
 10
229.6487670186956
 20
225.2476828758631
 30
0.0
 40
0.3000000000000033
100
AcDbArc
 50
326.442690238083
 51
0.0
  0
ARC
  5
1DB
330
2
100
AcDbEntity
  8
UMRISS05
100
AcDbCircle
 10
229.6487670186956
 20
225.2476828758631
 30
0.0
 40
0.3000000000000064
100
AcDbArc
 50
270.0
 51
318.1896851042159
  0
LINE
  5
1DC
330
2
100
AcDbEntity
  8
UMRISS05
100
AcDbLine
 10
227.8987670186955
 20
224.9476828758631
 30
0.0
 11
229.4487670186955
 21
224.9476828758631
 31
0.0
  0
LINE
  5
1DD
330
2
100
AcDbEntity
  8
UMRISS05
100
AcDbLine
 10
229.6487670186956
 20
224.9476828758631
 30
0.0
 11
229.4487670186955
 21
224.9476828758631
 31
0.0
  0
ARC
  5
1DE
330
2
100
AcDbEntity
  8
AVERDECKTE
100
AcDbCircle
 10
222.2487670186999
 20
272.6476828758628
 30
0.0
 40
0.2999999999999995
100
AcDbArc
 50
89.99999999996743
 51
180.0
  0
ARC
  5
1DF
330
2
100
AcDbEntity
  8
AVERDECKTE
100
AcDbCircle
 10
222.2487670186999
 20
225.2476828758631
 30
0.0
 40
0.2999999999999995
100
AcDbArc
 50
180.0
 51
270.0000000000326
  0
LINE
  5
1E0
330
2
100
AcDbEntity
  8
AVERDECKTE
100
AcDbLine
 10
219.9487670186979
 20
276.1976828758628
 30
0.0
 11
221.4487670186979
 21
276.1976828758628
 31
0.0
  0
LINE
  5
1E1
330
2
100
AcDbEntity
  8
AVERDECKTE
100
AcDbLine
 10
219.9487670186979
 20
281.6976828758628
 30
0.0
 11
221.4487670186979
 21
281.6976828758628
 31
0.0
  0
LINE
  5
1E2
330
2
100
AcDbEntity
  8
AVERDECKTE
100
AcDbLine
 10
219.9487670186979
 20
216.1976828758628
 30
0.0
 11
221.4487670186979
 21
216.1976828758628
 31
0.0
  0
LINE
  5
1E3
330
2
100
AcDbEntity
  8
AVERDECKTE
100
AcDbLine
 10
219.9487670186979
 20
221.6976828758628
 30
0.0
 11
221.4487670186979
 21
221.6976828758628
 31
0.0
  0
LINE
  5
1E4
330
2
100
AcDbEntity
  8
AVERDECKTE
100
AcDbLine
 10
219.9487670186978
 20
393.6976828758628
 30
0.0
 11
221.4487670186978
 21
393.6976828758628
 31
0.0
  0
LINE
  5
1E5
330
2
100
AcDbEntity
  8
AVERDECKTE
100
AcDbLine
 10
219.9487670186978
 20
399.1976828758629
 30
0.0
 11
221.4487670186978
 21
399.1976828758629
 31
0.0
  0
LINE
  5
1E6
330
2
100
AcDbEntity
  8
AVERDECKTE
100
AcDbLine
 10
219.9487670186978
 20
201.6976828758628
 30
0.0
 11
221.4487670186978
 21
201.6976828758628
 31
0.0
  0
LINE
  5
1E7
330
2
100
AcDbEntity
  8
AVERDECKTE
100
AcDbLine
 10
219.9487670186978
 20
207.1976828758628
 30
0.0
 11
221.4487670186978
 21
207.1976828758628
 31
0.0
  0
LINE
  5
1E8
330
2
100
AcDbEntity
  8
AVERDECKTE
100
AcDbLine
 10
219.9487670186978
 20
358.6976828758628
 30
0.0
 11
221.4487670186978
 21
358.6976828758628
 31
0.0
  0
LINE
  5
1E9
330
2
100
AcDbEntity
  8
AVERDECKTE
100
AcDbLine
 10
219.9487670186978
 20
364.1976828758629
 30
0.0
 11
221.4487670186978
 21
364.1976828758629
 31
0.0
  0
LINE
  5
1EA
330
2
100
AcDbEntity
  8
AVERDECKTE
100
AcDbLine
 10
228.4487670186978
 20
200.4476828758628
 30
0.0
 11
228.9487670186978
 21
200.4476828758628
 31
0.0
  0
LINE
  5
1EB
330
2
100
AcDbEntity
  8
AVERDECKTE
100
AcDbLine
 10
228.4487670186978
 20
208.4476828758628
 30
0.0
 11
228.9487670186978
 21
208.4476828758628
 31
0.0
  0
LINE
  5
1EC
330
2
100
AcDbEntity
  8
AVERDECKTE
100
AcDbLine
 10
228.4487670186978
 20
357.4476828758628
 30
0.0
 11
228.9487670186978
 21
357.4476828758628
 31
0.0
  0
LINE
  5
1ED
330
2
100
AcDbEntity
  8
AVERDECKTE
100
AcDbLine
 10
228.4487670186978
 20
365.4476828758629
 30
0.0
 11
228.9487670186978
 21
365.4476828758629
 31
0.0
  0
LINE
  5
1EE
330
2
100
AcDbEntity
  8
AVERDECKTE
100
AcDbLine
 10
228.4487670186978
 20
392.4476828758628
 30
0.0
 11
228.9487670186978
 21
392.4476828758628
 31
0.0
  0
LINE
  5
1EF
330
2
100
AcDbEntity
  8
AVERDECKTE
100
AcDbLine
 10
228.4487670186978
 20
400.4476828758629
 30
0.0
 11
228.9487670186978
 21
400.4476828758629
 31
0.0
  0
LINE
  5
1F0
330
2
100
AcDbEntity
  8
AVERDECKTE
100
AcDbLine
 10
221.4487670186973
 20
388.9476828758629
 30
0.0
 11
219.9487670186972
 21
388.9476828758629
 31
0.0
  0
LINE
  5
1F1
330
2
100
AcDbEntity
  8
AVERDECKTE
100
AcDbLine
 10
221.4487670186973
 20
368.9476828758628
 30
0.0
 11
219.9487670186972
 21
368.9476828758628
 31
0.0
  0
LINE
  5
1F2
330
2
100
AcDbEntity
  8
AVERDECKTE
100
AcDbLine
 10
229.9487670186973
 20
368.9476828758628
 30
0.0
 11
228.4487670186972
 21
368.9476828758628
 31
0.0
  0
LINE
  5
1F3
330
2
100
AcDbEntity
  8
AVERDECKTE
100
AcDbLine
 10
229.9487670186973
 20
388.9476828758629
 30
0.0
 11
228.4487670186972
 21
388.9476828758629
 31
0.0
  0
LINE
  5
1F4
330
2
100
AcDbEntity
  8
AVERDECKTE
100
AcDbLine
 10
227.8987670187003
 20
224.7976828758628
 30
0.0
 11
221.4987670187004
 21
224.7976828758628
 31
0.0
  0
LINE
  5
1F5
330
2
100
AcDbEntity
  8
AVERDECKTE
100
AcDbLine
 10
221.4987670187004
 20
273.0976828758628
 30
0.0
 11
227.8987670187003
 21
273.0976828758628
 31
0.0
  0
LINE
  5
1F6
330
2
100
AcDbEntity
  8
Sichtbare Kanten(MSL)
100
AcDbLine
 10
221.4987670187004
 20
224.7976828758628
 30
0.0
 11
221.4487670187003
 21
224.7976828758628
 31
0.0
  0
LINE
  5
1F8
330
2
100
AcDbEntity
  8
UMRISS05
100
AcDbLine
 10
221.4487670186958
 20
398.7115291603971
 30
0.0
 11
221.4487670186958
 21
394.1838365913285
 31
0.0
  0
LINE
  5
1F9
330
2
100
AcDbEntity
  8
UMRISS05
100
AcDbLine
 10
221.4487670186958
 20
362.7115291603971
 30
0.0
 11
221.4487670186958
 21
358.1838365913285
 31
0.0
  0
ELLIPSE
  5
1FA
330
2
100
AcDbEntity
  8
UMRISS05
100
AcDbEllipse
 10
219.9487670186949
 20
360.4476828758629
 30
0.0
 11
-3.535533905932737
 21
0.0
 31
0.0
210
0.0
220
0.0
230
1.0
 40
0.7071067811865476
 41
1.857552879006442
 42
4.425632428173142
  0
ELLIPSE
  5
1FB
330
2
100
AcDbEntity
  8
UMRISS05
100
AcDbEllipse
 10
219.9487670186949
 20
396.4476828758629
 30
0.0
 11
-3.535533905932737
 21
0.0
 31
0.0
210
0.0
220
0.0
230
1.0
 40
0.7071067811865476
 41
1.857552879006442
 42
4.425632428173142
  0
ELLIPSE
  5
1FC
330
2
100
AcDbEntity
  8
UMRISS05
100
AcDbEllipse
 10
219.9487670186949
 20
204.4476828758628
 30
0.0
 11
-3.535533905932737
 21
0.0
 31
0.0
210
0.0
220
0.0
230
1.0
 40
0.7071067811865476
 41
1.857552879006442
 42
4.425632428173142
  0
LINE
  5
1FD
330
2
100
AcDbEntity
  8
UMRISS05
100
AcDbLine
 10
221.4487670186958
 20
206.7115291603971
 30
0.0
 11
221.4487670186958
 21
202.1838365913285
 31
0.0
  0
LINE
  5
1FE
330
2
100
AcDbEntity
  8
UMRISS05
100
AcDbLine
 10
219.9487670186952
 20
394.0497671142066
 30
0.0
 11
219.9487670186952
 21
398.8455986375192
 31
0.0
  0
LINE
  5
1FF
330
2
100
AcDbEntity
  8
UMRISS05
100
AcDbLine
 10
219.9487670186952
 20
358.0497671142065
 30
0.0
 11
219.9487670186952
 21
362.8455986375192
 31
0.0
  0
LINE
  5
200
330
2
100
AcDbEntity
  8
UMRISS05
100
AcDbLine
 10
219.9487670186952
 20
202.0497671142064
 30
0.0
 11
219.9487670186952
 21
206.8455986375192
 31
0.0
  0
LINE
  5
201
330
2
100
AcDbEntity
  8
AVERDECKTE
100
AcDbLine
 10
221.4487670186953
 20
398.9476828758629
 30
0.0
 11
220.2416602375084
 21
398.9476828758629
 31
0.0
  0
LINE
  5
202
330
2
100
AcDbEntity
  8
AVERDECKTE
100
AcDbLine
 10
221.4487670186953
 20
393.9476828758629
 30
0.0
 11
220.2416602375084
 21
393.9476828758629
 31
0.0
  0
LINE
  5
203
330
2
100
AcDbEntity
  8
AVERDECKTE
100
AcDbLine
 10
221.4487670186953
 20
362.9476828758629
 30
0.0
 11
220.2416602375084
 21
362.9476828758629
 31
0.0
  0
LINE
  5
204
330
2
100
AcDbEntity
  8
AVERDECKTE
100
AcDbLine
 10
221.4487670186953
 20
357.9476828758629
 30
0.0
 11
220.2416602375084
 21
357.9476828758629
 31
0.0
  0
LINE
  5
205
330
2
100
AcDbEntity
  8
AVERDECKTE
100
AcDbLine
 10
221.4487670186953
 20
206.9476828758628
 30
0.0
 11
220.2416602375084
 21
206.9476828758628
 31
0.0
  0
LINE
  5
206
330
2
100
AcDbEntity
  8
AVERDECKTE
100
AcDbLine
 10
221.4487670186953
 20
201.9476828758628
 30
0.0
 11
220.2416602375084
 21
201.9476828758628
 31
0.0
  0
LINE
  5
207
330
2
100
AcDbEntity
  8
AVERDECKTE
100
AcDbLine
 10
221.4487670186958
 20
394.1838365913285
 30
0.0
 11
221.4487670186953
 21
393.9476828758629
 31
0.0
  0
LINE
  5
208
330
2
100
AcDbEntity
  8
AVERDECKTE
100
AcDbLine
 10
221.4487670186953
 20
398.9476828758629
 30
0.0
 11
221.4487670186958
 21
398.7115291603971
 31
0.0
  0
LINE
  5
209
330
2
100
AcDbEntity
  8
AVERDECKTE
100
AcDbLine
 10
221.4487670186958
 20
358.1838365913285
 30
0.0
 11
221.4487670186953
 21
357.9476828758629
 31
0.0
  0
LINE
  5
20A
330
2
100
AcDbEntity
  8
AVERDECKTE
100
AcDbLine
 10
221.4487670186953
 20
362.9476828758629
 30
0.0
 11
221.4487670186958
 21
362.7115291603971
 31
0.0
  0
LINE
  5
20B
330
2
100
AcDbEntity
  8
AVERDECKTE
100
AcDbLine
 10
221.4487670186958
 20
202.1838365913285
 30
0.0
 11
221.4487670186953
 21
201.9476828758628
 31
0.0
  0
LINE
  5
20C
330
2
100
AcDbEntity
  8
AVERDECKTE
100
AcDbLine
 10
221.4487670186953
 20
206.9476828758628
 30
0.0
 11
221.4487670186958
 21
206.7115291603971
 31
0.0
  0
ELLIPSE
  5
20D
330
2
100
AcDbEntity
  8
AVERDECKTE
100
AcDbEllipse
 10
221.4487670186953
 20
396.4476828758629
 30
0.0
 11
-3.535533905932736
 21
0.0
 31
0.0
210
0.0
220
0.0
230
1.0
 40
0.7071067811865478
 41
1.570796326794896
 42
4.712388980384689
  0
ELLIPSE
  5
20E
330
2
100
AcDbEntity
  8
AVERDECKTE
100
AcDbEllipse
 10
221.4487670186953
 20
360.4476828758629
 30
0.0
 11
-3.535533905932736
 21
0.0
 31
0.0
210
0.0
220
0.0
230
1.0
 40
0.7071067811865478
 41
1.570796326794896
 42
4.712388980384689
  0
ELLIPSE
  5
20F
330
2
100
AcDbEntity
  8
AVERDECKTE
100
AcDbEllipse
 10
221.4487670186953
 20
204.4476828758628
 30
0.0
 11
-3.535533905932736
 21
0.0
 31
0.0
210
0.0
220
0.0
230
1.0
 40
0.7071067811865478
 41
1.570796326794896
 42
4.712388980384689
  0
LINE
  5
210
330
2
100
AcDbEntity
  8
UMRISS05
100
AcDbLine
 10
221.4487670186949
 20
213.2976828758629
 30
0.0
 11
221.4487670186949
 21
284.5976828758629
 31
0.0
  0
LINE
  5
211
330
2
100
AcDbEntity
  8
AVERDECKTE
100
AcDbLine
 10
228.4487670186953
 20
408.9476828758629
 30
0.0
 11
228.4487670186953
 21
273.0976828758628
 31
0.0
  0
LINE
  5
212
330
2
100
AcDbEntity
  8
AVERDECKTE
100
AcDbLine
 10
221.4487670186953
 20
405.6113724024072
 30
0.0
 11
221.4487670186953
 21
398.9476828758629
 31
0.0
  0
LINE
  5
213
330
2
100
AcDbEntity
  8
AVERDECKTE
100
AcDbLine
 10
221.4487670186953
 20
393.9476828758629
 30
0.0
 11
221.4487670186953
 21
362.9476828758629
 31
0.0
  0
LINE
  5
214
330
2
100
AcDbEntity
  8
AVERDECKTE
100
AcDbLine
 10
221.4487670186953
 20
357.9476828758629
 30
0.0
 11
221.4487670186953
 21
284.5976828758629
 31
0.0
  0
LINE
  5
215
330
2
100
AcDbEntity
  8
AVERDECKTE
100
AcDbLine
 10
221.4487670186953
 20
213.2976828758629
 30
0.0
 11
221.4487670186953
 21
206.9476828758628
 31
0.0
  0
LINE
  5
216
330
2
100
AcDbEntity
  8
AVERDECKTE
100
AcDbLine
 10
221.4487670186953
 20
201.9476828758628
 30
0.0
 11
221.4487670186953
 21
195.2839933493184
 31
0.0
  0
LINE
  5
217
330
2
100
AcDbEntity
  8
AVERDECKTE
100
AcDbLine
 10
228.4487670186953
 20
224.7976828758628
 30
0.0
 11
228.4487670186953
 21
191.9476828758628
 31
0.0
  0
LINE
  5
218
330
2
100
AcDbEntity
  8
UMRISS05
100
AcDbLine
 10
221.4487670186949
 20
284.5976828758629
 30
0.0
 11
227.9487670186949
 21
284.5976828758629
 31
0.0
  0
LINE
  5
219
330
2
100
AcDbEntity
  8
UMRISS05
100
AcDbLine
 10
227.9487670186949
 20
284.5976828758629
 30
0.0
 11
227.9487670186949
 21
273.0976828758628
 31
0.0
  0
LINE
  5
21A
330
2
100
AcDbEntity
  8
UMRISS05
100
AcDbLine
 10
227.9487670186949
 20
224.7976828758628
 30
0.0
 11
227.9487670186949
 21
213.2976828758629
 31
0.0
  0
LINE
  5
21B
330
2
100
AcDbEntity
  8
UMRISS05
100
AcDbLine
 10
227.9487670186949
 20
213.2976828758629
 30
0.0
 11
221.4487670186949
 21
213.2976828758629
 31
0.0
  0
SPLINE
  5
21C
330
2
100
AcDbEntity
  8
UMRISS05
100
AcDbSpline
210
0.0
220
0.0
230
1.0
 70
     8
 71
     3
 72
    14
 73
    10
 74
     0
 42
0.000000001
 43
0.0000000001
 40
0.0763115330505305
 40
0.0763115330505305
 40
0.0763115330505305
 40
0.0763115330505305
 40
0.1144287000804589
 40
0.1144287000804589
 40
0.1525458671103872
 40
0.1525458671103872
 40
0.1906630341403156
 40
0.1906630341403156
 40
0.2287802011702439
 40
0.2287802011702439
 40
0.2287802011702439
 40
0.2287802011702439
 10
219.9487670186952
 20
398.8455986375192
 30
0.0
 10
219.9487670186951
 20
398.871534084648
 30
0.0
 10
219.9733460579513
 20
398.8987632586587
 30
0.0
 10
220.0748088906166
 20
398.9370679201332
 30
0.0
 10
220.1518172132202
 20
398.9476828758629
 30
0.0
 10
220.3315032617967
 20
398.9476828758629
 30
0.0
 10
220.4448296015026
 20
398.9370679201332
 30
0.0
 10
220.6912604223003
 20
398.8987632586587
 30
0.0
 10
220.8243849837832
 20
398.871534084648
 30
0.0
 10
220.9487670186949
 20
398.8455986375192
 30
0.0
  0
LINE
  5
21D
330
2
100
AcDbEntity
  8
UMRISS05
100
AcDbLine
 10
228.9487670186949
 20
407.9476828758628
 30
0.0
 11
229.9487670186952
 21
408.9476828758629
 31
0.0
  0
SPLINE
  5
21E
330
2
100
AcDbEntity
  8
UMRISS05
100
AcDbSpline
210
0.0
220
0.0
230
1.0
 70
     8
 71
     3
 72
    14
 73
    10
 74
     0
 42
0.000000001
 43
0.0000000001
 40
0.3814032672713041
 40
0.3814032672713041
 40
0.3814032672713041
 40
0.3814032672713041
 40
0.4195204343012325
 40
0.4195204343012325
 40
0.4576376013311609
 40
0.4576376013311609
 40
0.4957547683610893
 40
0.4957547683610893
 40
0.5338719353910176
 40
0.5338719353910176
 40
0.5338719353910176
 40
0.5338719353910176
 10
220.9487670186949
 20
358.0497671142065
 30
0.0
 10
220.8243849837832
 20
358.0238316670777
 30
0.0
 10
220.6912604223003
 20
357.996602493067
 30
0.0
 10
220.4448296015026
 20
357.9582978315924
 30
0.0
 10
220.3315032617967
 20
357.9476828758629
 30
0.0
 10
220.1518172132202
 20
357.9476828758629
 30
0.0
 10
220.0748088906166
 20
357.9582978315924
 30
0.0
 10
219.9733460579513
 20
357.996602493067
 30
0.0
 10
219.9487670186951
 20
358.0238316670777
 30
0.0
 10
219.9487670186952
 20
358.0497671142065
 30
0.0
  0
SPLINE
  5
21F
330
2
100
AcDbEntity
  8
UMRISS05
100
AcDbSpline
210
0.0
220
0.0
230
1.0
 70
     8
 71
     3
 72
    14
 73
    10
 74
     0
 42
0.000000001
 43
0.0000000001
 40
0.0763115330505303
 40
0.0763115330505303
 40
0.0763115330505303
 40
0.0763115330505303
 40
0.1144287000804587
 40
0.1144287000804587
 40
0.1525458671103871
 40
0.1525458671103871
 40
0.1906630341403155
 40
0.1906630341403155
 40
0.2287802011702438
 40
0.2287802011702438
 40
0.2287802011702438
 40
0.2287802011702438
 10
219.9487670186952
 20
362.8455986375192
 30
0.0
 10
219.9487670186951
 20
362.871534084648
 30
0.0
 10
219.9733460579513
 20
362.8987632586587
 30
0.0
 10
220.0748088906166
 20
362.9370679201333
 30
0.0
 10
220.1518172132202
 20
362.9476828758629
 30
0.0
 10
220.3315032617967
 20
362.9476828758629
 30
0.0
 10
220.4448296015026
 20
362.9370679201333
 30
0.0
 10
220.6912604223003
 20
362.8987632586587
 30
0.0
 10
220.8243849837832
 20
362.871534084648
 30
0.0
 10
220.9487670186949
 20
362.8455986375192
 30
0.0
  0
SPLINE
  5
220
330
2
100
AcDbEntity
  8
UMRISS05
100
AcDbSpline
210
0.0
220
0.0
230
1.0
 70
     8
 71
     3
 72
    14
 73
    10
 74
     0
 42
0.000000001
 43
0.0000000001
 40
0.3814032672713048
 40
0.3814032672713048
 40
0.3814032672713048
 40
0.3814032672713048
 40
0.4195204343012331
 40
0.4195204343012331
 40
0.4576376013311614
 40
0.4576376013311614
 40
0.4957547683610898
 40
0.4957547683610898
 40
0.5338719353910183
 40
0.5338719353910183
 40
0.5338719353910183
 40
0.5338719353910183
 10
220.9487670186949
 20
394.0497671142064
 30
0.0
 10
220.8243849837832
 20
394.0238316670777
 30
0.0
 10
220.6912604223003
 20
393.9966024930671
 30
0.0
 10
220.4448296015026
 20
393.9582978315925
 30
0.0
 10
220.3315032617967
 20
393.9476828758629
 30
0.0
 10
220.1518172132202
 20
393.9476828758629
 30
0.0
 10
220.0748088906166
 20
393.9582978315925
 30
0.0
 10
219.9733460579513
 20
393.9966024930671
 30
0.0
 10
219.9487670186951
 20
394.0238316670777
 30
0.0
 10
219.9487670186952
 20
394.0497671142064
 30
0.0
  0
SPLINE
  5
221
330
2
100
AcDbEntity
  8
UMRISS05
100
AcDbSpline
210
0.0
220
0.0
230
1.0
 70
     8
 71
     3
 72
    14
 73
    10
 74
     0
 42
0.000000001
 43
0.0000000001
 40
0.0763115330505305
 40
0.0763115330505305
 40
0.0763115330505305
 40
0.0763115330505305
 40
0.1144287000804589
 40
0.1144287000804589
 40
0.1525458671103872
 40
0.1525458671103872
 40
0.1906630341403156
 40
0.1906630341403156
 40
0.2287802011702439
 40
0.2287802011702439
 40
0.2287802011702439
 40
0.2287802011702439
 10
219.9487670186952
 20
206.8455986375192
 30
0.0
 10
219.9487670186951
 20
206.871534084648
 30
0.0
 10
219.9733460579513
 20
206.8987632586587
 30
0.0
 10
220.0748088906166
 20
206.9370679201332
 30
0.0
 10
220.1518172132202
 20
206.9476828758628
 30
0.0
 10
220.3315032617967
 20
206.9476828758628
 30
0.0
 10
220.4448296015026
 20
206.9370679201332
 30
0.0
 10
220.6912604223003
 20
206.8987632586587
 30
0.0
 10
220.8243849837832
 20
206.871534084648
 30
0.0
 10
220.9487670186949
 20
206.8455986375192
 30
0.0
  0
SPLINE
  5
222
330
2
100
AcDbEntity
  8
UMRISS05
100
AcDbSpline
210
0.0
220
0.0
230
1.0
 70
     8
 71
     3
 72
    14
 73
    10
 74
     0
 42
0.000000001
 43
0.0000000001
 40
0.3814032672713048
 40
0.3814032672713048
 40
0.3814032672713048
 40
0.3814032672713048
 40
0.4195204343012331
 40
0.4195204343012331
 40
0.4576376013311614
 40
0.4576376013311614
 40
0.4957547683610898
 40
0.4957547683610898
 40
0.5338719353910183
 40
0.5338719353910183
 40
0.5338719353910183
 40
0.5338719353910183
 10
220.9487670186949
 20
202.0497671142064
 30
0.0
 10
220.8243849837832
 20
202.0238316670776
 30
0.0
 10
220.6912604223003
 20
201.996602493067
 30
0.0
 10
220.4448296015026
 20
201.9582978315924
 30
0.0
 10
220.3315032617967
 20
201.9476828758628
 30
0.0
 10
220.1518172132202
 20
201.9476828758628
 30
0.0
 10
220.0748088906166
 20
201.9582978315924
 30
0.0
 10
219.9733460579513
 20
201.996602493067
 30
0.0
 10
219.9487670186951
 20
202.0238316670776
 30
0.0
 10
219.9487670186952
 20
202.0497671142064
 30
0.0
  0
LINE
  5
223
330
2
100
AcDbEntity
  8
UMRISS05
100
AcDbLine
 10
229.9487670186952
 20
191.9476828758627
 30
0.0
 11
228.9487670186949
 21
192.9476828758628
 31
0.0
  0
LINE
  5
224
330
2
100
AcDbEntity
  8
UMRISS05
100
AcDbLine
 10
227.8987670186948
 20
224.7976828758628
 30
0.0
 11
229.9487670186952
 21
224.7976828758628
 31
0.0
  0
LINE
  5
225
330
2
100
AcDbEntity
  8
UMRISS05
100
AcDbLine
 10
227.9487670186952
 20
191.9476828758628
 30
0.0
 11
229.9487670186952
 21
191.9476828758628
 31
0.0
  0
ARC
  5
226
330
2
100
AcDbEntity
  8
UMRISS05
100
AcDbCircle
 10
227.9487670186952
 20
199.9476828758628
 30
0.0
 40
8.000000000000008
100
AcDbArc
 50
180.0
 51
270.0
  0
LINE
  5
227
330
2
100
AcDbEntity
  8
UMRISS05
100
AcDbLine
 10
219.9487670186952
 20
400.9476828758628
 30
0.0
 11
219.9487670186952
 21
398.8455986375192
 31
0.0
  0
LINE
  5
228
330
2
100
AcDbEntity
  8
UMRISS05
100
AcDbLine
 10
219.9487670186952
 20
394.0497671142064
 30
0.0
 11
219.9487670186952
 21
362.8455986375192
 31
0.0
  0
LINE
  5
229
330
2
100
AcDbEntity
  8
UMRISS05
100
AcDbLine
 10
219.9487670186952
 20
358.0497671142065
 30
0.0
 11
219.9487670186952
 21
206.8455986375192
 31
0.0
  0
LINE
  5
22A
330
2
100
AcDbEntity
  8
UMRISS05
100
AcDbLine
 10
219.9487670186952
 20
202.0497671142064
 30
0.0
 11
219.9487670186952
 21
199.9476828758628
 31
0.0
  0
ARC
  5
22B
330
2
100
AcDbEntity
  8
UMRISS05
100
AcDbCircle
 10
227.9487670186952
 20
400.9476828758628
 30
0.0
 40
8.000000000000007
100
AcDbArc
 50
90.0
 51
180.0
  0
LINE
  5
22C
330
2
100
AcDbEntity
  8
UMRISS05
100
AcDbLine
 10
229.9487670186952
 20
408.9476828758629
 30
0.0
 11
227.9487670186952
 21
408.9476828758629
 31
0.0
  0
LINE
  5
22D
330
2
100
AcDbEntity
  8
UMRISS05
100
AcDbLine
 10
229.9487670186952
 20
273.0976828758628
 30
0.0
 11
227.8987670186948
 21
273.0976828758628
 31
0.0
  0
LINE
  5
22E
330
2
100
AcDbEntity
  8
UMRISS05
100
AcDbLine
 10
229.9487670186952
 20
191.9476828758628
 30
0.0
 11
229.9487670186952
 21
224.7976828758628
 31
0.0
  0
LINE
  5
22F
330
2
100
AcDbEntity
  8
UMRISS05
100
AcDbLine
 10
229.9487670186952
 20
273.0976828758628
 30
0.0
 11
229.9487670186952
 21
408.9476828758629
 31
0.0
  0
LINE
  5
230
330
2
100
AcDbEntity
  8
AVERDECKTE
100
AcDbLine
 10
228.9487670186978
 20
200.4476828758628
 30
0.0
 11
229.9487670186978
 21
199.4476828758628
 31
0.0
  0
LINE
  5
231
330
2
100
AcDbEntity
  8
AVERDECKTE
100
AcDbLine
 10
228.9487670186978
 20
208.4476828758628
 30
0.0
 11
229.9487670186978
 21
209.4476828758628
 31
0.0
  0
LINE
  5
232
330
2
100
AcDbEntity
  8
AVERDECKTE
100
AcDbLine
 10
228.9487670186978
 20
357.4476828758628
 30
0.0
 11
229.9487670186978
 21
356.4476828758629
 31
0.0
  0
LINE
  5
233
330
2
100
AcDbEntity
  8
AVERDECKTE
100
AcDbLine
 10
228.9487670186978
 20
365.4476828758629
 30
0.0
 11
229.9487670186978
 21
366.4476828758629
 31
0.0
  0
LINE
  5
234
330
2
100
AcDbEntity
  8
AVERDECKTE
100
AcDbLine
 10
228.9487670186978
 20
392.4476828758628
 30
0.0
 11
229.9487670186978
 21
391.4476828758629
 31
0.0
  0
LINE
  5
235
330
2
100
AcDbEntity
  8
AVERDECKTE
100
AcDbLine
 10
228.9487670186978
 20
400.4476828758629
 30
0.0
 11
229.9487670186978
 21
401.4476828758628
 31
0.0
  0
LINE
  5
236
330
2
100
AcDbEntity
  8
AVERDECKTE
100
AcDbLine
 10
228.9487670186978
 20
208.4476828758628
 30
0.0
 11
228.9487670186978
 21
200.4476828758628
 31
0.0
  0
LINE
  5
237
330
2
100
AcDbEntity
  8
AVERDECKTE
100
AcDbLine
 10
228.9487670186978
 20
365.4476828758629
 30
0.0
 11
228.9487670186978
 21
357.4476828758629
 31
0.0
  0
LINE
  5
238
330
2
100
AcDbEntity
  8
AVERDECKTE
100
AcDbLine
 10
228.9487670186978
 20
400.4476828758629
 30
0.0
 11
228.9487670186978
 21
392.4476828758629
 31
0.0
  0
LINE
  5
239
330
2
100
AcDbEntity
  8
ACHSEN
100
AcDbLine
 10
159.0877588376748
 20
156.9190766731662
 30
0.0
 11
159.0877588376748
 21
143.4190766731662
 31
0.0
  0
DIMENSION
  5
23A
330
2
100
AcDbEntity
  8
BEMASSUNG
100
AcDbDimension
  2
*D2
 10
169.0877588376316
 20
169.0267428832039
 30
0.0
 11
159.0051889934646
 21
169.0267428832039
 31
0.0
 70
   128
 71
     5
 42
20.00000000000006
  3
Katalog 09
100
AcDbAlignedDimension
 13
149.0877588376315
 23
154.1690766731639
 33
0.0
 14
169.0877588376316
 24
154.1690766731639
 34
0.0
100
AcDbRotatedDimension
  0
DIMENSION
  5
247
330
2
100
AcDbEntity
  8
BEMASSUNG
100
AcDbDimension
  2
*D1
 10
123.980613972595
 20
155.1690766731639
 30
0.0
 11
123.980613972595
 21
150.1690766731649
 31
0.0
 70
   128
 71
     5
 42
9.999999999997896
  3
Katalog 09
100
AcDbAlignedDimension
 13
150.0877588376316
 23
145.169076673166
 33
0.0
 14
150.0877588376316
 24
155.1690766731639
 34
0.0
 50
90.0
100
AcDbRotatedDimension
  0
SPLINE
  5
256
330
2
100
AcDbEntity
  8
Sichtbare Kanten(MSL)
100
AcDbSpline
210
0.0
220
0.0
230
1.0
 70
     8
 71
     3
 72
    12
 73
     8
 74
     0
 42
0.000000001
 43
0.0000000001
 40
0.0294647780437671
 40
0.0294647780437671
 40
0.0294647780437671
 40
0.0294647780437671
 40
0.0368083486342948
 40
0.0368083486342948
 40
0.0441333469114336
 40
0.0441333469114336
 40
0.0501292249357785
 40
0.0501292249357785
 40
0.0501292249357785
 40
0.0501292249357785
 10
156.9643240649959
 20
219.4575709457009
 30
0.0
 10
156.9886222004948
 20
219.4546043089344
 30
0.0
 10
157.0171579034277
 20
219.4506165911434
 30
0.0
 10
157.0617727488269
 20
219.4435207226951
 30
0.0
 10
157.0857448802279
 20
219.4391596223505
 30
0.0
 10
157.116469562638
 20
219.4326419645449
 30
0.0
 10
157.1297978218473
 20
219.4293619366336
 30
0.0
 10
157.1388194319276
 20
219.4266016321368
 30
0.0
  0
SPLINE
  5
257
330
2
100
AcDbEntity
  8
Sichtbare Kanten(MSL)
100
AcDbSpline
210
0.0
220
0.0
230
1.0
 70
     8
 71
     3
 72
    12
 73
     8
 74
     0
 42
0.000000001
 43
0.0000000001
 40
0.0675087927369181
 40
0.0675087927369181
 40
0.0675087927369181
 40
0.0675087927369181
 40
0.0735046707612629
 40
0.0735046707612629
 40
0.0808296690384017
 40
0.0808296690384017
 40
0.0881732396289295
 40
0.0881732396289295
 40
0.0881732396289295
 40
0.0881732396289295
 10
157.1388194319276
 20
218.4687641195885
 30
0.0
 10
157.1297978218473
 20
218.4660038150917
 30
0.0
 10
157.116469562638
 20
218.4627237871804
 30
0.0
 10
157.0857448802279
 20
218.4562061293748
 30
0.0
 10
157.0617727488269
 20
218.4518450290303
 30
0.0
 10
157.0171579034277
 20
218.444749160582
 30
0.0
 10
156.9886222004948
 20
218.440761442791
 30
0.0
 10
156.9643240649959
 20
218.4377948060244
 30
0.0
  0
LINE
  5
258
330
2
100
AcDbEntity
  8
UMRISS05
100
AcDbLine
 10
160.422379858804
 20
218.2671507140782
 30
0.0
 11
161.3908811297019
 21
217.144560583837
 31
0.0
  0
LINE
  5
259
330
2
100
AcDbEntity
  8
UMRISS05
100
AcDbLine
 10
161.3908811297019
 20
217.144560583837
 30
0.0
 11
160.4524583158892
 21
218.0829833976497
 31
0.0
  0
LINE
  5
25A
330
2
100
AcDbEntity
  8
UMRISS05
100
AcDbLine
 10
161.3908811297019
 20
217.144560583837
 30
0.0
 11
160.2682909994606
 21
218.1130618547349
 31
0.0
  0
LINE
  5
25B
330
2
100
AcDbEntity
  8
UMRISS05
100
AcDbLine
 10
158.7531378165484
 20
219.6282150376472
 30
0.0
 11
157.7846365456505
 21
220.7508051678884
 31
0.0
  0
LINE
  5
25C
330
2
100
AcDbEntity
  8
UMRISS05
100
AcDbLine
 10
157.7846365456505
 20
220.7508051678884
 30
0.0
 11
158.7230593594632
 21
219.8123823540757
 31
0.0
  0
LINE
  5
25D
330
2
100
AcDbEntity
  8
UMRISS05
100
AcDbLine
 10
157.7846365456505
 20
220.7508051678884
 30
0.0
 11
158.9072266758917
 21
219.7823038969905
 31
0.0
  0
LINE
  5
25E
330
2
100
AcDbEntity
  8
UMRISS05
100
AcDbLine
 10
158.9072266758917
 20
218.1130618547349
 30
0.0
 11
157.7846365456505
 21
217.144560583837
 31
0.0
  0
LINE
  5
25F
330
2
100
AcDbEntity
  8
UMRISS05
100
AcDbLine
 10
160.2682909994606
 20
219.7823038969905
 30
0.0
 11
161.3908811297019
 21
220.7508051678884
 31
0.0
  0
LINE
  5
260
330
2
100
AcDbEntity
  8
UMRISS05
100
AcDbLine
 10
157.7846365456505
 20
217.144560583837
 30
0.0
 11
158.7230593594632
 21
218.0829833976497
 31
0.0
  0
LINE
  5
261
330
2
100
AcDbEntity
  8
UMRISS05
100
AcDbLine
 10
157.7846365456505
 20
217.144560583837
 30
0.0
 11
158.7531378165484
 21
218.2671507140782
 31
0.0
  0
LINE
  5
262
330
2
100
AcDbEntity
  8
UMRISS05
100
AcDbLine
 10
161.3908811297019
 20
220.7508051678884
 30
0.0
 11
160.4524583158892
 21
219.8123823540757
 31
0.0
  0
LINE
  5
263
330
2
100
AcDbEntity
  8
UMRISS05
100
AcDbLine
 10
161.3908811297019
 20
220.7508051678884
 30
0.0
 11
160.422379858804
 21
219.6282150376472
 31
0.0
  0
ARC
  5
264
330
2
100
AcDbEntity
  8
UMRISS05
100
AcDbCircle
 10
158.8989460262709
 20
220.1339832550768
 30
0.0
 40
0.3517768327536246
100
AcDbArc
 50
271.3488384037509
 51
6.960972189741436
  0
SPLINE
  5
265
330
2
100
AcDbEntity
  8
UMRISS05
100
AcDbSpline
210
0.0
220
0.0
230
1.0
 70
     8
 71
     3
 72
    20
 73
    16
 74
     0
 42
0.000000001
 43
0.0000000001
 40
0.2241139880688272
 40
0.2241139880688272
 40
0.2241139880688272
 40
0.2241139880688272
 40
0.2281060377002171
 40
0.2281060377002171
 40
0.2456065250842323
 40
0.2456065250842323
 40
0.2631070124682475
 40
0.2631070124682475
 40
0.2779942172629968
 40
0.2779942172629968
 40
0.2928814220577461
 40
0.2928814220577461
 40
0.3077686268524954
 40
0.3077686268524954
 40
0.3150707706012142
 40
0.3150707706012142
 40
0.3150707706012142
 40
0.3150707706012142
 10
159.4547669596066
 20
220.201845203436
 30
0.0
 10
159.4567603557503
 20
220.1900870909792
 30
0.0
 10
159.4583654895011
 20
220.178346444063
 30
0.0
 10
159.4649798314826
 20
220.1154372619522
 30
0.0
 10
159.4633771339491
 20
220.0590158284286
 30
0.0
 10
159.4424737851301
 20
219.9483734064963
 30
0.0
 10
159.4231738858307
 20
219.894137969191
 30
0.0
 10
159.3763887169508
 20
219.8058141035734
 30
0.0
 10
159.3471753580647
 20
219.7636864970111
 30
0.0
 10
159.2760626882389
 20
219.6886206669662
 30
0.0
 10
159.2340369015352
 20
219.6557033051842
 30
0.0
 10
159.1482080880248
 20
219.6058677092681
 30
0.0
 10
159.0987867471512
 20
219.5856872602889
 30
0.0
 10
159.0239298178327
 20
219.5673931636215
 30
0.0
 10
158.9990906078787
 20
219.563177535956
 30
0.0
 10
158.9747572838897
 20
219.5606844296491
 30
0.0
  0
SPLINE
  5
266
330
2
100
AcDbEntity
  8
UMRISS05
100
AcDbSpline
210
0.0
220
0.0
230
1.0
 70
     8
 71
     3
 72
    21
 73
    17
 74
     0
 42
0.000000001
 43
0.0000000001
 40
-0.0869647329009972
 40
-0.0869647329009972
 40
-0.0869647329009972
 40
-0.0869647329009972
 40
-0.0796625891522784
 40
-0.0796625891522784
 40
-0.0647753843575291
 40
-0.0647753843575291
 40
-0.0498881795627798
 40
-0.0498881795627798
 40
-0.0350009747680305
 40
-0.0350009747680305
 40
-0.0175004873840152
 40
-0.0175004873840152
 40
0.0
 40
0.0
 40
0.0
 40
0.0039920496313898
 40
0.0039920496313898
 40
0.0039920496313898
 40
0.0039920496313898
 10
160.2007603914626
 20
219.5606844296491
 30
0.0
 10
160.1764270674737
 20
219.563177535956
 30
0.0
 10
160.1515878575197
 20
219.5673931636215
 30
0.0
 10
160.0767309282012
 20
219.5856872602889
 30
0.0
 10
160.0273095873276
 20
219.6058677092681
 30
0.0
 10
159.9414807738172
 20
219.6557033051842
 30
0.0
 10
159.8994549871135
 20
219.6886206669662
 30
0.0
 10
159.8283423172876
 20
219.7636864970111
 30
0.0
 10
159.7991289584015
 20
219.8058141035734
 30
0.0
 10
159.7523437895216
 20
219.894137969191
 30
0.0
 10
159.7330438902223
 20
219.9483734064963
 30
0.0
 10
159.7121405414033
 20
220.0590158284286
 30
0.0
 10
159.7105378438698
 20
220.1154372619522
 30
0.0
 10
159.7159236300298
 20
220.1666616170425
 30
0.0
 10
159.7171521858513
 20
220.178346444063
 30
0.0
 10
159.7187573196021
 20
220.1900870909792
 30
0.0
 10
159.7207507157458
 20
220.201845203436
 30
0.0
  0
ARC
  5
267
330
2
100
AcDbEntity
  8
UMRISS05
100
AcDbCircle
 10
160.2765716490814
 20
220.1339832550768
 30
0.0
 40
0.3517768327536244
100
AcDbArc
 50
173.0390278102519
 51
268.6511615962491
  0
SPLINE
  5
268
330
2
100
AcDbEntity
  8
UMRISS05
100
AcDbSpline
210
0.0
220
0.0
230
1.0
 70
    24
 71
     3
 72
    14
 73
    10
 74
     0
 42
0.000000001
 43
0.0000000001
 40
-2.181930064255661
 40
-2.181930064255661
 40
-2.181930064255661
 40
-2.181930064255661
 40
-2.170719183657814
 40
-2.170719183657814
 40
-2.102884209168507
 40
-2.102884209168507
 40
-2.0350492346792
 40
-2.0350492346792
 40
-1.940275091644172
 40
-1.940275091644172
 40
-1.940275091644172
 40
-1.940275091644172
 10
158.7230593594632
 20
219.8123823540757
 30
0.0
 10
158.7315867046538
 20
219.803855008885
 30
0.0
 10
158.7388944453805
 20
219.7965472681584
 30
0.0
 10
158.7832718592857
 20
219.7521698542531
 30
0.0
 10
158.8074590280342
 20
219.7279826855047
 30
0.0
 10
158.8546758559026
 20
219.6807658576362
 30
0.0
 10
158.8756659114546
 20
219.6597758020843
 30
0.0
 10
158.9236625788967
 20
219.6117791346422
 30
0.0
 10
158.9496076429066
 20
219.5858340706323
 30
0.0
 10
158.9747572838897
 20
219.5606844296491
 30
0.0
  0
SPLINE
  5
269
330
2
100
AcDbEntity
  8
UMRISS05
100
AcDbSpline
210
0.0
220
0.0
230
1.0
 70
     8
 71
     3
 72
    21
 73
    17
 74
     0
 42
0.000000001
 43
0.0000000001
 40
-0.0869647329009969
 40
-0.0869647329009969
 40
-0.0869647329009969
 40
-0.0869647329009969
 40
-0.0796625891522784
 40
-0.0796625891522784
 40
-0.0647753843575291
 40
-0.0647753843575291
 40
-0.0498881795627798
 40
-0.0498881795627798
 40
-0.0350009747680304
 40
-0.0350009747680304
 40
-0.0175004873840152
 40
-0.0175004873840152
 40
0.0
 40
0.0
 40
0.0
 40
0.0039920496313898
 40
0.0039920496313898
 40
0.0039920496313898
 40
0.0039920496313898
 10
158.9747572838897
 20
219.5606844296491
 30
0.0
 10
158.9722641775829
 20
219.5363511056602
 30
0.0
 10
158.9680485499174
 20
219.5115118957062
 30
0.0
 10
158.9497544532499
 20
219.4366549663877
 30
0.0
 10
158.9295740042707
 20
219.3872336255141
 30
0.0
 10
158.8797384083546
 20
219.3014048120037
 30
0.0
 10
158.8468210465726
 20
219.2593790253
 30
0.0
 10
158.7717552165278
 20
219.1882663554741
 30
0.0
 10
158.7296276099655
 20
219.1590529965881
 30
0.0
 10
158.6413037443478
 20
219.1122678277082
 30
0.0
 10
158.5870683070426
 20
219.0929679284088
 30
0.0
 10
158.4764258851103
 20
219.0720645795898
 30
0.0
 10
158.4200044515867
 20
219.0704618820563
 30
0.0
 10
158.3687800964963
 20
219.0758476682163
 30
0.0
 10
158.3570952694758
 20
219.0770762240378
 30
0.0
 10
158.3453546225597
 20
219.0786813577886
 30
0.0
 10
158.3335965101029
 20
219.0806747539323
 30
0.0
  0
ARC
  5
26A
330
2
100
AcDbEntity
  8
UMRISS05
100
AcDbCircle
 10
158.4014584584621
 20
219.636495687268
 30
0.0
 40
0.3517768327536245
100
AcDbArc
 50
263.0390278102553
 51
358.6511615962491
  0
SPLINE
  5
26B
330
2
100
AcDbEntity
  8
UMRISS05
100
AcDbSpline
210
0.0
220
0.0
230
1.0
 70
    12
 71
     2
 72
     6
 73
     3
 74
     0
 42
0.000000001
 43
0.0000000001
 40
0.0
 40
0.0
 40
0.0
 40
0.0009713565096583
 40
0.0009713565096583
 40
0.0009713565096583
 10
159.7441001738844
 20
217.5558005052698
 30
0.0
 41
1.0
 10
159.7318149476314
 20
217.6282578140499
 30
0.0
 41
1.052048802143716
 10
159.7207507157458
 20
217.6935205482894
 30
0.0
 41
1.103775396018719
  0
LINE
  5
26C
330
2
100
AcDbEntity
  8
UMRISS05
100
AcDbLine
 10
160.0976469075144
 20
216.3242481031824
 30
0.0
 11
159.9273877864542
 21
217.7187495265097
 31
0.0
  0
ARC
  5
26D
330
2
100
AcDbEntity
  8
UMRISS05
100
AcDbCircle
 10
160.2765716490814
 20
217.7613824966486
 30
0.0
 40
0.3517768327536246
100
AcDbArc
 50
91.3488384037509
 51
186.9609721897462
  0
SPLINE
  5
26E
330
2
100
AcDbEntity
  8
UMRISS05
100
AcDbSpline
210
0.0
220
0.0
230
1.0
 70
     8
 71
     3
 72
    20
 73
    16
 74
     0
 42
0.000000001
 43
0.0000000001
 40
0.2241139880688272
 40
0.2241139880688272
 40
0.2241139880688272
 40
0.2241139880688272
 40
0.2281060377002171
 40
0.2281060377002171
 40
0.2456065250842323
 40
0.2456065250842323
 40
0.2631070124682475
 40
0.2631070124682475
 40
0.2779942172629968
 40
0.2779942172629968
 40
0.2928814220577461
 40
0.2928814220577461
 40
0.3077686268524955
 40
0.3077686268524955
 40
0.3150707706012142
 40
0.3150707706012142
 40
0.3150707706012142
 40
0.3150707706012142
 10
159.7207507157458
 20
217.6935205482894
 30
0.0
 10
159.7187573196021
 20
217.7052786607462
 30
0.0
 10
159.7171521858513
 20
217.7170193076623
 30
0.0
 10
159.7105378438698
 20
217.7799284897732
 30
0.0
 10
159.7121405414033
 20
217.8363499232968
 30
0.0
 10
159.7330438902223
 20
217.9469923452291
 30
0.0
 10
159.7523437895216
 20
218.0012277825343
 30
0.0
 10
159.7991289584015
 20
218.0895516481521
 30
0.0
 10
159.8283423172876
 20
218.1316792547143
 30
0.0
 10
159.8994549871135
 20
218.2067450847591
 30
0.0
 10
159.9414807738172
 20
218.2396624465411
 30
0.0
 10
160.0273095873276
 20
218.2894980424573
 30
0.0
 10
160.0767309282012
 20
218.3096784914365
 30
0.0
 10
160.1515878575197
 20
218.3279725881039
 30
0.0
 10
160.1764270674737
 20
218.3321882157693
 30
0.0
 10
160.2007603914626
 20
218.3346813220762
 30
0.0
  0
SPLINE
  5
26F
330
2
100
AcDbEntity
  8
UMRISS05
100
AcDbSpline
210
0.0
220
0.0
230
1.0
 70
    24
 71
     3
 72
    14
 73
    10
 74
     0
 42
0.000000001
 43
0.0000000001
 40
-2.18193006425566
 40
-2.18193006425566
 40
-2.18193006425566
 40
-2.18193006425566
 40
-2.170719183657812
 40
-2.170719183657812
 40
-2.102884209168505
 40
-2.102884209168505
 40
-2.035049234679198
 40
-2.035049234679198
 40
-1.940275091644171
 40
-1.940275091644171
 40
-1.940275091644171
 40
-1.940275091644171
 10
160.4524583158892
 20
218.0829833976497
 30
0.0
 10
160.4439309706985
 20
218.0915107428404
 30
0.0
 10
160.4366232299718
 20
218.098818483567
 30
0.0
 10
160.3922458160666
 20
218.1431958974723
 30
0.0
 10
160.3680586473182
 20
218.1673830662207
 30
0.0
 10
160.3208418194498
 20
218.2145998940892
 30
0.0
 10
160.2998517638979
 20
218.235589949641
 30
0.0
 10
160.2518550964556
 20
218.2835866170833
 30
0.0
 10
160.2259100324457
 20
218.3095316810931
 30
0.0
 10
160.2007603914626
 20
218.3346813220762
 30
0.0
  0
SPLINE
  5
270
330
2
100
AcDbEntity
  8
UMRISS05
100
AcDbSpline
210
0.0
220
0.0
230
1.0
 70
     8
 71
     3
 72
    21
 73
    17
 74
     0
 42
0.000000001
 43
0.0000000001
 40
-0.0869647329009971
 40
-0.0869647329009971
 40
-0.0869647329009971
 40
-0.0869647329009971
 40
-0.0796625891522784
 40
-0.0796625891522784
 40
-0.0647753843575291
 40
-0.0647753843575291
 40
-0.0498881795627798
 40
-0.0498881795627798
 40
-0.0350009747680304
 40
-0.0350009747680304
 40
-0.0175004873840152
 40
-0.0175004873840152
 40
0.0
 40
0.0
 40
0.0
 40
0.0039920496313898
 40
0.0039920496313898
 40
0.0039920496313898
 40
0.0039920496313898
 10
160.2007603914626
 20
218.3346813220762
 30
0.0
 10
160.2032534977695
 20
218.3590146460652
 30
0.0
 10
160.207469125435
 20
218.3838538560193
 30
0.0
 10
160.2257632221024
 20
218.4587107853377
 30
0.0
 10
160.2459436710816
 20
218.5081321262113
 30
0.0
 10
160.2957792669978
 20
218.5939609397217
 30
0.0
 10
160.3286966287797
 20
218.6359867264254
 30
0.0
 10
160.4037624588246
 20
218.7070993962513
 30
0.0
 10
160.4458900653869
 20
218.7363127551373
 30
0.0
 10
160.5342139310045
 20
218.7830979240172
 30
0.0
 10
160.5884493683098
 20
218.8023978233166
 30
0.0
 10
160.699091790242
 20
218.8233011721356
 30
0.0
 10
160.7555132237656
 20
218.8249038696691
 30
0.0
 10
160.8067375788561
 20
218.8195180835091
 30
0.0
 10
160.8184224058765
 20
218.8182895276876
 30
0.0
 10
160.8301630527927
 20
218.8166843939368
 30
0.0
 10
160.8419211652494
 20
218.8146909977931
 30
0.0
  0
ARC
  5
271
330
2
100
AcDbEntity
  8
UMRISS05
100
AcDbCircle
 10
160.7740592168903
 20
218.2588700644574
 30
0.0
 40
0.3517768327536245
100
AcDbArc
 50
83.03902781025525
 51
178.6511615962507
  0
SPLINE
  5
272
330
2
100
AcDbEntity
  8
UMRISS05
100
AcDbSpline
210
0.0
220
0.0
230
1.0
 70
     8
 71
     3
 72
    21
 73
    17
 74
     0
 42
0.000000001
 43
0.0000000001
 40
-0.0869647329009971
 40
-0.0869647329009971
 40
-0.0869647329009971
 40
-0.0869647329009971
 40
-0.0796625891522785
 40
-0.0796625891522785
 40
-0.0647753843575292
 40
-0.0647753843575292
 40
-0.0498881795627799
 40
-0.0498881795627799
 40
-0.0350009747680306
 40
-0.0350009747680306
 40
-0.0175004873840153
 40
-0.0175004873840153
 40
0.0
 40
0.0
 40
0.0
 40
0.0039920496313899
 40
0.0039920496313899
 40
0.0039920496313899
 40
0.0039920496313899
 10
158.9747572838897
 20
218.3346813220762
 30
0.0
 10
158.9990906078787
 20
218.3321882157693
 30
0.0
 10
159.0239298178327
 20
218.3279725881039
 30
0.0
 10
159.0987867471512
 20
218.3096784914365
 30
0.0
 10
159.1482080880248
 20
218.2894980424573
 30
0.0
 10
159.2340369015352
 20
218.2396624465411
 30
0.0
 10
159.2760626882389
 20
218.2067450847591
 30
0.0
 10
159.3471753580647
 20
218.1316792547143
 30
0.0
 10
159.3763887169508
 20
218.0895516481521
 30
0.0
 10
159.4231738858307
 20
218.0012277825343
 30
0.0
 10
159.4424737851301
 20
217.9469923452291
 30
0.0
 10
159.4633771339491
 20
217.8363499232968
 30
0.0
 10
159.4649798314826
 20
217.7799284897732
 30
0.0
 10
159.4595940453226
 20
217.7287041346828
 30
0.0
 10
159.4583654895011
 20
217.7170193076623
 30
0.0
 10
159.4567603557503
 20
217.7052786607462
 30
0.0
 10
159.4547669596066
 20
217.6935205482894
 30
0.0
  0
ARC
  5
273
330
2
100
AcDbEntity
  8
UMRISS05
100
AcDbCircle
 10
158.8989460262709
 20
217.7613824966486
 30
0.0
 40
0.3517768327536246
100
AcDbArc
 50
353.0390278102519
 51
88.65116159625236
  0
LINE
  5
274
330
2
100
AcDbEntity
  8
UMRISS05
100
AcDbLine
 10
160.0976469075144
 20
221.571117648543
 30
0.0
 11
159.9273877864542
 21
220.1766162252157
 31
0.0
  0
SPLINE
  5
275
330
2
100
AcDbEntity
  8
UMRISS05
100
AcDbSpline
210
0.0
220
0.0
230
1.0
 70
    12
 71
     2
 72
     6
 73
     3
 74
     0
 42
0.000000001
 43
0.0000000001
 40
0.3128501539318679
 40
0.3128501539318679
 40
0.3128501539318679
 40
0.3138215104415265
 40
0.3138215104415265
 40
0.3138215104415265
 10
159.7207507157458
 20
220.201845203436
 30
0.0
 41
1.103775396018747
 10
159.7318149476314
 20
220.2671079376754
 30
0.0
 41
1.05204880214373
 10
159.7441001738844
 20
220.3395652464556
 30
0.0
 41
1.0
  0
SPLINE
  5
276
330
2
100
AcDbEntity
  8
UMRISS05
100
AcDbSpline
210
0.0
220
0.0
230
1.0
 70
    12
 71
     2
 72
     6
 73
     3
 74
     0
 42
0.000000001
 43
0.0000000001
 40
0.0
 40
0.0
 40
0.0
 40
0.0009713565096583
 40
0.0009713565096583
 40
0.0009713565096583
 10
160.9796412082691
 20
219.104024212071
 30
0.0
 41
1.0
 10
160.907183899489
 20
219.0917389858179
 30
0.0
 41
1.052048802143716
 10
160.8419211652494
 20
219.0806747539323
 30
0.0
 41
1.10377539601872
  0
LINE
  5
277
330
2
100
AcDbEntity
  8
UMRISS05
100
AcDbLine
 10
162.2111936103565
 20
219.4575709457009
 30
0.0
 11
160.8166921870292
 21
219.2873118246406
 31
0.0
  0
LINE
  5
278
330
2
100
AcDbEntity
  8
UMRISS05
100
AcDbLine
 10
156.9643240649959
 20
219.4575709457009
 30
0.0
 11
158.3588254883232
 21
219.2873118246406
 31
0.0
  0
SPLINE
  5
279
330
2
100
AcDbEntity
  8
UMRISS05
100
AcDbSpline
210
0.0
220
0.0
230
1.0
 70
    12
 71
     2
 72
     6
 73
     3
 74
     0
 42
0.000000001
 43
0.0000000001
 40
0.3128501539318679
 40
0.3128501539318679
 40
0.3128501539318679
 40
0.3138215104415265
 40
0.3138215104415265
 40
0.3138215104415265
 10
158.3335965101029
 20
219.0806747539323
 30
0.0
 41
1.103775396018747
 10
158.2683337758634
 20
219.0917389858179
 30
0.0
 41
1.05204880214373
 10
158.1958764670833
 20
219.104024212071
 30
0.0
 41
1.0
  0
SPLINE
  5
27A
330
2
100
AcDbEntity
  8
UMRISS05
100
AcDbSpline
210
0.0
220
0.0
230
1.0
 70
    12
 71
     2
 72
     6
 73
     3
 74
     0
 42
0.000000001
 43
0.0000000001
 40
0.0
 40
0.0
 40
0.0
 40
0.0009713565096583
 40
0.0009713565096583
 40
0.0009713565096583
 10
159.4314175014679
 20
220.3395652464556
 30
0.0
 41
1.0
 10
159.4437027277209
 20
220.2671079376754
 30
0.0
 41
1.052048802143717
 10
159.4547669596066
 20
220.2018452034359
 30
0.0
 41
1.103775396018721
  0
LINE
  5
27B
330
2
100
AcDbEntity
  8
UMRISS05
100
AcDbLine
 10
159.0778707678379
 20
221.571117648543
 30
0.0
 11
159.2481298888982
 21
220.1766162252157
 31
0.0
  0
LINE
  5
27C
330
2
100
AcDbEntity
  8
UMRISS05
100
AcDbLine
 10
159.0778707678379
 20
216.3242481031824
 30
0.0
 11
159.2481298888982
 21
217.7187495265097
 31
0.0
  0
SPLINE
  5
27D
330
2
100
AcDbEntity
  8
UMRISS05
100
AcDbSpline
210
0.0
220
0.0
230
1.0
 70
    12
 71
     2
 72
     6
 73
     3
 74
     0
 42
0.000000001
 43
0.0000000001
 40
0.3128501539318679
 40
0.3128501539318679
 40
0.3128501539318679
 40
0.3138215104415265
 40
0.3138215104415265
 40
0.3138215104415265
 10
159.4547669596066
 20
217.6935205482894
 30
0.0
 41
1.103775396018745
 10
159.4437027277209
 20
217.6282578140499
 30
0.0
 41
1.052048802143729
 10
159.4314175014679
 20
217.5558005052698
 30
0.0
 41
1.0
  0
SPLINE
  5
27E
330
2
100
AcDbEntity
  8
UMRISS05
100
AcDbSpline
210
0.0
220
0.0
230
1.0
 70
    12
 71
     2
 72
     6
 73
     3
 74
     0
 42
0.000000001
 43
0.0000000001
 40
0.0
 40
0.0
 40
0.0
 40
0.0009713565096583
 40
0.0009713565096583
 40
0.0009713565096583
 10
158.1958764670833
 20
218.7913415396544
 30
0.0
 41
1.0
 10
158.2683337758634
 20
218.8036267659074
 30
0.0
 41
1.052048802143716
 10
158.3335965101029
 20
218.8146909977931
 30
0.0
 41
1.10377539601872
  0
LINE
  5
27F
330
2
100
AcDbEntity
  8
UMRISS05
100
AcDbLine
 10
156.9643240649959
 20
218.4377948060244
 30
0.0
 11
158.3588254883232
 21
218.6080539270847
 31
0.0
  0
LINE
  5
280
330
2
100
AcDbEntity
  8
UMRISS05
100
AcDbLine
 10
162.2111936103565
 20
218.4377948060244
 30
0.0
 11
160.8166921870292
 21
218.6080539270847
 31
0.0
  0
SPLINE
  5
281
330
2
100
AcDbEntity
  8
UMRISS05
100
AcDbSpline
210
0.0
220
0.0
230
1.0
 70
    12
 71
     2
 72
     6
 73
     3
 74
     0
 42
0.000000001
 43
0.0000000001
 40
0.3128501539318679
 40
0.3128501539318679
 40
0.3128501539318679
 40
0.3138215104415265
 40
0.3138215104415265
 40
0.3138215104415265
 10
160.8419211652494
 20
218.8146909977931
 30
0.0
 41
1.103775396018747
 10
160.907183899489
 20
218.8036267659074
 30
0.0
 41
1.05204880214373
 10
160.9796412082691
 20
218.7913415396544
 30
0.0
 41
1.0
  0
SPLINE
  5
282
330
2
100
AcDbEntity
  8
UMRISS05
100
AcDbSpline
210
0.0
220
0.0
230
1.0
 70
    12
 71
     2
 72
     6
 73
     3
 74
     0
 42
0.000000001
 43
0.0000000001
 40
0.0
 40
0.0
 40
0.0
 40
0.2488432263388232
 40
0.2488432263388232
 40
0.2488432263388232
 10
160.9796412082691
 20
218.7913415396544
 30
0.0
 41
1.0
 10
161.3632208803741
 20
218.6748251859812
 30
0.0
 41
1.042323306882263
 10
162.0366982434249
 20
218.4687641195885
 30
0.0
 41
1.003027534749544
  0
SPLINE
  5
283
330
2
100
AcDbEntity
  8
UMRISS05
100
AcDbSpline
210
0.0
220
0.0
230
1.0
 70
    12
 71
     2
 72
     6
 73
     3
 74
     0
 42
0.000000001
 43
0.0000000001
 40
0.0092304584176924
 40
0.0092304584176924
 40
0.0092304584176924
 40
0.2580736847564094
 40
0.2580736847564094
 40
0.2580736847564094
 10
162.0366982434249
 20
219.4266016321368
 30
0.0
 41
1.003027534749187
 10
161.3632208803785
 20
219.2205405657456
 30
0.0
 41
1.042323306876795
 10
160.9796412082691
 20
219.104024212071
 30
0.0
 41
1.0
  0
SPLINE
  5
284
330
2
100
AcDbEntity
  8
UMRISS05
100
AcDbSpline
210
0.0
220
0.0
230
1.0
 70
    12
 71
     2
 72
     6
 73
     3
 74
     0
 42
0.000000001
 43
0.0000000001
 40
0.0
 40
0.0
 40
0.0
 40
0.2488432263388046
 40
0.2488432263388046
 40
0.2488432263388046
 10
159.4314175014679
 20
217.5558005052698
 30
0.0
 41
1.0
 10
159.3149011477945
 20
217.172220833164
 30
0.0
 41
1.042323306881422
 10
159.108840081402
 20
216.498743470114
 30
0.0
 41
1.00302753474949
  0
SPLINE
  5
285
330
2
100
AcDbEntity
  8
UMRISS05
100
AcDbSpline
210
0.0
220
0.0
230
1.0
 70
    12
 71
     2
 72
     6
 73
     3
 74
     0
 42
0.000000001
 43
0.0000000001
 40
0.0092304584176058
 40
0.0092304584176058
 40
0.0092304584176058
 40
0.2580736847564094
 40
0.2580736847564094
 40
0.2580736847564094
 10
160.0666775939503
 20
216.498743470114
 30
0.0
 41
1.003027534749502
 10
159.860616527558
 20
217.1722208331638
 30
0.0
 41
1.042323306881585
 10
159.7441001738844
 20
217.5558005052698
 30
0.0
 41
1.0
  0
SPLINE
  5
286
330
2
100
AcDbEntity
  8
UMRISS05
100
AcDbSpline
210
0.0
220
0.0
230
1.0
 70
    12
 71
     2
 72
     6
 73
     3
 74
     0
 42
0.000000001
 43
0.0000000001
 40
0.0
 40
0.0
 40
0.0
 40
0.2488432263388447
 40
0.2488432263388447
 40
0.2488432263388447
 10
158.1958764670833
 20
219.104024212071
 30
0.0
 41
1.0
 10
157.8122967949791
 20
219.2205405657439
 30
0.0
 41
1.042323306883599
 10
157.1388194319276
 20
219.4266016321368
 30
0.0
 41
1.003027534749632
  0
SPLINE
  5
287
330
2
100
AcDbEntity
  8
UMRISS05
100
AcDbSpline
210
0.0
220
0.0
230
1.0
 70
    12
 71
     2
 72
     6
 73
     3
 74
     0
 42
0.000000001
 43
0.0000000001
 40
0.0092304584176924
 40
0.0092304584176924
 40
0.0092304584176924
 40
0.2580736847564094
 40
0.2580736847564094
 40
0.2580736847564094
 10
157.1388194319276
 20
218.4687641195885
 30
0.0
 41
1.003027534749187
 10
157.8122967949739
 20
218.6748251859798
 30
0.0
 41
1.042323306876795
 10
158.1958764670833
 20
218.7913415396544
 30
0.0
 41
1.0
  0
SPLINE
  5
288
330
2
100
AcDbEntity
  8
UMRISS05
100
AcDbSpline
210
0.0
220
0.0
230
1.0
 70
    12
 71
     2
 72
     6
 73
     3
 74
     0
 42
0.000000001
 43
0.0000000001
 40
0.0
 40
0.0
 40
0.0
 40
0.248843226338804
 40
0.248843226338804
 40
0.248843226338804
 10
159.7441001738844
 20
220.3395652464556
 30
0.0
 41
1.0
 10
159.8606165275579
 20
220.7231449185614
 30
0.0
 41
1.042323306881358
 10
160.0666775939503
 20
221.3966222816113
 30
0.0
 41
1.003027534749485
  0
SPLINE
  5
289
330
2
100
AcDbEntity
  8
UMRISS05
100
AcDbSpline
210
0.0
220
0.0
230
1.0
 70
    12
 71
     2
 72
     6
 73
     3
 74
     0
 42
0.000000001
 43
0.0000000001
 40
0.0092304584176096
 40
0.0092304584176096
 40
0.0092304584176096
 40
0.2580736847564094
 40
0.2580736847564094
 40
0.2580736847564094
 10
159.108840081402
 20
221.3966222816113
 30
0.0
 41
1.003027534749471
 10
159.3149011477944
 20
220.7231449185615
 30
0.0
 41
1.042323306881137
 10
159.4314175014679
 20
220.3395652464556
 30
0.0
 41
1.0
  0
ARC
  5
28A
330
2
100
AcDbEntity
  8
UMRISS05
100
AcDbCircle
 10
158.4014584584621
 20
218.2588700644574
 30
0.0
 40
0.3517768327536241
100
AcDbArc
 50
1.348838403749262
 51
96.960972189748
  0
SPLINE
  5
28B
330
2
100
AcDbEntity
  8
UMRISS05
100
AcDbSpline
210
0.0
220
0.0
230
1.0
 70
     8
 71
     3
 72
    20
 73
    16
 74
     0
 42
0.000000001
 43
0.0000000001
 40
0.2241139880688272
 40
0.2241139880688272
 40
0.2241139880688272
 40
0.2241139880688272
 40
0.228106037700217
 40
0.228106037700217
 40
0.2456065250842322
 40
0.2456065250842322
 40
0.2631070124682474
 40
0.2631070124682474
 40
0.2779942172629967
 40
0.2779942172629967
 40
0.292881422057746
 40
0.292881422057746
 40
0.3077686268524953
 40
0.3077686268524953
 40
0.315070770601214
 40
0.315070770601214
 40
0.315070770601214
 40
0.315070770601214
 10
158.3335965101029
 20
218.8146909977931
 30
0.0
 10
158.3453546225597
 20
218.8166843939368
 30
0.0
 10
158.3570952694758
 20
218.8182895276876
 30
0.0
 10
158.4200044515867
 20
218.8249038696691
 30
0.0
 10
158.4764258851103
 20
218.8233011721356
 30
0.0
 10
158.5870683070426
 20
218.8023978233166
 30
0.0
 10
158.6413037443478
 20
218.7830979240172
 30
0.0
 10
158.7296276099655
 20
218.7363127551373
 30
0.0
 10
158.7717552165278
 20
218.7070993962513
 30
0.0
 10
158.8468210465726
 20
218.6359867264254
 30
0.0
 10
158.8797384083546
 20
218.5939609397217
 30
0.0
 10
158.9295740042707
 20
218.5081321262113
 30
0.0
 10
158.9497544532499
 20
218.4587107853377
 30
0.0
 10
158.9680485499174
 20
218.3838538560193
 30
0.0
 10
158.9722641775829
 20
218.3590146460652
 30
0.0
 10
158.9747572838897
 20
218.3346813220762
 30
0.0
  0
SPLINE
  5
28C
330
2
100
AcDbEntity
  8
UMRISS05
100
AcDbSpline
210
0.0
220
0.0
230
1.0
 70
    24
 71
     3
 72
    14
 73
    10
 74
     0
 42
0.000000001
 43
0.0000000001
 40
-2.18193006425566
 40
-2.18193006425566
 40
-2.18193006425566
 40
-2.18193006425566
 40
-2.170719183657812
 40
-2.170719183657812
 40
-2.102884209168506
 40
-2.102884209168506
 40
-2.035049234679199
 40
-2.035049234679199
 40
-1.940275091644172
 40
-1.940275091644172
 40
-1.940275091644172
 40
-1.940275091644172
 10
158.7230593594632
 20
218.0829833976497
 30
0.0
 10
158.7315867046538
 20
218.0915107428404
 30
0.0
 10
158.7388944453805
 20
218.098818483567
 30
0.0
 10
158.7832718592857
 20
218.1431958974723
 30
0.0
 10
158.8074590280342
 20
218.1673830662207
 30
0.0
 10
158.8546758559026
 20
218.2145998940892
 30
0.0
 10
158.8756659114546
 20
218.235589949641
 30
0.0
 10
158.9236625788967
 20
218.2835866170833
 30
0.0
 10
158.9496076429066
 20
218.3095316810931
 30
0.0
 10
158.9747572838897
 20
218.3346813220762
 30
0.0
  0
ARC
  5
28D
330
2
100
AcDbEntity
  8
UMRISS05
100
AcDbCircle
 10
160.7740592168903
 20
219.636495687268
 30
0.0
 40
0.3517768327536241
100
AcDbArc
 50
181.3488384037492
 51
276.960972189748
  0
SPLINE
  5
28E
330
2
100
AcDbEntity
  8
UMRISS05
100
AcDbSpline
210
0.0
220
0.0
230
1.0
 70
     8
 71
     3
 72
    20
 73
    16
 74
     0
 42
0.000000001
 43
0.0000000001
 40
0.2241139880688272
 40
0.2241139880688272
 40
0.2241139880688272
 40
0.2241139880688272
 40
0.228106037700217
 40
0.228106037700217
 40
0.2456065250842322
 40
0.2456065250842322
 40
0.2631070124682474
 40
0.2631070124682474
 40
0.2779942172629967
 40
0.2779942172629967
 40
0.292881422057746
 40
0.292881422057746
 40
0.3077686268524953
 40
0.3077686268524953
 40
0.3150707706012139
 40
0.3150707706012139
 40
0.3150707706012139
 40
0.3150707706012139
 10
160.8419211652494
 20
219.0806747539323
 30
0.0
 10
160.8301630527927
 20
219.0786813577886
 30
0.0
 10
160.8184224058765
 20
219.0770762240378
 30
0.0
 10
160.7555132237656
 20
219.0704618820563
 30
0.0
 10
160.699091790242
 20
219.0720645795898
 30
0.0
 10
160.5884493683098
 20
219.0929679284088
 30
0.0
 10
160.5342139310045
 20
219.1122678277082
 30
0.0
 10
160.4458900653869
 20
219.1590529965881
 30
0.0
 10
160.4037624588246
 20
219.1882663554741
 30
0.0
 10
160.3286966287797
 20
219.2593790253
 30
0.0
 10
160.2957792669978
 20
219.3014048120037
 30
0.0
 10
160.2459436710816
 20
219.3872336255141
 30
0.0
 10
160.2257632221024
 20
219.4366549663877
 30
0.0
 10
160.207469125435
 20
219.5115118957062
 30
0.0
 10
160.2032534977695
 20
219.5363511056602
 30
0.0
 10
160.2007603914626
 20
219.5606844296491
 30
0.0
  0
SPLINE
  5
28F
330
2
100
AcDbEntity
  8
UMRISS05
100
AcDbSpline
210
0.0
220
0.0
230
1.0
 70
    24
 71
     3
 72
    14
 73
    10
 74
     0
 42
0.000000001
 43
0.0000000001
 40
-2.181930064255661
 40
-2.181930064255661
 40
-2.181930064255661
 40
-2.181930064255661
 40
-2.170719183657814
 40
-2.170719183657814
 40
-2.102884209168507
 40
-2.102884209168507
 40
-2.0350492346792
 40
-2.0350492346792
 40
-1.940275091644172
 40
-1.940275091644172
 40
-1.940275091644172
 40
-1.940275091644172
 10
160.4524583158892
 20
219.8123823540757
 30
0.0
 10
160.4439309706985
 20
219.803855008885
 30
0.0
 10
160.4366232299718
 20
219.7965472681584
 30
0.0
 10
160.3922458160666
 20
219.7521698542531
 30
0.0
 10
160.3680586473182
 20
219.7279826855047
 30
0.0
 10
160.3208418194498
 20
219.6807658576362
 30
0.0
 10
160.2998517638979
 20
219.6597758020843
 30
0.0
 10
160.2518550964556
 20
219.6117791346422
 30
0.0
 10
160.2259100324457
 20
219.5858340706323
 30
0.0
 10
160.2007603914626
 20
219.5606844296491
 30
0.0
  0
ELLIPSE
  5
290
330
2
100
AcDbEntity
  8
UMRISS05
100
AcDbEllipse
 10
160.7373913369255
 20
218.2272352875336
 30
0.0
 11
-0.241976611770051
 21
-0.2087624411738864
 31
0.0
210
0.0
220
0.0
230
1.0
 40
0.9884519215740034
 41
5.439531080708608
 42
6.037261572160079
  0
ELLIPSE
  5
291
330
2
100
AcDbEntity
  8
UMRISS05
100
AcDbEllipse
 10
160.3082064260053
 20
217.7980503766134
 30
0.0
 11
-0.2087624411738866
 21
-0.2419766117700504
 31
0.0
210
0.0
220
0.0
230
1.0
 40
0.9884519215740041
 41
3.387516388609288
 42
3.985246880060831
  0
ELLIPSE
  5
292
330
2
100
AcDbEntity
  8
UMRISS05
100
AcDbEllipse
 10
158.4381263384269
 20
219.6681304641918
 30
0.0
 11
0.241976611770051
 21
0.2087624411738864
 31
0.0
210
0.0
220
0.0
230
1.0
 40
0.9884519215740034
 41
5.439531080708608
 42
6.037261572160079
  0
ELLIPSE
  5
293
330
2
100
AcDbEntity
  8
UMRISS05
100
AcDbEllipse
 10
158.8673112493471
 20
220.0973153751121
 30
0.0
 11
0.2087624411738869
 21
0.2419766117700504
 31
0.0
210
0.0
220
0.0
230
1.0
 40
0.9884519215740052
 41
3.387516388609287
 42
3.985246880060831
  0
ELLIPSE
  5
294
330
2
100
AcDbEntity
  8
UMRISS05
100
AcDbEllipse
 10
158.8673112493471
 20
217.7980503766134
 30
0.0
 11
-0.2087624411738862
 21
0.2419766117700507
 31
0.0
210
0.0
220
0.0
230
1.0
 40
0.988451921574005
 41
5.439531080708549
 42
6.037261572160091
  0
ELLIPSE
  5
295
330
2
100
AcDbEntity
  8
UMRISS05
100
AcDbEllipse
 10
160.3082064260053
 20
220.0973153751121
 30
0.0
 11
0.2087624411738866
 21
-0.2419766117700509
 31
0.0
210
0.0
220
0.0
230
1.0
 40
0.9884519215740045
 41
5.439531080708548
 42
6.037261572160091
  0
ELLIPSE
  5
296
330
2
100
AcDbEntity
  8
UMRISS05
100
AcDbEllipse
 10
158.4381263384269
 20
218.2272352875336
 30
0.0
 11
-0.2419766117700503
 21
0.2087624411738864
 31
0.0
210
0.0
220
0.0
230
1.0
 40
0.9884519215740056
 41
3.3875163886093
 42
3.98524688006077
  0
ELLIPSE
  5
297
330
2
100
AcDbEntity
  8
UMRISS05
100
AcDbEllipse
 10
160.7373913369255
 20
219.6681304641918
 30
0.0
 11
0.2419766117700503
 21
-0.2087624411738864
 31
0.0
210
0.0
220
0.0
230
1.0
 40
0.9884519215740056
 41
3.3875163886093
 42
3.98524688006077
  0
ARC
  5
298
330
2
100
AcDbEntity
  8
UMRISS05
100
AcDbCircle
 10
159.5877588376762
 20
218.9476828758627
 30
0.0
 40
1.400635265504448
100
AcDbArc
 50
353.5911901568396
 51
6.408809843160361
  0
ARC
  5
299
330
2
100
AcDbEntity
  8
UMRISS05
100
AcDbCircle
 10
159.5877588376762
 20
218.9476828758627
 30
0.0
 40
1.400635265504439
100
AcDbArc
 50
263.591190156838
 51
276.408809843162
  0
ARC
  5
29A
330
2
100
AcDbEntity
  8
UMRISS05
100
AcDbCircle
 10
159.5877588376762
 20
218.9476828758627
 30
0.0
 40
1.40063526550444
100
AcDbArc
 50
173.5911901568396
 51
186.4088098431603
  0
ARC
  5
29B
330
2
100
AcDbEntity
  8
UMRISS05
100
AcDbCircle
 10
159.5877588376762
 20
218.9476828758627
 30
0.0
 40
1.400635265504442
100
AcDbArc
 50
83.591190156838
 51
96.40880984316199
  0
LINE
  5
29C
330
2
100
AcDbEntity
  8
UMRISS05
100
AcDbLine
 10
157.1331388376315
 20
147.6690766731277
 30
0.0
 11
156.1331388376316
 21
146.6690766731276
 31
0.0
  0
LINE
  5
29D
330
2
100
AcDbEntity
  8
UMRISS05
100
AcDbLine
 10
162.0423788376316
 20
147.6690766731277
 30
0.0
 11
163.0423788376316
 21
146.6690766731276
 31
0.0
  0
LINE
  5
29E
330
2
100
AcDbEntity
  8
UMRISS05
100
AcDbLine
 10
162.0877588376316
 20
152.5690766731277
 30
0.0
 11
162.0877588376316
 21
152.6782166731277
 31
0.0
  0
LINE
  5
29F
330
2
100
AcDbEntity
  8
UMRISS05
100
AcDbLine
 10
157.0877588376316
 20
152.5690766731277
 30
0.0
 11
157.0877588376316
 21
152.6782166731277
 31
0.0
  0
LINE
  5
2A0
330
2
100
AcDbEntity
  8
AVERDECKTE
100
AcDbLine
 10
164.2377588376316
 20
145.1690766731277
 30
0.0
 11
164.2377588376316
 21
145.4736966731277
 31
0.0
  0
LINE
  5
2A1
330
2
100
AcDbEntity
  8
AVERDECKTE
100
AcDbLine
 10
154.9377588376316
 20
145.1690766731277
 30
0.0
 11
154.9377588376316
 21
145.4736966731277
 31
0.0
  0
LINE
  5
2A2
330
2
100
AcDbEntity
  8
AVERDECKTE
100
AcDbLine
 10
156.1331388376316
 20
146.6690766731276
 30
0.0
 11
154.9377588376316
 21
145.4736966731277
 31
0.0
  0
LINE
  5
2A3
330
2
100
AcDbEntity
  8
AVERDECKTE
100
AcDbLine
 10
157.3331388376316
 20
147.8690766731276
 30
0.0
 11
157.1331388376315
 21
147.6690766731277
 31
0.0
  0
LINE
  5
2A4
330
2
100
AcDbEntity
  8
AVERDECKTE
100
AcDbLine
 10
163.0423788376316
 20
146.6690766731276
 30
0.0
 11
164.2377588376316
 21
145.4736966731277
 31
0.0
  0
LINE
  5
2A5
330
2
100
AcDbEntity
  8
AVERDECKTE
100
AcDbLine
 10
161.8423788376316
 20
147.8690766731276
 30
0.0
 11
162.0423788376316
 21
147.6690766731277
 31
0.0
  0
LINE
  5
2A6
330
2
100
AcDbEntity
  8
AVERDECKTE
100
AcDbLine
 10
164.2377588376316
 20
145.4736966731277
 30
0.0
 11
154.9377588376316
 21
145.4736966731277
 31
0.0
  0
LINE
  5
2A7
330
2
100
AcDbEntity
  8
UMRISS05
100
AcDbLine
 10
157.5785188376316
 20
153.1690766731277
 30
0.0
 11
157.0877588376316
 21
152.6782166731277
 31
0.0
  0
LINE
  5
2A8
330
2
100
AcDbEntity
  8
UMRISS05
100
AcDbLine
 10
161.5969988376316
 20
153.1690766731277
 30
0.0
 11
162.0877588376316
 21
152.6782166731277
 31
0.0
  0
LINE
  5
2A9
330
2
100
AcDbEntity
  8
UMRISS05
100
AcDbLine
 10
162.0877588376316
 20
152.6782166731277
 30
0.0
 11
157.0877588376316
 21
152.6782166731277
 31
0.0
  0
LINE
  5
2AA
330
2
100
AcDbEntity
  8
UMRISS05
100
AcDbLine
 10
161.8971599143901
 20
151.8942684351664
 30
0.0
 11
161.8971599143901
 21
148.5438849110913
 31
0.0
  0
LINE
  5
2AB
330
2
100
AcDbEntity
  8
UMRISS05
100
AcDbLine
 10
157.2783577608731
 20
151.8942684351664
 30
0.0
 11
157.2783577608731
 21
148.5438849110913
 31
0.0
  0
LINE
  5
2AC
330
2
100
AcDbEntity
  8
AVERDECKTE
100
AcDbLine
 10
164.2065609911486
 20
151.8942684351652
 30
0.0
 11
164.2065609911486
 21
148.5438849110901
 31
0.0
  0
LINE
  5
2AD
330
2
100
AcDbEntity
  8
AVERDECKTE
100
AcDbLine
 10
154.9689566841146
 20
151.8942684351652
 30
0.0
 11
154.9689566841146
 21
148.5438849110901
 31
0.0
  0
LINE
  5
2AE
330
2
100
AcDbEntity
  8
AVERDECKTE
100
AcDbLine
 10
163.0377588376316
 20
147.8690766731276
 30
0.0
 11
164.2065609911486
 21
148.5438849110901
 31
0.0
  0
LINE
  5
2AF
330
2
100
AcDbEntity
  8
AVERDECKTE
100
AcDbLine
 10
156.1377588376316
 20
147.8690766731276
 30
0.0
 11
154.9689566841146
 21
148.5438849110901
 31
0.0
  0
LINE
  5
2B0
330
2
100
AcDbEntity
  8
AVERDECKTE
100
AcDbLine
 10
155.0877588376316
 20
151.9628588904786
 30
0.0
 11
154.9689566841146
 21
151.8942684351652
 31
0.0
  0
LINE
  5
2B1
330
2
100
AcDbEntity
  8
AVERDECKTE
100
AcDbLine
 10
164.0877588376316
 20
151.9628588904786
 30
0.0
 11
164.2065609911486
 21
151.8942684351652
 31
0.0
  0
SPLINE
  5
2B2
330
2
100
AcDbEntity
  8
AVERDECKTE
100
AcDbSpline
210
0.0
220
0.0
230
1.0
 70
    12
 71
     2
 72
     6
 73
     3
 74
     0
 42
0.000000001
 43
0.0000000001
 40
0.0
 40
0.0
 40
0.0
 40
0.2730540019323509
 40
0.2730540019323509
 40
0.2730540019323509
 10
154.9689566841146
 20
148.5438849110901
 30
0.0
 41
1.0
 10
155.6833611814798
 20
148.1314232822264
 30
0.0
 41
1.090380637265789
 10
156.304579926347
 20
148.1960492788808
 30
0.0
 41
1.075155183199891
  0
SPLINE
  5
2B3
330
2
100
AcDbEntity
  8
AVERDECKTE
100
AcDbSpline
210
0.0
220
0.0
230
1.0
 70
    12
 71
     2
 72
     6
 73
     3
 74
     0
 42
0.000000001
 43
0.0000000001
 40
0.1943204532988174
 40
0.1943204532988174
 40
0.1943204532988174
 40
0.4673744552311687
 40
0.4673744552311687
 40
0.4673744552311687
 10
162.8709377489162
 20
148.1960492788808
 30
0.0
 41
1.075155183199892
 10
163.4921564937834
 20
148.1314232822264
 30
0.0
 41
1.090380637265789
 10
164.2065609911486
 20
148.5438849110901
 30
0.0
 41
1.0
  0
SPLINE
  5
2B4
330
2
100
AcDbEntity
  8
AVERDECKTE
100
AcDbSpline
210
0.0
220
0.0
230
1.0
 70
    12
 71
     2
 72
     6
 73
     3
 74
     0
 42
0.000000001
 43
0.0000000001
 40
0.0
 40
0.0
 40
0.0
 40
0.0212304624256399
 40
0.0212304624256399
 40
0.0212304624256399
 10
164.2065609911486
 20
151.8942684351652
 30
0.0
 41
1.0
 10
164.1464170353158
 20
151.9289925642554
 30
0.0
 41
1.007027264606625
 10
164.0877588376316
 20
151.9601440776086
 30
0.0
 41
1.013416102891418
  0
SPLINE
  5
2B5
330
2
100
AcDbEntity
  8
AVERDECKTE
100
AcDbSpline
210
0.0
220
0.0
230
1.0
 70
    12
 71
     2
 72
     6
 73
     3
 74
     0
 42
0.000000001
 43
0.0000000001
 40
0.4461439928055234
 40
0.4461439928055234
 40
0.4461439928055234
 40
0.4673744552311663
 40
0.4673744552311663
 40
0.4673744552311663
 10
155.0877588376316
 20
151.9601440776087
 30
0.0
 41
1.01341610289142
 10
155.0291006399474
 20
151.9289925642554
 30
0.0
 41
1.007027264606626
 10
154.9689566841146
 20
151.8942684351652
 30
0.0
 41
1.0
  0
LINE
  5
2B6
330
2
100
AcDbEntity
  8
AVERDECKTE
100
AcDbLine
 10
156.1377588376316
 20
147.8690766731276
 30
0.0
 11
163.0377588376316
 21
147.8690766731276
 31
0.0
  0
LINE
  5
2B7
330
2
100
AcDbEntity
  8
UMRISS05
100
AcDbLine
 10
156.1377588376316
 20
152.5690766731277
 30
0.0
 11
155.0877588376316
 21
151.9628588904786
 31
0.0
  0
LINE
  5
2B8
330
2
100
AcDbEntity
  8
UMRISS05
100
AcDbLine
 10
163.0377588376316
 20
152.5690766731277
 30
0.0
 11
164.0877588376316
 21
151.9628588904786
 31
0.0
  0
SPLINE
  5
2B9
330
2
100
AcDbEntity
  8
UMRISS05
100
AcDbSpline
210
0.0
220
0.0
230
1.0
 70
    12
 71
     2
 72
     6
 73
     3
 74
     0
 42
0.000000001
 43
0.0000000001
 40
0.2730540019323509
 40
0.2730540019323509
 40
0.2730540019323509
 40
0.4673744552311663
 40
0.4673744552311663
 40
0.4673744552311663
 10
156.304579926347
 20
148.1960492788808
 30
0.0
 41
1.075155183199891
 10
156.7574988521458
 20
148.2431668799275
 30
0.0
 41
1.064319901113462
 10
157.2783577608731
 20
148.5438849110913
 30
0.0
 41
1.0
  0
SPLINE
  5
2BA
330
2
100
AcDbEntity
  8
UMRISS05
100
AcDbSpline
210
0.0
220
0.0
230
1.0
 70
    12
 71
     2
 72
     6
 73
     3
 74
     0
 42
0.000000001
 43
0.0000000001
 40
0.0
 40
0.0
 40
0.0
 40
0.4673744552311658
 40
0.4673744552311658
 40
0.4673744552311658
 10
157.2783577608731
 20
148.5438849110913
 30
0.0
 41
1.0
 10
159.5877588376316
 20
147.8772182444246
 30
0.0
 41
1.154700538379249
 10
161.8971599143901
 20
148.5438849110913
 30
0.0
 41
1.0
  0
SPLINE
  5
2BB
330
2
100
AcDbEntity
  8
UMRISS05
100
AcDbSpline
210
0.0
220
0.0
230
1.0
 70
    12
 71
     2
 72
     6
 73
     3
 74
     0
 42
0.000000001
 43
0.0000000001
 40
0.0
 40
0.0
 40
0.0
 40
0.1943204532988174
 40
0.1943204532988174
 40
0.1943204532988174
 10
161.8971599143901
 20
148.5438849110913
 30
0.0
 41
1.0
 10
162.4180188231174
 20
148.2431668799275
 30
0.0
 41
1.064319901113463
 10
162.8709377489162
 20
148.1960492788808
 30
0.0
 41
1.075155183199892
  0
SPLINE
  5
2BC
330
2
100
AcDbEntity
  8
UMRISS05
100
AcDbSpline
210
0.0
220
0.0
230
1.0
 70
    12
 71
     2
 72
     6
 73
     3
 74
     0
 42
0.000000001
 43
0.0000000001
 40
0.0212304624256399
 40
0.0212304624256399
 40
0.0212304624256399
 40
0.467374455231168
 40
0.467374455231168
 40
0.467374455231168
 10
164.0877588376316
 20
151.9601440776086
 30
0.0
 41
1.013416102891418
 10
163.0061573608711
 20
152.5345484094222
 30
0.0
 41
1.147673273772627
 10
161.8971599143901
 20
151.8942684351664
 30
0.0
 41
1.0
  0
SPLINE
  5
2BD
330
2
100
AcDbEntity
  8
UMRISS05
100
AcDbSpline
210
0.0
220
0.0
230
1.0
 70
    12
 71
     2
 72
     6
 73
     3
 74
     0
 42
0.000000001
 43
0.0000000001
 40
0.0
 40
0.0
 40
0.0
 40
0.4673744552311656
 40
0.4673744552311656
 40
0.4673744552311656
 10
161.8971599143901
 20
151.8942684351664
 30
0.0
 41
1.0
 10
159.5877588376316
 20
152.5609351018331
 30
0.0
 41
1.154700538379249
 10
157.2783577608731
 20
151.8942684351664
 30
0.0
 41
1.0
  0
SPLINE
  5
2BE
330
2
100
AcDbEntity
  8
UMRISS05
100
AcDbSpline
210
0.0
220
0.0
230
1.0
 70
    12
 71
     2
 72
     6
 73
     3
 74
     0
 42
0.000000001
 43
0.0000000001
 40
0.0
 40
0.0
 40
0.0
 40
0.4461439928055234
 40
0.4461439928055234
 40
0.4461439928055234
 10
157.2783577608731
 20
151.8942684351664
 30
0.0
 41
1.0
 10
156.169360314392
 20
152.5345484094223
 30
0.0
 41
1.147673273772625
 10
155.0877588376316
 20
151.9601440776087
 30
0.0
 41
1.01341610289142
  0
LINE
  5
2BF
330
2
100
AcDbEntity
  8
UMRISS05
100
AcDbLine
 10
163.0377588376316
 20
152.5690766731277
 30
0.0
 11
156.1377588376316
 21
152.5690766731277
 31
0.0
  0
LINE
  5
2C0
330
2
100
AcDbEntity
  8
UMRISS05
100
AcDbLine
 10
149.7755089377117
 20
145.2190766731259
 30
0.0
 11
149.0877588376316
 21
145.2190766731259
 31
0.0
  0
LINE
  5
2C1
330
2
100
AcDbEntity
  8
UMRISS05
100
AcDbLine
 10
151.0877588376316
 20
146.6690766731259
 30
0.0
 11
151.0877588376316
 21
153.6690766731652
 31
0.0
  0
LINE
  5
2C2
330
2
100
AcDbEntity
  8
UMRISS05
100
AcDbLine
 10
151.0877588376316
 20
147.2190766731293
 30
0.0
 11
150.5877588376316
 21
147.2190766731293
 31
0.0
  0
ARC
  5
2C3
330
2
100
AcDbEntity
  8
UMRISS05
100
AcDbCircle
 10
162.5877588376316
 20
149.6690766731291
 30
0.0
 40
1.500000000000003
100
AcDbArc
 50
318.1896851042213
 51
0.0
  0
ARC
  5
2C4
330
2
100
AcDbEntity
  8
UMRISS05
100
AcDbCircle
 10
156.5877588376316
 20
149.6690766731291
 30
0.0
 40
1.499999999999993
100
AcDbArc
 50
180.0
 51
221.8103148957794
  0
LINE
  5
2C5
330
2
100
AcDbEntity
  8
UMRISS05
100
AcDbLine
 10
164.0877588376316
 20
149.6690766731291
 30
0.0
 11
164.0877588376316
 21
153.1690766731288
 31
0.0
  0
LINE
  5
2C6
330
2
100
AcDbEntity
  8
UMRISS05
100
AcDbLine
 10
155.0877588376316
 20
153.1690766731288
 30
0.0
 11
155.0877588376316
 21
149.6690766731291
 31
0.0
  0
LINE
  5
2C7
330
2
100
AcDbEntity
  8
UMRISS05
100
AcDbLine
 10
167.5877588376315
 20
153.1690766731258
 30
0.0
 11
151.3877588376316
 21
153.1690766731288
 31
0.0
  0
SPLINE
  5
2C8
330
2
100
AcDbEntity
  8
UMRISS05
100
AcDbSpline
210
0.0
220
0.0
230
1.0
 70
     8
 71
     3
 72
    10
 73
     6
 74
     0
 42
0.000000001
 43
0.0000000001
 40
0.0
 40
0.0
 40
0.0
 40
0.0
 40
0.0637120304529076
 40
0.0637120304529076
 40
0.1235509952121636
 40
0.1235509952121636
 40
0.1235509952121636
 40
0.1235509952121636
 10
156.5877588376316
 20
148.1690766731291
 30
0.0
 10
156.3753854027886
 20
148.1690766731291
 30
0.0
 10
156.1554032412244
 20
148.2162139454489
 30
0.0
 10
155.7709479086964
 20
148.3943471850484
 30
0.0
 10
155.6031449435953
 20
148.5199084724571
 30
0.0
 10
155.4697248488817
 20
148.6690766731291
 30
0.0
  0
LINE
  5
2C9
330
2
100
AcDbEntity
  8
UMRISS05
100
AcDbLine
 10
162.5877588376316
 20
148.1690766731291
 30
0.0
 11
156.5877588376316
 21
148.1690766731291
 31
0.0
  0
SPLINE
  5
2CA
330
2
100
AcDbEntity
  8
UMRISS05
100
AcDbSpline
210
0.0
220
0.0
230
1.0
 70
     8
 71
     3
 72
    10
 73
     6
 74
     0
 42
0.000000001
 43
0.0000000001
 40
-0.1235509952121637
 40
-0.1235509952121637
 40
-0.1235509952121637
 40
-0.1235509952121637
 40
-0.0637120304529075
 40
-0.0637120304529075
 40
0.0
 40
0.0
 40
0.0
 40
0.0
 10
163.7057928263815
 20
148.6690766731291
 30
0.0
 10
163.5723727316679
 20
148.5199084724571
 30
0.0
 10
163.4045697665668
 20
148.3943471850484
 30
0.0
 10
163.0201144340388
 20
148.2162139454489
 30
0.0
 10
162.8001322724746
 20
148.1690766731291
 30
0.0
 10
162.5877588376316
 20
148.1690766731291
 30
0.0
  0
LINE
  5
2CB
330
2
100
AcDbEntity
  8
UMRISS05
100
AcDbLine
 10
151.3877588376316
 20
147.6690766731288
 30
0.0
 11
166.2877588376316
 21
147.6690766731288
 31
0.0
  0
ARC
  5
2CC
330
2
100
AcDbEntity
  8
UMRISS05
100
AcDbCircle
 10
151.3877588376316
 20
152.8690766731288
 30
0.0
 40
0.2999999999999996
100
AcDbArc
 50
90.0
 51
180.0
  0
ARC
  5
2CD
330
2
100
AcDbEntity
  8
UMRISS05
100
AcDbCircle
 10
151.3877588376316
 20
147.9690766731289
 30
0.0
 40
0.2999999999999998
100
AcDbArc
 50
180.0
 51
270.0
  0
LINE
  5
2CE
330
2
100
AcDbEntity
  8
UMRISS05
100
AcDbLine
 10
166.5877588376316
 20
152.8690766731288
 30
0.0
 11
166.5877588376316
 21
147.9690766731289
 31
0.0
  0
ARC
  5
2CF
330
2
100
AcDbEntity
  8
UMRISS05
100
AcDbCircle
 10
166.2877588376316
 20
152.8690766731288
 30
0.0
 40
0.2999999999999976
100
AcDbArc
 50
0.0
 51
90.0
  0
ARC
  5
2D0
330
2
100
AcDbEntity
  8
UMRISS05
100
AcDbCircle
 10
166.2877588376316
 20
147.9690766731289
 30
0.0
 40
0.2999999999999976
100
AcDbArc
 50
270.0
 51
0.0
  0
LINE
  5
2D1
330
2
100
AcDbEntity
  8
Sichtbare Kanten(MSL)
100
AcDbLine
 10
166.5877588376316
 20
147.8886919153965
 30
0.0
 11
166.5877588376316
 21
147.9690766731259
 31
0.0
  0
ARC
  5
2D2
330
2
100
AcDbEntity
  8
UMRISS05
100
AcDbCircle
 10
150.0877588376316
 20
154.1690766731639
 30
0.0
 40
0.9999999999999985
100
AcDbArc
 50
90.0
 51
180.0
  0
ARC
  5
2D3
330
2
100
AcDbEntity
  8
UMRISS05
100
AcDbCircle
 10
150.0877588376316
 20
146.1690766731659
 30
0.0
 40
1.0
100
AcDbArc
 50
180.0
 51
270.0
  0
LINE
  5
2D4
330
2
100
AcDbEntity
  8
UMRISS05
100
AcDbLine
 10
149.0877588376316
 20
145.2190766731259
 30
0.0
 11
149.0877588376316
 21
154.1690766731639
 31
0.0
  0
LINE
  5
2D5
330
2
100
AcDbEntity
  8
UMRISS05
100
AcDbLine
 10
169.0877588376316
 20
146.1690766731659
 30
0.0
 11
169.0877588376316
 21
154.1690766731639
 31
0.0
  0
ARC
  5
2D6
330
2
100
AcDbEntity
  8
UMRISS05
100
AcDbCircle
 10
168.0877588376316
 20
154.1690766731639
 30
0.0
 40
0.9999999999999985
100
AcDbArc
 50
0.0
 51
90.0
  0
ARC
  5
2D7
330
2
100
AcDbEntity
  8
UMRISS05
100
AcDbCircle
 10
168.0877588376316
 20
146.1690766731659
 30
0.0
 40
1.0
100
AcDbArc
 50
270.0
 51
0.0
  0
LINE
  5
2D8
330
2
100
AcDbEntity
  8
UMRISS05
100
AcDbLine
 10
150.5877588376316
 20
153.6690766731652
 30
0.0
 11
167.5877588376316
 21
153.6690766731652
 31
0.0
  0
LINE
  5
2D9
330
2
100
AcDbEntity
  8
UMRISS05
100
AcDbLine
 10
168.0877588376316
 20
155.1690766731638
 30
0.0
 11
150.0877588376316
 21
155.1690766731638
 31
0.0
  0
LINE
  5
2DA
330
2
100
AcDbEntity
  8
UMRISS05
100
AcDbLine
 10
150.5877588376316
 20
153.6690766731652
 30
0.0
 11
150.5877588376316
 21
146.6690766731662
 31
0.0
  0
LINE
  5
2DB
330
2
100
AcDbEntity
  8
UMRISS05
100
AcDbLine
 10
167.5877588376316
 20
146.6690766731662
 30
0.0
 11
150.5877588376316
 21
146.6690766731662
 31
0.0
  0
LINE
  5
2DC
330
2
100
AcDbEntity
  8
UMRISS05
100
AcDbLine
 10
167.5877588376316
 20
153.6690766731652
 30
0.0
 11
167.5877588376316
 21
146.6690766731662
 31
0.0
  0
LINE
  5
2DD
330
2
100
AcDbEntity
  8
UMRISS05
100
AcDbLine
 10
168.0877588376316
 20
145.1690766731662
 30
0.0
 11
150.0877588376316
 21
145.1690766731662
 31
0.0
  0
SPLINE
  5
2DE
330
2
100
AcDbEntity
  8
UMRISS05
100
AcDbSpline
210
0.0
220
0.0
230
1.0
 70
     8
 71
     3
 72
    12
 73
     8
 74
     0
 42
0.000000001
 43
0.0000000001
 40
0.0294647780437671
 40
0.0294647780437671
 40
0.0294647780437671
 40
0.0294647780437671
 40
0.0368083486342948
 40
0.0368083486342948
 40
0.0441333469114336
 40
0.0441333469114336
 40
0.0501292249357785
 40
0.0501292249357785
 40
0.0501292249357785
 40
0.0501292249357785
 10
162.2111936103565
 20
278.4377948060245
 30
0.0
 10
162.1868954748577
 20
278.4407614427911
 30
0.0
 10
162.1583597719247
 20
278.4447491605821
 30
0.0
 10
162.1137449265255
 20
278.4518450290304
 30
0.0
 10
162.0897727951245
 20
278.4562061293749
 30
0.0
 10
162.0590481127144
 20
278.4627237871805
 30
0.0
 10
162.0457198535051
 20
278.4660038150918
 30
0.0
 10
162.0366982434249
 20
278.4687641195886
 30
0.0
  0
SPLINE
  5
2DF
330
2
100
AcDbEntity
  8
UMRISS05
100
AcDbSpline
210
0.0
220
0.0
230
1.0
 70
     8
 71
     3
 72
    12
 73
     8
 74
     0
 42
0.000000001
 43
0.0000000001
 40
0.0675087927369181
 40
0.0675087927369181
 40
0.0675087927369181
 40
0.0675087927369181
 40
0.0735046707612629
 40
0.0735046707612629
 40
0.0808296690384017
 40
0.0808296690384017
 40
0.0881732396289295
 40
0.0881732396289295
 40
0.0881732396289295
 40
0.0881732396289295
 10
162.0366982434249
 20
279.4266016321369
 30
0.0
 10
162.0457198535051
 20
279.4293619366337
 30
0.0
 10
162.0590481127144
 20
279.432641964545
 30
0.0
 10
162.0897727951245
 20
279.4391596223506
 30
0.0
 10
162.1137449265255
 20
279.4435207226951
 30
0.0
 10
162.1583597719247
 20
279.4506165911434
 30
0.0
 10
162.1868954748577
 20
279.4546043089344
 30
0.0
 10
162.2111936103565
 20
279.457570945701
 30
0.0
  0
SPLINE
  5
2E0
330
2
100
AcDbEntity
  8
UMRISS05
100
AcDbSpline
210
0.0
220
0.0
230
1.0
 70
     8
 71
     3
 72
    12
 73
     8
 74
     0
 42
0.000000001
 43
0.0000000001
 40
0.029464778043767
 40
0.029464778043767
 40
0.029464778043767
 40
0.029464778043767
 40
0.0368083486342947
 40
0.0368083486342947
 40
0.0441333469114336
 40
0.0441333469114336
 40
0.0501292249357784
 40
0.0501292249357784
 40
0.0501292249357784
 40
0.0501292249357784
 10
159.0778707678379
 20
276.3242481031825
 30
0.0
 10
159.0808374046045
 20
276.3485462386813
 30
0.0
 10
159.0848251223955
 20
276.3770819416143
 30
0.0
 10
159.0919209908438
 20
276.4216967870134
 30
0.0
 10
159.0962820911884
 20
276.4456689184144
 30
0.0
 10
159.102799748994
 20
276.4763936008246
 30
0.0
 10
159.1060797769052
 20
276.4897218600339
 30
0.0
 10
159.108840081402
 20
276.4987434701141
 30
0.0
  0
SPLINE
  5
2E1
330
2
100
AcDbEntity
  8
UMRISS05
100
AcDbSpline
210
0.0
220
0.0
230
1.0
 70
     8
 71
     3
 72
    12
 73
     8
 74
     0
 42
0.000000001
 43
0.0000000001
 40
0.067508792736918
 40
0.067508792736918
 40
0.067508792736918
 40
0.067508792736918
 40
0.0735046707612629
 40
0.0735046707612629
 40
0.0808296690384018
 40
0.0808296690384018
 40
0.0881732396289294
 40
0.0881732396289294
 40
0.0881732396289294
 40
0.0881732396289294
 10
160.0666775939503
 20
276.4987434701141
 30
0.0
 10
160.0694378984472
 20
276.4897218600339
 30
0.0
 10
160.0727179263584
 20
276.4763936008246
 30
0.0
 10
160.079235584164
 20
276.4456689184144
 30
0.0
 10
160.0835966845085
 20
276.4216967870134
 30
0.0
 10
160.0906925529569
 20
276.3770819416143
 30
0.0
 10
160.0946802707479
 20
276.3485462386813
 30
0.0
 10
160.0976469075144
 20
276.3242481031825
 30
0.0
  0
SPLINE
  5
2E2
330
2
100
AcDbEntity
  8
Sichtbare Kanten(MSL)
100
AcDbSpline
210
0.0
220
0.0
230
1.0
 70
     8
 71
     3
 72
    12
 73
     8
 74
     0
 42
0.000000001
 43
0.0000000001
 40
0.0294647780437671
 40
0.0294647780437671
 40
0.0294647780437671
 40
0.0294647780437671
 40
0.0368083486342948
 40
0.0368083486342948
 40
0.0441333469114336
 40
0.0441333469114336
 40
0.0501292249357785
 40
0.0501292249357785
 40
0.0501292249357785
 40
0.0501292249357785
 10
156.9643240649959
 20
279.457570945701
 30
0.0
 10
156.9886222004948
 20
279.4546043089344
 30
0.0
 10
157.0171579034277
 20
279.4506165911434
 30
0.0
 10
157.0617727488269
 20
279.4435207226951
 30
0.0
 10
157.0857448802279
 20
279.4391596223506
 30
0.0
 10
157.116469562638
 20
279.432641964545
 30
0.0
 10
157.1297978218473
 20
279.4293619366337
 30
0.0
 10
157.1388194319276
 20
279.4266016321369
 30
0.0
  0
SPLINE
  5
2E3
330
2
100
AcDbEntity
  8
Sichtbare Kanten(MSL)
100
AcDbSpline
210
0.0
220
0.0
230
1.0
 70
     8
 71
     3
 72
    12
 73
     8
 74
     0
 42
0.000000001
 43
0.0000000001
 40
0.0675087927369181
 40
0.0675087927369181
 40
0.0675087927369181
 40
0.0675087927369181
 40
0.0735046707612629
 40
0.0735046707612629
 40
0.0808296690384017
 40
0.0808296690384017
 40
0.0881732396289295
 40
0.0881732396289295
 40
0.0881732396289295
 40
0.0881732396289295
 10
157.1388194319276
 20
278.4687641195886
 30
0.0
 10
157.1297978218473
 20
278.4660038150918
 30
0.0
 10
157.116469562638
 20
278.4627237871805
 30
0.0
 10
157.0857448802279
 20
278.4562061293749
 30
0.0
 10
157.0617727488269
 20
278.4518450290304
 30
0.0
 10
157.0171579034277
 20
278.4447491605821
 30
0.0
 10
156.9886222004948
 20
278.4407614427911
 30
0.0
 10
156.9643240649959
 20
278.4377948060245
 30
0.0
  0
SPLINE
  5
2E4
330
2
100
AcDbEntity
  8
UMRISS05
100
AcDbSpline
210
0.0
220
0.0
230
1.0
 70
     8
 71
     3
 72
    12
 73
     8
 74
     0
 42
0.000000001
 43
0.0000000001
 40
0.029464778043767
 40
0.029464778043767
 40
0.029464778043767
 40
0.029464778043767
 40
0.0368083486342947
 40
0.0368083486342947
 40
0.0441333469114336
 40
0.0441333469114336
 40
0.0501292249357784
 40
0.0501292249357784
 40
0.0501292249357784
 40
0.0501292249357784
 10
160.0976469075144
 20
281.571117648543
 30
0.0
 10
160.0946802707479
 20
281.5468195130442
 30
0.0
 10
160.0906925529569
 20
281.5182838101113
 30
0.0
 10
160.0835966845085
 20
281.473668964712
 30
0.0
 10
160.079235584164
 20
281.4496968333111
 30
0.0
 10
160.0727179263584
 20
281.4189721509009
 30
0.0
 10
160.0694378984472
 20
281.4056438916916
 30
0.0
 10
160.0666775939503
 20
281.3966222816114
 30
0.0
  0
SPLINE
  5
2E5
330
2
100
AcDbEntity
  8
UMRISS05
100
AcDbSpline
210
0.0
220
0.0
230
1.0
 70
     8
 71
     3
 72
    12
 73
     8
 74
     0
 42
0.000000001
 43
0.0000000001
 40
0.067508792736918
 40
0.067508792736918
 40
0.067508792736918
 40
0.067508792736918
 40
0.0735046707612629
 40
0.0735046707612629
 40
0.0808296690384018
 40
0.0808296690384018
 40
0.0881732396289294
 40
0.0881732396289294
 40
0.0881732396289294
 40
0.0881732396289294
 10
159.108840081402
 20
281.3966222816114
 30
0.0
 10
159.1060797769052
 20
281.4056438916916
 30
0.0
 10
159.102799748994
 20
281.4189721509009
 30
0.0
 10
159.0962820911884
 20
281.4496968333111
 30
0.0
 10
159.0919209908438
 20
281.473668964712
 30
0.0
 10
159.0848251223955
 20
281.5182838101113
 30
0.0
 10
159.0808374046045
 20
281.5468195130442
 30
0.0
 10
159.0778707678379
 20
281.571117648543
 30
0.0
  0
LINE
  5
2E6
330
2
100
AcDbEntity
  8
UMRISS05
100
AcDbLine
 10
160.422379858804
 20
278.2671507140783
 30
0.0
 11
161.3908811297019
 21
277.144560583837
 31
0.0
  0
LINE
  5
2E7
330
2
100
AcDbEntity
  8
UMRISS05
100
AcDbLine
 10
161.3908811297019
 20
277.144560583837
 30
0.0
 11
160.4524583158892
 21
278.0829833976497
 31
0.0
  0
LINE
  5
2E8
330
2
100
AcDbEntity
  8
UMRISS05
100
AcDbLine
 10
161.3908811297019
 20
277.144560583837
 30
0.0
 11
160.2682909994606
 21
278.113061854735
 31
0.0
  0
LINE
  5
2E9
330
2
100
AcDbEntity
  8
UMRISS05
100
AcDbLine
 10
158.7531378165484
 20
279.6282150376472
 30
0.0
 11
157.7846365456505
 21
280.7508051678885
 31
0.0
  0
LINE
  5
2EA
330
2
100
AcDbEntity
  8
UMRISS05
100
AcDbLine
 10
157.7846365456505
 20
280.7508051678885
 30
0.0
 11
158.7230593594632
 21
279.8123823540757
 31
0.0
  0
LINE
  5
2EB
330
2
100
AcDbEntity
  8
UMRISS05
100
AcDbLine
 10
157.7846365456505
 20
280.7508051678885
 30
0.0
 11
158.9072266758917
 21
279.7823038969905
 31
0.0
  0
LINE
  5
2EC
330
2
100
AcDbEntity
  8
UMRISS05
100
AcDbLine
 10
158.9072266758917
 20
278.113061854735
 30
0.0
 11
157.7846365456505
 21
277.144560583837
 31
0.0
  0
LINE
  5
2ED
330
2
100
AcDbEntity
  8
UMRISS05
100
AcDbLine
 10
160.2682909994606
 20
279.7823038969905
 30
0.0
 11
161.3908811297019
 21
280.7508051678885
 31
0.0
  0
LINE
  5
2EE
330
2
100
AcDbEntity
  8
UMRISS05
100
AcDbLine
 10
157.7846365456505
 20
277.144560583837
 30
0.0
 11
158.7230593594632
 21
278.0829833976497
 31
0.0
  0
LINE
  5
2EF
330
2
100
AcDbEntity
  8
UMRISS05
100
AcDbLine
 10
157.7846365456505
 20
277.144560583837
 30
0.0
 11
158.7531378165484
 21
278.2671507140783
 31
0.0
  0
LINE
  5
2F0
330
2
100
AcDbEntity
  8
UMRISS05
100
AcDbLine
 10
161.3908811297019
 20
280.7508051678885
 30
0.0
 11
160.4524583158892
 21
279.8123823540757
 31
0.0
  0
LINE
  5
2F1
330
2
100
AcDbEntity
  8
UMRISS05
100
AcDbLine
 10
161.3908811297019
 20
280.7508051678885
 30
0.0
 11
160.422379858804
 21
279.6282150376472
 31
0.0
  0
ARC
  5
2F2
330
2
100
AcDbEntity
  8
UMRISS05
100
AcDbCircle
 10
158.8989460262709
 20
280.1339832550768
 30
0.0
 40
0.3517768327536246
100
AcDbArc
 50
271.3488384037509
 51
6.960972189741616
  0
SPLINE
  5
2F3
330
2
100
AcDbEntity
  8
UMRISS05
100
AcDbSpline
210
0.0
220
0.0
230
1.0
 70
     8
 71
     3
 72
    20
 73
    16
 74
     0
 42
0.000000001
 43
0.0000000001
 40
0.2241139880688272
 40
0.2241139880688272
 40
0.2241139880688272
 40
0.2241139880688272
 40
0.2281060377002171
 40
0.2281060377002171
 40
0.2456065250842323
 40
0.2456065250842323
 40
0.2631070124682475
 40
0.2631070124682475
 40
0.2779942172629968
 40
0.2779942172629968
 40
0.2928814220577461
 40
0.2928814220577461
 40
0.3077686268524954
 40
0.3077686268524954
 40
0.3150707706012142
 40
0.3150707706012142
 40
0.3150707706012142
 40
0.3150707706012142
 10
159.4547669596066
 20
280.201845203436
 30
0.0
 10
159.4567603557503
 20
280.1900870909792
 30
0.0
 10
159.4583654895011
 20
280.1783464440631
 30
0.0
 10
159.4649798314826
 20
280.1154372619523
 30
0.0
 10
159.4633771339491
 20
280.0590158284286
 30
0.0
 10
159.4424737851301
 20
279.9483734064963
 30
0.0
 10
159.4231738858307
 20
279.8941379691911
 30
0.0
 10
159.3763887169508
 20
279.8058141035734
 30
0.0
 10
159.3471753580647
 20
279.7636864970112
 30
0.0
 10
159.2760626882389
 20
279.6886206669663
 30
0.0
 10
159.2340369015352
 20
279.6557033051843
 30
0.0
 10
159.1482080880248
 20
279.6058677092682
 30
0.0
 10
159.0987867471512
 20
279.585687260289
 30
0.0
 10
159.0239298178327
 20
279.5673931636216
 30
0.0
 10
158.9990906078787
 20
279.5631775359561
 30
0.0
 10
158.9747572838897
 20
279.5606844296492
 30
0.0
  0
SPLINE
  5
2F4
330
2
100
AcDbEntity
  8
UMRISS05
100
AcDbSpline
210
0.0
220
0.0
230
1.0
 70
     8
 71
     3
 72
    21
 73
    17
 74
     0
 42
0.000000001
 43
0.0000000001
 40
-0.0869647329009972
 40
-0.0869647329009972
 40
-0.0869647329009972
 40
-0.0869647329009972
 40
-0.0796625891522784
 40
-0.0796625891522784
 40
-0.0647753843575291
 40
-0.0647753843575291
 40
-0.0498881795627798
 40
-0.0498881795627798
 40
-0.0350009747680305
 40
-0.0350009747680305
 40
-0.0175004873840152
 40
-0.0175004873840152
 40
0.0
 40
0.0
 40
0.0
 40
0.0039920496313898
 40
0.0039920496313898
 40
0.0039920496313898
 40
0.0039920496313898
 10
160.2007603914626
 20
279.5606844296492
 30
0.0
 10
160.1764270674737
 20
279.5631775359561
 30
0.0
 10
160.1515878575197
 20
279.5673931636216
 30
0.0
 10
160.0767309282012
 20
279.585687260289
 30
0.0
 10
160.0273095873276
 20
279.6058677092682
 30
0.0
 10
159.9414807738172
 20
279.6557033051843
 30
0.0
 10
159.8994549871135
 20
279.6886206669663
 30
0.0
 10
159.8283423172876
 20
279.7636864970112
 30
0.0
 10
159.7991289584015
 20
279.8058141035734
 30
0.0
 10
159.7523437895216
 20
279.8941379691911
 30
0.0
 10
159.7330438902223
 20
279.9483734064963
 30
0.0
 10
159.7121405414033
 20
280.0590158284286
 30
0.0
 10
159.7105378438698
 20
280.1154372619523
 30
0.0
 10
159.7159236300298
 20
280.1666616170426
 30
0.0
 10
159.7171521858513
 20
280.1783464440631
 30
0.0
 10
159.7187573196021
 20
280.1900870909792
 30
0.0
 10
159.7207507157458
 20
280.201845203436
 30
0.0
  0
ARC
  5
2F5
330
2
100
AcDbEntity
  8
UMRISS05
100
AcDbCircle
 10
160.2765716490814
 20
280.1339832550768
 30
0.0
 40
0.3517768327536244
100
AcDbArc
 50
173.0390278102518
 51
268.6511615962491
  0
SPLINE
  5
2F6
330
2
100
AcDbEntity
  8
UMRISS05
100
AcDbSpline
210
0.0
220
0.0
230
1.0
 70
    24
 71
     3
 72
    14
 73
    10
 74
     0
 42
0.000000001
 43
0.0000000001
 40
-2.181930064255661
 40
-2.181930064255661
 40
-2.181930064255661
 40
-2.181930064255661
 40
-2.170719183657814
 40
-2.170719183657814
 40
-2.102884209168507
 40
-2.102884209168507
 40
-2.0350492346792
 40
-2.0350492346792
 40
-1.940275091644172
 40
-1.940275091644172
 40
-1.940275091644172
 40
-1.940275091644172
 10
158.7230593594632
 20
279.8123823540757
 30
0.0
 10
158.7315867046538
 20
279.8038550088851
 30
0.0
 10
158.7388944453805
 20
279.7965472681584
 30
0.0
 10
158.7832718592857
 20
279.7521698542531
 30
0.0
 10
158.8074590280342
 20
279.7279826855048
 30
0.0
 10
158.8546758559026
 20
279.6807658576363
 30
0.0
 10
158.8756659114546
 20
279.6597758020844
 30
0.0
 10
158.9236625788967
 20
279.6117791346422
 30
0.0
 10
158.9496076429066
 20
279.5858340706323
 30
0.0
 10
158.9747572838897
 20
279.5606844296492
 30
0.0
  0
SPLINE
  5
2F7
330
2
100
AcDbEntity
  8
UMRISS05
100
AcDbSpline
210
0.0
220
0.0
230
1.0
 70
     8
 71
     3
 72
    21
 73
    17
 74
     0
 42
0.000000001
 43
0.0000000001
 40
-0.0869647329009969
 40
-0.0869647329009969
 40
-0.0869647329009969
 40
-0.0869647329009969
 40
-0.0796625891522784
 40
-0.0796625891522784
 40
-0.0647753843575291
 40
-0.0647753843575291
 40
-0.0498881795627798
 40
-0.0498881795627798
 40
-0.0350009747680304
 40
-0.0350009747680304
 40
-0.0175004873840152
 40
-0.0175004873840152
 40
0.0
 40
0.0
 40
0.0
 40
0.0039920496313898
 40
0.0039920496313898
 40
0.0039920496313898
 40
0.0039920496313898
 10
158.9747572838897
 20
279.5606844296492
 30
0.0
 10
158.9722641775829
 20
279.5363511056603
 30
0.0
 10
158.9680485499174
 20
279.5115118957062
 30
0.0
 10
158.9497544532499
 20
279.4366549663878
 30
0.0
 10
158.9295740042707
 20
279.3872336255142
 30
0.0
 10
158.8797384083546
 20
279.3014048120038
 30
0.0
 10
158.8468210465726
 20
279.2593790253
 30
0.0
 10
158.7717552165278
 20
279.1882663554742
 30
0.0
 10
158.7296276099655
 20
279.1590529965881
 30
0.0
 10
158.6413037443478
 20
279.1122678277083
 30
0.0
 10
158.5870683070426
 20
279.0929679284088
 30
0.0
 10
158.4764258851103
 20
279.0720645795898
 30
0.0
 10
158.4200044515867
 20
279.0704618820563
 30
0.0
 10
158.3687800964963
 20
279.0758476682164
 30
0.0
 10
158.3570952694758
 20
279.0770762240379
 30
0.0
 10
158.3453546225597
 20
279.0786813577887
 30
0.0
 10
158.3335965101029
 20
279.0806747539323
 30
0.0
  0
ARC
  5
2F8
330
2
100
AcDbEntity
  8
UMRISS05
100
AcDbCircle
 10
158.4014584584621
 20
279.6364956872681
 30
0.0
 40
0.3517768327536245
100
AcDbArc
 50
263.0390278102553
 51
358.6511615962491
  0
SPLINE
  5
2F9
330
2
100
AcDbEntity
  8
UMRISS05
100
AcDbSpline
210
0.0
220
0.0
230
1.0
 70
    12
 71
     2
 72
     6
 73
     3
 74
     0
 42
0.000000001
 43
0.0000000001
 40
0.0
 40
0.0
 40
0.0
 40
0.0009713565096583
 40
0.0009713565096583
 40
0.0009713565096583
 10
159.7441001738844
 20
277.5558005052699
 30
0.0
 41
1.0
 10
159.7318149476314
 20
277.62825781405
 30
0.0
 41
1.052048802143716
 10
159.7207507157458
 20
277.6935205482895
 30
0.0
 41
1.103775396018719
  0
LINE
  5
2FA
330
2
100
AcDbEntity
  8
UMRISS05
100
AcDbLine
 10
160.0976469075144
 20
276.3242481031825
 30
0.0
 11
159.9273877864542
 21
277.7187495265098
 31
0.0
  0
ARC
  5
2FB
330
2
100
AcDbEntity
  8
UMRISS05
100
AcDbCircle
 10
160.2765716490814
 20
277.7613824966486
 30
0.0
 40
0.3517768327536246
100
AcDbArc
 50
91.3488384037509
 51
186.9609721897463
  0
SPLINE
  5
2FC
330
2
100
AcDbEntity
  8
UMRISS05
100
AcDbSpline
210
0.0
220
0.0
230
1.0
 70
     8
 71
     3
 72
    20
 73
    16
 74
     0
 42
0.000000001
 43
0.0000000001
 40
0.2241139880688272
 40
0.2241139880688272
 40
0.2241139880688272
 40
0.2241139880688272
 40
0.2281060377002171
 40
0.2281060377002171
 40
0.2456065250842323
 40
0.2456065250842323
 40
0.2631070124682475
 40
0.2631070124682475
 40
0.2779942172629968
 40
0.2779942172629968
 40
0.2928814220577461
 40
0.2928814220577461
 40
0.3077686268524955
 40
0.3077686268524955
 40
0.3150707706012142
 40
0.3150707706012142
 40
0.3150707706012142
 40
0.3150707706012142
 10
159.7207507157458
 20
277.6935205482895
 30
0.0
 10
159.7187573196021
 20
277.7052786607463
 30
0.0
 10
159.7171521858513
 20
277.7170193076624
 30
0.0
 10
159.7105378438698
 20
277.7799284897733
 30
0.0
 10
159.7121405414033
 20
277.8363499232969
 30
0.0
 10
159.7330438902223
 20
277.9469923452292
 30
0.0
 10
159.7523437895216
 20
278.0012277825344
 30
0.0
 10
159.7991289584015
 20
278.0895516481521
 30
0.0
 10
159.8283423172876
 20
278.1316792547144
 30
0.0
 10
159.8994549871135
 20
278.2067450847592
 30
0.0
 10
159.9414807738172
 20
278.2396624465412
 30
0.0
 10
160.0273095873276
 20
278.2894980424574
 30
0.0
 10
160.0767309282012
 20
278.3096784914365
 30
0.0
 10
160.1515878575197
 20
278.327972588104
 30
0.0
 10
160.1764270674737
 20
278.3321882157694
 30
0.0
 10
160.2007603914626
 20
278.3346813220763
 30
0.0
  0
SPLINE
  5
2FD
330
2
100
AcDbEntity
  8
UMRISS05
100
AcDbSpline
210
0.0
220
0.0
230
1.0
 70
    24
 71
     3
 72
    14
 73
    10
 74
     0
 42
0.000000001
 43
0.0000000001
 40
-2.18193006425566
 40
-2.18193006425566
 40
-2.18193006425566
 40
-2.18193006425566
 40
-2.170719183657812
 40
-2.170719183657812
 40
-2.102884209168505
 40
-2.102884209168505
 40
-2.035049234679198
 40
-2.035049234679198
 40
-1.940275091644171
 40
-1.940275091644171
 40
-1.940275091644171
 40
-1.940275091644171
 10
160.4524583158892
 20
278.0829833976497
 30
0.0
 10
160.4439309706985
 20
278.0915107428404
 30
0.0
 10
160.4366232299718
 20
278.0988184835671
 30
0.0
 10
160.3922458160666
 20
278.1431958974723
 30
0.0
 10
160.3680586473182
 20
278.1673830662207
 30
0.0
 10
160.3208418194498
 20
278.2145998940892
 30
0.0
 10
160.2998517638979
 20
278.2355899496411
 30
0.0
 10
160.2518550964556
 20
278.2835866170833
 30
0.0
 10
160.2259100324457
 20
278.3095316810932
 30
0.0
 10
160.2007603914626
 20
278.3346813220763
 30
0.0
  0
SPLINE
  5
2FE
330
2
100
AcDbEntity
  8
UMRISS05
100
AcDbSpline
210
0.0
220
0.0
230
1.0
 70
     8
 71
     3
 72
    21
 73
    17
 74
     0
 42
0.000000001
 43
0.0000000001
 40
-0.0869647329009971
 40
-0.0869647329009971
 40
-0.0869647329009971
 40
-0.0869647329009971
 40
-0.0796625891522784
 40
-0.0796625891522784
 40
-0.0647753843575291
 40
-0.0647753843575291
 40
-0.0498881795627798
 40
-0.0498881795627798
 40
-0.0350009747680304
 40
-0.0350009747680304
 40
-0.0175004873840152
 40
-0.0175004873840152
 40
0.0
 40
0.0
 40
0.0
 40
0.0039920496313898
 40
0.0039920496313898
 40
0.0039920496313898
 40
0.0039920496313898
 10
160.2007603914626
 20
278.3346813220763
 30
0.0
 10
160.2032534977695
 20
278.3590146460653
 30
0.0
 10
160.207469125435
 20
278.3838538560193
 30
0.0
 10
160.2257632221024
 20
278.4587107853377
 30
0.0
 10
160.2459436710816
 20
278.5081321262114
 30
0.0
 10
160.2957792669978
 20
278.5939609397218
 30
0.0
 10
160.3286966287797
 20
278.6359867264255
 30
0.0
 10
160.4037624588246
 20
278.7070993962513
 30
0.0
 10
160.4458900653869
 20
278.7363127551373
 30
0.0
 10
160.5342139310045
 20
278.7830979240173
 30
0.0
 10
160.5884493683098
 20
278.8023978233166
 30
0.0
 10
160.699091790242
 20
278.8233011721356
 30
0.0
 10
160.7555132237656
 20
278.8249038696691
 30
0.0
 10
160.8067375788561
 20
278.8195180835091
 30
0.0
 10
160.8184224058765
 20
278.8182895276876
 30
0.0
 10
160.8301630527927
 20
278.8166843939368
 30
0.0
 10
160.8419211652494
 20
278.8146909977931
 30
0.0
  0
ARC
  5
2FF
330
2
100
AcDbEntity
  8
UMRISS05
100
AcDbCircle
 10
160.7740592168903
 20
278.2588700644575
 30
0.0
 40
0.3517768327536245
100
AcDbArc
 50
83.03902781025525
 51
178.6511615962507
  0
SPLINE
  5
300
330
2
100
AcDbEntity
  8
UMRISS05
100
AcDbSpline
210
0.0
220
0.0
230
1.0
 70
     8
 71
     3
 72
    21
 73
    17
 74
     0
 42
0.000000001
 43
0.0000000001
 40
-0.0869647329009971
 40
-0.0869647329009971
 40
-0.0869647329009971
 40
-0.0869647329009971
 40
-0.0796625891522785
 40
-0.0796625891522785
 40
-0.0647753843575292
 40
-0.0647753843575292
 40
-0.0498881795627799
 40
-0.0498881795627799
 40
-0.0350009747680306
 40
-0.0350009747680306
 40
-0.0175004873840153
 40
-0.0175004873840153
 40
0.0
 40
0.0
 40
0.0
 40
0.0039920496313899
 40
0.0039920496313899
 40
0.0039920496313899
 40
0.0039920496313899
 10
158.9747572838897
 20
278.3346813220763
 30
0.0
 10
158.9990906078787
 20
278.3321882157694
 30
0.0
 10
159.0239298178327
 20
278.327972588104
 30
0.0
 10
159.0987867471512
 20
278.3096784914365
 30
0.0
 10
159.1482080880248
 20
278.2894980424574
 30
0.0
 10
159.2340369015352
 20
278.2396624465412
 30
0.0
 10
159.2760626882389
 20
278.2067450847592
 30
0.0
 10
159.3471753580647
 20
278.1316792547144
 30
0.0
 10
159.3763887169508
 20
278.0895516481521
 30
0.0
 10
159.4231738858307
 20
278.0012277825344
 30
0.0
 10
159.4424737851301
 20
277.9469923452292
 30
0.0
 10
159.4633771339491
 20
277.8363499232969
 30
0.0
 10
159.4649798314826
 20
277.7799284897733
 30
0.0
 10
159.4595940453226
 20
277.7287041346828
 30
0.0
 10
159.4583654895011
 20
277.7170193076624
 30
0.0
 10
159.4567603557503
 20
277.7052786607463
 30
0.0
 10
159.4547669596066
 20
277.6935205482895
 30
0.0
  0
ARC
  5
301
330
2
100
AcDbEntity
  8
UMRISS05
100
AcDbCircle
 10
158.8989460262709
 20
277.7613824966486
 30
0.0
 40
0.3517768327536246
100
AcDbArc
 50
353.0390278102518
 51
88.65116159625236
  0
LINE
  5
302
330
2
100
AcDbEntity
  8
UMRISS05
100
AcDbLine
 10
160.0976469075144
 20
281.571117648543
 30
0.0
 11
159.9273877864542
 21
280.1766162252158
 31
0.0
  0
SPLINE
  5
303
330
2
100
AcDbEntity
  8
UMRISS05
100
AcDbSpline
210
0.0
220
0.0
230
1.0
 70
    12
 71
     2
 72
     6
 73
     3
 74
     0
 42
0.000000001
 43
0.0000000001
 40
0.3128501539318679
 40
0.3128501539318679
 40
0.3128501539318679
 40
0.3138215104415265
 40
0.3138215104415265
 40
0.3138215104415265
 10
159.7207507157458
 20
280.201845203436
 30
0.0
 41
1.103775396018747
 10
159.7318149476314
 20
280.2671079376755
 30
0.0
 41
1.05204880214373
 10
159.7441001738844
 20
280.3395652464557
 30
0.0
 41
1.0
  0
SPLINE
  5
304
330
2
100
AcDbEntity
  8
UMRISS05
100
AcDbSpline
210
0.0
220
0.0
230
1.0
 70
    12
 71
     2
 72
     6
 73
     3
 74
     0
 42
0.000000001
 43
0.0000000001
 40
0.0
 40
0.0
 40
0.0
 40
0.0009713565096583
 40
0.0009713565096583
 40
0.0009713565096583
 10
160.9796412082691
 20
279.1040242120711
 30
0.0
 41
1.0
 10
160.907183899489
 20
279.091738985818
 30
0.0
 41
1.052048802143716
 10
160.8419211652494
 20
279.0806747539323
 30
0.0
 41
1.10377539601872
  0
LINE
  5
305
330
2
100
AcDbEntity
  8
UMRISS05
100
AcDbLine
 10
162.2111936103565
 20
279.457570945701
 30
0.0
 11
160.8166921870292
 21
279.2873118246407
 31
0.0
  0
LINE
  5
306
330
2
100
AcDbEntity
  8
UMRISS05
100
AcDbLine
 10
156.9643240649959
 20
279.457570945701
 30
0.0
 11
158.3588254883232
 21
279.2873118246407
 31
0.0
  0
SPLINE
  5
307
330
2
100
AcDbEntity
  8
UMRISS05
100
AcDbSpline
210
0.0
220
0.0
230
1.0
 70
    12
 71
     2
 72
     6
 73
     3
 74
     0
 42
0.000000001
 43
0.0000000001
 40
0.3128501539318679
 40
0.3128501539318679
 40
0.3128501539318679
 40
0.3138215104415265
 40
0.3138215104415265
 40
0.3138215104415265
 10
158.3335965101029
 20
279.0806747539323
 30
0.0
 41
1.103775396018747
 10
158.2683337758634
 20
279.091738985818
 30
0.0
 41
1.05204880214373
 10
158.1958764670833
 20
279.1040242120711
 30
0.0
 41
1.0
  0
SPLINE
  5
308
330
2
100
AcDbEntity
  8
UMRISS05
100
AcDbSpline
210
0.0
220
0.0
230
1.0
 70
    12
 71
     2
 72
     6
 73
     3
 74
     0
 42
0.000000001
 43
0.0000000001
 40
0.0
 40
0.0
 40
0.0
 40
0.0009713565096583
 40
0.0009713565096583
 40
0.0009713565096583
 10
159.4314175014679
 20
280.3395652464557
 30
0.0
 41
1.0
 10
159.4437027277209
 20
280.2671079376755
 30
0.0
 41
1.052048802143717
 10
159.4547669596066
 20
280.201845203436
 30
0.0
 41
1.103775396018721
  0
LINE
  5
309
330
2
100
AcDbEntity
  8
UMRISS05
100
AcDbLine
 10
159.0778707678379
 20
281.571117648543
 30
0.0
 11
159.2481298888982
 21
280.1766162252158
 31
0.0
  0
LINE
  5
30A
330
2
100
AcDbEntity
  8
UMRISS05
100
AcDbLine
 10
159.0778707678379
 20
276.3242481031825
 30
0.0
 11
159.2481298888982
 21
277.7187495265098
 31
0.0
  0
SPLINE
  5
30B
330
2
100
AcDbEntity
  8
UMRISS05
100
AcDbSpline
210
0.0
220
0.0
230
1.0
 70
    12
 71
     2
 72
     6
 73
     3
 74
     0
 42
0.000000001
 43
0.0000000001
 40
0.3128501539318679
 40
0.3128501539318679
 40
0.3128501539318679
 40
0.3138215104415265
 40
0.3138215104415265
 40
0.3138215104415265
 10
159.4547669596066
 20
277.6935205482895
 30
0.0
 41
1.103775396018745
 10
159.4437027277209
 20
277.62825781405
 30
0.0
 41
1.052048802143729
 10
159.4314175014679
 20
277.5558005052699
 30
0.0
 41
1.0
  0
SPLINE
  5
30C
330
2
100
AcDbEntity
  8
UMRISS05
100
AcDbSpline
210
0.0
220
0.0
230
1.0
 70
    12
 71
     2
 72
     6
 73
     3
 74
     0
 42
0.000000001
 43
0.0000000001
 40
0.0
 40
0.0
 40
0.0
 40
0.0009713565096583
 40
0.0009713565096583
 40
0.0009713565096583
 10
158.1958764670833
 20
278.7913415396545
 30
0.0
 41
1.0
 10
158.2683337758634
 20
278.8036267659075
 30
0.0
 41
1.052048802143716
 10
158.3335965101029
 20
278.8146909977931
 30
0.0
 41
1.10377539601872
  0
LINE
  5
30D
330
2
100
AcDbEntity
  8
UMRISS05
100
AcDbLine
 10
156.9643240649959
 20
278.4377948060245
 30
0.0
 11
158.3588254883232
 21
278.6080539270848
 31
0.0
  0
LINE
  5
30E
330
2
100
AcDbEntity
  8
UMRISS05
100
AcDbLine
 10
162.2111936103565
 20
278.4377948060245
 30
0.0
 11
160.8166921870292
 21
278.6080539270848
 31
0.0
  0
SPLINE
  5
30F
330
2
100
AcDbEntity
  8
UMRISS05
100
AcDbSpline
210
0.0
220
0.0
230
1.0
 70
    12
 71
     2
 72
     6
 73
     3
 74
     0
 42
0.000000001
 43
0.0000000001
 40
0.3128501539318679
 40
0.3128501539318679
 40
0.3128501539318679
 40
0.3138215104415265
 40
0.3138215104415265
 40
0.3138215104415265
 10
160.8419211652494
 20
278.8146909977931
 30
0.0
 41
1.103775396018747
 10
160.907183899489
 20
278.8036267659075
 30
0.0
 41
1.05204880214373
 10
160.9796412082691
 20
278.7913415396545
 30
0.0
 41
1.0
  0
SPLINE
  5
310
330
2
100
AcDbEntity
  8
UMRISS05
100
AcDbSpline
210
0.0
220
0.0
230
1.0
 70
    12
 71
     2
 72
     6
 73
     3
 74
     0
 42
0.000000001
 43
0.0000000001
 40
0.0
 40
0.0
 40
0.0
 40
0.2488432263388232
 40
0.2488432263388232
 40
0.2488432263388232
 10
160.9796412082691
 20
278.7913415396545
 30
0.0
 41
1.0
 10
161.3632208803741
 20
278.6748251859813
 30
0.0
 41
1.042323306882263
 10
162.0366982434249
 20
278.4687641195886
 30
0.0
 41
1.003027534749544
  0
SPLINE
  5
311
330
2
100
AcDbEntity
  8
UMRISS05
100
AcDbSpline
210
0.0
220
0.0
230
1.0
 70
    12
 71
     2
 72
     6
 73
     3
 74
     0
 42
0.000000001
 43
0.0000000001
 40
0.0092304584176924
 40
0.0092304584176924
 40
0.0092304584176924
 40
0.2580736847564094
 40
0.2580736847564094
 40
0.2580736847564094
 10
162.0366982434249
 20
279.4266016321369
 30
0.0
 41
1.003027534749187
 10
161.3632208803785
 20
279.2205405657457
 30
0.0
 41
1.042323306876795
 10
160.9796412082691
 20
279.1040242120711
 30
0.0
 41
1.0
  0
SPLINE
  5
312
330
2
100
AcDbEntity
  8
UMRISS05
100
AcDbSpline
210
0.0
220
0.0
230
1.0
 70
    12
 71
     2
 72
     6
 73
     3
 74
     0
 42
0.000000001
 43
0.0000000001
 40
0.0
 40
0.0
 40
0.0
 40
0.2488432263388046
 40
0.2488432263388046
 40
0.2488432263388046
 10
159.4314175014679
 20
277.5558005052699
 30
0.0
 41
1.0
 10
159.3149011477945
 20
277.172220833164
 30
0.0
 41
1.042323306881422
 10
159.108840081402
 20
276.4987434701141
 30
0.0
 41
1.00302753474949
  0
SPLINE
  5
313
330
2
100
AcDbEntity
  8
UMRISS05
100
AcDbSpline
210
0.0
220
0.0
230
1.0
 70
    12
 71
     2
 72
     6
 73
     3
 74
     0
 42
0.000000001
 43
0.0000000001
 40
0.0092304584176058
 40
0.0092304584176058
 40
0.0092304584176058
 40
0.2580736847564094
 40
0.2580736847564094
 40
0.2580736847564094
 10
160.0666775939503
 20
276.4987434701141
 30
0.0
 41
1.003027534749502
 10
159.860616527558
 20
277.1722208331638
 30
0.0
 41
1.042323306881585
 10
159.7441001738844
 20
277.5558005052699
 30
0.0
 41
1.0
  0
SPLINE
  5
314
330
2
100
AcDbEntity
  8
UMRISS05
100
AcDbSpline
210
0.0
220
0.0
230
1.0
 70
    12
 71
     2
 72
     6
 73
     3
 74
     0
 42
0.000000001
 43
0.0000000001
 40
0.0
 40
0.0
 40
0.0
 40
0.2488432263388447
 40
0.2488432263388447
 40
0.2488432263388447
 10
158.1958764670833
 20
279.1040242120711
 30
0.0
 41
1.0
 10
157.8122967949791
 20
279.220540565744
 30
0.0
 41
1.042323306883599
 10
157.1388194319276
 20
279.4266016321369
 30
0.0
 41
1.003027534749632
  0
SPLINE
  5
315
330
2
100
AcDbEntity
  8
UMRISS05
100
AcDbSpline
210
0.0
220
0.0
230
1.0
 70
    12
 71
     2
 72
     6
 73
     3
 74
     0
 42
0.000000001
 43
0.0000000001
 40
0.0092304584176924
 40
0.0092304584176924
 40
0.0092304584176924
 40
0.2580736847564094
 40
0.2580736847564094
 40
0.2580736847564094
 10
157.1388194319276
 20
278.4687641195886
 30
0.0
 41
1.003027534749187
 10
157.8122967949739
 20
278.6748251859799
 30
0.0
 41
1.042323306876795
 10
158.1958764670833
 20
278.7913415396545
 30
0.0
 41
1.0
  0
SPLINE
  5
316
330
2
100
AcDbEntity
  8
UMRISS05
100
AcDbSpline
210
0.0
220
0.0
230
1.0
 70
    12
 71
     2
 72
     6
 73
     3
 74
     0
 42
0.000000001
 43
0.0000000001
 40
0.0
 40
0.0
 40
0.0
 40
0.248843226338804
 40
0.248843226338804
 40
0.248843226338804
 10
159.7441001738844
 20
280.3395652464557
 30
0.0
 41
1.0
 10
159.8606165275579
 20
280.7231449185614
 30
0.0
 41
1.042323306881358
 10
160.0666775939503
 20
281.3966222816114
 30
0.0
 41
1.003027534749485
  0
SPLINE
  5
317
330
2
100
AcDbEntity
  8
UMRISS05
100
AcDbSpline
210
0.0
220
0.0
230
1.0
 70
    12
 71
     2
 72
     6
 73
     3
 74
     0
 42
0.000000001
 43
0.0000000001
 40
0.0092304584176096
 40
0.0092304584176096
 40
0.0092304584176096
 40
0.2580736847564094
 40
0.2580736847564094
 40
0.2580736847564094
 10
159.108840081402
 20
281.3966222816114
 30
0.0
 41
1.003027534749471
 10
159.3149011477944
 20
280.7231449185616
 30
0.0
 41
1.042323306881137
 10
159.4314175014679
 20
280.3395652464557
 30
0.0
 41
1.0
  0
ARC
  5
318
330
2
100
AcDbEntity
  8
UMRISS05
100
AcDbCircle
 10
158.4014584584621
 20
278.2588700644575
 30
0.0
 40
0.3517768327536241
100
AcDbArc
 50
1.348838403749253
 51
96.960972189748
  0
SPLINE
  5
319
330
2
100
AcDbEntity
  8
UMRISS05
100
AcDbSpline
210
0.0
220
0.0
230
1.0
 70
     8
 71
     3
 72
    20
 73
    16
 74
     0
 42
0.000000001
 43
0.0000000001
 40
0.2241139880688272
 40
0.2241139880688272
 40
0.2241139880688272
 40
0.2241139880688272
 40
0.228106037700217
 40
0.228106037700217
 40
0.2456065250842322
 40
0.2456065250842322
 40
0.2631070124682474
 40
0.2631070124682474
 40
0.2779942172629967
 40
0.2779942172629967
 40
0.292881422057746
 40
0.292881422057746
 40
0.3077686268524953
 40
0.3077686268524953
 40
0.315070770601214
 40
0.315070770601214
 40
0.315070770601214
 40
0.315070770601214
 10
158.3335965101029
 20
278.8146909977931
 30
0.0
 10
158.3453546225597
 20
278.8166843939368
 30
0.0
 10
158.3570952694758
 20
278.8182895276876
 30
0.0
 10
158.4200044515867
 20
278.8249038696691
 30
0.0
 10
158.4764258851103
 20
278.8233011721356
 30
0.0
 10
158.5870683070426
 20
278.8023978233166
 30
0.0
 10
158.6413037443478
 20
278.7830979240173
 30
0.0
 10
158.7296276099655
 20
278.7363127551373
 30
0.0
 10
158.7717552165278
 20
278.7070993962513
 30
0.0
 10
158.8468210465726
 20
278.6359867264255
 30
0.0
 10
158.8797384083546
 20
278.5939609397218
 30
0.0
 10
158.9295740042707
 20
278.5081321262114
 30
0.0
 10
158.9497544532499
 20
278.4587107853377
 30
0.0
 10
158.9680485499174
 20
278.3838538560193
 30
0.0
 10
158.9722641775829
 20
278.3590146460653
 30
0.0
 10
158.9747572838897
 20
278.3346813220763
 30
0.0
  0
SPLINE
  5
31A
330
2
100
AcDbEntity
  8
UMRISS05
100
AcDbSpline
210
0.0
220
0.0
230
1.0
 70
    24
 71
     3
 72
    14
 73
    10
 74
     0
 42
0.000000001
 43
0.0000000001
 40
-2.18193006425566
 40
-2.18193006425566
 40
-2.18193006425566
 40
-2.18193006425566
 40
-2.170719183657812
 40
-2.170719183657812
 40
-2.102884209168506
 40
-2.102884209168506
 40
-2.035049234679199
 40
-2.035049234679199
 40
-1.940275091644172
 40
-1.940275091644172
 40
-1.940275091644172
 40
-1.940275091644172
 10
158.7230593594632
 20
278.0829833976497
 30
0.0
 10
158.7315867046538
 20
278.0915107428404
 30
0.0
 10
158.7388944453805
 20
278.0988184835671
 30
0.0
 10
158.7832718592857
 20
278.1431958974723
 30
0.0
 10
158.8074590280342
 20
278.1673830662207
 30
0.0
 10
158.8546758559026
 20
278.2145998940892
 30
0.0
 10
158.8756659114546
 20
278.2355899496411
 30
0.0
 10
158.9236625788967
 20
278.2835866170833
 30
0.0
 10
158.9496076429066
 20
278.3095316810932
 30
0.0
 10
158.9747572838897
 20
278.3346813220763
 30
0.0
  0
ARC
  5
31B
330
2
100
AcDbEntity
  8
UMRISS05
100
AcDbCircle
 10
160.7740592168903
 20
279.6364956872681
 30
0.0
 40
0.3517768327536241
100
AcDbArc
 50
181.3488384037492
 51
276.960972189748
  0
SPLINE
  5
31C
330
2
100
AcDbEntity
  8
UMRISS05
100
AcDbSpline
210
0.0
220
0.0
230
1.0
 70
     8
 71
     3
 72
    20
 73
    16
 74
     0
 42
0.000000001
 43
0.0000000001
 40
0.2241139880688272
 40
0.2241139880688272
 40
0.2241139880688272
 40
0.2241139880688272
 40
0.228106037700217
 40
0.228106037700217
 40
0.2456065250842322
 40
0.2456065250842322
 40
0.2631070124682474
 40
0.2631070124682474
 40
0.2779942172629967
 40
0.2779942172629967
 40
0.292881422057746
 40
0.292881422057746
 40
0.3077686268524953
 40
0.3077686268524953
 40
0.3150707706012139
 40
0.3150707706012139
 40
0.3150707706012139
 40
0.3150707706012139
 10
160.8419211652494
 20
279.0806747539323
 30
0.0
 10
160.8301630527927
 20
279.0786813577887
 30
0.0
 10
160.8184224058765
 20
279.0770762240379
 30
0.0
 10
160.7555132237656
 20
279.0704618820563
 30
0.0
 10
160.699091790242
 20
279.0720645795898
 30
0.0
 10
160.5884493683098
 20
279.0929679284088
 30
0.0
 10
160.5342139310045
 20
279.1122678277083
 30
0.0
 10
160.4458900653869
 20
279.1590529965881
 30
0.0
 10
160.4037624588246
 20
279.1882663554742
 30
0.0
 10
160.3286966287797
 20
279.2593790253
 30
0.0
 10
160.2957792669978
 20
279.3014048120038
 30
0.0
 10
160.2459436710816
 20
279.3872336255142
 30
0.0
 10
160.2257632221024
 20
279.4366549663878
 30
0.0
 10
160.207469125435
 20
279.5115118957062
 30
0.0
 10
160.2032534977695
 20
279.5363511056603
 30
0.0
 10
160.2007603914626
 20
279.5606844296492
 30
0.0
  0
SPLINE
  5
31D
330
2
100
AcDbEntity
  8
UMRISS05
100
AcDbSpline
210
0.0
220
0.0
230
1.0
 70
    24
 71
     3
 72
    14
 73
    10
 74
     0
 42
0.000000001
 43
0.0000000001
 40
-2.181930064255661
 40
-2.181930064255661
 40
-2.181930064255661
 40
-2.181930064255661
 40
-2.170719183657814
 40
-2.170719183657814
 40
-2.102884209168507
 40
-2.102884209168507
 40
-2.0350492346792
 40
-2.0350492346792
 40
-1.940275091644172
 40
-1.940275091644172
 40
-1.940275091644172
 40
-1.940275091644172
 10
160.4524583158892
 20
279.8123823540757
 30
0.0
 10
160.4439309706985
 20
279.8038550088851
 30
0.0
 10
160.4366232299718
 20
279.7965472681584
 30
0.0
 10
160.3922458160666
 20
279.7521698542531
 30
0.0
 10
160.3680586473182
 20
279.7279826855048
 30
0.0
 10
160.3208418194498
 20
279.6807658576363
 30
0.0
 10
160.2998517638979
 20
279.6597758020844
 30
0.0
 10
160.2518550964556
 20
279.6117791346422
 30
0.0
 10
160.2259100324457
 20
279.5858340706323
 30
0.0
 10
160.2007603914626
 20
279.5606844296492
 30
0.0
  0
ELLIPSE
  5
31E
330
2
100
AcDbEntity
  8
UMRISS05
100
AcDbEllipse
 10
160.7373913369255
 20
278.2272352875336
 30
0.0
 11
-0.241976611770051
 21
-0.2087624411738864
 31
0.0
210
0.0
220
0.0
230
1.0
 40
0.9884519215740034
 41
5.439531080708608
 42
6.037261572160079
  0
ELLIPSE
  5
31F
330
2
100
AcDbEntity
  8
UMRISS05
100
AcDbEllipse
 10
160.3082064260053
 20
277.7980503766134
 30
0.0
 11
-0.2087624411738866
 21
-0.2419766117700504
 31
0.0
210
0.0
220
0.0
230
1.0
 40
0.9884519215740041
 41
3.387516388609288
 42
3.985246880060831
  0
ELLIPSE
  5
320
330
2
100
AcDbEntity
  8
UMRISS05
100
AcDbEllipse
 10
158.4381263384269
 20
279.6681304641918
 30
0.0
 11
0.241976611770051
 21
0.2087624411738864
 31
0.0
210
0.0
220
0.0
230
1.0
 40
0.9884519215740034
 41
5.439531080708608
 42
6.037261572160079
  0
ELLIPSE
  5
321
330
2
100
AcDbEntity
  8
UMRISS05
100
AcDbEllipse
 10
158.8673112493471
 20
280.0973153751121
 30
0.0
 11
0.2087624411738869
 21
0.2419766117700504
 31
0.0
210
0.0
220
0.0
230
0.9999999999999998
 40
0.9884519215740052
 41
3.387516388609287
 42
3.985246880060831
  0
ELLIPSE
  5
322
330
2
100
AcDbEntity
  8
UMRISS05
100
AcDbEllipse
 10
158.8673112493471
 20
277.7980503766134
 30
0.0
 11
-0.2087624411738862
 21
0.2419766117700507
 31
0.0
210
0.0
220
0.0
230
1.0
 40
0.988451921574005
 41
5.439531080708549
 42
6.037261572160091
  0
ELLIPSE
  5
323
330
2
100
AcDbEntity
  8
UMRISS05
100
AcDbEllipse
 10
160.3082064260053
 20
280.0973153751121
 30
0.0
 11
0.2087624411738866
 21
-0.2419766117700509
 31
0.0
210
0.0
220
0.0
230
1.0
 40
0.9884519215740045
 41
5.439531080708548
 42
6.037261572160091
  0
ELLIPSE
  5
324
330
2
100
AcDbEntity
  8
UMRISS05
100
AcDbEllipse
 10
158.4381263384269
 20
278.2272352875336
 30
0.0
 11
-0.2419766117700503
 21
0.2087624411738864
 31
0.0
210
0.0
220
0.0
230
1.0
 40
0.9884519215740056
 41
3.3875163886093
 42
3.98524688006077
  0
ELLIPSE
  5
325
330
2
100
AcDbEntity
  8
UMRISS05
100
AcDbEllipse
 10
160.7373913369255
 20
279.6681304641918
 30
0.0
 11
0.2419766117700503
 21
-0.2087624411738864
 31
0.0
210
0.0
220
0.0
230
1.0
 40
0.9884519215740056
 41
3.3875163886093
 42
3.98524688006077
  0
ARC
  5
326
330
2
100
AcDbEntity
  8
UMRISS05
100
AcDbCircle
 10
159.5877588376762
 20
278.9476828758628
 30
0.0
 40
1.400635265504448
100
AcDbArc
 50
353.5911901568398
 51
6.408809843160203
  0
ARC
  5
327
330
2
100
AcDbEntity
  8
UMRISS05
100
AcDbCircle
 10
159.5877588376762
 20
278.9476828758628
 30
0.0
 40
1.400635265504439
100
AcDbArc
 50
263.591190156838
 51
276.408809843162
  0
ARC
  5
328
330
2
100
AcDbEntity
  8
UMRISS05
100
AcDbCircle
 10
159.5877588376762
 20
278.9476828758628
 30
0.0
 40
1.40063526550444
100
AcDbArc
 50
173.5911901568398
 51
186.4088098431602
  0
ARC
  5
329
330
2
100
AcDbEntity
  8
UMRISS05
100
AcDbCircle
 10
159.5877588376762
 20
278.9476828758628
 30
0.0
 40
1.400635265504442
100
AcDbArc
 50
83.591190156838
 51
96.40880984316199
  0
SPLINE
  5
32A
330
2
100
AcDbEntity
  8
AVERDECKTE
100
AcDbSpline
210
0.0
220
0.0
230
1.0
 70
    28
 71
     2
 72
     6
 73
     3
 74
     0
 42
0.000000001
 43
0.0000000001
 40
0.0
 40
0.0
 40
0.0
 40
0.4673744552311663
 40
0.4673744552311663
 40
0.4673744552311663
 10
154.9689566841592
 20
218.9476828758627
 30
0.0
 41
1.0
 10
156.1236572225384
 20
220.9476828758627
 30
0.0
 41
1.154700538379251
 10
157.2783577609177
 20
222.9476828758627
 30
0.0
 41
1.0
  0
SPLINE
  5
32B
330
2
100
AcDbEntity
  8
AVERDECKTE
100
AcDbSpline
210
0.0
220
0.0
230
1.0
 70
    28
 71
     2
 72
     6
 73
     3
 74
     0
 42
0.000000001
 43
0.0000000001
 40
0.0
 40
0.0
 40
0.0
 40
0.4673744552311658
 40
0.4673744552311658
 40
0.4673744552311658
 10
157.2783577609177
 20
222.9476828758627
 30
0.0
 41
1.0
 10
159.5877588376762
 20
222.9476828758627
 30
0.0
 41
1.154700538379249
 10
161.8971599144347
 20
222.9476828758627
 30
0.0
 41
1.0
  0
SPLINE
  5
32C
330
2
100
AcDbEntity
  8
AVERDECKTE
100
AcDbSpline
210
0.0
220
0.0
230
1.0
 70
    28
 71
     2
 72
     6
 73
     3
 74
     0
 42
0.000000001
 43
0.0000000001
 40
0.0
 40
0.0
 40
0.0
 40
0.4673744552311687
 40
0.4673744552311687
 40
0.4673744552311687
 10
161.8971599144347
 20
222.9476828758627
 30
0.0
 41
1.0
 10
163.0518604528139
 20
220.9476828758627
 30
0.0
 41
1.154700538379253
 10
164.2065609911932
 20
218.9476828758627
 30
0.0
 41
1.0
  0
SPLINE
  5
32D
330
2
100
AcDbEntity
  8
AVERDECKTE
100
AcDbSpline
210
0.0
220
0.0
230
1.0
 70
    28
 71
     2
 72
     6
 73
     3
 74
     0
 42
0.000000001
 43
0.0000000001
 40
0.0
 40
0.0
 40
0.0
 40
0.4673744552311672
 40
0.4673744552311672
 40
0.4673744552311672
 10
164.2065609911932
 20
218.9476828758627
 30
0.0
 41
1.0
 10
163.0518604528139
 20
216.9476828758627
 30
0.0
 41
1.154700538379244
 10
161.8971599144347
 20
214.9476828758627
 30
0.0
 41
1.0
  0
SPLINE
  5
32E
330
2
100
AcDbEntity
  8
AVERDECKTE
100
AcDbSpline
210
0.0
220
0.0
230
1.0
 70
    28
 71
     2
 72
     6
 73
     3
 74
     0
 42
0.000000001
 43
0.0000000001
 40
0.0
 40
0.0
 40
0.0
 40
0.4673744552311675
 40
0.4673744552311675
 40
0.4673744552311675
 10
161.8971599144347
 20
214.9476828758627
 30
0.0
 41
1.0
 10
159.5877588376762
 20
214.9476828758627
 30
0.0
 41
1.15470053837925
 10
157.2783577609177
 20
214.9476828758627
 30
0.0
 41
1.0
  0
SPLINE
  5
32F
330
2
100
AcDbEntity
  8
AVERDECKTE
100
AcDbSpline
210
0.0
220
0.0
230
1.0
 70
    28
 71
     2
 72
     6
 73
     3
 74
     0
 42
0.000000001
 43
0.0000000001
 40
0.0
 40
0.0
 40
0.0
 40
0.4673744552311672
 40
0.4673744552311672
 40
0.4673744552311672
 10
157.2783577609177
 20
214.9476828758627
 30
0.0
 41
1.0
 10
156.1236572225385
 20
216.9476828758627
 30
0.0
 41
1.154700538379254
 10
154.9689566841592
 20
218.9476828758627
 30
0.0
 41
1.0
  0
SPLINE
  5
330
330
2
100
AcDbEntity
  8
AVERDECKTE
100
AcDbSpline
210
0.0
220
0.0
230
1.0
 70
    28
 71
     2
 72
     6
 73
     3
 74
     0
 42
0.000000001
 43
0.0000000001
 40
0.0
 40
0.0
 40
0.0
 40
0.4673744552311663
 40
0.4673744552311663
 40
0.4673744552311663
 10
154.9689566841592
 20
278.9476828758628
 30
0.0
 41
1.0
 10
156.1236572225384
 20
280.9476828758627
 30
0.0
 41
1.154700538379251
 10
157.2783577609177
 20
282.9476828758627
 30
0.0
 41
1.0
  0
SPLINE
  5
331
330
2
100
AcDbEntity
  8
AVERDECKTE
100
AcDbSpline
210
0.0
220
0.0
230
1.0
 70
    28
 71
     2
 72
     6
 73
     3
 74
     0
 42
0.000000001
 43
0.0000000001
 40
0.0
 40
0.0
 40
0.0
 40
0.4673744552311658
 40
0.4673744552311658
 40
0.4673744552311658
 10
157.2783577609177
 20
282.9476828758627
 30
0.0
 41
1.0
 10
159.5877588376762
 20
282.9476828758627
 30
0.0
 41
1.154700538379249
 10
161.8971599144347
 20
282.9476828758627
 30
0.0
 41
1.0
  0
SPLINE
  5
332
330
2
100
AcDbEntity
  8
AVERDECKTE
100
AcDbSpline
210
0.0
220
0.0
230
1.0
 70
    28
 71
     2
 72
     6
 73
     3
 74
     0
 42
0.000000001
 43
0.0000000001
 40
0.0
 40
0.0
 40
0.0
 40
0.4673744552311687
 40
0.4673744552311687
 40
0.4673744552311687
 10
161.8971599144347
 20
282.9476828758627
 30
0.0
 41
1.0
 10
163.0518604528139
 20
280.9476828758627
 30
0.0
 41
1.154700538379253
 10
164.2065609911932
 20
278.9476828758628
 30
0.0
 41
1.0
  0
SPLINE
  5
333
330
2
100
AcDbEntity
  8
AVERDECKTE
100
AcDbSpline
210
0.0
220
0.0
230
1.0
 70
    28
 71
     2
 72
     6
 73
     3
 74
     0
 42
0.000000001
 43
0.0000000001
 40
0.0
 40
0.0
 40
0.0
 40
0.4673744552311672
 40
0.4673744552311672
 40
0.4673744552311672
 10
164.2065609911932
 20
278.9476828758628
 30
0.0
 41
1.0
 10
163.0518604528139
 20
276.9476828758627
 30
0.0
 41
1.154700538379244
 10
161.8971599144347
 20
274.9476828758627
 30
0.0
 41
1.0
  0
SPLINE
  5
334
330
2
100
AcDbEntity
  8
AVERDECKTE
100
AcDbSpline
210
0.0
220
0.0
230
1.0
 70
    28
 71
     2
 72
     6
 73
     3
 74
     0
 42
0.000000001
 43
0.0000000001
 40
0.0
 40
0.0
 40
0.0
 40
0.4673744552311675
 40
0.4673744552311675
 40
0.4673744552311675
 10
161.8971599144347
 20
274.9476828758627
 30
0.0
 41
1.0
 10
159.5877588376762
 20
274.9476828758628
 30
0.0
 41
1.15470053837925
 10
157.2783577609177
 20
274.9476828758627
 30
0.0
 41
1.0
  0
SPLINE
  5
335
330
2
100
AcDbEntity
  8
AVERDECKTE
100
AcDbSpline
210
0.0
220
0.0
230
1.0
 70
    28
 71
     2
 72
     6
 73
     3
 74
     0
 42
0.000000001
 43
0.0000000001
 40
0.0
 40
0.0
 40
0.0
 40
0.4673744552311672
 40
0.4673744552311672
 40
0.4673744552311672
 10
157.2783577609177
 20
274.9476828758627
 30
0.0
 41
1.0
 10
156.1236572225385
 20
276.9476828758627
 30
0.0
 41
1.154700538379254
 10
154.9689566841592
 20
278.9476828758628
 30
0.0
 41
1.0
  0
LINE
  5
336
330
2
100
AcDbEntity
  8
UMRISS05
100
AcDbLine
 10
151.0877588376762
 20
224.7976828758627
 30
0.0
 11
151.0877588376762
 21
273.0976828758627
 31
0.0
  0
LINE
  5
337
330
2
100
AcDbEntity
  8
UMRISS05
100
AcDbLine
 10
149.0877588376762
 20
407.9476828758628
 30
0.0
 11
149.0877588376762
 21
192.9476828758627
 31
0.0
  0
LINE
  5
338
330
2
100
AcDbEntity
  8
Sichtbare Kanten(MSL)
100
AcDbLine
 10
149.0877588376762
 20
273.0976828758627
 30
0.0
 11
149.0877588376762
 21
273.0476828758628
 31
0.0
  0
LINE
  5
339
330
2
100
AcDbEntity
  8
AVERDECKTE
100
AcDbLine
 10
151.0877588376762
 20
213.5476828758628
 30
0.0
 11
151.0877588376762
 21
224.7976828758627
 31
0.0
  0
LINE
  5
33A
330
2
100
AcDbEntity
  8
AVERDECKTE
100
AcDbLine
 10
151.0877588376762
 20
213.5476828758628
 30
0.0
 11
149.0877588376762
 21
213.5476828758628
 31
0.0
  0
LINE
  5
33B
330
2
100
AcDbEntity
  8
AVERDECKTE
100
AcDbLine
 10
151.0877588376762
 20
273.0976828758627
 30
0.0
 11
151.0877588376762
 21
284.5476828758628
 31
0.0
  0
LINE
  5
33C
330
2
100
AcDbEntity
  8
AVERDECKTE
100
AcDbLine
 10
151.0877588376762
 20
284.5476828758628
 30
0.0
 11
149.0877588376762
 21
284.5476828758628
 31
0.0
  0
ARC
  5
33D
330
2
100
AcDbEntity
  8
AVERDECKTE
100
AcDbCircle
 10
156.5877588376762
 20
274.4476828758628
 30
0.0
 40
1.499999999999996
100
AcDbArc
 50
180.0
 51
270.0
  0
LINE
  5
33E
330
2
100
AcDbEntity
  8
AVERDECKTE
100
AcDbLine
 10
164.0877588376762
 20
283.9476828758627
 30
0.0
 11
164.0877588376762
 21
274.4476828758628
 31
0.0
  0
ARC
  5
33F
330
2
100
AcDbEntity
  8
AVERDECKTE
100
AcDbCircle
 10
162.5877588376761
 20
274.4476828758628
 30
0.0
 40
1.499999999999999
100
AcDbArc
 50
270.0
 51
0.0
  0
ARC
  5
340
330
2
100
AcDbEntity
  8
AVERDECKTE
100
AcDbCircle
 10
162.5877588376762
 20
223.447682875863
 30
0.0
 40
1.500000000000003
100
AcDbArc
 50
0.0
 51
90.0
  0
LINE
  5
341
330
2
100
AcDbEntity
  8
AVERDECKTE
100
AcDbLine
 10
164.0877588376762
 20
223.447682875863
 30
0.0
 11
164.0877588376762
 21
213.9476828758631
 31
0.0
  0
ARC
  5
342
330
2
100
AcDbEntity
  8
AVERDECKTE
100
AcDbCircle
 10
156.5877588376762
 20
223.447682875863
 30
0.0
 40
1.499999999999996
100
AcDbArc
 50
90.0
 51
180.0
  0
LINE
  5
343
330
2
100
AcDbEntity
  8
AVERDECKTE
100
AcDbLine
 10
155.0877588376762
 20
213.9476828758631
 30
0.0
 11
155.0877588376762
 21
223.447682875863
 31
0.0
  0
LINE
  5
344
330
2
100
AcDbEntity
  8
AVERDECKTE
100
AcDbLine
 10
155.0877588376762
 20
274.4476828758628
 30
0.0
 11
155.0877588376762
 21
283.9476828758627
 31
0.0
  0
LINE
  5
345
330
2
100
AcDbEntity
  8
AVERDECKTE
100
AcDbLine
 10
163.7057928264261
 20
213.9476828758631
 30
0.0
 11
166.2877588376762
 21
213.9476828758631
 31
0.0
  0
SPLINE
  5
346
330
2
100
AcDbEntity
  8
AVERDECKTE
100
AcDbSpline
210
0.0
220
0.0
230
1.0
 70
     8
 71
     3
 72
    10
 73
     6
 74
     0
 42
0.000000001
 43
0.0000000001
 40
0.0
 40
0.0
 40
0.0
 40
0.0
 40
0.0637120304529076
 40
0.0637120304529076
 40
0.1235509952121637
 40
0.1235509952121637
 40
0.1235509952121637
 40
0.1235509952121637
 10
162.5877588376762
 20
214.0816574720787
 30
0.0
 10
162.8001322725192
 20
214.0816574720787
 30
0.0
 10
163.0201144340834
 20
214.0506775054786
 30
0.0
 10
163.4045697666113
 20
213.9817213855466
 30
0.0
 10
163.5723727317124
 20
213.9476828758631
 30
0.0
 10
163.7057928264261
 20
213.9476828758631
 30
0.0
  0
LINE
  5
347
330
2
100
AcDbEntity
  8
AVERDECKTE
100
AcDbLine
 10
156.5877588376762
 20
214.0816574720786
 30
0.0
 11
162.5877588376762
 21
214.0816574720786
 31
0.0
  0
SPLINE
  5
348
330
2
100
AcDbEntity
  8
AVERDECKTE
100
AcDbSpline
210
0.0
220
0.0
230
1.0
 70
     8
 71
     3
 72
    10
 73
     6
 74
     0
 42
0.000000001
 43
0.0000000001
 40
-0.1235509952121639
 40
-0.1235509952121639
 40
-0.1235509952121639
 40
-0.1235509952121639
 40
-0.0637120304529075
 40
-0.0637120304529075
 40
0.0
 40
0.0
 40
0.0
 40
0.0
 10
155.4697248489263
 20
213.9476828758631
 30
0.0
 10
155.6031449436399
 20
213.9476828758631
 30
0.0
 10
155.770947908741
 20
213.9817213855466
 30
0.0
 10
156.1554032412689
 20
214.0506775054786
 30
0.0
 10
156.3753854028332
 20
214.0816574720786
 30
0.0
 10
156.5877588376762
 20
214.0816574720786
 30
0.0
  0
LINE
  5
349
330
2
100
AcDbEntity
  8
AVERDECKTE
100
AcDbLine
 10
151.3877588376762
 20
213.9476828758631
 30
0.0
 11
155.4697248489263
 21
213.9476828758631
 31
0.0
  0
LINE
  5
34A
330
2
100
AcDbEntity
  8
AVERDECKTE
100
AcDbLine
 10
155.4697248489263
 20
283.9476828758627
 30
0.0
 11
151.3877588376762
 21
283.9476828758627
 31
0.0
  0
SPLINE
  5
34B
330
2
100
AcDbEntity
  8
AVERDECKTE
100
AcDbSpline
210
0.0
220
0.0
230
1.0
 70
     8
 71
     3
 72
    10
 73
     6
 74
     0
 42
0.000000001
 43
0.0000000001
 40
0.0
 40
0.0
 40
0.0
 40
0.0
 40
0.0637120304529076
 40
0.0637120304529076
 40
0.1235509952121636
 40
0.1235509952121636
 40
0.1235509952121636
 40
0.1235509952121636
 10
156.5877588376762
 20
283.8137082796472
 30
0.0
 10
156.3753854028332
 20
283.8137082796472
 30
0.0
 10
156.1554032412689
 20
283.8446882462471
 30
0.0
 10
155.770947908741
 20
283.9136443661791
 30
0.0
 10
155.6031449436399
 20
283.9476828758627
 30
0.0
 10
155.4697248489263
 20
283.9476828758627
 30
0.0
  0
LINE
  5
34C
330
2
100
AcDbEntity
  8
AVERDECKTE
100
AcDbLine
 10
162.5877588376762
 20
283.8137082796472
 30
0.0
 11
156.5877588376762
 21
283.8137082796472
 31
0.0
  0
SPLINE
  5
34D
330
2
100
AcDbEntity
  8
AVERDECKTE
100
AcDbSpline
210
0.0
220
0.0
230
1.0
 70
     8
 71
     3
 72
    10
 73
     6
 74
     0
 42
0.000000001
 43
0.0000000001
 40
-0.1235509952121637
 40
-0.1235509952121637
 40
-0.1235509952121637
 40
-0.1235509952121637
 40
-0.0637120304529075
 40
-0.0637120304529075
 40
0.0
 40
0.0
 40
0.0
 40
0.0
 10
163.7057928264261
 20
283.9476828758627
 30
0.0
 10
163.5723727317125
 20
283.9476828758627
 30
0.0
 10
163.4045697666113
 20
283.9136443661791
 30
0.0
 10
163.0201144340834
 20
283.8446882462471
 30
0.0
 10
162.8001322725192
 20
283.8137082796472
 30
0.0
 10
162.5877588376762
 20
283.8137082796472
 30
0.0
  0
LINE
  5
34E
330
2
100
AcDbEntity
  8
AVERDECKTE
100
AcDbLine
 10
166.2877588376762
 20
283.9476828758627
 30
0.0
 11
163.7057928264261
 21
283.9476828758627
 31
0.0
  0
LINE
  5
34F
330
2
100
AcDbEntity
  8
AVERDECKTE
100
AcDbLine
 10
166.5877588376762
 20
283.6476828758628
 30
0.0
 11
166.5877588376762
 21
282.9476828758627
 31
0.0
  0
ARC
  5
350
330
2
100
AcDbEntity
  8
AVERDECKTE
100
AcDbCircle
 10
166.2877588376762
 20
283.6476828758628
 30
0.0
 40
0.2999999999999976
100
AcDbArc
 50
0.0
 51
90.0
  0
LINE
  5
351
330
2
100
AcDbEntity
  8
AVERDECKTE
100
AcDbLine
 10
166.5877588376762
 20
273.2476828758628
 30
0.0
 11
166.5877588376762
 21
282.9476828758627
 31
0.0
  0
ARC
  5
352
330
2
100
AcDbEntity
  8
UMRISS05
100
AcDbCircle
 10
151.3877588376762
 20
272.6476828758627
 30
0.0
 40
0.3000000000000009
100
AcDbArc
 50
90.0
 51
180.0
  0
LINE
  5
353
330
2
100
AcDbEntity
  8
UMRISS05
100
AcDbLine
 10
151.3877588376762
 20
272.9476828758627
 30
0.0
 11
168.7877588376761
 21
272.9476828758627
 31
0.0
  0
ARC
  5
354
330
2
100
AcDbEntity
  8
UMRISS05
100
AcDbCircle
 10
168.7877588376761
 20
272.6476828758627
 30
0.0
 40
0.2999999999999987
100
AcDbArc
 50
0.0
 51
90.0
  0
LINE
  5
355
330
2
100
AcDbEntity
  8
UMRISS05
100
AcDbLine
 10
156.5877588376762
 20
269.9476828758628
 30
0.0
 11
162.5877588376762
 21
269.9476828758628
 31
0.0
  0
ARC
  5
356
330
2
100
AcDbEntity
  8
UMRISS05
100
AcDbCircle
 10
162.5877588376761
 20
266.9476828758628
 30
0.0
 40
3.0
100
AcDbArc
 50
0.0
 51
90.0
  0
LINE
  5
357
330
2
100
AcDbEntity
  8
UMRISS05
100
AcDbLine
 10
165.5877588376762
 20
266.9476828758628
 30
0.0
 11
165.5877588376762
 21
256.4182200489116
 31
0.0
  0
ARC
  5
358
330
2
100
AcDbEntity
  8
UMRISS05
100
AcDbCircle
 10
177.5877588376762
 20
256.4182200489116
 30
0.0
 40
12.00000000000005
100
AcDbArc
 50
180.0
 51
196.957426294176
  0
SPLINE
  5
359
330
2
100
AcDbEntity
  8
UMRISS05
100
AcDbSpline
210
0.0
220
0.0
230
1.0
 70
     8
 71
     3
 72
    20
 73
    16
 74
     0
 42
0.000000001
 43
0.0000000001
 40
0.0
 40
0.0
 40
0.0
 40
0.0
 40
0.0280749633281927
 40
0.0280749633281927
 40
0.1654566649166309
 40
0.1654566649166309
 40
0.2605802650138687
 40
0.2605802650138687
 40
0.3534393258951604
 40
0.3534393258951604
 40
0.4276023932301691
 40
0.4276023932301691
 40
0.4848736774832739
 40
0.4848736774832739
 40
0.5206682301414645
 40
0.5206682301414645
 40
0.5206682301414645
 40
0.5206682301414645
 10
166.1094979681112
 20
252.9182875623894
 30
0.0
 10
166.1379792655634
 20
252.8248812571765
 30
0.0
 10
166.1676718853148
 20
252.7315921222855
 30
0.0
 10
166.3496559124816
 20
252.1832239835243
 30
0.0
 10
166.5295870397856
 20
251.7339021332534
 30
0.0
 10
166.8724868105566
 20
251.006076857177
 30
0.0
 10
167.0232705260403
 20
250.7179489775589
 30
0.0
 10
167.336843714549
 20
250.1719837907519
 30
0.0
 10
167.4985765196669
 20
249.9155726317249
 30
0.0
 10
167.776749992757
 20
249.5050009859681
 30
0.0
 10
167.8962198880211
 20
249.3400792060206
 30
0.0
 10
168.0678635001418
 20
249.1115723395501
 30
0.0
 10
168.1284422830234
 20
249.0341501227462
 30
0.0
 10
168.1849732824289
 20
248.9624264939169
 30
0.0
 10
168.1964544898501
 20
248.948052537637
 30
0.0
 10
168.1964544898501
 20
248.948052537637
 30
0.0
  0
ARC
  5
35A
330
2
100
AcDbEntity
  8
UMRISS05
100
AcDbCircle
 10
168.5877588376762
 20
249.2593095172734
 30
0.0
 40
0.5000000000000019
100
AcDbArc
 50
218.49995040925
 51
0.0
  0
LINE
  5
35B
330
2
100
AcDbEntity
  8
UMRISS05
100
AcDbLine
 10
166.5877588376762
 20
229.947682875863
 30
0.0
 11
168.5877588376762
 21
229.947682875863
 31
0.0
  0
ARC
  5
35C
330
2
100
AcDbEntity
  8
UMRISS05
100
AcDbCircle
 10
168.5877588376762
 20
229.447682875863
 30
0.0
 40
0.4999999999999952
100
AcDbArc
 50
0.0
 51
90.0
  0
LINE
  5
35D
330
2
100
AcDbEntity
  8
UMRISS05
100
AcDbLine
 10
166.5877588376762
 20
229.947682875863
 30
0.0
 11
151.5877588376762
 21
229.947682875863
 31
0.0
  0
ARC
  5
35E
330
2
100
AcDbEntity
  8
UMRISS05
100
AcDbCircle
 10
151.5877588376762
 20
229.447682875863
 30
0.0
 40
0.4999999999999974
100
AcDbArc
 50
90.0
 51
180.0
  0
SPLINE
  5
35F
330
2
100
AcDbEntity
  8
UMRISS05
100
AcDbSpline
210
0.0
220
0.0
230
1.0
 70
     8
 71
     3
 72
    16
 73
    12
 74
     0
 42
0.000000001
 43
0.0000000001
 40
0.0
 40
0.0
 40
0.0
 40
0.0
 40
0.0112533999184804
 40
0.0112533999184804
 40
0.028258861663208
 40
0.028258861663208
 40
0.0587993527041849
 40
0.0587993527041849
 40
0.1030960701676211
 40
0.1030960701676211
 40
0.1498693254828793
 40
0.1498693254828793
 40
0.1498693254828793
 40
0.1498693254828793
 10
152.0423042922216
 20
249.7396401128533
 30
0.0
 10
152.0423042922216
 20
249.7396401128533
 30
0.0
 10
152.0469214977139
 20
249.749700998453
 30
0.0
 10
152.0658687949662
 20
249.791235938282
 30
0.0
 10
152.0834808178577
 20
249.8300401201508
 30
0.0
 10
152.1363737528979
 20
249.9481222041985
 30
0.0
 10
152.1761732466758
 20
250.0386516143823
 30
0.0
 10
152.2716681569218
 20
250.2616496612574
 30
0.0
 10
152.3290523695546
 20
250.4003744741448
 30
0.0
 10
152.4443900826795
 20
250.6904930021641
 30
0.0
 10
152.5023836151775
 20
250.842628533122
 30
0.0
 10
152.5574558073732
 20
250.9935284752777
 30
0.0
  0
ARC
  5
360
330
2
100
AcDbEntity
  8
UMRISS05
100
AcDbCircle
 10
151.5877588376762
 20
249.9479390080785
 30
0.0
 40
0.4999999999999992
100
AcDbArc
 50
180.0
 51
335.3800226713419
  0
ARC
  5
361
330
2
100
AcDbEntity
  8
UMRISS05
100
AcDbCircle
 10
136.5877588376761
 20
256.8218025505123
 30
0.0
 40
17.00000000000009
100
AcDbArc
 50
339.9500242758486
 51
0.0
  0
LINE
  5
362
330
2
100
AcDbEntity
  8
UMRISS05
100
AcDbLine
 10
153.5877588376762
 20
256.8218025505123
 30
0.0
 11
153.5877588376762
 21
266.9476828758628
 31
0.0
  0
ARC
  5
363
330
2
100
AcDbEntity
  8
UMRISS05
100
AcDbCircle
 10
156.5877588376762
 20
266.9476828758628
 30
0.0
 40
2.999999999999996
100
AcDbArc
 50
90.0
 51
180.0
  0
SPLINE
  5
364
330
2
100
AcDbEntity
  8
UMRISS05
100
AcDbSpline
210
0.0
220
0.0
230
1.0
 70
    24
 71
     3
 72
    14
 73
    10
 74
     0
 42
0.000000001
 43
0.0000000001
 40
0.0
 40
0.0
 40
0.0
 40
0.0
 40
0.0556471135514148
 40
0.0556471135514148
 40
0.1446824952336785
 40
0.1446824952336785
 40
0.2429669937796488
 40
0.2429669937796488
 40
0.292090638239844
 40
0.292090638239844
 40
0.292090638239844
 40
0.292090638239844
 10
169.0877588376762
 20
247.0373885292648
 30
0.0
 10
169.0877588376762
 20
247.2228789077695
 30
0.0
 10
169.0877588376762
 20
247.410059841631
 30
0.0
 10
169.0877588376762
 20
247.8880310968073
 30
0.0
 10
169.0877588376762
 20
248.1722205822443
 30
0.0
 10
169.0877588376762
 20
248.7210744661866
 30
0.0
 10
169.0877588376762
 20
248.9846919677253
 30
0.0
 10
169.0877588376762
 20
249.2138571813623
 30
0.0
 10
169.0877588376762
 20
249.2593095172734
 30
0.0
 10
169.0877588376762
 20
249.2593095172734
 30
0.0
  0
LINE
  5
365
330
2
100
AcDbEntity
  8
UMRISS05
100
AcDbLine
 10
169.0877588376762
 20
192.9476828758627
 30
0.0
 11
169.0877588376762
 21
247.0373885292648
 31
0.0
  0
LINE
  5
366
330
2
100
AcDbEntity
  8
UMRISS05
100
AcDbLine
 10
169.0877588376762
 20
249.2593095172734
 30
0.0
 11
169.0877588376762
 21
407.9476828758628
 31
0.0
  0
ARC
  5
367
330
2
100
AcDbEntity
  8
AVERDECKTE
100
AcDbCircle
 10
151.3877588376762
 20
214.2476828758631
 30
0.0
 40
0.300000000000002
100
AcDbArc
 50
180.0
 51
270.0
  0
ARC
  5
368
330
2
100
AcDbEntity
  8
AVERDECKTE
100
AcDbCircle
 10
151.3877588376762
 20
283.6476828758627
 30
0.0
 40
0.300000000000002
100
AcDbArc
 50
90.0
 51
180.0
  0
LINE
  5
369
330
2
100
AcDbEntity
  8
AVERDECKTE
100
AcDbLine
 10
166.5877588376762
 20
214.947682875863
 30
0.0
 11
166.5877588376762
 21
224.7976828758627
 31
0.0
  0
LINE
  5
36A
330
2
100
AcDbEntity
  8
AVERDECKTE
100
AcDbLine
 10
166.5877588376762
 20
214.947682875863
 30
0.0
 11
166.5877588376762
 21
214.2476828758631
 31
0.0
  0
ARC
  5
36B
330
2
100
AcDbEntity
  8
AVERDECKTE
100
AcDbCircle
 10
166.2877588376762
 20
214.2476828758631
 30
0.0
 40
0.2999999999999932
100
AcDbArc
 50
269.9999999999968
 51
0.0
  0
ARC
  5
36C
330
2
100
AcDbEntity
  8
UMRISS05
100
AcDbCircle
 10
151.3877588376762
 20
225.247682875863
 30
0.0
 40
0.300000000000002
100
AcDbArc
 50
180.0
 51
270.0
  0
ARC
  5
36D
330
2
100
AcDbEntity
  8
UMRISS05
100
AcDbCircle
 10
168.7877588376762
 20
225.247682875863
 30
0.0
 40
0.2999999999999932
100
AcDbArc
 50
270.0
 51
0.0
  0
LINE
  5
36E
330
2
100
AcDbEntity
  8
UMRISS05
100
AcDbLine
 10
168.7877588376761
 20
224.947682875863
 30
0.0
 11
151.3877588376762
 21
224.947682875863
 31
0.0
  0
CIRCLE
  5
36F
330
2
100
AcDbEntity
  8
UMRISS05
100
AcDbCircle
 10
159.0877588376762
 20
204.4476828758628
 30
0.0
 40
2.75
  0
CIRCLE
  5
370
330
2
100
AcDbEntity
  8
UMRISS05
100
AcDbCircle
 10
159.0877588376762
 20
396.4476828758628
 30
0.0
 40
2.75
  0
CIRCLE
  5
371
330
2
100
AcDbEntity
  8
UMRISS05
100
AcDbCircle
 10
159.0877588376762
 20
361.4476828758628
 30
0.0
 40
2.75
  0
LINE
  5
372
330
2
100
AcDbEntity
  8
AVERDECKTE
100
AcDbLine
 10
150.5877588376762
 20
398.9476828758628
 30
0.0
 11
149.3806520564897
 21
398.9476828758628
 31
0.0
  0
LINE
  5
373
330
2
100
AcDbEntity
  8
AVERDECKTE
100
AcDbLine
 10
150.5877588376762
 20
393.9476828758628
 30
0.0
 11
149.3806520564897
 21
393.9476828758628
 31
0.0
  0
LINE
  5
374
330
2
100
AcDbEntity
  8
AVERDECKTE
100
AcDbLine
 10
150.5877588376762
 20
363.9476828758629
 30
0.0
 11
149.3806520564897
 21
363.9476828758629
 31
0.0
  0
LINE
  5
375
330
2
100
AcDbEntity
  8
AVERDECKTE
100
AcDbLine
 10
150.5877588376762
 20
358.9476828758629
 30
0.0
 11
149.3806520564897
 21
358.9476828758629
 31
0.0
  0
LINE
  5
376
330
2
100
AcDbEntity
  8
AVERDECKTE
100
AcDbLine
 10
150.5877588376762
 20
206.9476828758628
 30
0.0
 11
149.3806520564897
 21
206.9476828758628
 31
0.0
  0
LINE
  5
377
330
2
100
AcDbEntity
  8
AVERDECKTE
100
AcDbLine
 10
150.5877588376762
 20
201.9476828758627
 30
0.0
 11
149.3806520564897
 21
201.9476828758627
 31
0.0
  0
ELLIPSE
  5
378
330
2
100
AcDbEntity
  8
AVERDECKTE
100
AcDbEllipse
 10
150.5877588376762
 20
396.4476828758628
 30
0.0
 11
3.535533905932738
 21
0.0
 31
0.0
210
0.0
220
0.0
230
1.0
 40
0.7071067811865474
 41
4.712388980384689
 42
7.853981633974482
  0
ELLIPSE
  5
379
330
2
100
AcDbEntity
  8
AVERDECKTE
100
AcDbEllipse
 10
150.5877588376762
 20
361.4476828758629
 30
0.0
 11
3.535533905932738
 21
0.0
 31
0.0
210
0.0
220
0.0
230
1.0
 40
0.7071067811865474
 41
4.712388980384689
 42
7.853981633974482
  0
ELLIPSE
  5
37A
330
2
100
AcDbEntity
  8
AVERDECKTE
100
AcDbEllipse
 10
150.5877588376762
 20
204.4476828758628
 30
0.0
 11
3.535533905932738
 21
0.0
 31
0.0
210
0.0
220
0.0
230
1.0
 40
0.7071067811865474
 41
4.712388980384689
 42
7.853981633974482
  0
ELLIPSE
  5
37B
330
2
100
AcDbEntity
  8
AVERDECKTE
100
AcDbEllipse
 10
149.0877588376762
 20
396.4476828758628
 30
0.0
 11
3.535533905932739
 21
0.0
 31
0.0
210
0.0
220
0.0
230
1.0
 40
0.7071067811865471
 41
4.999145532596235
 42
7.567225081762936
  0
ELLIPSE
  5
37C
330
2
100
AcDbEntity
  8
AVERDECKTE
100
AcDbEllipse
 10
149.0877588376762
 20
361.4476828758629
 30
0.0
 11
3.535533905932739
 21
0.0
 31
0.0
210
0.0
220
0.0
230
1.0
 40
0.7071067811865471
 41
4.999145532596235
 42
7.567225081762936
  0
ELLIPSE
  5
37D
330
2
100
AcDbEntity
  8
AVERDECKTE
100
AcDbEllipse
 10
149.0877588376762
 20
204.4476828758628
 30
0.0
 11
3.535533905932739
 21
0.0
 31
0.0
210
0.0
220
0.0
230
1.0
 40
0.7071067811865471
 41
4.999145532596235
 42
7.567225081762936
  0
LINE
  5
37E
330
2
100
AcDbEntity
  8
AVERDECKTE
100
AcDbLine
 10
167.5877588376762
 20
195.2839933493183
 30
0.0
 11
150.5877588376762
 21
195.2839933493183
 31
0.0
  0
LINE
  5
37F
330
2
100
AcDbEntity
  8
AVERDECKTE
100
AcDbLine
 10
150.5877588376762
 20
405.6113724024071
 30
0.0
 11
167.5877588376762
 21
405.6113724024071
 31
0.0
  0
SPLINE
  5
380
330
2
100
AcDbEntity
  8
AVERDECKTE
100
AcDbSpline
210
0.0
220
0.0
230
1.0
 70
     8
 71
     3
 72
    14
 73
    10
 74
     0
 42
0.000000001
 43
0.0000000001
 40
0.0763115330505305
 40
0.0763115330505305
 40
0.0763115330505305
 40
0.0763115330505305
 40
0.1144287000804589
 40
0.1144287000804589
 40
0.1525458671103872
 40
0.1525458671103872
 40
0.1906630341403156
 40
0.1906630341403156
 40
0.2287802011702439
 40
0.2287802011702439
 40
0.2287802011702439
 40
0.2287802011702439
 10
150.0877588376762
 20
398.8455986375191
 30
0.0
 10
149.9633768027645
 20
398.871534084648
 30
0.0
 10
149.8302522412816
 20
398.8987632586586
 30
0.0
 10
149.5838214204839
 20
398.9370679201331
 30
0.0
 10
149.4704950807779
 20
398.9476828758628
 30
0.0
 10
149.2908090322014
 20
398.9476828758628
 30
0.0
 10
149.2138007095978
 20
398.9370679201331
 30
0.0
 10
149.1123378769324
 20
398.8987632586586
 30
0.0
 10
149.0877588376762
 20
398.871534084648
 30
0.0
 10
149.0877588376762
 20
398.8455986375191
 30
0.0
  0
SPLINE
  5
381
330
2
100
AcDbEntity
  8
AVERDECKTE
100
AcDbSpline
210
0.0
220
0.0
230
1.0
 70
     8
 71
     3
 72
    14
 73
    10
 74
     0
 42
0.000000001
 43
0.0000000001
 40
0.3814032672713041
 40
0.3814032672713041
 40
0.3814032672713041
 40
0.3814032672713041
 40
0.4195204343012325
 40
0.4195204343012325
 40
0.4576376013311609
 40
0.4576376013311609
 40
0.4957547683610893
 40
0.4957547683610893
 40
0.5338719353910176
 40
0.5338719353910176
 40
0.5338719353910176
 40
0.5338719353910176
 10
149.0877588376762
 20
359.0497671142065
 30
0.0
 10
149.0877588376762
 20
359.0238316670777
 30
0.0
 10
149.1123378769324
 20
358.996602493067
 30
0.0
 10
149.2138007095978
 20
358.9582978315925
 30
0.0
 10
149.2908090322014
 20
358.9476828758629
 30
0.0
 10
149.4704950807779
 20
358.9476828758629
 30
0.0
 10
149.5838214204839
 20
358.9582978315925
 30
0.0
 10
149.8302522412816
 20
358.996602493067
 30
0.0
 10
149.9633768027645
 20
359.0238316670777
 30
0.0
 10
150.0877588376762
 20
359.0497671142065
 30
0.0
  0
SPLINE
  5
382
330
2
100
AcDbEntity
  8
AVERDECKTE
100
AcDbSpline
210
0.0
220
0.0
230
1.0
 70
     8
 71
     3
 72
    14
 73
    10
 74
     0
 42
0.000000001
 43
0.0000000001
 40
0.0763115330505303
 40
0.0763115330505303
 40
0.0763115330505303
 40
0.0763115330505303
 40
0.1144287000804587
 40
0.1144287000804587
 40
0.1525458671103871
 40
0.1525458671103871
 40
0.1906630341403155
 40
0.1906630341403155
 40
0.2287802011702438
 40
0.2287802011702438
 40
0.2287802011702438
 40
0.2287802011702438
 10
150.0877588376762
 20
363.8455986375192
 30
0.0
 10
149.9633768027645
 20
363.871534084648
 30
0.0
 10
149.8302522412816
 20
363.8987632586587
 30
0.0
 10
149.5838214204839
 20
363.9370679201332
 30
0.0
 10
149.4704950807779
 20
363.9476828758629
 30
0.0
 10
149.2908090322014
 20
363.9476828758629
 30
0.0
 10
149.2138007095978
 20
363.9370679201332
 30
0.0
 10
149.1123378769324
 20
363.8987632586587
 30
0.0
 10
149.0877588376762
 20
363.871534084648
 30
0.0
 10
149.0877588376762
 20
363.8455986375192
 30
0.0
  0
SPLINE
  5
383
330
2
100
AcDbEntity
  8
AVERDECKTE
100
AcDbSpline
210
0.0
220
0.0
230
1.0
 70
     8
 71
     3
 72
    14
 73
    10
 74
     0
 42
0.000000001
 43
0.0000000001
 40
0.3814032672713048
 40
0.3814032672713048
 40
0.3814032672713048
 40
0.3814032672713048
 40
0.4195204343012331
 40
0.4195204343012331
 40
0.4576376013311614
 40
0.4576376013311614
 40
0.4957547683610898
 40
0.4957547683610898
 40
0.5338719353910183
 40
0.5338719353910183
 40
0.5338719353910183
 40
0.5338719353910183
 10
149.0877588376762
 20
394.0497671142064
 30
0.0
 10
149.0877588376762
 20
394.0238316670776
 30
0.0
 10
149.1123378769324
 20
393.996602493067
 30
0.0
 10
149.2138007095978
 20
393.9582978315925
 30
0.0
 10
149.2908090322014
 20
393.9476828758628
 30
0.0
 10
149.4704950807779
 20
393.9476828758628
 30
0.0
 10
149.5838214204839
 20
393.9582978315924
 30
0.0
 10
149.8302522412816
 20
393.996602493067
 30
0.0
 10
149.9633768027645
 20
394.0238316670776
 30
0.0
 10
150.0877588376762
 20
394.0497671142064
 30
0.0
  0
SPLINE
  5
384
330
2
100
AcDbEntity
  8
AVERDECKTE
100
AcDbSpline
210
0.0
220
0.0
230
1.0
 70
     8
 71
     3
 72
    14
 73
    10
 74
     0
 42
0.000000001
 43
0.0000000001
 40
0.0763115330505305
 40
0.0763115330505305
 40
0.0763115330505305
 40
0.0763115330505305
 40
0.1144287000804589
 40
0.1144287000804589
 40
0.1525458671103872
 40
0.1525458671103872
 40
0.1906630341403156
 40
0.1906630341403156
 40
0.2287802011702439
 40
0.2287802011702439
 40
0.2287802011702439
 40
0.2287802011702439
 10
150.0877588376762
 20
206.8455986375191
 30
0.0
 10
149.9633768027645
 20
206.871534084648
 30
0.0
 10
149.8302522412816
 20
206.8987632586586
 30
0.0
 10
149.5838214204839
 20
206.9370679201331
 30
0.0
 10
149.4704950807779
 20
206.9476828758628
 30
0.0
 10
149.2908090322014
 20
206.9476828758628
 30
0.0
 10
149.2138007095978
 20
206.9370679201331
 30
0.0
 10
149.1123378769324
 20
206.8987632586586
 30
0.0
 10
149.0877588376762
 20
206.871534084648
 30
0.0
 10
149.0877588376762
 20
206.8455986375191
 30
0.0
  0
SPLINE
  5
385
330
2
100
AcDbEntity
  8
AVERDECKTE
100
AcDbSpline
210
0.0
220
0.0
230
1.0
 70
     8
 71
     3
 72
    14
 73
    10
 74
     0
 42
0.000000001
 43
0.0000000001
 40
0.3814032672713048
 40
0.3814032672713048
 40
0.3814032672713048
 40
0.3814032672713048
 40
0.4195204343012331
 40
0.4195204343012331
 40
0.4576376013311614
 40
0.4576376013311614
 40
0.4957547683610898
 40
0.4957547683610898
 40
0.5338719353910183
 40
0.5338719353910183
 40
0.5338719353910183
 40
0.5338719353910183
 10
149.0877588376762
 20
202.0497671142064
 30
0.0
 10
149.0877588376762
 20
202.0238316670776
 30
0.0
 10
149.1123378769324
 20
201.996602493067
 30
0.0
 10
149.2138007095978
 20
201.9582978315924
 30
0.0
 10
149.2908090322014
 20
201.9476828758627
 30
0.0
 10
149.4704950807779
 20
201.9476828758627
 30
0.0
 10
149.5838214204839
 20
201.9582978315924
 30
0.0
 10
149.8302522412816
 20
201.996602493067
 30
0.0
 10
149.9633768027645
 20
202.0238316670776
 30
0.0
 10
150.0877588376762
 20
202.0497671142064
 30
0.0
  0
ARC
  5
386
330
2
100
AcDbEntity
  8
UMRISS05
100
AcDbCircle
 10
150.0877588376762
 20
407.9476828758628
 30
0.0
 40
1.0
100
AcDbArc
 50
90.0
 51
180.0
  0
ARC
  5
387
330
2
100
AcDbEntity
  8
UMRISS05
100
AcDbCircle
 10
150.0877588376762
 20
192.9476828758627
 30
0.0
 40
1.0
100
AcDbArc
 50
180.0
 51
270.0
  0
LINE
  5
388
330
2
100
AcDbEntity
  8
UMRISS05
100
AcDbLine
 10
149.0877588376762
 20
224.7976828758627
 30
0.0
 11
169.0877588376762
 21
224.7976828758627
 31
0.0
  0
ARC
  5
389
330
2
100
AcDbEntity
  8
UMRISS05
100
AcDbCircle
 10
168.0877588376762
 20
192.9476828758627
 30
0.0
 40
1.0
100
AcDbArc
 50
270.0
 51
0.0
  0
ARC
  5
38A
330
2
100
AcDbEntity
  8
UMRISS05
100
AcDbCircle
 10
168.0877588376762
 20
407.9476828758628
 30
0.0
 40
1.0
100
AcDbArc
 50
0.0
 51
90.0
  0
LINE
  5
38B
330
2
100
AcDbEntity
  8
AVERDECKTE
100
AcDbLine
 10
149.0877588376762
 20
213.2976828758629
 30
0.0
 11
150.5877588376762
 21
213.2976828758629
 31
0.0
  0
LINE
  5
38C
330
2
100
AcDbEntity
  8
UMRISS05
100
AcDbLine
 10
149.0877588376762
 20
273.0976828758628
 30
0.0
 11
169.0877588376762
 21
273.0976828758628
 31
0.0
  0
LINE
  5
38D
330
2
100
AcDbEntity
  8
AVERDECKTE
100
AcDbLine
 10
167.5877588376762
 20
408.9476828758628
 30
0.0
 11
167.5877588376762
 21
273.0976828758628
 31
0.0
  0
LINE
  5
38E
330
2
100
AcDbEntity
  8
AVERDECKTE
100
AcDbLine
 10
167.5877588376762
 20
224.7976828758627
 30
0.0
 11
167.5877588376762
 21
191.9476828758627
 31
0.0
  0
LINE
  5
38F
330
2
100
AcDbEntity
  8
AVERDECKTE
100
AcDbLine
 10
150.5877588376762
 20
408.9476828758628
 30
0.0
 11
150.5877588376762
 21
273.0976828758628
 31
0.0
  0
LINE
  5
390
330
2
100
AcDbEntity
  8
AVERDECKTE
100
AcDbLine
 10
150.5877588376762
 20
224.7976828758627
 30
0.0
 11
150.5877588376762
 21
191.9476828758627
 31
0.0
  0
LINE
  5
391
330
2
100
AcDbEntity
  8
UMRISS05
100
AcDbLine
 10
150.0877588376762
 20
191.9476828758627
 30
0.0
 11
168.0877588376762
 21
191.9476828758627
 31
0.0
  0
LINE
  5
392
330
2
100
AcDbEntity
  8
UMRISS05
100
AcDbLine
 10
168.0877588376762
 20
408.9476828758628
 30
0.0
 11
150.0877588376762
 21
408.9476828758628
 31
0.0
  0
LINE
  5
393
330
2
100
AcDbEntity
  8
UMRISS05
100
AcDbLine
 10
163.0877588376763
 20
368.9476828758628
 30
0.0
 11
157.0877588376764
 21
368.9476828758628
 31
0.0
  0
ARC
  5
394
330
2
100
AcDbEntity
  8
UMRISS05
100
AcDbCircle
 10
163.0877588376763
 20
371.9476828758628
 30
0.0
 40
3.000000000000468
100
AcDbArc
 50
270.0
 51
0.0
  0
LINE
  5
395
330
2
100
AcDbEntity
  8
UMRISS05
100
AcDbLine
 10
166.0877588376763
 20
385.9476828758628
 30
0.0
 11
166.0877588376763
 21
371.9476828758628
 31
0.0
  0
ARC
  5
396
330
2
100
AcDbEntity
  8
UMRISS05
100
AcDbCircle
 10
163.0877588376763
 20
385.9476828758628
 30
0.0
 40
3.000000000000468
100
AcDbArc
 50
0.0
 51
90.0
  0
LINE
  5
397
330
2
100
AcDbEntity
  8
UMRISS05
100
AcDbLine
 10
157.0877588376764
 20
388.9476828758628
 30
0.0
 11
163.0877588376763
 21
388.9476828758628
 31
0.0
  0
ARC
  5
398
330
2
100
AcDbEntity
  8
UMRISS05
100
AcDbCircle
 10
157.0877588376764
 20
385.9476828758628
 30
0.0
 40
3.000000000000468
100
AcDbArc
 50
90.0
 51
180.0
  0
LINE
  5
399
330
2
100
AcDbEntity
  8
UMRISS05
100
AcDbLine
 10
154.0877588376764
 20
371.9476828758628
 30
0.0
 11
154.0877588376764
 21
385.9476828758628
 31
0.0
  0
ARC
  5
39A
330
2
100
AcDbEntity
  8
UMRISS05
100
AcDbCircle
 10
157.0877588376764
 20
371.9476828758628
 30
0.0
 40
3.000000000000468
100
AcDbArc
 50
180.0
 51
270.0
  0
CIRCLE
  5
39B
330
2
100
AcDbEntity
  8
UMRISS05
100
AcDbCircle
 10
159.5877588376762
 20
218.9476828758627
 30
0.0
 40
4.75
  0
CIRCLE
  5
39C
330
2
100
AcDbEntity
  8
UMRISS05
100
AcDbCircle
 10
159.5877588376762
 20
278.9476828758628
 30
0.0
 40
4.75
  0
CIRCLE
  5
39D
330
2
100
AcDbEntity
  8
UMRISS05
100
AcDbCircle
 10
159.0877588376762
 20
204.4476828758628
 30
0.0
 40
5.0
  0
CIRCLE
  5
39E
330
2
100
AcDbEntity
  8
UMRISS05
100
AcDbCircle
 10
159.0877588376762
 20
204.4476828758628
 30
0.0
 40
4.0
  0
CIRCLE
  5
39F
330
2
100
AcDbEntity
  8
UMRISS05
100
AcDbCircle
 10
159.0877588376762
 20
361.4476828758628
 30
0.0
 40
4.0
  0
CIRCLE
  5
3A0
330
2
100
AcDbEntity
  8
UMRISS05
100
AcDbCircle
 10
159.0877588376762
 20
361.4476828758628
 30
0.0
 40
5.0
  0
CIRCLE
  5
3A1
330
2
100
AcDbEntity
  8
UMRISS05
100
AcDbCircle
 10
159.0877588376762
 20
396.4476828758628
 30
0.0
 40
5.0
  0
CIRCLE
  5
3A2
330
2
100
AcDbEntity
  8
UMRISS05
100
AcDbCircle
 10
159.0877588376762
 20
396.4476828758628
 30
0.0
 40
4.0
  0
ENDSEC
  0
SECTION
  2
OBJECTS
  0
DICTIONARY
  5
9
330
0
100
AcDbDictionary
281
     1
  3
ACAD_COLOR
350
4C
  3
ACAD_DETAILVIEWSTYLE
350
3C5
  3
ACAD_FIELDLIST
350
3F9
  3
ACAD_GROUP
350
39
  3
ACAD_LAYOUT
350
8
  3
ACAD_MATERIAL
350
16
  3
ACAD_MLEADERSTYLE
350
4F
  3
ACAD_MLINESTYLE
350
3A
  3
ACAD_PLOTSETTINGS
350
3B
  3
ACAD_PLOTSTYLENAME
350
14
  3
ACAD_SCALELIST
350
4D
  3
ACAD_SECTIONVIEWSTYLE
350
3D0
  3
ACAD_TABLESTYLE
350
4E
  3
ACAD_VISUALSTYLE
350
2F
  3
ACDB_RECOMPOSE_DATA
350
40B
  3
AcDbVariableDictionary
350
3FD
  3
AcDsDecomposeData
350
411
  3
AcmDictionary
350
3B5
  3
AcmSystemVariableManager
350
426
  3
AMG
350
3A5
  0
DICTIONARY
  5
1F
330
F
100
AcDbDictionary
280
     1
281
     1
  3
ACAD_LAYERFILTERS
360
20
  3
ACAD_LAYERSTATES
360
21
  3
ACLYDICTIONARY
360
22
  0
DICTIONARY
  5
11
330
10
100
AcDbDictionary
280
     1
281
     1
  3
ADSK_XREC_LAYER_RECONCILED
360
12
  0
DICTIONARY
  5
106
330
105
100
AcDbDictionary
280
     1
281
     1
  3
ADSK_XREC_LAYER_RECONCILED
360
107
  0
DICTIONARY
  5
51
330
50
100
AcDbDictionary
280
     1
281
     1
  3
ADSK_XREC_LAYER_RECONCILED
360
52
  0
DICTIONARY
  5
80
330
7F
100
AcDbDictionary
280
     1
281
     1
  3
ADSK_XREC_LAYER_RECONCILED
360
81
  0
DICTIONARY
  5
165
330
164
100
AcDbDictionary
280
     1
281
     1
  3
ADSK_XREC_LAYER_RECONCILED
360
166
  0
DICTIONARY
  5
3
330
2
100
AcDbDictionary
280
     1
281
     1
  3
ACAD_SORTENTS
360
3A3
  0
DICTIONARY
  5
103
330
102
100
AcDbDictionary
280
     1
281
     1
  3
ACMDIMBREAKPERSREACTOR
360
104
  0
DICTIONARY
  5
117
330
116
100
AcDbDictionary
280
     1
281
     1
  3
ACMDIMBREAKPERSREACTOR
360
118
  0
DICTIONARY
  5
127
330
126
100
AcDbDictionary
280
     1
281
     1
  3
ACMDIMBREAKPERSREACTOR
360
128
  0
DICTIONARY
  5
139
330
138
100
AcDbDictionary
280
     1
281
     1
  3
ACMDIMBREAKPERSREACTOR
360
13A
  0
DICTIONARY
  5
4C
102
{ACAD_REACTORS
330
9
102
}
330
9
100
AcDbDictionary
281
     1
  0
DICTIONARY
  5
3C5
102
{ACAD_REACTORS
330
9
102
}
330
9
100
AcDbDictionary
281
     1
  3
Metric50
350
3CC
  0
FIELDLIST
  5
3F9
102
{ACAD_REACTORS
330
9
102
}
330
9
100
AcDbIdSet
 90
        6
330
3C8
330
3C9
330
3CA
330
3D3
330
3D4
330
3D5
100
AcDbFieldList
  0
DICTIONARY
  5
39
102
{ACAD_REACTORS
330
9
102
}
330
9
100
AcDbDictionary
281
     1
  0
DICTIONARY
  5
8
102
{ACAD_REACTORS
330
9
102
}
330
9
100
AcDbDictionary
281
     1
  3
Layout1
350
E
  3
Model
350
7
  0
DICTIONARY
  5
16
102
{ACAD_REACTORS
330
9
102
}
330
9
100
AcDbDictionary
281
     1
  3
ByBlock
350
44
  3
ByLayer
350
3C
  3
Global
350
15
  0
DICTIONARY
  5
4F
102
{ACAD_REACTORS
330
9
102
}
330
9
100
AcDbDictionary
281
     1
  0
DICTIONARY
  5
3A
102
{ACAD_REACTORS
330
9
102
}
330
9
100
AcDbDictionary
281
     1
  3
STANDARD
350
54
  0
DICTIONARY
  5
3B
102
{ACAD_REACTORS
330
9
102
}
330
9
100
AcDbDictionary
281
     1
  0
ACDBDICTIONARYWDFLT
  5
14
102
{ACAD_REACTORS
330
9
102
}
330
9
100
AcDbDictionary
281
     1
  3
Normal
350
13
100
AcDbDictionaryWithDefault
340
13
  0
DICTIONARY
  5
4D
102
{ACAD_REACTORS
330
9
102
}
330
9
100
AcDbDictionary
281
     1
  3
A0
350
59
  3
A1
350
5A
  3
A2
350
5B
  3
A3
350
5C
  3
A4
350
5D
  3
A5
350
5E
  3
A6
350
5F
  3
A7
350
60
  3
A8
350
61
  3
A9
350
62
  3
B0
350
63
  3
B1
350
64
  3
B2
350
65
  3
B3
350
66
  3
B4
350
67
  3
B5
350
68
  3
B6
350
69
  0
DICTIONARY
  5
3D0
102
{ACAD_REACTORS
330
9
102
}
330
9
100
AcDbDictionary
281
     1
  3
Metric50
350
3DB
  0
DICTIONARY
  5
4E
102
{ACAD_REACTORS
330
9
102
}
330
9
100
AcDbDictionary
281
     1
  3
Standard
350
55
  0
DICTIONARY
  5
2F
102
{ACAD_REACTORS
330
9
102
}
330
9
100
AcDbDictionary
281
     1
  3
2dWireframe
350
2E
  3
Realistic
350
57
  3
Wireframe
350
58
  0
XRECORD
  5
40B
102
{ACAD_REACTORS
330
9
102
}
330
9
100
AcDbXrecord
280
     1
 90
        1
330
55
  0
DICTIONARY
  5
3FD
102
{ACAD_REACTORS
330
9
102
}
330
9
100
AcDbDictionary
281
     1
  3
CANNOSCALE
350
402
  3
CMLEADERSTYLE
350
3FF
  3
CTABLESTYLE
350
3FE
  3
CVIEWDETAILSTYLE
350
400
  3
CVIEWSECTIONSTYLE
350
401
  3
DIMASSOC
350
407
  3
HIDETEXT
350
405
  3
INDEXCTL
350
404
  3
SOLIDHIST
350
408
  3
SORTENTS
350
403
  3
XCLIPFRAME
350
406
  0
DICTIONARY
  5
411
102
{ACAD_REACTORS
330
9
102
}
330
9
100
AcDbDictionary
281
     1
  3
AcDsRecords
350
413
  3
AcDsSchemas
350
412
1001
ACAD
1070
     2
  0
DICTIONARY
  5
3B5
102
{ACAD_REACTORS
330
9
102
}
330
9
100
AcDbDictionary
281
     1
  3
AcmStdDictionary
350
3B6
  0
DICTIONARY
  5
3A5
102
{ACAD_REACTORS
330
9
102
}
330
9
100
AcDbDictionary
281
     1
  3
AcMgSettings
350
3AF
  0
DICTIONARY
  5
20
102
{ACAD_REACTORS
330
1F
102
}
330
1F
100
AcDbDictionary
281
     1
  0
DICTIONARY
  5
21
102
{ACAD_REACTORS
330
1F
102
}
330
1F
100
AcDbDictionary
281
     1
  0
DICTIONARY
  5
22
102
{ACAD_REACTORS
330
1F
102
}
330
1F
100
AcDbDictionary
281
     1
1001
ACAD
1000
<All
  0
XRECORD
  5
12
102
{ACAD_REACTORS
330
11
102
}
330
11
100
AcDbXrecord
280
     1
290
     1
  0
XRECORD
  5
107
102
{ACAD_REACTORS
330
106
102
}
330
106
100
AcDbXrecord
280
     1
290
     1
  0
XRECORD
  5
52
102
{ACAD_REACTORS
330
51
102
}
330
51
100
AcDbXrecord
280
     1
290
     1
  0
XRECORD
  5
81
102
{ACAD_REACTORS
330
80
102
}
330
80
100
AcDbXrecord
280
     1
290
     1
  0
XRECORD
  5
166
102
{ACAD_REACTORS
330
165
102
}
330
165
100
AcDbXrecord
280
     1
290
     1
  0
SORTENTSTABLE
  5
3A3
102
{ACAD_REACTORS
330
3
102
}
330
3
100
AcDbSortentsTable
330
2
331
B1
  5
396
331
AD
  5
39A
331
E8
  5
38F
331
1A6
  5
348
331
295
  5
276
331
21C
  5
2D5
331
30F
  5
1E1
331
1A2
  5
34C
331
1DD
  5
313
331
291
  5
27A
331
218
  5
2D9
331
257
  5
2B4
331
30B
  5
1E5
331
19E
  5
350
331
19A
  5
354
331
1D9
  5
317
331
346
  5
1A8
331
28D
  5
27E
331
214
  5
2DD
331
2CC
  5
225
331
307
  5
1E9
331
2C8
  5
229
331
303
  5
1ED
331
342
  5
1AC
331
289
  5
282
331
210
  5
2E1
331
375
  5
179
331
371
  5
17D
331
36D
  5
181
331
369
  5
185
331
196
  5
358
331
1D5
  5
31B
331
285
  5
286
331
20C
  5
2E5
331
2C4
  5
22D
331
192
  5
35C
331
2FF
  5
1F1
331
33E
  5
1B0
331
1D1
  5
31F
331
1CD
  5
323
331
281
  5
28A
331
208
  5
2E9
331
2C0
  5
231
331
247
  5
2B6
331
18E
  5
360
331
2FB
  5
1F5
331
33A
  5
1B4
331
18A
  5
364
331
1C9
  5
327
331
336
  5
1B8
331
27D
  5
28E
331
204
  5
2ED
331
2BC
  5
235
331
2F7
  5
1FA
331
2B8
  5
239
331
2F3
  5
1FE
331
332
  5
1BC
331
279
  5
292
331
200
  5
2F1
331
365
  5
189
331
361
  5
18D
331
3A0
  5
83
331
39C
  5
9F
331
35D
  5
191
331
359
  5
195
331
398
  5
AF
331
14A
  5
389
331
186
  5
368
331
1FC
  5
2F5
331
2B4
  5
257
331
182
  5
36C
331
1C1
  5
32D
331
2EF
  5
202
331
32E
  5
1C0
331
275
  5
296
331
1BD
  5
331
331
271
  5
29A
331
1F8
  5
2F9
331
2B0
  5
25B
331
237
  5
2BA
331
17E
  5
370
331
2EB
  5
206
331
32A
  5
1C4
331
17A
  5
374
331
1B9
  5
335
331
326
  5
1CA
331
26D
  5
29E
331
1F4
  5
2FC
331
2AC
  5
25F
331
233
  5
2BE
331
2E7
  5
20A
331
2E3
  5
20E
331
322
  5
1CE
331
269
  5
2A2
331
1F0
  5
300
331
2A8
  5
263
331
355
  5
199
331
394
  5
B3
331
351
  5
19D
331
390
  5
DB
331
38C
  5
116
331
34D
  5
1A1
331
349
  5
1A5
331
388
  5
155
331
85
  5
39E
331
22F
  5
2C2
331
176
  5
378
331
1B5
  5
339
331
2A4
  5
267
331
22B
  5
2C6
331
172
  5
37C
331
1B1
  5
33D
331
2DF
  5
212
331
31E
  5
1D2
331
265
  5
2A6
331
1EC
  5
304
331
1AD
  5
341
331
261
  5
2AA
331
1E8
  5
308
331
2A0
  5
26B
331
227
  5
2CA
331
16E
  5
380
331
2DB
  5
216
331
31A
  5
1D6
331
16A
  5
384
331
1A9
  5
345
331
316
  5
1DA
331
25D
  5
2AE
331
1E4
  5
30C
331
29C
  5
26F
331
223
  5
2CE
331
2D7
  5
21A
331
2D3
  5
21E
331
312
  5
1DE
331
259
  5
2B2
331
1E0
  5
310
331
298
  5
273
331
384
  5
16A
331
380
  5
16E
331
37C
  5
172
331
378
  5
176
331
B4
  5
393
331
B0
  5
397
331
AC
  5
39B
331
126
  5
38B
331
1A5
  5
349
331
21F
  5
2D2
331
294
  5
277
331
21B
  5
2D6
331
30E
  5
1E2
331
1A1
  5
34D
331
19D
  5
351
331
1DC
  5
314
331
290
  5
27B
331
217
  5
2DA
331
2CF
  5
222
331
256
  5
2B5
331
30A
  5
1E6
331
199
  5
355
331
1D8
  5
318
331
306
  5
1EA
331
345
  5
1A9
331
28C
  5
27F
331
213
  5
2DE
331
2CB
  5
226
331
302
  5
1EE
331
341
  5
1AD
331
288
  5
283
331
374
  5
17A
331
370
  5
17E
331
36C
  5
182
331
368
  5
186
331
DB
  5
390
331
116
  5
38C
331
155
  5
388
331
2C7
  5
22A
331
195
  5
359
331
1D4
  5
31C
331
20F
  5
2E2
331
1D0
  5
320
331
284
  5
287
331
20B
  5
2E6
331
2C3
  5
22E
331
191
  5
35D
331
2FE
  5
1F2
331
33D
  5
1B1
331
1CC
  5
324
331
339
  5
1B5
331
280
  5
28B
331
207
  5
2EA
331
2BF
  5
232
331
2FA
  5
1F6
331
18D
  5
361
331
189
  5
365
331
1C8
  5
328
331
335
  5
1B9
331
27C
  5
28F
331
203
  5
2EE
331
2BB
  5
236
331
2F6
  5
1FB
331
2F2
  5
1FF
331
331
  5
1BD
331
278
  5
293
331
364
  5
18A
331
360
  5
18E
331
39F
  5
84
331
39B
  5
AC
331
35C
  5
192
331
358
  5
196
331
102
  5
38D
331
2B7
  5
23A
331
185
  5
369
331
1C4
  5
32A
331
1FF
  5
2F2
331
274
  5
297
331
1FB
  5
2F6
331
2B3
  5
258
331
23A
  5
2B7
331
181
  5
36D
331
2EE
  5
203
331
32D
  5
1C1
331
1C0
  5
32E
331
1BC
  5
332
331
270
  5
29B
331
2AF
  5
25C
331
236
  5
2BB
331
17D
  5
371
331
2EA
  5
207
331
329
  5
1C7
331
179
  5
375
331
1B8
  5
336
331
325
  5
1CB
331
26C
  5
29F
331
1F3
  5
2FD
331
2AB
  5
260
331
232
  5
2BF
331
2E6
  5
20B
331
2E2
  5
20F
331
321
  5
1CF
331
268
  5
2A3
331
397
  5
B0
331
354
  5
19A
331
393
  5
B4
331
350
  5
19E
331
38F
  5
E8
331
38B
  5
126
331
34C
  5
1A2
331
348
  5
1A6
331
84
  5
39F
331
2A7
  5
264
331
22E
  5
2C3
331
175
  5
379
331
1B4
  5
33A
331
1EF
  5
301
331
1EB
  5
305
331
2A3
  5
268
331
22A
  5
2C7
331
171
  5
37D
331
1B0
  5
33E
331
2DE
  5
213
331
31D
  5
1D3
331
264
  5
2A7
331
1AC
  5
342
331
260
  5
2AB
331
1E7
  5
309
331
29F
  5
26C
331
226
  5
2CB
331
16D
  5
381
331
2DA
  5
217
331
319
  5
1D7
331
169
  5
385
331
1A8
  5
346
331
315
  5
1DB
331
25C
  5
2AF
331
1E3
  5
30D
331
29B
  5
270
331
222
  5
2CF
331
2D6
  5
21B
331
2D2
  5
21F
331
311
  5
1DF
331
258
  5
2B3
331
387
  5
163
331
383
  5
16B
331
37F
  5
16F
331
37B
  5
173
331
B3
  5
394
331
AF
  5
398
331
21E
  5
2D3
331
1A4
  5
34A
331
297
  5
274
331
1DF
  5
311
331
293
  5
278
331
21A
  5
2D7
331
30D
  5
1E3
331
1A0
  5
34E
331
19C
  5
352
331
1DB
  5
315
331
28F
  5
27C
331
216
  5
2DB
331
2CE
  5
223
331
309
  5
1E7
331
198
  5
356
331
305
  5
1EB
331
344
  5
1AA
331
28B
  5
280
331
212
  5
2DF
331
2CA
  5
227
331
301
  5
1EF
331
340
  5
1AE
331
377
  5
177
331
373
  5
17B
331
36F
  5
17F
331
36B
  5
183
331
9F
  5
39C
331
1D7
  5
319
331
2C6
  5
22B
331
194
  5
35A
331
1D3
  5
31D
331
287
  5
284
331
20E
  5
2E3
331
1CF
  5
321
331
283
  5
288
331
20A
  5
2E7
331
2C2
  5
22F
331
190
  5
35E
331
2FD
  5
1F3
331
33C
  5
1B2
331
18C
  5
362
331
1CB
  5
325
331
338
  5
1B6
331
27F
  5
28C
331
206
  5
2EB
331
2BE
  5
233
331
2F9
  5
1F8
331
188
  5
366
331
2F5
  5
1FC
331
334
  5
1BA
331
27B
  5
290
331
202
  5
2EF
331
2BA
  5
237
331
2F1
  5
200
331
330
  5
1BE
331
367
  5
187
331
363
  5
18B
331
3A2
  5
6A
331
39E
  5
85
331
35F
  5
18F
331
39A
  5
AD
331
35B
  5
193
331
CE
  5
391
331
1C7
  5
329
331
2B6
  5
247
331
184
  5
36A
331
1C3
  5
32B
331
277
  5
294
331
1FE
  5
2F3
331
1BF
  5
32F
331
273
  5
298
331
1FA
  5
2F7
331
2B2
  5
259
331
239
  5
2B8
331
180
  5
36E
331
2ED
  5
204
331
32C
  5
1C2
331
1BB
  5
333
331
328
  5
1C8
331
26F
  5
29C
331
1F6
  5
2FA
331
2AE
  5
25D
331
235
  5
2BC
331
2E9
  5
208
331
17C
  5
372
331
178
  5
376
331
324
  5
1CC
331
26B
  5
2A0
331
1F2
  5
2FE
331
2AA
  5
261
331
231
  5
2C0
331
2E5
  5
20C
331
2E1
  5
210
331
320
  5
1D0
331
357
  5
197
331
396
  5
B1
331
353
  5
19B
331
392
  5
C1
331
34F
  5
19F
331
38E
  5
F5
331
38A
  5
138
331
34B
  5
1A3
331
83
  5
3A0
331
138
  5
38A
331
F5
  5
38E
331
1B7
  5
337
331
2A6
  5
265
331
22D
  5
2C4
331
174
  5
37A
331
1B3
  5
33B
331
267
  5
2A4
331
1EE
  5
302
331
263
  5
2A8
331
1EA
  5
306
331
2A2
  5
269
331
229
  5
2C8
331
170
  5
37E
331
2DD
  5
214
331
31C
  5
1D4
331
1AF
  5
33F
331
1AB
  5
343
331
25F
  5
2AC
331
1E6
  5
30A
331
29E
  5
26D
331
225
  5
2CC
331
16C
  5
382
331
2D9
  5
218
331
318
  5
1D8
331
168
  5
386
331
314
  5
1DC
331
25B
  5
2B0
331
1E2
  5
30E
331
29A
  5
271
331
221
  5
2D0
331
2D5
  5
21C
331
2D1
  5
220
331
310
  5
1E0
331
386
  5
168
331
382
  5
16C
331
37E
  5
170
331
37A
  5
174
331
B2
  5
395
331
AE
  5
399
331
163
  5
387
331
1A7
  5
347
331
296
  5
275
331
21D
  5
2D4
331
1A3
  5
34B
331
1DE
  5
312
331
292
  5
279
331
219
  5
2D8
331
30C
  5
1E4
331
19F
  5
34F
331
19B
  5
353
331
1DA
  5
316
331
347
  5
1A7
331
28E
  5
27D
331
215
  5
2DC
331
2CD
  5
224
331
308
  5
1E8
331
2C9
  5
228
331
304
  5
1EC
331
343
  5
1AB
331
28A
  5
281
331
211
  5
2E0
331
300
  5
1F0
331
376
  5
178
331
372
  5
17C
331
36E
  5
180
331
36A
  5
184
331
6A
  5
3A2
331
197
  5
357
331
1D6
  5
31A
331
20D
  5
2E4
331
2C5
  5
22C
331
193
  5
35B
331
1D2
  5
31E
331
33F
  5
1AF
331
286
  5
285
331
1CE
  5
322
331
282
  5
289
331
209
  5
2E8
331
2C1
  5
230
331
18F
  5
35F
331
2FC
  5
1F4
331
33B
  5
1B3
331
18B
  5
363
331
1CA
  5
326
331
337
  5
1B7
331
27E
  5
28D
331
205
  5
2EC
331
2BD
  5
234
331
2F8
  5
1F9
331
2F4
  5
1FD
331
333
  5
1BB
331
27A
  5
291
331
201
  5
2F0
331
2B9
  5
238
331
2F0
  5
201
331
366
  5
188
331
362
  5
18C
331
3A1
  5
7E
331
39D
  5
92
331
35E
  5
190
331
35A
  5
194
331
399
  5
AE
331
92
  5
39D
331
187
  5
367
331
2B5
  5
256
331
183
  5
36B
331
1C2
  5
32C
331
32F
  5
1BF
331
276
  5
295
331
1FD
  5
2F4
331
1BE
  5
330
331
272
  5
299
331
1F9
  5
2F8
331
2B1
  5
25A
331
238
  5
2B9
331
17F
  5
36F
331
2EC
  5
205
331
32B
  5
1C3
331
17B
  5
373
331
1BA
  5
334
331
327
  5
1C9
331
26E
  5
29D
331
1F5
  5
2FB
331
2AD
  5
25E
331
234
  5
2BD
331
2E8
  5
209
331
2E4
  5
20D
331
323
  5
1CD
331
26A
  5
2A1
331
1F1
  5
2FF
331
2A9
  5
262
331
230
  5
2C1
331
2E0
  5
211
331
356
  5
198
331
395
  5
B2
331
352
  5
19C
331
391
  5
CE
331
38D
  5
102
331
34E
  5
1A0
331
389
  5
14A
331
34A
  5
1A4
331
C1
  5
392
331
7E
  5
3A1
331
177
  5
377
331
1B6
  5
338
331
2A5
  5
266
331
22C
  5
2C5
331
173
  5
37B
331
1B2
  5
33C
331
31F
  5
1D1
331
266
  5
2A5
331
1ED
  5
303
331
1AE
  5
340
331
262
  5
2A9
331
1E9
  5
307
331
2A1
  5
26A
331
228
  5
2C9
331
16F
  5
37F
331
2DC
  5
215
331
31B
  5
1D5
331
1AA
  5
344
331
317
  5
1D9
331
25E
  5
2AD
331
1E5
  5
30B
331
29D
  5
26E
331
224
  5
2CD
331
2D8
  5
219
331
16B
  5
383
331
313
  5
1DD
331
25A
  5
2B1
331
1E1
  5
30F
331
299
  5
272
331
220
  5
2D1
331
2D4
  5
21D
331
2D0
  5
221
331
385
  5
169
331
381
  5
16D
331
37D
  5
171
331
379
  5
175
  0
ACDBDETAILVIEWSTYLE
  5
3CC
102
{ACAD_XDICTIONARY
360
3CD
102
}
102
{ACAD_REACTORS
330
3C5
330
3CB
102
}
330
3C5
100
AcDbModelDocViewStyle
 70
     0
  3
Metric50
290
     0
100
AcDbDetailViewStyle
 70
     0
 71
     0
 90
        3
 71
     1
340
25
 40
5.0
340
0
 40
5.0
300

 40
0.0
280
     1
 71
     2
340
1E
 90
       25
 71
     3
340
25
 40
5.0
 90
        0
 40
15.0
 90
        1
300
%<\AcVar ViewDetailId>% (%<\AcVar ViewScale \f "%sn">%)
 71
     4
340
1E
 90
       25
340
1E
 90
       25
280
     0
  0
LAYOUT
  5
E
102
{ACAD_XDICTIONARY
360
415
102
}
102
{ACAD_REACTORS
330
8
102
}
330
8
100
AcDbPlotSettings
  1

  2
HP LaserJet 5000 Series PS
  4

  6

 40
0.0
 41
0.0
 42
0.0
 43
0.0
 44
0.0
 45
0.0
 46
0.0
 47
0.0
 48
0.0
 49
0.0
140
0.0
141
0.0
142
1.0
143
1.0
 70
   688
 72
     0
 73
     0
 74
     5
  7
Katalog 09.ctb
 75
    16
147
1.0
148
0.0
149
0.0
100
AcDbLayout
  1
Layout1
 70
     1
 71
     1
 10
0.0
 20
0.0
 11
12.0
 21
9.0
 12
0.0
 22
0.0
 32
0.0
 14
1.000000000000000E+20
 24
1.000000000000000E+20
 34
1.000000000000000E+20
 15
-1.000000000000000E+20
 25
-1.000000000000000E+20
 35
-1.000000000000000E+20
146
0.0
 13
0.0
 23
0.0
 33
0.0
 16
1.0
 26
0.0
 36
0.0
 17
0.0
 27
1.0
 37
0.0
 76
     0
330
B
  0
LAYOUT
  5
7
102
{ACAD_XDICTIONARY
360
A
102
}
102
{ACAD_REACTORS
330
8
102
}
330
8
100
AcDbPlotSettings
  1

  2
HP LaserJet 5000 Series PS
  4
A4
  6

 40
3.174999952316284
 41
3.174999952316284
 42
3.175003051757812
 43
3.17498779296875
 44
210.0
 45
297.0
 46
0.0
 47
0.0
 48
0.0
 49
0.0
140
0.0
141
0.0
142
1.0
143
1.0
 70
 11952
 72
     1
 73
     1
 74
     0
  7
Katalog 09.ctb
 75
     0
147
1.0
148
-557.4637585994694
149
54.71174086130691
100
AcDbLayout
  1
Model
 70
     1
 71
     0
 10
0.0
 20
0.0
 11
12.0
 21
9.0
 12
0.0
 22
0.0
 32
0.0
 14
0.0
 24
0.0
 34
0.0
 15
0.0
 25
0.0
 35
0.0
146
0.0
 13
0.0
 23
0.0
 33
0.0
 16
1.0
 26
0.0
 36
0.0
 17
0.0
 27
1.0
 37
0.0
 76
     0
330
2
331
2D
  0
MATERIAL
  5
44
102
{ACAD_XDICTIONARY
360
45
102
}
102
{ACAD_REACTORS
330
16
102
}
330
16
100
AcDbMaterial
  1
ByBlock
 72
     0
 43
0.0008202099737533
 43
0.0
 43
0.0
 43
0.0
 43
0.0
 43
0.0008202099737533
 43
0.0
 43
0.0
 43
0.0
 43
0.0
 43
1.0
 43
0.0
 43
0.0
 43
0.0
 43
0.0
 43
1.0
 77
     0
 47
0.0008202099737533
 47
0.0
 47
0.0
 47
0.0
 47
0.0
 47
0.0008202099737533
 47
0.0
 47
0.0
 47
0.0
 47
0.0
 47
1.0
 47
0.0
 47
0.0
 47
0.0
 47
0.0
 47
1.0
171
     0
 49
0.0008202099737533
 49
0.0
 49
0.0
 49
0.0
 49
0.0
 49
0.0008202099737533
 49
0.0
 49
0.0
 49
0.0
 49
0.0
 49
1.0
 49
0.0
 49
0.0
 49
0.0
 49
0.0
 49
1.0
175
     0
142
0.0008202099737533
142
0.0
142
0.0
142
0.0
142
0.0
142
0.0008202099737533
142
0.0
142
0.0
142
0.0
142
0.0
142
1.0
142
0.0
142
0.0
142
0.0
142
0.0
142
1.0
179
     0
144
0.0008202099737533
144
0.0
144
0.0
144
0.0
144
0.0
144
0.0008202099737533
144
0.0
144
0.0
144
0.0
144
0.0
144
1.0
144
0.0
144
0.0
144
0.0
144
0.0
144
1.0
147
0.0008202099737533
147
0.0
147
0.0
147
0.0
147
0.0
147
0.0008202099737533
147
0.0
147
0.0
147
0.0
147
0.0
147
1.0
147
0.0
147
0.0
147
0.0
147
0.0
147
1.0
  0
MATERIAL
  5
3C
102
{ACAD_XDICTIONARY
360
3D
102
}
102
{ACAD_REACTORS
330
16
102
}
330
16
100
AcDbMaterial
  1
ByLayer
 72
     0
 43
0.0008202099737533
 43
0.0
 43
0.0
 43
0.0
 43
0.0
 43
0.0008202099737533
 43
0.0
 43
0.0
 43
0.0
 43
0.0
 43
1.0
 43
0.0
 43
0.0
 43
0.0
 43
0.0
 43
1.0
 77
     0
 47
0.0008202099737533
 47
0.0
 47
0.0
 47
0.0
 47
0.0
 47
0.0008202099737533
 47
0.0
 47
0.0
 47
0.0
 47
0.0
 47
1.0
 47
0.0
 47
0.0
 47
0.0
 47
0.0
 47
1.0
171
     0
 49
0.0008202099737533
 49
0.0
 49
0.0
 49
0.0
 49
0.0
 49
0.0008202099737533
 49
0.0
 49
0.0
 49
0.0
 49
0.0
 49
1.0
 49
0.0
 49
0.0
 49
0.0
 49
0.0
 49
1.0
175
     0
142
0.0008202099737533
142
0.0
142
0.0
142
0.0
142
0.0
142
0.0008202099737533
142
0.0
142
0.0
142
0.0
142
0.0
142
1.0
142
0.0
142
0.0
142
0.0
142
0.0
142
1.0
179
     0
144
0.0008202099737533
144
0.0
144
0.0
144
0.0
144
0.0
144
0.0008202099737533
144
0.0
144
0.0
144
0.0
144
0.0
144
1.0
144
0.0
144
0.0
144
0.0
144
0.0
144
1.0
147
0.0008202099737533
147
0.0
147
0.0
147
0.0
147
0.0
147
0.0008202099737533
147
0.0
147
0.0
147
0.0
147
0.0
147
1.0
147
0.0
147
0.0
147
0.0
147
0.0
147
1.0
  0
MATERIAL
  5
15
102
{ACAD_XDICTIONARY
360
17
102
}
102
{ACAD_REACTORS
330
16
102
}
330
16
100
AcDbMaterial
  1
Global
 72
     0
 43
0.0008202099737533
 43
0.0
 43
0.0
 43
0.0
 43
0.0
 43
0.0008202099737533
 43
0.0
 43
0.0
 43
0.0
 43
0.0
 43
1.0
 43
0.0
 43
0.0
 43
0.0
 43
0.0
 43
1.0
 77
     0
 47
0.0008202099737533
 47
0.0
 47
0.0
 47
0.0
 47
0.0
 47
0.0008202099737533
 47
0.0
 47
0.0
 47
0.0
 47
0.0
 47
1.0
 47
0.0
 47
0.0
 47
0.0
 47
0.0
 47
1.0
171
     0
 49
0.0008202099737533
 49
0.0
 49
0.0
 49
0.0
 49
0.0
 49
0.0008202099737533
 49
0.0
 49
0.0
 49
0.0
 49
0.0
 49
1.0
 49
0.0
 49
0.0
 49
0.0
 49
0.0
 49
1.0
175
     0
142
0.0008202099737533
142
0.0
142
0.0
142
0.0
142
0.0
142
0.0008202099737533
142
0.0
142
0.0
142
0.0
142
0.0
142
1.0
142
0.0
142
0.0
142
0.0
142
0.0
142
1.0
179
     0
144
0.0008202099737533
144
0.0
144
0.0
144
0.0
144
0.0
144
0.0008202099737533
144
0.0
144
0.0
144
0.0
144
0.0
144
1.0
144
0.0
144
0.0
144
0.0
144
0.0
144
1.0
147
0.0008202099737533
147
0.0
147
0.0
147
0.0
147
0.0
147
0.0008202099737533
147
0.0
147
0.0
147
0.0
147
0.0
147
1.0
147
0.0
147
0.0
147
0.0
147
0.0
147
1.0
  0
MLINESTYLE
  5
54
102
{ACAD_REACTORS
330
3A
102
}
330
3A
100
AcDbMlineStyle
  2
STANDARD
 70
     0
  3

 62
     0
 51
90.0
 52
90.0
 71
     2
 49
0.5
 62
   256
  6
BYLAYER
 49
-0.5
 62
   256
  6
BYLAYER
  0
ACDBPLACEHOLDER
  5
13
102
{ACAD_REACTORS
330
14
102
}
330
14
  0
SCALE
  5
59
102
{ACAD_REACTORS
330
4D
102
}
330
4D
100
AcDbScale
 70
     0
300
1:1
140
1.0
141
1.0
290
     1
  0
SCALE
  5
5A
102
{ACAD_REACTORS
330
4D
102
}
330
4D
100
AcDbScale
 70
     0
300
1:2
140
1.0
141
2.0
290
     0
  0
SCALE
  5
5B
102
{ACAD_REACTORS
330
4D
102
}
330
4D
100
AcDbScale
 70
     0
300
1:4
140
1.0
141
4.0
290
     0
  0
SCALE
  5
5C
102
{ACAD_REACTORS
330
4D
102
}
330
4D
100
AcDbScale
 70
     0
300
1:5
140
1.0
141
5.0
290
     0
  0
SCALE
  5
5D
102
{ACAD_REACTORS
330
4D
102
}
330
4D
100
AcDbScale
 70
     0
300
1:8
140
1.0
141
8.0
290
     0
  0
SCALE
  5
5E
102
{ACAD_REACTORS
330
4D
102
}
330
4D
100
AcDbScale
 70
     0
300
1:10
140
1.0
141
10.0
290
     0
  0
SCALE
  5
5F
102
{ACAD_REACTORS
330
4D
102
}
330
4D
100
AcDbScale
 70
     0
300
1:16
140
1.0
141
16.0
290
     0
  0
SCALE
  5
60
102
{ACAD_REACTORS
330
4D
102
}
330
4D
100
AcDbScale
 70
     0
300
1:20
140
1.0
141
20.0
290
     0
  0
SCALE
  5
61
102
{ACAD_REACTORS
330
4D
102
}
330
4D
100
AcDbScale
 70
     0
300
1:30
140
1.0
141
30.0
290
     0
  0
SCALE
  5
62
102
{ACAD_REACTORS
330
4D
102
}
330
4D
100
AcDbScale
 70
     0
300
1:40
140
1.0
141
40.0
290
     0
  0
SCALE
  5
63
102
{ACAD_REACTORS
330
4D
102
}
330
4D
100
AcDbScale
 70
     0
300
1:50
140
1.0
141
50.0
290
     0
  0
SCALE
  5
64
102
{ACAD_REACTORS
330
4D
102
}
330
4D
100
AcDbScale
 70
     0
300
1:100
140
1.0
141
100.0
290
     0
  0
SCALE
  5
65
102
{ACAD_REACTORS
330
4D
102
}
330
4D
100
AcDbScale
 70
     0
300
2:1
140
2.0
141
1.0
290
     0
  0
SCALE
  5
66
102
{ACAD_REACTORS
330
4D
102
}
330
4D
100
AcDbScale
 70
     0
300
4:1
140
4.0
141
1.0
290
     0
  0
SCALE
  5
67
102
{ACAD_REACTORS
330
4D
102
}
330
4D
100
AcDbScale
 70
     0
300
8:1
140
8.0
141
1.0
290
     0
  0
SCALE
  5
68
102
{ACAD_REACTORS
330
4D
102
}
330
4D
100
AcDbScale
 70
     0
300
10:1
140
10.0
141
1.0
290
     0
  0
SCALE
  5
69
102
{ACAD_REACTORS
330
4D
102
}
330
4D
100
AcDbScale
 70
     0
300
100:1
140
100.0
141
1.0
290
     0
  0
ACDBSECTIONVIEWSTYLE
  5
3DB
102
{ACAD_XDICTIONARY
360
3DC
102
}
102
{ACAD_REACTORS
330
3D0
330
3DA
102
}
330
3D0
100
AcDbModelDocViewStyle
 70
     0
  3
Metric50
290
     0
100
AcDbSectionViewStyle
 70
     0
 71
     0
 90
      102
 71
     1
340
25
 40
5.0
340
0
340
0
 40
5.0
300
I, O, Q, S, X, Z
 40
10.0
 90
        0
 40
2.5
 90
        0
 71
     2
340
1E
 90
       25
340
1E
 90
       50
 40
5.0
 40
2.5
 40
5.0
 71
     3
340
25
 40
5.0
 90
        0
 40
15.0
 90
        1
300
%<\AcVar ViewSectionStartId>%-%<\AcVar ViewSectionEndId>% (%<\AcVar ViewScale \f "%sn">%)
 71
     4
300
ANSI31
 40
1.0
 90
        0
290
     0
290
     0
 90
        6
 40
0.0
 40
1.570796326794896
 40
0.2617993877991494
 40
1.308996938995747
 40
-0.2617993877991494
 40
1.832595714594046
  0
TABLESTYLE
  5
55
102
{ACAD_XDICTIONARY
360
56
102
}
102
{ACAD_REACTORS
330
4E
102
}
330
4E
100
AcDbTableStyle
  3
Standard
 70
     0
 71
     0
 40
1.5
 41
1.5
280
     0
281
     0
  7
STANDARD
140
4.5
170
     2
 62
     0
 63
     7
283
     0
274
    -2
284
     1
 64
     0
275
    -2
285
     1
 65
     0
276
    -2
286
     1
 66
     0
277
    -2
287
     1
 67
     0
278
    -2
288
     1
 68
     0
279
    -2
289
     1
 69
     0
  7
STANDARD
140
6.0
170
     5
 62
     0
 63
     7
283
     0
274
    -2
284
     1
 64
     0
275
    -2
285
     1
 65
     0
276
    -2
286
     1
 66
     0
277
    -2
287
     1
 67
     0
278
    -2
288
     1
 68
     0
279
    -2
289
     1
 69
     0
  7
STANDARD
140
4.5
170
     5
 62
     0
 63
     7
283
     0
274
    -2
284
     1
 64
     0
275
    -2
285
     1
 65
     0
276
    -2
286
     1
 66
     0
277
    -2
287
     1
 67
     0
278
    -2
288
     1
 68
     0
279
    -2
289
     1
 69
     0
  0
VISUALSTYLE
  5
2E
102
{ACAD_XDICTIONARY
360
418
102
}
102
{ACAD_REACTORS
330
2F
102
}
330
2F
100
AcDbVisualStyle
  2
2dWireframe
 70
     4
 71
     0
 72
     2
 73
     0
 90
        0
 40
-0.6
 41
-30.0
 62
     5
 63
     7
 74
     1
 91
        4
 64
     7
 65
   257
 75
     1
175
     1
 42
1.0
 92
        0
 66
   257
 43
1.0
 76
     1
 77
     6
 78
     2
 67
     7
 79
     5
170
     0
171
     0
290
     0
174
     0
 93
        1
 44
0.0
173
     0
291
     0
 45
0.0
1001
ACAD
1000
AcDbSavedByObjectVersion
1070
     0
  0
VISUALSTYLE
  5
57
102
{ACAD_XDICTIONARY
360
41D
102
}
102
{ACAD_REACTORS
330
2F
102
}
330
2F
100
AcDbVisualStyle
  2
Realistic
 70
     8
 71
     2
 72
     2
 73
     0
 90
        0
 40
-0.6
 41
-30.0
 62
     5
 63
     7
 74
     1
 91
        0
 64
     7
 65
   257
 75
     1
175
     1
 42
1.0
 92
        8
 66
     8
 43
1.0
 76
     1
 77
     6
 78
     2
 67
     7
 79
     5
170
     0
171
     0
290
     0
174
     0
 93
       13
 44
0.0
173
     0
291
     0
 45
0.0
1001
ACAD
1000
AcDbSavedByObjectVersion
1070
     0
  0
VISUALSTYLE
  5
58
102
{ACAD_XDICTIONARY
360
41F
102
}
102
{ACAD_REACTORS
330
2F
102
}
330
2F
100
AcDbVisualStyle
  2
Wireframe
 70
     5
 71
     0
 72
     2
 73
     0
 90
        0
 40
-0.6
 41
-30.0
 62
     5
 63
     7
 74
     1
 91
        4
 64
     7
 65
   257
 75
     1
175
     1
 42
1.0
 92
        0
 66
   257
 43
1.0
 76
     1
 77
     6
 78
     2
 67
     7
 79
     3
170
     0
171
     0
290
     0
174
     0
 93
        1
 44
0.0
173
     0
291
     0
 45
0.0
1001
ACAD
1000
AcDbSavedByObjectVersion
1070
     0
  0
DICTIONARYVAR
  5
402
102
{ACAD_REACTORS
330
3FD
102
}
330
3FD
100
DictionaryVariables
280
     0
  1
1:1
  0
DICTIONARYVAR
  5
3FF
102
{ACAD_REACTORS
330
3FD
102
}
330
3FD
100
DictionaryVariables
280
     0
  1
STANDARD
  0
DICTIONARYVAR
  5
3FE
102
{ACAD_REACTORS
330
3FD
102
}
330
3FD
100
DictionaryVariables
280
     0
  1
STANDARD
  0
DICTIONARYVAR
  5
400
102
{ACAD_REACTORS
330
3FD
102
}
330
3FD
100
DictionaryVariables
280
     0
  1

  0
DICTIONARYVAR
  5
401
102
{ACAD_REACTORS
330
3FD
102
}
330
3FD
100
DictionaryVariables
280
     0
  1

  0
DICTIONARYVAR
  5
407
102
{ACAD_REACTORS
330
3FD
102
}
330
3FD
100
DictionaryVariables
280
     0
  1
1
  0
DICTIONARYVAR
  5
405
102
{ACAD_REACTORS
330
3FD
102
}
330
3FD
100
DictionaryVariables
280
     0
  1
1
  0
DICTIONARYVAR
  5
404
102
{ACAD_REACTORS
330
3FD
102
}
330
3FD
100
DictionaryVariables
280
     0
  1
0
  0
DICTIONARYVAR
  5
408
102
{ACAD_REACTORS
330
3FD
102
}
330
3FD
100
DictionaryVariables
280
     0
  1
1
  0
DICTIONARYVAR
  5
403
102
{ACAD_REACTORS
330
3FD
102
}
330
3FD
100
DictionaryVariables
280
     0
  1
127
  0
DICTIONARYVAR
  5
406
102
{ACAD_REACTORS
330
3FD
102
}
330
3FD
100
DictionaryVariables
280
     0
  1
0
  0
DICTIONARY
  5
413
102
{ACAD_REACTORS
330
411
102
}
330
411
100
AcDbDictionary
281
     1
  0
DICTIONARY
  5
412
102
{ACAD_REACTORS
330
411
102
}
330
411
100
AcDbDictionary
281
     1
  3
8796079070400
350
40C
  3
8796079070416
350
40D
  3
8796079070432
350
40E
  3
8796079070448
350
40F
  3
8796079070464
350
410
  0
DICTIONARY
  5
3B6
102
{ACAD_REACTORS
330
3B5
102
}
330
3B5
100
AcDbDictionary
281
     1
  0
DICTIONARY
  5
3AF
102
{ACAD_REACTORS
330
3A5
102
}
330
3A5
100
AcDbDictionary
281
     1
  3
DWGSETTINGS
350
3AE
  3
TRANSSETTINGS
350
3B0
  0
DICTIONARY
  5
3CD
330
3CC
100
AcDbDictionary
280
     1
281
     1
  3
ACAD_XREC_ROUNDTRIP
360
421
  0
DICTIONARY
  5
415
330
E
100
AcDbDictionary
280
     1
281
     1
  3
ACAD_XREC_ROUNDTRIP
360
416
  0
DICTIONARY
  5
A
330
7
100
AcDbDictionary
280
     1
281
     1
  3
ACAD_XREC_ROUNDTRIP
360
414
  0
DICTIONARY
  5
45
330
44
100
AcDbDictionary
280
     1
281
     1
  3
ACAD_XREC_ROUNDTRIP
360
41B
  3
BUMPTILE
360
46
  3
DIFFUSETILE
360
47
  3
OPACITYTILE
360
48
  3
REFLECTIONTILE
360
49
  3
REFRACTIONTILE
360
4A
  3
SPECULARTILE
360
4B
  0
DICTIONARY
  5
3D
330
3C
100
AcDbDictionary
280
     1
281
     1
  3
ACAD_XREC_ROUNDTRIP
360
41A
  3
BUMPTILE
360
3E
  3
DIFFUSETILE
360
3F
  3
OPACITYTILE
360
40
  3
REFLECTIONTILE
360
41
  3
REFRACTIONTILE
360
42
  3
SPECULARTILE
360
43
  0
DICTIONARY
  5
17
330
15
100
AcDbDictionary
280
     1
281
     1
  3
ACAD_XREC_ROUNDTRIP
360
417
  3
BUMPTILE
360
18
  3
DIFFUSETILE
360
19
  3
OPACITYTILE
360
1A
  3
REFLECTIONTILE
360
1B
  3
REFRACTIONTILE
360
1C
  3
SPECULARTILE
360
1D
  0
DICTIONARY
  5
3DC
330
3DB
100
AcDbDictionary
280
     1
281
     1
  3
ACAD_XREC_ROUNDTRIP
360
422
  0
DICTIONARY
  5
56
330
55
100
AcDbDictionary
280
     1
281
     1
  3
ACAD_ROUNDTRIP_2008_TABLESTYLE_CELLSTYLEMAP
360
409
  3
ACAD_XREC_ROUNDTRIP
360
41C
  0
DICTIONARY
  5
418
330
2E
100
AcDbDictionary
280
     1
281
     1
  3
ACAD_XREC_ROUNDTRIP
360
419
  0
DICTIONARY
  5
41D
330
57
100
AcDbDictionary
280
     1
281
     1
  3
ACAD_XREC_ROUNDTRIP
360
41E
  0
DICTIONARY
  5
41F
330
58
100
AcDbDictionary
280
     1
281
     1
  3
ACAD_XREC_ROUNDTRIP
360
420
  0
XRECORD
  5
40C
102
{ACAD_REACTORS
330
412
102
}
330
412
100
AcDbXrecord
280
     1
  1
AcDb_Thumbnail_Schema
102
{ATTRRECORD
341
40D
  2
AcDbDs::TreatedAsObjectData
280
     1
291
     1
102
ATTRRECORD}
102
{ATTRRECORD
341
40E
  2
AcDbDs::Legacy
280
     1
291
     1
102
ATTRRECORD}
  2
AcDbDs::ID
280
    10
 91
        8
102
{ATTRRECORD
341
40F
  2
AcDs:Indexable
280
     1
291
     1
102
ATTRRECORD}
102
{ATTRRECORD
341
410
  2
AcDbDs::HandleAttribute
280
     7
282
     1
102
ATTRRECORD}
  2
Thumbnail_Data
280
    15
 91
        0
  0
XRECORD
  5
40D
102
{ACAD_REACTORS
330
412
102
}
330
412
100
AcDbXrecord
280
     1
  1
AcDbDs::TreatedAsObjectDataSchema
  2
AcDbDs::TreatedAsObjectData
280
     1
 91
        0
  0
XRECORD
  5
40E
102
{ACAD_REACTORS
330
412
102
}
330
412
100
AcDbXrecord
280
     1
  1
AcDbDs::LegacySchema
  2
AcDbDs::Legacy
280
     1
 91
        0
  0
XRECORD
  5
40F
102
{ACAD_REACTORS
330
412
102
}
330
412
100
AcDbXrecord
280
     1
  1
AcDbDs::IndexedPropertySchema
  2
AcDs:Indexable
280
     1
 91
        0
  0
XRECORD
  5
410
102
{ACAD_REACTORS
330
412
102
}
330
412
100
AcDbXrecord
280
     1
  1
AcDbDs::HandleAttributeSchema
  2
AcDbDs::HandleAttribute
280
     7
 91
        1
284
     1
  0
XRECORD
  5
421
102
{ACAD_REACTORS
330
3CD
102
}
330
3CD
100
AcDbXrecord
280
     1
102
DISPLAYNAME
  1
Metric50
102
FLAGS
 90
        0
  0
XRECORD
  5
416
102
{ACAD_REACTORS
330
415
102
}
330
415
100
AcDbXrecord
280
     1
102
SHADEPLOT
 70
     0
102
SHADEPLOTRESLEVEL
 70
     2
102
SHADEPLOTCUSTOMDPI
 70
   300
  0
XRECORD
  5
414
102
{ACAD_REACTORS
330
A
102
}
330
A
100
AcDbXrecord
280
     1
102
SHADEPLOT
 70
     0
102
SHADEPLOTRESLEVEL
 70
     2
102
SHADEPLOTCUSTOMDPI
 70
   300
  0
XRECORD
  5
41B
102
{ACAD_REACTORS
330
45
102
}
330
45
100
AcDbXrecord
280
     1
102
MATERIAL
148
0.0
149
0.0
149
0.0
 93
        0
 94
      127
282
     0
 72
     0
 77
     0
171
     0
175
     0
179
     0
273
     0
  0
XRECORD
  5
46
102
{ACAD_REACTORS
330
45
102
}
330
45
100
AcDbXrecord
280
     1
270
     1
271
     1
  0
XRECORD
  5
47
102
{ACAD_REACTORS
330
45
102
}
330
45
100
AcDbXrecord
280
     1
270
     1
271
     1
  0
XRECORD
  5
48
102
{ACAD_REACTORS
330
45
102
}
330
45
100
AcDbXrecord
280
     1
270
     1
271
     1
  0
XRECORD
  5
49
102
{ACAD_REACTORS
330
45
102
}
330
45
100
AcDbXrecord
280
     1
270
     1
271
     1
  0
XRECORD
  5
4A
102
{ACAD_REACTORS
330
45
102
}
330
45
100
AcDbXrecord
280
     1
270
     1
271
     1
  0
XRECORD
  5
4B
102
{ACAD_REACTORS
330
45
102
}
330
45
100
AcDbXrecord
280
     1
270
     1
271
     1
  0
XRECORD
  5
41A
102
{ACAD_REACTORS
330
3D
102
}
330
3D
100
AcDbXrecord
280
     1
102
MATERIAL
148
0.0
149
0.0
149
0.0
 93
        0
 94
      127
282
     0
 72
     0
 77
     0
171
     0
175
     0
179
     0
273
     0
  0
XRECORD
  5
3E
102
{ACAD_REACTORS
330
3D
102
}
330
3D
100
AcDbXrecord
280
     1
270
     1
271
     1
  0
XRECORD
  5
3F
102
{ACAD_REACTORS
330
3D
102
}
330
3D
100
AcDbXrecord
280
     1
270
     1
271
     1
  0
XRECORD
  5
40
102
{ACAD_REACTORS
330
3D
102
}
330
3D
100
AcDbXrecord
280
     1
270
     1
271
     1
  0
XRECORD
  5
41
102
{ACAD_REACTORS
330
3D
102
}
330
3D
100
AcDbXrecord
280
     1
270
     1
271
     1
  0
XRECORD
  5
42
102
{ACAD_REACTORS
330
3D
102
}
330
3D
100
AcDbXrecord
280
     1
270
     1
271
     1
  0
XRECORD
  5
43
102
{ACAD_REACTORS
330
3D
102
}
330
3D
100
AcDbXrecord
280
     1
270
     1
271
     1
  0
XRECORD
  5
417
102
{ACAD_REACTORS
330
17
102
}
330
17
100
AcDbXrecord
280
     1
102
MATERIAL
148
0.0
149
0.0
149
0.0
 93
        0
 94
      127
282
     0
 72
     0
 77
     0
171
     0
175
     0
179
     0
273
     0
  0
XRECORD
  5
18
102
{ACAD_REACTORS
330
17
102
}
330
17
100
AcDbXrecord
280
     1
270
     1
271
     1
  0
XRECORD
  5
19
102
{ACAD_REACTORS
330
17
102
}
330
17
100
AcDbXrecord
280
     1
270
     1
271
     1
  0
XRECORD
  5
1A
102
{ACAD_REACTORS
330
17
102
}
330
17
100
AcDbXrecord
280
     1
270
     1
271
     1
  0
XRECORD
  5
1B
102
{ACAD_REACTORS
330
17
102
}
330
17
100
AcDbXrecord
280
     1
270
     1
271
     1
  0
XRECORD
  5
1C
102
{ACAD_REACTORS
330
17
102
}
330
17
100
AcDbXrecord
280
     1
270
     1
271
     1
  0
XRECORD
  5
1D
102
{ACAD_REACTORS
330
17
102
}
330
17
100
AcDbXrecord
280
     1
270
     1
271
     1
  0
XRECORD
  5
422
102
{ACAD_REACTORS
330
3DC
102
}
330
3DC
100
AcDbXrecord
280
     1
102
DISPLAYNAME
  1
Metric50
102
FLAGS
 90
        0
  0
CELLSTYLEMAP
  5
409
102
{ACAD_REACTORS
330
56
102
}
330
56
100
AcDbCellStyleMap
 90
        3
300
CELLSTYLE
  1
TABLEFORMAT_BEGIN
 90
        5
170
     1
 91
        0
 92
    32768
 62
   257
 93
        1
300
CONTENTFORMAT
  1
CONTENTFORMAT_BEGIN
 90
        0
 91
        0
 92
      512
 93
        0
300

 40
0.0
140
1.0
 94
        5
 62
     0
340
25
144
6.0
309
CONTENTFORMAT_END
171
     1
301
MARGIN
  1
CELLMARGIN_BEGIN
 40
1.5
 40
1.5
 40
1.5
 40
1.5
 40
4.5
 40
4.5
309
CELLMARGIN_END
 94
        6
 95
        1
302
GRIDFORMAT
  1
GRIDFORMAT_BEGIN
 90
        0
 91
        1
 62
     0
 92
       -2
340
0
 93
        0
 40
1.125
309
GRIDFORMAT_END
 95
        2
302
GRIDFORMAT
  1
GRIDFORMAT_BEGIN
 90
        0
 91
        1
 62
     0
 92
       -2
340
0
 93
        0
 40
1.125
309
GRIDFORMAT_END
 95
        4
302
GRIDFORMAT
  1
GRIDFORMAT_BEGIN
 90
        0
 91
        1
 62
     0
 92
       -2
340
0
 93
        0
 40
1.125
309
GRIDFORMAT_END
 95
        8
302
GRIDFORMAT
  1
GRIDFORMAT_BEGIN
 90
        0
 91
        1
 62
     0
 92
       -2
340
0
 93
        0
 40
1.125
309
GRIDFORMAT_END
 95
       16
302
GRIDFORMAT
  1
GRIDFORMAT_BEGIN
 90
        0
 91
        1
 62
     0
 92
       -2
340
0
 93
        0
 40
1.125
309
GRIDFORMAT_END
 95
       32
302
GRIDFORMAT
  1
GRIDFORMAT_BEGIN
 90
        0
 91
        1
 62
     0
 92
       -2
340
0
 93
        0
 40
1.125
309
GRIDFORMAT_END
309
TABLEFORMAT_END
  1
CELLSTYLE_BEGIN
 90
        1
 91
        1
300
_TITLE
309
CELLSTYLE_END
300
CELLSTYLE
  1
TABLEFORMAT_BEGIN
 90
        5
170
     1
 91
        0
 92
        0
 62
   257
 93
        1
300
CONTENTFORMAT
  1
CONTENTFORMAT_BEGIN
 90
        0
 91
        0
 92
      512
 93
        0
300

 40
0.0
140
1.0
 94
        5
 62
     0
340
25
144
4.5
309
CONTENTFORMAT_END
171
     1
301
MARGIN
  1
CELLMARGIN_BEGIN
 40
1.5
 40
1.5
 40
1.5
 40
1.5
 40
4.5
 40
4.5
309
CELLMARGIN_END
 94
        6
 95
        1
302
GRIDFORMAT
  1
GRIDFORMAT_BEGIN
 90
        0
 91
        1
 62
     0
 92
       -2
340
0
 93
        0
 40
1.125
309
GRIDFORMAT_END
 95
        2
302
GRIDFORMAT
  1
GRIDFORMAT_BEGIN
 90
        0
 91
        1
 62
     0
 92
       -2
340
0
 93
        0
 40
1.125
309
GRIDFORMAT_END
 95
        4
302
GRIDFORMAT
  1
GRIDFORMAT_BEGIN
 90
        0
 91
        1
 62
     0
 92
       -2
340
0
 93
        0
 40
1.125
309
GRIDFORMAT_END
 95
        8
302
GRIDFORMAT
  1
GRIDFORMAT_BEGIN
 90
        0
 91
        1
 62
     0
 92
       -2
340
0
 93
        0
 40
1.125
309
GRIDFORMAT_END
 95
       16
302
GRIDFORMAT
  1
GRIDFORMAT_BEGIN
 90
        0
 91
        1
 62
     0
 92
       -2
340
0
 93
        0
 40
1.125
309
GRIDFORMAT_END
 95
       32
302
GRIDFORMAT
  1
GRIDFORMAT_BEGIN
 90
        0
 91
        1
 62
     0
 92
       -2
340
0
 93
        0
 40
1.125
309
GRIDFORMAT_END
309
TABLEFORMAT_END
  1
CELLSTYLE_BEGIN
 90
        2
 91
        1
300
_HEADER
309
CELLSTYLE_END
300
CELLSTYLE
  1
TABLEFORMAT_BEGIN
 90
        5
170
     1
 91
        0
 92
        0
 62
   257
 93
        1
300
CONTENTFORMAT
  1
CONTENTFORMAT_BEGIN
 90
        0
 91
        0
 92
      512
 93
        0
300

 40
0.0
140
1.0
 94
        2
 62
     0
340
25
144
4.5
309
CONTENTFORMAT_END
171
     1
301
MARGIN
  1
CELLMARGIN_BEGIN
 40
1.5
 40
1.5
 40
1.5
 40
1.5
 40
4.5
 40
4.5
309
CELLMARGIN_END
 94
        6
 95
        1
302
GRIDFORMAT
  1
GRIDFORMAT_BEGIN
 90
        0
 91
        1
 62
     0
 92
       -2
340
0
 93
        0
 40
1.125
309
GRIDFORMAT_END
 95
        2
302
GRIDFORMAT
  1
GRIDFORMAT_BEGIN
 90
        0
 91
        1
 62
     0
 92
       -2
340
0
 93
        0
 40
1.125
309
GRIDFORMAT_END
 95
        4
302
GRIDFORMAT
  1
GRIDFORMAT_BEGIN
 90
        0
 91
        1
 62
     0
 92
       -2
340
0
 93
        0
 40
1.125
309
GRIDFORMAT_END
 95
        8
302
GRIDFORMAT
  1
GRIDFORMAT_BEGIN
 90
        0
 91
        1
 62
     0
 92
       -2
340
0
 93
        0
 40
1.125
309
GRIDFORMAT_END
 95
       16
302
GRIDFORMAT
  1
GRIDFORMAT_BEGIN
 90
        0
 91
        1
 62
     0
 92
       -2
340
0
 93
        0
 40
1.125
309
GRIDFORMAT_END
 95
       32
302
GRIDFORMAT
  1
GRIDFORMAT_BEGIN
 90
        0
 91
        1
 62
     0
 92
       -2
340
0
 93
        0
 40
1.125
309
GRIDFORMAT_END
309
TABLEFORMAT_END
  1
CELLSTYLE_BEGIN
 90
        3
 91
        2
300
_DATA
309
CELLSTYLE_END
  0
XRECORD
  5
41C
102
{ACAD_REACTORS
330
56
102
}
330
56
100
AcDbXrecord
280
     1
102
ACAD_ROUNDTRIP_PRE2007_TABLESTYLE
 90
      512
 91
        0
  1

 92
      512
 93
        0
  2

 94
      512
 95
        0
  3

  0
XRECORD
  5
419
102
{ACAD_REACTORS
330
418
102
}
330
418
100
AcDbXrecord
280
     1
102
RTVSPost2010Prop28
280
     1
102
RTVSPost2010PropOp28
 70
     1
102
RTVSPost2010Prop29
280
     1
102
RTVSPost2010PropOp29
 70
     1
102
RTVSPost2010Prop30
280
     0
102
RTVSPost2010PropOp30
 70
     1
102
RTVSPost2010Prop31
280
     0
102
RTVSPost2010PropOp31
 70
     1
102
RTVSPost2010Prop32
280
     0
102
RTVSPost2010PropOp32
 70
     1
102
RTVSPost2010Prop33
280
     0
102
RTVSPost2010PropOp33
 70
     1
102
RTVSPost2010Prop34
280
     0
102
RTVSPost2010PropOp34
 70
     1
102
RTVSPost2010Prop35
280
     0
102
RTVSPost2010PropOp35
 70
     1
102
RTVSPost2010Prop36
280
     0
102
RTVSPost2010PropOp36
 70
     1
102
RTVSPost2010Prop37
 90
       50
102
RTVSPost2010PropOp37
 70
     1
102
RTVSPost2010Prop38
140
0.0
102
RTVSPost2010PropOp38
 70
     1
102
RTVSPost2010Prop39
140
1.0
102
RTVSPost2010PropOp39
 70
     1
102
RTVSPost2010Prop40
 90
        0
102
RTVSPost2010PropOp40
 70
     1
102
RTVSPost2010Prop41ColorIndex
 90
       18
102
RTVSPost2010Prop41ColorRGB
 90
        0
102
RTVSPost2010PropOp41
 70
     1
102
RTVSPost2010Prop42
 90
       50
102
RTVSPost2010PropOp42
 70
     1
102
RTVSPost2010Prop43
 90
        3
102
RTVSPost2010PropOp43
 70
     1
102
RTVSPost2010Prop44ColorIndex
 90
        5
102
RTVSPost2010Prop44ColorRGB
 90
      255
102
RTVSPost2010PropOp44
 70
     1
102
RTVSPost2010Prop45
280
     0
102
RTVSPost2010PropOp45
 70
     1
102
RTVSPost2010Prop46
 90
       50
102
RTVSPost2010PropOp46
 70
     1
102
RTVSPost2010Prop47
 90
       50
102
RTVSPost2010PropOp47
 70
     1
102
RTVSPost2010Prop48
 90
       50
102
RTVSPost2010PropOp48
 70
     1
102
RTVSPost2010Prop49
280
     0
102
RTVSPost2010PropOp49
 70
     1
102
RTVSPost2010Prop50
 90
       50
102
RTVSPost2010PropOp50
 70
     1
102
RTVSPost2010Prop51ColorIndex
 90
      256
102
RTVSPost2010Prop51ColorRGB
 90
-16777216
102
RTVSPost2010PropOp51
 70
     0
102
RTVSPost2010Prop52
140
1.0
102
RTVSPost2010PropOp52
 70
     0
102
RTVSPost2010Prop53
 90
        2
102
RTVSPost2010PropOp53
 70
     1
102
RTVSPost2010Prop54
  1
strokes_ogs.tif
102
RTVSPost2010PropOp54
 70
     1
102
RTVSPost2010Prop55
280
     0
102
RTVSPost2010PropOp55
 70
     1
102
RTVSPost2010Prop56
140
1.0
102
RTVSPost2010PropOp56
 70
     1
102
RTVSPost2010Prop57
140
1.0
102
RTVSPost2010PropOp57
 70
     1
102
RTVSPropertyOp0
 70
     1
102
RTVSPropertyOp1
 70
     1
102
RTVSPropertyOp2
 70
     1
102
RTVSPropertyOp3
 70
     1
102
RTVSPropertyOp4
 70
     1
102
RTVSPropertyOp5
 70
     1
102
RTVSPropertyOp6
 70
     1
102
RTVSPropertyOp7
 70
     1
102
RTVSPropertyOp8
 70
     1
102
RTVSPropertyOp9
 70
     1
102
RTVSPropertyOp10
 70
     1
102
RTVSPropertyOp11
 70
     1
102
RTVSPropertyOp12
 70
     1
102
RTVSPropertyOp13
 70
     1
102
RTVSPropertyOp14
 70
     1
102
RTVSPropertyOp15
 70
     1
102
RTVSPropertyOp16
 70
     1
102
RTVSPropertyOp17
 70
     1
102
RTVSPropertyOp18
 70
     1
102
RTVSPropertyOp19
 70
     1
102
RTVSPropertyOp20
 70
     1
102
RTVSPropertyOp21
 70
     1
102
RTVSPropertyOp22
 70
     1
102
RTVSPropertyOp23
 70
     1
102
RTVSPropertyOp24
 70
     1
102
RTVSPropertyOp25
 70
     1
102
RTVSPropertyOp26
 70
     1
102
RTVSPropertyOp27
 70
     1
102
RTVSPropertyOp28
 70
     1
102
RTVSPropertyOp29
 70
     1
102
RTVSPropertyOp30
 70
     1
102
RTVSPropertyOp31
 70
     1
102
RTVSPropertyOp32
 70
     1
102
RTVSPropertyOp33
 70
     1
102
RTVSPropertyOp34
 70
     1
102
RTVSPropertyOp35
 70
     1
102
RTVSPropertyOp36
 70
     1
102
RTVSPropertyOp37
 70
     1
102
RTVSPropertyOp38
 70
     1
102
RTVSPropertyOp39
 70
     1
102
RTVSPropertyOp40
 70
     1
102
RTVSPropertyOp41
 70
     1
102
RTVSPropertyOp42
 70
     1
102
RTVSPropertyOp43
 70
     1
102
RTVSPropertyOp44
 70
     1
102
RTVSPropertyOp45
 70
     1
102
RTVSPropertyOp46
 70
     1
102
RTVSPropertyOp47
 70
     1
102
RTVSPropertyOp48
 70
     1
102
RTVSPropertyOp49
 70
     1
102
RTVSPropertyOp50
 70
     1
102
RTVSPropertyOp51
 70
     0
102
RTVSPropertyOp52
 70
     0
102
RTVSPropertyOp53
 70
     1
102
RTVSPropertyOp54
 70
     1
102
RTVSPropertyOp55
 70
     1
102
RTVSPropertyOp56
 70
     1
102
RTVSPropertyOp57
 70
     1
102
RTVSPropertyOp58
 70
     1
102
RTVSPropertyOp59
 70
     1
102
RTVSPropertyOp60
 70
     1
102
RTVSPropertyOp61
 70
     1
102
RTVSPropertyOp62
 70
     1
  0
XRECORD
  5
41E
102
{ACAD_REACTORS
330
41D
102
}
330
41D
100
AcDbXrecord
280
     1
102
RTVSPost2010Prop28
280
     0
102
RTVSPost2010PropOp28
 70
     1
102
RTVSPost2010Prop29
280
     1
102
RTVSPost2010PropOp29
 70
     1
102
RTVSPost2010Prop30
280
     1
102
RTVSPost2010PropOp30
 70
     1
102
RTVSPost2010Prop31
280
     0
102
RTVSPost2010PropOp31
 70
     1
102
RTVSPost2010Prop32
280
     0
102
RTVSPost2010PropOp32
 70
     1
102
RTVSPost2010Prop33
280
     0
102
RTVSPost2010PropOp33
 70
     1
102
RTVSPost2010Prop34
280
     0
102
RTVSPost2010PropOp34
 70
     1
102
RTVSPost2010Prop35
280
     0
102
RTVSPost2010PropOp35
 70
     1
102
RTVSPost2010Prop36
280
     0
102
RTVSPost2010PropOp36
 70
     1
102
RTVSPost2010Prop37
 90
       50
102
RTVSPost2010PropOp37
 70
     1
102
RTVSPost2010Prop38
140
0.0
102
RTVSPost2010PropOp38
 70
     1
102
RTVSPost2010Prop39
140
1.0
102
RTVSPost2010PropOp39
 70
     1
102
RTVSPost2010Prop40
 90
        0
102
RTVSPost2010PropOp40
 70
     1
102
RTVSPost2010Prop41ColorIndex
 90
       18
102
RTVSPost2010Prop41ColorRGB
 90
        0
102
RTVSPost2010PropOp41
 70
     1
102
RTVSPost2010Prop42
 90
       50
102
RTVSPost2010PropOp42
 70
     1
102
RTVSPost2010Prop43
 90
        3
102
RTVSPost2010PropOp43
 70
     1
102
RTVSPost2010Prop44ColorIndex
 90
        5
102
RTVSPost2010Prop44ColorRGB
 90
      255
102
RTVSPost2010PropOp44
 70
     1
102
RTVSPost2010Prop45
280
     0
102
RTVSPost2010PropOp45
 70
     1
102
RTVSPost2010Prop46
 90
       50
102
RTVSPost2010PropOp46
 70
     1
102
RTVSPost2010Prop47
 90
       50
102
RTVSPost2010PropOp47
 70
     1
102
RTVSPost2010Prop48
 90
       50
102
RTVSPost2010PropOp48
 70
     1
102
RTVSPost2010Prop49
280
     0
102
RTVSPost2010PropOp49
 70
     1
102
RTVSPost2010Prop50
 90
       50
102
RTVSPost2010PropOp50
 70
     1
102
RTVSPost2010Prop51ColorIndex
 90
      256
102
RTVSPost2010Prop51ColorRGB
 90
-16777216
102
RTVSPost2010PropOp51
 70
     0
102
RTVSPost2010Prop52
140
1.0
102
RTVSPost2010PropOp52
 70
     0
102
RTVSPost2010Prop53
 90
        2
102
RTVSPost2010PropOp53
 70
     1
102
RTVSPost2010Prop54
  1
strokes_ogs.tif
102
RTVSPost2010PropOp54
 70
     1
102
RTVSPost2010Prop55
280
     0
102
RTVSPost2010PropOp55
 70
     1
102
RTVSPost2010Prop56
140
1.0
102
RTVSPost2010PropOp56
 70
     1
102
RTVSPost2010Prop57
140
1.0
102
RTVSPost2010PropOp57
 70
     1
102
RTVSPropertyOp0
 70
     1
102
RTVSPropertyOp1
 70
     1
102
RTVSPropertyOp2
 70
     1
102
RTVSPropertyOp3
 70
     1
102
RTVSPropertyOp4
 70
     1
102
RTVSPropertyOp5
 70
     1
102
RTVSPropertyOp6
 70
     1
102
RTVSPropertyOp7
 70
     1
102
RTVSPropertyOp8
 70
     1
102
RTVSPropertyOp9
 70
     1
102
RTVSPropertyOp10
 70
     1
102
RTVSPropertyOp11
 70
     1
102
RTVSPropertyOp12
 70
     1
102
RTVSPropertyOp13
 70
     1
102
RTVSPropertyOp14
 70
     1
102
RTVSPropertyOp15
 70
     1
102
RTVSPropertyOp16
 70
     1
102
RTVSPropertyOp17
 70
     1
102
RTVSPropertyOp18
 70
     1
102
RTVSPropertyOp19
 70
     1
102
RTVSPropertyOp20
 70
     1
102
RTVSPropertyOp21
 70
     1
102
RTVSPropertyOp22
 70
     1
102
RTVSPropertyOp23
 70
     1
102
RTVSPropertyOp24
 70
     1
102
RTVSPropertyOp25
 70
     1
102
RTVSPropertyOp26
 70
     1
102
RTVSPropertyOp27
 70
     1
102
RTVSPropertyOp28
 70
     1
102
RTVSPropertyOp29
 70
     1
102
RTVSPropertyOp30
 70
     1
102
RTVSPropertyOp31
 70
     1
102
RTVSPropertyOp32
 70
     1
102
RTVSPropertyOp33
 70
     1
102
RTVSPropertyOp34
 70
     1
102
RTVSPropertyOp35
 70
     1
102
RTVSPropertyOp36
 70
     1
102
RTVSPropertyOp37
 70
     1
102
RTVSPropertyOp38
 70
     1
102
RTVSPropertyOp39
 70
     1
102
RTVSPropertyOp40
 70
     1
102
RTVSPropertyOp41
 70
     1
102
RTVSPropertyOp42
 70
     1
102
RTVSPropertyOp43
 70
     1
102
RTVSPropertyOp44
 70
     1
102
RTVSPropertyOp45
 70
     1
102
RTVSPropertyOp46
 70
     1
102
RTVSPropertyOp47
 70
     1
102
RTVSPropertyOp48
 70
     1
102
RTVSPropertyOp49
 70
     1
102
RTVSPropertyOp50
 70
     1
102
RTVSPropertyOp51
 70
     0
102
RTVSPropertyOp52
 70
     0
102
RTVSPropertyOp53
 70
     1
102
RTVSPropertyOp54
 70
     1
102
RTVSPropertyOp55
 70
     1
102
RTVSPropertyOp56
 70
     1
102
RTVSPropertyOp57
 70
     1
102
RTVSPropertyOp58
 70
     1
102
RTVSPropertyOp59
 70
     1
102
RTVSPropertyOp60
 70
     1
102
RTVSPropertyOp61
 70
     1
102
RTVSPropertyOp62
 70
     1
  0
XRECORD
  5
420
102
{ACAD_REACTORS
330
41F
102
}
330
41F
100
AcDbXrecord
280
     1
102
RTVSPost2010Prop28
280
     0
102
RTVSPost2010PropOp28
 70
     1
102
RTVSPost2010Prop29
280
     1
102
RTVSPost2010PropOp29
 70
     1
102
RTVSPost2010Prop30
280
     1
102
RTVSPost2010PropOp30
 70
     1
102
RTVSPost2010Prop31
280
     0
102
RTVSPost2010PropOp31
 70
     1
102
RTVSPost2010Prop32
280
     0
102
RTVSPost2010PropOp32
 70
     1
102
RTVSPost2010Prop33
280
     0
102
RTVSPost2010PropOp33
 70
     1
102
RTVSPost2010Prop34
280
     0
102
RTVSPost2010PropOp34
 70
     1
102
RTVSPost2010Prop35
280
     0
102
RTVSPost2010PropOp35
 70
     1
102
RTVSPost2010Prop36
280
     0
102
RTVSPost2010PropOp36
 70
     1
102
RTVSPost2010Prop37
 90
       50
102
RTVSPost2010PropOp37
 70
     1
102
RTVSPost2010Prop38
140
0.0
102
RTVSPost2010PropOp38
 70
     1
102
RTVSPost2010Prop39
140
1.0
102
RTVSPost2010PropOp39
 70
     1
102
RTVSPost2010Prop40
 90
        0
102
RTVSPost2010PropOp40
 70
     1
102
RTVSPost2010Prop41ColorIndex
 90
       18
102
RTVSPost2010Prop41ColorRGB
 90
        0
102
RTVSPost2010PropOp41
 70
     1
102
RTVSPost2010Prop42
 90
       50
102
RTVSPost2010PropOp42
 70
     1
102
RTVSPost2010Prop43
 90
        3
102
RTVSPost2010PropOp43
 70
     1
102
RTVSPost2010Prop44ColorIndex
 90
        5
102
RTVSPost2010Prop44ColorRGB
 90
      255
102
RTVSPost2010PropOp44
 70
     1
102
RTVSPost2010Prop45
280
     0
102
RTVSPost2010PropOp45
 70
     1
102
RTVSPost2010Prop46
 90
       50
102
RTVSPost2010PropOp46
 70
     1
102
RTVSPost2010Prop47
 90
       50
102
RTVSPost2010PropOp47
 70
     1
102
RTVSPost2010Prop48
 90
       50
102
RTVSPost2010PropOp48
 70
     1
102
RTVSPost2010Prop49
280
     0
102
RTVSPost2010PropOp49
 70
     1
102
RTVSPost2010Prop50
 90
       50
102
RTVSPost2010PropOp50
 70
     1
102
RTVSPost2010Prop51ColorIndex
 90
      256
102
RTVSPost2010Prop51ColorRGB
 90
-16777216
102
RTVSPost2010PropOp51
 70
     0
102
RTVSPost2010Prop52
140
1.0
102
RTVSPost2010PropOp52
 70
     0
102
RTVSPost2010Prop53
 90
        2
102
RTVSPost2010PropOp53
 70
     1
102
RTVSPost2010Prop54
  1
strokes_ogs.tif
102
RTVSPost2010PropOp54
 70
     1
102
RTVSPost2010Prop55
280
     0
102
RTVSPost2010PropOp55
 70
     1
102
RTVSPost2010Prop56
140
1.0
102
RTVSPost2010PropOp56
 70
     1
102
RTVSPost2010Prop57
140
1.0
102
RTVSPost2010PropOp57
 70
     1
102
RTVSPropertyOp0
 70
     1
102
RTVSPropertyOp1
 70
     1
102
RTVSPropertyOp2
 70
     1
102
RTVSPropertyOp3
 70
     1
102
RTVSPropertyOp4
 70
     1
102
RTVSPropertyOp5
 70
     1
102
RTVSPropertyOp6
 70
     1
102
RTVSPropertyOp7
 70
     1
102
RTVSPropertyOp8
 70
     1
102
RTVSPropertyOp9
 70
     1
102
RTVSPropertyOp10
 70
     1
102
RTVSPropertyOp11
 70
     1
102
RTVSPropertyOp12
 70
     1
102
RTVSPropertyOp13
 70
     1
102
RTVSPropertyOp14
 70
     1
102
RTVSPropertyOp15
 70
     1
102
RTVSPropertyOp16
 70
     1
102
RTVSPropertyOp17
 70
     1
102
RTVSPropertyOp18
 70
     1
102
RTVSPropertyOp19
 70
     1
102
RTVSPropertyOp20
 70
     1
102
RTVSPropertyOp21
 70
     1
102
RTVSPropertyOp22
 70
     1
102
RTVSPropertyOp23
 70
     1
102
RTVSPropertyOp24
 70
     1
102
RTVSPropertyOp25
 70
     1
102
RTVSPropertyOp26
 70
     1
102
RTVSPropertyOp27
 70
     1
102
RTVSPropertyOp28
 70
     1
102
RTVSPropertyOp29
 70
     1
102
RTVSPropertyOp30
 70
     1
102
RTVSPropertyOp31
 70
     1
102
RTVSPropertyOp32
 70
     1
102
RTVSPropertyOp33
 70
     1
102
RTVSPropertyOp34
 70
     1
102
RTVSPropertyOp35
 70
     1
102
RTVSPropertyOp36
 70
     1
102
RTVSPropertyOp37
 70
     1
102
RTVSPropertyOp38
 70
     1
102
RTVSPropertyOp39
 70
     1
102
RTVSPropertyOp40
 70
     1
102
RTVSPropertyOp41
 70
     1
102
RTVSPropertyOp42
 70
     1
102
RTVSPropertyOp43
 70
     1
102
RTVSPropertyOp44
 70
     1
102
RTVSPropertyOp45
 70
     1
102
RTVSPropertyOp46
 70
     1
102
RTVSPropertyOp47
 70
     1
102
RTVSPropertyOp48
 70
     1
102
RTVSPropertyOp49
 70
     1
102
RTVSPropertyOp50
 70
     1
102
RTVSPropertyOp51
 70
     0
102
RTVSPropertyOp52
 70
     0
102
RTVSPropertyOp53
 70
     1
102
RTVSPropertyOp54
 70
     1
102
RTVSPropertyOp55
 70
     1
102
RTVSPropertyOp56
 70
     1
102
RTVSPropertyOp57
 70
     1
102
RTVSPropertyOp58
 70
     1
102
RTVSPropertyOp59
 70
     1
102
RTVSPropertyOp60
 70
     1
102
RTVSPropertyOp61
 70
     1
102
RTVSPropertyOp62
 70
     1
  0
ENDSEC
  0
EOF
