  0
SECTION
  2
HEADER
  9
$ACADVER
  1
AC1015
  9
$ACADMAINTVER
 70
    20
  9
$DWGCODEPAGE
  3
ANSI_1252
  9
$INSBASE
 10
0.0
 20
0.0
 30
0.0
  9
$EXTMIN
 10
-20.25318095076896
 20
6.629879535688365
 30
0.0
  9
$EXTMAX
 10
348.6929178929212
 20
450.2592808314516
 30
0.0
  9
$LIMMIN
 10
0.0
 20
0.0
  9
$LIMMAX
 10
600.0
 20
700.0
  9
$ORTHOMODE
 70
     1
  9
$REGENMODE
 70
     1
  9
$FILLMODE
 70
     1
  9
$QTEXTMODE
 70
     0
  9
$MIRRTEXT
 70
     1
  9
$LTSCALE
 40
1.0
  9
$ATTMODE
 70
     1
  9
$TEXTSIZE
 40
10.0
  9
$TRACEWID
 40
0.05
  9
$TEXTSTYLE
  7
NORM
  9
$CLAYER
  8
BEMASSUNG
  9
$CELTYPE
  6
BYLAYER
  9
$CECOLOR
 62
   256
  9
$CELTSCALE
 40
1.0
  9
$DISPSILH
 70
     0
  9
$DIMSCALE
 40
1.0
  9
$DIMASZ
 40
4.0
  9
$DIMEXO
 40
0.0
  9
$DIMDLI
 40
8.0
  9
$DIMRND
 40
0.0
  9
$DIMDLE
 40
0.0
  9
$DIMEXE
 40
1.0
  9
$DIMTP
 40
0.0
  9
$DIMTM
 40
0.0
  9
$DIMTXT
 40
4.349999999999999
  9
$DIMCEN
 40
1.5
  9
$DIMTSZ
 40
0.0
  9
$DIMTOL
 70
     0
  9
$DIMLIM
 70
     0
  9
$DIMTIH
 70
     0
  9
$DIMTOH
 70
     0
  9
$DIMSE1
 70
     0
  9
$DIMSE2
 70
     0
  9
$DIMTAD
 70
     1
  9
$DIMZIN
 70
     8
  9
$DIMBLK
  1

  9
$DIMASO
 70
     1
  9
$DIMSHO
 70
     1
  9
$DIMPOST
  1

  9
$DIMAPOST
  1

  9
$DIMALT
 70
     0
  9
$DIMALTD
 70
     2
  9
$DIMALTF
 40
25.39999999999999
  9
$DIMLFAC
 40
1.0
  9
$DIMTOFL
 70
     1
  9
$DIMTVP
 40
0.0
  9
$DIMTIX
 70
     1
  9
$DIMSOXD
 70
     0
  9
$DIMSAH
 70
     0
  9
$DIMBLK1
  1

  9
$DIMBLK2
  1

  9
$DIMSTYLE
  2
Katalog 09
  9
$DIMCLRD
 70
     2
  9
$DIMCLRE
 70
     2
  9
$DIMCLRT
 70
     3
  9
$DIMTFAC
 40
0.4285714285714286
  9
$DIMGAP
 40
1.0
  9
$DIMJUST
 70
     0
  9
$DIMSD1
 70
     0
  9
$DIMSD2
 70
     0
  9
$DIMTOLJ
 70
     1
  9
$DIMTZIN
 70
     8
  9
$DIMALTZ
 70
     8
  9
$DIMALTTZ
 70
     8
  9
$DIMUPT
 70
     0
  9
$DIMDEC
 70
     2
  9
$DIMTDEC
 70
     2
  9
$DIMALTU
 70
     2
  9
$DIMALTTD
 70
     2
  9
$DIMTXSTY
  7
ARIAL-STANDARD
  9
$DIMAUNIT
 70
     0
  9
$DIMADEC
 70
     0
  9
$DIMALTRND
 40
0.0
  9
$DIMAZIN
 70
     0
  9
$DIMDSEP
 70
    46
  9
$DIMATFIT
 70
     3
  9
$DIMFRAC
 70
     0
  9
$DIMLDRBLK
  1

  9
$DIMLUNIT
 70
     2
  9
$DIMLWD
 70
    -2
  9
$DIMLWE
 70
    -2
  9
$DIMTMOVE
 70
     0
  9
$LUNITS
 70
     2
  9
$LUPREC
 70
     4
  9
$SKETCHINC
 40
0.1
  9
$FILLETRAD
 40
0.0
  9
$AUNITS
 70
     0
  9
$AUPREC
 70
     0
  9
$MENU
  1
.
  9
$ELEVATION
 40
0.0
  9
$PELEVATION
 40
0.0
  9
$THICKNESS
 40
0.0
  9
$LIMCHECK
 70
     0
  9
$CHAMFERA
 40
0.5
  9
$CHAMFERB
 40
0.5
  9
$CHAMFERC
 40
1.0
  9
$CHAMFERD
 40
0.0
  9
$SKPOLY
 70
     0
  9
$TDCREATE
 40
2451317.556842628
  9
$TDUCREATE
 40
2451317.515175960
  9
$TDUPDATE
 40
2455743.302071111
  9
$TDUUPDATE
 40
2455743.260404445
  9
$TDINDWG
 40
1.2987491319
  9
$TDUSRTIMER
 40
1.2987491319
  9
$USRTIMER
 70
     1
  9
$ANGBASE
 50
0.0
  9
$ANGDIR
 70
     0
  9
$PDMODE
 70
     0
  9
$PDSIZE
 40
0.0
  9
$PLINEWID
 40
0.0
  9
$SPLFRAME
 70
     0
  9
$SPLINETYPE
 70
     6
  9
$SPLINESEGS
 70
     8
  9
$HANDSEED
  5
33D
  9
$SURFTAB1
 70
     6
  9
$SURFTAB2
 70
     6
  9
$SURFTYPE
 70
     6
  9
$SURFU
 70
     6
  9
$SURFV
 70
     6
  9
$UCSBASE
  2

  9
$UCSNAME
  2

  9
$UCSORG
 10
0.0
 20
0.0
 30
0.0
  9
$UCSXDIR
 10
1.0
 20
0.0
 30
0.0
  9
$UCSYDIR
 10
0.0
 20
1.0
 30
0.0
  9
$UCSORTHOREF
  2

  9
$UCSORTHOVIEW
 70
     0
  9
$UCSORGTOP
 10
0.0
 20
0.0
 30
0.0
  9
$UCSORGBOTTOM
 10
0.0
 20
0.0
 30
0.0
  9
$UCSORGLEFT
 10
0.0
 20
0.0
 30
0.0
  9
$UCSORGRIGHT
 10
0.0
 20
0.0
 30
0.0
  9
$UCSORGFRONT
 10
0.0
 20
0.0
 30
0.0
  9
$UCSORGBACK
 10
0.0
 20
0.0
 30
0.0
  9
$PUCSBASE
  2

  9
$PUCSNAME
  2

  9
$PUCSORG
 10
0.0
 20
0.0
 30
0.0
  9
$PUCSXDIR
 10
1.0
 20
0.0
 30
0.0
  9
$PUCSYDIR
 10
0.0
 20
1.0
 30
0.0
  9
$PUCSORTHOREF
  2

  9
$PUCSORTHOVIEW
 70
     0
  9
$PUCSORGTOP
 10
0.0
 20
0.0
 30
0.0
  9
$PUCSORGBOTTOM
 10
0.0
 20
0.0
 30
0.0
  9
$PUCSORGLEFT
 10
0.0
 20
0.0
 30
0.0
  9
$PUCSORGRIGHT
 10
0.0
 20
0.0
 30
0.0
  9
$PUCSORGFRONT
 10
0.0
 20
0.0
 30
0.0
  9
$PUCSORGBACK
 10
0.0
 20
0.0
 30
0.0
  9
$USERI1
 70
     0
  9
$USERI2
 70
     0
  9
$USERI3
 70
     0
  9
$USERI4
 70
     0
  9
$USERI5
 70
     0
  9
$USERR1
 40
0.0
  9
$USERR2
 40
0.0
  9
$USERR3
 40
0.0
  9
$USERR4
 40
0.0
  9
$USERR5
 40
0.0
  9
$WORLDVIEW
 70
     1
  9
$SHADEDGE
 70
     3
  9
$SHADEDIF
 70
    70
  9
$TILEMODE
 70
     1
  9
$MAXACTVP
 70
    48
  9
$PINSBASE
 10
0.0
 20
0.0
 30
0.0
  9
$PLIMCHECK
 70
     0
  9
$PEXTMIN
 10
1.000000000000000E+20
 20
1.000000000000000E+20
 30
1.000000000000000E+20
  9
$PEXTMAX
 10
-1.000000000000000E+20
 20
-1.000000000000000E+20
 30
-1.000000000000000E+20
  9
$PLIMMIN
 10
0.0
 20
0.0
  9
$PLIMMAX
 10
12.0
 20
9.0
  9
$UNITMODE
 70
     0
  9
$VISRETAIN
 70
     1
  9
$PLINEGEN
 70
     0
  9
$PSLTSCALE
 70
     1
  9
$TREEDEPTH
 70
  3020
  9
$CMLSTYLE
  2
STANDARD
  9
$CMLJUST
 70
     0
  9
$CMLSCALE
 40
1.0
  9
$PROXYGRAPHICS
 70
     1
  9
$MEASUREMENT
 70
     1
  9
$CELWEIGHT
370
    -1
  9
$ENDCAPS
280
     0
  9
$JOINSTYLE
280
     0
  9
$LWDISPLAY
290
     0
  9
$INSUNITS
 70
     4
  9
$HYPERLINKBASE
  1

  9
$STYLESHEET
  1

  9
$XEDIT
290
     1
  9
$CEPSNTYPE
380
     0
  9
$PSTYLEMODE
290
     1
  9
$FINGERPRINTGUID
  2
{F64FCF06-4E9F-4CD3-A170-D5CB87F92027}
  9
$VERSIONGUID
  2
{A86E07D7-12CB-44A7-A816-04C6A93D64D6}
  9
$EXTNAMES
290
     1
  9
$PSVPSCALE
 40
0.0
  9
$OLESTARTUP
290
     0
  0
ENDSEC
  0
SECTION
  2
CLASSES
  0
CLASS
  1
ACDBDICTIONARYWDFLT
  2
AcDbDictionaryWithDefault
  3
ObjectDBX Classes
 90
        0
280
     0
281
     0
  0
CLASS
  1
ACDBPLACEHOLDER
  2
AcDbPlaceHolder
  3
ObjectDBX Classes
 90
        0
280
     0
281
     0
  0
CLASS
  1
LAYOUT
  2
AcDbLayout
  3
ObjectDBX Classes
 90
        0
280
     0
281
     0
  0
CLASS
  1
ACME_DOCUMENT
  2
AcMeDbDoc
  3
AcMeServices
 90
    33792
280
     0
281
     0
  0
CLASS
  1
AMGSETTINGSOBJ
  2
AmgSettingsObj
  3
"AcadM|Product Description: AutoCAD Mechanical|Company: Autodesk, Inc."
 90
     1024
280
     0
281
     0
  0
CLASS
  1
ACMESCOPE
  2
AcMeScope
  3
AcMeServices
 90
     1024
280
     0
281
     0
  0
CLASS
  1
ACMECOMMANDHISTORY
  2
AcMeCommandHistory
  3
AcMeServices
 90
    33792
280
     0
281
     0
  0
CLASS
  1
ACIMSYSVARMAN
  2
AcImSysVarManager
  3
AcMeServices
 90
     1024
280
     0
281
     0
  0
CLASS
  1
ACIMREALSYSVAR
  2
AcImRealSysVar
  3
AcMeServices
 90
    33792
280
     0
281
     0
  0
CLASS
  1
ACIMINTSYSVAR
  2
AcImIntSysVar
  3
AcMeServices
 90
    33792
280
     0
281
     0
  0
CLASS
  1
ACMEDRAWINGMAN
  2
AcMeDrawingMan
  3
AcMeServices
 90
    33792
280
     0
281
     0
  0
CLASS
  1
ACMEVIEW
  2
AcMeView
  3
AcMeServices
 90
    33792
280
     0
281
     0
  0
CLASS
  1
ACDBENTITYCACHE
  2
AcMeEntityCache
  3
AcMeServices
 90
    33792
280
     0
281
     0
  0
CLASS
  1
GSMANAGER
  2
AcMeGSManager
  3
AcMeServices
 90
    33792
280
     1
281
     0
  0
CLASS
  1
AMDTINTERNALREACTOR
  2
AmdtInternalReactor
  3
AcMeServices
 90
    33792
280
     0
281
     0
  0
CLASS
  1
ACMESTATEMGR
  2
AcMeStateMgr
  3
AcMeServices
 90
     1024
280
     0
281
     0
  0
CLASS
  1
ACGREFMASTER
  2
AcGrefMaster
  3
AcAttribServices
 90
     1024
280
     0
281
     0
  0
CLASS
  1
ACME_DATABASE
  2
AcMeDbDatabase
  3
AcMeServices
 90
    33792
280
     0
281
     0
  0
CLASS
  1
ACRFINSADJUSTERMGR
  2
AcRfInsAdjusterMgr
  3
AcMeServices
 90
    33792
280
     0
281
     0
  0
CLASS
  1
ACGREFACADMASTER
  2
AcGrefacadMaster
  3
AcGrefServices
 90
    33792
280
     0
281
     0
  0
CLASS
  1
AMIMASTER
  2
AmiMaster
  3
AmiServices
 90
    33792
280
     0
281
     0
  0
CLASS
  1
ACMDATADICTIONARY
  2
AcmDataDictionary
  3
"AcmSymBB|Product Description: AutoCAD Mechanical|Company: Autodesk, Inc."
 90
    33792
280
     0
281
     0
  0
CLASS
  1
ACMDATAENTRYBLOCK
  2
AcmDataEntryBlock
  3
AcmSymBB|Product Description: AutoCAD Mechanical|Company: Autodesk, Inc.
 90
    33792
280
     0
281
     0
  0
CLASS
  1
ACIMSTRSYSVAR
  2
AcImStrSysVar
  3
AcMeServices
 90
     1024
280
     0
281
     0
  0
CLASS
  1
ACMSTANDARDDIN
  2
AcmStandardDIN
  3
"Amdt_StdImp|Product Description: AutoCAD Mechanical|Company: Autodesk, Inc."
 90
     1024
280
     0
281
     0
  0
CLASS
  1
AMGOBJPROPCFG
  2
AmgObjPropCfg
  3
"AmgLay|Product Description: AutoCAD Mechanical|Company: Autodesk, Inc."
 90
     1024
280
     0
281
     0
  0
CLASS
  1
AMDTEDGESTANDARDDIN
  2
AmdtEdgeStdDIN
  3
"Amdt_StdImp|Product Description: AutoCAD Mechanical|Company: Autodesk, Inc."
 90
    33792
280
     0
281
     0
  0
CLASS
  1
ACMSURFSTANDARDDIN
  2
AcmSurfTextStdDIN
  3
"Amdt_StdImp|Product Description: AutoCAD Mechanical|Company: Autodesk, Inc."
 90
    33792
280
     0
281
     0
  0
CLASS
  1
ACMFCFSTANDARDDIN
  2
AcmFCFStdDIN
  3
"Amdt_StdImp|Product Description: AutoCAD Mechanical|Company: Autodesk, Inc."
 90
    33792
280
     0
281
     0
  0
CLASS
  1
ACMWELDSTANDARDDIN
  2
AcmWeldingStdDIN
  3
"Amdt_StdImp|Product Description: AutoCAD Mechanical|Company: Autodesk, Inc."
 90
     1024
280
     0
281
     0
  0
CLASS
  1
ACMIDSTANDARDDIN
  2
AcmIdStdDIN
  3
"Amdt_StdImp|Product Description: AutoCAD Mechanical|Company: Autodesk, Inc."
 90
    33792
280
     0
281
     0
  0
CLASS
  1
ACMDATUMSTANDARDDIN
  2
AcmDatumStdDIN
  3
"Amdt_StdImp|Product Description: AutoCAD Mechanical|Company: Autodesk, Inc."
 90
     1024
280
     0
281
     0
  0
CLASS
  1
ACMBOMSTANDARDDIN
  2
AcmBOMStdDIN
  3
"Amdt_StdImp|Product Description: AutoCAD Mechanical|Company: Autodesk, Inc."
 90
     1024
280
     0
281
     0
  0
CLASS
  1
ACMDETAILSTANDARDDIN
  2
AmdtDetailSymStdDIN
  3
"Amdt_StdImp|Product Description: AutoCAD Mechanical|Company: Autodesk, Inc."
 90
     1024
280
     0
281
     0
  0
CLASS
  1
ACMSECTIONSTANDARDDIN
  2
AmdtSectionSymStdDIN
  3
"Amdt_StdImp|Product Description: AutoCAD Mechanical|Company: Autodesk, Inc."
 90
     1024
280
     0
281
     0
  0
CLASS
  1
ACMCENTERLINESTANDARDDIN
  2
AmdtCenterLineStdDIN
  3
"Amdt_StdImp|Product Description: AutoCAD Mechanical|Company: Autodesk, Inc."
 90
     1024
280
     0
281
     0
  0
CLASS
  1
ACMNOTESTANDARDDIN
  2
AmdtNoteStdDIN
  3
"Amdt_StdImp|Product Description: AutoCAD Mechanical|Company: Autodesk, Inc."
 90
     1024
280
     0
281
     0
  0
CLASS
  1
ACAMGLAYSTD
  2
AcAmgLayStd
  3
"AmgLay|Product Description: AutoCAD Mechanical|Company: Autodesk, Inc."
 90
     1024
280
     0
281
     0
  0
CLASS
  1
ACAMGDIMSTD
  2
AcAmgDimStd
  3
"AmgDim|Product Description: AutoCAD Mechanical|Company: Autodesk, Inc."
 90
     1024
280
     0
281
     0
  0
CLASS
  1
ACAMGHOLECHARTSTDDIN
  2
AcAmgHoleChartStdDIN
  3
AmgDim|Product Description: AutoCAD Mechanical|Company: Autodesk, Inc.
 90
     1024
280
     0
281
     0
  0
CLASS
  1
ACAMGTITLESTD
  2
AcAmgTitleStd
  3
"AmgTitle|Product Description: AutoCAD Mechanical|Company: Autodesk, Inc."
 90
     1024
280
     0
281
     0
  0
CLASS
  1
ACAMGFILTERDAT
  2
AcAmgFilterDat
  3
"AcadM|Product Description: AutoCAD Mechanical|Company: Autodesk, Inc."
 90
    33792
280
     0
281
     0
  0
CLASS
  1
LAYER_INDEX
  2
AcDbLayerIndex
  3
ObjectDBX Classes
 90
    32768
280
     0
281
     0
  0
CLASS
  1
IDBUFFER
  2
AcDbIdBuffer
  3
ObjectDBX Classes
 90
    32768
280
     0
281
     0
  0
CLASS
  1
DICTIONARYVAR
  2
AcDbDictionaryVar
  3
ObjectDBX Classes
 90
        0
280
     0
281
     0
  0
CLASS
  1
MATERIAL
  2
AcDbMaterial
  3
ObjectDBX Classes
 90
     1153
280
     0
281
     0
  0
CLASS
  1
VISUALSTYLE
  2
AcDbVisualStyle
  3
ObjectDBX Classes
 90
     4095
280
     0
281
     0
  0
CLASS
  1
TABLESTYLE
  2
AcDbTableStyle
  3
ObjectDBX Classes
 90
     4095
280
     0
281
     0
  0
CLASS
  1
SCALE
  2
AcDbScale
  3
ObjectDBX Classes
 90
     1153
280
     0
281
     0
  0
CLASS
  1
MLEADERSTYLE
  2
AcDbMLeaderStyle
  3
ACDB_MLEADERSTYLE_CLASS
 90
    36863
280
     0
281
     0
  0
CLASS
  1
AM_DRAWING_MGR
  2
AcDmDwgMgr
  3
AcMechDwgViewMgmt
 90
    33792
280
     0
281
     0
  0
CLASS
  1
AM_DWG_DOCUMENT
  2
AcDmDwgDocument
  3
AcMechDwgViewMgmt
 90
    33792
280
     0
281
     0
  0
CLASS
  1
AM_DWG_SHEET
  2
AcDmSheet
  3
AcMechDwgViewMgmt
 90
    33792
280
     0
281
     0
  0
CLASS
  1
AM_VIEWDIMPARMAP
  2
AcDmViewDimParMap
  3
AcMechDwgViewMgmt
 90
    33792
280
     0
281
     0
  0
CLASS
  1
AM_DWGMGR_NAME
  2
AcDmDwgMgrName
  3
AcMechDwgViewMgmt
 90
    33792
280
     0
281
     0
  0
CLASS
  1
AMDTMENUSTATEMGR
  2
AmdtMenuStateMgr
  3
McadcomServices
 90
    33792
280
     0
281
     0
  0
CLASS
  1
AMDTMCOMMENUSTATE
  2
AmdtMcomMenuState
  3
McadcomServices
 90
    33792
280
     0
281
     0
  0
CLASS
  1
MAPIAMMOUDLE
  2
MApiAmModule
  3
MApiAmServices
 90
    33792
280
     0
281
     0
  0
CLASS
  1
AMDTADMENUSTATE
  2
AmdtAdMenuState
  3
DesignerServices
 90
    33792
280
     1
281
     0
  0
CLASS
  1
ADAPPL
  2
AcAdAppl
  3
DesignerAssemblies
 90
    33792
280
     0
281
     0
  0
CLASS
  1
DEPMGR
  2
AcAdDepMgr
  3
DesignerAssemblies
 90
    33792
280
     0
281
     0
  0
CLASS
  1
PARAMMGR
  2
AcAdParamMgr
  3
DesignerAssemblies
 90
    33792
280
     0
281
     0
  0
CLASS
  1
PARAMSCOPE
  2
AcAdParamScope
  3
DesignerAssemblies
 90
    33792
280
     0
281
     0
  0
CLASS
  1
NAMEDAPPL
  2
AcAdNamedAppl
  3
DesignerAssemblies
 90
    33792
280
     0
281
     0
  0
CLASS
  1
AMDTDMMENUSTATE
  2
AmdtDmMenuState
  3
AcMechDwgViewMgmt
 90
    33792
280
     1
281
     0
  0
CLASS
  1
AMDTAMMENUSTATE
  2
AmdtAmMenuState
  3
DesignerAssemblies
 90
    33792
280
     0
281
     0
  0
CLASS
  1
ACAMPROJECT
  2
AcAmProject
  3
DesignerAssemblies
 90
    33792
280
     0
281
     0
  0
CLASS
  1
ACAMGRCOMPDEF
  2
AcAmGrCompDef
  3
DesignerAssemblies
 90
    33792
280
     0
281
     0
  0
CLASS
  1
ACCMCONTEXT
  2
AcCmContext
  3
DesignerAssemblies
 90
    33792
280
     0
281
     0
  0
CLASS
  1
ACAMCOMPDEF
  2
AcAmCompDef
  3
DesignerAssemblies
 90
    33792
280
     0
281
     0
  0
CLASS
  1
ACAMCOMPDEFMGR
  2
AcAmCompDefMgr
  3
DesignerAssemblies
 90
    33792
280
     0
281
     0
  0
CLASS
  1
AMCONTEXTMGR
  2
AcAmContextMgr
  3
DesignerAssemblies
 90
    33792
280
     0
281
     0
  0
CLASS
  1
ACAMCONTEXTMODELER
  2
AcAmContextModeler
  3
DesignerAssemblies
 90
    33792
280
     0
281
     0
  0
CLASS
  1
ACRFATTGENMGR
  2
AcRfAttGeneralMgr
  3
AcAttribServices
 90
    33792
280
     0
281
     0
  0
CLASS
  1
ACRFOBJATTMGR
  2
AcRfObjAttGroupMgr
  3
AcAttribServices
 90
    33792
280
     0
281
     0
  0
CLASS
  1
ACRFMCADAPIATTHOLDER
  2
AcRfMCADAPIAttHolder
  3
AcAttribServices
 90
    33792
280
     0
281
     0
  0
CLASS
  1
AMDTSYSATTR
  2
AmdtSystemAttribute
  3
AcAttribServices
 90
    33792
280
     0
281
     0
  0
CLASS
  1
ACMTHREADLINESTANDARDDIN
  2
AmdtThreadLineStdDIN
  3
"Amdt_StdImp|Product Description: AutoCAD Mechanical|Company: Autodesk, Inc."
 90
     1024
280
     0
281
     0
  0
CLASS
  1
ACMTAPERSTANDARDDIN
  2
AcmTaperStdDIN
  3
"Amdt_StdImp|Product Description: AutoCAD Mechanical|Company: Autodesk, Inc."
 90
     1024
280
     0
281
     0
  0
CLASS
  1
ACMANOOTATIONVIEWSTANDARDDIN
  2
AmdtAnViewStdDIN
  3
"Amdt_StdImp|Product Description: AutoCAD Mechanical|Company: Autodesk, Inc."
 90
     1024
280
     0
281
     0
  0
CLASS
  1
CATALOGSTATE
  2
AcAmCatalogState
  3
DesignerAssemblies
 90
    33792
280
     0
281
     0
  0
CLASS
  1
ACAMGRCOMPDEFSET
  2
AcAmGrCompDefSet
  3
DesignerAssemblies
 90
    33792
280
     0
281
     0
  0
CLASS
  1
AMDTBROWSERDBTAB
  2
AmdtBrowserDbTab
  3
McadcomServices
 90
    33792
280
     0
281
     0
  0
CLASS
  1
CBROWSERAPPOBJECT
  2
CBrowserAppObject
  3
McadcomServices
 90
    33792
280
     0
281
     0
  0
CLASS
  1
DM_PLACEHOLDER
  2
AcDmSelsetPlaceholder
  3
McadcomServices
 90
    33792
280
     0
281
     0
  0
CLASS
  1
CAMSSTRUCTBTNSTATE
  2
StructBtnState
  3
DesignerAssemblies
 90
    33792
280
     0
281
     0
  0
CLASS
  1
CELLSTYLEMAP
  2
AcDbCellStyleMap
  3
ObjectDBX Classes
 90
     1152
280
     0
281
     0
  0
CLASS
  1
PLOTSETTINGS
  2
AcDbPlotSettings
  3
ObjectDBX Classes
 90
    32768
280
     0
281
     0
  0
CLASS
  1
AEC_REFEDIT_STATUS_TRACKER
  2
AecDbRefEditStatusTracker
  3
AecArchBase60|Product Desc: Autodesk Architectural Desktop 2007 |Company: Autodesk,Inc. |WEB Address: www.autodesk.com
 90
    32897
280
     1
281
     0
  0
CLASS
  1
NPOCOLLECTION
  2
AcDbImpNonPersistentObjectsCollection
  3
ObjectDBX Classes
 90
    33921
280
     0
281
     0
  0
CLASS
  1
SORTENTSTABLE
  2
AcDbSortentsTable
  3
ObjectDBX Classes
 90
        0
280
     0
281
     0
  0
CLASS
  1
AMDTEDGESTANDARDDIN13715
  2
AmdtEdgeStdDIN13715
  3
"Amdt_StdImp|Product Description: AutoCAD Mechanical|Company: Autodesk, Inc."
 90
     1024
280
     0
281
     0
  0
CLASS
  1
ACMSURFSTANDARDDIN2002
  2
AcmSurfTextStdDIN2002
  3
"Amdt_StdImp|Product Description: AutoCAD Mechanical|Company: Autodesk, Inc."
 90
     1024
280
     0
281
     0
  0
CLASS
  1
AMDTNOTETEMPLATEDB
  2
AmdtNoteTemplateDB
  3
AcmSymBB|Product Description: AutoCAD Mechanical|Company: Autodesk, Inc.
 90
     1024
280
     0
281
     0
  0
CLASS
  1
ACDBSECTIONVIEWSTYLE
  2
AcDbSectionViewStyle
  3
ObjectDBX Classes
 90
     1025
280
     0
281
     0
  0
CLASS
  1
ACDBDETAILVIEWSTYLE
  2
AcDbDetailViewStyle
  3
ObjectDBX Classes
 90
     1025
280
     0
281
     0
  0
CLASS
  1
ACMFCFSTANDARDDIN2008
  2
AcmFCFStdDIN2008
  3
"Amdt_StdImp|Product Description: AutoCAD Mechanical|Company: Autodesk, Inc."
 90
     1024
280
     0
281
     0
  0
CLASS
  1
ACMIDSTANDARDDIN2008
  2
AcmIdStdDIN2008
  3
"Amdt_StdImp|Product Description: AutoCAD Mechanical|Company: Autodesk, Inc."
 90
     1024
280
     0
281
     0
  0
CLASS
  1
ACMSECTIONSTANDARDCUSTOM
  2
AmdtSectionSymStdCustom
  3
"Amdt_StdImp|Product Description: AutoCAD Mechanical|Company: Autodesk, Inc."
 90
     1024
280
     0
281
     0
  0
CLASS
  1
ACMDETAILTANDARDCUSTOM
  2
AmdtDetailSymStdCustom
  3
"Amdt_StdImp|Product Description: AutoCAD Mechanical|Company: Autodesk, Inc."
 90
     1024
280
     0
281
     0
  0
CLASS
  1
FIELD
  2
AcDbField
  3
ObjectDBX Classes
 90
     1152
280
     0
281
     0
  0
CLASS
  1
FIELDLIST
  2
AcDbFieldList
  3
ObjectDBX Classes
 90
     1152
280
     0
281
     0
  0
ENDSEC
  0
SECTION
  2
TABLES
  0
TABLE
  2
VPORT
  5
2D
330
0
100
AcDbSymbolTable
 70
     1
  0
VPORT
  5
2E
330
2D
100
AcDbSymbolTableRecord
100
AcDbViewportTableRecord
  2
*Active
 70
     0
 10
0.0
 20
0.0
 11
1.0
 21
1.0
 12
181.1860818667707
 22
260.1471992320532
 13
0.0
 23
0.0
 14
10.0
 24
10.0
 15
10.0
 25
10.0
 16
0.0
 26
0.0
 36
1.0
 17
0.0
 27
0.0
 37
0.0
 40
452.0383206600306
 41
2.033022861981371
 42
50.0
 43
0.0
 44
0.0
 50
0.0
 51
0.0
 71
     0
 72
  5000
 73
     1
 74
     0
 75
     0
 76
     0
 77
     0
 78
     0
281
     0
 65
     1
110
0.0
120
0.0
130
0.0
111
1.0
121
0.0
131
0.0
112
0.0
122
1.0
132
0.0
 79
     0
146
0.0
1001
ACAD_NAV_VCDISPLAY
1070
     3
  0
ENDTAB
  0
TABLE
  2
LTYPE
  5
28
330
0
100
AcDbSymbolTable
 70
    13
  0
LTYPE
  5
29
330
28
100
AcDbSymbolTableRecord
100
AcDbLinetypeTableRecord
  2
BYBLOCK
 70
     0
  3

 72
    65
 73
     0
 40
0.0
  0
LTYPE
  5
2A
330
28
100
AcDbSymbolTableRecord
100
AcDbLinetypeTableRecord
  2
BYLAYER
 70
     0
  3

 72
    65
 73
     0
 40
0.0
  0
LTYPE
  5
15
330
28
100
AcDbSymbolTableRecord
100
AcDbLinetypeTableRecord
  2
CONTINUOUS
 70
     0
  3
Solid line
 72
    65
 73
     0
 40
0.0
  0
LTYPE
  5
6F
330
28
100
AcDbSymbolTableRecord
100
AcDbLinetypeTableRecord
  2
STRICHPUNKT2
 70
     0
  3
Strichpunkt (.5x) _._._._._._._._._._._._._._._
 72
    65
 73
     4
 40
12.7
 49
6.349999999999999
 74
     0
 49
-3.174999999999999
 74
     0
 49
0.0
 74
     0
 49
-3.174999999999999
 74
     0
  0
LTYPE
  5
1C9
330
28
100
AcDbSymbolTableRecord
100
AcDbLinetypeTableRecord
  2
VERDECKT2
 70
     0
  3
Verdeckt (.5x) _ _ _ _ _ _ _ _ _ _ _ _ _ _ _ _ 
 72
    65
 73
     2
 40
4.762499999999999
 49
3.174999999999999
 74
     0
 49
-1.587499999999999
 74
     0
  0
LTYPE
  5
2D0
330
28
100
AcDbSymbolTableRecord
100
AcDbLinetypeTableRecord
  2
ACDINWELD
 70
     0
  3
_ _ _ _ _
 72
    65
 73
     2
 40
2.0
 49
2.0
 74
     0
 49
-1.0
 74
     0
  0
LTYPE
  5
2D4
330
28
100
AcDbSymbolTableRecord
100
AcDbLinetypeTableRecord
  2
ACDINTGB
 70
     0
  3
__ . . __ . .
 72
    65
 73
     6
 40
9.0
 49
4.0
 74
     0
 49
-1.0
 74
     0
 49
1.0
 74
     0
 49
-1.0
 74
     0
 49
1.0
 74
     0
 49
-1.0
 74
     0
  0
LTYPE
  5
2D2
330
28
100
AcDbSymbolTableRecord
100
AcDbLinetypeTableRecord
  2
ACDINTGL
 70
     0
  3
_ _ _ _ _
 72
    65
 73
     2
 40
3.0
 49
2.0
 74
     0
 49
-1.0
 74
     0
  0
LTYPE
  5
2BD
330
28
100
AcDbSymbolTableRecord
100
AcDbLinetypeTableRecord
  2
Amconstr
 70
     0
  3
_______________________
 72
    65
 73
     2
 40
9999.0
 49
9999.0
 74
     0
 49
0.0
 74
     0
  0
LTYPE
  5
2C0
330
28
100
AcDbSymbolTableRecord
100
AcDbLinetypeTableRecord
  2
Amzigzag
 70
     0
  3
/\/-/\/-/\/-/\/-/\/-/\/
 72
    65
 73
     2
 40
11.0001
 49
0.0001
 74
     4
 75
   135
340
2C1
 46
0.04
 50
0.0
 44
0.0
 45
0.0
 49
-11.0
 74
     0
  0
LTYPE
  5
2BA
330
28
100
AcDbSymbolTableRecord
100
AcDbLinetypeTableRecord
  2
AM_DIN_F_W050
 70
     0
  3
__ __ __ __ __ __ __ __ __ __ __ __ __ __ __
 72
    65
 73
     2
 40
6.25
 49
4.75
 74
     0
 49
-1.5
 74
     0
  0
LTYPE
  5
2BB
330
28
100
AcDbSymbolTableRecord
100
AcDbLinetypeTableRecord
  2
AM_DIN_G_W050
 70
     0
  3
____ . ____ . ____ . ____ . ____ . ____ . ____
 72
    65
 73
     4
 40
13.75
 49
9.75
 74
     0
 49
-1.5
 74
     0
 49
1.0
 74
     0
 49
-1.5
 74
     0
  0
LTYPE
  5
2BC
330
28
100
AcDbSymbolTableRecord
100
AcDbLinetypeTableRecord
  2
AM_DIN_K_W050
 70
     0
  3
_____ . . _____ . . _____ . . ____ .. ____
 72
    65
 73
     6
 40
16.25
 49
9.75
 74
     0
 49
-1.5
 74
     0
 49
1.0
 74
     0
 49
-1.5
 74
     0
 49
1.0
 74
     0
 49
-1.5
 74
     0
  0
LTYPE
  5
2BE
330
28
100
AcDbSymbolTableRecord
100
AcDbLinetypeTableRecord
  2
AM_DIN_G_W050x2
 70
     0
  3
__ . __ . __ . __ . __ . __
 72
    65
 73
     4
 40
6.875
 49
4.75
 74
     0
 49
-0.875
 74
     0
 49
0.375
 74
     0
 49
-0.875
 74
     0
  0
LTYPE
  5
2BF
330
28
100
AcDbSymbolTableRecord
100
AcDbLinetypeTableRecord
  2
AM_DIN_F_W050x2
 70
     0
  3
 _ _ _ _ _ _ _ _ _ _ _ _
 72
    65
 73
     2
 40
3.125
 49
2.25
 74
     0
 49
-0.875
 74
     0
  0
ENDTAB
  0
TABLE
  2
LAYER
  5
1F
102
{ACAD_XDICTIONARY
360
20
102
}
330
0
100
AcDbSymbolTable
 70
     7
  0
LAYER
  5
6
102
{ACAD_XDICTIONARY
360
7
102
}
330
1F
100
AcDbSymbolTableRecord
100
AcDbLayerTableRecord
  2
0
 70
     0
 62
     7
  6
CONTINUOUS
370
    -3
390
9
  0
LAYER
  5
7F
102
{ACAD_XDICTIONARY
360
80
102
}
330
1F
100
AcDbSymbolTableRecord
100
AcDbLayerTableRecord
  2
UMRISS05
 70
     0
 62
     4
  6
CONTINUOUS
370
    -3
390
9
  0
LAYER
  5
51
102
{ACAD_XDICTIONARY
360
52
102
}
330
1F
100
AcDbSymbolTableRecord
100
AcDbLayerTableRecord
  2
BEMASSUNG
 70
     0
 62
     2
  6
CONTINUOUS
370
    -3
390
9
  0
LAYER
  5
6C
102
{ACAD_XDICTIONARY
360
6D
102
}
330
1F
100
AcDbSymbolTableRecord
100
AcDbLayerTableRecord
  2
ACHSEN
 70
     0
 62
     1
  6
STRICHPUNKT2
370
    -3
390
9
  0
LAYER
  5
1C6
102
{ACAD_XDICTIONARY
360
1C7
102
}
330
1F
100
AcDbSymbolTableRecord
100
AcDbLayerTableRecord
  2
AVERDECKTE
 70
     0
 62
    13
  6
VERDECKT2
370
    -3
390
9
  0
LAYER
  5
7A
330
1F
100
AcDbSymbolTableRecord
100
AcDbLayerTableRecord
  2
DEFPOINTS
 70
     0
 62
     7
  6
CONTINUOUS
290
     0
370
    -3
390
9
  0
LAYER
  5
174
330
1F
100
AcDbSymbolTableRecord
100
AcDbLayerTableRecord
  2
Sichtbare Kanten(MSL)
 70
     0
 62
     7
  6
CONTINUOUS
370
    50
390
9
  0
ENDTAB
  0
TABLE
  2
STYLE
  5
25
330
0
100
AcDbSymbolTable
 70
     5
  0
STYLE
  5
26
330
25
100
AcDbSymbolTableRecord
100
AcDbTextStyleTableRecord
  2
STANDARD
 70
     0
 40
0.0
 41
1.0
 50
0.0
 71
     0
 42
10.0
  3
txt
  4

  0
STYLE
  5
54
330
25
100
AcDbSymbolTableRecord
100
AcDbTextStyleTableRecord
  2
NORM
 70
     0
 40
0.0
 41
1.0
 50
0.0
 71
     0
 42
10.0
  3
SIMPLEX
  4

  0
STYLE
  5
2CE
330
25
100
AcDbSymbolTableRecord
100
AcDbTextStyleTableRecord
  2
ACDINGDT
 70
     0
 40
0.0
 41
1.0
 50
0.0
 71
     0
 42
10.0
  3
amgdt.shx
  4

  0
STYLE
  5
35
330
25
100
AcDbSymbolTableRecord
100
AcDbTextStyleTableRecord
  2
ARIAL-STANDARD
 70
     0
 40
0.0
 41
1.0
 50
0.0
 71
     0
 42
3.5
  3
arial.ttf
  4

1001
ACAD
1000
Arial
1071
       34
  0
STYLE
  5
2C1
330
25
100
AcDbSymbolTableRecord
100
AcDbTextStyleTableRecord
  2

 70
     1
 40
0.0
 41
1.0
 50
0.0
 71
     0
 42
2.5
  3
ltypeshp.shx
  4

  0
ENDTAB
  0
TABLE
  2
VIEW
  5
2B
330
0
100
AcDbSymbolTable
 70
     0
  0
ENDTAB
  0
TABLE
  2
UCS
  5
2C
330
0
100
AcDbSymbolTable
 70
     0
  0
ENDTAB
  0
TABLE
  2
APPID
  5
32
330
0
100
AcDbSymbolTable
 70
    12
  0
APPID
  5
24
330
32
100
AcDbSymbolTableRecord
100
AcDbRegAppTableRecord
  2
ACAD
 70
     0
  0
APPID
  5
2FD
330
32
100
AcDbSymbolTableRecord
100
AcDbRegAppTableRecord
  2
ACAD_DSTYLE_DIMJOGGED_JOGANGLE_SYMBOL
 70
     0
  0
APPID
  5
37
330
32
100
AcDbSymbolTableRecord
100
AcDbRegAppTableRecord
  2
ACAD_DSTYLE_DIMJAG
 70
     0
  0
APPID
  5
36
330
32
100
AcDbSymbolTableRecord
100
AcDbRegAppTableRecord
  2
ACAD_DSTYLE_DIMBREAK
 70
     0
  0
APPID
  5
38
330
32
100
AcDbSymbolTableRecord
100
AcDbRegAppTableRecord
  2
ACAD_DSTYLE_DIMTALN
 70
     0
  0
APPID
  5
95
330
32
100
AcDbSymbolTableRecord
100
AcDbRegAppTableRecord
  2
ACAD_DSTYLE_DIMINSPECT
 70
     0
  0
APPID
  5
7D
330
32
100
AcDbSymbolTableRecord
100
AcDbRegAppTableRecord
  2
ACAD_DSTYLE_DIMRADIAL_EXTENSION
 70
     0
  0
APPID
  5
31
330
32
100
AcDbSymbolTableRecord
100
AcDbRegAppTableRecord
  2
ACAD_NAV_VCDISPLAY
 70
     0
  0
APPID
  5
30B
330
32
100
AcDbSymbolTableRecord
100
AcDbRegAppTableRecord
  2
ACATTRIBSERVICES
 70
     0
  0
APPID
  5
338
330
32
100
AcDbSymbolTableRecord
100
AcDbRegAppTableRecord
  2
ACAD_DSTYLE_DIM_LINETYPE
 70
     0
  0
APPID
  5
339
330
32
100
AcDbSymbolTableRecord
100
AcDbRegAppTableRecord
  2
ACAD_DSTYLE_DIM_EXT1_LINETYPE
 70
     0
  0
APPID
  5
33A
330
32
100
AcDbSymbolTableRecord
100
AcDbRegAppTableRecord
  2
ACAD_DSTYLE_DIM_EXT2_LINETYPE
 70
     0
  0
ENDTAB
  0
TABLE
  2
DIMSTYLE
  5
33
330
0
100
AcDbSymbolTable
 70
     8
100
AcDbDimStyleTable
 71
     1
340
34
  0
DIMSTYLE
105
2FC
102
{ACAD_REACTORS
330
2CA
102
}
330
33
100
AcDbSymbolTableRecord
100
AcDbDimStyleTableRecord
  2
AM_DIN
 70
     0
  4
"
 41
3.5
 42
1.0
 43
10.0
 44
1.0
 47
0.1
 48
0.1
 73
     0
 74
     0
 77
     1
 78
     8
 79
     2
140
3.5
141
0.0
143
0.0393701
146
0.71
147
1.5
172
     1
176
   256
177
   256
178
     2
271
     2
272
     3
274
     4
283
     0
284
     8
340
26
371
    -1
372
    -1
1001
ACAD_DSTYLE_DIMJOGGED_JOGANGLE_SYMBOL
1070
   384
1040
1.570796326794896
1001
ACAD_DSTYLE_DIM_LINETYPE
1070
   380
1005
29
1001
ACAD_DSTYLE_DIM_EXT1_LINETYPE
1070
   381
1005
29
1001
ACAD_DSTYLE_DIM_EXT2_LINETYPE
1070
   382
1005
29
  0
DIMSTYLE
105
2FE
330
33
100
AcDbSymbolTableRecord
100
AcDbDimStyleTableRecord
  2
AM_DIN$3
 70
     0
  4
"
 41
3.5
 42
1.0
 43
10.0
 44
1.0
 47
0.1
 48
0.1
 73
     0
 77
     1
 78
     8
 79
     2
140
3.5
141
0.0
143
0.0393701
146
0.71
147
1.5
176
   256
177
   256
178
     2
271
     2
272
     3
274
     4
283
     0
284
     8
288
     1
289
     0
340
26
371
    -1
372
    -1
1001
ACAD_DSTYLE_DIMJOGGED_JOGANGLE_SYMBOL
1070
   384
1040
1.570796326794896
1001
ACAD_DSTYLE_DIM_LINETYPE
1070
   380
1005
29
1001
ACAD_DSTYLE_DIM_EXT1_LINETYPE
1070
   381
1005
29
1001
ACAD_DSTYLE_DIM_EXT2_LINETYPE
1070
   382
1005
29
  0
DIMSTYLE
105
2FF
330
33
100
AcDbSymbolTableRecord
100
AcDbDimStyleTableRecord
  2
AM_DIN$4
 70
     0
  4
"
 41
3.5
 42
1.0
 43
10.0
 44
1.0
 47
0.1
 48
0.1
 73
     0
 74
     0
 77
     1
 78
     8
 79
     2
140
3.5
141
0.0
143
0.0393701
146
0.71
147
1.5
172
     1
176
   256
177
   256
178
     2
271
     2
272
     3
274
     4
283
     0
284
     8
340
26
371
    -1
372
    -1
1001
ACAD_DSTYLE_DIMJOGGED_JOGANGLE_SYMBOL
1070
   384
1040
1.570796326794896
1001
ACAD_DSTYLE_DIM_LINETYPE
1070
   380
1005
29
1001
ACAD_DSTYLE_DIM_EXT1_LINETYPE
1070
   381
1005
29
1001
ACAD_DSTYLE_DIM_EXT2_LINETYPE
1070
   382
1005
29
  0
DIMSTYLE
105
300
330
33
100
AcDbSymbolTableRecord
100
AcDbDimStyleTableRecord
  2
AM_DIN$6
 70
     0
  4
"
 41
3.5
 42
1.0
 43
10.0
 44
1.0
 47
0.1
 48
0.1
 73
     0
 74
     0
 78
     8
 79
     2
140
3.5
141
0.0
143
0.0393701
146
0.71
147
1.5
172
     1
176
   256
177
   256
178
     2
271
     2
272
     3
274
     4
283
     0
284
     8
340
26
371
    -1
372
    -1
1001
ACAD_DSTYLE_DIMJOGGED_JOGANGLE_SYMBOL
1070
   384
1040
1.570796326794896
1001
ACAD_DSTYLE_DIM_LINETYPE
1070
   380
1005
29
1001
ACAD_DSTYLE_DIM_EXT1_LINETYPE
1070
   381
1005
29
1001
ACAD_DSTYLE_DIM_EXT2_LINETYPE
1070
   382
1005
29
  0
DIMSTYLE
105
301
330
33
100
AcDbSymbolTableRecord
100
AcDbDimStyleTableRecord
  2
AM_DIN$7
 70
     0
  4
"
 41
3.5
 42
1.0
 43
10.0
 44
1.0
 47
0.1
 48
0.1
 73
     0
 74
     0
 77
     1
 78
     8
 79
     2
140
3.5
141
0.0
143
0.0393701
146
0.71
147
1.5
172
     1
176
   256
177
   256
178
     2
271
     2
272
     3
274
     4
283
     0
284
     8
340
26
371
    -1
372
    -1
1001
ACAD_DSTYLE_DIMJOGGED_JOGANGLE_SYMBOL
1070
   384
1040
1.570796326794896
1001
ACAD_DSTYLE_DIM_LINETYPE
1070
   380
1005
29
1001
ACAD_DSTYLE_DIM_EXT1_LINETYPE
1070
   381
1005
29
1001
ACAD_DSTYLE_DIM_EXT2_LINETYPE
1070
   382
1005
29
  0
DIMSTYLE
105
302
330
33
100
AcDbSymbolTableRecord
100
AcDbDimStyleTableRecord
  2
AM_DIN$SF
 70
     0
  4
"
 41
3.5
 42
1.0
 43
10.0
 44
1.0
 47
0.1
 48
0.1
 73
     0
 74
     0
 75
     1
 76
     1
 77
     1
 78
     8
 79
     2
140
3.5
141
0.0
143
0.0393701
146
0.71
147
1.5
172
     1
176
   256
177
   256
178
     2
271
     2
272
     3
274
     4
283
     0
284
     8
340
26
371
    -1
372
    -1
1001
ACAD_DSTYLE_DIMJOGGED_JOGANGLE_SYMBOL
1070
   384
1040
1.570796326794896
1001
ACAD_DSTYLE_DIM_LINETYPE
1070
   380
1005
29
1001
ACAD_DSTYLE_DIM_EXT1_LINETYPE
1070
   381
1005
29
1001
ACAD_DSTYLE_DIM_EXT2_LINETYPE
1070
   382
1005
29
  0
DIMSTYLE
105
303
330
33
100
AcDbSymbolTableRecord
100
AcDbDimStyleTableRecord
  2
AM_DIN$SH
 70
     0
  4
"
 41
3.5
 42
1.0
 43
10.0
 44
1.0
 47
0.1
 48
0.1
 73
     0
 74
     0
 75
     1
 76
     1
 77
     1
 78
     8
 79
     2
140
3.5
141
0.0
143
0.0393701
144
2.0
146
0.71
147
1.5
172
     1
173
     1
176
   256
177
   256
178
     2
271
     2
272
     3
274
     4
283
     0
284
     8
340
26
343
304
371
    -1
372
    -1
1001
ACAD_DSTYLE_DIMJOGGED_JOGANGLE_SYMBOL
1070
   384
1040
1.570796326794896
1001
ACAD_DSTYLE_DIM_LINETYPE
1070
   380
1005
29
1001
ACAD_DSTYLE_DIM_EXT1_LINETYPE
1070
   381
1005
29
1001
ACAD_DSTYLE_DIM_EXT2_LINETYPE
1070
   382
1005
29
  0
DIMSTYLE
105
34
102
{ACAD_REACTORS
330
287
330
27A
330
12F
330
122
330
115
330
108
330
F7
330
E9
330
DC
330
CF
330
C2
330
B5
330
A8
330
96
330
88
330
72
330
1FF
330
1F1
330
140
102
}
330
33
100
AcDbSymbolTableRecord
100
AcDbDimStyleTableRecord
  2
Katalog 09
 70
     0
 41
4.0
 42
0.0
 43
8.0
 44
1.0
 73
     0
 74
     0
 77
     1
 78
     8
140
4.349999999999999
141
1.5
143
25.39999999999999
146
0.4285714285714286
147
1.0
172
     1
174
     1
176
     2
177
     2
178
     3
271
     2
272
     2
284
     8
285
     8
286
     8
340
35
1001
ACAD_DSTYLE_DIMBREAK
1070
   391
1040
3.75
1001
ACAD_DSTYLE_DIMJAG
1070
   388
1040
1.5
1001
ACAD_DSTYLE_DIMTALN
1070
   392
1070
     0
  0
ENDTAB
  0
TABLE
  2
BLOCK_RECORD
  5
1
330
0
100
AcDbSymbolTable
 70
    21
  0
BLOCK_RECORD
  5
2
102
{ACAD_XDICTIONARY
360
3
102
}
330
1
100
AcDbSymbolTableRecord
100
AcDbBlockTableRecord
  2
*MODEL_SPACE
340
17
  0
BLOCK_RECORD
  5
1B
330
1
100
AcDbSymbolTableRecord
100
AcDbBlockTableRecord
  2
*PAPER_SPACE
340
1E
  0
BLOCK_RECORD
  5
304
330
1
100
AcDbSymbolTableRecord
100
AcDbBlockTableRecord
  2
GENAXEH
340
0
  0
BLOCK_RECORD
  5
288
330
1
100
AcDbSymbolTableRecord
100
AcDbBlockTableRecord
  2
*D1
340
0
  0
BLOCK_RECORD
  5
27B
330
1
100
AcDbSymbolTableRecord
100
AcDbBlockTableRecord
  2
*D2
340
0
  0
BLOCK_RECORD
  5
130
330
1
100
AcDbSymbolTableRecord
100
AcDbBlockTableRecord
  2
*D3
340
0
  0
BLOCK_RECORD
  5
123
330
1
100
AcDbSymbolTableRecord
100
AcDbBlockTableRecord
  2
*D4
340
0
  0
BLOCK_RECORD
  5
116
330
1
100
AcDbSymbolTableRecord
100
AcDbBlockTableRecord
  2
*D5
340
0
  0
BLOCK_RECORD
  5
109
330
1
100
AcDbSymbolTableRecord
100
AcDbBlockTableRecord
  2
*D6
340
0
  0
BLOCK_RECORD
  5
F8
330
1
100
AcDbSymbolTableRecord
100
AcDbBlockTableRecord
  2
*D7
340
0
  0
BLOCK_RECORD
  5
EA
330
1
100
AcDbSymbolTableRecord
100
AcDbBlockTableRecord
  2
*D8
340
0
  0
BLOCK_RECORD
  5
DD
330
1
100
AcDbSymbolTableRecord
100
AcDbBlockTableRecord
  2
*D9
340
0
  0
BLOCK_RECORD
  5
D0
330
1
100
AcDbSymbolTableRecord
100
AcDbBlockTableRecord
  2
*D10
340
0
  0
BLOCK_RECORD
  5
C3
330
1
100
AcDbSymbolTableRecord
100
AcDbBlockTableRecord
  2
*D11
340
0
  0
BLOCK_RECORD
  5
B6
330
1
100
AcDbSymbolTableRecord
100
AcDbBlockTableRecord
  2
*D12
340
0
  0
BLOCK_RECORD
  5
A9
330
1
100
AcDbSymbolTableRecord
100
AcDbBlockTableRecord
  2
*D13
340
0
  0
BLOCK_RECORD
  5
97
330
1
100
AcDbSymbolTableRecord
100
AcDbBlockTableRecord
  2
*D14
340
0
  0
BLOCK_RECORD
  5
89
330
1
100
AcDbSymbolTableRecord
100
AcDbBlockTableRecord
  2
*D15
340
0
  0
BLOCK_RECORD
  5
73
330
1
100
AcDbSymbolTableRecord
100
AcDbBlockTableRecord
  2
*D16
340
0
  0
BLOCK_RECORD
  5
200
330
1
100
AcDbSymbolTableRecord
100
AcDbBlockTableRecord
  2
*D17
340
0
  0
BLOCK_RECORD
  5
1F2
330
1
100
AcDbSymbolTableRecord
100
AcDbBlockTableRecord
  2
*D18
340
0
  0
BLOCK_RECORD
  5
141
330
1
100
AcDbSymbolTableRecord
100
AcDbBlockTableRecord
  2
*D19
340
0
  0
BLOCK_RECORD
  5
2E8
330
1
100
AcDbSymbolTableRecord
100
AcDbBlockTableRecord
  2
_ACMFILLED30
340
0
  0
ENDTAB
  0
ENDSEC
  0
SECTION
  2
BLOCKS
  0
BLOCK
  5
5
330
2
100
AcDbEntity
  8
0
100
AcDbBlockBegin
  2
*MODEL_SPACE
 70
     0
 10
0.0
 20
0.0
 30
0.0
  3
*MODEL_SPACE
  1

  0
ENDBLK
  5
16
330
2
100
AcDbEntity
  8
0
100
AcDbBlockEnd
  0
BLOCK
  5
1C
330
1B
100
AcDbEntity
 67
     1
  8
0
100
AcDbBlockBegin
  2
*PAPER_SPACE
 70
     0
 10
0.0
 20
0.0
 30
0.0
  3
*PAPER_SPACE
  1

  0
ENDBLK
  5
1D
330
1B
100
AcDbEntity
 67
     1
  8
0
100
AcDbBlockEnd
  0
BLOCK
  5
305
330
304
100
AcDbEntity
  8
0
100
AcDbBlockBegin
  2
GENAXEH
 70
     0
 10
0.0
 20
0.0
 30
0.0
  3
GENAXEH
  1

  0
LINE
  5
306
330
304
100
AcDbEntity
  8
0
100
AcDbLine
 10
-1.0
 20
0.0
 30
0.0
 11
1.0
 21
0.0
 31
0.0
  0
ENDBLK
  5
307
330
304
100
AcDbEntity
  8
0
100
AcDbBlockEnd
  0
BLOCK
  5
289
330
288
100
AcDbEntity
  8
0
100
AcDbBlockBegin
  2
*D1
 70
     1
 10
0.0
 20
0.0
 30
0.0
  3
*D1
  1

  0
LINE
  5
28A
330
288
100
AcDbEntity
  8
BEMASSUNG
 62
     2
370
    -2
100
AcDbLine
 10
108.7418269125658
 20
179.9365840431145
 30
0.0
 11
81.6346820475292
 21
179.9365840431145
 31
0.0
  0
LINE
  5
28B
330
288
100
AcDbEntity
  8
BEMASSUNG
 62
     2
370
    -2
100
AcDbLine
 10
108.7418269125658
 20
189.9365840431124
 30
0.0
 11
81.6346820475292
 21
189.9365840431124
 31
0.0
  0
LINE
  5
28C
330
288
100
AcDbEntity
  8
BEMASSUNG
 62
     2
370
    -2
100
AcDbLine
 10
82.63468204752919
 20
175.9365840431145
 30
0.0
 11
82.63468204752919
 21
171.9365840431145
 31
0.0
  0
LINE
  5
28D
330
288
100
AcDbEntity
  8
BEMASSUNG
 62
     2
370
    -2
100
AcDbLine
 10
82.63468204752919
 20
193.9365840431124
 30
0.0
 11
82.63468204752919
 21
197.9365840431124
 31
0.0
  0
LINE
  5
28E
330
288
100
AcDbEntity
  8
BEMASSUNG
 62
     2
370
    -2
100
AcDbLine
 10
82.63468204752919
 20
179.9365840431145
 30
0.0
 11
82.63468204752919
 21
189.9365840431124
 31
0.0
  0
SOLID
  5
28F
330
288
100
AcDbEntity
  8
BEMASSUNG
 62
     2
100
AcDbTrace
 10
81.96801538086253
 20
175.9365840431145
 30
0.0
 11
83.30134871419586
 21
175.9365840431145
 31
0.0
 12
82.63468204752919
 22
179.9365840431145
 32
0.0
 13
82.63468204752919
 23
179.9365840431145
 33
0.0
  0
SOLID
  5
290
330
288
100
AcDbEntity
  8
BEMASSUNG
 62
     2
100
AcDbTrace
 10
81.96801538086253
 20
193.9365840431124
 30
0.0
 11
83.30134871419586
 21
193.9365840431124
 31
0.0
 12
82.63468204752919
 22
189.9365840431124
 32
0.0
 13
82.63468204752919
 23
189.9365840431124
 33
0.0
  0
MTEXT
  5
291
330
288
100
AcDbEntity
  8
BEMASSUNG
 62
     3
100
AcDbMText
 10
79.41368955093981
 20
184.9365840431135
 30
0.0
 40
4.349999999999999
 41
0.0
 71
     5
 72
     1
  1
\A1;10
  7
ARIAL-STANDARD
 11
0.0000000000000001
 21
1.0
 31
0.0
 73
     1
 44
1.0
1001
ACAD
1000
MTEXTBEGIN
1070
    73
1070
     1
1070
    44
1040
1.0
1070
    74
1070
     0
1000
MTEXTEND
  0
POINT
  5
292
330
288
100
AcDbEntity
  8
DEFPOINTS
 62
     0
100
AcDbPoint
 10
108.7418269125658
 20
179.9365840431145
 30
0.0
  0
POINT
  5
293
330
288
100
AcDbEntity
  8
DEFPOINTS
 62
     0
100
AcDbPoint
 10
108.7418269125658
 20
189.9365840431124
 30
0.0
  0
POINT
  5
294
330
288
100
AcDbEntity
  8
DEFPOINTS
 62
     0
100
AcDbPoint
 10
82.63468204752919
 20
189.9365840431124
 30
0.0
  0
ENDBLK
  5
295
330
288
100
AcDbEntity
  8
0
100
AcDbBlockEnd
  0
BLOCK
  5
27C
330
27B
100
AcDbEntity
  8
0
100
AcDbBlockBegin
  2
*D2
 70
     1
 10
0.0
 20
0.0
 30
0.0
  3
*D2
  1

  0
LINE
  5
27D
330
27B
100
AcDbEntity
  8
BEMASSUNG
 62
     2
370
    -2
100
AcDbLine
 10
107.7418269125657
 20
188.9365840431124
 30
0.0
 11
107.7418269125657
 21
204.7942502531525
 31
0.0
  0
LINE
  5
27E
330
27B
100
AcDbEntity
  8
BEMASSUNG
 62
     2
370
    -2
100
AcDbLine
 10
127.7418269125658
 20
188.9365840431124
 30
0.0
 11
127.7418269125658
 21
204.7942502531525
 31
0.0
  0
LINE
  5
27F
330
27B
100
AcDbEntity
  8
BEMASSUNG
 62
     2
370
    -2
100
AcDbLine
 10
111.7418269125657
 20
203.7942502531524
 30
0.0
 11
123.7418269125658
 21
203.7942502531524
 31
0.0
  0
SOLID
  5
280
330
27B
100
AcDbEntity
  8
BEMASSUNG
 62
     2
100
AcDbTrace
 10
111.7418269125657
 20
204.4609169198191
 30
0.0
 11
111.7418269125657
 21
203.1275835864858
 31
0.0
 12
107.7418269125657
 22
203.7942502531524
 32
0.0
 13
107.7418269125657
 23
203.7942502531524
 33
0.0
  0
SOLID
  5
281
330
27B
100
AcDbEntity
  8
BEMASSUNG
 62
     2
100
AcDbTrace
 10
123.7418269125658
 20
204.4609169198191
 30
0.0
 11
123.7418269125658
 21
203.1275835864858
 31
0.0
 12
127.7418269125658
 22
203.7942502531524
 32
0.0
 13
127.7418269125658
 23
203.7942502531524
 33
0.0
  0
MTEXT
  5
282
330
27B
100
AcDbEntity
  8
BEMASSUNG
 62
     3
100
AcDbMText
 10
117.6592570683988
 20
207.0152427497418
 30
0.0
 40
4.349999999999999
 41
0.0
 71
     5
 72
     1
  1
\A1;20
  7
ARIAL-STANDARD
 73
     1
 44
1.0
1001
ACAD
1000
MTEXTBEGIN
1070
    73
1070
     1
1070
    44
1040
1.0
1070
    74
1070
     0
1000
MTEXTEND
  0
POINT
  5
283
330
27B
100
AcDbEntity
  8
DEFPOINTS
 62
     0
100
AcDbPoint
 10
107.7418269125657
 20
188.9365840431124
 30
0.0
  0
POINT
  5
284
330
27B
100
AcDbEntity
  8
DEFPOINTS
 62
     0
100
AcDbPoint
 10
127.7418269125658
 20
188.9365840431124
 30
0.0
  0
POINT
  5
285
330
27B
100
AcDbEntity
  8
DEFPOINTS
 62
     0
100
AcDbPoint
 10
127.7418269125658
 20
203.7942502531524
 30
0.0
  0
ENDBLK
  5
286
330
27B
100
AcDbEntity
  8
0
100
AcDbBlockEnd
  0
BLOCK
  5
131
330
130
100
AcDbEntity
  8
0
100
AcDbBlockBegin
  2
*D3
 70
     1
 10
0.0
 20
0.0
 30
0.0
  3
*D3
  1

  0
LINE
  5
132
330
130
100
AcDbEntity
  8
UMRISS05
 62
     2
370
    -2
100
AcDbLine
 10
108.741826912609
 20
220.7166674077948
 30
0.0
 11
81.63468204752922
 21
220.7166674077948
 31
0.0
  0
LINE
  5
133
330
130
100
AcDbEntity
  8
UMRISS05
 62
     2
370
    -2
100
AcDbLine
 10
110.991826912609
 20
232.7166674077948
 30
0.0
 11
81.63468204752922
 21
232.7166674077948
 31
0.0
  0
LINE
  5
134
330
130
100
AcDbEntity
  8
UMRISS05
 62
     2
370
    -2
100
AcDbLine
 10
82.63468204752923
 20
224.7166674077948
 30
0.0
 11
82.63468204752923
 21
228.7166674077948
 31
0.0
  0
SOLID
  5
135
330
130
100
AcDbEntity
  8
UMRISS05
 62
     2
100
AcDbTrace
 10
81.96801538086255
 20
224.7166674077948
 30
0.0
 11
83.30134871419589
 21
224.7166674077948
 31
0.0
 12
82.63468204752921
 22
220.7166674077948
 32
0.0
 13
82.63468204752921
 23
220.7166674077948
 33
0.0
  0
SOLID
  5
136
330
130
100
AcDbEntity
  8
UMRISS05
 62
     2
100
AcDbTrace
 10
81.96801538086255
 20
228.7166674077948
 30
0.0
 11
83.30134871419589
 21
228.7166674077948
 31
0.0
 12
82.63468204752923
 22
232.7166674077948
 32
0.0
 13
82.63468204752923
 23
232.7166674077948
 33
0.0
  0
MTEXT
  5
137
330
130
100
AcDbEntity
  8
UMRISS05
 62
     3
100
AcDbMText
 10
79.45078027399576
 20
226.7166674077948
 30
0.0
 40
4.349999999999999
 41
0.0
 71
     5
 72
     1
  1
\A1;12
  7
ARIAL-STANDARD
 11
0.0000000000000001
 21
1.0
 31
0.0
 73
     1
 44
1.0
1001
ACAD
1000
MTEXTBEGIN
1070
    73
1070
     1
1070
    44
1040
1.0
1070
    74
1070
     0
1000
MTEXTEND
  0
POINT
  5
138
330
130
100
AcDbEntity
  8
DEFPOINTS
 62
     0
100
AcDbPoint
 10
108.741826912609
 20
220.7166674077948
 30
0.0
  0
POINT
  5
139
330
130
100
AcDbEntity
  8
DEFPOINTS
 62
     0
100
AcDbPoint
 10
110.991826912609
 20
232.7166674077948
 30
0.0
  0
POINT
  5
13A
330
130
100
AcDbEntity
  8
DEFPOINTS
 62
     0
100
AcDbPoint
 10
82.63468204752923
 20
232.7166674077948
 30
0.0
  0
ENDBLK
  5
13B
330
130
100
AcDbEntity
  8
0
100
AcDbBlockEnd
  0
BLOCK
  5
124
330
123
100
AcDbEntity
  8
0
100
AcDbBlockBegin
  2
*D4
 70
     1
 10
0.0
 20
0.0
 30
0.0
  3
*D4
  1

  0
LINE
  5
125
330
123
100
AcDbEntity
  8
UMRISS05
 62
     2
370
    -2
100
AcDbLine
 10
110.991826912609
 20
425.716667407827
 30
0.0
 11
81.63468204752922
 21
425.716667407827
 31
0.0
  0
LINE
  5
126
330
123
100
AcDbEntity
  8
UMRISS05
 62
     2
370
    -2
100
AcDbLine
 10
108.741826912609
 20
437.7166674077948
 30
0.0
 11
81.63468204752922
 21
437.7166674077948
 31
0.0
  0
LINE
  5
127
330
123
100
AcDbEntity
  8
UMRISS05
 62
     2
370
    -2
100
AcDbLine
 10
82.63468204752923
 20
429.716667407827
 30
0.0
 11
82.63468204752923
 21
433.7166674077947
 31
0.0
  0
SOLID
  5
128
330
123
100
AcDbEntity
  8
UMRISS05
 62
     2
100
AcDbTrace
 10
81.96801538086255
 20
429.716667407827
 30
0.0
 11
83.30134871419589
 21
429.716667407827
 31
0.0
 12
82.63468204752923
 22
425.716667407827
 32
0.0
 13
82.63468204752923
 23
425.716667407827
 33
0.0
  0
SOLID
  5
129
330
123
100
AcDbEntity
  8
UMRISS05
 62
     2
100
AcDbTrace
 10
81.96801538086255
 20
433.7166674077947
 30
0.0
 11
83.30134871419589
 21
433.7166674077947
 31
0.0
 12
82.63468204752923
 22
437.7166674077948
 32
0.0
 13
82.63468204752923
 23
437.7166674077948
 33
0.0
  0
MTEXT
  5
12A
330
123
100
AcDbEntity
  8
UMRISS05
 62
     3
100
AcDbMText
 10
79.45078027399573
 20
431.7166674078108
 30
0.0
 40
4.349999999999999
 41
0.0
 71
     5
 72
     1
  1
\A1;12
  7
ARIAL-STANDARD
 11
0.0000000000000001
 21
1.0
 31
0.0
 73
     1
 44
1.0
1001
ACAD
1000
MTEXTBEGIN
1070
    73
1070
     1
1070
    44
1040
1.0
1070
    74
1070
     0
1000
MTEXTEND
  0
POINT
  5
12B
330
123
100
AcDbEntity
  8
DEFPOINTS
 62
     0
100
AcDbPoint
 10
110.991826912609
 20
425.716667407827
 30
0.0
  0
POINT
  5
12C
330
123
100
AcDbEntity
  8
DEFPOINTS
 62
     0
100
AcDbPoint
 10
108.741826912609
 20
437.7166674077948
 30
0.0
  0
POINT
  5
12D
330
123
100
AcDbEntity
  8
DEFPOINTS
 62
     0
100
AcDbPoint
 10
82.63468204752923
 20
437.7166674077948
 30
0.0
  0
ENDBLK
  5
12E
330
123
100
AcDbEntity
  8
0
100
AcDbBlockEnd
  0
BLOCK
  5
117
330
116
100
AcDbEntity
  8
0
100
AcDbBlockBegin
  2
*D5
 70
     1
 10
0.0
 20
0.0
 30
0.0
  3
*D5
  1

  0
LINE
  5
118
330
116
100
AcDbEntity
  8
UMRISS05
 62
     2
370
    -2
100
AcDbLine
 10
110.991826912609
 20
425.716667407827
 30
0.0
 11
81.63468204752923
 21
425.716667407827
 31
0.0
  0
LINE
  5
119
330
116
100
AcDbEntity
  8
UMRISS05
 62
     2
370
    -2
100
AcDbLine
 10
110.7370043513709
 20
331.2166674077948
 30
0.0
 11
81.63468204752922
 21
331.2166674077948
 31
0.0
  0
LINE
  5
11A
330
116
100
AcDbEntity
  8
UMRISS05
 62
     2
370
    -2
100
AcDbLine
 10
82.63468204752923
 20
421.716667407827
 30
0.0
 11
82.63468204752921
 21
335.2166674077948
 31
0.0
  0
SOLID
  5
11B
330
116
100
AcDbEntity
  8
UMRISS05
 62
     2
100
AcDbTrace
 10
81.96801538086257
 20
421.716667407827
 30
0.0
 11
83.30134871419591
 21
421.716667407827
 31
0.0
 12
82.63468204752923
 22
425.716667407827
 32
0.0
 13
82.63468204752923
 23
425.716667407827
 33
0.0
  0
SOLID
  5
11C
330
116
100
AcDbEntity
  8
UMRISS05
 62
     2
100
AcDbTrace
 10
81.96801538086253
 20
335.2166674077948
 30
0.0
 11
83.30134871419588
 21
335.2166674077948
 31
0.0
 12
82.63468204752921
 22
331.2166674077948
 32
0.0
 13
82.63468204752921
 23
331.2166674077948
 33
0.0
  0
MTEXT
  5
11D
330
116
100
AcDbEntity
  8
UMRISS05
 62
     3
100
AcDbMText
 10
79.41368955093981
 20
382.3968039884269
 30
0.0
 40
4.349999999999999
 41
0.0
 71
     5
 72
     1
  1
\A1;94.5
  7
ARIAL-STANDARD
 11
0.0000000000000001
 21
1.0
 31
0.0
 73
     1
 44
1.0
1001
ACAD
1000
MTEXTBEGIN
1070
    73
1070
     1
1070
    44
1040
1.0
1070
    74
1070
     0
1000
MTEXTEND
  0
POINT
  5
11E
330
116
100
AcDbEntity
  8
DEFPOINTS
 62
     0
100
AcDbPoint
 10
110.991826912609
 20
425.716667407827
 30
0.0
  0
POINT
  5
11F
330
116
100
AcDbEntity
  8
DEFPOINTS
 62
     0
100
AcDbPoint
 10
110.7370043513709
 20
331.2166674077948
 30
0.0
  0
POINT
  5
120
330
116
100
AcDbEntity
  8
DEFPOINTS
 62
     0
100
AcDbPoint
 10
82.63468204752921
 20
331.2166674077948
 30
0.0
  0
ENDBLK
  5
121
330
116
100
AcDbEntity
  8
0
100
AcDbBlockEnd
  0
BLOCK
  5
10A
330
109
100
AcDbEntity
  8
0
100
AcDbBlockBegin
  2
*D6
 70
     1
 10
0.0
 20
0.0
 30
0.0
  3
*D6
  1

  0
LINE
  5
10B
330
109
100
AcDbEntity
  8
UMRISS05
 62
     2
370
    -2
100
AcDbLine
 10
110.7370043513709
 20
331.2166674077948
 30
0.0
 11
81.63468204752923
 21
331.2166674077948
 31
0.0
  0
LINE
  5
10C
330
109
100
AcDbEntity
  8
UMRISS05
 62
     2
370
    -2
100
AcDbLine
 10
110.991826912609
 20
232.7166674077948
 30
0.0
 11
81.63468204752922
 21
232.7166674077948
 31
0.0
  0
LINE
  5
10D
330
109
100
AcDbEntity
  8
UMRISS05
 62
     2
370
    -2
100
AcDbLine
 10
82.63468204752923
 20
327.2166674077948
 30
0.0
 11
82.63468204752923
 21
236.7166674077948
 31
0.0
  0
SOLID
  5
10E
330
109
100
AcDbEntity
  8
UMRISS05
 62
     2
100
AcDbTrace
 10
81.96801538086257
 20
327.2166674077948
 30
0.0
 11
83.30134871419591
 21
327.2166674077948
 31
0.0
 12
82.63468204752923
 22
331.2166674077948
 32
0.0
 13
82.63468204752923
 23
331.2166674077948
 33
0.0
  0
SOLID
  5
10F
330
109
100
AcDbEntity
  8
UMRISS05
 62
     2
100
AcDbTrace
 10
81.96801538086255
 20
236.7166674077948
 30
0.0
 11
83.30134871419589
 21
236.7166674077948
 31
0.0
 12
82.63468204752923
 22
232.7166674077948
 32
0.0
 13
82.63468204752923
 23
232.7166674077948
 33
0.0
  0
MTEXT
  5
110
330
109
100
AcDbEntity
  8
UMRISS05
 62
     3
100
AcDbMText
 10
79.41368955093982
 20
281.9666674077948
 30
0.0
 40
4.349999999999999
 41
0.0
 71
     5
 72
     1
  1
\A1;98.5
  7
ARIAL-STANDARD
 11
0.0000000000000001
 21
1.0
 31
0.0
 73
     1
 44
1.0
1001
ACAD
1000
MTEXTBEGIN
1070
    73
1070
     1
1070
    44
1040
1.0
1070
    74
1070
     0
1000
MTEXTEND
  0
POINT
  5
111
330
109
100
AcDbEntity
  8
DEFPOINTS
 62
     0
100
AcDbPoint
 10
110.7370043513709
 20
331.2166674077948
 30
0.0
  0
POINT
  5
112
330
109
100
AcDbEntity
  8
DEFPOINTS
 62
     0
100
AcDbPoint
 10
110.991826912609
 20
232.7166674077948
 30
0.0
  0
POINT
  5
113
330
109
100
AcDbEntity
  8
DEFPOINTS
 62
     0
100
AcDbPoint
 10
82.63468204752923
 20
232.7166674077948
 30
0.0
  0
ENDBLK
  5
114
330
109
100
AcDbEntity
  8
0
100
AcDbBlockEnd
  0
BLOCK
  5
F9
330
F8
100
AcDbEntity
  8
0
100
AcDbBlockBegin
  2
*D7
 70
     1
 10
0.0
 20
0.0
 30
0.0
  3
*D7
  1

  0
LINE
  5
FA
330
F8
100
AcDbEntity
  8
BEMASSUNG
 62
     2
370
    -2
100
AcDbLine
 10
110.7418269126095
 20
257.2166674077948
 30
0.0
 11
110.7418269126095
 21
254.3597825393931
 31
0.0
  0
LINE
  5
FB
330
F8
100
AcDbEntity
  8
BEMASSUNG
 62
     2
370
    -2
100
AcDbLine
 10
124.7418269126084
 20
257.2166674077948
 30
0.0
 11
124.7418269126084
 21
254.3597825393931
 31
0.0
  0
LINE
  5
FC
330
F8
100
AcDbEntity
  8
BEMASSUNG
 62
     2
370
    -2
100
AcDbLine
 10
114.7418269126095
 20
255.3597825393931
 30
0.0
 11
120.7418269126084
 21
255.3597825393931
 31
0.0
  0
SOLID
  5
FD
330
F8
100
AcDbEntity
  8
BEMASSUNG
 62
     2
100
AcDbTrace
 10
114.7418269126095
 20
256.0264492060598
 30
0.0
 11
114.7418269126095
 21
254.6931158727264
 31
0.0
 12
110.7418269126095
 22
255.3597825393931
 32
0.0
 13
110.7418269126095
 23
255.3597825393931
 33
0.0
  0
SOLID
  5
FE
330
F8
100
AcDbEntity
  8
BEMASSUNG
 62
     2
100
AcDbTrace
 10
120.7418269126084
 20
256.0264492060598
 30
0.0
 11
120.7418269126084
 21
254.6931158727264
 31
0.0
 12
124.7418269126084
 22
255.3597825393931
 32
0.0
 13
124.7418269126084
 23
255.3597825393931
 33
0.0
  0
MTEXT
  5
FF
330
F8
100
AcDbEntity
  8
BEMASSUNG
 62
     3
100
AcDbMText
 10
118.3344021336816
 20
258.5436843129265
 30
0.0
 40
4.349999999999999
 41
0.0
 71
     5
 72
     1
  1
\A1;14
  7
ARIAL-STANDARD
 73
     1
 44
1.0
1001
ACAD
1000
MTEXTBEGIN
1070
    73
1070
     1
1070
    44
1040
1.0
1070
    74
1070
     0
1000
MTEXTEND
  0
POINT
  5
100
330
F8
100
AcDbEntity
  8
DEFPOINTS
 62
     0
100
AcDbPoint
 10
110.7418269126095
 20
257.2166674077948
 30
0.0
  0
POINT
  5
101
330
F8
100
AcDbEntity
  8
DEFPOINTS
 62
     0
100
AcDbPoint
 10
124.7418269126084
 20
257.2166674077948
 30
0.0
  0
POINT
  5
102
330
F8
100
AcDbEntity
  8
DEFPOINTS
 62
     0
100
AcDbPoint
 10
124.7418269126084
 20
255.3597825393931
 30
0.0
  0
ENDBLK
  5
103
330
F8
100
AcDbEntity
  8
0
100
AcDbBlockEnd
  0
BLOCK
  5
EB
330
EA
100
AcDbEntity
  8
0
100
AcDbBlockBegin
  2
*D8
 70
     1
 10
0.0
 20
0.0
 30
0.0
  3
*D8
  1

  0
LINE
  5
EC
330
EA
100
AcDbEntity
  8
BEMASSUNG
 62
     2
370
    -2
100
AcDbLine
 10
127.741826912609
 20
392.2166674077947
 30
0.0
 11
147.8010589588353
 21
392.2166674077947
 31
0.0
  0
LINE
  5
ED
330
EA
100
AcDbEntity
  8
BEMASSUNG
 62
     2
370
    -2
100
AcDbLine
 10
126.741826912609
 20
437.7166674077948
 30
0.0
 11
147.8010589588353
 21
437.7166674077947
 31
0.0
  0
LINE
  5
EE
330
EA
100
AcDbEntity
  8
BEMASSUNG
 62
     2
370
    -2
100
AcDbLine
 10
146.8010589588353
 20
396.2166674077947
 30
0.0
 11
146.8010589588353
 21
433.7166674077947
 31
0.0
  0
SOLID
  5
EF
330
EA
100
AcDbEntity
  8
BEMASSUNG
 62
     2
100
AcDbTrace
 10
146.1343922921687
 20
396.2166674077947
 30
0.0
 11
147.467725625502
 21
396.2166674077947
 31
0.0
 12
146.8010589588353
 22
392.2166674077947
 32
0.0
 13
146.8010589588353
 23
392.2166674077947
 33
0.0
  0
SOLID
  5
F0
330
EA
100
AcDbEntity
  8
BEMASSUNG
 62
     2
100
AcDbTrace
 10
146.1343922921687
 20
433.7166674077947
 30
0.0
 11
147.467725625502
 21
433.7166674077947
 31
0.0
 12
146.8010589588353
 22
437.7166674077947
 32
0.0
 13
146.8010589588353
 23
437.7166674077947
 33
0.0
  0
MTEXT
  5
F1
330
EA
100
AcDbEntity
  8
BEMASSUNG
 62
     3
100
AcDbMText
 10
143.5889682357794
 20
414.9666674077947
 30
0.0
 40
4.349999999999999
 41
0.0
 71
     5
 72
     1
  1
\A1;45.5
  7
ARIAL-STANDARD
 11
0.0000000000000001
 21
1.0
 31
0.0
 73
     1
 44
1.0
1001
ACAD
1000
MTEXTBEGIN
1070
    73
1070
     1
1070
    44
1040
1.0
1070
    74
1070
     0
1000
MTEXTEND
  0
POINT
  5
F2
330
EA
100
AcDbEntity
  8
DEFPOINTS
 62
     0
100
AcDbPoint
 10
127.741826912609
 20
392.2166674077947
 30
0.0
  0
POINT
  5
F3
330
EA
100
AcDbEntity
  8
DEFPOINTS
 62
     0
100
AcDbPoint
 10
126.741826912609
 20
437.7166674077948
 30
0.0
  0
POINT
  5
F4
330
EA
100
AcDbEntity
  8
DEFPOINTS
 62
     0
100
AcDbPoint
 10
146.8010589588353
 20
437.7166674077947
 30
0.0
  0
ENDBLK
  5
F5
330
EA
100
AcDbEntity
  8
0
100
AcDbBlockEnd
  0
BLOCK
  5
DE
330
DD
100
AcDbEntity
  8
0
100
AcDbBlockBegin
  2
*D9
 70
     1
 10
0.0
 20
0.0
 30
0.0
  3
*D9
  1

  0
LINE
  5
DF
330
DD
100
AcDbEntity
  8
BEMASSUNG
 62
     2
370
    -2
100
AcDbLine
 10
127.741826912609
 20
347.2166674077947
 30
0.0
 11
147.8010589588353
 21
347.2166674077947
 31
0.0
  0
LINE
  5
E0
330
DD
100
AcDbEntity
  8
BEMASSUNG
 62
     2
370
    -2
100
AcDbLine
 10
127.741826912609
 20
392.2166674077947
 30
0.0
 11
147.8010589588353
 21
392.2166674077947
 31
0.0
  0
LINE
  5
E1
330
DD
100
AcDbEntity
  8
BEMASSUNG
 62
     2
370
    -2
100
AcDbLine
 10
146.8010589588353
 20
351.2166674077946
 30
0.0
 11
146.8010589588353
 21
388.2166674077947
 31
0.0
  0
SOLID
  5
E2
330
DD
100
AcDbEntity
  8
BEMASSUNG
 62
     2
100
AcDbTrace
 10
146.1343922921687
 20
351.2166674077946
 30
0.0
 11
147.467725625502
 21
351.2166674077946
 31
0.0
 12
146.8010589588353
 22
347.2166674077947
 32
0.0
 13
146.8010589588353
 23
347.2166674077947
 33
0.0
  0
SOLID
  5
E3
330
DD
100
AcDbEntity
  8
BEMASSUNG
 62
     2
100
AcDbTrace
 10
146.1343922921687
 20
388.2166674077947
 30
0.0
 11
147.467725625502
 21
388.2166674077947
 31
0.0
 12
146.8010589588353
 22
392.2166674077947
 32
0.0
 13
146.8010589588353
 23
392.2166674077947
 33
0.0
  0
MTEXT
  5
E4
330
DD
100
AcDbEntity
  8
BEMASSUNG
 62
     3
100
AcDbMText
 10
143.5889682357794
 20
369.7166674077947
 30
0.0
 40
4.349999999999999
 41
0.0
 71
     5
 72
     1
  1
\A1;45
  7
ARIAL-STANDARD
 11
0.0000000000000001
 21
1.0
 31
0.0
 73
     1
 44
1.0
1001
ACAD
1000
MTEXTBEGIN
1070
    73
1070
     1
1070
    44
1040
1.0
1070
    74
1070
     0
1000
MTEXTEND
  0
POINT
  5
E5
330
DD
100
AcDbEntity
  8
DEFPOINTS
 62
     0
100
AcDbPoint
 10
127.741826912609
 20
347.2166674077947
 30
0.0
  0
POINT
  5
E6
330
DD
100
AcDbEntity
  8
DEFPOINTS
 62
     0
100
AcDbPoint
 10
127.741826912609
 20
392.2166674077947
 30
0.0
  0
POINT
  5
E7
330
DD
100
AcDbEntity
  8
DEFPOINTS
 62
     0
100
AcDbPoint
 10
146.8010589588353
 20
392.2166674077947
 30
0.0
  0
ENDBLK
  5
E8
330
DD
100
AcDbEntity
  8
0
100
AcDbBlockEnd
  0
BLOCK
  5
D1
330
D0
100
AcDbEntity
  8
0
100
AcDbBlockBegin
  2
*D10
 70
     1
 10
0.0
 20
0.0
 30
0.0
  3
*D10
  1

  0
LINE
  5
D2
330
D0
100
AcDbEntity
  8
BEMASSUNG
 62
     2
370
    -2
100
AcDbLine
 10
122.741826912609
 20
311.7166674077948
 30
0.0
 11
147.8010589588353
 21
311.7166674077947
 31
0.0
  0
LINE
  5
D3
330
D0
100
AcDbEntity
  8
BEMASSUNG
 62
     2
370
    -2
100
AcDbLine
 10
127.741826912609
 20
347.2166674077947
 30
0.0
 11
147.8010589588353
 21
347.2166674077947
 31
0.0
  0
LINE
  5
D4
330
D0
100
AcDbEntity
  8
BEMASSUNG
 62
     2
370
    -2
100
AcDbLine
 10
146.8010589588353
 20
315.7166674077947
 30
0.0
 11
146.8010589588353
 21
343.2166674077947
 31
0.0
  0
SOLID
  5
D5
330
D0
100
AcDbEntity
  8
BEMASSUNG
 62
     2
100
AcDbTrace
 10
146.1343922921687
 20
315.7166674077947
 30
0.0
 11
147.467725625502
 21
315.7166674077947
 31
0.0
 12
146.8010589588353
 22
311.7166674077947
 32
0.0
 13
146.8010589588353
 23
311.7166674077947
 33
0.0
  0
SOLID
  5
D6
330
D0
100
AcDbEntity
  8
BEMASSUNG
 62
     2
100
AcDbTrace
 10
146.1343922921687
 20
343.2166674077947
 30
0.0
 11
147.467725625502
 21
343.2166674077947
 31
0.0
 12
146.8010589588353
 22
347.2166674077947
 32
0.0
 13
146.8010589588353
 23
347.2166674077947
 33
0.0
  0
MTEXT
  5
D7
330
D0
100
AcDbEntity
  8
BEMASSUNG
 62
     3
100
AcDbMText
 10
143.5785828333237
 20
329.4666674077947
 30
0.0
 40
4.349999999999999
 41
0.0
 71
     5
 72
     1
  1
\A1;35.5
  7
ARIAL-STANDARD
 11
0.0000000000000001
 21
1.0
 31
0.0
 73
     1
 44
1.0
1001
ACAD
1000
MTEXTBEGIN
1070
    73
1070
     1
1070
    44
1040
1.0
1070
    74
1070
     0
1000
MTEXTEND
  0
POINT
  5
D8
330
D0
100
AcDbEntity
  8
DEFPOINTS
 62
     0
100
AcDbPoint
 10
122.741826912609
 20
311.7166674077948
 30
0.0
  0
POINT
  5
D9
330
D0
100
AcDbEntity
  8
DEFPOINTS
 62
     0
100
AcDbPoint
 10
127.741826912609
 20
347.2166674077947
 30
0.0
  0
POINT
  5
DA
330
D0
100
AcDbEntity
  8
DEFPOINTS
 62
     0
100
AcDbPoint
 10
146.8010589588353
 20
347.2166674077947
 30
0.0
  0
ENDBLK
  5
DB
330
D0
100
AcDbEntity
  8
0
100
AcDbBlockEnd
  0
BLOCK
  5
C4
330
C3
100
AcDbEntity
  8
0
100
AcDbBlockBegin
  2
*D11
 70
     1
 10
0.0
 20
0.0
 30
0.0
  3
*D11
  1

  0
LINE
  5
C5
330
C3
100
AcDbEntity
  8
BEMASSUNG
 62
     2
370
    -2
100
AcDbLine
 10
122.741826912609
 20
269.7166674077953
 30
0.0
 11
147.8010589588353
 21
269.7166674077952
 31
0.0
  0
LINE
  5
C6
330
C3
100
AcDbEntity
  8
BEMASSUNG
 62
     2
370
    -2
100
AcDbLine
 10
126.741826912609
 20
220.7166674077948
 30
0.0
 11
147.8010589588353
 21
220.7166674077948
 31
0.0
  0
LINE
  5
C7
330
C3
100
AcDbEntity
  8
BEMASSUNG
 62
     2
370
    -2
100
AcDbLine
 10
146.8010589588353
 20
265.7166674077952
 30
0.0
 11
146.8010589588353
 21
224.7166674077948
 31
0.0
  0
SOLID
  5
C8
330
C3
100
AcDbEntity
  8
BEMASSUNG
 62
     2
100
AcDbTrace
 10
146.1343922921687
 20
265.7166674077952
 30
0.0
 11
147.467725625502
 21
265.7166674077952
 31
0.0
 12
146.8010589588353
 22
269.7166674077952
 32
0.0
 13
146.8010589588353
 23
269.7166674077952
 33
0.0
  0
SOLID
  5
C9
330
C3
100
AcDbEntity
  8
BEMASSUNG
 62
     2
100
AcDbTrace
 10
146.1343922921687
 20
224.7166674077948
 30
0.0
 11
147.467725625502
 21
224.7166674077948
 31
0.0
 12
146.8010589588353
 22
220.7166674077948
 32
0.0
 13
146.8010589588353
 23
220.7166674077948
 33
0.0
  0
MTEXT
  5
CA
330
C3
100
AcDbEntity
  8
BEMASSUNG
 62
     3
100
AcDbMText
 10
143.580066462246
 20
245.216667407795
 30
0.0
 40
4.349999999999999
 41
0.0
 71
     5
 72
     1
  1
\A1;49
  7
ARIAL-STANDARD
 11
0.0000000000000001
 21
1.0
 31
0.0
 73
     1
 44
1.0
1001
ACAD
1000
MTEXTBEGIN
1070
    73
1070
     1
1070
    44
1040
1.0
1070
    74
1070
     0
1000
MTEXTEND
  0
POINT
  5
CB
330
C3
100
AcDbEntity
  8
DEFPOINTS
 62
     0
100
AcDbPoint
 10
122.741826912609
 20
269.7166674077953
 30
0.0
  0
POINT
  5
CC
330
C3
100
AcDbEntity
  8
DEFPOINTS
 62
     0
100
AcDbPoint
 10
126.741826912609
 20
220.7166674077948
 30
0.0
  0
POINT
  5
CD
330
C3
100
AcDbEntity
  8
DEFPOINTS
 62
     0
100
AcDbPoint
 10
146.8010589588353
 20
220.7166674077948
 30
0.0
  0
ENDBLK
  5
CE
330
C3
100
AcDbEntity
  8
0
100
AcDbBlockEnd
  0
BLOCK
  5
B7
330
B6
100
AcDbEntity
  8
0
100
AcDbBlockBegin
  2
*D12
 70
     1
 10
0.0
 20
0.0
 30
0.0
  3
*D12
  1

  0
LINE
  5
B8
330
B6
100
AcDbEntity
  8
BEMASSUNG
 62
     2
370
    -2
100
AcDbLine
 10
122.741826912609
 20
269.7166674077953
 30
0.0
 11
147.8010589588353
 21
269.7166674077952
 31
0.0
  0
LINE
  5
B9
330
B6
100
AcDbEntity
  8
BEMASSUNG
 62
     2
370
    -2
100
AcDbLine
 10
122.741826912609
 20
311.7166674077948
 30
0.0
 11
147.8010589588353
 21
311.7166674077947
 31
0.0
  0
LINE
  5
BA
330
B6
100
AcDbEntity
  8
BEMASSUNG
 62
     2
370
    -2
100
AcDbLine
 10
146.8010589588353
 20
273.7166674077952
 30
0.0
 11
146.8010589588353
 21
307.7166674077947
 31
0.0
  0
SOLID
  5
BB
330
B6
100
AcDbEntity
  8
BEMASSUNG
 62
     2
100
AcDbTrace
 10
146.1343922921687
 20
273.7166674077952
 30
0.0
 11
147.467725625502
 21
273.7166674077952
 31
0.0
 12
146.8010589588353
 22
269.7166674077952
 32
0.0
 13
146.8010589588353
 23
269.7166674077952
 33
0.0
  0
SOLID
  5
BC
330
B6
100
AcDbEntity
  8
BEMASSUNG
 62
     2
100
AcDbTrace
 10
146.1343922921687
 20
307.7166674077947
 30
0.0
 11
147.467725625502
 21
307.7166674077947
 31
0.0
 12
146.8010589588353
 22
311.7166674077947
 32
0.0
 13
146.8010589588353
 23
311.7166674077947
 33
0.0
  0
MTEXT
  5
BD
330
B6
100
AcDbEntity
  8
BEMASSUNG
 62
     3
100
AcDbMText
 10
143.6171571853019
 20
290.716667407795
 30
0.0
 40
4.349999999999999
 41
0.0
 71
     5
 72
     1
  1
\A1;42
  7
ARIAL-STANDARD
 11
0.0000000000000001
 21
1.0
 31
0.0
 73
     1
 44
1.0
1001
ACAD
1000
MTEXTBEGIN
1070
    73
1070
     1
1070
    44
1040
1.0
1070
    74
1070
     0
1000
MTEXTEND
  0
POINT
  5
BE
330
B6
100
AcDbEntity
  8
DEFPOINTS
 62
     0
100
AcDbPoint
 10
122.741826912609
 20
269.7166674077953
 30
0.0
  0
POINT
  5
BF
330
B6
100
AcDbEntity
  8
DEFPOINTS
 62
     0
100
AcDbPoint
 10
122.741826912609
 20
311.7166674077948
 30
0.0
  0
POINT
  5
C0
330
B6
100
AcDbEntity
  8
DEFPOINTS
 62
     0
100
AcDbPoint
 10
146.8010589588353
 20
311.7166674077947
 30
0.0
  0
ENDBLK
  5
C1
330
B6
100
AcDbEntity
  8
0
100
AcDbBlockEnd
  0
BLOCK
  5
AA
330
A9
100
AcDbEntity
  8
0
100
AcDbBlockBegin
  2
*D13
 70
     1
 10
0.0
 20
0.0
 30
0.0
  3
*D13
  1

  0
LINE
  5
AB
330
A9
100
AcDbEntity
  8
BEMASSUNG
 62
     2
370
    -2
100
AcDbLine
 10
126.741826912609
 20
220.7166674077948
 30
0.0
 11
157.1797469285228
 21
220.7166674077948
 31
0.0
  0
LINE
  5
AC
330
A9
100
AcDbEntity
  8
BEMASSUNG
 62
     2
370
    -2
100
AcDbLine
 10
126.741826912609
 20
437.7166674077948
 30
0.0
 11
157.1797469285229
 21
437.7166674077947
 31
0.0
  0
LINE
  5
AD
330
A9
100
AcDbEntity
  8
BEMASSUNG
 62
     2
370
    -2
100
AcDbLine
 10
156.1797469285228
 20
224.7166674077948
 30
0.0
 11
156.1797469285229
 21
433.7166674077947
 31
0.0
  0
SOLID
  5
AE
330
A9
100
AcDbEntity
  8
BEMASSUNG
 62
     2
100
AcDbTrace
 10
155.5130802618562
 20
224.7166674077948
 30
0.0
 11
156.8464135951895
 21
224.7166674077948
 31
0.0
 12
156.1797469285228
 22
220.7166674077948
 32
0.0
 13
156.1797469285228
 23
220.7166674077948
 33
0.0
  0
SOLID
  5
AF
330
A9
100
AcDbEntity
  8
BEMASSUNG
 62
     2
100
AcDbTrace
 10
155.5130802618562
 20
433.7166674077947
 30
0.0
 11
156.8464135951895
 21
433.7166674077947
 31
0.0
 12
156.1797469285229
 22
437.7166674077947
 32
0.0
 13
156.1797469285229
 23
437.7166674077947
 33
0.0
  0
MTEXT
  5
B0
330
A9
100
AcDbEntity
  8
BEMASSUNG
 62
     3
100
AcDbMText
 10
152.9958451549894
 20
330.9470287109551
 30
0.0
 40
4.349999999999999
 41
0.0
 71
     5
 72
     1
  1
\A1;217
  7
ARIAL-STANDARD
 11
0.0000000000000001
 21
1.0
 31
0.0
 73
     1
 44
1.0
1001
ACAD
1000
MTEXTBEGIN
1070
    73
1070
     1
1070
    44
1040
1.0
1070
    74
1070
     0
1000
MTEXTEND
  0
POINT
  5
B1
330
A9
100
AcDbEntity
  8
DEFPOINTS
 62
     0
100
AcDbPoint
 10
126.741826912609
 20
220.7166674077948
 30
0.0
  0
POINT
  5
B2
330
A9
100
AcDbEntity
  8
DEFPOINTS
 62
     0
100
AcDbPoint
 10
126.741826912609
 20
437.7166674077948
 30
0.0
  0
POINT
  5
B3
330
A9
100
AcDbEntity
  8
DEFPOINTS
 62
     0
100
AcDbPoint
 10
156.1797469285229
 20
437.7166674077947
 30
0.0
  0
ENDBLK
  5
B4
330
A9
100
AcDbEntity
  8
0
100
AcDbBlockEnd
  0
BLOCK
  5
98
330
97
100
AcDbEntity
  8
0
100
AcDbBlockBegin
  2
*D14
 70
     1
 10
0.0
 20
0.0
 30
0.0
  3
*D14
  1

  0
LINE
  5
99
330
97
100
AcDbEntity
  8
UMRISS05
 62
     2
370
    -2
100
AcDbLine
 10
106.9723939494956
 20
369.7166674077947
 30
0.0
 11
89.9495819468645
 21
369.7166674077947
 31
0.0
  0
LINE
  5
9A
330
97
100
AcDbEntity
  8
UMRISS05
 62
     2
370
    -2
100
AcDbLine
 10
92.41726562322538
 20
347.7166674077948
 30
0.0
 11
89.94958194686448
 21
347.7166674077948
 31
0.0
  0
LINE
  5
9B
330
97
100
AcDbEntity
  8
UMRISS05
 62
     2
370
    -2
100
AcDbLine
 10
90.9495819468645
 20
365.7166674077947
 30
0.0
 11
90.94958194686448
 21
351.7166674077948
 31
0.0
  0
SOLID
  5
9C
330
97
100
AcDbEntity
  8
UMRISS05
 62
     2
100
AcDbTrace
 10
90.28291528019783
 20
365.7166674077947
 30
0.0
 11
91.61624861353116
 21
365.7166674077947
 31
0.0
 12
90.9495819468645
 22
369.7166674077947
 32
0.0
 13
90.9495819468645
 23
369.7166674077947
 33
0.0
  0
SOLID
  5
9D
330
97
100
AcDbEntity
  8
UMRISS05
 62
     2
100
AcDbTrace
 10
90.28291528019781
 20
351.7166674077948
 30
0.0
 11
91.61624861353116
 21
351.7166674077948
 31
0.0
 12
90.94958194686448
 22
347.7166674077948
 32
0.0
 13
90.94958194686448
 23
347.7166674077948
 33
0.0
  0
MTEXT
  5
9E
330
97
100
AcDbEntity
  8
UMRISS05
 62
     3
100
AcDbMText
 10
87.76568017333103
 20
353.2612705194805
 30
0.0
 40
4.349999999999999
 41
0.0
 71
     5
 72
     1
  1
\A1;22
  7
ARIAL-STANDARD
 11
0.0000000000000001
 21
1.0
 31
0.0
 73
     1
 44
1.0
1001
ACAD
1000
MTEXTBEGIN
1070
    73
1070
     1
1070
    44
1040
1.0
1070
    74
1070
     0
1000
MTEXTEND
  0
POINT
  5
9F
330
97
100
AcDbEntity
  8
DEFPOINTS
 62
     0
100
AcDbPoint
 10
106.9723939494956
 20
369.7166674077947
 30
0.0
  0
POINT
  5
A0
330
97
100
AcDbEntity
  8
DEFPOINTS
 62
     0
100
AcDbPoint
 10
92.41726562322538
 20
347.7166674077948
 30
0.0
  0
POINT
  5
A1
330
97
100
AcDbEntity
  8
DEFPOINTS
 62
     0
100
AcDbPoint
 10
90.94958194686448
 20
347.7166674077948
 30
0.0
  0
ENDBLK
  5
A2
330
97
100
AcDbEntity
  8
0
100
AcDbBlockEnd
  0
BLOCK
  5
8A
330
89
100
AcDbEntity
  8
0
100
AcDbBlockBegin
  2
*D15
 70
     1
 10
0.0
 20
0.0
 30
0.0
  3
*D15
  1

  0
LINE
  5
8B
330
89
100
AcDbEntity
  8
UMRISS05
 62
     2
370
    -2
100
AcDbLine
 10
92.41726562322538
 20
347.7166674077948
 30
0.0
 11
89.94958194686445
 21
347.7166674077948
 31
0.0
  0
LINE
  5
8C
330
89
100
AcDbEntity
  8
UMRISS05
 62
     2
370
    -2
100
AcDbLine
 10
104.747160169745
 20
290.716667407795
 30
0.0
 11
89.94958194686445
 21
290.716667407795
 31
0.0
  0
LINE
  5
8D
330
89
100
AcDbEntity
  8
UMRISS05
 62
     2
370
    -2
100
AcDbLine
 10
90.94958194686444
 20
343.7166674077948
 30
0.0
 11
90.94958194686444
 21
294.716667407795
 31
0.0
  0
SOLID
  5
8E
330
89
100
AcDbEntity
  8
UMRISS05
 62
     2
100
AcDbTrace
 10
90.28291528019776
 20
343.7166674077948
 30
0.0
 11
91.61624861353111
 21
343.7166674077948
 31
0.0
 12
90.94958194686444
 22
347.7166674077948
 32
0.0
 13
90.94958194686444
 23
347.7166674077948
 33
0.0
  0
SOLID
  5
8F
330
89
100
AcDbEntity
  8
UMRISS05
 62
     2
100
AcDbTrace
 10
90.28291528019776
 20
294.716667407795
 30
0.0
 11
91.61624861353111
 21
294.716667407795
 31
0.0
 12
90.94958194686444
 22
290.716667407795
 32
0.0
 13
90.94958194686444
 23
290.716667407795
 33
0.0
  0
MTEXT
  5
90
330
89
100
AcDbEntity
  8
UMRISS05
 62
     3
100
AcDbMText
 10
87.73749122380845
 20
319.2166674077949
 30
0.0
 40
4.349999999999999
 41
0.0
 71
     5
 72
     1
  1
\A1;57
  7
ARIAL-STANDARD
 11
0.0000000000000001
 21
1.0
 31
0.0
 73
     1
 44
1.0
1001
ACAD
1000
MTEXTBEGIN
1070
    73
1070
     1
1070
    44
1040
1.0
1070
    74
1070
     0
1000
MTEXTEND
  0
POINT
  5
91
330
89
100
AcDbEntity
  8
DEFPOINTS
 62
     0
100
AcDbPoint
 10
92.41726562322538
 20
347.7166674077948
 30
0.0
  0
POINT
  5
92
330
89
100
AcDbEntity
  8
DEFPOINTS
 62
     0
100
AcDbPoint
 10
104.747160169745
 20
290.716667407795
 30
0.0
  0
POINT
  5
93
330
89
100
AcDbEntity
  8
DEFPOINTS
 62
     0
100
AcDbPoint
 10
90.94958194686444
 20
290.716667407795
 30
0.0
  0
ENDBLK
  5
94
330
89
100
AcDbEntity
  8
0
100
AcDbBlockEnd
  0
BLOCK
  5
74
330
73
100
AcDbEntity
  8
0
100
AcDbBlockBegin
  2
*D16
 70
     1
 10
0.0
 20
0.0
 30
0.0
  3
*D16
  1

  0
LINE
  5
75
330
73
100
AcDbEntity
  8
BEMASSUNG
 62
     2
370
    -2
100
AcDbLine
 10
186.2360121893836
 20
445.4729093221817
 30
0.0
 11
196.3536119560285
 21
437.2725611927062
 31
0.0
  0
MTEXT
  5
76
330
73
100
AcDbEntity
  8
BEMASSUNG
 62
     3
100
AcDbMText
 10
191.7691899730215
 20
445.1343517013119
 30
0.0
 40
4.349999999999999
 41
0.0
 71
     5
 72
     1
  1
\A1;R8
  7
ARIAL-STANDARD
 11
0.7768725992683727
 21
-0.6296578154092922
 31
0.0
 73
     1
 44
1.0
1001
ACAD
1000
MTEXTBEGIN
1070
    73
1070
     1
1070
    44
1040
1.0
1070
    74
1070
     0
1000
MTEXTEND
  0
LINE
  5
77
330
73
100
AcDbEntity
  8
BEMASSUNG
 62
     2
370
    -2
100
AcDbLine
 10
205.6760831472492
 20
429.7166674077945
 30
0.0
 11
199.461102353102
 21
434.753929931069
 31
0.0
  0
SOLID
  5
78
330
73
100
AcDbEntity
  8
BEMASSUNG
 62
     2
100
AcDbTrace
 10
196.773383832968
 20
437.7904762588851
 30
0.0
 11
195.933840079089
 21
436.7546461265273
 31
0.0
 12
199.461102353102
 22
434.753929931069
 32
0.0
 13
199.461102353102
 23
434.753929931069
 33
0.0
  0
POINT
  5
79
330
73
100
AcDbEntity
  8
DEFPOINTS
 62
     0
100
AcDbPoint
 10
199.461102353102
 20
434.753929931069
 30
0.0
  0
POINT
  5
7B
330
73
100
AcDbEntity
  8
DEFPOINTS
 62
     0
100
AcDbPoint
 10
205.6760831472492
 20
429.7166674077945
 30
0.0
  0
ENDBLK
  5
7C
330
73
100
AcDbEntity
  8
0
100
AcDbBlockEnd
  0
BLOCK
  5
201
330
200
100
AcDbEntity
  8
0
100
AcDbBlockBegin
  2
*D17
 70
     1
 10
0.0
 20
0.0
 30
0.0
  3
*D17
  1

  0
LINE
  5
202
330
200
100
AcDbEntity
  8
BEMASSUNG
 62
     2
370
    -2
100
AcDbLine
 10
199.3760831472502
 20
348.2166674077948
 30
0.0
 11
185.8239459054394
 21
348.2166674077948
 31
0.0
  0
LINE
  5
203
330
200
100
AcDbEntity
  8
BEMASSUNG
 62
     2
370
    -2
100
AcDbLine
 10
199.3760831472482
 20
391.2166674077948
 30
0.0
 11
185.8239459054394
 21
391.2166674077948
 31
0.0
  0
LINE
  5
204
330
200
100
AcDbEntity
  8
BEMASSUNG
 62
     2
370
    -2
100
AcDbLine
 10
186.8239459054394
 20
352.2166674077948
 30
0.0
 11
186.8239459054394
 21
387.2166674077948
 31
0.0
  0
SOLID
  5
205
330
200
100
AcDbEntity
  8
BEMASSUNG
 62
     2
100
AcDbTrace
 10
186.1572792387727
 20
352.2166674077948
 30
0.0
 11
187.4906125721061
 21
352.2166674077948
 31
0.0
 12
186.8239459054394
 22
348.2166674077948
 32
0.0
 13
186.8239459054394
 23
348.2166674077948
 33
0.0
  0
SOLID
  5
206
330
200
100
AcDbEntity
  8
BEMASSUNG
 62
     2
100
AcDbTrace
 10
186.1572792387727
 20
387.2166674077948
 30
0.0
 11
187.4906125721061
 21
387.2166674077948
 31
0.0
 12
186.8239459054394
 22
391.2166674077948
 32
0.0
 13
186.8239459054394
 23
391.2166674077948
 33
0.0
  0
MTEXT
  5
207
330
200
100
AcDbEntity
  8
BEMASSUNG
 62
     3
100
AcDbMText
 10
183.6014697799277
 20
368.5236221662226
 30
0.0
 40
4.349999999999999
 41
0.0
 71
     5
 72
     1
  1
\A1;43
  7
ARIAL-STANDARD
 11
0.0000000000000001
 21
1.0
 31
0.0
 73
     1
 44
1.0
1001
ACAD
1000
MTEXTBEGIN
1070
    73
1070
     1
1070
    44
1040
1.0
1070
    74
1070
     0
1000
MTEXTEND
  0
POINT
  5
208
330
200
100
AcDbEntity
  8
DEFPOINTS
 62
     0
100
AcDbPoint
 10
199.3760831472502
 20
348.2166674077948
 30
0.0
  0
POINT
  5
209
330
200
100
AcDbEntity
  8
DEFPOINTS
 62
     0
100
AcDbPoint
 10
199.3760831472482
 20
391.2166674077948
 30
0.0
  0
POINT
  5
20A
330
200
100
AcDbEntity
  8
DEFPOINTS
 62
     0
100
AcDbPoint
 10
186.8239459054394
 20
391.2166674077948
 30
0.0
  0
ENDBLK
  5
20B
330
200
100
AcDbEntity
  8
0
100
AcDbBlockEnd
  0
BLOCK
  5
1F3
330
1F2
100
AcDbEntity
  8
0
100
AcDbBlockBegin
  2
*D18
 70
     1
 10
0.0
 20
0.0
 30
0.0
  3
*D18
  1

  0
LINE
  5
1F4
330
1F2
100
AcDbEntity
  8
BEMASSUNG
 62
     2
370
    -2
100
AcDbLine
 10
197.6760831472491
 20
321.8062482219734
 30
0.0
 11
197.6760831472491
 21
322.8062482219734
 31
0.0
  0
LINE
  5
1F5
330
1F2
100
AcDbEntity
  8
BEMASSUNG
 62
     2
370
    -2
100
AcDbLine
 10
207.6760831472492
 20
321.8062482219734
 30
0.0
 11
207.6760831472492
 21
322.8062482219734
 31
0.0
  0
LINE
  5
1F6
330
1F2
100
AcDbEntity
  8
BEMASSUNG
 62
     2
370
    -2
100
AcDbLine
 10
203.6760831472492
 20
321.8062482219734
 30
0.0
 11
201.6760831472491
 21
321.8062482219734
 31
0.0
  0
LINE
  5
1F7
330
1F2
100
AcDbEntity
  8
BEMASSUNG
 62
     2
370
    -2
100
AcDbLine
 10
197.6760831472491
 20
321.8062482219734
 30
0.0
 11
182.4935285769889
 21
321.8062482219734
 31
0.0
  0
SOLID
  5
1F8
330
1F2
100
AcDbEntity
  8
BEMASSUNG
 62
     2
100
AcDbTrace
 10
203.6760831472492
 20
322.4729148886401
 30
0.0
 11
203.6760831472492
 21
321.1395815553067
 31
0.0
 12
207.6760831472492
 22
321.8062482219734
 32
0.0
 13
207.6760831472492
 23
321.8062482219734
 33
0.0
  0
SOLID
  5
1F9
330
1F2
100
AcDbEntity
  8
BEMASSUNG
 62
     2
100
AcDbTrace
 10
201.6760831472491
 20
322.4729148886401
 30
0.0
 11
201.6760831472491
 21
321.1395815553067
 31
0.0
 12
197.6760831472491
 22
321.8062482219734
 32
0.0
 13
197.6760831472491
 23
321.8062482219734
 33
0.0
  0
MTEXT
  5
1FA
330
1F2
100
AcDbEntity
  8
BEMASSUNG
 62
     3
100
AcDbMText
 10
186.3969903778075
 20
325.0272407185628
 30
0.0
 40
4.349999999999999
 41
0.0
 71
     5
 72
     1
  1
\A1;10
  7
ARIAL-STANDARD
 73
     1
 44
1.0
1001
ACAD
1000
MTEXTBEGIN
1070
    73
1070
     1
1070
    44
1040
1.0
1070
    74
1070
     0
1000
MTEXTEND
  0
POINT
  5
1FB
330
1F2
100
AcDbEntity
  8
DEFPOINTS
 62
     0
100
AcDbPoint
 10
197.6760831472491
 20
321.8062482219734
 30
0.0
  0
POINT
  5
1FC
330
1F2
100
AcDbEntity
  8
DEFPOINTS
 62
     0
100
AcDbPoint
 10
207.6760831472492
 20
321.8062482219734
 30
0.0
  0
POINT
  5
1FD
330
1F2
100
AcDbEntity
  8
DEFPOINTS
 62
     0
100
AcDbPoint
 10
207.6760831472492
 20
321.8062482219734
 30
0.0
  0
ENDBLK
  5
1FE
330
1F2
100
AcDbEntity
  8
0
100
AcDbBlockEnd
  0
BLOCK
  5
142
330
141
100
AcDbEntity
  8
0
100
AcDbBlockBegin
  2
*D19
 70
     1
 10
0.0
 20
0.0
 30
0.0
  3
*D19
  1

  0
LINE
  5
143
330
141
100
AcDbEntity
  8
BEMASSUNG
 62
     2
370
    -2
100
AcDbLine
 10
122.741826912609
 20
391.2166674077947
 30
0.0
 11
122.741826912609
 21
398.1474308412466
 31
0.0
  0
LINE
  5
144
330
141
100
AcDbEntity
  8
BEMASSUNG
 62
     2
370
    -2
100
AcDbLine
 10
127.741826912609
 20
397.1474308412466
 30
0.0
 11
127.741826912609
 21
398.1474308412466
 31
0.0
  0
LINE
  5
145
330
141
100
AcDbEntity
  8
BEMASSUNG
 62
     2
370
    -2
100
AcDbLine
 10
118.741826912609
 20
397.1474308412466
 30
0.0
 11
114.741826912609
 21
397.1474308412466
 31
0.0
  0
LINE
  5
146
330
141
100
AcDbEntity
  8
BEMASSUNG
 62
     2
370
    -2
100
AcDbLine
 10
131.741826912609
 20
397.1474308412466
 30
0.0
 11
143.235704811654
 21
397.1474308412466
 31
0.0
  0
LINE
  5
147
330
141
100
AcDbEntity
  8
BEMASSUNG
 62
     2
370
    -2
100
AcDbLine
 10
122.741826912609
 20
397.1474308412466
 30
0.0
 11
127.741826912609
 21
397.1474308412466
 31
0.0
  0
SOLID
  5
148
330
141
100
AcDbEntity
  8
BEMASSUNG
 62
     2
100
AcDbTrace
 10
118.741826912609
 20
397.8140975079133
 30
0.0
 11
118.741826912609
 21
396.4807641745799
 31
0.0
 12
122.741826912609
 22
397.1474308412466
 32
0.0
 13
122.741826912609
 23
397.1474308412466
 33
0.0
  0
SOLID
  5
149
330
141
100
AcDbEntity
  8
BEMASSUNG
 62
     2
100
AcDbTrace
 10
131.741826912609
 20
397.8140975079133
 30
0.0
 11
131.741826912609
 21
396.4807641745799
 31
0.0
 12
127.741826912609
 22
397.1474308412466
 32
0.0
 13
127.741826912609
 23
397.1474308412466
 33
0.0
  0
MTEXT
  5
14A
330
141
100
AcDbEntity
  8
BEMASSUNG
 62
     3
100
AcDbMText
 10
140.7936174992393
 20
400.3595215643025
 30
0.0
 40
4.349999999999999
 41
0.0
 71
     5
 72
     1
  1
\A1;5
  7
ARIAL-STANDARD
 73
     1
 44
1.0
1001
ACAD
1000
MTEXTBEGIN
1070
    73
1070
     1
1070
    44
1040
1.0
1070
    74
1070
     0
1000
MTEXTEND
  0
POINT
  5
14B
330
141
100
AcDbEntity
  8
DEFPOINTS
 62
     0
100
AcDbPoint
 10
122.741826912609
 20
391.2166674077947
 30
0.0
  0
POINT
  5
14C
330
141
100
AcDbEntity
  8
DEFPOINTS
 62
     0
100
AcDbPoint
 10
127.741826912609
 20
397.1474308412466
 30
0.0
  0
POINT
  5
14D
330
141
100
AcDbEntity
  8
DEFPOINTS
 62
     0
100
AcDbPoint
 10
127.741826912609
 20
397.1474308412466
 30
0.0
  0
ENDBLK
  5
14E
330
141
100
AcDbEntity
  8
0
100
AcDbBlockEnd
  0
BLOCK
  5
2E9
330
2E8
100
AcDbEntity
  8
0
100
AcDbBlockBegin
  2
_ACMFILLED30
 70
     0
 10
0.0
 20
0.0
 30
0.0
  3
_ACMFILLED30
  1

  0
TRACE
  5
2EA
330
2E8
100
AcDbEntity
  8
BEMASSUNG
 62
     0
100
AcDbTrace
 10
-1.0
 20
-0.26794919
 30
0.0
 11
-1.0
 21
0.26794919
 31
0.0
 12
0.0
 22
0.0
 32
0.0
 13
0.0
 23
0.0
 33
0.0
  0
ENDBLK
  5
2EB
330
2E8
100
AcDbEntity
  8
0
100
AcDbBlockEnd
  0
ENDSEC
  0
SECTION
  2
ENTITIES
  0
LINE
  5
6B
330
2
100
AcDbEntity
  8
ACHSEN
100
AcDbLine
 10
195.9260831472492
 20
232.7166674077948
 30
0.0
 11
209.4260831472492
 21
232.7166674077948
 31
0.0
  0
LINE
  5
70
330
2
100
AcDbEntity
  8
ACHSEN
100
AcDbLine
 10
195.9260831472492
 20
331.2166674077948
 30
0.0
 11
209.4260831472492
 21
331.2166674077948
 31
0.0
  0
LINE
  5
71
330
2
100
AcDbEntity
  8
ACHSEN
100
AcDbLine
 10
195.9260831472492
 20
425.7166674077947
 30
0.0
 11
209.4260831472492
 21
425.7166674077947
 31
0.0
  0
DIMENSION
  5
72
330
2
100
AcDbEntity
  8
BEMASSUNG
100
AcDbDimension
  2
*D16
 10
205.6760831472492
 20
429.7166674077945
 30
0.0
 11
191.7691899730215
 21
445.1343517013119
 31
0.0
 70
     4
 71
     5
 42
8.000000000000227
  3
Katalog 09
100
AcDbRadialDimension
 15
199.461102353102
 25
434.753929931069
 35
0.0
 40
0.0
1001
ACAD_DSTYLE_DIMRADIAL_EXTENSION
1070
   387
1070
     1
1070
   388
1040
1.570796326794896
1070
   390
1040
3.141592653589793
  0
LINE
  5
7E
330
2
100
AcDbEntity
  8
UMRISS05
100
AcDbLine
 10
116.241826912609
 20
385.3666674077948
 30
0.0
 11
117.6681827772761
 21
385.3666674077948
 31
0.0
  0
ARC
  5
82
330
2
100
AcDbEntity
  8
UMRISS05
100
AcDbCircle
 10
116.241826912609
 20
383.7166674077947
 30
0.0
 40
1.65
100
AcDbArc
 50
90.0
 51
270.0
  0
LINE
  5
83
330
2
100
AcDbEntity
  8
UMRISS05
100
AcDbLine
 10
117.6681827772762
 20
382.0666674077947
 30
0.0
 11
116.241826912609
 21
382.0666674077947
 31
0.0
  0
TRACE
  5
84
330
2
100
AcDbEntity
  8
BEMASSUNG
  6
Continuous
 62
     2
100
AcDbTrace
 10
128.7315692652478
 20
385.8158880963517
 30
0.0
 11
129.23635477286
 21
384.9526432971755
 31
0.0
 12
126.3942276111666
 22
383.8699091678692
 32
0.0
 13
126.3942276111666
 23
383.8699091678692
 33
0.0
  0
LINE
  5
85
330
2
100
AcDbEntity
  8
ACHSEN
100
AcDbLine
 10
109.6369407982857
 20
383.7166674077947
 30
0.0
 11
124.5030470634547
 21
383.7166674077947
 31
0.0
  0
LINE
  5
86
330
2
100
AcDbEntity
  8
UMRISS05
100
AcDbLine
 10
97.41726562322538
 20
350.7166674077948
 30
0.0
 11
97.41726562322538
 21
355.7166674077948
 31
0.0
  0
LINE
  5
87
330
2
100
AcDbEntity
  8
ACHSEN
100
AcDbLine
 10
104.7471601697455
 20
290.7166674077948
 30
0.0
 11
127.9525479790577
 21
290.7166674077948
 31
0.0
  0
DIMENSION
  5
88
330
2
100
AcDbEntity
  8
UMRISS05
100
AcDbDimension
  2
*D15
 10
90.94958194686444
 20
290.716667407795
 30
0.0
 11
87.73749122380845
 21
319.2166674077949
 31
0.0
 71
     5
 42
56.99999999999977
  3
Katalog 09
100
AcDbAlignedDimension
 13
92.41726562322538
 23
347.7166674077948
 33
0.0
 14
104.747160169745
 24
290.716667407795
 34
0.0
 50
90.0
100
AcDbRotatedDimension
1001
ACAD_DSTYLE_DIMINSPECT
1070
   396
1000
100%
1070
   395
1000

1070
   394
1070
    33
1070
   393
1070
     0
  0
DIMENSION
  5
96
330
2
100
AcDbEntity
  8
UMRISS05
100
AcDbDimension
  2
*D14
 10
90.94958194686448
 20
347.7166674077948
 30
0.0
 11
90.94958194686444
 21
353.2612705194805
 31
0.0
 70
   128
 71
     5
 42
21.99999999999994
  3
Katalog 09
100
AcDbAlignedDimension
 13
106.9723939494956
 23
369.7166674077947
 33
0.0
 14
92.41726562322538
 24
347.7166674077948
 34
0.0
 50
90.0
100
AcDbRotatedDimension
1001
ACAD_DSTYLE_DIMINSPECT
1070
   396
1000
100%
1070
   395
1000

1070
   394
1070
    33
1070
   393
1070
     0
  0
LINE
  5
A3
330
2
100
AcDbEntity
  8
UMRISS05
100
AcDbLine
 10
102.4172656232253
 20
347.7166674077948
 30
0.0
 11
92.41726562322538
 21
347.7166674077948
 31
0.0
  0
TRACE
  5
A4
330
2
100
AcDbEntity
  8
UMRISS05
100
AcDbTrace
 10
-98.75701157322533
 20
352.7166674077948
 30
-0.0000000000000024
 11
-96.07751967322531
 21
352.7166674077948
 31
-0.0000000000000024
 12
-97.41726562322538
 22
347.7166674077948
 32
-0.0000000000000024
 13
-97.41726562322538
 23
347.7166674077948
 33
-0.0000000000000024
210
0.0
220
0.0
230
-1.0
  0
LINE
  5
A5
330
2
100
AcDbEntity
  8
ACHSEN
100
AcDbLine
 10
102.4172656232253
 20
347.7166674077948
 30
0.0
 11
213.5068969812178
 21
347.7166674077948
 31
0.0
  0
LINE
  5
A6
330
2
100
AcDbEntity
  8
BEMASSUNG
 62
     2
100
AcDbLine
 10
157.3625702886663
 20
405.174619747808
 30
0.0
 11
128.983962019054
 21
385.3842656967637
 31
0.0
  0
LINE
  5
A7
330
2
100
AcDbEntity
  8
BEMASSUNG
 62
     2
100
AcDbLine
 10
162.072326324178
 20
405.174619747808
 30
0.0
 11
157.3625702886663
 21
405.174619747808
 31
0.0
  0
DIMENSION
  5
A8
330
2
100
AcDbEntity
  8
BEMASSUNG
100
AcDbDimension
  2
*D13
 10
156.1797469285229
 20
437.7166674077947
 30
0.0
 11
156.1797469285228
 21
330.9470287109551
 31
0.0
 70
   128
 71
     5
 42
217.0
  3
Katalog 09
100
AcDbAlignedDimension
 13
126.741826912609
 23
220.7166674077948
 33
0.0
 14
126.741826912609
 24
437.7166674077948
 34
0.0
 50
90.0
100
AcDbRotatedDimension
  0
DIMENSION
  5
B5
330
2
100
AcDbEntity
  8
BEMASSUNG
100
AcDbDimension
  2
*D12
 10
146.8010589588353
 20
311.7166674077947
 30
0.0
 11
143.6171571853019
 21
290.716667407795
 31
0.0
 71
     5
 42
41.99999999999948
  3
Katalog 09
100
AcDbAlignedDimension
 13
122.741826912609
 23
269.7166674077953
 33
0.0
 14
122.741826912609
 24
311.7166674077948
 34
0.0
 50
270.0
100
AcDbRotatedDimension
  0
DIMENSION
  5
C2
330
2
100
AcDbEntity
  8
BEMASSUNG
100
AcDbDimension
  2
*D11
 10
146.8010589588353
 20
220.7166674077948
 30
0.0
 11
143.580066462246
 21
245.216667407795
 31
0.0
 71
     5
 42
49.00000000000048
  3
Katalog 09
100
AcDbAlignedDimension
 13
122.741826912609
 23
269.7166674077953
 33
0.0
 14
126.741826912609
 24
220.7166674077948
 34
0.0
 50
270.0
100
AcDbRotatedDimension
  0
DIMENSION
  5
CF
330
2
100
AcDbEntity
  8
BEMASSUNG
100
AcDbDimension
  2
*D10
 10
146.8010589588353
 20
347.2166674077947
 30
0.0
 11
143.5785828333237
 21
329.4666674077947
 31
0.0
 71
     5
 42
35.49999999999994
  3
Katalog 09
100
AcDbAlignedDimension
 13
122.741826912609
 23
311.7166674077948
 33
0.0
 14
127.741826912609
 24
347.2166674077947
 34
0.0
 50
270.0
100
AcDbRotatedDimension
  0
DIMENSION
  5
DC
330
2
100
AcDbEntity
  8
BEMASSUNG
100
AcDbDimension
  2
*D9
 10
146.8010589588353
 20
392.2166674077947
 30
0.0
 11
143.5889682357794
 21
369.7166674077947
 31
0.0
 71
     5
 42
45.0
  3
Katalog 09
100
AcDbAlignedDimension
 13
127.741826912609
 23
347.2166674077947
 33
0.0
 14
127.741826912609
 24
392.2166674077947
 34
0.0
 50
270.0
100
AcDbRotatedDimension
  0
DIMENSION
  5
E9
330
2
100
AcDbEntity
  8
BEMASSUNG
100
AcDbDimension
  2
*D8
 10
146.8010589588353
 20
437.7166674077947
 30
0.0
 11
143.5889682357794
 21
414.9666674077947
 31
0.0
 71
     5
 42
45.50000000000006
  3
Katalog 09
100
AcDbAlignedDimension
 13
127.741826912609
 23
392.2166674077947
 33
0.0
 14
126.741826912609
 24
437.7166674077948
 34
0.0
 50
270.0
100
AcDbRotatedDimension
  0
MTEXT
  5
F6
330
2
100
AcDbEntity
  8
UMRISS05
 62
     3
100
AcDbMText
 10
175.5578698728911
 20
409.397403517034
 30
0.0
 40
3.5
 41
0.0
 71
     5
 72
     1
  1
\A1;Verstellbereich\P-1 / +2mm
  7
ARIAL-STANDARD
 73
     1
 44
1.0
1001
ACAD
1000
MTEXTBEGIN
1070
    73
1070
     1
1070
    44
1040
1.0
1070
    74
1070
     0
1000
MTEXTEND
  0
DIMENSION
  5
F7
330
2
100
AcDbEntity
  8
BEMASSUNG
100
AcDbDimension
  2
*D7
 10
124.7418269126084
 20
255.3597825393931
 30
0.0
 11
118.3344021336816
 21
255.3597825393931
 31
0.0
 70
   128
 71
     5
 42
13.99999999999892
  3
Katalog 09
100
AcDbAlignedDimension
 13
110.7418269126095
 23
257.2166674077948
 33
0.0
 14
124.7418269126084
 24
257.2166674077948
 34
0.0
100
AcDbRotatedDimension
  0
LINE
  5
104
330
2
100
AcDbEntity
  8
ACHSEN
100
AcDbLine
 10
110.991826912609
 20
232.7166674077948
 30
0.0
 11
124.491826912609
 21
232.7166674077948
 31
0.0
  0
LINE
  5
105
330
2
100
AcDbEntity
  8
ACHSEN
100
AcDbLine
 10
117.741826912609
 20
239.4666674077948
 30
0.0
 11
117.741826912609
 21
225.9666674077948
 31
0.0
  0
LINE
  5
106
330
2
100
AcDbEntity
  8
ACHSEN
100
AcDbLine
 10
110.991826912609
 20
331.2166674077948
 30
0.0
 11
124.491826912609
 21
331.2166674077948
 31
0.0
  0
LINE
  5
107
330
2
100
AcDbEntity
  8
ACHSEN
100
AcDbLine
 10
117.741826912609
 20
337.9666674077948
 30
0.0
 11
117.741826912609
 21
324.4666674077948
 31
0.0
  0
DIMENSION
  5
108
330
2
100
AcDbEntity
  8
UMRISS05
100
AcDbDimension
  2
*D6
 10
82.63468204752923
 20
232.7166674077948
 30
0.0
 11
79.41368955093982
 21
281.9666674077948
 31
0.0
 71
     5
 42
98.49999999999997
  3
Katalog 09
100
AcDbAlignedDimension
 13
110.7370043513709
 23
331.2166674077948
 33
0.0
 14
110.991826912609
 24
232.7166674077948
 34
0.0
 50
90.0
100
AcDbRotatedDimension
  0
DIMENSION
  5
115
330
2
100
AcDbEntity
  8
UMRISS05
100
AcDbDimension
  2
*D5
 10
82.63468204752921
 20
331.2166674077948
 30
0.0
 11
82.63468204752916
 21
382.3968039884269
 31
0.0
 70
   128
 71
     5
 42
94.50000000003223
  3
Katalog 09
100
AcDbAlignedDimension
 13
110.991826912609
 23
425.716667407827
 33
0.0
 14
110.7370043513709
 24
331.2166674077948
 34
0.0
 50
90.0
100
AcDbRotatedDimension
  0
DIMENSION
  5
122
330
2
100
AcDbEntity
  8
UMRISS05
100
AcDbDimension
  2
*D4
 10
82.63468204752923
 20
437.7166674077948
 30
0.0
 11
79.45078027399573
 21
431.7166674078108
 31
0.0
 71
     5
 42
11.99999999996777
  3
Katalog 09
100
AcDbAlignedDimension
 13
110.991826912609
 23
425.716667407827
 33
0.0
 14
108.741826912609
 24
437.7166674077948
 34
0.0
 50
90.0
100
AcDbRotatedDimension
  0
DIMENSION
  5
12F
330
2
100
AcDbEntity
  8
UMRISS05
100
AcDbDimension
  2
*D3
 10
82.63468204752923
 20
232.7166674077948
 30
0.0
 11
79.45078027399576
 21
226.7166674077948
 31
0.0
 71
     5
 42
12.0
  3
Katalog 09
100
AcDbAlignedDimension
 13
108.741826912609
 23
220.7166674077948
 33
0.0
 14
110.991826912609
 24
232.7166674077948
 34
0.0
 50
90.0
100
AcDbRotatedDimension
  0
LINE
  5
13C
330
2
100
AcDbEntity
  8
ACHSEN
100
AcDbLine
 10
110.991826912609
 20
425.7166674077947
 30
0.0
 11
124.491826912609
 21
425.7166674077947
 31
0.0
  0
LINE
  5
13D
330
2
100
AcDbEntity
  8
ACHSEN
100
AcDbLine
 10
117.741826912609
 20
432.4666674077946
 30
0.0
 11
117.741826912609
 21
418.9666674077947
 31
0.0
  0
LINE
  5
13E
330
2
100
AcDbEntity
  8
ACHSEN
100
AcDbLine
 10
124.7369407982857
 20
355.7166674077947
 30
0.0
 11
109.7869407982858
 21
355.7166674077947
 31
0.0
  0
LINE
  5
13F
330
2
100
AcDbEntity
  8
ACHSEN
100
AcDbLine
 10
106.9723939494956
 20
369.7166674077947
 30
0.0
 11
130.1777817588078
 21
369.7166674077947
 31
0.0
  0
DIMENSION
  5
140
330
2
100
AcDbEntity
  8
BEMASSUNG
100
AcDbDimension
  2
*D19
 10
127.741826912609
 20
397.1474308412466
 30
0.0
 11
140.7936174992393
 21
397.1474308412466
 31
0.0
 70
   128
 71
     5
 42
5.0
  3
Katalog 09
100
AcDbAlignedDimension
 13
122.741826912609
 23
391.2166674077947
 33
0.0
 14
127.741826912609
 24
397.1474308412466
 34
0.0
100
AcDbRotatedDimension
  0
SPLINE
  5
14F
330
2
100
AcDbEntity
  8
UMRISS05
100
AcDbSpline
210
0.0
220
0.0
230
1.0
 70
    12
 71
     2
 72
     6
 73
     3
 74
     0
 42
0.000000001
 43
0.0000000001
 40
0.0
 40
0.0
 40
0.0
 40
0.0074036886590344
 40
0.0074036886590344
 40
0.0074036886590344
 10
120.6021385878098
 20
355.9067846959711
 30
0.0
 41
1.0
 10
120.3497054258982
 20
355.8761363449556
 30
0.0
 41
1.357093436693618
 10
120.2099898329726
 20
355.8592435799951
 30
0.0
 41
1.686909074955913
  0
LINE
  5
150
330
2
100
AcDbEntity
  8
UMRISS05
100
AcDbLine
 10
121.3135318646577
 20
356.0731919094231
 30
0.0
 11
120.2002230867333
 21
355.9900938330871
 31
0.0
  0
SPLINE
  5
151
330
2
100
AcDbEntity
  8
UMRISS05
100
AcDbSpline
210
0.0
220
0.0
230
1.0
 70
    12
 71
     2
 72
     6
 73
     3
 74
     0
 42
0.000000001
 43
0.0000000001
 40
0.0
 40
0.0
 40
0.0
 40
0.0074036886590343
 40
0.0074036886590343
 40
0.0074036886590343
 10
119.5517096244326
 20
356.5769790829956
 30
0.0
 41
1.0
 10
119.582357975448
 20
356.3245459210841
 30
0.0
 41
1.357093436693617
 10
119.5992507404085
 20
356.1848303281585
 30
0.0
 41
1.686909074955913
  0
LINE
  5
152
330
2
100
AcDbEntity
  8
UMRISS05
100
AcDbLine
 10
119.3853024109805
 20
357.2883723598435
 30
0.0
 11
119.4684004873165
 21
356.1750635819191
 31
0.0
  0
ARC
  5
153
330
2
100
AcDbEntity
  8
UMRISS05
100
AcDbCircle
 10
119.2962780656739
 20
356.1622162547298
 30
0.0
 40
0.1726012220351236
100
AcDbArc
 50
265.7313220328063
 51
4.268677967206739
  0
SPLINE
  5
154
330
2
100
AcDbEntity
  8
UMRISS05
100
AcDbSpline
210
0.0
220
0.0
230
1.0
 70
     8
 71
     3
 72
    18
 73
    14
 74
     0
 42
0.000000001
 43
0.0000000001
 40
0.1307806668072011
 40
0.1307806668072011
 40
0.1307806668072011
 40
0.1307806668072011
 40
0.1428948119469433
 40
0.1428948119469433
 40
0.1502675919277733
 40
0.1502675919277733
 40
0.1576403719086032
 40
0.1576403719086032
 40
0.1650131518894332
 40
0.1650131518894332
 40
0.1723859318702632
 40
0.1723859318702632
 40
0.1845000770100053
 40
0.1845000770100053
 40
0.1845000770100053
 40
0.1845000770100053
 10
119.5992507404086
 20
356.1848303281585
 30
0.0
 10
119.6038557160879
 20
356.1467437917652
 30
0.0
 10
119.6007155089297
 20
356.1059102250964
 30
0.0
 10
119.5848916981728
 20
356.048072175273
 30
0.0
 10
119.5755892630343
 20
356.0245282362828
 30
0.0
 10
119.5502099849569
 20
355.9800717106875
 30
0.0
 10
119.5341127538446
 20
355.9591371846967
 30
0.0
 10
119.499357135707
 20
355.9243815665591
 30
0.0
 10
119.4784226097162
 20
355.9082843354469
 30
0.0
 10
119.4339660841209
 20
355.8829050573694
 30
0.0
 10
119.4104221451308
 20
355.8736026222309
 30
0.0
 10
119.3525840953073
 20
355.8577788114741
 30
0.0
 10
119.3117505286385
 20
355.8546386043158
 30
0.0
 10
119.2736639922452
 20
355.8592435799951
 30
0.0
  0
ARC
  5
155
330
2
100
AcDbEntity
  8
UMRISS05
100
AcDbCircle
 10
119.2962780656739
 20
355.2711185608598
 30
0.0
 40
0.1726012220351236
100
AcDbArc
 50
355.7313220328047
 51
94.26867796719372
  0
SPLINE
  5
156
330
2
100
AcDbEntity
  8
UMRISS05
100
AcDbSpline
210
0.0
220
0.0
230
1.0
 70
     8
 71
     3
 72
    18
 73
    14
 74
     0
 42
0.000000001
 43
0.0000000001
 40
0.1307806668072011
 40
0.1307806668072011
 40
0.1307806668072011
 40
0.1307806668072011
 40
0.1428948119469434
 40
0.1428948119469434
 40
0.1502675919277733
 40
0.1502675919277733
 40
0.1576403719086033
 40
0.1576403719086033
 40
0.1650131518894332
 40
0.1650131518894332
 40
0.1723859318702632
 40
0.1723859318702632
 40
0.1845000770100053
 40
0.1845000770100053
 40
0.1845000770100053
 40
0.1845000770100053
 10
119.2736639922452
 20
355.5740912355944
 30
0.0
 10
119.3117505286385
 20
355.5786962112738
 30
0.0
 10
119.3525840953073
 20
355.5755560041155
 30
0.0
 10
119.4104221451308
 20
355.5597321933586
 30
0.0
 10
119.4339660841209
 20
355.5504297582202
 30
0.0
 10
119.4784226097162
 20
355.5250504801427
 30
0.0
 10
119.499357135707
 20
355.5089532490305
 30
0.0
 10
119.5341127538446
 20
355.4741976308928
 30
0.0
 10
119.5502099849569
 20
355.453263104902
 30
0.0
 10
119.5755892630343
 20
355.4088065793068
 30
0.0
 10
119.5848916981728
 20
355.3852626403166
 30
0.0
 10
119.6007155089297
 20
355.3274245904932
 30
0.0
 10
119.6038557160879
 20
355.2865910238243
 30
0.0
 10
119.5992507404086
 20
355.2485044874311
 30
0.0
  0
LINE
  5
157
330
2
100
AcDbEntity
  8
UMRISS05
100
AcDbLine
 10
119.3853024109805
 20
354.144962455746
 30
0.0
 11
119.4684004873165
 21
355.2582712336704
 31
0.0
  0
SPLINE
  5
158
330
2
100
AcDbEntity
  8
UMRISS05
100
AcDbSpline
210
0.0
220
0.0
230
1.0
 70
    12
 71
     2
 72
     6
 73
     3
 74
     0
 42
0.000000001
 43
0.0000000001
 40
0.1864395669923014
 40
0.1864395669923014
 40
0.1864395669923014
 40
0.1938432556513322
 40
0.1938432556513322
 40
0.1938432556513322
 10
119.5992507404086
 20
355.2485044874311
 30
0.0
 41
1.686909074955607
 10
119.582357975448
 20
355.1087888945054
 30
0.0
 41
1.357093436693451
 10
119.5517096244326
 20
354.856355732594
 30
0.0
 41
1.0
  0
SPLINE
  5
159
330
2
100
AcDbEntity
  8
UMRISS05
100
AcDbSpline
210
0.0
220
0.0
230
1.0
 70
    12
 71
     2
 72
     6
 73
     3
 74
     0
 42
0.000000001
 43
0.0000000001
 40
0.0
 40
0.0
 40
0.0
 40
0.0074036886590344
 40
0.0074036886590344
 40
0.0074036886590344
 10
118.8815152374081
 20
355.5265501196185
 30
0.0
 41
1.0
 10
119.1339483993196
 20
355.5571984706339
 30
0.0
 41
1.357093436693618
 10
119.2736639922452
 20
355.5740912355944
 30
0.0
 41
1.686909074955913
  0
LINE
  5
15A
330
2
100
AcDbEntity
  8
UMRISS05
100
AcDbLine
 10
118.1701219605602
 20
355.3601429061664
 30
0.0
 11
119.2834307384846
 21
355.4432409825024
 31
0.0
  0
ARC
  5
15B
330
2
100
AcDbEntity
  8
UMRISS05
100
AcDbCircle
 10
120.1873757595439
 20
355.2711185608598
 30
0.0
 40
0.1726012220351236
100
AcDbArc
 50
85.731322032803
 51
184.2686779672067
  0
SPLINE
  5
15C
330
2
100
AcDbEntity
  8
UMRISS05
100
AcDbSpline
210
0.0
220
0.0
230
1.0
 70
     8
 71
     3
 72
    18
 73
    14
 74
     0
 42
0.000000001
 43
0.0000000001
 40
0.1307806668072012
 40
0.1307806668072012
 40
0.1307806668072012
 40
0.1307806668072012
 40
0.1428948119469434
 40
0.1428948119469434
 40
0.1502675919277733
 40
0.1502675919277733
 40
0.1576403719086033
 40
0.1576403719086033
 40
0.1650131518894333
 40
0.1650131518894333
 40
0.1723859318702632
 40
0.1723859318702632
 40
0.1845000770100055
 40
0.1845000770100055
 40
0.1845000770100055
 40
0.1845000770100055
 10
119.8844030848093
 20
355.2485044874311
 30
0.0
 10
119.87979810913
 20
355.2865910238243
 30
0.0
 10
119.8829383162882
 20
355.3274245904932
 30
0.0
 10
119.8987621270451
 20
355.3852626403166
 30
0.0
 10
119.9080645621835
 20
355.4088065793068
 30
0.0
 10
119.933443840261
 20
355.453263104902
 30
0.0
 10
119.9495410713733
 20
355.4741976308928
 30
0.0
 10
119.9842966895108
 20
355.5089532490305
 30
0.0
 10
120.0052312155017
 20
355.5250504801427
 30
0.0
 10
120.049687741097
 20
355.5504297582202
 30
0.0
 10
120.0732316800871
 20
355.5597321933586
 30
0.0
 10
120.1310697299105
 20
355.5755560041155
 30
0.0
 10
120.1719032965794
 20
355.5786962112738
 30
0.0
 10
120.2099898329726
 20
355.5740912355944
 30
0.0
  0
LINE
  5
15D
330
2
100
AcDbEntity
  8
UMRISS05
100
AcDbLine
 10
121.3135318646577
 20
355.3601429061664
 30
0.0
 11
120.2002230867333
 21
355.4432409825024
 31
0.0
  0
SPLINE
  5
15E
330
2
100
AcDbEntity
  8
UMRISS05
100
AcDbSpline
210
0.0
220
0.0
230
1.0
 70
    12
 71
     2
 72
     6
 73
     3
 74
     0
 42
0.000000001
 43
0.0000000001
 40
0.1864395669923013
 40
0.1864395669923013
 40
0.1864395669923013
 40
0.1938432556513321
 40
0.1938432556513321
 40
0.1938432556513321
 10
120.2099898329727
 20
355.5740912355943
 30
0.0
 41
1.686909074955601
 10
120.3497054258983
 20
355.5571984706339
 30
0.0
 41
1.357093436693448
 10
120.6021385878098
 20
355.5265501196185
 30
0.0
 41
1.0
  0
SPLINE
  5
15F
330
2
100
AcDbEntity
  8
UMRISS05
100
AcDbSpline
210
0.0
220
0.0
230
1.0
 70
    12
 71
     2
 72
     6
 73
     3
 74
     0
 42
0.000000001
 43
0.0000000001
 40
0.0
 40
0.0
 40
0.0
 40
0.0074036886590343
 40
0.0074036886590343
 40
0.0074036886590343
 10
119.9319442007853
 20
354.856355732594
 30
0.0
 41
1.0
 10
119.9012958497698
 20
355.1087888945054
 30
0.0
 41
1.357093436693621
 10
119.8844030848093
 20
355.2485044874312
 30
0.0
 41
1.68690907495592
  0
LINE
  5
160
330
2
100
AcDbEntity
  8
UMRISS05
100
AcDbLine
 10
120.0983514142373
 20
354.144962455746
 30
0.0
 11
120.0152533379013
 21
355.2582712336704
 31
0.0
  0
LINE
  5
161
330
2
100
AcDbEntity
  8
UMRISS05
100
AcDbLine
 10
120.0983514142373
 20
357.2883723598435
 30
0.0
 11
120.0152533379013
 21
356.1750635819191
 31
0.0
  0
SPLINE
  5
162
330
2
100
AcDbEntity
  8
UMRISS05
100
AcDbSpline
210
0.0
220
0.0
230
1.0
 70
    12
 71
     2
 72
     6
 73
     3
 74
     0
 42
0.000000001
 43
0.0000000001
 40
0.1864395669923015
 40
0.1864395669923015
 40
0.1864395669923015
 40
0.1938432556513323
 40
0.1938432556513323
 40
0.1938432556513323
 10
119.8844030848093
 20
356.1848303281585
 30
0.0
 41
1.686909074955602
 10
119.9012958497698
 20
356.3245459210842
 30
0.0
 41
1.357093436693449
 10
119.9319442007853
 20
356.5769790829956
 30
0.0
 41
1.0
  0
LINE
  5
163
330
2
100
AcDbEntity
  8
UMRISS05
100
AcDbLine
 10
118.1701219605602
 20
356.0731919094231
 30
0.0
 11
119.2834307384846
 21
355.9900938330871
 31
0.0
  0
SPLINE
  5
164
330
2
100
AcDbEntity
  8
UMRISS05
100
AcDbSpline
210
0.0
220
0.0
230
1.0
 70
    12
 71
     2
 72
     6
 73
     3
 74
     0
 42
0.000000001
 43
0.0000000001
 40
0.1864395669923013
 40
0.1864395669923013
 40
0.1864395669923013
 40
0.1938432556513321
 40
0.1938432556513321
 40
0.1938432556513321
 10
119.2736639922452
 20
355.8592435799951
 30
0.0
 41
1.686909074955601
 10
119.1339483993196
 20
355.8761363449556
 30
0.0
 41
1.357093436693448
 10
118.8815152374081
 20
355.9067846959711
 30
0.0
 41
1.0
  0
ARC
  5
165
330
2
100
AcDbEntity
  8
UMRISS05
100
AcDbCircle
 10
120.1873757595439
 20
356.1622162547298
 30
0.0
 40
0.1726012220351237
100
AcDbArc
 50
175.7313220328048
 51
274.2686779671938
  0
SPLINE
  5
166
330
2
100
AcDbEntity
  8
UMRISS05
100
AcDbSpline
210
0.0
220
0.0
230
1.0
 70
     8
 71
     3
 72
    18
 73
    14
 74
     0
 42
0.000000001
 43
0.0000000001
 40
0.1307806668072011
 40
0.1307806668072011
 40
0.1307806668072011
 40
0.1307806668072011
 40
0.1428948119469433
 40
0.1428948119469433
 40
0.1502675919277733
 40
0.1502675919277733
 40
0.1576403719086032
 40
0.1576403719086032
 40
0.1650131518894332
 40
0.1650131518894332
 40
0.1723859318702632
 40
0.1723859318702632
 40
0.1845000770100054
 40
0.1845000770100054
 40
0.1845000770100054
 40
0.1845000770100054
 10
120.2099898329726
 20
355.8592435799951
 30
0.0
 10
120.1719032965794
 20
355.8546386043158
 30
0.0
 10
120.1310697299105
 20
355.8577788114741
 30
0.0
 10
120.0732316800871
 20
355.8736026222309
 30
0.0
 10
120.049687741097
 20
355.8829050573694
 30
0.0
 10
120.0052312155017
 20
355.9082843354469
 30
0.0
 10
119.9842966895108
 20
355.9243815665591
 30
0.0
 10
119.9495410713733
 20
355.9591371846967
 30
0.0
 10
119.933443840261
 20
355.9800717106875
 30
0.0
 10
119.9080645621835
 20
356.0245282362828
 30
0.0
 10
119.8987621270451
 20
356.048072175273
 30
0.0
 10
119.8829383162882
 20
356.1059102250964
 30
0.0
 10
119.87979810913
 20
356.1467437917652
 30
0.0
 10
119.8844030848093
 20
356.1848303281585
 30
0.0
  0
SPLINE
  5
167
330
2
100
AcDbEntity
  8
UMRISS05
100
AcDbSpline
210
0.0
220
0.0
230
1.0
 70
    12
 71
     2
 72
     6
 73
     3
 74
     0
 42
0.000000001
 43
0.0000000001
 40
0.0
 40
0.0
 40
0.0
 40
0.1376359333936737
 40
0.1376359333936737
 40
0.1376359333936737
 10
118.8815152374081
 20
355.9067846959711
 30
0.0
 41
1.0
 10
118.6628977404622
 20
355.9627913819705
 30
0.0
 41
1.03579779137536
 10
118.2949875435409
 20
356.0570697958115
 30
0.0
 41
1.003318069934927
  0
SPLINE
  5
168
330
2
100
AcDbEntity
  8
UMRISS05
100
AcDbSpline
210
0.0
220
0.0
230
1.0
 70
    12
 71
     2
 72
     6
 73
     3
 74
     0
 42
0.000000001
 43
0.0000000001
 40
0.0066886685476671
 40
0.0066886685476671
 40
0.0066886685476671
 40
0.1443246019424431
 40
0.1443246019424431
 40
0.1443246019424431
 10
118.2949875435409
 20
355.3762650197781
 30
0.0
 41
1.00331806994064
 10
118.6628977405003
 20
355.4705434336288
 30
0.0
 41
1.035797791442895
 10
118.8815152374081
 20
355.5265501196185
 30
0.0
 41
1.0
  0
SPLINE
  5
169
330
2
100
AcDbEntity
  8
UMRISS05
100
AcDbSpline
210
0.0
220
0.0
230
1.0
 70
    12
 71
     2
 72
     6
 73
     3
 74
     0
 42
0.000000001
 43
0.0000000001
 40
0.0
 40
0.0
 40
0.0
 40
0.1376359332989502
 40
0.1376359332989502
 40
0.1376359332989502
 10
119.9319442007853
 20
356.5769790829956
 30
0.0
 41
1.0
 10
119.9879508875675
 20
356.795596582997
 30
0.0
 41
1.035797784978621
 10
120.0822293006256
 20
357.1635067768629
 30
0.0
 41
1.003318069389008
  0
SPLINE
  5
16A
330
2
100
AcDbEntity
  8
UMRISS05
100
AcDbSpline
210
0.0
220
0.0
230
1.0
 70
    12
 71
     2
 72
     6
 73
     3
 74
     0
 42
0.000000001
 43
0.0000000001
 40
0.0066886686434352
 40
0.0066886686434352
 40
0.0066886686434352
 40
0.1443246019424431
 40
0.1443246019424431
 40
0.1443246019424431
 10
119.4014245245922
 20
357.1635067768629
 30
0.0
 41
1.003318069389957
 10
119.4957029376502
 20
356.7955965829974
 30
0.0
 41
1.035797784989172
 10
119.5517096244326
 20
356.5769790829956
 30
0.0
 41
1.0
  0
SPLINE
  5
16B
330
2
100
AcDbEntity
  8
UMRISS05
100
AcDbSpline
210
0.0
220
0.0
230
1.0
 70
    12
 71
     2
 72
     6
 73
     3
 74
     0
 42
0.000000001
 43
0.0000000001
 40
0.0
 40
0.0
 40
0.0
 40
0.1376359333936737
 40
0.1376359333936737
 40
0.1376359333936737
 10
120.6021385878098
 20
355.5265501196185
 30
0.0
 41
1.0
 10
120.8207560847556
 20
355.4705434336191
 30
0.0
 41
1.03579779137536
 10
121.188666281677
 20
355.3762650197781
 30
0.0
 41
1.003318069934927
  0
SPLINE
  5
16C
330
2
100
AcDbEntity
  8
UMRISS05
100
AcDbSpline
210
0.0
220
0.0
230
1.0
 70
    12
 71
     2
 72
     6
 73
     3
 74
     0
 42
0.000000001
 43
0.0000000001
 40
0.0066886685476671
 40
0.0066886685476671
 40
0.0066886685476671
 40
0.1443246019424431
 40
0.1443246019424431
 40
0.1443246019424431
 10
121.188666281677
 20
356.0570697958115
 30
0.0
 41
1.00331806994064
 10
120.8207560847176
 20
355.9627913819607
 30
0.0
 41
1.035797791442895
 10
120.6021385878098
 20
355.9067846959711
 30
0.0
 41
1.0
  0
SPLINE
  5
16D
330
2
100
AcDbEntity
  8
UMRISS05
100
AcDbSpline
210
0.0
220
0.0
230
1.0
 70
    12
 71
     2
 72
     6
 73
     3
 74
     0
 42
0.000000001
 43
0.0000000001
 40
0.0
 40
0.0
 40
0.0
 40
0.1376359334142349
 40
0.1376359334142349
 40
0.1376359334142349
 10
119.5517096244326
 20
354.856355732594
 30
0.0
 41
1.0
 10
119.4957029386049
 20
354.6377382363182
 30
0.0
 41
1.035797792744686
 10
119.4014245245922
 20
354.2698280387268
 30
0.0
 41
1.003318070051649
  0
SPLINE
  5
16E
330
2
100
AcDbEntity
  8
UMRISS05
100
AcDbSpline
210
0.0
220
0.0
230
1.0
 70
    12
 71
     2
 72
     6
 73
     3
 74
     0
 42
0.000000001
 43
0.0000000001
 40
0.0066886685305404
 40
0.0066886685305404
 40
0.0066886685305404
 40
0.1443246019424431
 40
0.1443246019424431
 40
0.1443246019424431
 10
120.0822293006256
 20
354.2698280387268
 30
0.0
 41
1.003318070038473
 10
119.9879508866324
 20
354.6377382362419
 30
0.0
 41
1.035797792590058
 10
119.9319442007853
 20
354.856355732594
 30
0.0
 41
1.0
  0
SPLINE
  5
16F
330
2
100
AcDbEntity
  8
UMRISS05
100
AcDbSpline
210
0.0
220
0.0
230
1.0
 70
     8
 71
     3
 72
    12
 73
     8
 74
     0
 42
0.000000001
 43
0.0000000001
 40
0.0209582253696219
 40
0.0209582253696219
 40
0.0209582253696219
 40
0.0209582253696219
 40
0.0262100952007496
 40
0.0262100952007496
 40
0.0314079723979964
 40
0.0314079723979964
 40
0.0356231486981253
 40
0.0356231486981253
 40
0.0356231486981253
 40
0.0356231486981253
 10
118.1701219605602
 20
356.0731919094231
 30
0.0
 10
118.1875796305741
 20
356.0718888578132
 30
0.0
 10
118.2081036268031
 20
356.0700004180305
 30
0.0
 10
118.2400962246389
 20
356.06644483012
 30
0.0
 10
118.2572460432183
 20
356.0641532881945
 30
0.0
 10
118.2791334584017
 20
356.0605723722812
 30
0.0
 10
118.2885861307069
 20
356.0587101826596
 30
0.0
 10
118.2949875435409
 20
356.0570697958115
 30
0.0
  0
SPLINE
  5
170
330
2
100
AcDbEntity
  8
UMRISS05
100
AcDbSpline
210
0.0
220
0.0
230
1.0
 70
     8
 71
     3
 72
    12
 73
     8
 74
     0
 42
0.000000001
 43
0.0000000001
 40
0.0478894890006209
 40
0.0478894890006209
 40
0.0478894890006209
 40
0.0478894890006209
 40
0.0521046653007499
 40
0.0521046653007499
 40
0.0573025424979967
 40
0.0573025424979967
 40
0.0625544123291244
 40
0.0625544123291244
 40
0.0625544123291244
 40
0.0625544123291244
 10
118.2949875435409
 20
355.3762650197781
 30
0.0
 10
118.2885861307069
 20
355.3746246329299
 30
0.0
 10
118.2791334584017
 20
355.3727624433084
 30
0.0
 10
118.2572460432183
 20
355.369181527395
 30
0.0
 10
118.2400962246389
 20
355.3668899854696
 30
0.0
 10
118.2081036268031
 20
355.3633343975591
 30
0.0
 10
118.1875796305741
 20
355.3614459577764
 30
0.0
 10
118.1701219605602
 20
355.3601429061664
 30
0.0
  0
SPLINE
  5
171
330
2
100
AcDbEntity
  8
UMRISS05
100
AcDbSpline
210
0.0
220
0.0
230
1.0
 70
     8
 71
     3
 72
    12
 73
     8
 74
     0
 42
0.000000001
 43
0.0000000001
 40
0.0209582253696219
 40
0.0209582253696219
 40
0.0209582253696219
 40
0.0209582253696219
 40
0.0262100952007496
 40
0.0262100952007496
 40
0.0314079723979964
 40
0.0314079723979964
 40
0.035623148698123
 40
0.035623148698123
 40
0.035623148698123
 40
0.035623148698123
 10
120.0983514142373
 20
357.2883723598435
 30
0.0
 10
120.0970483626274
 20
357.2709146898296
 30
0.0
 10
120.0951599228446
 20
357.2503906936006
 30
0.0
 10
120.0916043349341
 20
357.2183980957648
 30
0.0
 10
120.0893127930087
 20
357.2012482771855
 30
0.0
 10
120.0857318770953
 20
357.179360862002
 30
0.0
 10
120.0838696874738
 20
357.1699081896968
 30
0.0
 10
120.0822293006256
 20
357.1635067768629
 30
0.0
  0
SPLINE
  5
172
330
2
100
AcDbEntity
  8
UMRISS05
100
AcDbSpline
210
0.0
220
0.0
230
1.0
 70
     8
 71
     3
 72
    12
 73
     8
 74
     0
 42
0.000000001
 43
0.0000000001
 40
0.0478894890006233
 40
0.0478894890006233
 40
0.0478894890006233
 40
0.0478894890006233
 40
0.0521046653007499
 40
0.0521046653007499
 40
0.0573025424979966
 40
0.0573025424979966
 40
0.0625544123291244
 40
0.0625544123291244
 40
0.0625544123291244
 40
0.0625544123291244
 10
119.4014245245922
 20
357.1635067768629
 30
0.0
 10
119.3997841377441
 20
357.1699081896968
 30
0.0
 10
119.3979219481226
 20
357.179360862002
 30
0.0
 10
119.3943410322092
 20
357.2012482771855
 30
0.0
 10
119.3920494902837
 20
357.2183980957648
 30
0.0
 10
119.3884939023733
 20
357.2503906936006
 30
0.0
 10
119.3866054625905
 20
357.2709146898296
 30
0.0
 10
119.3853024109805
 20
357.2883723598435
 30
0.0
  0
SPLINE
  5
173
330
2
100
AcDbEntity
  8
Sichtbare Kanten(MSL)
100
AcDbSpline
210
0.0
220
0.0
230
1.0
 70
     8
 71
     3
 72
    12
 73
     8
 74
     0
 42
0.000000001
 43
0.0000000001
 40
0.0209582253696219
 40
0.0209582253696219
 40
0.0209582253696219
 40
0.0209582253696219
 40
0.0262100952007496
 40
0.0262100952007496
 40
0.0314079723979964
 40
0.0314079723979964
 40
0.0356231486981253
 40
0.0356231486981253
 40
0.0356231486981253
 40
0.0356231486981253
 10
121.3135318646577
 20
355.3601429061664
 30
0.0
 10
121.2960741946438
 20
355.3614459577764
 30
0.0
 10
121.2755501984147
 20
355.3633343975591
 30
0.0
 10
121.243557600579
 20
355.3668899854696
 30
0.0
 10
121.2264077819996
 20
355.369181527395
 30
0.0
 10
121.2045203668161
 20
355.3727624433084
 30
0.0
 10
121.1950676945109
 20
355.3746246329299
 30
0.0
 10
121.188666281677
 20
355.3762650197781
 30
0.0
  0
SPLINE
  5
175
330
2
100
AcDbEntity
  8
Sichtbare Kanten(MSL)
100
AcDbSpline
210
0.0
220
0.0
230
1.0
 70
     8
 71
     3
 72
    12
 73
     8
 74
     0
 42
0.000000001
 43
0.0000000001
 40
0.0478894890006209
 40
0.0478894890006209
 40
0.0478894890006209
 40
0.0478894890006209
 40
0.0521046653007499
 40
0.0521046653007499
 40
0.0573025424979967
 40
0.0573025424979967
 40
0.0625544123291244
 40
0.0625544123291244
 40
0.0625544123291244
 40
0.0625544123291244
 10
121.188666281677
 20
356.0570697958115
 30
0.0
 10
121.1950676945109
 20
356.0587101826596
 30
0.0
 10
121.2045203668161
 20
356.0605723722812
 30
0.0
 10
121.2264077819996
 20
356.0641532881945
 30
0.0
 10
121.243557600579
 20
356.06644483012
 30
0.0
 10
121.2755501984147
 20
356.0700004180305
 30
0.0
 10
121.2960741946438
 20
356.0718888578132
 30
0.0
 10
121.3135318646577
 20
356.0731919094231
 30
0.0
  0
SPLINE
  5
176
330
2
100
AcDbEntity
  8
UMRISS05
100
AcDbSpline
210
0.0
220
0.0
230
1.0
 70
     8
 71
     3
 72
    12
 73
     8
 74
     0
 42
0.000000001
 43
0.0000000001
 40
0.0209582253696219
 40
0.0209582253696219
 40
0.0209582253696219
 40
0.0209582253696219
 40
0.0262100952007496
 40
0.0262100952007496
 40
0.0314079723979964
 40
0.0314079723979964
 40
0.0356231486981258
 40
0.0356231486981258
 40
0.0356231486981258
 40
0.0356231486981258
 10
119.3853024109805
 20
354.144962455746
 30
0.0
 10
119.3866054625905
 20
354.1624201257599
 30
0.0
 10
119.3884939023733
 20
354.1829441219889
 30
0.0
 10
119.3920494902837
 20
354.2149367198248
 30
0.0
 10
119.3943410322092
 20
354.2320865384041
 30
0.0
 10
119.3979219481226
 20
354.2539739535876
 30
0.0
 10
119.3997841377441
 20
354.2634266258927
 30
0.0
 10
119.4014245245922
 20
354.2698280387267
 30
0.0
  0
SPLINE
  5
177
330
2
100
AcDbEntity
  8
UMRISS05
100
AcDbSpline
210
0.0
220
0.0
230
1.0
 70
     8
 71
     3
 72
    12
 73
     8
 74
     0
 42
0.000000001
 43
0.0000000001
 40
0.0478894890006205
 40
0.0478894890006205
 40
0.0478894890006205
 40
0.0478894890006205
 40
0.0521046653007498
 40
0.0521046653007498
 40
0.0573025424979966
 40
0.0573025424979966
 40
0.0625544123291244
 40
0.0625544123291244
 40
0.0625544123291244
 40
0.0625544123291244
 10
120.0822293006256
 20
354.2698280387267
 30
0.0
 10
120.0838696874738
 20
354.2634266258927
 30
0.0
 10
120.0857318770953
 20
354.2539739535876
 30
0.0
 10
120.0893127930087
 20
354.2320865384041
 30
0.0
 10
120.0916043349341
 20
354.2149367198248
 30
0.0
 10
120.0951599228446
 20
354.1829441219889
 30
0.0
 10
120.0970483626274
 20
354.1624201257599
 30
0.0
 10
120.0983514142373
 20
354.144962455746
 30
0.0
  0
CIRCLE
  5
178
330
2
100
AcDbEntity
  8
UMRISS05
100
AcDbCircle
 10
119.741826912609
 20
355.7166674077948
 30
0.0
 40
2.649999999999995
  0
ARC
  5
179
330
2
100
AcDbEntity
  8
UMRISS05
100
AcDbCircle
 10
119.741826912609
 20
355.7166674077948
 30
0.0
 40
0.8810679665896243
100
AcDbArc
 50
167.5386783373019
 51
192.4613216626965
  0
ARC
  5
17A
330
2
100
AcDbEntity
  8
UMRISS05
100
AcDbCircle
 10
119.741826912609
 20
355.7166674077948
 30
0.0
 40
0.8810679665896202
100
AcDbArc
 50
77.53867833730189
 51
102.4613216626981
  0
ARC
  5
17B
330
2
100
AcDbEntity
  8
UMRISS05
100
AcDbCircle
 10
119.741826912609
 20
355.7166674077948
 30
0.0
 40
0.8810679665896225
100
AcDbArc
 50
347.5386783373019
 51
12.46132166269649
  0
ARC
  5
17C
330
2
100
AcDbEntity
  8
UMRISS05
100
AcDbCircle
 10
119.741826912609
 20
355.7166674077948
 30
0.0
 40
0.8810679665896191
100
AcDbArc
 50
257.5386783373019
 51
282.4613216626981
  0
SPLINE
  5
17D
330
2
100
AcDbEntity
  8
UMRISS05
100
AcDbSpline
210
0.0
220
0.0
230
1.0
 70
    12
 71
     2
 72
     6
 73
     3
 74
     0
 42
0.000000001
 43
0.0000000001
 40
0.0
 40
0.0
 40
0.0
 40
0.0074036886590344
 40
0.0074036886590344
 40
0.0074036886590344
 10
120.1062730157712
 20
382.9145079475625
 30
0.0
 41
1.0
 10
120.0239262281927
 20
383.1550922970704
 30
0.0
 41
1.357093436693618
 10
119.9784181103388
 20
383.2882644549111
 30
0.0
 41
1.686909074955913
  0
LINE
  5
17E
330
2
100
AcDbEntity
  8
UMRISS05
100
AcDbLine
 10
120.4166329414911
 20
382.2531090727974
 30
0.0
 11
120.1043960044536
 21
383.3249625238082
 31
0.0
  0
SPLINE
  5
17F
330
2
100
AcDbEntity
  8
UMRISS05
100
AcDbSpline
210
0.0
220
0.0
230
1.0
 70
    12
 71
     2
 72
     6
 73
     3
 74
     0
 42
0.000000001
 43
0.0000000001
 40
0.0
 40
0.0
 40
0.0
 40
0.0074036886590343
 40
0.0074036886590343
 40
0.0074036886590343
 10
120.5439863728413
 20
384.0811135109571
 30
0.0
 41
1.0
 10
120.3034020233334
 20
383.9987667233785
 30
0.0
 41
1.357093436693617
 10
120.1702298654925
 20
383.9532586055248
 30
0.0
 41
1.686909074955913
  0
LINE
  5
180
330
2
100
AcDbEntity
  8
UMRISS05
100
AcDbLine
 10
121.2053852476063
 20
384.3914734366769
 30
0.0
 11
120.1335317965955
 21
384.0792364996395
 31
0.0
  0
ARC
  5
181
330
2
100
AcDbEntity
  8
UMRISS05
100
AcDbCircle
 10
120.0852585962087
 20
384.2449497458584
 30
0.0
 40
0.1726012220351237
100
AcDbArc
 50
187.7037824366587
 51
286.2411383710565
  0
SPLINE
  5
182
330
2
100
AcDbEntity
  8
UMRISS05
100
AcDbSpline
210
0.0
220
0.0
230
1.0
 70
     8
 71
     3
 72
    18
 73
    14
 74
     0
 42
0.000000001
 43
0.0000000001
 40
0.1307806668072011
 40
0.1307806668072011
 40
0.1307806668072011
 40
0.1307806668072011
 40
0.1428948119469433
 40
0.1428948119469433
 40
0.1502675919277733
 40
0.1502675919277733
 40
0.1576403719086032
 40
0.1576403719086032
 40
0.1650131518894332
 40
0.1650131518894332
 40
0.1723859318702632
 40
0.1723859318702632
 40
0.1845000770100053
 40
0.1845000770100053
 40
0.1845000770100053
 40
0.1845000770100053
 10
120.1702298654926
 20
383.9532586055248
 30
0.0
 10
120.1339270725834
 20
383.940853071178
 30
0.0
 10
120.0933303319376
 20
383.9354543938554
 30
0.0
 10
120.033467893556
 20
383.9389359833282
 30
0.0
 10
120.008506384712
 20
383.9431520761771
 30
0.0
 10
119.9597521873023
 20
383.9587571605623
 30
0.0
 10
119.9359338072355
 20
383.9701615456372
 30
0.0
 10
119.8947244553611
 20
383.9969513814401
 30
0.0
 10
119.8746346907663
 20
384.0140912935305
 30
0.0
 10
119.8405853484551
 20
384.0523160592186
 30
0.0
 10
119.8266012749215
 20
384.0734181456103
 30
0.0
 10
119.7991236602399
 20
384.1267155534803
 30
0.0
 10
119.787581183804
 20
384.1660094754737
 30
0.0
 10
119.7841852606294
 20
384.2042227946338
 30
0.0
  0
ARC
  5
183
330
2
100
AcDbEntity
  8
UMRISS05
100
AcDbCircle
 10
119.2135445745453
 20
384.0600990913945
 30
0.0
 40
0.1726012220351236
100
AcDbArc
 50
277.7037824366654
 51
16.24113837105985
  0
SPLINE
  5
184
330
2
100
AcDbEntity
  8
UMRISS05
100
AcDbSpline
210
0.0
220
0.0
230
1.0
 70
     8
 71
     3
 72
    18
 73
    14
 74
     0
 42
0.000000001
 43
0.0000000001
 40
0.1307806668072011
 40
0.1307806668072011
 40
0.1307806668072011
 40
0.1307806668072011
 40
0.1428948119469434
 40
0.1428948119469434
 40
0.1502675919277733
 40
0.1502675919277733
 40
0.1576403719086033
 40
0.1576403719086033
 40
0.1650131518894332
 40
0.1650131518894332
 40
0.1723859318702632
 40
0.1723859318702632
 40
0.1845000770100053
 40
0.1845000770100053
 40
0.1845000770100053
 40
0.1845000770100053
 10
119.5052357148789
 20
384.1450703606785
 30
0.0
 10
119.5176412492258
 20
384.1087675677692
 30
0.0
 10
119.5230399265483
 20
384.0681708271234
 30
0.0
 10
119.5195583370756
 20
384.0083083887418
 30
0.0
 10
119.5153422442267
 20
383.9833468798979
 30
0.0
 10
119.4997371598414
 20
383.9345926824882
 30
0.0
 10
119.4883327747665
 20
383.9107743024214
 30
0.0
 10
119.4615429389637
 20
383.8695649505469
 30
0.0
 10
119.4444030268732
 20
383.8494751859522
 30
0.0
 10
119.4061782611851
 20
383.8154258436409
 30
0.0
 10
119.3850761747935
 20
383.8014417701073
 30
0.0
 10
119.3317787669234
 20
383.7739641554258
 30
0.0
 10
119.29248484493
 20
383.7624216789899
 30
0.0
 10
119.2542715257699
 20
383.7590257558153
 30
0.0
  0
LINE
  5
185
330
2
100
AcDbEntity
  8
UMRISS05
100
AcDbLine
 10
118.1303526130393
 20
383.7393997280162
 30
0.0
 11
119.2366820455302
 21
383.8890557071774
 31
0.0
  0
SPLINE
  5
186
330
2
100
AcDbEntity
  8
UMRISS05
100
AcDbSpline
210
0.0
220
0.0
230
1.0
 70
    12
 71
     2
 72
     6
 73
     3
 74
     0
 42
0.000000001
 43
0.0000000001
 40
0.1864395669923014
 40
0.1864395669923014
 40
0.1864395669923014
 40
0.1938432556513322
 40
0.1938432556513322
 40
0.1938432556513322
 10
119.2542715257698
 20
383.7590257558152
 30
0.0
 41
1.686909074955607
 10
119.1140908464613
 20
383.7465682455033
 30
0.0
 41
1.357093436693451
 10
118.8607910162999
 20
383.7241847986557
 30
0.0
 41
1.0
  0
SPLINE
  5
187
330
2
100
AcDbEntity
  8
UMRISS05
100
AcDbSpline
210
0.0
220
0.0
230
1.0
 70
    12
 71
     2
 72
     6
 73
     3
 74
     0
 42
0.000000001
 43
0.0000000001
 40
0.0
 40
0.0
 40
0.0
 40
0.0074036886590344
 40
0.0074036886590344
 40
0.0074036886590344
 10
119.3773808094467
 20
384.5188268680272
 30
0.0
 41
1.0
 10
119.4597275970252
 20
384.2782425185193
 30
0.0
 41
1.357093436693618
 10
119.505235714879
 20
384.1450703606785
 30
0.0
 41
1.686909074955913
  0
LINE
  5
188
330
2
100
AcDbEntity
  8
UMRISS05
100
AcDbLine
 10
119.0670208837268
 20
385.1802257427922
 30
0.0
 11
119.3792578207643
 21
384.1083722917813
 31
0.0
  0
ARC
  5
189
330
2
100
AcDbEntity
  8
UMRISS05
100
AcDbCircle
 10
119.3983952290092
 20
383.1883850697311
 30
0.0
 40
0.1726012220351237
100
AcDbArc
 50
7.703782436658762
 51
106.2411383710565
  0
SPLINE
  5
18A
330
2
100
AcDbEntity
  8
UMRISS05
100
AcDbSpline
210
0.0
220
0.0
230
1.0
 70
     8
 71
     3
 72
    18
 73
    14
 74
     0
 42
0.000000001
 43
0.0000000001
 40
0.1307806668072012
 40
0.1307806668072012
 40
0.1307806668072012
 40
0.1307806668072012
 40
0.1428948119469434
 40
0.1428948119469434
 40
0.1502675919277733
 40
0.1502675919277733
 40
0.1576403719086033
 40
0.1576403719086033
 40
0.1650131518894333
 40
0.1650131518894333
 40
0.1723859318702632
 40
0.1723859318702632
 40
0.1845000770100055
 40
0.1845000770100055
 40
0.1845000770100055
 40
0.1845000770100055
 10
119.3134239597253
 20
383.4800762100648
 30
0.0
 10
119.3497267526345
 20
383.4924817444116
 30
0.0
 10
119.3903234932802
 20
383.4978804217342
 30
0.0
 10
119.4501859316619
 20
383.4943988322614
 30
0.0
 10
119.4751474405058
 20
383.4901827394125
 30
0.0
 10
119.5239016379155
 20
383.4745776550272
 30
0.0
 10
119.5477200179824
 20
383.4631732699524
 30
0.0
 10
119.5889293698568
 20
383.4363834341496
 30
0.0
 10
119.6090191344516
 20
383.4192435220591
 30
0.0
 10
119.6430684767628
 20
383.381018756371
 30
0.0
 10
119.6570525502964
 20
383.3599166699793
 30
0.0
 10
119.6845301649779
 20
383.3066192621092
 30
0.0
 10
119.6960726414139
 20
383.2673253401159
 30
0.0
 10
119.6994685645885
 20
383.2291120209557
 30
0.0
  0
LINE
  5
18B
330
2
100
AcDbEntity
  8
UMRISS05
100
AcDbLine
 10
119.7190945923874
 20
382.1051931082252
 30
0.0
 11
119.5694386132263
 21
383.2115225407161
 31
0.0
  0
SPLINE
  5
18C
330
2
100
AcDbEntity
  8
UMRISS05
100
AcDbSpline
210
0.0
220
0.0
230
1.0
 70
    12
 71
     2
 72
     6
 73
     3
 74
     0
 42
0.000000001
 43
0.0000000001
 40
0.1864395669923013
 40
0.1864395669923013
 40
0.1864395669923013
 40
0.1938432556513321
 40
0.1938432556513321
 40
0.1938432556513321
 10
119.6994685645885
 20
383.2291120209557
 30
0.0
 41
1.686909074955601
 10
119.7119260749005
 20
383.0889313416471
 30
0.0
 41
1.357093436693448
 10
119.734309521748
 20
382.8356315114858
 30
0.0
 41
1.0
  0
SPLINE
  5
18D
330
2
100
AcDbEntity
  8
UMRISS05
100
AcDbSpline
210
0.0
220
0.0
230
1.0
 70
    12
 71
     2
 72
     6
 73
     3
 74
     0
 42
0.000000001
 43
0.0000000001
 40
0.0
 40
0.0
 40
0.0
 40
0.0074036886590343
 40
0.0074036886590343
 40
0.0074036886590343
 10
118.9396674523766
 20
383.3522213046326
 30
0.0
 41
1.0
 10
119.1802518018844
 20
383.434568092211
 30
0.0
 41
1.357093436693621
 10
119.3134239597253
 20
383.4800762100649
 30
0.0
 41
1.68690907495592
  0
LINE
  5
18E
330
2
100
AcDbEntity
  8
UMRISS05
100
AcDbLine
 10
118.2782685776116
 20
383.0418613789126
 30
0.0
 11
119.3501220286223
 21
383.3540983159501
 31
0.0
  0
LINE
  5
18F
330
2
100
AcDbEntity
  8
UMRISS05
100
AcDbLine
 10
121.3533012121785
 20
383.6939350875733
 30
0.0
 11
120.2469717796876
 21
383.5442791084121
 31
0.0
  0
SPLINE
  5
190
330
2
100
AcDbEntity
  8
UMRISS05
100
AcDbSpline
210
0.0
220
0.0
230
1.0
 70
    12
 71
     2
 72
     6
 73
     3
 74
     0
 42
0.000000001
 43
0.0000000001
 40
0.1864395669923015
 40
0.1864395669923015
 40
0.1864395669923015
 40
0.1938432556513323
 40
0.1938432556513323
 40
0.1938432556513323
 10
120.2293822994479
 20
383.6743090597743
 30
0.0
 41
1.686909074955602
 10
120.3695629787565
 20
383.6867665700863
 30
0.0
 41
1.357093436693449
 10
120.6228628089179
 20
383.7091500169338
 30
0.0
 41
1.0
  0
LINE
  5
191
330
2
100
AcDbEntity
  8
UMRISS05
100
AcDbLine
 10
119.7645592328304
 20
385.3281417073644
 30
0.0
 11
119.9142152119916
 21
384.2218122748734
 31
0.0
  0
SPLINE
  5
192
330
2
100
AcDbEntity
  8
UMRISS05
100
AcDbSpline
210
0.0
220
0.0
230
1.0
 70
    12
 71
     2
 72
     6
 73
     3
 74
     0
 42
0.000000001
 43
0.0000000001
 40
0.1864395669923013
 40
0.1864395669923013
 40
0.1864395669923013
 40
0.1938432556513321
 40
0.1938432556513321
 40
0.1938432556513321
 10
119.7841852606294
 20
384.2042227946338
 30
0.0
 41
1.686909074955601
 10
119.7717277503174
 20
384.3444034739425
 30
0.0
 41
1.357093436693448
 10
119.7493443034699
 20
384.5977033041038
 30
0.0
 41
1.0
  0
ARC
  5
193
330
2
100
AcDbEntity
  8
UMRISS05
100
AcDbCircle
 10
120.2701092506726
 20
383.3732357241951
 30
0.0
 40
0.1726012220351237
100
AcDbArc
 50
97.7037824366654
 51
196.2411383710598
  0
SPLINE
  5
194
330
2
100
AcDbEntity
  8
UMRISS05
100
AcDbSpline
210
0.0
220
0.0
230
1.0
 70
     8
 71
     3
 72
    18
 73
    14
 74
     0
 42
0.000000001
 43
0.0000000001
 40
0.1307806668072011
 40
0.1307806668072011
 40
0.1307806668072011
 40
0.1307806668072011
 40
0.1428948119469433
 40
0.1428948119469433
 40
0.1502675919277733
 40
0.1502675919277733
 40
0.1576403719086032
 40
0.1576403719086032
 40
0.1650131518894332
 40
0.1650131518894332
 40
0.1723859318702632
 40
0.1723859318702632
 40
0.1845000770100054
 40
0.1845000770100054
 40
0.1845000770100054
 40
0.1845000770100054
 10
119.9784181103389
 20
383.2882644549111
 30
0.0
 10
119.9660125759921
 20
383.3245672478204
 30
0.0
 10
119.9606138986696
 20
383.3651639884661
 30
0.0
 10
119.9640954881423
 20
383.4250264268478
 30
0.0
 10
119.9683115809912
 20
383.4499879356917
 30
0.0
 10
119.9839166653764
 20
383.4987421331014
 30
0.0
 10
119.9953210504513
 20
383.5225605131682
 30
0.0
 10
120.0221108862542
 20
383.5637698650426
 30
0.0
 10
120.0392507983446
 20
383.5838596296374
 30
0.0
 10
120.0774755640328
 20
383.6179089719486
 30
0.0
 10
120.0985776504244
 20
383.6318930454823
 30
0.0
 10
120.1518750582944
 20
383.6593706601638
 30
0.0
 10
120.1911689802878
 20
383.6709131365997
 30
0.0
 10
120.2293822994479
 20
383.6743090597743
 30
0.0
  0
SPLINE
  5
195
330
2
100
AcDbEntity
  8
UMRISS05
100
AcDbSpline
210
0.0
220
0.0
230
1.0
 70
    12
 71
     2
 72
     6
 73
     3
 74
     0
 42
0.000000001
 43
0.0000000001
 40
0.0
 40
0.0
 40
0.0
 40
0.1376359333936737
 40
0.1376359333936737
 40
0.1376359333936737
 10
119.7493443034699
 20
384.5977033041038
 30
0.0
 41
1.0
 10
119.7587823551703
 20
384.8231834185875
 30
0.0
 41
1.03579779137536
 10
119.7746901222962
 20
385.2026478770816
 30
0.0
 41
1.003318069934927
  0
SPLINE
  5
196
330
2
100
AcDbEntity
  8
UMRISS05
100
AcDbSpline
210
0.0
220
0.0
230
1.0
 70
    12
 71
     2
 72
     6
 73
     3
 74
     0
 42
0.000000001
 43
0.0000000001
 40
0.0066886685476671
 40
0.0066886685476671
 40
0.0066886685476671
 40
0.1443246019424431
 40
0.1443246019424431
 40
0.1443246019424431
 10
119.1086946053441
 20
385.0614207038124
 30
0.0
 41
1.00331806994064
 10
119.2772420687917
 20
384.7210707590345
 30
0.0
 41
1.035797791442895
 10
119.3773808094467
 20
384.5188268680272
 30
0.0
 41
1.0
  0
SPLINE
  5
197
330
2
100
AcDbEntity
  8
UMRISS05
100
AcDbSpline
210
0.0
220
0.0
230
1.0
 70
    12
 71
     2
 72
     6
 73
     3
 74
     0
 42
0.000000001
 43
0.0000000001
 40
0.0
 40
0.0
 40
0.0
 40
0.1376359332989502
 40
0.1376359332989502
 40
0.1376359332989502
 10
120.6228628089179
 20
383.7091500169338
 30
0.0
 41
1.0
 10
120.848342926553
 20
383.6997119651014
 30
0.0
 41
1.035797784978621
 10
121.2278073818958
 20
383.6838041981076
 30
0.0
 41
1.003318069389008
  0
SPLINE
  5
198
330
2
100
AcDbEntity
  8
UMRISS05
100
AcDbSpline
210
0.0
220
0.0
230
1.0
 70
    12
 71
     2
 72
     6
 73
     3
 74
     0
 42
0.000000001
 43
0.0000000001
 40
0.0066886686434352
 40
0.0066886686434352
 40
0.0066886686434352
 40
0.1443246019424431
 40
0.1443246019424431
 40
0.1443246019424431
 10
121.0865802086266
 20
384.3497997150596
 30
0.0
 41
1.003318069389957
 10
120.7462302667108
 20
384.1812522530294
 30
0.0
 41
1.035797784989172
 10
120.5439863728413
 20
384.0811135109571
 30
0.0
 41
1.0
  0
SPLINE
  5
199
330
2
100
AcDbEntity
  8
UMRISS05
100
AcDbSpline
210
0.0
220
0.0
230
1.0
 70
    12
 71
     2
 72
     6
 73
     3
 74
     0
 42
0.000000001
 43
0.0000000001
 40
0.0
 40
0.0
 40
0.0
 40
0.1376359333936737
 40
0.1376359333936737
 40
0.1376359333936737
 10
119.734309521748
 20
382.8356315114858
 30
0.0
 41
1.0
 10
119.7248714700476
 20
382.610151397002
 30
0.0
 41
1.03579779137536
 10
119.7089637029217
 20
382.230686938508
 30
0.0
 41
1.003318069934927
  0
SPLINE
  5
19A
330
2
100
AcDbEntity
  8
UMRISS05
100
AcDbSpline
210
0.0
220
0.0
230
1.0
 70
    12
 71
     2
 72
     6
 73
     3
 74
     0
 42
0.000000001
 43
0.0000000001
 40
0.0066886685476671
 40
0.0066886685476671
 40
0.0066886685476671
 40
0.1443246019424431
 40
0.1443246019424431
 40
0.1443246019424431
 10
120.3749592198737
 20
382.3719141117772
 30
0.0
 41
1.00331806994064
 10
120.2064117564262
 20
382.712264056555
 30
0.0
 41
1.035797791442895
 10
120.1062730157712
 20
382.9145079475625
 30
0.0
 41
1.0
  0
SPLINE
  5
19B
330
2
100
AcDbEntity
  8
UMRISS05
100
AcDbSpline
210
0.0
220
0.0
230
1.0
 70
    12
 71
     2
 72
     6
 73
     3
 74
     0
 42
0.000000001
 43
0.0000000001
 40
0.0
 40
0.0
 40
0.0
 40
0.1376359334142349
 40
0.1376359334142349
 40
0.1376359334142349
 10
118.8607910162999
 20
383.7241847986557
 30
0.0
 41
1.0
 10
118.6353109025073
 20
383.7336228503272
 30
0.0
 41
1.035797792744686
 10
118.2558464433222
 20
383.749530617482
 30
0.0
 41
1.003318070051649
  0
SPLINE
  5
19C
330
2
100
AcDbEntity
  8
UMRISS05
100
AcDbSpline
210
0.0
220
0.0
230
1.0
 70
    12
 71
     2
 72
     6
 73
     3
 74
     0
 42
0.000000001
 43
0.0000000001
 40
0.0066886685305404
 40
0.0066886685305404
 40
0.0066886685305404
 40
0.1443246019424431
 40
0.1443246019424431
 40
0.1443246019424431
 10
118.3970736165913
 20
383.08353510053
 30
0.0
 41
1.003318070038473
 10
118.7374235618833
 20
383.2520825642321
 30
0.0
 41
1.035797792590058
 10
118.9396674523766
 20
383.3522213046326
 30
0.0
 41
1.0
  0
SPLINE
  5
19D
330
2
100
AcDbEntity
  8
UMRISS05
100
AcDbSpline
210
0.0
220
0.0
230
1.0
 70
     8
 71
     3
 72
    12
 73
     8
 74
     0
 42
0.000000001
 43
0.0000000001
 40
0.0209582253696219
 40
0.0209582253696219
 40
0.0209582253696219
 40
0.0209582253696219
 40
0.0262100952007496
 40
0.0262100952007496
 40
0.0314079723979964
 40
0.0314079723979964
 40
0.0356231486981253
 40
0.0356231486981253
 40
0.0356231486981253
 40
0.0356231486981253
 10
119.7645592328304
 20
385.3281417073644
 30
0.0
 10
119.7669059714455
 20
385.310793479683
 30
0.0
 10
119.7693161389415
 20
385.2903241924784
 30
0.0
 10
119.7724744871569
 20
385.2582899395884
 30
0.0
 10
119.7737903765018
 20
385.2410378128519
 30
0.0
 10
119.7748277132781
 20
385.2188836747598
 30
0.0
 10
119.7749669077332
 20
385.2092503270136
 30
0.0
 10
119.7746901222962
 20
385.2026478770815
 30
0.0
  0
SPLINE
  5
19E
330
2
100
AcDbEntity
  8
UMRISS05
100
AcDbSpline
210
0.0
220
0.0
230
1.0
 70
     8
 71
     3
 72
    12
 73
     8
 74
     0
 42
0.000000001
 43
0.0000000001
 40
0.0478894890006209
 40
0.0478894890006209
 40
0.0478894890006209
 40
0.0478894890006209
 40
0.0521046653007499
 40
0.0521046653007499
 40
0.0573025424979967
 40
0.0573025424979967
 40
0.0625544123291244
 40
0.0625544123291244
 40
0.0625544123291244
 40
0.0625544123291244
 10
119.1086946053441
 20
385.0614207038124
 30
0.0
 10
119.105761982371
 20
385.0673425850828
 30
0.0
 10
119.1019794235233
 20
385.0762033419612
 30
0.0
 10
119.0939360432266
 20
385.0968718188184
 30
0.0
 10
119.0881367639202
 20
385.1131732237035
 30
0.0
 10
119.0780219262916
 20
385.143732323517
 30
0.0
 10
119.071917036098
 20
385.1634181291076
 30
0.0
 10
119.0670208837268
 20
385.1802257427922
 30
0.0
  0
SPLINE
  5
19F
330
2
100
AcDbEntity
  8
UMRISS05
100
AcDbSpline
210
0.0
220
0.0
230
1.0
 70
     8
 71
     3
 72
    12
 73
     8
 74
     0
 42
0.000000001
 43
0.0000000001
 40
0.0209582253696219
 40
0.0209582253696219
 40
0.0209582253696219
 40
0.0209582253696219
 40
0.0262100952007496
 40
0.0262100952007496
 40
0.0314079723979964
 40
0.0314079723979964
 40
0.035623148698123
 40
0.035623148698123
 40
0.035623148698123
 40
0.035623148698123
 10
121.3533012121785
 20
383.6939350875733
 30
0.0
 10
121.3359529844971
 20
383.6915883489581
 30
0.0
 10
121.3154836972925
 20
383.6891781814622
 30
0.0
 10
121.2834494444025
 20
383.6860198332469
 30
0.0
 10
121.2661973176661
 20
383.6847039439019
 30
0.0
 10
121.2440431795739
 20
383.6836666071257
 30
0.0
 10
121.2344098318277
 20
383.6835274126705
 30
0.0
 10
121.2278073818957
 20
383.6838041981076
 30
0.0
  0
SPLINE
  5
1A0
330
2
100
AcDbEntity
  8
UMRISS05
100
AcDbSpline
210
0.0
220
0.0
230
1.0
 70
     8
 71
     3
 72
    12
 73
     8
 74
     0
 42
0.000000001
 43
0.0000000001
 40
0.0478894890006233
 40
0.0478894890006233
 40
0.0478894890006233
 40
0.0478894890006233
 40
0.0521046653007499
 40
0.0521046653007499
 40
0.0573025424979966
 40
0.0573025424979966
 40
0.0625544123291244
 40
0.0625544123291244
 40
0.0625544123291244
 40
0.0625544123291244
 10
121.0865802086265
 20
384.3497997150596
 30
0.0
 10
121.0925020898969
 20
384.3527323380328
 30
0.0
 10
121.1013628467753
 20
384.3565148968805
 30
0.0
 10
121.1220313236325
 20
384.3645582771771
 30
0.0
 10
121.1383327285176
 20
384.3703575564834
 30
0.0
 10
121.1688918283312
 20
384.3804723941121
 30
0.0
 10
121.1885776339217
 20
384.3865772843057
 30
0.0
 10
121.2053852476063
 20
384.3914734366769
 30
0.0
  0
SPLINE
  5
1A1
330
2
100
AcDbEntity
  8
UMRISS05
100
AcDbSpline
210
0.0
220
0.0
230
1.0
 70
     8
 71
     3
 72
    12
 73
     8
 74
     0
 42
0.000000001
 43
0.0000000001
 40
0.0209582253696219
 40
0.0209582253696219
 40
0.0209582253696219
 40
0.0209582253696219
 40
0.0262100952007496
 40
0.0262100952007496
 40
0.0314079723979964
 40
0.0314079723979964
 40
0.0356231486981253
 40
0.0356231486981253
 40
0.0356231486981253
 40
0.0356231486981253
 10
119.7190945923874
 20
382.1051931082252
 30
0.0
 10
119.7167478537723
 20
382.1225413359065
 30
0.0
 10
119.7143376862764
 20
382.1430106231111
 30
0.0
 10
119.711179338061
 20
382.1750448760012
 30
0.0
 10
119.7098634487161
 20
382.1922970027377
 30
0.0
 10
119.7088261119398
 20
382.2144511408298
 30
0.0
 10
119.7086869174846
 20
382.224084488576
 30
0.0
 10
119.7089637029217
 20
382.230686938508
 30
0.0
  0
SPLINE
  5
1A2
330
2
100
AcDbEntity
  8
UMRISS05
100
AcDbSpline
210
0.0
220
0.0
230
1.0
 70
     8
 71
     3
 72
    12
 73
     8
 74
     0
 42
0.000000001
 43
0.0000000001
 40
0.0478894890006209
 40
0.0478894890006209
 40
0.0478894890006209
 40
0.0478894890006209
 40
0.0521046653007499
 40
0.0521046653007499
 40
0.0573025424979967
 40
0.0573025424979967
 40
0.0625544123291244
 40
0.0625544123291244
 40
0.0625544123291244
 40
0.0625544123291244
 10
120.3749592198737
 20
382.3719141117772
 30
0.0
 10
120.3778918428469
 20
382.3659922305068
 30
0.0
 10
120.3816744016945
 20
382.3571314736284
 30
0.0
 10
120.3897177819913
 20
382.3364629967711
 30
0.0
 10
120.3955170612976
 20
382.3201615918861
 30
0.0
 10
120.4056318989263
 20
382.2896024920725
 30
0.0
 10
120.4117367891198
 20
382.269916686482
 30
0.0
 10
120.4166329414911
 20
382.2531090727974
 30
0.0
  0
SPLINE
  5
1A3
330
2
100
AcDbEntity
  8
UMRISS05
100
AcDbSpline
210
0.0
220
0.0
230
1.0
 70
     8
 71
     3
 72
    12
 73
     8
 74
     0
 42
0.000000001
 43
0.0000000001
 40
0.0209582253696219
 40
0.0209582253696219
 40
0.0209582253696219
 40
0.0209582253696219
 40
0.0262100952007496
 40
0.0262100952007496
 40
0.0314079723979964
 40
0.0314079723979964
 40
0.0356231486981258
 40
0.0356231486981258
 40
0.0356231486981258
 40
0.0356231486981258
 10
118.1303526130393
 20
383.7393997280162
 30
0.0
 10
118.1477008407207
 20
383.7417464666314
 30
0.0
 10
118.1681701279253
 20
383.7441566341274
 30
0.0
 10
118.2002043808153
 20
383.7473149823427
 30
0.0
 10
118.2174565075518
 20
383.7486308716877
 30
0.0
 10
118.2396106456439
 20
383.749668208464
 30
0.0
 10
118.2492439933901
 20
383.749807402919
 30
0.0
 10
118.2558464433222
 20
383.749530617482
 30
0.0
  0
SPLINE
  5
1A4
330
2
100
AcDbEntity
  8
UMRISS05
100
AcDbSpline
210
0.0
220
0.0
230
1.0
 70
     8
 71
     3
 72
    12
 73
     8
 74
     0
 42
0.000000001
 43
0.0000000001
 40
0.0478894890006205
 40
0.0478894890006205
 40
0.0478894890006205
 40
0.0478894890006205
 40
0.0521046653007498
 40
0.0521046653007498
 40
0.0573025424979966
 40
0.0573025424979966
 40
0.0625544123291244
 40
0.0625544123291244
 40
0.0625544123291244
 40
0.0625544123291244
 10
118.3970736165913
 20
383.0835351005299
 30
0.0
 10
118.391151735321
 20
383.0806024775569
 30
0.0
 10
118.3822909784425
 20
383.0768199187091
 30
0.0
 10
118.3616225015853
 20
383.0687765384125
 30
0.0
 10
118.3453210967003
 20
383.0629772591061
 30
0.0
 10
118.3147619968866
 20
383.0528624214775
 30
0.0
 10
118.2950761912962
 20
383.0467575312839
 30
0.0
 10
118.2782685776116
 20
383.0418613789126
 30
0.0
  0
CIRCLE
  5
1A5
330
2
100
AcDbEntity
  8
UMRISS05
100
AcDbCircle
 10
119.741826912609
 20
383.7166674077948
 30
0.0
 40
2.649999999999996
  0
ARC
  5
1A6
330
2
100
AcDbEntity
  8
UMRISS05
100
AcDbCircle
 10
119.741826912609
 20
383.7166674077948
 30
0.0
 40
0.8810679665896245
100
AcDbArc
 50
89.51113874116257
 51
114.4337820665584
  0
ARC
  5
1A7
330
2
100
AcDbEntity
  8
UMRISS05
100
AcDbCircle
 10
119.741826912609
 20
383.7166674077948
 30
0.0
 40
0.8810679665896204
100
AcDbArc
 50
359.5111387411626
 51
24.43378206656035
  0
ARC
  5
1A8
330
2
100
AcDbEntity
  8
UMRISS05
100
AcDbCircle
 10
119.741826912609
 20
383.7166674077948
 30
0.0
 40
0.881067966589623
100
AcDbArc
 50
269.5111387411626
 51
294.4337820665584
  0
ARC
  5
1A9
330
2
100
AcDbEntity
  8
UMRISS05
100
AcDbCircle
 10
119.741826912609
 20
383.7166674077948
 30
0.0
 40
0.8810679665896195
100
AcDbArc
 50
179.5111387411625
 51
204.4337820665603
  0
SPLINE
  5
1AA
330
2
100
AcDbEntity
  8
UMRISS05
100
AcDbSpline
210
0.0
220
0.0
230
1.0
 70
     8
 71
     3
 72
    18
 73
    14
 74
     0
 42
0.000000001
 43
0.0000000001
 40
-0.2623135056241344
 40
-0.2623135056241344
 40
-0.2623135056241344
 40
-0.2623135056241344
 40
-0.2590148052895744
 40
-0.2590148052895744
 40
-0.2557161049550145
 40
-0.2557161049550145
 40
-0.2491187042858944
 40
-0.2491187042858944
 40
-0.2390800049869275
 40
-0.2390800049869275
 40
-0.2143218936185063
 40
-0.2143218936185063
 40
-0.2015701309880868
 40
-0.2015701309880868
 40
-0.2015701309880868
 40
-0.2015701309880868
 10
122.741826912609
 20
384.9776194290866
 30
0.0
 10
122.741826912609
 20
384.9776194290866
 30
0.0
 10
122.7427439152936
 20
384.9758054815855
 30
0.0
 10
122.7461085760317
 20
384.9690998244212
 30
0.0
 10
122.7485683143276
 20
384.9641843771312
 30
0.0
 10
122.7574495040828
 20
384.9462239035757
 30
0.0
 10
122.7655127929281
 20
384.9296570546801
 30
0.0
 10
122.7852138937201
 20
384.8879729555999
 30
0.0
 10
122.8004262945955
 20
384.8544621557244
 30
0.0
 10
122.8439934348623
 20
384.7534212898991
 30
0.0
 10
122.8788579637032
 20
384.6615770842118
 30
0.0
 10
122.9174871018496
 20
384.5428895492426
 30
0.0
 10
122.9300619898377
 20
384.5011195668014
 30
0.0
 10
122.9418269126089
 20
384.4582872565043
 30
0.0
  0
ARC
  5
1AB
330
2
100
AcDbEntity
  8
UMRISS05
100
AcDbCircle
 10
120.241826912609
 20
383.7166674077947
 30
0.0
 40
2.799999999999996
100
AcDbArc
 50
344.6411144191771
 51
15.35888558082292
  0
SPLINE
  5
1AC
330
2
100
AcDbEntity
  8
UMRISS05
100
AcDbSpline
210
0.0
220
0.0
230
1.0
 70
     8
 71
     3
 72
    18
 73
    14
 74
     0
 42
0.000000001
 43
0.0000000001
 40
-0.0607433746360477
 40
-0.0607433746360477
 40
-0.0607433746360477
 40
-0.0607433746360477
 40
-0.0479916120056284
 40
-0.0479916120056284
 40
-0.0232335006372069
 40
-0.0232335006372069
 40
-0.0131948013382399
 40
-0.0131948013382399
 40
-0.00659740066912
 40
-0.00659740066912
 40
-0.0032987003345599
 40
-0.0032987003345599
 40
0.0
 40
0.0
 40
0.0
 40
0.0
 10
122.9418269126089
 20
382.9750475590851
 30
0.0
 10
122.9300619898377
 20
382.932215248788
 30
0.0
 10
122.9174871018496
 20
382.8904452663468
 30
0.0
 10
122.8788579637032
 20
382.7717577313777
 30
0.0
 10
122.8439934348623
 20
382.6799135256904
 30
0.0
 10
122.8004262945955
 20
382.5788726598651
 30
0.0
 10
122.7852138937201
 20
382.5453618599896
 30
0.0
 10
122.7655127929281
 20
382.5036777609093
 30
0.0
 10
122.7574495040828
 20
382.4871109120138
 30
0.0
 10
122.7485683143276
 20
382.4691504384583
 30
0.0
 10
122.7461085760317
 20
382.4642349911682
 30
0.0
 10
122.7427439152936
 20
382.457529334004
 30
0.0
 10
122.741826912609
 20
382.4557153865029
 30
0.0
 10
122.741826912609
 20
382.4557153865029
 30
0.0
  0
SPLINE
  5
1AD
330
2
100
AcDbEntity
  8
UMRISS05
100
AcDbSpline
210
0.0
220
0.0
230
1.0
 70
     8
 71
     3
 72
    18
 73
    14
 74
     0
 42
0.000000001
 43
0.0000000001
 40
-0.262313505624138
 40
-0.262313505624138
 40
-0.262313505624138
 40
-0.262313505624138
 40
-0.259014805289578
 40
-0.259014805289578
 40
-0.255716104955018
 40
-0.255716104955018
 40
-0.2491187042858979
 40
-0.2491187042858979
 40
-0.2390800049869307
 40
-0.2390800049869307
 40
-0.2143218936185092
 40
-0.2143218936185092
 40
-0.2015701309880913
 40
-0.2015701309880913
 40
-0.2015701309880913
 40
-0.2015701309880913
 10
122.741826912609
 20
356.9776194290866
 30
0.0
 10
122.741826912609
 20
356.9776194290866
 30
0.0
 10
122.7427439152936
 20
356.9758054815856
 30
0.0
 10
122.7461085760317
 20
356.9690998244213
 30
0.0
 10
122.7485683143276
 20
356.9641843771312
 30
0.0
 10
122.7574495040828
 20
356.9462239035757
 30
0.0
 10
122.7655127929281
 20
356.9296570546801
 30
0.0
 10
122.7852138937201
 20
356.8879729555999
 30
0.0
 10
122.8004262945955
 20
356.8544621557244
 30
0.0
 10
122.8439934348623
 20
356.7534212898991
 30
0.0
 10
122.8788579637032
 20
356.6615770842117
 30
0.0
 10
122.9174871018496
 20
356.5428895492427
 30
0.0
 10
122.9300619898377
 20
356.5011195668014
 30
0.0
 10
122.9418269126089
 20
356.4582872565044
 30
0.0
  0
ARC
  5
1AE
330
2
100
AcDbEntity
  8
UMRISS05
100
AcDbCircle
 10
120.241826912609
 20
355.7166674077947
 30
0.0
 40
2.79999999999999
100
AcDbArc
 50
344.6411144191771
 51
15.35888558082492
  0
SPLINE
  5
1AF
330
2
100
AcDbEntity
  8
UMRISS05
100
AcDbSpline
210
0.0
220
0.0
230
1.0
 70
     8
 71
     3
 72
    18
 73
    14
 74
     0
 42
0.000000001
 43
0.0000000001
 40
-0.0607433746360466
 40
-0.0607433746360466
 40
-0.0607433746360466
 40
-0.0607433746360466
 40
-0.0479916120056285
 40
-0.0479916120056285
 40
-0.0232335006372073
 40
-0.0232335006372073
 40
-0.0131948013382402
 40
-0.0131948013382402
 40
-0.0065974006691201
 40
-0.0065974006691201
 40
-0.00329870033456
 40
-0.00329870033456
 40
0.0
 40
0.0
 40
0.0
 40
0.0
 10
122.9418269126089
 20
354.9750475590851
 30
0.0
 10
122.9300619898377
 20
354.9322152487881
 30
0.0
 10
122.9174871018496
 20
354.8904452663468
 30
0.0
 10
122.8788579637032
 20
354.7717577313778
 30
0.0
 10
122.8439934348623
 20
354.6799135256904
 30
0.0
 10
122.8004262945955
 20
354.5788726598651
 30
0.0
 10
122.7852138937201
 20
354.5453618599896
 30
0.0
 10
122.7655127929281
 20
354.5036777609094
 30
0.0
 10
122.7574495040828
 20
354.4871109120138
 30
0.0
 10
122.7485683143276
 20
354.4691504384583
 30
0.0
 10
122.7461085760317
 20
354.4642349911682
 30
0.0
 10
122.7427439152936
 20
354.457529334004
 30
0.0
 10
122.741826912609
 20
354.4557153865029
 30
0.0
 10
122.741826912609
 20
354.4557153865029
 30
0.0
  0
LINE
  5
1B0
330
2
100
AcDbEntity
  8
UMRISS05
100
AcDbLine
 10
120.241826912609
 20
386.5166674077947
 30
0.0
 11
116.241826912609
 21
386.5166674077947
 31
0.0
  0
ARC
  5
1B1
330
2
100
AcDbEntity
  8
UMRISS05
100
AcDbCircle
 10
116.241826912609
 20
383.7166674077947
 30
0.0
 40
2.8
100
AcDbArc
 50
90.0
 51
270.0
  0
LINE
  5
1B2
330
2
100
AcDbEntity
  8
UMRISS05
100
AcDbLine
 10
116.241826912609
 20
380.9166674077948
 30
0.0
 11
120.241826912609
 21
380.9166674077948
 31
0.0
  0
ARC
  5
1B3
330
2
100
AcDbEntity
  8
UMRISS05
100
AcDbCircle
 10
120.241826912609
 20
383.7166674077947
 30
0.0
 40
2.800000000000002
100
AcDbArc
 50
26.76550057675605
 51
90.0
  0
ARC
  5
1B4
330
2
100
AcDbEntity
  8
UMRISS05
100
AcDbCircle
 10
120.241826912609
 20
383.7166674077947
 30
0.0
 40
2.799999999999998
100
AcDbArc
 50
270.0
 51
333.2344994232429
  0
LINE
  5
1B5
330
2
100
AcDbEntity
  8
UMRISS05
100
AcDbLine
 10
116.241826912609
 20
357.3666674077947
 30
0.0
 11
117.6681827772761
 21
357.3666674077947
 31
0.0
  0
LINE
  5
1B6
330
2
100
AcDbEntity
  8
UMRISS05
100
AcDbLine
 10
120.241826912609
 20
358.5166674077948
 30
0.0
 11
116.241826912609
 21
358.5166674077948
 31
0.0
  0
ARC
  5
1B7
330
2
100
AcDbEntity
  8
UMRISS05
100
AcDbCircle
 10
116.241826912609
 20
355.7166674077947
 30
0.0
 40
1.65
100
AcDbArc
 50
90.0
 51
270.0
  0
ARC
  5
1B8
330
2
100
AcDbEntity
  8
UMRISS05
100
AcDbCircle
 10
116.241826912609
 20
355.7166674077947
 30
0.0
 40
2.8
100
AcDbArc
 50
90.0
 51
270.0
  0
LINE
  5
1B9
330
2
100
AcDbEntity
  8
UMRISS05
100
AcDbLine
 10
117.6681827772762
 20
354.0666674077947
 30
0.0
 11
116.241826912609
 21
354.0666674077947
 31
0.0
  0
LINE
  5
1BA
330
2
100
AcDbEntity
  8
UMRISS05
100
AcDbLine
 10
116.241826912609
 20
352.9166674077948
 30
0.0
 11
120.241826912609
 21
352.9166674077948
 31
0.0
  0
ARC
  5
1BB
330
2
100
AcDbEntity
  8
UMRISS05
100
AcDbCircle
 10
120.241826912609
 20
355.7166674077947
 30
0.0
 40
2.799999999999995
100
AcDbArc
 50
26.76550057675605
 51
90.0
  0
ARC
  5
1BC
330
2
100
AcDbEntity
  8
UMRISS05
100
AcDbCircle
 10
120.241826912609
 20
355.7166674077947
 30
0.0
 40
2.799999999999991
100
AcDbArc
 50
270.0
 51
333.2344994232429
  0
LINE
  5
1BD
330
2
100
AcDbEntity
  8
UMRISS05
100
AcDbLine
 10
125.741826912609
 20
348.2166674077947
 30
0.0
 11
125.741826912609
 21
391.2166674077947
 31
0.0
  0
LINE
  5
1BE
330
2
100
AcDbEntity
  8
UMRISS05
100
AcDbLine
 10
113.5057589351091
 20
348.2166674077947
 30
0.0
 11
125.741826912609
 21
348.2166674077947
 31
0.0
  0
LINE
  5
1BF
330
2
100
AcDbEntity
  8
UMRISS05
100
AcDbLine
 10
124.508821753846
 20
348.2166674077947
 30
0.0
 11
124.508821753846
 21
391.2166674077947
 31
0.0
  0
LINE
  5
1C0
330
2
100
AcDbEntity
  8
UMRISS05
100
AcDbLine
 10
123.6088217538461
 20
348.2166674077947
 30
0.0
 11
123.6088217538461
 21
391.2166674077947
 31
0.0
  0
LINE
  5
1C1
330
2
100
AcDbEntity
  8
UMRISS05
100
AcDbLine
 10
125.741826912609
 20
391.2166674077947
 30
0.0
 11
113.5057589351092
 21
391.2166674077947
 31
0.0
  0
LINE
  5
1C2
330
2
100
AcDbEntity
  8
UMRISS05
100
AcDbLine
 10
122.741826912609
 20
348.2166674077947
 30
0.0
 11
122.741826912609
 21
354.4557153865029
 31
0.0
  0
LINE
  5
1C3
330
2
100
AcDbEntity
  8
UMRISS05
100
AcDbLine
 10
122.741826912609
 20
356.9776194290866
 30
0.0
 11
122.741826912609
 21
382.4557153865029
 31
0.0
  0
LINE
  5
1C4
330
2
100
AcDbEntity
  8
UMRISS05
100
AcDbLine
 10
122.741826912609
 20
384.9776194290866
 30
0.0
 11
122.741826912609
 21
391.2166674077947
 31
0.0
  0
LINE
  5
1C5
330
2
100
AcDbEntity
  8
AVERDECKTE
100
AcDbLine
 10
109.241826912609
 20
428.2166674078269
 30
0.0
 11
108.0347201314224
 21
428.2166674078269
 31
0.0
  0
LINE
  5
1CA
330
2
100
AcDbEntity
  8
AVERDECKTE
100
AcDbLine
 10
109.241826912609
 20
423.2166674078269
 30
0.0
 11
108.0347201314224
 21
423.2166674078269
 31
0.0
  0
LINE
  5
1CB
330
2
100
AcDbEntity
  8
AVERDECKTE
100
AcDbLine
 10
109.241826912609
 20
235.2166674077948
 30
0.0
 11
108.0347201314224
 21
235.2166674077948
 31
0.0
  0
LINE
  5
1CC
330
2
100
AcDbEntity
  8
AVERDECKTE
100
AcDbLine
 10
109.241826912609
 20
230.2166674077947
 30
0.0
 11
108.0347201314224
 21
230.2166674077947
 31
0.0
  0
LINE
  5
1CD
330
2
100
AcDbEntity
  8
AVERDECKTE
100
AcDbLine
 10
109.241826912609
 20
333.7166674077948
 30
0.0
 11
108.0347201314224
 21
333.7166674077948
 31
0.0
  0
LINE
  5
1CE
330
2
100
AcDbEntity
  8
AVERDECKTE
100
AcDbLine
 10
109.241826912609
 20
328.7166674077948
 30
0.0
 11
108.0347201314224
 21
328.7166674077948
 31
0.0
  0
ELLIPSE
  5
1CF
330
2
100
AcDbEntity
  8
AVERDECKTE
100
AcDbEllipse
 10
109.241826912609
 20
425.7166674078269
 30
0.0
 11
3.535533905932766
 21
0.0
 31
0.0
210
0.0
220
0.0
230
1.0
 40
0.7071067811865418
 41
4.712388980384689
 42
7.853981633974482
  0
ELLIPSE
  5
1D0
330
2
100
AcDbEntity
  8
AVERDECKTE
100
AcDbEllipse
 10
109.241826912609
 20
232.7166674077947
 30
0.0
 11
3.535533905932738
 21
0.0
 31
0.0
210
0.0
220
0.0
230
1.0
 40
0.7071067811865474
 41
4.712388980384689
 42
7.853981633974482
  0
ELLIPSE
  5
1D1
330
2
100
AcDbEntity
  8
AVERDECKTE
100
AcDbEllipse
 10
109.241826912609
 20
331.2166674077948
 30
0.0
 11
3.535533905932738
 21
0.0
 31
0.0
210
0.0
220
0.0
230
1.0
 40
0.7071067811865474
 41
4.712388980384689
 42
7.853981633974482
  0
ELLIPSE
  5
1D2
330
2
100
AcDbEntity
  8
AVERDECKTE
100
AcDbEllipse
 10
107.741826912609
 20
425.7166674078269
 30
0.0
 11
3.535533905932766
 21
0.000000000000001
 31
0.0
210
0.0
220
0.0
230
1.0
 40
0.7071067811865384
 41
-1.28403977458335
 42
1.28403977458335
  0
ELLIPSE
  5
1D3
330
2
100
AcDbEntity
  8
AVERDECKTE
100
AcDbEllipse
 10
107.741826912609
 20
331.2166674077948
 30
0.0
 11
3.535533905932739
 21
0.0
 31
0.0
210
0.0
220
0.0
230
1.0
 40
0.7071067811865471
 41
4.999145532596235
 42
7.567225081762936
  0
ELLIPSE
  5
1D4
330
2
100
AcDbEntity
  8
AVERDECKTE
100
AcDbEllipse
 10
107.741826912609
 20
232.7166674077947
 30
0.0
 11
3.535533905932739
 21
0.0
 31
0.0
210
0.0
220
0.0
230
1.0
 40
0.7071067811865471
 41
4.999145532596235
 42
7.567225081762936
  0
LINE
  5
1D5
330
2
100
AcDbEntity
  8
AVERDECKTE
100
AcDbLine
 10
126.241826912609
 20
224.0529778812503
 30
0.0
 11
109.241826912609
 21
224.0529778812503
 31
0.0
  0
LINE
  5
1D6
330
2
100
AcDbEntity
  8
AVERDECKTE
100
AcDbLine
 10
109.241826912609
 20
434.3803569343391
 30
0.0
 11
126.241826912609
 21
434.3803569343391
 31
0.0
  0
SPLINE
  5
1D7
330
2
100
AcDbEntity
  8
AVERDECKTE
100
AcDbSpline
210
0.0
220
0.0
230
1.0
 70
     8
 71
     3
 72
    14
 73
    10
 74
     0
 42
0.000000001
 43
0.0000000001
 40
0.0763115330505305
 40
0.0763115330505305
 40
0.0763115330505305
 40
0.0763115330505305
 40
0.1144287000804588
 40
0.1144287000804588
 40
0.1525458671103871
 40
0.1525458671103871
 40
0.1906630341403155
 40
0.1906630341403155
 40
0.228780201170244
 40
0.228780201170244
 40
0.228780201170244
 40
0.228780201170244
 10
108.741826912609
 20
428.1145831694834
 30
0.0
 10
108.6174448776973
 20
428.1405186166121
 30
0.0
 10
108.4843203162144
 20
428.1677477906227
 30
0.0
 10
108.2378894954167
 20
428.2060524520974
 30
0.0
 10
108.1245631557107
 20
428.2166674078269
 30
0.0
 10
107.9448771071341
 20
428.2166674078269
 30
0.0
 10
107.8678687845306
 20
428.2060524520974
 30
0.0
 10
107.7664059518651
 20
428.1677477906227
 30
0.0
 10
107.741826912609
 20
428.1405186166121
 30
0.0
 10
107.741826912609
 20
428.1145831694834
 30
0.0
  0
SPLINE
  5
1D8
330
2
100
AcDbEntity
  8
AVERDECKTE
100
AcDbSpline
210
0.0
220
0.0
230
1.0
 70
     8
 71
     3
 72
    14
 73
    10
 74
     0
 42
0.000000001
 43
0.0000000001
 40
0.3814032672713047
 40
0.3814032672713047
 40
0.3814032672713047
 40
0.3814032672713047
 40
0.4195204343012331
 40
0.4195204343012331
 40
0.4576376013311615
 40
0.4576376013311615
 40
0.4957547683610898
 40
0.4957547683610898
 40
0.5338719353910181
 40
0.5338719353910181
 40
0.5338719353910181
 40
0.5338719353910181
 10
107.741826912609
 20
230.3187516461384
 30
0.0
 10
107.741826912609
 20
230.2928161990095
 30
0.0
 10
107.7664059518651
 20
230.2655870249989
 30
0.0
 10
107.8678687845306
 20
230.2272823635243
 30
0.0
 10
107.9448771071341
 20
230.2166674077947
 30
0.0
 10
108.1245631557107
 20
230.2166674077947
 30
0.0
 10
108.2378894954167
 20
230.2272823635243
 30
0.0
 10
108.4843203162144
 20
230.2655870249989
 30
0.0
 10
108.6174448776973
 20
230.2928161990095
 30
0.0
 10
108.741826912609
 20
230.3187516461384
 30
0.0
  0
SPLINE
  5
1D9
330
2
100
AcDbEntity
  8
AVERDECKTE
100
AcDbSpline
210
0.0
220
0.0
230
1.0
 70
     8
 71
     3
 72
    14
 73
    10
 74
     0
 42
0.000000001
 43
0.0000000001
 40
0.0763115330505305
 40
0.0763115330505305
 40
0.0763115330505305
 40
0.0763115330505305
 40
0.1144287000804588
 40
0.1144287000804588
 40
0.1525458671103871
 40
0.1525458671103871
 40
0.1906630341403155
 40
0.1906630341403155
 40
0.228780201170244
 40
0.228780201170244
 40
0.228780201170244
 40
0.228780201170244
 10
108.741826912609
 20
235.1145831694511
 30
0.0
 10
108.6174448776973
 20
235.1405186165799
 30
0.0
 10
108.4843203162144
 20
235.1677477905905
 30
0.0
 10
108.2378894954167
 20
235.2060524520651
 30
0.0
 10
108.1245631557107
 20
235.2166674077948
 30
0.0
 10
107.9448771071341
 20
235.2166674077948
 30
0.0
 10
107.8678687845306
 20
235.2060524520651
 30
0.0
 10
107.7664059518651
 20
235.1677477905905
 30
0.0
 10
107.741826912609
 20
235.1405186165799
 30
0.0
 10
107.741826912609
 20
235.1145831694511
 30
0.0
  0
SPLINE
  5
1DA
330
2
100
AcDbEntity
  8
AVERDECKTE
100
AcDbSpline
210
0.0
220
0.0
230
1.0
 70
     8
 71
     3
 72
    14
 73
    10
 74
     0
 42
0.000000001
 43
0.0000000001
 40
0.3814032672713042
 40
0.3814032672713042
 40
0.3814032672713042
 40
0.3814032672713042
 40
0.4195204343012327
 40
0.4195204343012327
 40
0.4576376013311612
 40
0.4576376013311612
 40
0.4957547683610896
 40
0.4957547683610896
 40
0.533871935391018
 40
0.533871935391018
 40
0.533871935391018
 40
0.533871935391018
 10
107.741826912609
 20
328.8187516461384
 30
0.0
 10
107.741826912609
 20
328.7928161990095
 30
0.0
 10
107.7664059518651
 20
328.7655870249989
 30
0.0
 10
107.8678687845306
 20
328.7272823635244
 30
0.0
 10
107.9448771071341
 20
328.7166674077948
 30
0.0
 10
108.1245631557107
 20
328.7166674077948
 30
0.0
 10
108.2378894954167
 20
328.7272823635244
 30
0.0
 10
108.4843203162144
 20
328.7655870249989
 30
0.0
 10
108.6174448776973
 20
328.7928161990095
 30
0.0
 10
108.741826912609
 20
328.8187516461384
 30
0.0
  0
SPLINE
  5
1DB
330
2
100
AcDbEntity
  8
AVERDECKTE
100
AcDbSpline
210
0.0
220
0.0
230
1.0
 70
     8
 71
     3
 72
    14
 73
    10
 74
     0
 42
0.000000001
 43
0.0000000001
 40
0.0763115330505301
 40
0.0763115330505301
 40
0.0763115330505301
 40
0.0763115330505301
 40
0.1144287000804585
 40
0.1144287000804585
 40
0.152545867110387
 40
0.152545867110387
 40
0.1906630341403154
 40
0.1906630341403154
 40
0.2287802011702439
 40
0.2287802011702439
 40
0.2287802011702439
 40
0.2287802011702439
 10
108.741826912609
 20
333.6145831694511
 30
0.0
 10
108.6174448776973
 20
333.6405186165799
 30
0.0
 10
108.4843203162144
 20
333.6677477905906
 30
0.0
 10
108.2378894954167
 20
333.7060524520651
 30
0.0
 10
108.1245631557107
 20
333.7166674077948
 30
0.0
 10
107.9448771071341
 20
333.7166674077948
 30
0.0
 10
107.8678687845306
 20
333.7060524520651
 30
0.0
 10
107.7664059518651
 20
333.6677477905906
 30
0.0
 10
107.741826912609
 20
333.6405186165799
 30
0.0
 10
107.741826912609
 20
333.6145831694511
 30
0.0
  0
SPLINE
  5
1DC
330
2
100
AcDbEntity
  8
AVERDECKTE
100
AcDbSpline
210
0.0
220
0.0
230
1.0
 70
     8
 71
     3
 72
    14
 73
    10
 74
     0
 42
0.000000001
 43
0.0000000001
 40
0.3814032672713047
 40
0.3814032672713047
 40
0.3814032672713047
 40
0.3814032672713047
 40
0.4195204343012331
 40
0.4195204343012331
 40
0.4576376013311615
 40
0.4576376013311615
 40
0.4957547683610898
 40
0.4957547683610898
 40
0.5338719353910181
 40
0.5338719353910181
 40
0.5338719353910181
 40
0.5338719353910181
 10
107.741826912609
 20
423.3187516461707
 30
0.0
 10
107.741826912609
 20
423.2928161990417
 30
0.0
 10
107.7664059518651
 20
423.2655870250311
 30
0.0
 10
107.8678687845306
 20
423.2272823635566
 30
0.0
 10
107.9448771071341
 20
423.2166674078269
 30
0.0
 10
108.1245631557107
 20
423.2166674078269
 30
0.0
 10
108.2378894954167
 20
423.2272823635566
 30
0.0
 10
108.4843203162144
 20
423.2655870250311
 30
0.0
 10
108.6174448776973
 20
423.2928161990417
 30
0.0
 10
108.741826912609
 20
423.3187516461707
 30
0.0
  0
ARC
  5
1DD
330
2
100
AcDbEntity
  8
UMRISS05
100
AcDbCircle
 10
108.741826912609
 20
436.7166674077948
 30
0.0
 40
1.0
100
AcDbArc
 50
90.0
 51
180.0
  0
ARC
  5
1DE
330
2
100
AcDbEntity
  8
UMRISS05
100
AcDbCircle
 10
108.741826912609
 20
221.7166674077947
 30
0.0
 40
1.0
100
AcDbArc
 50
180.0
 51
270.0
  0
LINE
  5
1DF
330
2
100
AcDbEntity
  8
UMRISS05
100
AcDbLine
 10
107.741826912609
 20
436.7166674077948
 30
0.0
 11
107.741826912609
 21
221.7166674077948
 31
0.0
  0
LINE
  5
1E0
330
2
100
AcDbEntity
  8
UMRISS05
100
AcDbLine
 10
127.741826912609
 20
221.7166674077947
 30
0.0
 11
127.741826912609
 21
436.7166674077948
 31
0.0
  0
ARC
  5
1E1
330
2
100
AcDbEntity
  8
UMRISS05
100
AcDbCircle
 10
126.741826912609
 20
221.7166674077947
 30
0.0
 40
1.0
100
AcDbArc
 50
270.0
 51
0.0
  0
LINE
  5
1E2
330
2
100
AcDbEntity
  8
UMRISS05
100
AcDbLine
 10
115.741826912609
 20
347.2166674077947
 30
0.0
 11
127.741826912609
 21
347.2166674077947
 31
0.0
  0
ARC
  5
1E3
330
2
100
AcDbEntity
  8
UMRISS05
100
AcDbCircle
 10
126.741826912609
 20
436.7166674077948
 30
0.0
 40
1.0
100
AcDbArc
 50
0.0
 51
90.0
  0
LINE
  5
1E4
330
2
100
AcDbEntity
  8
UMRISS05
100
AcDbLine
 10
115.741826912609
 20
392.2166674077947
 30
0.0
 11
127.741826912609
 21
392.2166674077947
 31
0.0
  0
ARC
  5
1E5
330
2
100
AcDbEntity
  8
UMRISS05
100
AcDbCircle
 10
115.741826912609
 20
389.2166674077947
 30
0.0
 40
3.000000000000007
100
AcDbArc
 50
90.0
 51
180.0
  0
LINE
  5
1E6
330
2
100
AcDbEntity
  8
UMRISS05
100
AcDbLine
 10
112.741826912609
 20
350.2166674077947
 30
0.0
 11
112.741826912609
 21
389.2166674077947
 31
0.0
  0
ARC
  5
1E7
330
2
100
AcDbEntity
  8
UMRISS05
100
AcDbCircle
 10
115.741826912609
 20
350.2166674077947
 30
0.0
 40
3.000000000000024
100
AcDbArc
 50
180.0
 51
270.0
  0
LINE
  5
1E8
330
2
100
AcDbEntity
  8
AVERDECKTE
100
AcDbLine
 10
126.241826912609
 20
347.2166674077947
 30
0.0
 11
126.241826912609
 21
220.7166674077948
 31
0.0
  0
LINE
  5
1E9
330
2
100
AcDbEntity
  8
AVERDECKTE
100
AcDbLine
 10
126.241826912609
 20
437.7166674077948
 30
0.0
 11
126.241826912609
 21
392.2166674077947
 31
0.0
  0
LINE
  5
1EA
330
2
100
AcDbEntity
  8
AVERDECKTE
100
AcDbLine
 10
109.241826912609
 20
437.7166674077948
 30
0.0
 11
109.241826912609
 21
220.7166674077948
 31
0.0
  0
LINE
  5
1EB
330
2
100
AcDbEntity
  8
UMRISS05
100
AcDbLine
 10
108.741826912609
 20
220.7166674077948
 30
0.0
 11
126.741826912609
 21
220.7166674077948
 31
0.0
  0
LINE
  5
1EC
330
2
100
AcDbEntity
  8
UMRISS05
100
AcDbLine
 10
126.741826912609
 20
437.7166674077948
 30
0.0
 11
108.741826912609
 21
437.7166674077948
 31
0.0
  0
LINE
  5
1ED
330
2
100
AcDbEntity
  8
AVERDECKTE
100
AcDbLine
 10
206.1760831472518
 20
269.7166674077948
 30
0.0
 11
207.6760831472518
 21
269.7166674077948
 31
0.0
  0
LINE
  5
1EE
330
2
100
AcDbEntity
  8
UMRISS05
100
AcDbLine
 10
223.5068969812178
 20
347.7166674077948
 30
0.0
 11
213.5068969812178
 21
347.7166674077948
 31
0.0
  0
TRACE
  5
1EF
330
2
100
AcDbEntity
  8
UMRISS05
100
AcDbTrace
 10
-219.8466429312178
 20
352.7166674077948
 30
-0.0000000000000054
 11
-217.1671510312178
 21
352.7166674077948
 31
-0.0000000000000054
 12
-218.5068969812178
 22
347.7166674077948
 32
-0.0000000000000054
 13
-218.5068969812178
 23
347.7166674077948
 33
-0.0000000000000054
210
0.0
220
0.0
230
-1.0
  0
LINE
  5
1F0
330
2
100
AcDbEntity
  8
UMRISS05
100
AcDbLine
 10
218.5068969812178
 20
352.7166674077948
 30
0.0
 11
218.5068969812178
 21
357.7166674077948
 31
0.0
  0
DIMENSION
  5
1F1
330
2
100
AcDbEntity
  8
BEMASSUNG
100
AcDbDimension
  2
*D18
 10
207.6760831472492
 20
321.8062482219734
 30
0.0
 11
186.3969903778075
 21
321.8062482219734
 31
0.0
 70
   128
 71
     5
 42
10.00000000000005
  3
Katalog 09
100
AcDbAlignedDimension
 13
197.6760831472491
 23
321.8062482219734
 33
0.0
 14
207.6760831472492
 24
321.8062482219734
 34
0.0
100
AcDbRotatedDimension
1001
ACAD_DSTYLE_DIMINSPECT
1070
   396
1000
100%
1070
   395
1000

1070
   394
1070
    33
1070
   393
1070
     0
  0
DIMENSION
  5
1FF
330
2
100
AcDbEntity
  8
BEMASSUNG
100
AcDbDimension
  2
*D17
 10
186.8239459054394
 20
391.2166674077948
 30
0.0
 11
186.8239459054393
 21
368.5236221662226
 31
0.0
 70
   128
 71
     5
 42
43.0
  3
Katalog 09
100
AcDbAlignedDimension
 13
199.3760831472502
 23
348.2166674077948
 33
0.0
 14
199.3760831472482
 24
391.2166674077948
 34
0.0
 50
90.0
100
AcDbRotatedDimension
1001
ACAD_DSTYLE_DIMINSPECT
1070
   396
1000
100%
1070
   395
1000

1070
   394
1070
    33
1070
   393
1070
     0
  0
LINE
  5
20C
330
2
100
AcDbEntity
  8
UMRISS05
100
AcDbLine
 10
197.6760831472525
 20
357.2166674077948
 30
0.0
 11
196.9760831472524
 21
357.2166674077948
 31
0.0
  0
LINE
  5
20D
330
2
100
AcDbEntity
  8
UMRISS05
100
AcDbLine
 10
197.6760831472525
 20
354.2166674077948
 30
0.0
 11
196.9760831472524
 21
354.2166674077948
 31
0.0
  0
LINE
  5
20E
330
2
100
AcDbEntity
  8
AVERDECKTE
100
AcDbLine
 10
199.1727206472524
 20
357.2166674077948
 30
0.0
 11
197.6760831472525
 21
357.2166674077948
 31
0.0
  0
LINE
  5
20F
330
2
100
AcDbEntity
  8
AVERDECKTE
100
AcDbLine
 10
199.1727206472524
 20
354.2166674077948
 30
0.0
 11
197.6760831472525
 21
354.2166674077948
 31
0.0
  0
LINE
  5
210
330
2
100
AcDbEntity
  8
UMRISS05
100
AcDbLine
 10
196.8227206472524
 20
354.5233924077948
 30
0.0
 11
196.9760831472524
 21
354.2166674077948
 31
0.0
  0
LINE
  5
211
330
2
100
AcDbEntity
  8
UMRISS05
100
AcDbLine
 10
196.8227206472524
 20
356.9099424077948
 30
0.0
 11
196.9760831472524
 21
357.2166674077948
 31
0.0
  0
LINE
  5
212
330
2
100
AcDbEntity
  8
UMRISS05
100
AcDbLine
 10
196.8227206472524
 20
354.5233924077948
 30
0.0
 11
196.8227206472524
 21
356.9099424077948
 31
0.0
  0
LINE
  5
213
330
2
100
AcDbEntity
  8
UMRISS05
100
AcDbLine
 10
196.9760831472524
 20
357.2166674077948
 30
0.0
 11
196.9760831472524
 21
354.2166674077948
 31
0.0
  0
LINE
  5
214
330
2
100
AcDbEntity
  8
UMRISS05
100
AcDbLine
 10
197.6760831472525
 20
385.2166674077948
 30
0.0
 11
196.9760831472524
 21
385.2166674077948
 31
0.0
  0
LINE
  5
215
330
2
100
AcDbEntity
  8
UMRISS05
100
AcDbLine
 10
197.6760831472525
 20
382.2166674077948
 30
0.0
 11
196.9760831472524
 21
382.2166674077948
 31
0.0
  0
LINE
  5
216
330
2
100
AcDbEntity
  8
AVERDECKTE
100
AcDbLine
 10
199.1727206472524
 20
385.2166674077948
 30
0.0
 11
197.6760831472525
 21
385.2166674077948
 31
0.0
  0
LINE
  5
217
330
2
100
AcDbEntity
  8
AVERDECKTE
100
AcDbLine
 10
199.1727206472524
 20
382.2166674077948
 30
0.0
 11
197.6760831472525
 21
382.2166674077948
 31
0.0
  0
LINE
  5
218
330
2
100
AcDbEntity
  8
UMRISS05
100
AcDbLine
 10
196.8227206472524
 20
382.5233924077948
 30
0.0
 11
196.9760831472524
 21
382.2166674077948
 31
0.0
  0
LINE
  5
219
330
2
100
AcDbEntity
  8
UMRISS05
100
AcDbLine
 10
196.8227206472524
 20
384.9099424077948
 30
0.0
 11
196.9760831472524
 21
385.2166674077948
 31
0.0
  0
LINE
  5
21A
330
2
100
AcDbEntity
  8
UMRISS05
100
AcDbLine
 10
196.8227206472524
 20
382.5233924077948
 30
0.0
 11
196.8227206472524
 21
384.9099424077948
 31
0.0
  0
LINE
  5
21B
330
2
100
AcDbEntity
  8
UMRISS05
100
AcDbLine
 10
196.9760831472524
 20
385.2166674077948
 30
0.0
 11
196.9760831472524
 21
382.2166674077948
 31
0.0
  0
LINE
  5
21C
330
2
100
AcDbEntity
  8
AVERDECKTE
100
AcDbLine
 10
199.3760831472502
 20
348.2166674077947
 30
0.0
 11
201.7760831472503
 21
348.2166674077947
 31
0.0
  0
LINE
  5
21D
330
2
100
AcDbEntity
  8
AVERDECKTE
100
AcDbLine
 10
206.7760831472539
 20
348.2166674077947
 30
0.0
 11
206.7760831472539
 21
391.2166674077947
 31
0.0
  0
LINE
  5
21E
330
2
100
AcDbEntity
  8
AVERDECKTE
100
AcDbLine
 10
201.7760831472503
 20
391.2166674077947
 30
0.0
 11
199.3760831472502
 21
391.2166674077947
 31
0.0
  0
LINE
  5
21F
330
2
100
AcDbEntity
  8
AVERDECKTE
100
AcDbLine
 10
201.7760831472534
 20
348.2166674077947
 30
0.0
 11
207.6760831472534
 21
348.2166674077947
 31
0.0
  0
LINE
  5
220
330
2
100
AcDbEntity
  8
AVERDECKTE
100
AcDbLine
 10
207.6760831472534
 20
391.2166674077947
 30
0.0
 11
201.7760831472534
 21
391.2166674077947
 31
0.0
  0
LINE
  5
221
330
2
100
AcDbEntity
  8
AVERDECKTE
100
AcDbLine
 10
197.6760831472518
 20
422.9666674077948
 30
0.0
 11
199.1760831472518
 21
422.9666674077948
 31
0.0
  0
LINE
  5
222
330
2
100
AcDbEntity
  8
AVERDECKTE
100
AcDbLine
 10
197.6760831472518
 20
428.4666674077948
 30
0.0
 11
199.1760831472518
 21
428.4666674077948
 31
0.0
  0
LINE
  5
223
330
2
100
AcDbEntity
  8
AVERDECKTE
100
AcDbLine
 10
197.6760831472518
 20
229.9666674077947
 30
0.0
 11
199.1760831472518
 21
229.9666674077947
 31
0.0
  0
LINE
  5
224
330
2
100
AcDbEntity
  8
AVERDECKTE
100
AcDbLine
 10
197.6760831472518
 20
235.4666674077948
 30
0.0
 11
199.1760831472518
 21
235.4666674077948
 31
0.0
  0
LINE
  5
225
330
2
100
AcDbEntity
  8
AVERDECKTE
100
AcDbLine
 10
197.6760831472518
 20
328.4666674077948
 30
0.0
 11
199.1760831472518
 21
328.4666674077948
 31
0.0
  0
LINE
  5
226
330
2
100
AcDbEntity
  8
AVERDECKTE
100
AcDbLine
 10
197.6760831472518
 20
333.9666674077947
 30
0.0
 11
199.1760831472518
 21
333.9666674077947
 31
0.0
  0
LINE
  5
227
330
2
100
AcDbEntity
  8
AVERDECKTE
100
AcDbLine
 10
206.1760831472518
 20
228.7166674077947
 30
0.0
 11
206.6760831472518
 21
228.7166674077947
 31
0.0
  0
LINE
  5
228
330
2
100
AcDbEntity
  8
AVERDECKTE
100
AcDbLine
 10
206.1760831472518
 20
236.7166674077948
 30
0.0
 11
206.6760831472518
 21
236.7166674077948
 31
0.0
  0
LINE
  5
229
330
2
100
AcDbEntity
  8
AVERDECKTE
100
AcDbLine
 10
206.1760831472518
 20
327.2166674077948
 30
0.0
 11
206.6760831472518
 21
327.2166674077948
 31
0.0
  0
LINE
  5
22A
330
2
100
AcDbEntity
  8
AVERDECKTE
100
AcDbLine
 10
206.1760831472518
 20
335.2166674077947
 30
0.0
 11
206.6760831472518
 21
335.2166674077947
 31
0.0
  0
LINE
  5
22B
330
2
100
AcDbEntity
  8
AVERDECKTE
100
AcDbLine
 10
206.1760831472518
 20
421.7166674077947
 30
0.0
 11
206.6760831472518
 21
421.7166674077947
 31
0.0
  0
LINE
  5
22C
330
2
100
AcDbEntity
  8
AVERDECKTE
100
AcDbLine
 10
206.1760831472518
 20
429.7166674077948
 30
0.0
 11
206.6760831472518
 21
429.7166674077948
 31
0.0
  0
LINE
  5
22D
330
2
100
AcDbEntity
  8
AVERDECKTE
100
AcDbLine
 10
199.1760831472504
 20
311.7166674077948
 30
0.0
 11
197.6760831472503
 21
311.7166674077948
 31
0.0
  0
LINE
  5
22E
330
2
100
AcDbEntity
  8
AVERDECKTE
100
AcDbLine
 10
207.6760831472503
 20
311.7166674077948
 30
0.0
 11
206.1760831472504
 21
311.7166674077948
 31
0.0
  0
LINE
  5
22F
330
2
100
AcDbEntity
  8
AVERDECKTE
100
AcDbLine
 10
199.1760831472504
 20
253.2166674077948
 30
0.0
 11
197.6760831472503
 21
253.2166674077948
 31
0.0
  0
LINE
  5
230
330
2
100
AcDbEntity
  8
AVERDECKTE
100
AcDbLine
 10
206.1760831472493
 20
437.7166674077948
 30
0.0
 11
206.1760831472493
 21
220.7166674077948
 31
0.0
  0
LINE
  5
231
330
2
100
AcDbEntity
  8
AVERDECKTE
100
AcDbLine
 10
199.1760831472497
 20
415.9528211232603
 30
0.0
 11
199.1760831472497
 21
333.480513692329
 31
0.0
  0
LINE
  5
232
330
2
100
AcDbEntity
  8
AVERDECKTE
100
AcDbLine
 10
199.1760831472493
 20
434.3803569343391
 30
0.0
 11
199.1760831472497
 21
420.4805136923289
 31
0.0
  0
LINE
  5
233
330
2
100
AcDbEntity
  8
AVERDECKTE
100
AcDbLine
 10
199.1760831472497
 20
237.9528211232604
 30
0.0
 11
199.1760831472493
 21
224.0529778812503
 31
0.0
  0
LINE
  5
234
330
2
100
AcDbEntity
  8
AVERDECKTE
100
AcDbLine
 10
199.1760831472493
 20
428.2166674077947
 30
0.0
 11
197.9689763660624
 21
428.2166674077947
 31
0.0
  0
LINE
  5
235
330
2
100
AcDbEntity
  8
AVERDECKTE
100
AcDbLine
 10
199.1760831472493
 20
423.2166674077947
 30
0.0
 11
197.9689763660624
 21
423.2166674077947
 31
0.0
  0
LINE
  5
236
330
2
100
AcDbEntity
  8
AVERDECKTE
100
AcDbLine
 10
199.1760831472493
 20
235.2166674077948
 30
0.0
 11
197.9689763660624
 21
235.2166674077948
 31
0.0
  0
LINE
  5
237
330
2
100
AcDbEntity
  8
AVERDECKTE
100
AcDbLine
 10
199.1760831472493
 20
230.2166674077947
 30
0.0
 11
197.9689763660624
 21
230.2166674077947
 31
0.0
  0
LINE
  5
238
330
2
100
AcDbEntity
  8
AVERDECKTE
100
AcDbLine
 10
199.1760831472493
 20
333.7166674077948
 30
0.0
 11
197.9689763660624
 21
333.7166674077948
 31
0.0
  0
LINE
  5
239
330
2
100
AcDbEntity
  8
AVERDECKTE
100
AcDbLine
 10
199.1760831472493
 20
328.7166674077948
 30
0.0
 11
197.9689763660624
 21
328.7166674077948
 31
0.0
  0
ELLIPSE
  5
23A
330
2
100
AcDbEntity
  8
AVERDECKTE
100
AcDbEllipse
 10
199.1760831472493
 20
425.7166674077947
 30
0.0
 11
-3.535533905932736
 21
0.0
 31
0.0
210
0.0
220
0.0
230
1.0
 40
0.7071067811865478
 41
1.570796326794896
 42
4.712388980384689
  0
ELLIPSE
  5
23B
330
2
100
AcDbEntity
  8
AVERDECKTE
100
AcDbEllipse
 10
199.1760831472493
 20
232.7166674077947
 30
0.0
 11
-3.535533905932736
 21
0.0
 31
0.0
210
0.0
220
0.0
230
1.0
 40
0.7071067811865478
 41
1.570796326794896
 42
4.712388980384689
  0
LINE
  5
23C
330
2
100
AcDbEntity
  8
AVERDECKTE
100
AcDbLine
 10
199.1760831472497
 20
328.9528211232604
 30
0.0
 11
199.1760831472497
 21
242.4805136923289
 31
0.0
  0
ELLIPSE
  5
23D
330
2
100
AcDbEntity
  8
AVERDECKTE
100
AcDbEllipse
 10
199.1760831472493
 20
331.2166674077948
 30
0.0
 11
-3.535533905932736
 21
0.0
 31
0.0
210
0.0
220
0.0
230
1.0
 40
0.7071067811865478
 41
1.570796326794896
 42
4.712388980384689
  0
ELLIPSE
  5
23E
330
2
100
AcDbEntity
  8
UMRISS05
100
AcDbEllipse
 10
197.6760831472488
 20
425.7166674077947
 30
0.0
 11
-3.535533905932737
 21
0.0
 31
0.0
210
0.0
220
0.0
230
1.0
 40
0.7071067811865476
 41
1.857552879006448
 42
4.425632428173138
  0
LINE
  5
23F
330
2
100
AcDbEntity
  8
UMRISS05
100
AcDbLine
 10
199.1760831472497
 20
427.980513692329
 30
0.0
 11
199.1760831472497
 21
423.4528211232603
 31
0.0
  0
LINE
  5
240
330
2
100
AcDbEntity
  8
UMRISS05
100
AcDbLine
 10
199.1760831472497
 20
234.980513692329
 30
0.0
 11
199.1760831472497
 21
230.4528211232604
 31
0.0
  0
ELLIPSE
  5
241
330
2
100
AcDbEntity
  8
UMRISS05
100
AcDbEllipse
 10
197.6760831472488
 20
232.7166674077947
 30
0.0
 11
-3.535533905932737
 21
0.0
 31
0.0
210
0.0
220
0.0
230
1.0
 40
0.7071067811865476
 41
1.857552879006448
 42
4.425632428173138
  0
ELLIPSE
  5
242
330
2
100
AcDbEntity
  8
UMRISS05
100
AcDbEllipse
 10
197.6760831472488
 20
331.2166674077948
 30
0.0
 11
-3.535533905932737
 21
0.0
 31
0.0
210
0.0
220
0.0
230
1.0
 40
0.7071067811865476
 41
1.857552879006448
 42
4.425632428173138
  0
LINE
  5
243
330
2
100
AcDbEntity
  8
UMRISS05
100
AcDbLine
 10
199.1760831472497
 20
333.480513692329
 30
0.0
 11
199.1760831472497
 21
328.9528211232604
 31
0.0
  0
LINE
  5
244
330
2
100
AcDbEntity
  8
UMRISS05
100
AcDbLine
 10
197.6760831472491
 20
228.7166674077948
 30
0.0
 11
197.6760831472491
 21
429.7166674077948
 31
0.0
  0
LINE
  5
245
330
2
100
AcDbEntity
  8
AVERDECKTE
100
AcDbLine
 10
207.6760831472512
 20
347.2166674077947
 30
0.0
 11
199.1760831472543
 21
347.2166674077947
 31
0.0
  0
LINE
  5
246
330
2
100
AcDbEntity
  8
AVERDECKTE
100
AcDbLine
 10
199.1760831472543
 20
392.2166674077947
 30
0.0
 11
207.6760831472512
 21
392.2166674077947
 31
0.0
  0
SPLINE
  5
247
330
2
100
AcDbEntity
  8
UMRISS05
100
AcDbSpline
210
0.0
220
0.0
230
1.0
 70
     8
 71
     3
 72
    14
 73
    10
 74
     0
 42
0.000000001
 43
0.0000000001
 40
0.0763115330505305
 40
0.0763115330505305
 40
0.0763115330505305
 40
0.0763115330505305
 40
0.1144287000804588
 40
0.1144287000804588
 40
0.1525458671103871
 40
0.1525458671103871
 40
0.1906630341403155
 40
0.1906630341403155
 40
0.228780201170244
 40
0.228780201170244
 40
0.228780201170244
 40
0.228780201170244
 10
197.6760831472492
 20
428.1145831694511
 30
0.0
 10
197.6760831472491
 20
428.1405186165799
 30
0.0
 10
197.7006621865053
 20
428.1677477905906
 30
0.0
 10
197.8021250191706
 20
428.2060524520652
 30
0.0
 10
197.8791333417741
 20
428.2166674077947
 30
0.0
 10
198.0588193903506
 20
428.2166674077947
 30
0.0
 10
198.1721457300566
 20
428.2060524520652
 30
0.0
 10
198.4185765508542
 20
428.1677477905906
 30
0.0
 10
198.5517011123372
 20
428.1405186165799
 30
0.0
 10
198.6760831472488
 20
428.1145831694511
 30
0.0
  0
LINE
  5
248
330
2
100
AcDbEntity
  8
UMRISS05
100
AcDbLine
 10
206.6760831472489
 20
436.7166674077948
 30
0.0
 11
207.6760831472492
 21
437.7166674077948
 31
0.0
  0
SPLINE
  5
249
330
2
100
AcDbEntity
  8
UMRISS05
100
AcDbSpline
210
0.0
220
0.0
230
1.0
 70
     8
 71
     3
 72
    14
 73
    10
 74
     0
 42
0.000000001
 43
0.0000000001
 40
0.3814032672713047
 40
0.3814032672713047
 40
0.3814032672713047
 40
0.3814032672713047
 40
0.4195204343012331
 40
0.4195204343012331
 40
0.4576376013311615
 40
0.4576376013311615
 40
0.4957547683610898
 40
0.4957547683610898
 40
0.5338719353910181
 40
0.5338719353910181
 40
0.5338719353910181
 40
0.5338719353910181
 10
198.6760831472488
 20
230.3187516461384
 30
0.0
 10
198.5517011123372
 20
230.2928161990095
 30
0.0
 10
198.4185765508542
 20
230.2655870249989
 30
0.0
 10
198.1721457300566
 20
230.2272823635243
 30
0.0
 10
198.0588193903506
 20
230.2166674077947
 30
0.0
 10
197.8791333417741
 20
230.2166674077947
 30
0.0
 10
197.8021250191706
 20
230.2272823635243
 30
0.0
 10
197.7006621865053
 20
230.2655870249989
 30
0.0
 10
197.6760831472491
 20
230.2928161990095
 30
0.0
 10
197.6760831472492
 20
230.3187516461384
 30
0.0
  0
SPLINE
  5
24A
330
2
100
AcDbEntity
  8
UMRISS05
100
AcDbSpline
210
0.0
220
0.0
230
1.0
 70
     8
 71
     3
 72
    14
 73
    10
 74
     0
 42
0.000000001
 43
0.0000000001
 40
0.0763115330505305
 40
0.0763115330505305
 40
0.0763115330505305
 40
0.0763115330505305
 40
0.1144287000804588
 40
0.1144287000804588
 40
0.1525458671103871
 40
0.1525458671103871
 40
0.1906630341403155
 40
0.1906630341403155
 40
0.228780201170244
 40
0.228780201170244
 40
0.228780201170244
 40
0.228780201170244
 10
197.6760831472492
 20
235.1145831694511
 30
0.0
 10
197.6760831472491
 20
235.1405186165799
 30
0.0
 10
197.7006621865053
 20
235.1677477905905
 30
0.0
 10
197.8021250191706
 20
235.2060524520651
 30
0.0
 10
197.8791333417741
 20
235.2166674077948
 30
0.0
 10
198.0588193903506
 20
235.2166674077948
 30
0.0
 10
198.1721457300566
 20
235.2060524520651
 30
0.0
 10
198.4185765508542
 20
235.1677477905905
 30
0.0
 10
198.5517011123372
 20
235.1405186165799
 30
0.0
 10
198.6760831472488
 20
235.1145831694511
 30
0.0
  0
SPLINE
  5
24B
330
2
100
AcDbEntity
  8
UMRISS05
100
AcDbSpline
210
0.0
220
0.0
230
1.0
 70
     8
 71
     3
 72
    14
 73
    10
 74
     0
 42
0.000000001
 43
0.0000000001
 40
0.3814032672713042
 40
0.3814032672713042
 40
0.3814032672713042
 40
0.3814032672713042
 40
0.4195204343012327
 40
0.4195204343012327
 40
0.4576376013311612
 40
0.4576376013311612
 40
0.4957547683610896
 40
0.4957547683610896
 40
0.533871935391018
 40
0.533871935391018
 40
0.533871935391018
 40
0.533871935391018
 10
198.6760831472488
 20
328.8187516461384
 30
0.0
 10
198.5517011123372
 20
328.7928161990095
 30
0.0
 10
198.4185765508542
 20
328.7655870249989
 30
0.0
 10
198.1721457300566
 20
328.7272823635244
 30
0.0
 10
198.0588193903506
 20
328.7166674077948
 30
0.0
 10
197.8791333417741
 20
328.7166674077948
 30
0.0
 10
197.8021250191706
 20
328.7272823635244
 30
0.0
 10
197.7006621865053
 20
328.7655870249989
 30
0.0
 10
197.6760831472491
 20
328.7928161990095
 30
0.0
 10
197.6760831472492
 20
328.8187516461384
 30
0.0
  0
SPLINE
  5
24C
330
2
100
AcDbEntity
  8
UMRISS05
100
AcDbSpline
210
0.0
220
0.0
230
1.0
 70
     8
 71
     3
 72
    14
 73
    10
 74
     0
 42
0.000000001
 43
0.0000000001
 40
0.0763115330505301
 40
0.0763115330505301
 40
0.0763115330505301
 40
0.0763115330505301
 40
0.1144287000804585
 40
0.1144287000804585
 40
0.152545867110387
 40
0.152545867110387
 40
0.1906630341403154
 40
0.1906630341403154
 40
0.2287802011702439
 40
0.2287802011702439
 40
0.2287802011702439
 40
0.2287802011702439
 10
197.6760831472492
 20
333.6145831694511
 30
0.0
 10
197.6760831472491
 20
333.6405186165799
 30
0.0
 10
197.7006621865053
 20
333.6677477905906
 30
0.0
 10
197.8021250191706
 20
333.7060524520651
 30
0.0
 10
197.8791333417741
 20
333.7166674077948
 30
0.0
 10
198.0588193903506
 20
333.7166674077948
 30
0.0
 10
198.1721457300566
 20
333.7060524520651
 30
0.0
 10
198.4185765508542
 20
333.6677477905906
 30
0.0
 10
198.5517011123372
 20
333.6405186165799
 30
0.0
 10
198.6760831472488
 20
333.6145831694511
 30
0.0
  0
SPLINE
  5
24D
330
2
100
AcDbEntity
  8
UMRISS05
100
AcDbSpline
210
0.0
220
0.0
230
1.0
 70
     8
 71
     3
 72
    14
 73
    10
 74
     0
 42
0.000000001
 43
0.0000000001
 40
0.3814032672713047
 40
0.3814032672713047
 40
0.3814032672713047
 40
0.3814032672713047
 40
0.4195204343012331
 40
0.4195204343012331
 40
0.4576376013311615
 40
0.4576376013311615
 40
0.4957547683610898
 40
0.4957547683610898
 40
0.5338719353910181
 40
0.5338719353910181
 40
0.5338719353910181
 40
0.5338719353910181
 10
198.6760831472488
 20
423.3187516461384
 30
0.0
 10
198.5517011123372
 20
423.2928161990095
 30
0.0
 10
198.4185765508542
 20
423.2655870249989
 30
0.0
 10
198.1721457300566
 20
423.2272823635244
 30
0.0
 10
198.0588193903506
 20
423.2166674077947
 30
0.0
 10
197.8791333417741
 20
423.2166674077947
 30
0.0
 10
197.8021250191706
 20
423.2272823635244
 30
0.0
 10
197.7006621865053
 20
423.2655870249989
 30
0.0
 10
197.6760831472491
 20
423.2928161990095
 30
0.0
 10
197.6760831472492
 20
423.3187516461384
 30
0.0
  0
LINE
  5
24E
330
2
100
AcDbEntity
  8
UMRISS05
100
AcDbLine
 10
205.6760831472492
 20
220.7166674077948
 30
0.0
 11
207.6760831472492
 21
220.7166674077948
 31
0.0
  0
ARC
  5
24F
330
2
100
AcDbEntity
  8
UMRISS05
100
AcDbCircle
 10
205.6760831472492
 20
228.7166674077948
 30
0.0
 40
8.000000000000008
100
AcDbArc
 50
180.0
 51
270.0
  0
ARC
  5
250
330
2
100
AcDbEntity
  8
UMRISS05
100
AcDbCircle
 10
205.6760831472492
 20
429.7166674077948
 30
0.0
 40
8.000000000000007
100
AcDbArc
 50
90.0
 51
180.0
  0
LINE
  5
251
330
2
100
AcDbEntity
  8
UMRISS05
100
AcDbLine
 10
207.6760831472492
 20
437.7166674077948
 30
0.0
 11
205.6760831472492
 21
437.7166674077948
 31
0.0
  0
LINE
  5
252
330
2
100
AcDbEntity
  8
UMRISS05
100
AcDbLine
 10
207.6760831472492
 20
220.7166674077948
 30
0.0
 11
207.6760831472492
 21
437.7166674077948
 31
0.0
  0
LINE
  5
253
330
2
100
AcDbEntity
  8
AVERDECKTE
100
AcDbLine
 10
206.6760831472519
 20
228.7166674077947
 30
0.0
 11
207.6760831472518
 21
227.7166674077947
 31
0.0
  0
LINE
  5
254
330
2
100
AcDbEntity
  8
AVERDECKTE
100
AcDbLine
 10
206.6760831472519
 20
236.7166674077948
 30
0.0
 11
207.6760831472518
 21
237.7166674077948
 31
0.0
  0
LINE
  5
255
330
2
100
AcDbEntity
  8
AVERDECKTE
100
AcDbLine
 10
206.6760831472518
 20
327.2166674077948
 30
0.0
 11
207.6760831472518
 21
326.2166674077948
 31
0.0
  0
LINE
  5
256
330
2
100
AcDbEntity
  8
AVERDECKTE
100
AcDbLine
 10
206.6760831472518
 20
335.2166674077947
 30
0.0
 11
207.6760831472518
 21
336.2166674077948
 31
0.0
  0
LINE
  5
257
330
2
100
AcDbEntity
  8
AVERDECKTE
100
AcDbLine
 10
206.6760831472519
 20
421.7166674077947
 30
0.0
 11
207.6760831472518
 21
420.7166674077947
 31
0.0
  0
LINE
  5
258
330
2
100
AcDbEntity
  8
AVERDECKTE
100
AcDbLine
 10
206.6760831472519
 20
429.7166674077948
 30
0.0
 11
207.6760831472518
 21
430.7166674077946
 31
0.0
  0
LINE
  5
259
330
2
100
AcDbEntity
  8
AVERDECKTE
100
AcDbLine
 10
206.6760831472518
 20
236.7166674077948
 30
0.0
 11
206.6760831472518
 21
228.7166674077947
 31
0.0
  0
LINE
  5
25A
330
2
100
AcDbEntity
  8
AVERDECKTE
100
AcDbLine
 10
206.6760831472518
 20
335.2166674077947
 30
0.0
 11
206.6760831472518
 21
327.2166674077948
 31
0.0
  0
LINE
  5
25B
330
2
100
AcDbEntity
  8
AVERDECKTE
100
AcDbLine
 10
206.6760831472518
 20
429.7166674077947
 30
0.0
 11
206.6760831472518
 21
421.7166674077947
 31
0.0
  0
LINE
  5
25C
330
2
100
AcDbEntity
  8
AVERDECKTE
100
AcDbLine
 10
206.1760831472518
 20
261.4666674077948
 30
0.0
 11
207.6760831472518
 21
261.4666674077948
 31
0.0
  0
LINE
  5
25D
330
2
100
AcDbEntity
  8
AVERDECKTE
100
AcDbLine
 10
206.1760831472518
 20
264.9666674077947
 30
0.0
 11
207.6760831472518
 21
264.9666674077947
 31
0.0
  0
LINE
  5
25E
330
2
100
AcDbEntity
  8
AVERDECKTE
100
AcDbLine
 10
206.1760831472518
 20
250.4666674077948
 30
0.0
 11
207.6760831472518
 21
250.4666674077948
 31
0.0
  0
LINE
  5
25F
330
2
100
AcDbEntity
  8
AVERDECKTE
100
AcDbLine
 10
206.1760831472518
 20
253.9666674077948
 30
0.0
 11
207.6760831472518
 21
253.9666674077948
 31
0.0
  0
LINE
  5
260
330
2
100
AcDbEntity
  8
UMRISS05
100
AcDbLine
 10
207.6760831472492
 20
220.7166674077948
 30
0.0
 11
206.6760831472489
 21
221.7166674077947
 31
0.0
  0
CIRCLE
  5
261
330
2
100
AcDbEntity
  8
UMRISS05
100
AcDbCircle
 10
117.741826912609
 20
331.2166674077948
 30
0.0
 40
2.75
  0
CIRCLE
  5
262
330
2
100
AcDbEntity
  8
UMRISS05
100
AcDbCircle
 10
117.741826912609
 20
232.7166674077947
 30
0.0
 40
2.75
  0
CIRCLE
  5
263
330
2
100
AcDbEntity
  8
UMRISS05
100
AcDbCircle
 10
117.741826912609
 20
425.7166674077947
 30
0.0
 40
2.75
  0
ARC
  5
264
330
2
100
AcDbEntity
  8
AVERDECKTE
100
AcDbCircle
 10
122.7418269126089
 20
240.7166674077948
 30
0.0
 40
2.000000000000019
100
AcDbArc
 50
270.0
 51
0.0
  0
ARC
  5
265
330
2
100
AcDbEntity
  8
AVERDECKTE
100
AcDbCircle
 10
112.741826912609
 20
240.7166674077948
 30
0.0
 40
2.000000000000028
100
AcDbArc
 50
180.0
 51
270.0
  0
LINE
  5
266
330
2
100
AcDbEntity
  8
AVERDECKTE
100
AcDbLine
 10
122.7418269126089
 20
238.7166674077948
 30
0.0
 11
112.741826912609
 21
238.7166674077948
 31
0.0
  0
CIRCLE
  5
267
330
2
100
AcDbEntity
  8
UMRISS05
100
AcDbCircle
 10
117.741826912609
 20
252.2166674077948
 30
0.0
 40
1.75
  0
CIRCLE
  5
268
330
2
100
AcDbEntity
  8
UMRISS05
100
AcDbCircle
 10
117.741826912609
 20
263.2166674077947
 30
0.0
 40
1.75
  0
LINE
  5
269
330
2
100
AcDbEntity
  8
AVERDECKTE
100
AcDbLine
 10
110.741826912609
 20
240.7166674077947
 30
0.0
 11
110.741826912609
 21
271.7166674077948
 31
0.0
  0
LINE
  5
26A
330
2
100
AcDbEntity
  8
AVERDECKTE
100
AcDbLine
 10
124.7418269126089
 20
271.7166674077948
 30
0.0
 11
124.7418269126089
 21
240.7166674077947
 31
0.0
  0
LINE
  5
26B
330
2
100
AcDbEntity
  8
UMRISS05
100
AcDbLine
 10
112.741826912609
 20
311.7166674077948
 30
0.0
 11
122.741826912609
 21
311.7166674077948
 31
0.0
  0
ARC
  5
26C
330
2
100
AcDbEntity
  8
UMRISS05
100
AcDbCircle
 10
112.741826912609
 20
309.7166674077948
 30
0.0
 40
1.999999999999766
100
AcDbArc
 50
90.0
 51
180.0
  0
LINE
  5
26D
330
2
100
AcDbEntity
  8
UMRISS05
100
AcDbLine
 10
110.7418269126088
 20
271.7166674077948
 30
0.0
 11
110.7418269126088
 21
309.7166674077948
 31
0.0
  0
ARC
  5
26E
330
2
100
AcDbEntity
  8
UMRISS05
100
AcDbCircle
 10
112.741826912609
 20
271.7166674077948
 30
0.0
 40
1.999999999999868
100
AcDbArc
 50
180.0
 51
270.0
  0
LINE
  5
26F
330
2
100
AcDbEntity
  8
UMRISS05
100
AcDbLine
 10
122.741826912609
 20
269.7166674077948
 30
0.0
 11
112.741826912609
 21
269.7166674077948
 31
0.0
  0
ARC
  5
270
330
2
100
AcDbEntity
  8
UMRISS05
100
AcDbCircle
 10
122.741826912609
 20
271.7166674077948
 30
0.0
 40
1.999999999999467
100
AcDbArc
 50
270.0
 51
0.0
  0
LINE
  5
271
330
2
100
AcDbEntity
  8
UMRISS05
100
AcDbLine
 10
124.7418269126088
 20
309.7166674077948
 30
0.0
 11
124.7418269126088
 21
271.7166674077948
 31
0.0
  0
ARC
  5
272
330
2
100
AcDbEntity
  8
UMRISS05
100
AcDbCircle
 10
122.741826912609
 20
309.7166674077948
 30
0.0
 40
1.99999999999981
100
AcDbArc
 50
0.0
 51
90.0
  0
CIRCLE
  5
273
330
2
100
AcDbEntity
  8
UMRISS05
100
AcDbCircle
 10
117.741826912609
 20
232.7166674077947
 30
0.0
 40
4.0
  0
CIRCLE
  5
274
330
2
100
AcDbEntity
  8
UMRISS05
100
AcDbCircle
 10
117.741826912609
 20
331.2166674077948
 30
0.0
 40
4.0
  0
CIRCLE
  5
275
330
2
100
AcDbEntity
  8
UMRISS05
100
AcDbCircle
 10
117.741826912609
 20
232.7166674077947
 30
0.0
 40
5.0
  0
CIRCLE
  5
276
330
2
100
AcDbEntity
  8
UMRISS05
100
AcDbCircle
 10
117.741826912609
 20
331.2166674077948
 30
0.0
 40
5.0
  0
CIRCLE
  5
277
330
2
100
AcDbEntity
  8
UMRISS05
100
AcDbCircle
 10
117.741826912609
 20
425.7166674077947
 30
0.0
 40
5.0
  0
CIRCLE
  5
278
330
2
100
AcDbEntity
  8
UMRISS05
100
AcDbCircle
 10
117.741826912609
 20
425.7166674077947
 30
0.0
 40
4.0
  0
LINE
  5
279
330
2
100
AcDbEntity
  8
ACHSEN
100
AcDbLine
 10
117.741826912609
 20
191.6865840431148
 30
0.0
 11
117.741826912609
 21
178.1865840431148
 31
0.0
  0
DIMENSION
  5
27A
330
2
100
AcDbEntity
  8
BEMASSUNG
100
AcDbDimension
  2
*D2
 10
127.7418269125658
 20
203.7942502531524
 30
0.0
 11
117.6592570683988
 21
203.7942502531524
 31
0.0
 70
   128
 71
     5
 42
20.00000000000006
  3
Katalog 09
100
AcDbAlignedDimension
 13
107.7418269125657
 23
188.9365840431124
 33
0.0
 14
127.7418269125658
 24
188.9365840431124
 34
0.0
100
AcDbRotatedDimension
  0
DIMENSION
  5
287
330
2
100
AcDbEntity
  8
BEMASSUNG
100
AcDbDimension
  2
*D1
 10
82.63468204752919
 20
189.9365840431124
 30
0.0
 11
82.63468204752916
 21
184.9365840431135
 31
0.0
 70
   128
 71
     5
 42
9.999999999997896
  3
Katalog 09
100
AcDbAlignedDimension
 13
108.7418269125658
 23
179.9365840431145
 33
0.0
 14
108.7418269125658
 24
189.9365840431124
 34
0.0
 50
90.0
100
AcDbRotatedDimension
  0
LINE
  5
296
330
2
100
AcDbEntity
  8
UMRISS05
100
AcDbLine
 10
121.2418269125658
 20
189.9365840430987
 30
0.0
 11
121.2418269125658
 21
190.6365840430988
 31
0.0
  0
LINE
  5
297
330
2
100
AcDbEntity
  8
UMRISS05
100
AcDbLine
 10
118.2418269125658
 20
189.9365840430987
 30
0.0
 11
118.2418269125658
 21
190.6365840430987
 31
0.0
  0
LINE
  5
298
330
2
100
AcDbEntity
  8
UMRISS05
100
AcDbLine
 10
118.5485519125658
 20
190.7899465430987
 30
0.0
 11
118.2418269125658
 21
190.6365840430987
 31
0.0
  0
LINE
  5
299
330
2
100
AcDbEntity
  8
UMRISS05
100
AcDbLine
 10
120.9351019125658
 20
190.7899465430987
 30
0.0
 11
121.2418269125658
 21
190.6365840430987
 31
0.0
  0
LINE
  5
29A
330
2
100
AcDbEntity
  8
UMRISS05
100
AcDbLine
 10
118.5485519125658
 20
190.7899465430987
 30
0.0
 11
120.9351019125658
 21
190.7899465430987
 31
0.0
  0
LINE
  5
29B
330
2
100
AcDbEntity
  8
UMRISS05
100
AcDbLine
 10
121.2418269125658
 20
190.6365840430987
 30
0.0
 11
118.2418269125658
 21
190.6365840430987
 31
0.0
  0
LINE
  5
29C
330
2
100
AcDbEntity
  8
UMRISS05
100
AcDbLine
 10
125.7418269125658
 20
188.4365840430996
 30
0.0
 11
125.7418269125658
 21
185.1365840431009
 31
0.0
  0
LINE
  5
29D
330
2
100
AcDbEntity
  8
UMRISS05
100
AcDbLine
 10
125.7418269125658
 20
185.1365840431009
 30
0.0
 11
124.6808689852582
 21
181.4365840431009
 31
0.0
  0
LINE
  5
29E
330
2
100
AcDbEntity
  8
UMRISS05
100
AcDbLine
 10
122.7418269125658
 20
185.8365840431008
 30
0.0
 11
112.2418269125658
 21
185.8365840431008
 31
0.0
  0
LINE
  5
29F
330
2
100
AcDbEntity
  8
UMRISS05
100
AcDbLine
 10
112.2418269125658
 20
185.8365840431008
 30
0.0
 11
112.2418269125658
 21
188.4365840430996
 31
0.0
  0
LINE
  5
2A0
330
2
100
AcDbEntity
  8
UMRISS05
100
AcDbLine
 10
122.7418269125658
 20
181.4365840431009
 30
0.0
 11
122.7418269125658
 21
185.8365840431008
 31
0.0
  0
LINE
  5
2A1
330
2
100
AcDbEntity
  8
AVERDECKTE
100
AcDbLine
 10
124.6808689852582
 20
181.4365840431009
 30
0.0
 11
124.508821753803
 21
180.8365840431009
 31
0.0
  0
LINE
  5
2A2
330
2
100
AcDbEntity
  8
AVERDECKTE
100
AcDbLine
 10
124.508821753803
 20
180.8365840431009
 30
0.0
 11
123.608821753803
 21
179.936584043101
 31
0.0
  0
LINE
  5
2A3
330
2
100
AcDbEntity
  8
AVERDECKTE
100
AcDbLine
 10
122.7418269125658
 20
180.1365840431009
 30
0.0
 11
122.7418269125658
 21
181.4365840431009
 31
0.0
  0
ARC
  5
2A4
330
2
100
AcDbEntity
  8
AVERDECKTE
100
AcDbCircle
 10
122.9418269125658
 20
180.1365840431009
 30
0.0
 40
0.1999999999999996
100
AcDbArc
 50
180.0
 51
269.9999999999935
  0
LINE
  5
2A5
330
2
100
AcDbEntity
  8
AVERDECKTE
100
AcDbLine
 10
124.7418269125658
 20
188.4365840430778
 30
0.0
 11
124.7418269125658
 21
189.9365840430778
 31
0.0
  0
LINE
  5
2A6
330
2
100
AcDbEntity
  8
AVERDECKTE
100
AcDbLine
 10
124.7418269125658
 20
179.9365840430778
 30
0.0
 11
124.7418269125658
 21
181.4365840430778
 31
0.0
  0
LINE
  5
2A7
330
2
100
AcDbEntity
  8
AVERDECKTE
100
AcDbLine
 10
110.7418269125657
 20
188.4365840430778
 30
0.0
 11
110.7418269125657
 21
189.9365840430778
 31
0.0
  0
LINE
  5
2A8
330
2
100
AcDbEntity
  8
AVERDECKTE
100
AcDbLine
 10
110.7418269125657
 20
179.9365840430778
 30
0.0
 11
110.7418269125657
 21
181.4365840430778
 31
0.0
  0
LINE
  5
2A9
330
2
100
AcDbEntity
  8
UMRISS05
100
AcDbLine
 10
126.2418269125658
 20
181.9365840431148
 30
0.0
 11
126.2418269125658
 21
188.4365840431138
 31
0.0
  0
LINE
  5
2AA
330
2
100
AcDbEntity
  8
UMRISS05
100
AcDbLine
 10
109.2418269125658
 20
188.4365840431138
 30
0.0
 11
126.2418269125658
 21
188.4365840431138
 31
0.0
  0
LINE
  5
2AB
330
2
100
AcDbEntity
  8
UMRISS05
100
AcDbLine
 10
109.2418269125658
 20
188.4365840431138
 30
0.0
 11
109.2418269125658
 21
181.4365840431148
 31
0.0
  0
LINE
  5
2AC
330
2
100
AcDbEntity
  8
UMRISS05
100
AcDbLine
 10
126.7418269125658
 20
189.9365840431124
 30
0.0
 11
108.7418269125658
 21
189.9365840431124
 31
0.0
  0
LINE
  5
2AD
330
2
100
AcDbEntity
  8
UMRISS05
100
AcDbLine
 10
107.7418269125658
 20
180.9365840431144
 30
0.0
 11
107.7418269125658
 21
188.9365840431124
 31
0.0
  0
ARC
  5
2AE
330
2
100
AcDbEntity
  8
UMRISS05
100
AcDbCircle
 10
108.7418269125658
 20
188.9365840431124
 30
0.0
 40
0.9999999999999985
100
AcDbArc
 50
90.0
 51
180.0
  0
ARC
  5
2AF
330
2
100
AcDbEntity
  8
UMRISS05
100
AcDbCircle
 10
108.7418269125658
 20
180.9365840431144
 30
0.0
 40
1.0
100
AcDbArc
 50
180.0
 51
270.0
  0
LINE
  5
2B0
330
2
100
AcDbEntity
  8
UMRISS05
100
AcDbLine
 10
127.7418269125658
 20
188.9365840431124
 30
0.0
 11
127.7418269125658
 21
180.9365840431144
 31
0.0
  0
ARC
  5
2B1
330
2
100
AcDbEntity
  8
UMRISS05
100
AcDbCircle
 10
126.7418269125658
 20
188.9365840431124
 30
0.0
 40
0.9999999999999985
100
AcDbArc
 50
0.0
 51
90.0
  0
ARC
  5
2B2
330
2
100
AcDbEntity
  8
UMRISS05
100
AcDbCircle
 10
126.7418269125658
 20
180.9365840431144
 30
0.0
 40
1.0
100
AcDbArc
 50
270.0
 51
0.0
  0
LINE
  5
2B3
330
2
100
AcDbEntity
  8
UMRISS05
100
AcDbLine
 10
126.2418269125658
 20
181.4365840431148
 30
0.0
 11
109.2418269125658
 21
181.4365840431148
 31
0.0
  0
LINE
  5
2B4
330
2
100
AcDbEntity
  8
UMRISS05
100
AcDbLine
 10
126.2418269125658
 20
181.9365840431147
 30
0.0
 11
126.2418269125658
 21
181.4365840431148
 31
0.0
  0
LINE
  5
2B5
330
2
100
AcDbEntity
  8
UMRISS05
100
AcDbLine
 10
126.7418269125658
 20
179.9365840431147
 30
0.0
 11
108.7418269125658
 21
179.9365840431147
 31
0.0
  0
MTEXT
  5
2B6
102
{ACAD_XDICTIONARY
360
332
102
}
330
2
100
AcDbEntity
  8
UMRISS05
 62
     3
100
AcDbMText
 10
235.2059845671313
 20
356.4208460064619
 30
0.0
 40
3.5
 41
0.0
 71
     5
 72
     1
  1
\A1;Dr\U+00FCckerh\U+00F6he
  7
ARIAL-STANDARD
 73
     1
 44
1.0
1001
ACAD
1000
MTEXTBEGIN
1070
    73
1070
     1
1070
    44
1040
1.0
1070
    74
1070
     0
1000
MTEXTEND
  0
ENDSEC
  0
SECTION
  2
OBJECTS
  0
DICTIONARY
  5
B
330
0
100
AcDbDictionary
281
     1
  3
ACAD_COLOR
350
4D
  3
ACAD_DETAILVIEWSTYLE
350
2D8
  3
ACAD_FIELDLIST
350
30A
  3
ACAD_GROUP
350
3A
  3
ACAD_LAYOUT
350
18
  3
ACAD_MATERIAL
350
D
  3
ACAD_MLEADERSTYLE
350
50
  3
ACAD_MLINESTYLE
350
3B
  3
ACAD_PLOTSETTINGS
350
3C
  3
ACAD_PLOTSTYLENAME
350
A
  3
ACAD_SCALELIST
350
4E
  3
ACAD_SECTIONVIEWSTYLE
350
2E2
  3
ACAD_TABLESTYLE
350
4F
  3
ACAD_VISUALSTYLE
350
30
  3
ACDB_RECOMPOSE_DATA
350
31C
  3
AcDbVariableDictionary
350
30E
  3
AcDsDecomposeData
350
322
  3
AcmDictionary
350
2C8
  3
AcmSystemVariableManager
350
33B
  3
AMG
350
2B9
  0
DICTIONARY
  5
20
330
1F
100
AcDbDictionary
280
     1
281
     1
  3
ACAD_LAYERFILTERS
360
21
  3
ACAD_LAYERSTATES
360
22
  3
ACLYDICTIONARY
360
23
  0
DICTIONARY
  5
7
330
6
100
AcDbDictionary
280
     1
281
     1
  3
ADSK_XREC_LAYER_RECONCILED
360
8
  0
DICTIONARY
  5
80
330
7F
100
AcDbDictionary
280
     1
281
     1
  3
ADSK_XREC_LAYER_RECONCILED
360
81
  0
DICTIONARY
  5
52
330
51
100
AcDbDictionary
280
     1
281
     1
  3
ADSK_XREC_LAYER_RECONCILED
360
53
  0
DICTIONARY
  5
6D
330
6C
100
AcDbDictionary
280
     1
281
     1
  3
ADSK_XREC_LAYER_RECONCILED
360
6E
  0
DICTIONARY
  5
1C7
330
1C6
100
AcDbDictionary
280
     1
281
     1
  3
ADSK_XREC_LAYER_RECONCILED
360
1C8
  0
DICTIONARY
  5
3
330
2
100
AcDbDictionary
280
     1
281
     1
  3
ACAD_SORTENTS
360
2B7
  0
DICTIONARY
  5
332
330
2B6
100
AcDbDictionary
280
     1
281
     1
  3
ACAD_MTEXT_RT
360
333
  0
DICTIONARY
  5
4D
102
{ACAD_REACTORS
330
B
102
}
330
B
100
AcDbDictionary
281
     1
  0
DICTIONARY
  5
2D8
102
{ACAD_REACTORS
330
B
102
}
330
B
100
AcDbDictionary
281
     1
  3
Metric50
350
2DF
  0
FIELDLIST
  5
30A
102
{ACAD_REACTORS
330
B
102
}
330
B
100
AcDbIdSet
 90
        6
330
2DB
330
2DC
330
2DD
330
2E5
330
2E6
330
2E7
100
AcDbFieldList
  0
DICTIONARY
  5
3A
102
{ACAD_REACTORS
330
B
102
}
330
B
100
AcDbDictionary
281
     1
  0
DICTIONARY
  5
18
102
{ACAD_REACTORS
330
B
102
}
330
B
100
AcDbDictionary
281
     1
  3
Layout1
350
1E
  3
Model
350
17
  0
DICTIONARY
  5
D
102
{ACAD_REACTORS
330
B
102
}
330
B
100
AcDbDictionary
281
     1
  3
ByBlock
350
45
  3
ByLayer
350
3D
  3
Global
350
C
  0
DICTIONARY
  5
50
102
{ACAD_REACTORS
330
B
102
}
330
B
100
AcDbDictionary
281
     1
  0
DICTIONARY
  5
3B
102
{ACAD_REACTORS
330
B
102
}
330
B
100
AcDbDictionary
281
     1
  3
STANDARD
350
55
  0
DICTIONARY
  5
3C
102
{ACAD_REACTORS
330
B
102
}
330
B
100
AcDbDictionary
281
     1
  0
ACDBDICTIONARYWDFLT
  5
A
102
{ACAD_REACTORS
330
B
102
}
330
B
100
AcDbDictionary
281
     1
  3
Normal
350
9
100
AcDbDictionaryWithDefault
340
9
  0
DICTIONARY
  5
4E
102
{ACAD_REACTORS
330
B
102
}
330
B
100
AcDbDictionary
281
     1
  3
A0
350
5A
  3
A1
350
5B
  3
A2
350
5C
  3
A3
350
5D
  3
A4
350
5E
  3
A5
350
5F
  3
A6
350
60
  3
A7
350
61
  3
A8
350
62
  3
A9
350
63
  3
B0
350
64
  3
B1
350
65
  3
B2
350
66
  3
B3
350
67
  3
B4
350
68
  3
B5
350
69
  3
B6
350
6A
  0
DICTIONARY
  5
2E2
102
{ACAD_REACTORS
330
B
102
}
330
B
100
AcDbDictionary
281
     1
  3
Metric50
350
2ED
  0
DICTIONARY
  5
4F
102
{ACAD_REACTORS
330
B
102
}
330
B
100
AcDbDictionary
281
     1
  3
Standard
350
56
  0
DICTIONARY
  5
30
102
{ACAD_REACTORS
330
B
102
}
330
B
100
AcDbDictionary
281
     1
  3
2dWireframe
350
2F
  3
Realistic
350
58
  3
Wireframe
350
59
  0
XRECORD
  5
31C
102
{ACAD_REACTORS
330
B
102
}
330
B
100
AcDbXrecord
280
     1
 90
        1
330
56
  0
DICTIONARY
  5
30E
102
{ACAD_REACTORS
330
B
102
}
330
B
100
AcDbDictionary
281
     1
  3
CANNOSCALE
350
313
  3
CMLEADERSTYLE
350
310
  3
CTABLESTYLE
350
30F
  3
CVIEWDETAILSTYLE
350
311
  3
CVIEWSECTIONSTYLE
350
312
  3
DIMASSOC
350
318
  3
HIDETEXT
350
316
  3
INDEXCTL
350
315
  3
SOLIDHIST
350
319
  3
SORTENTS
350
314
  3
XCLIPFRAME
350
317
  0
DICTIONARY
  5
322
102
{ACAD_REACTORS
330
B
102
}
330
B
100
AcDbDictionary
281
     1
  3
AcDsRecords
350
324
  3
AcDsSchemas
350
323
1001
ACAD
1070
     2
  0
DICTIONARY
  5
2C8
102
{ACAD_REACTORS
330
B
102
}
330
B
100
AcDbDictionary
281
     1
  3
AcmStdDictionary
350
2C9
  0
DICTIONARY
  5
2B9
102
{ACAD_REACTORS
330
B
102
}
330
B
100
AcDbDictionary
281
     1
  3
AcMgSettings
350
2C3
  0
DICTIONARY
  5
21
102
{ACAD_REACTORS
330
20
102
}
330
20
100
AcDbDictionary
281
     1
  0
DICTIONARY
  5
22
102
{ACAD_REACTORS
330
20
102
}
330
20
100
AcDbDictionary
281
     1
  0
DICTIONARY
  5
23
102
{ACAD_REACTORS
330
20
102
}
330
20
100
AcDbDictionary
281
     1
1001
ACAD
1000
<All
  0
XRECORD
  5
8
102
{ACAD_REACTORS
330
7
102
}
330
7
100
AcDbXrecord
280
     1
290
     1
  0
XRECORD
  5
81
102
{ACAD_REACTORS
330
80
102
}
330
80
100
AcDbXrecord
280
     1
290
     1
  0
XRECORD
  5
53
102
{ACAD_REACTORS
330
52
102
}
330
52
100
AcDbXrecord
280
     1
290
     1
  0
XRECORD
  5
6E
102
{ACAD_REACTORS
330
6D
102
}
330
6D
100
AcDbXrecord
280
     1
290
     1
  0
XRECORD
  5
1C8
102
{ACAD_REACTORS
330
1C7
102
}
330
1C7
100
AcDbXrecord
280
     1
290
     1
  0
SORTENTSTABLE
  5
2B7
102
{ACAD_REACTORS
330
3
102
}
330
3
100
AcDbSortentsTable
330
2
331
297
  5
108
331
70
  5
2B5
331
1A7
  5
21E
331
1A3
  5
222
331
21D
  5
1A7
331
164
  5
260
331
19F
  5
226
331
1DE
  5
1D2
331
219
  5
1AB
331
160
  5
264
331
254
  5
16F
331
19B
  5
22A
331
1DA
  5
1D6
331
215
  5
1AF
331
211
  5
1B3
331
250
  5
173
331
287
  5
122
331
A7
  5
2A5
331
A3
  5
2A9
331
1D6
  5
1DA
331
197
  5
22E
331
15C
  5
268
331
158
  5
26C
331
193
  5
232
331
1D2
  5
1DE
331
20D
  5
1B7
331
24C
  5
178
331
115
  5
297
331
154
  5
270
331
18F
  5
236
331
1CE
  5
1E2
331
248
  5
17C
331
150
  5
274
331
244
  5
180
331
18B
  5
23A
331
1CA
  5
1E6
331
240
  5
184
331
277
  5
13E
331
2B6
  5
1BE
331
273
  5
150
331
2B2
  5
72
331
26F
  5
154
331
2AE
  5
84
331
2AA
  5
88
331
26B
  5
158
331
187
  5
23E
331
1C2
  5
1EA
331
23C
  5
188
331
183
  5
242
331
105
  5
29B
331
17F
  5
246
331
1BE
  5
1EE
331
238
  5
18C
331
140
  5
276
331
234
  5
190
331
17B
  5
24A
331
1BA
  5
1FF
331
1F1
  5
1BA
331
230
  5
194
331
267
  5
15C
331
2A6
  5
A5
331
263
  5
160
331
2A2
  5
B5
331
25F
  5
164
331
29E
  5
E9
331
29A
  5
105
331
25B
  5
168
331
87
  5
2AC
331
83
  5
2B0
331
C2
  5
2A2
331
13C
  5
27A
331
177
  5
24E
331
1B6
  5
20F
331
1B2
  5
213
331
1ED
  5
1BF
331
22C
  5
198
331
173
  5
251
331
16F
  5
255
331
1AE
  5
217
331
1E9
  5
1C3
331
228
  5
19C
331
224
  5
1A0
331
16B
  5
259
331
1AA
  5
21B
331
1E5
  5
1CB
331
1E1
  5
1CF
331
220
  5
1A4
331
296
  5
115
331
1A6
  5
21F
331
1A2
  5
223
331
167
  5
25D
331
21C
  5
1A8
331
E9
  5
29F
331
163
  5
261
331
257
  5
16C
331
19E
  5
227
331
1DD
  5
1D3
331
218
  5
1AC
331
214
  5
1B0
331
253
  5
170
331
19A
  5
22B
331
1D9
  5
1D7
331
210
  5
1B4
331
27A
  5
12F
331
6B
  5
2B6
331
A6
  5
2A6
331
15F
  5
265
331
15B
  5
269
331
1D5
  5
1DB
331
24F
  5
175
331
196
  5
22F
331
157
  5
26D
331
192
  5
233
331
1D1
  5
1DF
331
20C
  5
1B8
331
24B
  5
179
331
153
  5
271
331
247
  5
17D
331
18E
  5
237
331
1CD
  5
1E3
331
243
  5
181
331
18A
  5
23B
331
276
  5
13F
331
2B5
  5
6B
331
272
  5
151
331
2B1
  5
7E
331
26E
  5
155
331
2AD
  5
85
331
2A9
  5
96
331
26A
  5
159
331
96
  5
2AA
331
14F
  5
275
331
1C5
  5
1E7
331
23F
  5
185
331
186
  5
23F
331
182
  5
243
331
1C1
  5
1EB
331
23B
  5
189
331
108
  5
298
331
104
  5
29C
331
17E
  5
247
331
1BD
  5
1EF
331
237
  5
18D
331
233
  5
191
331
17A
  5
24B
331
1B9
  5
20C
331
1F0
  5
1BB
331
266
  5
15D
331
2A5
  5
A6
331
262
  5
161
331
2A1
  5
C2
331
25E
  5
165
331
29D
  5
F6
331
299
  5
106
331
25A
  5
169
331
13F
  5
277
331
86
  5
2AD
331
1B5
  5
210
331
82
  5
2B1
331
22F
  5
195
331
176
  5
24F
331
1B1
  5
214
331
7E
  5
2B2
331
1EC
  5
1C0
331
22B
  5
199
331
172
  5
252
331
16E
  5
256
331
1AD
  5
218
331
1E8
  5
1C4
331
227
  5
19D
331
223
  5
1A1
331
16A
  5
25A
331
1A9
  5
21C
331
1E4
  5
1CC
331
1E0
  5
1D0
331
72
  5
2B3
331
B5
  5
2A3
331
12F
  5
287
331
21F
  5
1A5
331
1A5
  5
220
331
1A1
  5
224
331
166
  5
25E
331
21B
  5
1A9
331
162
  5
262
331
256
  5
16D
331
19D
  5
228
331
1DC
  5
1D4
331
217
  5
1AD
331
213
  5
1B1
331
252
  5
171
331
199
  5
22C
331
279
  5
13C
331
A5
  5
2A7
331
15E
  5
266
331
15A
  5
26A
331
1D4
  5
1DC
331
20F
  5
1B5
331
24E
  5
176
331
195
  5
230
331
156
  5
26E
331
191
  5
234
331
1D0
  5
1E0
331
24A
  5
17A
331
DC
  5
2A0
331
152
  5
272
331
246
  5
17E
331
18D
  5
238
331
1CC
  5
1E4
331
242
  5
182
331
189
  5
23C
331
275
  5
140
331
2B4
  5
70
331
271
  5
152
331
2B0
  5
82
331
26D
  5
156
331
2AC
  5
86
331
2A8
  5
A3
331
269
  5
15A
331
1C4
  5
1E8
331
1FF
  5
1B9
331
23E
  5
186
331
185
  5
240
331
181
  5
244
331
1C0
  5
1EC
331
23A
  5
18A
331
107
  5
299
331
236
  5
18E
331
17D
  5
248
331
1BC
  5
1F0
331
232
  5
192
331
179
  5
24C
331
1B8
  5
20D
331
265
  5
15E
331
2A4
  5
A7
331
261
  5
162
331
2A0
  5
CF
331
25D
  5
166
331
29C
  5
F7
331
298
  5
107
331
259
  5
16A
331
85
  5
2AE
331
13E
  5
278
331
1B4
  5
211
331
1EF
  5
1BC
331
22E
  5
196
331
175
  5
250
331
171
  5
253
331
1B0
  5
215
331
1EB
  5
1C1
331
22A
  5
19A
331
F7
  5
29D
331
16D
  5
257
331
1AC
  5
219
331
1E7
  5
1C5
331
226
  5
19E
331
222
  5
1A2
331
169
  5
25B
331
1A8
  5
21D
331
1E3
  5
1CD
331
71
  5
2B4
331
1A4
  5
221
331
21E
  5
1A6
331
165
  5
25F
331
1A0
  5
225
331
1DF
  5
1D1
331
21A
  5
1AA
331
122
  5
296
331
161
  5
263
331
255
  5
16E
331
19C
  5
229
331
1DB
  5
1D5
331
216
  5
1AE
331
A8
  5
2A4
331
212
  5
1B2
331
251
  5
172
331
198
  5
22D
331
278
  5
13D
331
A4
  5
2A8
331
1D7
  5
1D9
331
15D
  5
267
331
159
  5
26B
331
1D3
  5
1DD
331
20E
  5
1B6
331
24D
  5
177
331
194
  5
231
331
155
  5
26F
331
190
  5
235
331
1CF
  5
1E1
331
249
  5
17B
331
151
  5
273
331
245
  5
17F
331
18C
  5
239
331
1CB
  5
1E5
331
241
  5
183
331
188
  5
23D
331
274
  5
14F
331
2B3
  5
71
331
270
  5
153
331
2AF
  5
83
331
2AB
  5
87
331
26C
  5
157
331
268
  5
15B
331
1C3
  5
1E9
331
CF
  5
2A1
331
23D
  5
187
331
184
  5
241
331
106
  5
29A
331
180
  5
245
331
1BF
  5
1ED
331
239
  5
18B
331
235
  5
18F
331
17C
  5
249
331
1BB
  5
1F1
331
88
  5
2AB
331
231
  5
193
331
178
  5
24D
331
2A7
  5
A4
331
264
  5
15F
331
2A3
  5
A8
331
260
  5
163
331
29F
  5
DC
331
25C
  5
167
331
29B
  5
104
331
258
  5
16B
331
84
  5
2AF
331
13D
  5
279
331
1B7
  5
20E
331
1B3
  5
212
331
1EE
  5
1BD
331
22D
  5
197
331
170
  5
254
331
1AF
  5
216
331
1EA
  5
1C2
331
229
  5
19B
331
F6
  5
29E
331
225
  5
19F
331
16C
  5
258
331
1AB
  5
21A
331
1E6
  5
1CA
331
221
  5
1A3
331
168
  5
25C
331
1E2
  5
1CE
  0
XRECORD
  5
333
102
{ACAD_REACTORS
330
332
102
}
330
332
100
AcDbXrecord
280
     1
 40
29448.0
  1
\A1;Drückerhöhe
  0
ACDBDETAILVIEWSTYLE
  5
2DF
102
{ACAD_XDICTIONARY
360
334
102
}
102
{ACAD_REACTORS
330
2D8
330
2DE
102
}
330
2D8
100
AcDbModelDocViewStyle
 70
     0
  3
Metric50
290
     0
100
AcDbDetailViewStyle
 70
     0
 71
     0
 90
        3
 71
     1
340
26
 40
5.0
340
0
 40
5.0
300

 40
0.0
280
     1
 71
     2
340
15
 90
       25
 71
     3
340
26
 40
5.0
 90
        0
 40
15.0
 90
        1
300
%<\AcVar ViewDetailId>% (%<\AcVar ViewScale \f "%sn">%)
 71
     4
340
15
 90
       25
340
15
 90
       25
280
     0
  0
LAYOUT
  5
1E
102
{ACAD_XDICTIONARY
360
327
102
}
102
{ACAD_REACTORS
330
18
102
}
330
18
100
AcDbPlotSettings
  1

  2
HP LaserJet 5000 Series PS
  4

  6

 40
0.0
 41
0.0
 42
0.0
 43
0.0
 44
0.0
 45
0.0
 46
0.0
 47
0.0
 48
0.0
 49
0.0
140
0.0
141
0.0
142
1.0
143
1.0
 70
   688
 72
     0
 73
     0
 74
     5
  7
Katalog 09.ctb
 75
    16
147
1.0
148
0.0
149
0.0
100
AcDbLayout
  1
Layout1
 70
     1
 71
     1
 10
0.0
 20
0.0
 11
12.0
 21
9.0
 12
0.0
 22
0.0
 32
0.0
 14
1.000000000000000E+20
 24
1.000000000000000E+20
 34
1.000000000000000E+20
 15
-1.000000000000000E+20
 25
-1.000000000000000E+20
 35
-1.000000000000000E+20
146
0.0
 13
0.0
 23
0.0
 33
0.0
 16
1.0
 26
0.0
 36
0.0
 17
0.0
 27
1.0
 37
0.0
 76
     0
330
1B
  0
LAYOUT
  5
17
102
{ACAD_XDICTIONARY
360
19
102
}
102
{ACAD_REACTORS
330
18
102
}
330
18
100
AcDbPlotSettings
  1

  2
HP LaserJet 5000 Series PS
  4
A4
  6

 40
3.174999952316284
 41
3.174999952316284
 42
3.175003051757812
 43
3.17498779296875
 44
210.0
 45
297.0
 46
0.0
 47
0.0
 48
0.0
 49
0.0
140
0.0
141
0.0
142
1.0
143
1.0
 70
 11952
 72
     1
 73
     1
 74
     0
  7
Katalog 09.ctb
 75
     0
147
1.0
148
-557.4637585994694
149
54.71174086130691
100
AcDbLayout
  1
Model
 70
     1
 71
     0
 10
0.0
 20
0.0
 11
12.0
 21
9.0
 12
0.0
 22
0.0
 32
0.0
 14
0.0
 24
0.0
 34
0.0
 15
0.0
 25
0.0
 35
0.0
146
0.0
 13
0.0
 23
0.0
 33
0.0
 16
1.0
 26
0.0
 36
0.0
 17
0.0
 27
1.0
 37
0.0
 76
     0
330
2
331
2E
  0
MATERIAL
  5
45
102
{ACAD_XDICTIONARY
360
46
102
}
102
{ACAD_REACTORS
330
D
102
}
330
D
100
AcDbMaterial
  1
ByBlock
 72
     0
 43
0.0008202099737533
 43
0.0
 43
0.0
 43
0.0
 43
0.0
 43
0.0008202099737533
 43
0.0
 43
0.0
 43
0.0
 43
0.0
 43
1.0
 43
0.0
 43
0.0
 43
0.0
 43
0.0
 43
1.0
 77
     0
 47
0.0008202099737533
 47
0.0
 47
0.0
 47
0.0
 47
0.0
 47
0.0008202099737533
 47
0.0
 47
0.0
 47
0.0
 47
0.0
 47
1.0
 47
0.0
 47
0.0
 47
0.0
 47
0.0
 47
1.0
171
     0
 49
0.0008202099737533
 49
0.0
 49
0.0
 49
0.0
 49
0.0
 49
0.0008202099737533
 49
0.0
 49
0.0
 49
0.0
 49
0.0
 49
1.0
 49
0.0
 49
0.0
 49
0.0
 49
0.0
 49
1.0
175
     0
142
0.0008202099737533
142
0.0
142
0.0
142
0.0
142
0.0
142
0.0008202099737533
142
0.0
142
0.0
142
0.0
142
0.0
142
1.0
142
0.0
142
0.0
142
0.0
142
0.0
142
1.0
179
     0
144
0.0008202099737533
144
0.0
144
0.0
144
0.0
144
0.0
144
0.0008202099737533
144
0.0
144
0.0
144
0.0
144
0.0
144
1.0
144
0.0
144
0.0
144
0.0
144
0.0
144
1.0
147
0.0008202099737533
147
0.0
147
0.0
147
0.0
147
0.0
147
0.0008202099737533
147
0.0
147
0.0
147
0.0
147
0.0
147
1.0
147
0.0
147
0.0
147
0.0
147
0.0
147
1.0
  0
MATERIAL
  5
3D
102
{ACAD_XDICTIONARY
360
3E
102
}
102
{ACAD_REACTORS
330
D
102
}
330
D
100
AcDbMaterial
  1
ByLayer
 72
     0
 43
0.0008202099737533
 43
0.0
 43
0.0
 43
0.0
 43
0.0
 43
0.0008202099737533
 43
0.0
 43
0.0
 43
0.0
 43
0.0
 43
1.0
 43
0.0
 43
0.0
 43
0.0
 43
0.0
 43
1.0
 77
     0
 47
0.0008202099737533
 47
0.0
 47
0.0
 47
0.0
 47
0.0
 47
0.0008202099737533
 47
0.0
 47
0.0
 47
0.0
 47
0.0
 47
1.0
 47
0.0
 47
0.0
 47
0.0
 47
0.0
 47
1.0
171
     0
 49
0.0008202099737533
 49
0.0
 49
0.0
 49
0.0
 49
0.0
 49
0.0008202099737533
 49
0.0
 49
0.0
 49
0.0
 49
0.0
 49
1.0
 49
0.0
 49
0.0
 49
0.0
 49
0.0
 49
1.0
175
     0
142
0.0008202099737533
142
0.0
142
0.0
142
0.0
142
0.0
142
0.0008202099737533
142
0.0
142
0.0
142
0.0
142
0.0
142
1.0
142
0.0
142
0.0
142
0.0
142
0.0
142
1.0
179
     0
144
0.0008202099737533
144
0.0
144
0.0
144
0.0
144
0.0
144
0.0008202099737533
144
0.0
144
0.0
144
0.0
144
0.0
144
1.0
144
0.0
144
0.0
144
0.0
144
0.0
144
1.0
147
0.0008202099737533
147
0.0
147
0.0
147
0.0
147
0.0
147
0.0008202099737533
147
0.0
147
0.0
147
0.0
147
0.0
147
1.0
147
0.0
147
0.0
147
0.0
147
0.0
147
1.0
  0
MATERIAL
  5
C
102
{ACAD_XDICTIONARY
360
E
102
}
102
{ACAD_REACTORS
330
D
102
}
330
D
100
AcDbMaterial
  1
Global
 72
     0
 43
0.0008202099737533
 43
0.0
 43
0.0
 43
0.0
 43
0.0
 43
0.0008202099737533
 43
0.0
 43
0.0
 43
0.0
 43
0.0
 43
1.0
 43
0.0
 43
0.0
 43
0.0
 43
0.0
 43
1.0
 77
     0
 47
0.0008202099737533
 47
0.0
 47
0.0
 47
0.0
 47
0.0
 47
0.0008202099737533
 47
0.0
 47
0.0
 47
0.0
 47
0.0
 47
1.0
 47
0.0
 47
0.0
 47
0.0
 47
0.0
 47
1.0
171
     0
 49
0.0008202099737533
 49
0.0
 49
0.0
 49
0.0
 49
0.0
 49
0.0008202099737533
 49
0.0
 49
0.0
 49
0.0
 49
0.0
 49
1.0
 49
0.0
 49
0.0
 49
0.0
 49
0.0
 49
1.0
175
     0
142
0.0008202099737533
142
0.0
142
0.0
142
0.0
142
0.0
142
0.0008202099737533
142
0.0
142
0.0
142
0.0
142
0.0
142
1.0
142
0.0
142
0.0
142
0.0
142
0.0
142
1.0
179
     0
144
0.0008202099737533
144
0.0
144
0.0
144
0.0
144
0.0
144
0.0008202099737533
144
0.0
144
0.0
144
0.0
144
0.0
144
1.0
144
0.0
144
0.0
144
0.0
144
0.0
144
1.0
147
0.0008202099737533
147
0.0
147
0.0
147
0.0
147
0.0
147
0.0008202099737533
147
0.0
147
0.0
147
0.0
147
0.0
147
1.0
147
0.0
147
0.0
147
0.0
147
0.0
147
1.0
  0
MLINESTYLE
  5
55
102
{ACAD_REACTORS
330
3B
102
}
330
3B
100
AcDbMlineStyle
  2
STANDARD
 70
     0
  3

 62
     0
 51
90.0
 52
90.0
 71
     2
 49
0.5
 62
   256
  6
BYLAYER
 49
-0.5
 62
   256
  6
BYLAYER
  0
ACDBPLACEHOLDER
  5
9
102
{ACAD_REACTORS
330
A
102
}
330
A
  0
SCALE
  5
5A
102
{ACAD_REACTORS
330
4E
102
}
330
4E
100
AcDbScale
 70
     0
300
1:1
140
1.0
141
1.0
290
     1
  0
SCALE
  5
5B
102
{ACAD_REACTORS
330
4E
102
}
330
4E
100
AcDbScale
 70
     0
300
1:2
140
1.0
141
2.0
290
     0
  0
SCALE
  5
5C
102
{ACAD_REACTORS
330
4E
102
}
330
4E
100
AcDbScale
 70
     0
300
1:4
140
1.0
141
4.0
290
     0
  0
SCALE
  5
5D
102
{ACAD_REACTORS
330
4E
102
}
330
4E
100
AcDbScale
 70
     0
300
1:5
140
1.0
141
5.0
290
     0
  0
SCALE
  5
5E
102
{ACAD_REACTORS
330
4E
102
}
330
4E
100
AcDbScale
 70
     0
300
1:8
140
1.0
141
8.0
290
     0
  0
SCALE
  5
5F
102
{ACAD_REACTORS
330
4E
102
}
330
4E
100
AcDbScale
 70
     0
300
1:10
140
1.0
141
10.0
290
     0
  0
SCALE
  5
60
102
{ACAD_REACTORS
330
4E
102
}
330
4E
100
AcDbScale
 70
     0
300
1:16
140
1.0
141
16.0
290
     0
  0
SCALE
  5
61
102
{ACAD_REACTORS
330
4E
102
}
330
4E
100
AcDbScale
 70
     0
300
1:20
140
1.0
141
20.0
290
     0
  0
SCALE
  5
62
102
{ACAD_REACTORS
330
4E
102
}
330
4E
100
AcDbScale
 70
     0
300
1:30
140
1.0
141
30.0
290
     0
  0
SCALE
  5
63
102
{ACAD_REACTORS
330
4E
102
}
330
4E
100
AcDbScale
 70
     0
300
1:40
140
1.0
141
40.0
290
     0
  0
SCALE
  5
64
102
{ACAD_REACTORS
330
4E
102
}
330
4E
100
AcDbScale
 70
     0
300
1:50
140
1.0
141
50.0
290
     0
  0
SCALE
  5
65
102
{ACAD_REACTORS
330
4E
102
}
330
4E
100
AcDbScale
 70
     0
300
1:100
140
1.0
141
100.0
290
     0
  0
SCALE
  5
66
102
{ACAD_REACTORS
330
4E
102
}
330
4E
100
AcDbScale
 70
     0
300
2:1
140
2.0
141
1.0
290
     0
  0
SCALE
  5
67
102
{ACAD_REACTORS
330
4E
102
}
330
4E
100
AcDbScale
 70
     0
300
4:1
140
4.0
141
1.0
290
     0
  0
SCALE
  5
68
102
{ACAD_REACTORS
330
4E
102
}
330
4E
100
AcDbScale
 70
     0
300
8:1
140
8.0
141
1.0
290
     0
  0
SCALE
  5
69
102
{ACAD_REACTORS
330
4E
102
}
330
4E
100
AcDbScale
 70
     0
300
10:1
140
10.0
141
1.0
290
     0
  0
SCALE
  5
6A
102
{ACAD_REACTORS
330
4E
102
}
330
4E
100
AcDbScale
 70
     0
300
100:1
140
100.0
141
1.0
290
     0
  0
ACDBSECTIONVIEWSTYLE
  5
2ED
102
{ACAD_XDICTIONARY
360
336
102
}
102
{ACAD_REACTORS
330
2E2
330
2EC
102
}
330
2E2
100
AcDbModelDocViewStyle
 70
     0
  3
Metric50
290
     0
100
AcDbSectionViewStyle
 70
     0
 71
     0
 90
      102
 71
     1
340
26
 40
5.0
340
0
340
0
 40
5.0
300
I, O, Q, S, X, Z
 40
10.0
 90
        0
 40
2.5
 90
        0
 71
     2
340
15
 90
       25
340
15
 90
       50
 40
5.0
 40
2.5
 40
5.0
 71
     3
340
26
 40
5.0
 90
        0
 40
15.0
 90
        1
300
%<\AcVar ViewSectionStartId>%-%<\AcVar ViewSectionEndId>% (%<\AcVar ViewScale \f "%sn">%)
 71
     4
300
ANSI31
 40
1.0
 90
        0
290
     0
290
     0
 90
        6
 40
0.0
 40
1.570796326794896
 40
0.2617993877991494
 40
1.308996938995747
 40
-0.2617993877991494
 40
1.832595714594046
  0
TABLESTYLE
  5
56
102
{ACAD_XDICTIONARY
360
57
102
}
102
{ACAD_REACTORS
330
4F
102
}
330
4F
100
AcDbTableStyle
  3
Standard
 70
     0
 71
     0
 40
1.5
 41
1.5
280
     0
281
     0
  7
STANDARD
140
4.5
170
     2
 62
     0
 63
     7
283
     0
274
    -2
284
     1
 64
     0
275
    -2
285
     1
 65
     0
276
    -2
286
     1
 66
     0
277
    -2
287
     1
 67
     0
278
    -2
288
     1
 68
     0
279
    -2
289
     1
 69
     0
  7
STANDARD
140
6.0
170
     5
 62
     0
 63
     7
283
     0
274
    -2
284
     1
 64
     0
275
    -2
285
     1
 65
     0
276
    -2
286
     1
 66
     0
277
    -2
287
     1
 67
     0
278
    -2
288
     1
 68
     0
279
    -2
289
     1
 69
     0
  7
STANDARD
140
4.5
170
     5
 62
     0
 63
     7
283
     0
274
    -2
284
     1
 64
     0
275
    -2
285
     1
 65
     0
276
    -2
286
     1
 66
     0
277
    -2
287
     1
 67
     0
278
    -2
288
     1
 68
     0
279
    -2
289
     1
 69
     0
  0
VISUALSTYLE
  5
2F
102
{ACAD_XDICTIONARY
360
329
102
}
102
{ACAD_REACTORS
330
30
102
}
330
30
100
AcDbVisualStyle
  2
2dWireframe
 70
     4
 71
     0
 72
     2
 73
     0
 90
        0
 40
-0.6
 41
-30.0
 62
     5
 63
     7
 74
     1
 91
        4
 64
     7
 65
   257
 75
     1
175
     1
 42
1.0
 92
        0
 66
   257
 43
1.0
 76
     1
 77
     6
 78
     2
 67
     7
 79
     5
170
     0
171
     0
290
     0
174
     0
 93
        1
 44
0.0
173
     0
291
     0
 45
0.0
1001
ACAD
1000
AcDbSavedByObjectVersion
1070
     0
  0
VISUALSTYLE
  5
58
102
{ACAD_XDICTIONARY
360
32E
102
}
102
{ACAD_REACTORS
330
30
102
}
330
30
100
AcDbVisualStyle
  2
Realistic
 70
     8
 71
     2
 72
     2
 73
     0
 90
        0
 40
-0.6
 41
-30.0
 62
     5
 63
     7
 74
     1
 91
        0
 64
     7
 65
   257
 75
     1
175
     1
 42
1.0
 92
        8
 66
     8
 43
1.0
 76
     1
 77
     6
 78
     2
 67
     7
 79
     5
170
     0
171
     0
290
     0
174
     0
 93
       13
 44
0.0
173
     0
291
     0
 45
0.0
1001
ACAD
1000
AcDbSavedByObjectVersion
1070
     0
  0
VISUALSTYLE
  5
59
102
{ACAD_XDICTIONARY
360
330
102
}
102
{ACAD_REACTORS
330
30
102
}
330
30
100
AcDbVisualStyle
  2
Wireframe
 70
     5
 71
     0
 72
     2
 73
     0
 90
        0
 40
-0.6
 41
-30.0
 62
     5
 63
     7
 74
     1
 91
        4
 64
     7
 65
   257
 75
     1
175
     1
 42
1.0
 92
        0
 66
   257
 43
1.0
 76
     1
 77
     6
 78
     2
 67
     7
 79
     3
170
     0
171
     0
290
     0
174
     0
 93
        1
 44
0.0
173
     0
291
     0
 45
0.0
1001
ACAD
1000
AcDbSavedByObjectVersion
1070
     0
  0
DICTIONARYVAR
  5
313
102
{ACAD_REACTORS
330
30E
102
}
330
30E
100
DictionaryVariables
280
     0
  1
1:1
  0
DICTIONARYVAR
  5
310
102
{ACAD_REACTORS
330
30E
102
}
330
30E
100
DictionaryVariables
280
     0
  1
STANDARD
  0
DICTIONARYVAR
  5
30F
102
{ACAD_REACTORS
330
30E
102
}
330
30E
100
DictionaryVariables
280
     0
  1
STANDARD
  0
DICTIONARYVAR
  5
311
102
{ACAD_REACTORS
330
30E
102
}
330
30E
100
DictionaryVariables
280
     0
  1

  0
DICTIONARYVAR
  5
312
102
{ACAD_REACTORS
330
30E
102
}
330
30E
100
DictionaryVariables
280
     0
  1

  0
DICTIONARYVAR
  5
318
102
{ACAD_REACTORS
330
30E
102
}
330
30E
100
DictionaryVariables
280
     0
  1
1
  0
DICTIONARYVAR
  5
316
102
{ACAD_REACTORS
330
30E
102
}
330
30E
100
DictionaryVariables
280
     0
  1
1
  0
DICTIONARYVAR
  5
315
102
{ACAD_REACTORS
330
30E
102
}
330
30E
100
DictionaryVariables
280
     0
  1
0
  0
DICTIONARYVAR
  5
319
102
{ACAD_REACTORS
330
30E
102
}
330
30E
100
DictionaryVariables
280
     0
  1
1
  0
DICTIONARYVAR
  5
314
102
{ACAD_REACTORS
330
30E
102
}
330
30E
100
DictionaryVariables
280
     0
  1
127
  0
DICTIONARYVAR
  5
317
102
{ACAD_REACTORS
330
30E
102
}
330
30E
100
DictionaryVariables
280
     0
  1
0
  0
DICTIONARY
  5
324
102
{ACAD_REACTORS
330
322
102
}
330
322
100
AcDbDictionary
281
     1
  0
DICTIONARY
  5
323
102
{ACAD_REACTORS
330
322
102
}
330
322
100
AcDbDictionary
281
     1
  3
8796088110288
350
31D
  3
8796088110304
350
31E
  3
8796088110320
350
31F
  3
8796088110336
350
320
  3
8796088110352
350
321
  0
DICTIONARY
  5
2C9
102
{ACAD_REACTORS
330
2C8
102
}
330
2C8
100
AcDbDictionary
281
     1
  0
DICTIONARY
  5
2C3
102
{ACAD_REACTORS
330
2B9
102
}
330
2B9
100
AcDbDictionary
281
     1
  3
DWGSETTINGS
350
2C2
  3
TRANSSETTINGS
350
2C4
  0
DICTIONARY
  5
334
330
2DF
100
AcDbDictionary
280
     1
281
     1
  3
ACAD_XREC_ROUNDTRIP
360
335
  0
DICTIONARY
  5
327
330
1E
100
AcDbDictionary
280
     1
281
     1
  3
ACAD_XREC_ROUNDTRIP
360
328
  0
DICTIONARY
  5
19
330
17
100
AcDbDictionary
280
     1
281
     1
  3
ACAD_XREC_ROUNDTRIP
360
326
  3
ADSK_XREC_LAYOUTTHUMBNAIL
360
1A
  0
DICTIONARY
  5
46
330
45
100
AcDbDictionary
280
     1
281
     1
  3
ACAD_XREC_ROUNDTRIP
360
32C
  3
BUMPTILE
360
47
  3
DIFFUSETILE
360
48
  3
OPACITYTILE
360
49
  3
REFLECTIONTILE
360
4A
  3
REFRACTIONTILE
360
4B
  3
SPECULARTILE
360
4C
  0
DICTIONARY
  5
3E
330
3D
100
AcDbDictionary
280
     1
281
     1
  3
ACAD_XREC_ROUNDTRIP
360
32B
  3
BUMPTILE
360
3F
  3
DIFFUSETILE
360
40
  3
OPACITYTILE
360
41
  3
REFLECTIONTILE
360
42
  3
REFRACTIONTILE
360
43
  3
SPECULARTILE
360
44
  0
DICTIONARY
  5
E
330
C
100
AcDbDictionary
280
     1
281
     1
  3
ACAD_XREC_ROUNDTRIP
360
325
  3
BUMPTILE
360
F
  3
DIFFUSETILE
360
10
  3
OPACITYTILE
360
11
  3
REFLECTIONTILE
360
12
  3
REFRACTIONTILE
360
13
  3
SPECULARTILE
360
14
  0
DICTIONARY
  5
336
330
2ED
100
AcDbDictionary
280
     1
281
     1
  3
ACAD_XREC_ROUNDTRIP
360
337
  0
DICTIONARY
  5
57
330
56
100
AcDbDictionary
280
     1
281
     1
  3
ACAD_ROUNDTRIP_2008_TABLESTYLE_CELLSTYLEMAP
360
31A
  3
ACAD_XREC_ROUNDTRIP
360
32D
  0
DICTIONARY
  5
329
330
2F
100
AcDbDictionary
280
     1
281
     1
  3
ACAD_XREC_ROUNDTRIP
360
32A
  0
DICTIONARY
  5
32E
330
58
100
AcDbDictionary
280
     1
281
     1
  3
ACAD_XREC_ROUNDTRIP
360
32F
  0
DICTIONARY
  5
330
330
59
100
AcDbDictionary
280
     1
281
     1
  3
ACAD_XREC_ROUNDTRIP
360
331
  0
XRECORD
  5
31D
102
{ACAD_REACTORS
330
323
102
}
330
323
100
AcDbXrecord
280
     1
  1
AcDb_Thumbnail_Schema
102
{ATTRRECORD
341
31E
  2
AcDbDs::TreatedAsObjectData
280
     1
291
     1
102
ATTRRECORD}
102
{ATTRRECORD
341
31F
  2
AcDbDs::Legacy
280
     1
291
     1
102
ATTRRECORD}
  2
AcDbDs::ID
280
    10
 91
        8
102
{ATTRRECORD
341
320
  2
AcDs:Indexable
280
     1
291
     1
102
ATTRRECORD}
102
{ATTRRECORD
341
321
  2
AcDbDs::HandleAttribute
280
     7
282
     1
102
ATTRRECORD}
  2
Thumbnail_Data
280
    15
 91
        0
  0
XRECORD
  5
31E
102
{ACAD_REACTORS
330
323
102
}
330
323
100
AcDbXrecord
280
     1
  1
AcDbDs::TreatedAsObjectDataSchema
  2
AcDbDs::TreatedAsObjectData
280
     1
 91
        0
  0
XRECORD
  5
31F
102
{ACAD_REACTORS
330
323
102
}
330
323
100
AcDbXrecord
280
     1
  1
AcDbDs::LegacySchema
  2
AcDbDs::Legacy
280
     1
 91
        0
  0
XRECORD
  5
320
102
{ACAD_REACTORS
330
323
102
}
330
323
100
AcDbXrecord
280
     1
  1
AcDbDs::IndexedPropertySchema
  2
AcDs:Indexable
280
     1
 91
        0
  0
XRECORD
  5
321
102
{ACAD_REACTORS
330
323
102
}
330
323
100
AcDbXrecord
280
     1
  1
AcDbDs::HandleAttributeSchema
  2
AcDbDs::HandleAttribute
280
     7
 91
        1
284
     1
  0
XRECORD
  5
335
102
{ACAD_REACTORS
330
334
102
}
330
334
100
AcDbXrecord
280
     1
102
DISPLAYNAME
  1
Metric50
102
FLAGS
 90
        0
  0
XRECORD
  5
328
102
{ACAD_REACTORS
330
327
102
}
330
327
100
AcDbXrecord
280
     1
102
SHADEPLOT
 70
     0
102
SHADEPLOTRESLEVEL
 70
     2
102
SHADEPLOTCUSTOMDPI
 70
   300
  0
XRECORD
  5
326
102
{ACAD_REACTORS
330
19
102
}
330
19
100
AcDbXrecord
280
     1
102
SHADEPLOT
 70
     0
102
SHADEPLOTRESLEVEL
 70
     2
102
SHADEPLOTCUSTOMDPI
 70
   300
  0
XRECORD
  5
1A
102
{ACAD_REACTORS
330
19
102
}
330
19
100
AcDbXrecord
280
     1
310
2800000000010000A9000000010008000000000000A90000000000000000000000010000000000000000000000000000FFFFFF000000000000000000000000000000000000000000000000000000000000000000330000006600000099000000CC000000FF00000000330000333300006633000099330000CC330000FF3300
310
0000660000336600006666000099660000CC660000FF66000000990000339900006699000099990000CC990000FF99000000CC000033CC000066CC000099CC0000CCCC0000FFCC000000FF000033FF000066FF000099FF0000CCFF0000FFFF000000003300330033006600330099003300CC003300FF003300003333003333
310
33006633330099333300CC333300FF33330000663300336633006666330099663300CC663300FF66330000993300339933006699330099993300CC993300FF99330000CC330033CC330066CC330099CC3300CCCC3300FFCC330000FF330033FF330066FF330099FF3300CCFF3300FFFF330000006600330066006600660099
310
006600CC006600FF00660000336600333366006633660099336600CC336600FF33660000666600336666006666660099666600CC666600FF66660000996600339966006699660099996600CC996600FF99660000CC660033CC660066CC660099CC6600CCCC6600FFCC660000FF660033FF660066FF660099FF6600CCFF6600
310
FFFF660000009900330099006600990099009900CC009900FF00990000339900333399006633990099339900CC339900FF33990000669900336699006666990099669900CC669900FF66990000999900339999006699990099999900CC999900FF99990000CC990033CC990066CC990099CC9900CCCC9900FFCC990000FF99
310
0033FF990066FF990099FF9900CCFF9900FFFF99000000CC003300CC006600CC009900CC00CC00CC00FF00CC000033CC003333CC006633CC009933CC00CC33CC00FF33CC000066CC003366CC006666CC009966CC00CC66CC00FF66CC000099CC003399CC006699CC009999CC00CC99CC00FF99CC0000CCCC0033CCCC0066CC
310
CC0099CCCC00CCCCCC00FFCCCC0000FFCC0033FFCC0066FFCC0099FFCC00CCFFCC00FFFFCC000000FF003300FF006600FF009900FF00CC00FF00FF00FF000033FF003333FF006633FF009933FF00CC33FF00FF33FF000066FF003366FF006666FF009966FF00CC66FF00FF66FF000099FF003399FF006699FF009999FF00CC
310
99FF00FF99FF0000CCFF0033CCFF0066CCFF0099CCFF00CCCCFF00FFCCFF0000FFFF0033FFFF0066FFFF0099FFFF00CCFFFF00FFFFFF00000000000D0D0D001A1A1A00282828003535350043434300505050005D5D5D006B6B6B00787878008686860093939300A1A1A100AEAEAE00BBBBBB00C9C9C900D6D6D600E4E4E400
310
F1F1F100FFFFFF000000000000000000000000000000000000000000000000000000000000000000000000000000000000000000000000000000000000000000000000000000000000000000000000000000000000000000000000000000000000000000000000000000000000000000000000000000000000000000000000
310
0000000000000000000000000000000000000000000000000000000000000000000000000000000000000000000000000000000000000000000000000000000000000000000000000000000000002D000000000000000000000000000000002D00000000000000000000000000000000000000000000000000000000000000
310
000000000000000000000000000000000000000000000000000000000000000000000000000000000000000000000000000000000000000000000000000000000000000000000000000000000000000000000000000000000000000000000000000000000000000000000000000000000000000000000000000000C3C3C3C3
310
C3C3C3C3C3C3C3C3C3C3C3C3C3C3C3C3C3C3C3C3C3C3C3C3C3C3C3C3C3C3C3C3C3C3C3C3C3C3C3C3C3C3C3C3C3C3C3C3C3C3C3C3C3C3C3C3C3C3C3C3C3C3C3C3C3C3C3C3C3C3C3C3C3C3C3C3C3C3C3C32D2DC3C3C3C3C3C3C3C3C3C3C3C3C3C3C32D2DC3C3C3C3C3C3C3C3C3C3C3C3C3C3C3C3C3C3C3C3C3C3000000000000
310
0000000000000000000000000000000000000000000000000000000000000000000000000000000000000000000000000000000000000000000000000000000000000000000000000000000000000000000000000000000000000000000000000000000000000000000000000000000000000000000000000000000000ECBE
310
BEBEBEBEBEEC002828282828282828282828282828282828000000002D2D2D2D2D0000002D2D2D2D2D2D2D2D002D2D2D2D2D2D2D2D2D2D002D002D2D2D2D2D2D2D2D2D2D2D2D2D2D2D2D2D2D2D2D2D2D2D2D2D2D2D2D2D2D2D2D2D2D2D2D2D2D2D2D2D2D2D002D2D002D002D2D2D002D002D2D2D2D2D2D2D2D2D2D00000000
310
00000000000000000000000000000000000000000000000000000000000000000000000000000000000000000000000000000000000000000000000000000000000000000000000000000000000000000000000000000000000000000000000000000000000000000000000000000000000000000000000000000000000000
310
ECECBEBEBEBEBEEC000028282828282828282828282828282828000000002D2D2D2D2D2D2D002D002D2D2D2D2D2D002D2D2D2D2D002D2D2D2D2D2D2D2D2D002D002D2D2D2D2D2D2D002D2D2D2D2D2D2D2D2D2D2D2D2D2D2D2D2D2D2D2D2D2D2D2D2D2D2D2D2D2D002D2D2D2D002D2D2D2D2D2D2D2D2D2D002D2D2D2D2D0000
310
00000000000000000000000000000000000000000000000000000000000000000000000000000000000000000000000000000000000000000000000000000000000000000000000000000000000000000000000000000000000000000000000000000000000000000000000000000000000000000000000000000000000000
310
0000ECECBEBEBEBEBEEC0000000000000000002D2D00000000000000000000002D2D2D2D2D00002D2D2D2D2D2D2D2D2D002D2D2D2D2D002D2D2D2D2D2D2D2D2D2D2D2D2D2D2D2D2D2D2D002D2D2D2D2D2D2D2D2D2D2D2D2D2D2D2D2D2D2D2D2D2D2D2D2D2D2D2D2D2D2D2D2D2D2D2D2D2D2D2D2D2D2D2D2D2D2D2D2D2D2D2D
310
00000000000000000000000000000000000000000000000000000000000000000000000000000000000000000000000000000000000000000000000000000000000000000000000000000000000000000000000000000000000000000000000000000000000000000000000000000000000000000000000000000000000000
310
00000000ECECECBEBEBEBEBE002D2D2D2D2D2D2D2D2D2D2D2D2D2D2D2D2D2D2D2D2D2D2D2D2D002D002D2D2D2D2D2D2D2D2D002D2D2D2D2D2D2D2D2D2D002D2D2D002D2D2D2D2D2D2D2D2D2D002D2D002D002D2D002D2D002D2D2D2D2D2D2D2D2D2D2D2D2D2D2D2D2D2D2D002D2D2D2D2D2D2D2D002D2D2D002D2D2D2D2D2D
310
2D2D0000000000000000000000000000000000000000000000000000000000000000000000000000000000000000000000000000000000000000000000000000000000000000000000000000000000000000000000000000000000000000000000000000000000000000000000000000000000000000000000000000000000
310
000000000000ECECECBEBEBEBEBE002D2D2D2D2D2D2D2D2D2D2D2D2D2D2D2D00002D2D2D2D2D2D2D002D00002D002D2D2D2D2D2D002D2D2D2D2D002D2D2D2D002D002D002D2D002D2D2D2D2D2D2D002D2D2D00002D00002D00000000002D2D2D2D2D2D2D2D002D2D2D2D2D2D2D002D2D2D2D002D2D2D002D002D002D2D2D2D
310
2D2D2D2D000000000000000000000000000000000000000000000000000000000000000000000000000000000000000000000000000000000000000000000000000000000000000000000000000000000000000000000000000000000000000000000000000000000000000000000000000000000000000000000000000000
310
0000000000000000ECECECECECECECEC002D2D2D2D2D2D2D2D0000002D2D2D2D0000000000002D000000000000000000000000000000000000000000000000000000000000000000000000000000000000000000000000000000000000000000000000002D000000000000000000000000000000000000000000000000002D
310
0028282828C300000000000000000000000000000000000000000000000000000000000000000000000000000000000000000000000000000000000000000000000000000000000000000000000000000000000000000000000000000000000000000000000000000000000000000000000000000000000000000000000000
310
00000000000000000000ECECECECECECECEC002D2D2D2D2D2D2D2D2D2D002D2D2D2D0000000000002D000000000000000000000000000000000000000000000000000000000000000000000000000000000000000000000000000000000000000000000000002D000000000000000000000000000000000000000000000000
310
002D0028282828C30000000000000000000000000000000000000000000000000000000000000000000000000000000000000000000000000000000000000000000000000000000000000000000000000000000000000000000000000000000000000000000000000000000000000000000000000000000000000000000000
310
000000000000000000000000C3ECECECECECECEC2D2D2D2D2D2D2D2D2D2D2D2D2D2D2D2D2D2D2D2D2D2D2D2D2D2D2D2D2D2D2D2D2D2D2D2D2D2D2D2D2D2D2D2D2D2D2D2D2D2D2D2D2D2D2D2D2D2D2D2D2D2D2D2D2D2D2D2D2D2D2D2D2D2D2D2D2D2D2D282D2D2D2D2D2D2D2D2D2D2D2D2D2D2D2D2D2D2D2D2D2D2D2D2D2D2D
310
2D2D2D2D2D2D282D2DC3000000000000000000000000000000000000000000000000000000000000000000000000000000000000000000000000000000000000000000000000000000000000000000000000000000000000000000000000000000000000000000000000000000000000000000000000000000000000000000
310
0000000000000000000000000000C300280000000000000000000000000000000000000000000000002D00002D00000000000000000000000000000000000000000000000000000000000000000000000000000000000000002D28282828282828002828002800000000000000000000000000000000000000000000000000
310
002D000000000000BE0000C300000000000000000000000000000000000000000000000000000000000000000000000000000000000000000000000000000000000000000000000000000000000000000000000000000000000000000000000000000000000000000000000000000000000000000000000000000000000000
310
000000000000000000000000000000002828282828282828282828282828282828282828282828282800002D00002D00000000000000000000000000000000000000000000000000000000000000000000000000000000000000002D2828282828282828282828280000000000000000000000000000000000000000000000
310
0000002D00002D2D002DBE2D00C30000000000000000000000000000000000000000000000000000000000000000000000000000000000000000000000000000000000000000000000000000000000000000000000000000000000000000000000000000000000000000000000000000000000000000000000000000000000
310
0000000000000000000000000000000000002828000028282828282828280000000000280000000028280000002D00002D00000000000000000000000000000000000000000000000000000000000000000000000000000000000000002D282800002800000028280028000000000000000000000000000000000000000000
310
00000000002D2D2D002D2D2D2D2D2DC3000000000000000000000000000000000000000000000000000000000000000000000000000000000000000000000000000000000000000000000000000000000000000000000000000000000000000000000000000000000000000000000000000000000000000000000000000000
310
00000000000000000000000000000000000000002828282828282828282828282828282828282828282828282828282D2D2D2D00000000000000000000000000000000000000000000000000000000000000000000000000000000000000002D28282828282828282828282828282828282828282828282828282828282828
310
282828282828282D2DBE002D2D2DBE2D2DBE00000000000000000000000000000000000000000000000000000000000000000000000000000000000000000000000000000000000000000000000000000000000000000000000000000000000000000000000000000000000000000000000000000000000000000000000000
310
000000000000000000000000000000000000000000002828282828282828282828282828282828282828280028282800002D00002D00000000000000000000000000000000000000000000000000000000000000000000000000000000000000002D2828282828282828280000280000000000000000000000000000000000
310
0000000000000000002D2D2D2D2D2D2DBE2D00C30000000000000000000000000000000000000000000000000000000000000000000000000000000000000000000000000000000000000000000000000000000000000000000000000000000000000000000000000000000000000000000000000000000000000000000000
310
0000000000000000000000000000000000000000000000002828282828282828282828282828282828282828282828282800002D00002D00000000000000000000000000000000000000000000000000000000000000000000000000000000000000002D282828282828282828000028000000000000000000000000000000
310
00000000000000000000002D000000000000BE0000C3000000000000000000000000000000000000000000000000000000000000000000000000000000000000000000000000000000000000000000000000000000000000000000000000000000000000000000000000000000000000000000000000000000000000000000
310
00000000000000000000000000000000000000000000000000002828282828282828282828282828282828282828282828282828282D2D2D2D00000000000000002800000000000000000000000000000000000000000000000000000000000000000000002D28282828282828282828282828282828282828282828282828
310
282828282828282828282828282D2D2D2D2D2D2DBE2D2D2D00000000000000000000000000000000000000000000000000000000000000000000000000000000000000000000000000000000000000000000000000000000000000000000000000000000000000000000000000000000000000000000000000000000000000
310
00000000000000000000000000000000000000000000000000000000C328282828002828282828282828282828282800000000000000002D00002D28282828282828282800282828280000000000000000000000000000000000000000000000000000000000002D2828282828282828282828280000000000000000000000
310
00000000000000000000000000000000000000000000000000C30000000000000000000000000000000000000000000000000000000000000000000000000000000000000000000000000000000000000000000000000000000000000000000000000000000000000000000000000000000000000000000000000000000000
310
0000000000000000000000000000000000000000000000000000000000002828282828002828282828282828282828282800000000000000002D00002D28282828282828282800282828280000000000000000000000000000000000000000000000000000000000002D282828282828282828282828000000000000000000
310
000000000000000000000000000000000000000000000000000000C3000000000000000000000000000000000000000000000000000000000000000000000000000000000000000000000000000000000000000000000000000000000000000000000000000000000000000000000000000000000000000000000000000000
310
00000000000000000000000000000000000000000000000000000000000000002828000000000000000028282800282800280000000000000000002D00002D28280028002800000000002828280000000000000000000000000000000000000000000000000000000000002D28280000002828282800002800000000000000
310
0000000000000000000000000000000000000000000000000000000000C300000000000000000000000000000000000000000000000000000000000000000000000000000000000000000000000000000000000000000000000000000000000000000000000000000000000000000000000000000000000000000000000000
310
000000000000000000000000000000000000000000000000000000000000000000002D2D2D2D2D2D2D2D2D2D2D2D2D2D2D2D2D2D2D2D2D2D2D2D2D2D2D2D2D2D2D2D2D2D2D2D2D2D2D2D2D2D2D2D2D2D2D2D2D2D2D2D2D2D2D2D2D2D2D2D2D2D2D2D2D2D2D2D2D2D2D2D2D2D2D2D2828282828282828282828282828282828
310
28282828282828282828282828282828282828282828282828282828282828280000000000000000000000000000000000000000000000000000000000000000000000000000000000000000000000000000000000000000000000000000000000000000000000000000000000000000000000000000000000000000000000
310
000000000000000000000000000000000000000000000000000000000000000000000000C300000000000000000000000000000000000000000000000000000000000000000000000000000000000000000000000000000000000000000000000000000000000000000000000000002D282828282828280000000028000000
310
000000000000000000000000000000000000000000000000000000000000000000C3000000000000000000000000000000000000000000000000000000000000000000000000000000000000000000000000000000000000000000000000000000000000000000000000000000000000000000000000000000000000000000
310
0000000000000000000000000000000000000000000000000000000000000000000000000000C300000000000000000000000000000000000000000000000000000000000000000000000000000000000000000000000000000000000000000000000000000000000000000000000000002D28282828282828000000002800
310
0000000000000000000000000000000000000000000000000000000000000000000000C300000000000000000000000000000000000000000000000000000000000000000000000000000000000000000000000000000000000000000000000000000000000000000000000000000000000000000000000000000000000000
310
00000000000000000000000000000000000000000000000000000000000000000000000000000000C300000000000000000000000000000000000000000000000000000000000000000000000000000000000000000000000000000000000000000000000000000000000000000000000000002D2828282828282828282828
310
2828282828282828282828282828282828282828282828282828282D282828282828282828280000000000000000000000000000000000000000000000000000000000000000000000000000000000000000000000000000000000000000000000000000000000000000000000000000000000000000000000000000000000
310
000000000000000000000000000000000000000000000000000000000000000000000000000000000000C300000000000000000000000000000000000000000000000000000000000000000000000000000000000000000000000000000000000000000000000000000000000000000000000000002D282828282828282828
310
28282800000000000000000000000000000000000000000000000000002D000000000000000000C3000000000000000000000000000000000000000000000000000000000000000000000000000000000000000000000000000000000000000000000000000000000000000000000000000000000000000000000000000000
310
0000000000000000000000000000000000000000000000000000000000000000000000000000000000000000C300000000000000000000000000000000000000000000000000000000000000000000000000000000000000000000000000000000000000000000000000000000000000000000000000002D28282828282828
310
282828282800000000000000000000000000000000000000000000000000002D000000000000000000C300000000000000000000000000000000000000000000000000000000000000000000000000000000000000000000000000000000000000000000000000000000000000000000000000000000000000000000000000
310
00000000000000000000000000000000000000000000000000000000000000000000000000000000000000000000C300000000000000000000000000000000000000000000000000000000000000000000000000000000000000000000000000000000000000000000000000000000000000000000000000002D2828002800
310
0000002800002800000000000000000000000000000000000000000000000000002D000028282800000000C30000000000000000000000000000000000000000000000000000000000000000000000000000000000000000000000000000000000000000000000000000000000000000000000000000000000000000000000
310
000000000000000000000000000000000000000000000000000000000000000000000000000000000000000000000000C300000000000000000000000000000000000000000000000000000000000000000000000000000000000000000000000000000000000000000000000000000000000000000000000000002D282828
310
28282828282828282828282828282828282828282828282828282828282828282828282D000028282800000000C3000000000000000000000000000000000000000000000000000000000000000000000000000000000000000000000000000000000000000000000000000000000000000000000000000000000000000000
310
0000000000000000000000000000000000000000000000000000000000000000000000000000000000000000000000000000C300000000000000000000000000000000000000000000000000000000000000000000000000000000000000000000000000000000000000000000000000000000000000000000000000002D28
310
282828282828280000002800000000000000000000000000000000000000000000000000002D000000000000000000C300000000000000000000000000000000000000000000000000000000000000000000000000000000000000000000000000000000000000000000000000000000000000000000000000000000000000
310
00000000000000000000000000000000000000000000000000000000000000000000000000000000000000000000000000000000C30000000000000000000000000000000000000000000000000000000000000000000000000000000000000000000000000000000000000000000000000000000000000000000000000000
310
2D28282828282828280000002800000000000000000000000000000000000000000000000000002D000000000000000000C30000000000000000000000000000000000000000000000000000000000000000000000000000000000000000000000000000000000000000000000000000000000000000000000000000000000
310
000000000000000000000000000000000000000000000000000000000000000000000000000000000000000000000000000000000000C3000000000000000000000000000000000000000000000000000000000000000000000000000000000000000000000000000000000000000000000000000000000000000000000000
310
00002D28282828282828282828282828282828282828282828282828282828282828282828282828282D000000000000000000C3000000000000000000000000000000000000000000000000000000000000000000000000000000000000000000000000000000000000000000000000000000000000000000000000000000
310
0000000000000000000000000000000000000000000000000000000000000000000000000000000000000000000000000000000000000000C300000000000000000000000000000000000000000000000000000000000000000000000000000000000000000000000000000000000000000000000000000000000000000000
310
000000002D28282828282828282828282828282828282828282828002828282800000000000000000000002D282828282828282828C300000000000000000000000000000000000000000000000000000000000000000000000000000000000000000000000000000000000000000000000000000000000000000000000000
310
00000000000000000000000000000000000000000000000000000000000000000000000000000000000000000000000000000000000000000000C30000000000000000000000000000000000000000000000000000000000000000000000000000000000000000000000000000000000000000000000000000000000000000
310
0000000000002D28282828282828282828282828282828282828002828002828282800000000000000000000002D280000000000280028C30000000000000000000000000000000000000000000000000000000000000000000000000000000000000000000000000000000000000000000000000000000000000000000000
310
000000000000000000000000000000000000000000000000000000000000000000000000000000000000000000000000000000000000000000000000C3000000000000000000000000000000000000000000000000000000000000000000000000000000000000000000000000000000000000000000000000000000000000
310
00000000000000002D28280000002828000000282800000000000000000000000000000000000000000000000000002D000000000000000000C3000000000000000000000000000000000000000000000000000000000000000000000000000000000000000000000000000000000000000000000000000000000000000000
310
0000000000000000000000000000000000000000000000000000000000000000000000000000000000000000000000000000000000000000000000000000C32D2D2D2D2D2D2D2D2D2D2D28282D2D282828282D2D2D2D2D2D2D2D2D2D2D2D2D2D2D2D2D2D2D2D2D2D2D2D2D2D2D2D2D2D2D2D2D2D2D2D2D2D2D2D2D2D2D2D2D
310
2D2D2D2D2D2D2D28282D2D2D2D2D2D2D2D2D2D2D2D2D282D2D2D2D2D2D2D2D2D2D2D2D2D2D2D2D2D2D2D2D2D2D2D2D2D2D2D2D2D2D2D2D2D2D2D2DC300000000000000000000000000000000000000000000000000000000000000000000000000000000000000000000000000000000000000000000000000000000000000
310
00000000000000000000000000000000000000000000000000000000000000000000000000000000000000000000000000000000000000000000000000000000C328282828282D28282828282828282D282828282D0000000000000000282828282828282828282800000000000000002D0000000000000000000000000000
310
00000000000028282828282828282828282828282800000000000000000000000000000000000000002D00000000282828282828282828280000000000C30000000000000000000000000000000000000000000000000000000000000000000000000000000000000000000000000000000000000000000000000000000000
310
000000000000000000000000000000000000000000000000000000000000000000000000000000000000000000000000000000000000000000000000000000000000C328282828282D28282828282828282D282828002D0000000000000000282828282828282828282800000000000000002D000000000000000000000000
310
000000000000000028282828282828282828282828282800000000000000000000000000000000000000002D00000000282828282828282828280000000000C3000000000000000000000000000000000000000000000000000000000000000000000000000000000000000000000000000000000000000000000000000000
310
0000000000000000000000000000000000000000000000000000000000000000000000000000000000000000000000000000000000000000000000000000000000000000C300000000002D00000000000000002D28282828280000000000000000000000000000000000000000000000000000002D00000000000000000000
310
0000000000000000000028280000000000000028000000002800000000000000000000000000000000000000002D00000000282800002800002800280000000000C300000000000000000000000000000000000000000000000000000000000000000000000000000000000000000000000000000000000000000000000000
310
00000000000000000000000000000000000000000000000000000000000000000000000000000000000000000000000000000000000000000000000000000000000000000000C32D2D2D2D2D2D2D2D2D2D2D2D2D2D2D2D2D2D2D2D2D2D2D2D2D2D2D2D2D2D2D2D2D2D2D2D2D2D2D2D2D2D2D2D2D2D2D2D2D2D2D2D2D2D2D2D
310
2D2D2D2D2D2D2D2D2D2D2D2D2D2D2D2D2D2D2D2D2D2D2D2D2D2D2D2D2D2D2D2D2D2D2D2D2D2D2D2D2D2D2D2D2D2D2D2D2D2D2D2D2D2D2D2D2D2D2D2D2D2D2D2D2D2D2DC30000000000000000000000000000000000000000000000000000000000000000000000000000000000000000000000000000000000000000000000
310
000000000000000000000000000000000000000000000000000000000000000000000000000000000000000000000000000000000000000000000000000000000000000000000000C300000000002D00000000000000002D000000002D0000000000000000000000000000000000000000000000000000002D282828000028
310
282828282828282828282828002828282828280028282828280028282828282828282828282828282828282828282828002D00000000000000000000000000000000000000C3000000000000000000000000000000000000000000000000000000000000000000000000000000000000000000000000000000000000000000
310
0000000000000000000000000000000000000000000000000000000000000000000000000000000000000000000000000000000000000000000000000000000000000000000000000000C300000000002D00000000000000002D000000002D0000000000000000000000000000000000000000000000000000002D28282828
310
2828002828282828282828282828282828002828000028282828000028282828282828282828282828282828282828282828002D00000000000000000000000000000000000000C300000000000000000000000000000000000000000000000000000000000000000000000000000000000000000000000000000000000000
310
00000000000000000000000000000000000000000000000000000000000000000000000000000000000000000000000000000000000000000000000000000000000000000000000000000000C300000000002D00000000000000002D000000002D0000000000000000000000000000000000000000000000000000002D2828
310
28280028282828282800282828282828002828002828000028282828000028280028002800000000000028002800000000000000002D00000000000000000000000000000000000000C30000000000000000000000000000000000000000000000000000000000000000000000000000000000000000000000000000000000
310
000000000000000000000000000000000000000000000000000000000000000000000000000000000000000000000000000000000000000000000000000000000000000000000000000000000000C3C3C3C3C3C32DC3C3C3C3C3C3C3C32DC3C3C3C32DC3C3C3C3C3C3C3C3C3C3C3C3C3C3C3C3C3C3C3C3C3C3C3C3C3C3C32D
310
C3C3C3C3C3C3C3C3C3C3C3C3C3C3C3C3C3C3C3C3C3C3C3C3C3C3C3C3C3C3C3C3C3C3C3C3C3C3C3C3C3C3C3C3C3C3C3C3C3C3C3C3C3C3C32DC3C3C3C3C3C3C3C3C3C3C3C3C3C3C3C3C3C3C3C3000000000000000000000000000000000000000000000000000000000000000000000000000000000000000000000000000000
310
00000000000000000000000000000000000000000000000000000000000000000000000000000000000000000000000000000000000000000000000000000000000000000000000000000000000000000000000000000000000000000000000000000000000000000000000000000000000000000000000000000000000000
310
00000000000000000000000000000000000000000000000000000000000000000000000000000000000000000000000000000000000000000000000000000000000000000000000000000000000000000000000000000000000000000000000000000000000000000000000000000000000000000000000000000000000000
310
00000000000000000000000000000000000000000000000000000000000000000000000000000000000000000000000000000000000000000000000000000000000000000000000000000000000000000000000000000000000000000000000000000000000000000000000000000000000000000000000000000000000000
310
00000000000000000000000000000000000000000000000000000000000000000000000000000000000000000000000000000000000000000000000000000000000000000000000000000000000000000000000000000000000000000000000000000000000000000000000000000000000000000000000000000000000000
310
00000000000000000000000000000000000000000000000000000000000000000000000000000000000000000000000000000000000000000000000000000000000000000000000000000000000000000000000000000000000000000000000000000000000000000000000000000000000000000000000000000000000000
310
00000000000000000000000000000000000000000000000000000000000000000000000000000000000000000000000000000000000000000000000000000000000000000000000000000000000000000000000000000000000000000000000000000000000000000000000000000000000000000000000000000000000000
310
00000000000000000000000000000000000000000000000000000000000000000000000000000000000000000000000000000000000000000000000000000000000000000000000000000000000000000000000000000000000000000000000000000000000000000000000000000000000000000000000000000000000000
310
00000000000000000000000000000000000000000000000000000000000000000000000000000000000000000000000000000000000000000000000000000000000000000000000000000000000000000000000000000000000000000000000000000000000000000000000000000000000000000000000000000000000000
310
00000000000000000000000000000000000000000000000000000000000000000000000000000000000000000000000000000000000000000000000000000000000000000000000000000000000000000000000000000000000000000000000000000000000000000000000000000000000000000000000000000000000000
310
00000000000000000000000000000000000000000000000000000000000000000000000000000000000000000000000000000000000000000000000000000000000000000000000000000000000000000000000000000000000000000000000000000000000000000000000000000000000000000000000000000000000000
310
00000000000000000000000000000000000000000000000000000000000000000000000000000000000000000000000000000000000000000000000000000000000000000000000000000000000000000000000000000000000000000000000000000000000000000000000000000000000000000000000000000000000000
310
00000000000000000000000000000000000000000000000000000000000000000000000000000000000000000000000000000000000000000000000000000000000000000000000000000000000000000000000000000000000000000000000000000000000000000000000000000000000000000000000000000000000000
310
00000000000000000000000000000000000000000000000000000000000000000000000000000000000000000000000000000000000000000000000000000000000000000000000000000000000000000000000000000000000000000000000000000000000000000000000000000000000000000000000000000000000000
310
00000000000000000000000000000000000000000000000000000000000000000000000000000000000000000000000000000000000000000000000000000000000000000000000000000000000000000000000000000000000000000000000000000000000000000000000000000000000000000000000000000000000000
310
00000000000000000000000000000000000000000000000000000000000000000000000000000000000000000000000000000000000000000000000000000000000000000000000000000000000000000000000000000000000000000000000000000000000000000000000000000000000000000000000000000000000000
310
00000000000000000000000000000000000000000000000000000000000000000000000000000000000000000000000000000000000000000000000000000000000000000000000000000000000000000000000000000000000000000000000000000000000000000000000000000000000000000000000000000000000000
310
00000000000000000000000000000000000000000000000000000000000000000000000000000000000000000000000000000000000000000000000000000000000000000000000000000000000000000000000000000000000000000000000000000000000000000000000000000000000000000000000000000000000000
310
00000000000000000000000000000000000000000000000000000000000000000000000000000000000000000000000000000000000000000000000000000000000000000000000000000000000000000000000000000000000000000000000000000000000000000000000000000000000000000000000000000000000000
310
00000000000000000000000000000000000000000000000000000000000000000000000000000000000000000000000000000000000000000000000000000000000000000000000000000000000000000000000000000000000000000000000000000000000000000000000000000000000000000000000000000000000000
310
00000000000000000000000000000000000000000000000000000000000000000000000000000000000000000000000000000000000000000000000000000000000000000000000000000000000000000000000000000000000000000000000000000000000000000000000000000000000000000000000000000000000000
310
00000000000000000000000000000000000000000000000000000000000000000000000000000000000000000000000000000000000000000000000000000000000000000000000000000000000000000000000000000000000000000000000000000000000000000000000000000000000000000000000000000000000000
310
00000000000000000000000000000000000000000000000000000000000000000000000000000000000000000000000000000000000000000000000000000000000000000000000000000000000000000000000000000000000000000000000000000000000000000000000000000000000000000000000000000000000000
310
00000000000000000000000000000000000000000000000000000000000000000000000000000000000000000000000000000000000000000000000000000000000000000000000000000000000000000000000000000000000000000000000000000000000000000000000000000000000000000000000000000000000000
310
00000000000000000000000000000000000000000000000000000000000000000000000000000000000000000000000000000000000000000000000000000000000000000000000000000000000000000000000000000000000000000000000000000000000000000000000000000000000000000000000000000000000000
310
00000000000000000000000000000000000000000000000000000000000000000000000000000000000000000000000000000000000000000000000000000000000000000000000000000000000000000000000000000000000000000000000000000000000000000000000000000000000000000000000000000000000000
310
00000000000000000000000000000000000000000000000000000000000000000000000000000000000000000000000000000000000000000000000000000000000000000000000000000000000000000000000000000000000000000000000000000000000000000000000000000000000000000000000000000000000000
310
00000000000000000000000000000000000000000000000000000000000000000000000000000000000000000000000000000000000000000000000000000000000000000000000000000000000000000000000000000000000000000000000000000000000000000000000000000000000000000000000000000000000000
310
00000000000000000000000000000000000000000000000000000000000000000000000000000000000000000000000000000000000000000000000000000000000000000000000000000000000000000000000000000000000000000000000000000000000000000000000000000000000000000000000000000000000000
310
00000000000000000000000000000000000000000000000000000000000000000000000000000000000000000000000000000000000000000000000000000000000000000000000000000000000000000000000000000000000000000000000000000000000000000000000000000000000000000000000000000000000000
310
00000000000000000000000000000000000000000000000000000000000000000000000000000000000000000000000000000000000000000000000000000000000000000000000000000000000000000000000000000000000000000000000000000000000000000000000000000000000000000000000000000000000000
310
00000000000000000000000000000000000000000000000000000000000000000000000000000000000000000000000000000000000000000000000000000000000000000000000000000000000000000000000000000000000000000000000000000000000000000000000000000000000000000000000000000000000000
310
00000000000000000000000000000000000000000000000000000000000000000000000000000000000000000000000000000000000000000000000000000000000000000000000000000000000000000000000000000000000000000000000000000000000000000000000000000000000000000000000000000000000000
310
00000000000000000000000000000000000000000000000000000000000000000000000000000000000000000000000000000000000000000000000000000000000000000000000000000000000000000000000000000000000000000000000000000000000000000000000000000000000000000000000000000000000000
310
00000000000000000000000000000000000000000000000000000000000000000000000000000000000000000000000000000000000000000000000000000000000000000000000000000000000000000000000000000000000000000000000000000000000000000000000000000000000000000000000000000000000000
310
00000000000000000000000000000000000000000000000000000000000000000000000000000000000000000000000000000000000000000000000000000000000000000000000000000000000000000000000000000000000000000000000000000000000000000000000000000000000000000000000000000000000000
310
00000000000000000000000000000000000000000000000000000000000000000000000000000000000000000000000000000000000000000000000000000000000000000000000000000000000000000000000000000000000000000000000000000000000000000000000000000000000000000000000000000000000000
310
00000000000000000000000000000000000000000000000000000000000000000000000000000000000000000000000000000000000000000000000000000000000000000000000000000000000000000000000000000000000000000000000000000000000000000000000000000000000000000000000000000000000000
310
00000000000000000000000000000000000000000000000000000000000000000000000000000000000000000000000000000000000000000000000000000000000000000000000000000000000000000000000000000000000000000000000000000000000000000000000000000000000000000000000000000000000000
310
00000000000000000000000000000000000000000000000000000000000000000000000000000000000000000000000000000000000000000000000000000000000000000000000000000000000000000000000000000000000000000000000000000000000000000000000000000000000000000000000000000000000000
310
00000000000000000000000000000000000000000000000000000000000000000000000000000000000000000000000000000000000000000000000000000000000000000000000000000000000000000000000000000000000000000000000000000000000000000000000000000000000000000000000000000000000000
310
00000000000000000000000000000000000000000000000000000000000000000000000000000000000000000000000000000000000000000000000000000000000000000000000000000000000000000000000000000000000000000000000000000000000000000000000000000000000000000000000000000000000000
310
0000000000000000000000000000000000DC00000000000000000000000000000000000000000000000000000000000000000000000000000000000000000000000000000000000000000000000000000000000000000000000000000000000000000000000000000000000000000000000000000000000000000000000000
310
00000000000000000000000000000000000000000000000000000000000000000000000000000000000000000000000000000000000000000000000000000000000000000000000000000000000000000000000000000000000000000000000000000000000000000000000000000000000000000000000000000000000000
310
000000000000000000000000000000000000DCDC0000000000000000000000000000000000000000000000000000000000000000000000000000000000000000000000000000000000000000000000000000000000000000000000000000000000000000000000000000000000000000000000000000000000000000000000
310
00000000000000000000000000000000000000000000000000000000000000000000000000000000000000000000000000000000000000000000000000000000000000000000000000000000000000000000000000000000000000000000000000000000000000000000000000000000000000000000000000000000000000
310
000000000000000000000000000000000000000000DC000000000000000000000000BE0000000000000000000000000000000000000000000000000000000000000000000000000000000000000000000000000000000000000000000000000000000000000000000000000000000000000000000000000000000000000000
310
00000000000000000000000000000000000000000000000000000000000000000000000000000000000000000000000000000000000000000000000000000000000000000000000000000000000000000000000000000000000000000000000000000000000000000000000000000000000000000000000000000000000000
310
0000000000000000000000000000000000000000282828DCDCDCDCDCDCDCDCDCDCDC2D2DBE2D2D2D2D0000000000000000000000000000000000000000000000000000000000000000000000000000000000000000000000000000000000000000000000000000000000000000000000000000000000000000000000000000
310
00000000000000000000000000000000000000000000000000000000000000000000000000000000000000000000000000000000000000000000000000000000000000000000000000000000000000000000000000000000000000000000000000000000000000000000000000000000000000000000000000000000000000
310
00000000000000000000000000000000000000000000282828DC00000000000000002D2D000000002D2D2D000000000000000000000000000000000000000000000000000000000000000000000000000000000000000000000000000000000000000000000000000000000000000000000000000000000000000000000000
310
00000000000000000000000000000000000000000000000000000000000000000000000000000000000000000000000000000000000000000000000000000000000000000000000000000000000000000000000000000000000000000000000000000000000000000000000000000000000000000000000000000000000000
310
000000000000000000000000000000000000000000000000282828DC00000000000000002D2D2D2DBE2D2D2D2D00000000000000000000000000000000000000000000000000000000000000000000000000000000000000000000000000000000000000000000000000000000000000000000000000000000000000000000
310
00000000000000000000000000000000000000000000000000000000000000000000000000000000000000000000000000000000000000000000000000000000000000000000000000000000000000000000000000000000000000000000000000000000000000000000000000000000000000000000000000000000000000
310
0000000000000000000000000000000000000000000000000000000000DC0000000000000000DCA82D2DBE2D2D2DDC0000000000000000000000000000000000000000000000000000000000000000000000000000000000000000000000000000000000000000000000000000000000000000000000000000000000000000
310
00000000000000000000000000000000000000000000000000000000000000000000000000000000000000000000000000000000000000000000000000000000000000000000000000000000000000000000000000000000000000000000000000000000000000000000000000000000000000000000000000000000000000
310
000000000000000000000000000000000000000000000000000000000000DCDCDCDCDCDCDCDCDCDCDCDC2D2DBE2D2DA8DC000000000000000000000000000000000000000000000000000000000000000000000000000000000000000000000000000000000000000000000000000000000000000000000000000000000000
310
00000000000000000000000000000000000000000000000000000000000000000000000000000000000000000000000000000000000000000000000000000000000000000000000000000000000000000000000000000000000000000000000000000000000000000000000000000000000000000000000000000000000000
310
0000000000000000000000000000000000000000000000000000000000000000DCDC0000000000000000DC00000000000000DC00000000000000000000000000000000000000000000000000000000000000000000000000000000000000000000000000000000000000000000000000000000000000000000000000000000
310
00000000000000000000000000000000000000000000000000000000000000000000000000000000000000000000000000000000000000000000000000000000000000000000000000000000000000000000000000000000000000000000000000000000000000000000000000000000000000000000000000000000000000
310
0000000000000000000000000000000000000000000000000000000000000000000000DC0000000000000000DC00000000000000DC0000000000000000000000000000000000000000000000000000000000000000000000000000000000000000000000000000000000000000000000000000000000000000000000000000
310
00000000000000000000000000000000000000000000000000000000000000000000000000000000000000000000000000000000000000000000000000000000000000000000000000000000000000000000000000000000000000000000000000000000000000000000000000000000000000000000000000000000000000
310
00000000000000000000000000000000000000000000000000000000000000000000000000DC0000000000000000DC00000000000000DC000000000000000000000000000000000000000000000000000000000000000000000000000000000000000000000000000000000000000000000000000000000000000000000000
310
00000000000000000000000000000000000000000000000000000000000000000000000000000000000000000000000000000000000000000000000000000000000000000000000000000000000000000000000000000000000000000000000000000000000000000000000000000000000000000000000000000000000000
310
000000000000000000000000000000000000000000000000000000000000000000000000000000000000000000000000DC00DC000000DC00DC00000000000000000000000000000000000000000000000000000000000000000000000000000000000000000000000000000000000000000000000000000000000000000000
310
00000000000000000000000000000000000000000000000000000000000000000000000000000000000000000000000000000000000000000000000000000000000000000000000000000000000000000000000000000000000000000000000000000000000000000000000000000000000000000000000000000000000000
310
0000000000000000000000000000000000000000000000000000000000000000000000000000000000000000000000000000DCDCDC2828DCDCDCDC0000000000000000000000000000000000000000000000000000000000000000000000000000000000000000000000000000000000000000000000000000000000000000
310
00000000000000000000000000000000000000000000000000000000000000000000000000000000000000000000000000000000000000000000000000000000000000000000000000000000000000000000000000000000000000000000000000000000000000000000000000000000000000000000000000000000000000
310
00000000000000000000000000000000000000000000000000000000000000000000000000000000000000000000000000000000000000282800000000000000000000000000000000000000000000000000000000000000000000000000000000000000000000000000000000000000000000000000000000000000000000
310
00000000000000000000000000000000000000000000000000000000000000000000000000000000000000000000000000000000000000000000000000000000000000000000000000000000000000000000000000000000000000000000000000000000000000000000000000000000000000000000000000000000000000
310
00000000000000000000000000000000000000000000000000000000000000000000000000000000000000000000000000000000000000000000000000000000000000000000000000000000000000000000000000000000000000000000000000000000000000000000000000000000000000000000000000000000000000
310
00000000000000000000000000000000000000000000000000000000000000000000000000000000000000000000000000000000000000000000000000000000000000000000000000000000000000000000000000000000000000000000000000000000000000000000000000000000000000000000000000000000000000
310
00000000000000000000000000000000000000000000000000000000000000000000000000000000000000000000000000000000000000000000000000000000000000000000000000000000000000000000000000000000000000000000000000000000000000000000000000000000000000000000000000000000000000
310
00000000000000000000000000000000000000000000000000000000000000000000000000000000000000000000000000000000000000000000000000000000000000000000000000000000000000000000000000000000000000000000000000000000000000000000000000000000000000000000000000000000000000
310
00000000000000000000000000000000000000000000000000000000000000000000000000000000000000000000000000000000000000000000000000000000000000000000000000000000000000000000000000000000000000000000000000000000000000000000000000000000000000000000000000000000000000
310
00000000000000000000000000000000000000000000000000000000000000000000000000000000000000000000000000000000000000000000000000000000000000000000000000000000000000000000000000000000000000000000000000000000000000000000000000000000000000000000000000000000000000
310
00000000000000000000000000000000000000000000000000000000000000000000000000000000000000000000000000000000000000000000000000000000000000000000000000000000000000000000000000000000000000000000000000000000000000000000000000000000000000000000000000000000000000
310
00000000000000000000000000000000000000000000000000000000000000000000000000000000000000000000000000000000000000000000000000000000000000000000000000000000000000000000000000000000000000000000000000000000000000000000000000000000000000000000000000000000000000
310
00000000000000000000000000000000000000000000000000000000000000000000000000000000000000000000000000000000DCDCDCDCDCDCDCDCDCDCDC2D2D2D2D2D2DDCDCDCDCDCDCDCDCDCDCDCDCDC000000000000000000000000000000002DA82D0000000000000000000000000000000000000000000000000000
310
00000000000000000000000000000000000000000000000000000000000000000000000000000000000000000000000000000000000000000000000000000000000000000000000000000000000000000000000000000000000000000000000000000000000000000000000000000000000000000000000000000000000000
310
00000000000000000000000000000000000000000000000000000000000000000000000000000000000000000000000000000000282828DC00000000000000002DA8A8A8A8A8A8A82D000000000000DC0000DCDC000000000000000000000000000000A82DA82D000000000000000000000000000000000000000000000000
310
00000000000000000000000000000000000000000000000000000000000000000000000000000000000000000000000000000000000000000000000000000000000000000000000000000000000000000000000000000000000000000000000000000000000000000000000000000000000000000000000000000000000000
310
000000000000000000000000000000000000000000000000000000000000000000000000000000000000000000000000000000000000282828DC00000000000000002DA80000BE0000A82D000000000000DC0000DCDC00000000000000000000000000002DA800A82D00000000000000000000000000000000000000000000
310
00000000000000000000000000000000000000000000000000000000000000000000000000000000000000000000000000000000000000000000000000000000000000000000000000000000000000000000000000000000000000000000000000000000000000000000000000000000000000000000000000000000000000
310
0000000000000000000000000000000000000000000000000000000000000000000000000000000000000000000000000000000000000000282828DC00000000000000002DA82D2DBE2D00A82D000000000000DC0000DC0000000000000000000000000000002DA800A8A80000000000000000000000000000000000000000
310
00000000000000000000000000000000000000000000000000000000000000000000000000000000000000000000000000000000000000000000000000000000000000000000000000000000000000000000000000000000000000000000000000000000000000000000000000000000000000000000000000000000000000
310
00000000000000000000000000000000000000000000000000000000000000000000000000000000000000000000000000000000000000000000000000DC0000000000000000A8A8A82D2D2D2DA82D000000000000DC0000DC000000000000000000000000000000A8A8A8A82D000000000000000000000000000000000000
310
00000000000000000000000000000000000000000000000000000000000000000000000000000000000000000000000000000000000000000000000000000000000000000000000000000000000000000000000000000000000000000000000000000000000000000000000000000000000000000000000000000000000000
310
0000000000000000000000000000000000000000000000000000000000000000000000000000000000000000000000000000000000000000000000000000DC2DDCDCDCDCDCDCDCDCDCBEBEBEBEBEBEA82D000000000000DC0000DC0000000000000000000000000000BEBEBEBEBEBEBE000000000000000000000000000000
310
00000000000000000000000000000000000000000000000000000000000000000000000000000000000000000000000000000000000000000000000000000000000000000000000000000000000000000000000000000000000000000000000000000000000000000000000000000000000000000000000000000000000000
310
00000000000000000000000000000000000000000000000000000000000000000000000000000000000000000000000000000000000000000000000000000000DCDC0000000000000000A8A82D2DBE2D2DA82D000000000000DC0000DC000000000000000000000000000000A8A800A8A80000000000000000000000000000
310
00000000000000000000000000000000000000000000000000000000000000000000000000000000000000000000000000000000000000000000000000000000000000000000000000000000000000000000000000000000000000000000000000000000000000000000000000000000000000000000000000000000000000
310
00000000000000000000000000000000000000000000000000000000000000000000000000000000000000000000000000000000000000000000000000000000000000DC00000000000000002DA8A8A8BEA8A8A82D000000000000DC0000DC0000000000000000000000000000002DA800A82D000000000000000000000000
310
000000000000002D0000000000000000000000000000000000000000000000000000000000000000000000000000000000000000000000000000000000000000000000000000000000000000000000000000000000000000000000000000000000000000000000000000000000000000000000000000000000000000000000
310
000000000000000000000000000000000000000000000000000000000000000000000000000000000000000000000000000000000000000000000000000000000000000000DC00000000000000002DA80000000000A82D000000282828DC0000DC0000000000000000000000000000002DA800A82D00000000000000000000
310
00000000000000002D2D2D0000000000000000000000000000000000000000000000000000000000000000000000000000000000000000000000000000000000000000000000000000000000000000000000000000000000000000000000000000000000000000000000000000000000000000000000000000000000000000
310
0000000000000000000000000000000000000000000000000000000000000000000000000000000000000000000000000000000000000000000000000000000000000000000000DC00000000000000002DA80000000000A82D000000282828DC0000DC0000000000000000000000000000002DA800A82D0000000000000000
310
0000000000000000002D2D2D002D2D00000000000000000000000000000000000000000000000000000000000000000000000000000000000000000000000000000000000000000000000000000000000000000000000000000000000000000000000000000000000000000000000000000000000000000000000000000000
310
00000000000000000000000000000000000000000000000000000000000000000000000000000000000000000000000000000000000000000000000000000000000000000000000000DC00000000000000002DA80000000000A82D000000282828DC0000DC0000000000000000000000000000002DA800A82D000000000000
310
00000000000000000000002D002D0000002D2D000000000000000000000000000000000000000000000000000000000000000000000000000000000000000000000000000000000000000000000000000000000000000000000000000000000000000000000000000000000000000000000000000000000000000000000000
310
000000000000000000000000000000000000000000000000000000000000000000000000000000000000000000000000000000000000000000000000000000000000000000000000000000DC00000000000000002DA8002D2D0000A82D000000000000DC0000DC0000000000000000000000000000002DA800A82D00000000
310
0000000000000000000000002D2D002D2D2D2D002D00000000000000000000000000000000000000000000000000000000000000000000000000000000000000000000000000000000000000000000000000000000000000000000000000000000000000000000000000000000000000000000000000000000000000000000
310
0000000000000000000000000000000000000000000000000000000000000000000000000000000000000000000000000000000000000000000000000000000000000000000000000000000000DC00000000000000002DA8002D2D2D00A82D000000000000DC0000DC000000000000000000000000000000A8A800A82D0000
310
00000000000000000000000000002D2D002D2D2D2D2D2D0000000000000000000000000000000000000000000000000000000000000000000000000000000000000000000000000000000000000000000000000000000000000000000000000000000000000000000000000000000000000000000000000000000000000000
310
00000000000000000000000000000000000000000000000000000000000000000000000000000000000000000000000000000000000000000000000000000000000000000000000000000000000000DC00000000000000002DDCDC2828DCDCDC2D000000000000DC0000DC0000000000000000000000000000002DA800A82D
310
000000000000000000000000000000002D2D002D2D2D2D2D2D000000000000000000000000000000000000000000000000000000000000000000000000000000000000000000000000000000000000000000000000000000000000000000000000000000000000000000000000000000000000000000000000000000000000
310
000000000000000000000000000000000000000000000000000000000000000000000000000000000000000000000000000000000000000000000000000000000000000000000000000000000000000000DC00000000000000002DDC0028280000DC2D000000000000DC0000DC0000000000000000000000000000002DA800
310
A82D000000000000000000000000000000002D2D002D002D2D2D2D00000000000000000000000000000000000000000000000000000000000000000000000000000000000000000000000000000000000000000000000000000000000000000000000000000000000000000000000000000000000000000000000000000000
310
0000000000000000000000000000000000000000000000000000000000000000000000000000000000000000000000000000000000000000000000000000000000000000000000000000000000000000000000DC00000000000000002DA80028280000A82D000000000000DC0000DC0000000000000000000000000000002D
310
A800A82D000000000000000000000000000000002D2D002D000000002D0000000000000000000000000000000000000000000000000000000000000000000000000000000000000000000000000000000000000000000000000000000000000000000000000000000000000000000000000000000000000000000000000000
310
00000000000000000000000000000000000000000000000000000000000000000000000000000000000000000000000000000000000000000000000000000000000000000000000000000000000000000000000000DC00000000000000002DA8002D2D2D00A82D000000000000DC0000DC0000000000000000000000000000
310
002DA800A82D000000000000000000000000000000002D2D002D000000002D000000000000000000000000000000000000000000000000000000000000000000000000000000000000000000000000000000000000000000000000000000000000000000000000000000000000000000000000000000000000000000000000
310
000000000000000000000000000000000000000000000000000000000000000000000000000000000000000000000000000000000000000000000000000000000000000000000000000000000000000000000000000000DC00000000000000002DA8002D2D0000A82D000000000000DC0000DC000000000000000000000000
310
0000002DA800A82D000000000000000000000000000000002D2D002D000000002D00000000000000000000000000000000000000000000000000000000000000000000000000000000000000000000000000000000000000000000000000000000000000000000000000000000000000000000000000000000000000000000
310
0000000000000000000000000000000000000000000000000000000000000000000000000000000000000000000000000000000000000000000000000000000000000000000000000000000000000000000000000000000000DC00000000000000002DA80000000000A82D000000000000DC0000DC00000000000000000000
310
00000000002DA800A82D000000000000000000000000000000002D2D002D002D2D002D0000000000000000000000000000000000000000000000000000000000000000000000000000000000000000000000000000000000000000000000000000000000000000000000000000000000000000000000000000000000000000
310
00000000000000000000000000000000000000000000000000000000000000000000000000000000000000000000000000000000000000000000000000000000000000000000000000000000000000000000000000000000000000DC00000000000000002DA82D2D2D2DDCDCDCDCDCDCDCDCDCDC0000DC0000000000000000
310
000000000000002DA800A8A8000000000000000000000000000000002D2D002D002D2D002D000000000000000000000000000000000000000000000000000000000000000000000000000000000000000000000000000000000000000000000000000000000000000000000000000000000000000000000000000000000000
310
000000000000000000000000000000000000000000000000000000000000000000000000000000000000000000000000000000000000000000000000000000000000000000000000000000000000000000000000000000000000000000DC00000000000000002DA80000000000A82D000000000000DC0000DC000000000000
310
0000000000000000002DA800A82D000000000000000000000000000000002D2D002D000000002D00000000000000000000000000000000000000000000000000000000000000000000000000000000000000000000000000000000000000000000000000000000000000000000000000000000000000000000000000000000
310
0000000000000000000000000000000000000000000000000000000000000000000000000000000000000000000000000000000000000000000000000000000000000000000000000000000000000000000000000000000000000000282828DC00000000000000002DA80000000000A82D000000000000DC0000DC00000000
310
00000000000000000000002DA800A82D000000000000000000000000000000002D2D002D002D2D002D0000000000000000000000000000000000000000000000000000000000000000000000000000000000000000000000000000000000000000000000000000000000000000000000000000000000000000000000000000
310
00000000000000000000000000000000000000000000000000000000000000000000000000000000000000000000000000000000000000000000000000000000000000000000000000000000000000000000000000000000000000000000282828DC00000000000000002DA80000000000A82D000000000000DC0000DC0000
310
000000000000000000000000002DA800A82D000000000000000000000000000000002D2D002D002D2D002D000000000000000000000000000000000000000000000000000000000000000000000000000000000000000000000000000000000000000000000000000000000000000000000000000000000000000000000000
310
000000000000000000000000000000000000000000000000000000000000000000000000000000000000000000000000000000000000000000000000000000000000000000000000000000000000000000000000000000000000000000000000282828DC00000000000000002DA80000000000A82D000000000000DC0000DC
310
0000000000000000000000000000002DA800A82D000000000000000000000000000000002D2D002D2D002D002D00000000000000000000000000000000000000000000000000000000000000000000000000000000000000000000000000000000000000000000000000000000000000000000000000000000000000000000
310
0000000000000000000000000000000000000000000000000000000000000000000000000000000000000000000000000000000000000000000000000000000000000000000000000000000000000000000000000000000000000000000000000000282828DC00000000000000002DA80000000000A82D000000000000DC00
310
00DC0000000000000000000000000000002DA800A82D000000000000000000000000000000002D2D002D2D2D2D002D0000000000000000000000000000000000000000000000000000000000000000000000000000000000000000000000000000000000000000000000000000000000000000000000000000000000000000
310
00000000000000000000000000000000000000000000000000000000000000000000000000000000000000000000000000000000000000000000000000000000000000000000000000000000000000000000000000000000000000000000000000000000000000DC00000000000000002DA80000000000A82D000000282828
310
DC0000DC0000000000000000000000000000002DA800A82D000000000000000000000000000000002D2D002D2D2D2D2D2D000000000000000000000000000000000000000000000000000000000000000000000000000000000000000000000000000000000000000000000000000000000000000000000000000000000000
310
000000000000000000000000000000000000000000000000000000000000000000000000000000000000000000000000000000000000000000000000000000000000000000000000000000000000000000000000000000000000000000000000000000000000000000DC00DC2DDCDCDCDCBEBEBEBEBE00BEBEBEBE00000028
310
2828DC0000DC0000000000000000000000000000002DA800A82D000000000000000000000000000000002D2D002D2D2D2D2D2D00000000000000000000000000000000000000000000000000000000000000000000000000000000000000000000000000000000000000000000000000000000000000000000000000000000
310
0000000000000000000000000000000000000000000000000000000000000000000000000000000000000000000000000000000000000000000000000000000000000000000000000000000000000000000000000000000000000000000000000000000000000000000000DC0000DC00000000002DA80000000000A82D0000
310
00282828DC0000DC0000000000000000000000000000002DA800A82D000000000000000000000000000000002D2D002D2D2D2D2D2D0000000000000000000000000000000000000000000000000000000000000000000000000000000000000000000000000000000000000000000000000000000000000000000000000000
310
00000000000000000000000000000000000000000000000000000000000000000000000000000000000000000000000000000000000000000000000000000000000000000000000000000000000000000000000000000000000000000000000000000000000000000000000000DC0000DC00000000002DA80000000000A82D
310
000000000000DC0000DC0000000000000000000000000000002DA800A82D000000000000000000000000000000002D2D002D2D2D2D2D2D000000000000000000000000000000000000000000000000000000000000000000000000000000000000000000000000000000000000000000000000000000000000000000000000
310
000000000000000000000000000000000000000000000000000000000000000000000000000000000000000000000000000000000000000000000000000000000000000000000000000000000000000000000000000000000000000000000000000000000000000000000000000000DC0000DC00000000002DA80000000000
310
A82D000000000000DC0000DC0000000000000000000000000000002DA800A82D000000000000000000000000000000002D2D002D2D2D2D2D2D00000000000000000000000000000000000000000000000000000000000000000000000000000000000000000000000000000000000000000000000000000000000000000000
310
0000000000000000000000000000000000000000000000000000000000000000000000000000000000000000000000000000000000000000000000000000000000000000000000000000000000000000000000000000000000000000000000000000000000000000000000000000000000DC0000DC00000000002DA8000000
310
0000A82D000000000000DC0000DC0000000000000000000000000000002DA800A82D000000000000000000000000000000002D2D002D2D2D2D2D2D0000000000000000000000000000000000000000000000000000000000000000000000000000000000000000000000000000000000000000000000000000000000000000
310
00000000000000000000000000000000000000000000000000000000000000000000000000000000000000000000000000000000000000000000000000000000000000000000000000000000000000000000000000000000000000000000000000000000000000000000000000000000000000DC0000DC00000000002DA800
310
00000000A82D000000000000DC0000DC0000000000000000000000000000002DA800A82D000000000000000000000000000000002D2D002D2D2D2D2D2D000000000000000000000000000000000000000000000000000000000000000000000000000000000000000000000000000000000000000000000000000000000000
310
000000000000000000000000000000000000000000000000000000000000000000000000000000000000000000000000000000000000000000000000000000000000000000000000000000000000000000000000000000000000000000000000000000000000000000000000000000000000000000DC0000DC00000000002D
310
A80000000000A82D000000000000DC0000DC0000000000000000000000000000002DA800A82D000000000000000000000000000000002D2D002D2D2D2D2D2D00000000000000000000000000000000000000000000000000000000000000000000000000000000000000000000000000000000000000000000000000000000
310
0000000000000000000000000000000000000000000000000000000000000000000000000000000000000000000000000000000000000000000000000000000000000000000000000000000000000000000000000000000000000000000000000000000000000000000000000000000000000000000000DC0000DC00000000
310
002DA80000000000A82D000000000000DC0000DC0000000000000000000000000000002DA800A82D000000000000000000000000000000002D2D002D2D2D2D2D2D0000000000000000000000000000000000000000000000000000000000000000000000000000000000000000000000000000000000000000000000000000
310
00000000000000000000000000000000000000000000000000000000000000000000000000000000000000000000000000000000000000000000000000000000000000000000000000000000000000000000000000000000000000000000000000000000000000000000000000000000000000000000000000DC0000DC0000
310
0000002DA82D2D2D2DDCDCDCDCDCDCDCDCDCDC0000DC000000000000000000000000000000A8A800A8A8000000000000000000000000000000002D2D002D2D2D2D2D2D000000000000000000000000000000000000000000000000000000000000000000000000000000000000000000000000000000000000000000000000
310
000000000000000000000000000000000000000000000000000000000000000000000000000000000000000000000000000000000000000000000000000000000000000000000000000000000000000000000000000000000000000000000000000000000000000000000000000000000000000000000000000000DC0000DC
310
00000000002DA80000000000A82D000000000000DC0000DC0000000000000000000000000000002DA800A82D000000000000000000000000000000002D2D002D2D2D2D2D2D00000000000000000000000000000000000000000000000000000000000000000000000000000000000000000000000000000000000000000000
310
00000000000000000000000000000000000000000000000000000000000000000000000000000000000000000000000000000000000000000000000000000000000000000000000000000000000000000000000000000000000000000000000000000000000000000000000000000000000000000000000000000000002828
310
28DC00000000002DA80000000000A82D000000000000DC0000DC0000000000000000000000000000002DA800A82D000000000000000000000000000000002D2D002D2D2D2D2D2D0000000000000000000000000000000000000000000000000000000000000000000000000000000000000000000000000000000000000000
310
00000000000000000000000000000000000000000000000000000000000000000000000000000000000000000000000000000000000000000000000000000000000000000000000000000000000000000000000000000000000000000000000000000000000000000000000000000000000000000000000000000000000000
310
282828DC00000000002DA80000000000A82D000000000000DC0000DC0000000000000000000000000000002DA800A82D000000000000000000000000000000002D2D002D002D2D2D2D000000000000000000000000000000000000000000000000000000000000000000000000000000000000000000000000000000000000
310
00000000000000000000000000000000000000000000000000000000000000000000000000000000000000000000000000000000000000000000000000000000000000000000000000000000000000000000000000000000000000000000000000000000000000000000000000000000000000000000000000000000000000
310
0000DC0000DC00000000002DA80000000000A82D000000000000DC0000DC000000000000000000DC2828DCDCDCDCDCDCDCDC000000000000000000000000000000002D2D002D0000002D2D00000000000000000000000000000000000000000000000000000000000000000000000000000000000000000000000000000000
310
00000000000000000000000000000000000000000000000000000000000000000000000000000000000000000000000000000000000000000000000000000000000000000000000000000000000000000000000000000000000000000000000000000000000000000000000000000000000000000000000000000000000000
310
00000000DC0000DC00000000002DA80000BE0000A82D000000282828DC0000DC000000000000000000002828000000DCA800A8DC000000000000000000000000000000002D2D002D000000002D0000000000000000000000000000000000000000000000000000000000000000000000000000000000000000000000000000
310
00000000000000000000000000000000000000000000000000000000000000000000000000000000000000000000000000000000000000000000000000000000000000000000000000000000000000000000000000000000000000000000000000000000000000000000000000000000000000000000000000000000000000
310
0000000000DCDC0000DC00000000002DA8002DBE2D00A82D000000282828DC2828280000000000000000000028280000002DA800A8A8000000000000000000000000000000002D2D002D000000002D000000000000000000000000000000000000000000000000000000000000000000000000000000000000000000000000
310
00000000000000000000000000000000000000000000000000000000000000000000000000000000000000000000000000000000000000000000000000000000000000000000000000000000000000000000000000000000000000000000000000000000000000000000000000000000000000000000000000000000000000
310
0000000000000000DC0000DC0000000000A8A8A82D2D2D2DA82D000000282828DC282828000000000000000000000000000000A8A8A8A82D000000000000000000000000000000002D2D002D2D2D2D002D00000000000000000000000000000000000000000000000000000000000000000000000000000000000000000000
310
00000000000000000000000000000000000000000000000000000000000000000000000000000000000000000000000000000000000000000000000000000000000000000000000000000000000000000000000000000000000000000000000000000000000000000000000000000000000000000000000000000000000000
310
000000000000000000DCDCDCDCDCDCDCDCDCDCDCBEBEBEBEBEBEA82D000000282828DC2828280000000000000000000000000000BEBEBEBEBEBEBE0000000000000000000000000000002D2D002D2D2D2D2D2D0000000000000000000000000000000000000000000000000000000000000000000000000000000000000000
310
00000000000000000000000000000000000000000000000000000000000000000000000000000000000000000000000000000000000000000000000000000000000000000000000000000000000000000000000000000000000000000000000000000000000000000000000000000000000000000000000000000000000000
310
0000000000000000000000DCDC0000DC0000000000A8A82D2DBE2D2DA82D000000000000DC0000DC000000000000000000000000000000A8A800A8A800000000000000000000000000000000002D002D2D2D2D2D2D000000000000000000000000000000000000000000000000000000000000000000000000000000000000
310
00000000000000000000000000000000000000000000000000000000000000000000000000000000000000000000000000000000000000000000000000000000000000000000000000000000000000000000000000000000000000000000000000000000000000000000000000000000000000000000000000000000000000
310
0000000000000000000000000000DC0000DC00000000002DA80000BE0000A82D000000000000DC0000DC0000000000000000000000000000002DA800A82D000000000000000000000000000000002D2D002D002D2D2D2D00000000000000000000000000000000000000000000000000000000000000000000000000000000
310
00000000000000000000000000000000000000000000000000000000000000000000000000000000000000000000000000000000000000000000000000000000000000000000000000000000000000000000000000000000000000000000000000000000000000000000000000000000000000000000000000000000000000
310
00000000000000000000000000000000DC0000DC00000000002DA80000000000A82D000000000000DC0000DC0000000000000000000000000000002DA800A82D000000000000000000000000000000002D2D002D00002D2D2D0000000000000000000000000000000000000000000000000000000000000000000000000000
310
00000000000000000000000000000000000000000000000000000000000000000000000000000000000000000000000000000000000000000000000000000000000000000000000000000000000000000000000000000000000000000000000000000000000000000000000000000000000000000000000000000000000000
310
000000000000000000000000000000000000DC0000DC00000000002DA80000000000A82D000000000000DC0000DC0000000000000000000000000000002DA800A82D000000000000000000000000000000002D2D002D000000002D000000000000000000000000000000000000000000000000000000000000000000000000
310
00000000000000000000000000000000000000000000000000000000000000000000000000000000000000000000000000000000000000000000000000000000000000000000000000000000000000000000000000000000000000000000000000000000000000000000000000000000000000000000000000000000000000
310
0000000000000000000000000000000000000000DC0000DC00000000002DA80000000000A82D000000000000DC0000DC0000000000000000000000000000002DA800A82D000000000000000000000000000000002D2D002D2D2D00002D00000000000000000000000000000000000000000000000000000000000000000000
310
00000000000000000000000000000000000000000000000000000000000000000000000000000000000000000000000000000000000000000000000000000000000000000000000000000000000000000000000000000000000000000000000000000000000000000000000000000000000000000000000000000000000000
310
00000000000000000000000000000000000000000000DC00DC2D2D2D2D2DBEBEBEBE2DBEBEBEBEBEBEBEBEBEBEBEBEBEBEBEBEBE00BEBEBEBEBE00BEBEBEBEBEBEBEBEBEBEBEBEBE2D2D2D2D000000000000000000002D2D002D2D2D2D2D2D0000000000000000000000000000000000000000000000000000000000000000
310
00000000000000000000000000000000000000000000000000000000000000000000000000000000000000000000000000000000000000000000000000000000000000000000000000000000000000000000000000000000000000000000000000000000000000000000000000000000000000000000000000000000000000
310
000000000000000000000000000000000000000000000000282828DC002D2D00002DA82D0000002D2D2D000000000000DC0000DC0000000000000000000000DC0000002DA800A8A80000002D2D00000000000000000000002D2D002D2D002D2D2D000000000000000000000000000000000000000000000000000000000000
310
00000000000000000000000000000000000000000000000000000000000000000000000000000000000000000000000000000000000000000000000000000000000000000000000000000000000000000000000000000000000000000000000000000000000000000000000000000000000000000000000000000000000000
310
0000000000000000000000000000000000000000000000000000282828DC002D2D00002DA82D2D2D2D2D2D2D000000000000DC0000DC0000000000000000000000DC0000002DA800A8A80000002D2828282828282828282828002D2D002D2D2D2D2D0000000000000000000000000000000000000000000000000000000000
310
00000000000000000000000000000000000000000000000000000000000000000000000000000000000000000000000000000000000000000000000000000000000000000000000000000000000000000000000000000000000000000000000000000000000000000000000000000000000000000000000000000000000000
310
00000000000000000000000000000000000000000000000000000000DC0000DC002D0000002DBEBEBEBEBEBEBE2D000000000000DC0000DC0000000000000000000000DC0000002DA800A8A80000002D2828282828282828282828002D2D002D2D2D002D000000000000000000000000000000000000000000000000000000
310
00000000000000000000000000000000000000000000000000000000000000000000000000000000000000000000000000000000000000000000000000000000000000000000000000000000000000000000000000000000000000000000000000000000000000000000000000000000000000000000000000000000000000
310
000000000000000000000000000000000000000000000000000000000000DC0000DC00000000002DA82D2D2D2D2D2D2D000000000000DC0000DC0000000000000000000000DC0000002DA800A8A80000002D0000000000000000000000002D2D002D2D2D2D2D00000000000000000000000000000000000000000000000000
310
00000000000000000000000000000000000000000000000000000000000000000000000000000000000000000000000000000000000000000000000000000000000000000000000000000000000000000000000000000000000000000000000000000000000000000000000000000000000000000000000000000000000000
310
0000000000000000000000000000000000000000000000000000000000000000DC0000DC00000000002DA82D0000002D2D2D000000000000DC0000DC0000000000000000000000DC0000002DA800A8A8000000000000000000000000000000002D2D002D2D2D002D0000000000000000000000000000000000000000000000
310
00000000000000000000000000000000000000000000000000000000000000000000000000000000000000000000000000000000000000000000000000000000000000000000000000000000000000000000000000000000000000000000000000000000000000000000000000000000000000000000000000000000000000
310
00000000000000000000000000000000000000000000000000000000000000000000DC0000DC00000000002DA82D0000002D2D2D000000000000DC0000DC0000000000000000002828DC0000002DA800A8A8000000000000000000000000000000002D2D002D2D2D002D000000000000000000000000000000000000000000
310
00000000000000000000000000000000000000000000000000000000000000000000000000000000000000000000000000000000000000000000000000000000000000000000000000000000000000000000000000000000000000000000000000000000000000000000000000000000000000000000000000000000000000
310
000000000000000000000000000000000000000000000000000000000000000000000000DC0000DC00000000002DA82D0000002D2D2D000000282828DC0000DC0000000000000000002828DC0000002DA800A8A8000000000000000000000000000000002D2D002D2D2D002D00000000000000000000000000000000000000
310
00000000000000000000000000000000000000000000000000000000000000000000000000000000000000000000000000000000000000000000000000000000000000000000000000000000000000000000000000000000000000000000000000000000000000000000000000000000000000000000000000000000000000
310
0000000000000000000000000000000000000000000000000000000000000000000000000000DC00DCDCDCDCDCDCDC2DBEBEBEBEBEBEBEBEBE0000282828DC0000DC0000000000000000002828DC0000002DA800A8A8000000000000000000000000000000002D2D002D2D2D002D0000000000000000000000000000000000
310
00000000000000000000000000000000000000000000000000000000000000000000000000000000000000000000000000000000000000000000000000000000000000000000000000000000000000000000000000000000000000000000000000000000000000000000000000000000000000000000000000000000000000
310
00000000000000000000000000000000000000000000000000000000000000000000000000000000DC00000000000000002DA82D0000002D2D2D000000000000DC0000DC0000000000000000000000DC0000002DA800A8A8000000000000000000000000000000002D2D002D2D2D002D000000000000000000000000000000
310
00000000000000000000000000000000000000000000000000000000000000000000000000000000000000000000000000000000000000000000000000000000000000000000000000000000000000000000000000000000000000000000000000000000000000000000000000000000000000000000000000000000000000
310
000000000000000000000000000000000000000000000000000000000000000000000000000000000000DC00000000000000002DA82D0000002D2D2D000000000000DC0000DC0000000000000000000000DC0000002DA800A8A8000000000000000000000000000000002D2D002D2D2D002D00000000000000000000000000
310
00000000000000000000000000000000000000000000000000000000000000000000000000000000000000000000000000000000000000000000000000000000000000000000000000000000000000000000000000000000000000000000000000000000000000000000000000000000000000000000000000000000000000
310
0000000000000000000000000000000000000000000000000000000000000000000000000000000000282828DC00000000000000002DA82D0000002D2D2D000000000000DC0000DC0000000000000000000000DC0000002DA800A8A8000000000000000000000000000000002D2D002D2D2D002D0000000000000000000000
310
00000000000000000000000000000000000000000000000000000000000000000000000000000000000000000000000000000000000000000000000000000000000000000000000000000000000000000000000000000000000000000000000000000000000000000000000000000000000000000000000000000000000000
310
00000000000000000000000000000000000000000000000000000000000000000000000000000000000000282828DC00000000000000002DA82D2D2D2D2D2D2D000000000000DC0000DC0000000000000000000000DC0000002DA800A8A8000000000000000000000000000000002D2D002D2D2D2D2D000000000000000000
310
00000000000000000000000000000000000000000000000000000000000000000000000000000000000000000000000000000000000000000000000000000000000000000000000000000000000000000000000000000000000000000000000000000000000000000000000000000000000000000000000000000000000000
310
000000000000000000000000000000000000000000000000000000000000000000000000000000000000000000282828DC00000000000000002DBEBE2D2DBEBEDC2D000000000000DC0000DC0000000000000000000000DC0000002DA800A8A8000000000000000000000000000000002D2D002D2D2D2D2D00000000000000
310
00000000000000000000000000000000000000000000000000000000000000000000000000000000000000000000000000000000000000000000000000000000000000000000000000000000000000000000000000000000000000000000000000000000000000000000000000000000000000000000000000000000000000
310
0000000000000000000000000000000000000000000000000000000000000000000000000000000000000000000000282828DC00000000000000002DA82D2D2D2D2D2DDC000000000000DC0000DC0000000000000000000000DC0000002DA800A8A8000000000000000000000000000000002D2D002D002D2D2D0000000000
310
00000000000000000000000000000000000000000000000000000000000000000000000000000000000000000000000000000000000000000000000000000000000000000000000000000000000000000000000000000000000000000000000000000000000000000000000000000000000000000000000000000000000000
310
00000000000000000000000000000000000000000000000000000000000000000000000000000000000000000000000000000000DC00000000000000002DA82D0000002D2D2DDCDC00000000DC0000DC0000000000000000000000DC0000002DA800A8A8000000000000000000000000000000002D2D002D0000002D2D0000
310
00000000000000000000000000000000000000000000000000000000000000000000000000000000000000000000000000000000000000000000000000000000000000000000000000000000000000000000000000000000000000000000000000000000000000000000000000000000000000000000000000000000000000
310
000000000000000000000000000000000000000000000000000000000000000000000000000000000000000000000000000000000000DC00000000000000002DA82D2D2D2DDC2D2D0000DC000000DC0000DC0000000000000000000000DCDCDCDCDCDCA8A8A8000000000000000000000000000000002D2D002D000000002D
310
00000000000000000000000000000000000000000000000000000000000000000000000000000000000000000000000000000000000000000000000000000000000000000000000000000000000000000000000000000000000000000000000000000000000000000000000000000000000000000000000000000000000000
310
0000000000000000000000000000000000000000000000000000000000000000000000000000000000000000000000000000000000000000DC00000000000000002DA8002D2D2DDC2DDCDCDCDCDCDCDCDC0000DC0000000000000000000000000000002DA8A8A8A8000000000000000000000000000000002D2D002D000000
310
002D0000000000000000000000000000000000000000000000000000000000000000000000000000000000000000000000000000000000000000000000000000000000000000000000000000000000000000000000000000000000000000000000000000000000000000000000000000000000000000000000000000000000
310
00000000000000000000000000000000000000000000000000000000000000000000000000000000000000000000000000000000000000000000DC00000000000000002DA800DCDCDCDCDCDCDCDCDC28DCDCDC0000DC0000000000000000000000000000002DA800A82D000000000000000000000000000000002D2D002D00
310
0000002D000000000000000000000000000000000000000000000000000000000000000000000000000000000000000000000000000000000000000000000000000000000000000000000000000000000000000000000000000000000000000000000000000000000000000000000000000000000000000000000000000000
310
000000000000000000000000000000000000000000000000000000000000000000000000000000000000000000000000000000000000000000000000DC00000000000000002DA80000DCDCDCA8DCDC0000282800DC0000DC0000000000000000000000000000002DA800A82D000000000000000000000000000000002D2D00
310
2D000000002D00000000000000000000000000000000000000000000000000000000000000000000000000000000000000000000000000000000000000000000000000000000000000000000000000000000000000000000000000000000000000000000000000000000000000000000000000000000000000000000000000
310
0000000000000000000000000000000000000000000000000000000000000000000000000000000000000000000000000000000000000000000000000000DC00000000000000002DA80000000000A82D000000282800DCDC00DC0000000000000000000000000000002DA800A82D000000000000000000000000000000002D
310
2D002D000000002D0000000000000000000000000000000000000000000000000000000000000000000000000000000000000000000000000000000000000000000000000000000000000000000000000000000000000000000000000000000000000000000000000000000000000000000000000000000000000000000000
310
00000000000000000000000000000000000000000000000000000000000000000000000000000000000000000000000000000000000000000000000000000000DC00000000000000002DA80000000000A82D000000000000DC00DCDC0000002828282828282828000000002DA800A82D000000000000000000000000000000
310
002D2D002D000000002D000000000000000000000000000000000000000000000000000000000000000000000000000000000000000000000000000000000000000000000000000000000000000000000000000000000000000000000000000000000000000000000000000000000000000000000000000000000000000000
310
000000000000000000000000000000000000000000000000000000000000000000000000000000000000000000000000000000000000000000000000000000000000DC00000000000000002DA80000000000A82D000000000000DC0000DCDCDCDC2828282828282828000000002DA800A82D00000000000000000000000000
310
0000002D2D002D002D2D002D00000000000000000000000000000000000000000000000000000000000000000000000000000000000000000000000000000000000000000000000000000000000000000000000000000000000000000000000000000000000000000000000000000000000000000000000000000000000000
310
0000000000000000000000000000000000000000000000000000000000000000000000000000000000000000000000000000000000000000000000000000000000000000DC00000000000000002DA80000000000A82D000000282828DC0000DC0028282828282828282828282800002DA800A82D0000000000000000000000
310
00000000002D2D002D2D2D2D2D2D0000000000000000000000000000000000000000000000000000000000000000000000000000000000000000000000000000000000000000000000000000000000000000000000000000000000000000000000000000000000000000000000000000000000000000000000000000000000
310
00000000000000000000000000000000000000000000000000000000000000000000000000000000000000000000000000000000000000000000000000000000000000000000DC00000000000000002DA80000000000A82D000000282828DC0000DC0028282828282828282828282800002DA800A82D000000000000000000
310
00000000000000002D002D2D2D2D2D2D000000000000000000000000000000000000000000000000000000000000000000000000000000000000000000000000000000000000000000000000000000000000000000000000000000000000000000000000000000000000000000000000000000000000000000000000000000
310
000000000000000000000000000000000000000000000000000000000000000000000000000000000000000000000000000000000000000000000000000000000000000000000000DC00000000000000002DA80000000000A82D000000282828DC0000DC0000000000000000000000000000002DA800A82D00000000000000
310
0000000000000000002D2D002D002D2D2D2D00000000000000000000000000000000000000000000000000000000000000000000000000000000000000000000000000000000000000000000000000000000000000000000000000000000000000000000000000000000000000000000000000000000000000000000000000
310
0000000000000000000000000000000000000000000000000000000000000000000000000000000000000000000000000000000000000000000000000000000000000000000000000000DC00000000000000002DA80000000000A82D000000282828DC0000DC0000000000000000000000000000002DA800A82D0000000000
310
00000000000000000000002D2D2D2D00002D2D2D0000000000000000000000000000000000000000000000000000000000000000000000000000000000000000000000000000000000000000000000000000000000000000000000000000000000000000000000000000000000000000000000000000000000000000000000
310
00000000000000000000000000000000000000000000000000000000000000000000000000000000000000000000000000000000000000000000000000000000000000000000000000000000DC00000000000000002DA8002DBE2D00A82D000000000000DC0000DC0000000000000000000000000000002DA800A82D000000
310
00000000000000000000000000002D2D2D2D2D00002D000000000000000000000000000000000000000000000000000000000000000000000000000000000000000000000000000000000000000000000000000000000000000000000000000000000000000000000000000000000000000000000000000000000000000000
310
0000000000000000000000000000000000000000000000000000000000000000000000000000000000000000000000000000000000000000000000000000000000000000000000000000000000DCDC0000000000000000A8A82D2DBE2D2DA82D000000000000DC0000DC000000000000000000000000000000A8A800A8A800
310
0000000000000000000000000000000000002D2D2D2D2D2D00000000000000000000000000000000000000000000000000000000000000000000000000000000000000000000000000000000000000000000000000000000000000000000000000000000000000000000000000000000000000000000000000000000000000
310
00000000000000000000000000000000000000000000000000000000000000000000000000000000000000000000000000000000000000000000000000000000000000000000000000000000000000DCDCDCDCDCDCDCDCDCDCDC2DBEBEBEBEBEA82D000000000000DC0000DC0000000000000000000000000000BEBEBEBEBE
310
BEBE00000000000000000000000000000000000000002D2D2D2D0000000000000000000000000000000000000000000000000000000000000000000000000000000000000000000000000000000000000000000000000000000000000000000000000000000000000000000000000000000000000000000000000000000000
310
00000000000000000000000000000000000000000000000000000000000000000000000000000000000000000000000000000000000000000000000000000000000000000000000000000000000000282828DC0000000000000000A8A8A82DBE2D2DA82D000000000000DC0000DC000000000000000000000000000000A8A8
310
A8A82D000000000000000000000000000000000000000000002D2D00000000000000000000000000000000000000000000000000000000000000000000000000000000000000000000000000000000000000000000000000000000000000000000000000000000000000000000000000000000000000000000000000000000
310
000000000000000000000000000000000000000000000000000000000000000000000000000000000000000000000000000000000000000000000000000000000000000000000000000000000000000000282828DC00000000000000002DA8002DBE2D00A82D000000000000DC0000DC000000000000000000000000000000
310
2DA800DCA80000000000000000000000000000000000000000000000000000000000000000000000000000000000000000000000000000000000000000000000000000000000000000000000000000000000000000000000000000000000000000000000000000000000000000000000000000000000000000000000000000
310
0000000000000000000000000000000000000000000000000000000000000000000000000000000000000000000000000000000000000000000000000000000000000000000000000000000000000000000000282828DC00000000000000002DA8A8A8BEA8A8A82D000000000000DC0000DCDC000000000000000000000000
310
00002DA8DCA82D000000000000000000000000000000000000000000000000000000000000000000000000000000000000000000000000000000000000000000000000000000000000000000000000000000000000000000000000000000000000000000000000000000000000000000000000000000000000000000000000
310
00000000000000000000000000000000000000000000000000000000000000000000000000000000000000000000000000000000000000000000000000000000000000000000000000000000000000000000000000000000DC00000000000000002DA80000000000A82D000000000000DC0000DCDC00000000000000000000
310
000000DCDCDC2DA82D00000000000000000000000000000000000000000000000000000000000000000000000000000000000000000000000000000000000000000000000000000000000000000000000000000000000000000000000000000000000000000000000000000000000000000000000000000000000000000000
310
0000000000000000000000000000000000000000000000000000000000000000000000000000000000000000000000000000000000000000000000000000000000000000000000000000000000000000000000000000000000DC2DDCDCDCDCDCDCDCDCDC2D2D2D2D2D2DDCDCDCDCDCDCDCDCDCDCDCDCDC0000000000000000
310
000000000000DC002DA82D0000000000000000000000000000000000000000000000000000000000000000000000000000000000000000000000000000000000000000000000000000000000000000000000000000000000000000000000000000000000000000000000000000000000000000000000000000000000000000
310
00000000000000000000000000000000000000000000000000000000000000000000000000000000000000000000000000000000000000000000000000000000000000000000000000000000000000000000000000000000000000000000000000000000000000000000000000000000000000000000000000000000000000
310
000000000000DCDC0000000000000000000000000000000000000000000000000000000000000000000000000000000000000000000000000000000000000000000000000000000000000000000000000000000000000000000000000000000000000000000000000000000000000000000000000000000000000000000000
310
00000000000000000000000000000000000000000000000000000000000000000000000000000000000000000000000000000000000000000000000000000000000000000000000000000000000000000000000000000000000000000000000000000000000000000000000000000000000000000000000000000000000000
310
00000000000028282800000000000000000000000000000000000000000000000000000000000000000000000000000000000000000000000000000000000000000000000000000000000000000000000000000000000000000000000000000000000000000000000000000000000000000000000000000000000000000000
310
00000000000000000000000000000000000000000000000000000000000000000000000000000000000000000000000000000000000000000000000000000000000000000000000000000000000000000000000000000000000000000000000000000000000000000000000000000000000000000000000000000000000000
310
0000000000000000DC28282800000000000000000000000000000000000000000000000000000000000000000000000000000000000000000000000000000000000000000000000000000000000000000000000000000000000000000000000000000000000000000000000000000000000000000000000000000000000000
310
00000000000000000000000000000000000000000000000000000000000000000000000000000000000000000000000000000000000000000000000000000000000000000000000000000000000000000000000000000000000000000000000000000000000000000000000000000000000000000000000000000000000000
310
00000000000000000000000000000000000000000000000000000000000000000000000000000000000000000000000000000000000000000000000000000000000000000000000000000000000000000000000000000000000000000000000000000000000000000000000000000000000000000000000000000000000000
310
00000000000000000000000000000000000000000000000000000000000000000000000000000000000000000000000000000000000000000000000000000000000000000000000000000000000000000000000000000000000000000000000000000000000000000000000000000000000000000000000000000000000000
310
00000000000000000000000000000000000000000000000000000000000000000000000000000000000000000000000000000000000000000000000000000000000000000000000000000000000000000000000000000000000000000000000000000000000000000000000000000000000000000000000000000000000000
310
0000000000
  0
XRECORD
  5
32C
102
{ACAD_REACTORS
330
46
102
}
330
46
100
AcDbXrecord
280
     1
102
MATERIAL
148
0.0
149
0.0
149
0.0
 93
        0
 94
      127
282
     0
 72
     0
 77
     0
171
     0
175
     0
179
     0
273
     0
  0
XRECORD
  5
47
102
{ACAD_REACTORS
330
46
102
}
330
46
100
AcDbXrecord
280
     1
270
     1
271
     1
  0
XRECORD
  5
48
102
{ACAD_REACTORS
330
46
102
}
330
46
100
AcDbXrecord
280
     1
270
     1
271
     1
  0
XRECORD
  5
49
102
{ACAD_REACTORS
330
46
102
}
330
46
100
AcDbXrecord
280
     1
270
     1
271
     1
  0
XRECORD
  5
4A
102
{ACAD_REACTORS
330
46
102
}
330
46
100
AcDbXrecord
280
     1
270
     1
271
     1
  0
XRECORD
  5
4B
102
{ACAD_REACTORS
330
46
102
}
330
46
100
AcDbXrecord
280
     1
270
     1
271
     1
  0
XRECORD
  5
4C
102
{ACAD_REACTORS
330
46
102
}
330
46
100
AcDbXrecord
280
     1
270
     1
271
     1
  0
XRECORD
  5
32B
102
{ACAD_REACTORS
330
3E
102
}
330
3E
100
AcDbXrecord
280
     1
102
MATERIAL
148
0.0
149
0.0
149
0.0
 93
        0
 94
      127
282
     0
 72
     0
 77
     0
171
     0
175
     0
179
     0
273
     0
  0
XRECORD
  5
3F
102
{ACAD_REACTORS
330
3E
102
}
330
3E
100
AcDbXrecord
280
     1
270
     1
271
     1
  0
XRECORD
  5
40
102
{ACAD_REACTORS
330
3E
102
}
330
3E
100
AcDbXrecord
280
     1
270
     1
271
     1
  0
XRECORD
  5
41
102
{ACAD_REACTORS
330
3E
102
}
330
3E
100
AcDbXrecord
280
     1
270
     1
271
     1
  0
XRECORD
  5
42
102
{ACAD_REACTORS
330
3E
102
}
330
3E
100
AcDbXrecord
280
     1
270
     1
271
     1
  0
XRECORD
  5
43
102
{ACAD_REACTORS
330
3E
102
}
330
3E
100
AcDbXrecord
280
     1
270
     1
271
     1
  0
XRECORD
  5
44
102
{ACAD_REACTORS
330
3E
102
}
330
3E
100
AcDbXrecord
280
     1
270
     1
271
     1
  0
XRECORD
  5
325
102
{ACAD_REACTORS
330
E
102
}
330
E
100
AcDbXrecord
280
     1
102
MATERIAL
148
0.0
149
0.0
149
0.0
 93
        0
 94
      127
282
     0
 72
     0
 77
     0
171
     0
175
     0
179
     0
273
     0
  0
XRECORD
  5
F
102
{ACAD_REACTORS
330
E
102
}
330
E
100
AcDbXrecord
280
     1
270
     1
271
     1
  0
XRECORD
  5
10
102
{ACAD_REACTORS
330
E
102
}
330
E
100
AcDbXrecord
280
     1
270
     1
271
     1
  0
XRECORD
  5
11
102
{ACAD_REACTORS
330
E
102
}
330
E
100
AcDbXrecord
280
     1
270
     1
271
     1
  0
XRECORD
  5
12
102
{ACAD_REACTORS
330
E
102
}
330
E
100
AcDbXrecord
280
     1
270
     1
271
     1
  0
XRECORD
  5
13
102
{ACAD_REACTORS
330
E
102
}
330
E
100
AcDbXrecord
280
     1
270
     1
271
     1
  0
XRECORD
  5
14
102
{ACAD_REACTORS
330
E
102
}
330
E
100
AcDbXrecord
280
     1
270
     1
271
     1
  0
XRECORD
  5
337
102
{ACAD_REACTORS
330
336
102
}
330
336
100
AcDbXrecord
280
     1
102
DISPLAYNAME
  1
Metric50
102
FLAGS
 90
        0
  0
CELLSTYLEMAP
  5
31A
102
{ACAD_REACTORS
330
57
102
}
330
57
100
AcDbCellStyleMap
 90
        3
300
CELLSTYLE
  1
TABLEFORMAT_BEGIN
 90
        5
170
     1
 91
        0
 92
    32768
 62
   257
 93
        1
300
CONTENTFORMAT
  1
CONTENTFORMAT_BEGIN
 90
        0
 91
        0
 92
      512
 93
        0
300

 40
0.0
140
1.0
 94
        5
 62
     0
340
26
144
6.0
309
CONTENTFORMAT_END
171
     1
301
MARGIN
  1
CELLMARGIN_BEGIN
 40
1.5
 40
1.5
 40
1.5
 40
1.5
 40
4.5
 40
4.5
309
CELLMARGIN_END
 94
        6
 95
        1
302
GRIDFORMAT
  1
GRIDFORMAT_BEGIN
 90
        0
 91
        1
 62
     0
 92
       -2
340
0
 93
        0
 40
1.125
309
GRIDFORMAT_END
 95
        2
302
GRIDFORMAT
  1
GRIDFORMAT_BEGIN
 90
        0
 91
        1
 62
     0
 92
       -2
340
0
 93
        0
 40
1.125
309
GRIDFORMAT_END
 95
        4
302
GRIDFORMAT
  1
GRIDFORMAT_BEGIN
 90
        0
 91
        1
 62
     0
 92
       -2
340
0
 93
        0
 40
1.125
309
GRIDFORMAT_END
 95
        8
302
GRIDFORMAT
  1
GRIDFORMAT_BEGIN
 90
        0
 91
        1
 62
     0
 92
       -2
340
0
 93
        0
 40
1.125
309
GRIDFORMAT_END
 95
       16
302
GRIDFORMAT
  1
GRIDFORMAT_BEGIN
 90
        0
 91
        1
 62
     0
 92
       -2
340
0
 93
        0
 40
1.125
309
GRIDFORMAT_END
 95
       32
302
GRIDFORMAT
  1
GRIDFORMAT_BEGIN
 90
        0
 91
        1
 62
     0
 92
       -2
340
0
 93
        0
 40
1.125
309
GRIDFORMAT_END
309
TABLEFORMAT_END
  1
CELLSTYLE_BEGIN
 90
        1
 91
        1
300
_TITLE
309
CELLSTYLE_END
300
CELLSTYLE
  1
TABLEFORMAT_BEGIN
 90
        5
170
     1
 91
        0
 92
        0
 62
   257
 93
        1
300
CONTENTFORMAT
  1
CONTENTFORMAT_BEGIN
 90
        0
 91
        0
 92
      512
 93
        0
300

 40
0.0
140
1.0
 94
        5
 62
     0
340
26
144
4.5
309
CONTENTFORMAT_END
171
     1
301
MARGIN
  1
CELLMARGIN_BEGIN
 40
1.5
 40
1.5
 40
1.5
 40
1.5
 40
4.5
 40
4.5
309
CELLMARGIN_END
 94
        6
 95
        1
302
GRIDFORMAT
  1
GRIDFORMAT_BEGIN
 90
        0
 91
        1
 62
     0
 92
       -2
340
0
 93
        0
 40
1.125
309
GRIDFORMAT_END
 95
        2
302
GRIDFORMAT
  1
GRIDFORMAT_BEGIN
 90
        0
 91
        1
 62
     0
 92
       -2
340
0
 93
        0
 40
1.125
309
GRIDFORMAT_END
 95
        4
302
GRIDFORMAT
  1
GRIDFORMAT_BEGIN
 90
        0
 91
        1
 62
     0
 92
       -2
340
0
 93
        0
 40
1.125
309
GRIDFORMAT_END
 95
        8
302
GRIDFORMAT
  1
GRIDFORMAT_BEGIN
 90
        0
 91
        1
 62
     0
 92
       -2
340
0
 93
        0
 40
1.125
309
GRIDFORMAT_END
 95
       16
302
GRIDFORMAT
  1
GRIDFORMAT_BEGIN
 90
        0
 91
        1
 62
     0
 92
       -2
340
0
 93
        0
 40
1.125
309
GRIDFORMAT_END
 95
       32
302
GRIDFORMAT
  1
GRIDFORMAT_BEGIN
 90
        0
 91
        1
 62
     0
 92
       -2
340
0
 93
        0
 40
1.125
309
GRIDFORMAT_END
309
TABLEFORMAT_END
  1
CELLSTYLE_BEGIN
 90
        2
 91
        1
300
_HEADER
309
CELLSTYLE_END
300
CELLSTYLE
  1
TABLEFORMAT_BEGIN
 90
        5
170
     1
 91
        0
 92
        0
 62
   257
 93
        1
300
CONTENTFORMAT
  1
CONTENTFORMAT_BEGIN
 90
        0
 91
        0
 92
      512
 93
        0
300

 40
0.0
140
1.0
 94
        2
 62
     0
340
26
144
4.5
309
CONTENTFORMAT_END
171
     1
301
MARGIN
  1
CELLMARGIN_BEGIN
 40
1.5
 40
1.5
 40
1.5
 40
1.5
 40
4.5
 40
4.5
309
CELLMARGIN_END
 94
        6
 95
        1
302
GRIDFORMAT
  1
GRIDFORMAT_BEGIN
 90
        0
 91
        1
 62
     0
 92
       -2
340
0
 93
        0
 40
1.125
309
GRIDFORMAT_END
 95
        2
302
GRIDFORMAT
  1
GRIDFORMAT_BEGIN
 90
        0
 91
        1
 62
     0
 92
       -2
340
0
 93
        0
 40
1.125
309
GRIDFORMAT_END
 95
        4
302
GRIDFORMAT
  1
GRIDFORMAT_BEGIN
 90
        0
 91
        1
 62
     0
 92
       -2
340
0
 93
        0
 40
1.125
309
GRIDFORMAT_END
 95
        8
302
GRIDFORMAT
  1
GRIDFORMAT_BEGIN
 90
        0
 91
        1
 62
     0
 92
       -2
340
0
 93
        0
 40
1.125
309
GRIDFORMAT_END
 95
       16
302
GRIDFORMAT
  1
GRIDFORMAT_BEGIN
 90
        0
 91
        1
 62
     0
 92
       -2
340
0
 93
        0
 40
1.125
309
GRIDFORMAT_END
 95
       32
302
GRIDFORMAT
  1
GRIDFORMAT_BEGIN
 90
        0
 91
        1
 62
     0
 92
       -2
340
0
 93
        0
 40
1.125
309
GRIDFORMAT_END
309
TABLEFORMAT_END
  1
CELLSTYLE_BEGIN
 90
        3
 91
        2
300
_DATA
309
CELLSTYLE_END
  0
XRECORD
  5
32D
102
{ACAD_REACTORS
330
57
102
}
330
57
100
AcDbXrecord
280
     1
102
ACAD_ROUNDTRIP_PRE2007_TABLESTYLE
 90
      512
 91
        0
  1

 92
      512
 93
        0
  2

 94
      512
 95
        0
  3

  0
XRECORD
  5
32A
102
{ACAD_REACTORS
330
329
102
}
330
329
100
AcDbXrecord
280
     1
102
RTVSPost2010Prop28
280
     1
102
RTVSPost2010PropOp28
 70
     1
102
RTVSPost2010Prop29
280
     1
102
RTVSPost2010PropOp29
 70
     1
102
RTVSPost2010Prop30
280
     0
102
RTVSPost2010PropOp30
 70
     1
102
RTVSPost2010Prop31
280
     0
102
RTVSPost2010PropOp31
 70
     1
102
RTVSPost2010Prop32
280
     0
102
RTVSPost2010PropOp32
 70
     1
102
RTVSPost2010Prop33
280
     0
102
RTVSPost2010PropOp33
 70
     1
102
RTVSPost2010Prop34
280
     0
102
RTVSPost2010PropOp34
 70
     1
102
RTVSPost2010Prop35
280
     0
102
RTVSPost2010PropOp35
 70
     1
102
RTVSPost2010Prop36
280
     0
102
RTVSPost2010PropOp36
 70
     1
102
RTVSPost2010Prop37
 90
       50
102
RTVSPost2010PropOp37
 70
     1
102
RTVSPost2010Prop38
140
0.0
102
RTVSPost2010PropOp38
 70
     1
102
RTVSPost2010Prop39
140
1.0
102
RTVSPost2010PropOp39
 70
     1
102
RTVSPost2010Prop40
 90
        0
102
RTVSPost2010PropOp40
 70
     1
102
RTVSPost2010Prop41ColorIndex
 90
       18
102
RTVSPost2010Prop41ColorRGB
 90
        0
102
RTVSPost2010PropOp41
 70
     1
102
RTVSPost2010Prop42
 90
       50
102
RTVSPost2010PropOp42
 70
     1
102
RTVSPost2010Prop43
 90
        3
102
RTVSPost2010PropOp43
 70
     1
102
RTVSPost2010Prop44ColorIndex
 90
        5
102
RTVSPost2010Prop44ColorRGB
 90
      255
102
RTVSPost2010PropOp44
 70
     1
102
RTVSPost2010Prop45
280
     0
102
RTVSPost2010PropOp45
 70
     1
102
RTVSPost2010Prop46
 90
       50
102
RTVSPost2010PropOp46
 70
     1
102
RTVSPost2010Prop47
 90
       50
102
RTVSPost2010PropOp47
 70
     1
102
RTVSPost2010Prop48
 90
       50
102
RTVSPost2010PropOp48
 70
     1
102
RTVSPost2010Prop49
280
     0
102
RTVSPost2010PropOp49
 70
     1
102
RTVSPost2010Prop50
 90
       50
102
RTVSPost2010PropOp50
 70
     1
102
RTVSPost2010Prop51ColorIndex
 90
      256
102
RTVSPost2010Prop51ColorRGB
 90
-16777216
102
RTVSPost2010PropOp51
 70
     0
102
RTVSPost2010Prop52
140
1.0
102
RTVSPost2010PropOp52
 70
     0
102
RTVSPost2010Prop53
 90
        2
102
RTVSPost2010PropOp53
 70
     1
102
RTVSPost2010Prop54
  1
strokes_ogs.tif
102
RTVSPost2010PropOp54
 70
     1
102
RTVSPost2010Prop55
280
     0
102
RTVSPost2010PropOp55
 70
     1
102
RTVSPost2010Prop56
140
1.0
102
RTVSPost2010PropOp56
 70
     1
102
RTVSPost2010Prop57
140
1.0
102
RTVSPost2010PropOp57
 70
     1
102
RTVSPropertyOp0
 70
     1
102
RTVSPropertyOp1
 70
     1
102
RTVSPropertyOp2
 70
     1
102
RTVSPropertyOp3
 70
     1
102
RTVSPropertyOp4
 70
     1
102
RTVSPropertyOp5
 70
     1
102
RTVSPropertyOp6
 70
     1
102
RTVSPropertyOp7
 70
     1
102
RTVSPropertyOp8
 70
     1
102
RTVSPropertyOp9
 70
     1
102
RTVSPropertyOp10
 70
     1
102
RTVSPropertyOp11
 70
     1
102
RTVSPropertyOp12
 70
     1
102
RTVSPropertyOp13
 70
     1
102
RTVSPropertyOp14
 70
     1
102
RTVSPropertyOp15
 70
     1
102
RTVSPropertyOp16
 70
     1
102
RTVSPropertyOp17
 70
     1
102
RTVSPropertyOp18
 70
     1
102
RTVSPropertyOp19
 70
     1
102
RTVSPropertyOp20
 70
     1
102
RTVSPropertyOp21
 70
     1
102
RTVSPropertyOp22
 70
     1
102
RTVSPropertyOp23
 70
     1
102
RTVSPropertyOp24
 70
     1
102
RTVSPropertyOp25
 70
     1
102
RTVSPropertyOp26
 70
     1
102
RTVSPropertyOp27
 70
     1
102
RTVSPropertyOp28
 70
     1
102
RTVSPropertyOp29
 70
     1
102
RTVSPropertyOp30
 70
     1
102
RTVSPropertyOp31
 70
     1
102
RTVSPropertyOp32
 70
     1
102
RTVSPropertyOp33
 70
     1
102
RTVSPropertyOp34
 70
     1
102
RTVSPropertyOp35
 70
     1
102
RTVSPropertyOp36
 70
     1
102
RTVSPropertyOp37
 70
     1
102
RTVSPropertyOp38
 70
     1
102
RTVSPropertyOp39
 70
     1
102
RTVSPropertyOp40
 70
     1
102
RTVSPropertyOp41
 70
     1
102
RTVSPropertyOp42
 70
     1
102
RTVSPropertyOp43
 70
     1
102
RTVSPropertyOp44
 70
     1
102
RTVSPropertyOp45
 70
     1
102
RTVSPropertyOp46
 70
     1
102
RTVSPropertyOp47
 70
     1
102
RTVSPropertyOp48
 70
     1
102
RTVSPropertyOp49
 70
     1
102
RTVSPropertyOp50
 70
     1
102
RTVSPropertyOp51
 70
     0
102
RTVSPropertyOp52
 70
     0
102
RTVSPropertyOp53
 70
     1
102
RTVSPropertyOp54
 70
     1
102
RTVSPropertyOp55
 70
     1
102
RTVSPropertyOp56
 70
     1
102
RTVSPropertyOp57
 70
     1
102
RTVSPropertyOp58
 70
     1
102
RTVSPropertyOp59
 70
     1
102
RTVSPropertyOp60
 70
     1
102
RTVSPropertyOp61
 70
     1
102
RTVSPropertyOp62
 70
     1
  0
XRECORD
  5
32F
102
{ACAD_REACTORS
330
32E
102
}
330
32E
100
AcDbXrecord
280
     1
102
RTVSPost2010Prop28
280
     0
102
RTVSPost2010PropOp28
 70
     1
102
RTVSPost2010Prop29
280
     1
102
RTVSPost2010PropOp29
 70
     1
102
RTVSPost2010Prop30
280
     1
102
RTVSPost2010PropOp30
 70
     1
102
RTVSPost2010Prop31
280
     0
102
RTVSPost2010PropOp31
 70
     1
102
RTVSPost2010Prop32
280
     0
102
RTVSPost2010PropOp32
 70
     1
102
RTVSPost2010Prop33
280
     0
102
RTVSPost2010PropOp33
 70
     1
102
RTVSPost2010Prop34
280
     0
102
RTVSPost2010PropOp34
 70
     1
102
RTVSPost2010Prop35
280
     0
102
RTVSPost2010PropOp35
 70
     1
102
RTVSPost2010Prop36
280
     0
102
RTVSPost2010PropOp36
 70
     1
102
RTVSPost2010Prop37
 90
       50
102
RTVSPost2010PropOp37
 70
     1
102
RTVSPost2010Prop38
140
0.0
102
RTVSPost2010PropOp38
 70
     1
102
RTVSPost2010Prop39
140
1.0
102
RTVSPost2010PropOp39
 70
     1
102
RTVSPost2010Prop40
 90
        0
102
RTVSPost2010PropOp40
 70
     1
102
RTVSPost2010Prop41ColorIndex
 90
       18
102
RTVSPost2010Prop41ColorRGB
 90
        0
102
RTVSPost2010PropOp41
 70
     1
102
RTVSPost2010Prop42
 90
       50
102
RTVSPost2010PropOp42
 70
     1
102
RTVSPost2010Prop43
 90
        3
102
RTVSPost2010PropOp43
 70
     1
102
RTVSPost2010Prop44ColorIndex
 90
        5
102
RTVSPost2010Prop44ColorRGB
 90
      255
102
RTVSPost2010PropOp44
 70
     1
102
RTVSPost2010Prop45
280
     0
102
RTVSPost2010PropOp45
 70
     1
102
RTVSPost2010Prop46
 90
       50
102
RTVSPost2010PropOp46
 70
     1
102
RTVSPost2010Prop47
 90
       50
102
RTVSPost2010PropOp47
 70
     1
102
RTVSPost2010Prop48
 90
       50
102
RTVSPost2010PropOp48
 70
     1
102
RTVSPost2010Prop49
280
     0
102
RTVSPost2010PropOp49
 70
     1
102
RTVSPost2010Prop50
 90
       50
102
RTVSPost2010PropOp50
 70
     1
102
RTVSPost2010Prop51ColorIndex
 90
      256
102
RTVSPost2010Prop51ColorRGB
 90
-16777216
102
RTVSPost2010PropOp51
 70
     0
102
RTVSPost2010Prop52
140
1.0
102
RTVSPost2010PropOp52
 70
     0
102
RTVSPost2010Prop53
 90
        2
102
RTVSPost2010PropOp53
 70
     1
102
RTVSPost2010Prop54
  1
strokes_ogs.tif
102
RTVSPost2010PropOp54
 70
     1
102
RTVSPost2010Prop55
280
     0
102
RTVSPost2010PropOp55
 70
     1
102
RTVSPost2010Prop56
140
1.0
102
RTVSPost2010PropOp56
 70
     1
102
RTVSPost2010Prop57
140
1.0
102
RTVSPost2010PropOp57
 70
     1
102
RTVSPropertyOp0
 70
     1
102
RTVSPropertyOp1
 70
     1
102
RTVSPropertyOp2
 70
     1
102
RTVSPropertyOp3
 70
     1
102
RTVSPropertyOp4
 70
     1
102
RTVSPropertyOp5
 70
     1
102
RTVSPropertyOp6
 70
     1
102
RTVSPropertyOp7
 70
     1
102
RTVSPropertyOp8
 70
     1
102
RTVSPropertyOp9
 70
     1
102
RTVSPropertyOp10
 70
     1
102
RTVSPropertyOp11
 70
     1
102
RTVSPropertyOp12
 70
     1
102
RTVSPropertyOp13
 70
     1
102
RTVSPropertyOp14
 70
     1
102
RTVSPropertyOp15
 70
     1
102
RTVSPropertyOp16
 70
     1
102
RTVSPropertyOp17
 70
     1
102
RTVSPropertyOp18
 70
     1
102
RTVSPropertyOp19
 70
     1
102
RTVSPropertyOp20
 70
     1
102
RTVSPropertyOp21
 70
     1
102
RTVSPropertyOp22
 70
     1
102
RTVSPropertyOp23
 70
     1
102
RTVSPropertyOp24
 70
     1
102
RTVSPropertyOp25
 70
     1
102
RTVSPropertyOp26
 70
     1
102
RTVSPropertyOp27
 70
     1
102
RTVSPropertyOp28
 70
     1
102
RTVSPropertyOp29
 70
     1
102
RTVSPropertyOp30
 70
     1
102
RTVSPropertyOp31
 70
     1
102
RTVSPropertyOp32
 70
     1
102
RTVSPropertyOp33
 70
     1
102
RTVSPropertyOp34
 70
     1
102
RTVSPropertyOp35
 70
     1
102
RTVSPropertyOp36
 70
     1
102
RTVSPropertyOp37
 70
     1
102
RTVSPropertyOp38
 70
     1
102
RTVSPropertyOp39
 70
     1
102
RTVSPropertyOp40
 70
     1
102
RTVSPropertyOp41
 70
     1
102
RTVSPropertyOp42
 70
     1
102
RTVSPropertyOp43
 70
     1
102
RTVSPropertyOp44
 70
     1
102
RTVSPropertyOp45
 70
     1
102
RTVSPropertyOp46
 70
     1
102
RTVSPropertyOp47
 70
     1
102
RTVSPropertyOp48
 70
     1
102
RTVSPropertyOp49
 70
     1
102
RTVSPropertyOp50
 70
     1
102
RTVSPropertyOp51
 70
     0
102
RTVSPropertyOp52
 70
     0
102
RTVSPropertyOp53
 70
     1
102
RTVSPropertyOp54
 70
     1
102
RTVSPropertyOp55
 70
     1
102
RTVSPropertyOp56
 70
     1
102
RTVSPropertyOp57
 70
     1
102
RTVSPropertyOp58
 70
     1
102
RTVSPropertyOp59
 70
     1
102
RTVSPropertyOp60
 70
     1
102
RTVSPropertyOp61
 70
     1
102
RTVSPropertyOp62
 70
     1
  0
XRECORD
  5
331
102
{ACAD_REACTORS
330
330
102
}
330
330
100
AcDbXrecord
280
     1
102
RTVSPost2010Prop28
280
     0
102
RTVSPost2010PropOp28
 70
     1
102
RTVSPost2010Prop29
280
     1
102
RTVSPost2010PropOp29
 70
     1
102
RTVSPost2010Prop30
280
     1
102
RTVSPost2010PropOp30
 70
     1
102
RTVSPost2010Prop31
280
     0
102
RTVSPost2010PropOp31
 70
     1
102
RTVSPost2010Prop32
280
     0
102
RTVSPost2010PropOp32
 70
     1
102
RTVSPost2010Prop33
280
     0
102
RTVSPost2010PropOp33
 70
     1
102
RTVSPost2010Prop34
280
     0
102
RTVSPost2010PropOp34
 70
     1
102
RTVSPost2010Prop35
280
     0
102
RTVSPost2010PropOp35
 70
     1
102
RTVSPost2010Prop36
280
     0
102
RTVSPost2010PropOp36
 70
     1
102
RTVSPost2010Prop37
 90
       50
102
RTVSPost2010PropOp37
 70
     1
102
RTVSPost2010Prop38
140
0.0
102
RTVSPost2010PropOp38
 70
     1
102
RTVSPost2010Prop39
140
1.0
102
RTVSPost2010PropOp39
 70
     1
102
RTVSPost2010Prop40
 90
        0
102
RTVSPost2010PropOp40
 70
     1
102
RTVSPost2010Prop41ColorIndex
 90
       18
102
RTVSPost2010Prop41ColorRGB
 90
        0
102
RTVSPost2010PropOp41
 70
     1
102
RTVSPost2010Prop42
 90
       50
102
RTVSPost2010PropOp42
 70
     1
102
RTVSPost2010Prop43
 90
        3
102
RTVSPost2010PropOp43
 70
     1
102
RTVSPost2010Prop44ColorIndex
 90
        5
102
RTVSPost2010Prop44ColorRGB
 90
      255
102
RTVSPost2010PropOp44
 70
     1
102
RTVSPost2010Prop45
280
     0
102
RTVSPost2010PropOp45
 70
     1
102
RTVSPost2010Prop46
 90
       50
102
RTVSPost2010PropOp46
 70
     1
102
RTVSPost2010Prop47
 90
       50
102
RTVSPost2010PropOp47
 70
     1
102
RTVSPost2010Prop48
 90
       50
102
RTVSPost2010PropOp48
 70
     1
102
RTVSPost2010Prop49
280
     0
102
RTVSPost2010PropOp49
 70
     1
102
RTVSPost2010Prop50
 90
       50
102
RTVSPost2010PropOp50
 70
     1
102
RTVSPost2010Prop51ColorIndex
 90
      256
102
RTVSPost2010Prop51ColorRGB
 90
-16777216
102
RTVSPost2010PropOp51
 70
     0
102
RTVSPost2010Prop52
140
1.0
102
RTVSPost2010PropOp52
 70
     0
102
RTVSPost2010Prop53
 90
        2
102
RTVSPost2010PropOp53
 70
     1
102
RTVSPost2010Prop54
  1
strokes_ogs.tif
102
RTVSPost2010PropOp54
 70
     1
102
RTVSPost2010Prop55
280
     0
102
RTVSPost2010PropOp55
 70
     1
102
RTVSPost2010Prop56
140
1.0
102
RTVSPost2010PropOp56
 70
     1
102
RTVSPost2010Prop57
140
1.0
102
RTVSPost2010PropOp57
 70
     1
102
RTVSPropertyOp0
 70
     1
102
RTVSPropertyOp1
 70
     1
102
RTVSPropertyOp2
 70
     1
102
RTVSPropertyOp3
 70
     1
102
RTVSPropertyOp4
 70
     1
102
RTVSPropertyOp5
 70
     1
102
RTVSPropertyOp6
 70
     1
102
RTVSPropertyOp7
 70
     1
102
RTVSPropertyOp8
 70
     1
102
RTVSPropertyOp9
 70
     1
102
RTVSPropertyOp10
 70
     1
102
RTVSPropertyOp11
 70
     1
102
RTVSPropertyOp12
 70
     1
102
RTVSPropertyOp13
 70
     1
102
RTVSPropertyOp14
 70
     1
102
RTVSPropertyOp15
 70
     1
102
RTVSPropertyOp16
 70
     1
102
RTVSPropertyOp17
 70
     1
102
RTVSPropertyOp18
 70
     1
102
RTVSPropertyOp19
 70
     1
102
RTVSPropertyOp20
 70
     1
102
RTVSPropertyOp21
 70
     1
102
RTVSPropertyOp22
 70
     1
102
RTVSPropertyOp23
 70
     1
102
RTVSPropertyOp24
 70
     1
102
RTVSPropertyOp25
 70
     1
102
RTVSPropertyOp26
 70
     1
102
RTVSPropertyOp27
 70
     1
102
RTVSPropertyOp28
 70
     1
102
RTVSPropertyOp29
 70
     1
102
RTVSPropertyOp30
 70
     1
102
RTVSPropertyOp31
 70
     1
102
RTVSPropertyOp32
 70
     1
102
RTVSPropertyOp33
 70
     1
102
RTVSPropertyOp34
 70
     1
102
RTVSPropertyOp35
 70
     1
102
RTVSPropertyOp36
 70
     1
102
RTVSPropertyOp37
 70
     1
102
RTVSPropertyOp38
 70
     1
102
RTVSPropertyOp39
 70
     1
102
RTVSPropertyOp40
 70
     1
102
RTVSPropertyOp41
 70
     1
102
RTVSPropertyOp42
 70
     1
102
RTVSPropertyOp43
 70
     1
102
RTVSPropertyOp44
 70
     1
102
RTVSPropertyOp45
 70
     1
102
RTVSPropertyOp46
 70
     1
102
RTVSPropertyOp47
 70
     1
102
RTVSPropertyOp48
 70
     1
102
RTVSPropertyOp49
 70
     1
102
RTVSPropertyOp50
 70
     1
102
RTVSPropertyOp51
 70
     0
102
RTVSPropertyOp52
 70
     0
102
RTVSPropertyOp53
 70
     1
102
RTVSPropertyOp54
 70
     1
102
RTVSPropertyOp55
 70
     1
102
RTVSPropertyOp56
 70
     1
102
RTVSPropertyOp57
 70
     1
102
RTVSPropertyOp58
 70
     1
102
RTVSPropertyOp59
 70
     1
102
RTVSPropertyOp60
 70
     1
102
RTVSPropertyOp61
 70
     1
102
RTVSPropertyOp62
 70
     1
  0
ENDSEC
  0
EOF
