  0
SECTION
  2
HEADER
  9
$ACADVER
  1
AC1015
  9
$ACADMAINTVER
 70
    20
  9
$DWGCODEPAGE
  3
ANSI_1252
  9
$INSBASE
 10
0.0
 20
0.0
 30
0.0
  9
$EXTMIN
 10
109.7991958607444
 20
167.0852679376087
 30
-0.000000000000013
  9
$EXTMAX
 10
294.5983897133246
 20
451.9516004621419
 30
0.0000000000000176
  9
$LIMMIN
 10
0.0
 20
0.0
  9
$LIMMAX
 10
600.0
 20
700.0
  9
$ORTHOMODE
 70
     1
  9
$REGENMODE
 70
     1
  9
$FILLMODE
 70
     1
  9
$QTEXTMODE
 70
     0
  9
$MIRRTEXT
 70
     1
  9
$LTSCALE
 40
1.0
  9
$ATTMODE
 70
     1
  9
$TEXTSIZE
 40
10.0
  9
$TRACEWID
 40
0.05
  9
$TEXTSTYLE
  7
NORM
  9
$CLAYER
  8
BEMASSUNG
  9
$CELTYPE
  6
BYLAYER
  9
$CECOLOR
 62
   256
  9
$CELTSCALE
 40
1.0
  9
$DISPSILH
 70
     0
  9
$DIMSCALE
 40
1.0
  9
$DIMASZ
 40
4.0
  9
$DIMEXO
 40
0.0
  9
$DIMDLI
 40
8.0
  9
$DIMRND
 40
0.0
  9
$DIMDLE
 40
0.0
  9
$DIMEXE
 40
1.0
  9
$DIMTP
 40
0.0
  9
$DIMTM
 40
0.0
  9
$DIMTXT
 40
4.349999999999998
  9
$DIMCEN
 40
1.5
  9
$DIMTSZ
 40
0.0
  9
$DIMTOL
 70
     0
  9
$DIMLIM
 70
     0
  9
$DIMTIH
 70
     0
  9
$DIMTOH
 70
     0
  9
$DIMSE1
 70
     0
  9
$DIMSE2
 70
     0
  9
$DIMTAD
 70
     1
  9
$DIMZIN
 70
     8
  9
$DIMBLK
  1

  9
$DIMASO
 70
     1
  9
$DIMSHO
 70
     1
  9
$DIMPOST
  1

  9
$DIMAPOST
  1

  9
$DIMALT
 70
     0
  9
$DIMALTD
 70
     2
  9
$DIMALTF
 40
25.39999999999999
  9
$DIMLFAC
 40
1.0
  9
$DIMTOFL
 70
     1
  9
$DIMTVP
 40
0.0
  9
$DIMTIX
 70
     1
  9
$DIMSOXD
 70
     0
  9
$DIMSAH
 70
     0
  9
$DIMBLK1
  1

  9
$DIMBLK2
  1

  9
$DIMSTYLE
  2
Katalog 09
  9
$DIMCLRD
 70
     2
  9
$DIMCLRE
 70
     2
  9
$DIMCLRT
 70
     3
  9
$DIMTFAC
 40
0.4285714285714287
  9
$DIMGAP
 40
1.0
  9
$DIMJUST
 70
     0
  9
$DIMSD1
 70
     0
  9
$DIMSD2
 70
     0
  9
$DIMTOLJ
 70
     1
  9
$DIMTZIN
 70
     8
  9
$DIMALTZ
 70
     8
  9
$DIMALTTZ
 70
     8
  9
$DIMUPT
 70
     0
  9
$DIMDEC
 70
     2
  9
$DIMTDEC
 70
     2
  9
$DIMALTU
 70
     2
  9
$DIMALTTD
 70
     2
  9
$DIMTXSTY
  7
ARIAL-STANDARD
  9
$DIMAUNIT
 70
     0
  9
$DIMADEC
 70
     0
  9
$DIMALTRND
 40
0.0
  9
$DIMAZIN
 70
     0
  9
$DIMDSEP
 70
    46
  9
$DIMATFIT
 70
     3
  9
$DIMFRAC
 70
     0
  9
$DIMLDRBLK
  1

  9
$DIMLUNIT
 70
     2
  9
$DIMLWD
 70
    -2
  9
$DIMLWE
 70
    -2
  9
$DIMTMOVE
 70
     0
  9
$LUNITS
 70
     2
  9
$LUPREC
 70
     2
  9
$SKETCHINC
 40
0.1
  9
$FILLETRAD
 40
0.0
  9
$AUNITS
 70
     0
  9
$AUPREC
 70
     0
  9
$MENU
  1
.
  9
$ELEVATION
 40
0.0
  9
$PELEVATION
 40
0.0
  9
$THICKNESS
 40
0.0
  9
$LIMCHECK
 70
     0
  9
$CHAMFERA
 40
0.5
  9
$CHAMFERB
 40
0.5
  9
$CHAMFERC
 40
1.0
  9
$CHAMFERD
 40
0.0
  9
$SKPOLY
 70
     0
  9
$TDCREATE
 40
2451317.556842628
  9
$TDUCREATE
 40
2451317.515175960
  9
$TDUPDATE
 40
2457084.469179097
  9
$TDUUPDATE
 40
2457084.427512431
  9
$TDINDWG
 40
1.4342192361
  9
$TDUSRTIMER
 40
1.4342192014
  9
$USRTIMER
 70
     1
  9
$ANGBASE
 50
0.0
  9
$ANGDIR
 70
     0
  9
$PDMODE
 70
     0
  9
$PDSIZE
 40
0.0
  9
$PLINEWID
 40
0.0
  9
$SPLFRAME
 70
     0
  9
$SPLINETYPE
 70
     6
  9
$SPLINESEGS
 70
     8
  9
$HANDSEED
  5
2D8
  9
$SURFTAB1
 70
     6
  9
$SURFTAB2
 70
     6
  9
$SURFTYPE
 70
     6
  9
$SURFU
 70
     6
  9
$SURFV
 70
     6
  9
$UCSBASE
  2

  9
$UCSNAME
  2

  9
$UCSORG
 10
0.0
 20
0.0
 30
0.0
  9
$UCSXDIR
 10
1.0
 20
0.0
 30
0.0
  9
$UCSYDIR
 10
0.0
 20
1.0
 30
0.0
  9
$UCSORTHOREF
  2

  9
$UCSORTHOVIEW
 70
     0
  9
$UCSORGTOP
 10
0.0
 20
0.0
 30
0.0
  9
$UCSORGBOTTOM
 10
0.0
 20
0.0
 30
0.0
  9
$UCSORGLEFT
 10
0.0
 20
0.0
 30
0.0
  9
$UCSORGRIGHT
 10
0.0
 20
0.0
 30
0.0
  9
$UCSORGFRONT
 10
0.0
 20
0.0
 30
0.0
  9
$UCSORGBACK
 10
0.0
 20
0.0
 30
0.0
  9
$PUCSBASE
  2

  9
$PUCSNAME
  2

  9
$PUCSORG
 10
0.0
 20
0.0
 30
0.0
  9
$PUCSXDIR
 10
1.0
 20
0.0
 30
0.0
  9
$PUCSYDIR
 10
0.0
 20
1.0
 30
0.0
  9
$PUCSORTHOREF
  2

  9
$PUCSORTHOVIEW
 70
     0
  9
$PUCSORGTOP
 10
0.0
 20
0.0
 30
0.0
  9
$PUCSORGBOTTOM
 10
0.0
 20
0.0
 30
0.0
  9
$PUCSORGLEFT
 10
0.0
 20
0.0
 30
0.0
  9
$PUCSORGRIGHT
 10
0.0
 20
0.0
 30
0.0
  9
$PUCSORGFRONT
 10
0.0
 20
0.0
 30
0.0
  9
$PUCSORGBACK
 10
0.0
 20
0.0
 30
0.0
  9
$USERI1
 70
     0
  9
$USERI2
 70
     0
  9
$USERI3
 70
     0
  9
$USERI4
 70
     0
  9
$USERI5
 70
     0
  9
$USERR1
 40
0.0
  9
$USERR2
 40
0.0
  9
$USERR3
 40
0.0
  9
$USERR4
 40
0.0
  9
$USERR5
 40
0.0
  9
$WORLDVIEW
 70
     1
  9
$SHADEDGE
 70
     3
  9
$SHADEDIF
 70
    70
  9
$TILEMODE
 70
     1
  9
$MAXACTVP
 70
    48
  9
$PINSBASE
 10
0.0
 20
0.0
 30
0.0
  9
$PLIMCHECK
 70
     0
  9
$PEXTMIN
 10
1.000000000000000E+20
 20
1.000000000000000E+20
 30
1.000000000000000E+20
  9
$PEXTMAX
 10
-1.000000000000000E+20
 20
-1.000000000000000E+20
 30
-1.000000000000000E+20
  9
$PLIMMIN
 10
0.0
 20
0.0
  9
$PLIMMAX
 10
12.0
 20
9.0
  9
$UNITMODE
 70
     0
  9
$VISRETAIN
 70
     1
  9
$PLINEGEN
 70
     0
  9
$PSLTSCALE
 70
     1
  9
$TREEDEPTH
 70
  3020
  9
$CMLSTYLE
  2
STANDARD
  9
$CMLJUST
 70
     0
  9
$CMLSCALE
 40
1.0
  9
$PROXYGRAPHICS
 70
     1
  9
$MEASUREMENT
 70
     1
  9
$CELWEIGHT
370
    -1
  9
$ENDCAPS
280
     0
  9
$JOINSTYLE
280
     0
  9
$LWDISPLAY
290
     0
  9
$INSUNITS
 70
     4
  9
$HYPERLINKBASE
  1

  9
$STYLESHEET
  1

  9
$XEDIT
290
     1
  9
$CEPSNTYPE
380
     0
  9
$PSTYLEMODE
290
     1
  9
$FINGERPRINTGUID
  2
{3D3E8646-4222-4211-9296-80BD9C545BD7}
  9
$VERSIONGUID
  2
{25BC517B-260B-443D-BCCD-FE0EFCE38844}
  9
$EXTNAMES
290
     1
  9
$PSVPSCALE
 40
0.0
  9
$OLESTARTUP
290
     0
  0
ENDSEC
  0
SECTION
  2
CLASSES
  0
CLASS
  1
ACDBDICTIONARYWDFLT
  2
AcDbDictionaryWithDefault
  3
ObjectDBX Classes
 90
        0
280
     0
281
     0
  0
CLASS
  1
ACDBPLACEHOLDER
  2
AcDbPlaceHolder
  3
ObjectDBX Classes
 90
        0
280
     0
281
     0
  0
CLASS
  1
LAYOUT
  2
AcDbLayout
  3
ObjectDBX Classes
 90
        0
280
     0
281
     0
  0
CLASS
  1
ACME_DOCUMENT
  2
AcMeDbDoc
  3
AcMeServices
 90
    33792
280
     0
281
     0
  0
CLASS
  1
AMGSETTINGSOBJ
  2
AmgSettingsObj
  3
"AcadM|Product Description: AutoCAD Mechanical|Company: Autodesk, Inc."
 90
     1024
280
     0
281
     0
  0
CLASS
  1
ACMESCOPE
  2
AcMeScope
  3
AcMeServices
 90
     1024
280
     0
281
     0
  0
CLASS
  1
ACMECOMMANDHISTORY
  2
AcMeCommandHistory
  3
AcMeServices
 90
    33792
280
     0
281
     0
  0
CLASS
  1
ACIMSYSVARMAN
  2
AcImSysVarManager
  3
AcMeServices
 90
     1024
280
     0
281
     0
  0
CLASS
  1
ACIMREALSYSVAR
  2
AcImRealSysVar
  3
AcMeServices
 90
    33792
280
     0
281
     0
  0
CLASS
  1
ACIMINTSYSVAR
  2
AcImIntSysVar
  3
AcMeServices
 90
    33792
280
     0
281
     0
  0
CLASS
  1
ACMEDRAWINGMAN
  2
AcMeDrawingMan
  3
AcMeServices
 90
    33792
280
     0
281
     0
  0
CLASS
  1
ACMEVIEW
  2
AcMeView
  3
AcMeServices
 90
    33792
280
     0
281
     0
  0
CLASS
  1
ACDBENTITYCACHE
  2
AcMeEntityCache
  3
AcMeServices
 90
    33792
280
     0
281
     0
  0
CLASS
  1
GSMANAGER
  2
AcMeGSManager
  3
AcMeServices
 90
    33792
280
     1
281
     0
  0
CLASS
  1
AMDTINTERNALREACTOR
  2
AmdtInternalReactor
  3
AcMeServices
 90
    33792
280
     0
281
     0
  0
CLASS
  1
ACMESTATEMGR
  2
AcMeStateMgr
  3
AcMeServices
 90
     1024
280
     0
281
     0
  0
CLASS
  1
ACGREFMASTER
  2
AcGrefMaster
  3
AcAttribServices
 90
     1024
280
     0
281
     0
  0
CLASS
  1
ACME_DATABASE
  2
AcMeDbDatabase
  3
AcMeServices
 90
    33792
280
     0
281
     0
  0
CLASS
  1
ACRFINSADJUSTERMGR
  2
AcRfInsAdjusterMgr
  3
AcMeServices
 90
    33792
280
     0
281
     0
  0
CLASS
  1
ACGREFACADMASTER
  2
AcGrefacadMaster
  3
AcGrefServices
 90
    33792
280
     0
281
     0
  0
CLASS
  1
AMIMASTER
  2
AmiMaster
  3
AmiServices
 90
    33792
280
     0
281
     0
  0
CLASS
  1
ACMDATADICTIONARY
  2
AcmDataDictionary
  3
"AcmSymBB|Product Description: AutoCAD Mechanical|Company: Autodesk, Inc."
 90
    33792
280
     0
281
     0
  0
CLASS
  1
ACMDATAENTRYBLOCK
  2
AcmDataEntryBlock
  3
AcmSymBB|Product Description: AutoCAD Mechanical|Company: Autodesk, Inc.
 90
    33792
280
     0
281
     0
  0
CLASS
  1
ACIMSTRSYSVAR
  2
AcImStrSysVar
  3
AcMeServices
 90
     1024
280
     0
281
     0
  0
CLASS
  1
ACMSTANDARDDIN
  2
AcmStandardDIN
  3
"Amdt_StdImp|Product Description: AutoCAD Mechanical|Company: Autodesk, Inc."
 90
     1024
280
     0
281
     0
  0
CLASS
  1
AMGOBJPROPCFG
  2
AmgObjPropCfg
  3
"AmgLay|Product Description: AutoCAD Mechanical|Company: Autodesk, Inc."
 90
     1024
280
     0
281
     0
  0
CLASS
  1
AMDTEDGESTANDARDDIN
  2
AmdtEdgeStdDIN
  3
"Amdt_StdImp|Product Description: AutoCAD Mechanical|Company: Autodesk, Inc."
 90
    33792
280
     0
281
     0
  0
CLASS
  1
ACMSURFSTANDARDDIN
  2
AcmSurfTextStdDIN
  3
"Amdt_StdImp|Product Description: AutoCAD Mechanical|Company: Autodesk, Inc."
 90
    33792
280
     0
281
     0
  0
CLASS
  1
ACMFCFSTANDARDDIN
  2
AcmFCFStdDIN
  3
"Amdt_StdImp|Product Description: AutoCAD Mechanical|Company: Autodesk, Inc."
 90
    33792
280
     0
281
     0
  0
CLASS
  1
ACMWELDSTANDARDDIN
  2
AcmWeldingStdDIN
  3
"Amdt_StdImp|Product Description: AutoCAD Mechanical|Company: Autodesk, Inc."
 90
     1024
280
     0
281
     0
  0
CLASS
  1
ACMIDSTANDARDDIN
  2
AcmIdStdDIN
  3
"Amdt_StdImp|Product Description: AutoCAD Mechanical|Company: Autodesk, Inc."
 90
    33792
280
     0
281
     0
  0
CLASS
  1
ACMDATUMSTANDARDDIN
  2
AcmDatumStdDIN
  3
"Amdt_StdImp|Product Description: AutoCAD Mechanical|Company: Autodesk, Inc."
 90
     1024
280
     0
281
     0
  0
CLASS
  1
ACMBOMSTANDARDDIN
  2
AcmBOMStdDIN
  3
"Amdt_StdImp|Product Description: AutoCAD Mechanical|Company: Autodesk, Inc."
 90
     1024
280
     0
281
     0
  0
CLASS
  1
ACMDETAILSTANDARDDIN
  2
AmdtDetailSymStdDIN
  3
"Amdt_StdImp|Product Description: AutoCAD Mechanical|Company: Autodesk, Inc."
 90
     1024
280
     0
281
     0
  0
CLASS
  1
ACMSECTIONSTANDARDDIN
  2
AmdtSectionSymStdDIN
  3
"Amdt_StdImp|Product Description: AutoCAD Mechanical|Company: Autodesk, Inc."
 90
     1024
280
     0
281
     0
  0
CLASS
  1
ACMCENTERLINESTANDARDDIN
  2
AmdtCenterLineStdDIN
  3
"Amdt_StdImp|Product Description: AutoCAD Mechanical|Company: Autodesk, Inc."
 90
     1024
280
     0
281
     0
  0
CLASS
  1
ACMNOTESTANDARDDIN
  2
AmdtNoteStdDIN
  3
"Amdt_StdImp|Product Description: AutoCAD Mechanical|Company: Autodesk, Inc."
 90
     1024
280
     0
281
     0
  0
CLASS
  1
ACAMGLAYSTD
  2
AcAmgLayStd
  3
"AmgLay|Product Description: AutoCAD Mechanical|Company: Autodesk, Inc."
 90
     1024
280
     0
281
     0
  0
CLASS
  1
ACAMGDIMSTD
  2
AcAmgDimStd
  3
"AmgDim|Product Description: AutoCAD Mechanical|Company: Autodesk, Inc."
 90
     1024
280
     0
281
     0
  0
CLASS
  1
ACAMGHOLECHARTSTDDIN
  2
AcAmgHoleChartStdDIN
  3
AmgDim|Product Description: AutoCAD Mechanical|Company: Autodesk, Inc.
 90
     1024
280
     0
281
     0
  0
CLASS
  1
ACAMGTITLESTD
  2
AcAmgTitleStd
  3
"AmgTitle|Product Description: AutoCAD Mechanical|Company: Autodesk, Inc."
 90
     1024
280
     0
281
     0
  0
CLASS
  1
ACAMGFILTERDAT
  2
AcAmgFilterDat
  3
"AcadM|Product Description: AutoCAD Mechanical|Company: Autodesk, Inc."
 90
    33792
280
     0
281
     0
  0
CLASS
  1
LAYER_INDEX
  2
AcDbLayerIndex
  3
ObjectDBX Classes
 90
    32768
280
     0
281
     0
  0
CLASS
  1
IDBUFFER
  2
AcDbIdBuffer
  3
ObjectDBX Classes
 90
    32768
280
     0
281
     0
  0
CLASS
  1
DICTIONARYVAR
  2
AcDbDictionaryVar
  3
ObjectDBX Classes
 90
        0
280
     0
281
     0
  0
CLASS
  1
MATERIAL
  2
AcDbMaterial
  3
ObjectDBX Classes
 90
     1153
280
     0
281
     0
  0
CLASS
  1
VISUALSTYLE
  2
AcDbVisualStyle
  3
ObjectDBX Classes
 90
     4095
280
     0
281
     0
  0
CLASS
  1
TABLESTYLE
  2
AcDbTableStyle
  3
ObjectDBX Classes
 90
     4095
280
     0
281
     0
  0
CLASS
  1
SCALE
  2
AcDbScale
  3
ObjectDBX Classes
 90
     1153
280
     0
281
     0
  0
CLASS
  1
MLEADERSTYLE
  2
AcDbMLeaderStyle
  3
ACDB_MLEADERSTYLE_CLASS
 90
    36863
280
     0
281
     0
  0
CLASS
  1
AM_DRAWING_MGR
  2
AcDmDwgMgr
  3
AcMechDwgViewMgmt
 90
    33792
280
     0
281
     0
  0
CLASS
  1
AM_DWG_DOCUMENT
  2
AcDmDwgDocument
  3
AcMechDwgViewMgmt
 90
    33792
280
     0
281
     0
  0
CLASS
  1
AM_DWG_SHEET
  2
AcDmSheet
  3
AcMechDwgViewMgmt
 90
    33792
280
     0
281
     0
  0
CLASS
  1
AM_VIEWDIMPARMAP
  2
AcDmViewDimParMap
  3
AcMechDwgViewMgmt
 90
    33792
280
     0
281
     0
  0
CLASS
  1
AM_DWGMGR_NAME
  2
AcDmDwgMgrName
  3
AcMechDwgViewMgmt
 90
    33792
280
     0
281
     0
  0
CLASS
  1
AMDTMENUSTATEMGR
  2
AmdtMenuStateMgr
  3
McadcomServices
 90
    33792
280
     0
281
     0
  0
CLASS
  1
AMDTMCOMMENUSTATE
  2
AmdtMcomMenuState
  3
McadcomServices
 90
    33792
280
     0
281
     0
  0
CLASS
  1
MAPIAMMOUDLE
  2
MApiAmModule
  3
MApiAmServices
 90
    33792
280
     0
281
     0
  0
CLASS
  1
AMDTADMENUSTATE
  2
AmdtAdMenuState
  3
DesignerServices
 90
    33792
280
     1
281
     0
  0
CLASS
  1
ADAPPL
  2
AcAdAppl
  3
DesignerAssemblies
 90
    33792
280
     0
281
     0
  0
CLASS
  1
DEPMGR
  2
AcAdDepMgr
  3
DesignerAssemblies
 90
    33792
280
     0
281
     0
  0
CLASS
  1
PARAMMGR
  2
AcAdParamMgr
  3
DesignerAssemblies
 90
    33792
280
     0
281
     0
  0
CLASS
  1
PARAMSCOPE
  2
AcAdParamScope
  3
DesignerAssemblies
 90
    33792
280
     0
281
     0
  0
CLASS
  1
NAMEDAPPL
  2
AcAdNamedAppl
  3
DesignerAssemblies
 90
    33792
280
     0
281
     0
  0
CLASS
  1
AMDTDMMENUSTATE
  2
AmdtDmMenuState
  3
AcMechDwgViewMgmt
 90
    33792
280
     1
281
     0
  0
CLASS
  1
AMDTAMMENUSTATE
  2
AmdtAmMenuState
  3
DesignerAssemblies
 90
    33792
280
     0
281
     0
  0
CLASS
  1
ACAMPROJECT
  2
AcAmProject
  3
DesignerAssemblies
 90
    33792
280
     0
281
     0
  0
CLASS
  1
ACAMGRCOMPDEF
  2
AcAmGrCompDef
  3
DesignerAssemblies
 90
    33792
280
     0
281
     0
  0
CLASS
  1
ACCMCONTEXT
  2
AcCmContext
  3
DesignerAssemblies
 90
    33792
280
     0
281
     0
  0
CLASS
  1
ACAMCOMPDEF
  2
AcAmCompDef
  3
DesignerAssemblies
 90
    33792
280
     0
281
     0
  0
CLASS
  1
ACAMCOMPDEFMGR
  2
AcAmCompDefMgr
  3
DesignerAssemblies
 90
    33792
280
     0
281
     0
  0
CLASS
  1
AMCONTEXTMGR
  2
AcAmContextMgr
  3
DesignerAssemblies
 90
    33792
280
     0
281
     0
  0
CLASS
  1
ACAMCONTEXTMODELER
  2
AcAmContextModeler
  3
DesignerAssemblies
 90
    33792
280
     0
281
     0
  0
CLASS
  1
ACRFATTGENMGR
  2
AcRfAttGeneralMgr
  3
AcAttribServices
 90
    33792
280
     0
281
     0
  0
CLASS
  1
ACRFOBJATTMGR
  2
AcRfObjAttGroupMgr
  3
AcAttribServices
 90
    33792
280
     0
281
     0
  0
CLASS
  1
ACRFMCADAPIATTHOLDER
  2
AcRfMCADAPIAttHolder
  3
AcAttribServices
 90
    33792
280
     0
281
     0
  0
CLASS
  1
AMDTSYSATTR
  2
AmdtSystemAttribute
  3
AcAttribServices
 90
    33792
280
     0
281
     0
  0
CLASS
  1
ACMTHREADLINESTANDARDDIN
  2
AmdtThreadLineStdDIN
  3
"Amdt_StdImp|Product Description: AutoCAD Mechanical|Company: Autodesk, Inc."
 90
     1024
280
     0
281
     0
  0
CLASS
  1
ACMTAPERSTANDARDDIN
  2
AcmTaperStdDIN
  3
"Amdt_StdImp|Product Description: AutoCAD Mechanical|Company: Autodesk, Inc."
 90
     1024
280
     0
281
     0
  0
CLASS
  1
ACMANOOTATIONVIEWSTANDARDDIN
  2
AmdtAnViewStdDIN
  3
"Amdt_StdImp|Product Description: AutoCAD Mechanical|Company: Autodesk, Inc."
 90
     1024
280
     0
281
     0
  0
CLASS
  1
CATALOGSTATE
  2
AcAmCatalogState
  3
DesignerAssemblies
 90
    33792
280
     0
281
     0
  0
CLASS
  1
ACAMGRCOMPDEFSET
  2
AcAmGrCompDefSet
  3
DesignerAssemblies
 90
    33792
280
     0
281
     0
  0
CLASS
  1
AMDTBROWSERDBTAB
  2
AmdtBrowserDbTab
  3
McadcomServices
 90
    33792
280
     0
281
     0
  0
CLASS
  1
CBROWSERAPPOBJECT
  2
CBrowserAppObject
  3
McadcomServices
 90
    33792
280
     0
281
     0
  0
CLASS
  1
DM_PLACEHOLDER
  2
AcDmSelsetPlaceholder
  3
McadcomServices
 90
    33792
280
     0
281
     0
  0
CLASS
  1
CAMSSTRUCTBTNSTATE
  2
StructBtnState
  3
DesignerAssemblies
 90
    33792
280
     0
281
     0
  0
CLASS
  1
CELLSTYLEMAP
  2
AcDbCellStyleMap
  3
ObjectDBX Classes
 90
     1152
280
     0
281
     0
  0
CLASS
  1
PLOTSETTINGS
  2
AcDbPlotSettings
  3
ObjectDBX Classes
 90
    32768
280
     0
281
     0
  0
CLASS
  1
AEC_REFEDIT_STATUS_TRACKER
  2
AecDbRefEditStatusTracker
  3
AecArchBase70|Product Desc: Autodesk Architectural Desktop 2007 |Company: Autodesk,Inc. |WEB Address: www.autodesk.com
 90
    32897
280
     1
281
     0
  0
CLASS
  1
NPOCOLLECTION
  2
AcDbImpNonPersistentObjectsCollection
  3
ObjectDBX Classes
 90
    33921
280
     0
281
     0
  0
CLASS
  1
SORTENTSTABLE
  2
AcDbSortentsTable
  3
ObjectDBX Classes
 90
        0
280
     0
281
     0
  0
CLASS
  1
AMDTEDGESTANDARDDIN13715
  2
AmdtEdgeStdDIN13715
  3
"Amdt_StdImp|Product Description: AutoCAD Mechanical|Company: Autodesk, Inc."
 90
     1024
280
     0
281
     0
  0
CLASS
  1
ACMSURFSTANDARDDIN2002
  2
AcmSurfTextStdDIN2002
  3
"Amdt_StdImp|Product Description: AutoCAD Mechanical|Company: Autodesk, Inc."
 90
     1024
280
     0
281
     0
  0
CLASS
  1
AMDTNOTETEMPLATEDB
  2
AmdtNoteTemplateDB
  3
AcmSymBB|Product Description: AutoCAD Mechanical|Company: Autodesk, Inc.
 90
     1024
280
     0
281
     0
  0
CLASS
  1
ACDBSECTIONVIEWSTYLE
  2
AcDbSectionViewStyle
  3
ObjectDBX Classes
 90
     1025
280
     0
281
     0
  0
CLASS
  1
ACDBDETAILVIEWSTYLE
  2
AcDbDetailViewStyle
  3
ObjectDBX Classes
 90
     1025
280
     0
281
     0
  0
CLASS
  1
ACMFCFSTANDARDDIN2008
  2
AcmFCFStdDIN2008
  3
"Amdt_StdImp|Product Description: AutoCAD Mechanical|Company: Autodesk, Inc."
 90
     1024
280
     0
281
     0
  0
CLASS
  1
ACMIDSTANDARDDIN2008
  2
AcmIdStdDIN2008
  3
"Amdt_StdImp|Product Description: AutoCAD Mechanical|Company: Autodesk, Inc."
 90
     1024
280
     0
281
     0
  0
CLASS
  1
ACMSECTIONSTANDARDCUSTOM
  2
AmdtSectionSymStdCustom
  3
"Amdt_StdImp|Product Description: AutoCAD Mechanical|Company: Autodesk, Inc."
 90
     1024
280
     0
281
     0
  0
CLASS
  1
ACMDETAILTANDARDCUSTOM
  2
AmdtDetailSymStdCustom
  3
"Amdt_StdImp|Product Description: AutoCAD Mechanical|Company: Autodesk, Inc."
 90
     1024
280
     0
281
     0
  0
CLASS
  1
FIELD
  2
AcDbField
  3
ObjectDBX Classes
 90
     1152
280
     0
281
     0
  0
CLASS
  1
FIELDLIST
  2
AcDbFieldList
  3
ObjectDBX Classes
 90
     1152
280
     0
281
     0
  0
ENDSEC
  0
SECTION
  2
TABLES
  0
TABLE
  2
VPORT
  5
2C
330
0
100
AcDbSymbolTable
 70
     1
  0
VPORT
  5
2D
330
2C
100
AcDbSymbolTableRecord
100
AcDbViewportTableRecord
  2
*Active
 70
     0
 10
0.0
 20
0.0
 11
1.0
 21
1.0
 12
167.7595462276235
 22
284.8847120517085
 13
0.0
 23
0.0
 14
10.0
 24
10.0
 15
10.0
 25
10.0
 16
0.0
 26
0.0
 36
1.0
 17
0.0
 27
0.0
 37
0.0
 40
464.9206708847467
 41
2.033022861981371
 42
50.0
 43
0.0
 44
0.0
 50
0.0
 51
0.0
 71
     0
 72
  5000
 73
     1
 74
     0
 75
     0
 76
     0
 77
     0
 78
     0
281
     0
 65
     0
110
0.0
120
0.0
130
0.0
111
1.0
121
0.0
131
0.0
112
0.0
122
1.0
132
0.0
 79
     0
146
0.0
1001
ACAD_NAV_VCDISPLAY
1070
     3
  0
ENDTAB
  0
TABLE
  2
LTYPE
  5
27
330
0
100
AcDbSymbolTable
 70
    14
  0
LTYPE
  5
28
330
27
100
AcDbSymbolTableRecord
100
AcDbLinetypeTableRecord
  2
BYBLOCK
 70
     0
  3

 72
    65
 73
     0
 40
0.0
  0
LTYPE
  5
29
330
27
100
AcDbSymbolTableRecord
100
AcDbLinetypeTableRecord
  2
BYLAYER
 70
     0
  3

 72
    65
 73
     0
 40
0.0
  0
LTYPE
  5
16
330
27
100
AcDbSymbolTableRecord
100
AcDbLinetypeTableRecord
  2
CONTINUOUS
 70
     0
  3
Solid line
 72
    65
 73
     0
 40
0.0
  0
LTYPE
  5
8A
330
27
100
AcDbSymbolTableRecord
100
AcDbLinetypeTableRecord
  2
STRICHPUNKT2
 70
     0
  3
Strichpunkt (.5x) _._._._._._._._._._._._._._._
 72
    65
 73
     4
 40
12.7
 49
6.349999999999998
 74
     0
 49
-3.174999999999998
 74
     0
 49
0.0
 74
     0
 49
-3.174999999999998
 74
     0
  0
LTYPE
  5
197
330
27
100
AcDbSymbolTableRecord
100
AcDbLinetypeTableRecord
  2
VERDECKT2
 70
     0
  3
Verdeckt (.5x) _ _ _ _ _ _ _ _ _ _ _ _ _ _ _ _ 
 72
    65
 73
     2
 40
4.762499999999998
 49
3.174999999999998
 74
     0
 49
-1.587499999999999
 74
     0
  0
LTYPE
  5
271
330
27
100
AcDbSymbolTableRecord
100
AcDbLinetypeTableRecord
  2
ACDINWELD
 70
     0
  3
_ _ _ _ _
 72
    65
 73
     2
 40
2.0
 49
2.0
 74
     0
 49
-1.0
 74
     0
  0
LTYPE
  5
275
330
27
100
AcDbSymbolTableRecord
100
AcDbLinetypeTableRecord
  2
ACDINTGB
 70
     0
  3
__ . . __ . .
 72
    65
 73
     6
 40
9.0
 49
4.0
 74
     0
 49
-1.0
 74
     0
 49
1.0
 74
     0
 49
-1.0
 74
     0
 49
1.0
 74
     0
 49
-1.0
 74
     0
  0
LTYPE
  5
273
330
27
100
AcDbSymbolTableRecord
100
AcDbLinetypeTableRecord
  2
ACDINTGL
 70
     0
  3
_ _ _ _ _
 72
    65
 73
     2
 40
3.0
 49
2.0
 74
     0
 49
-1.0
 74
     0
  0
LTYPE
  5
82
330
27
100
AcDbSymbolTableRecord
100
AcDbLinetypeTableRecord
  2
DASHED
 70
     0
  3
Dashed __ __ __ __ __ __ __ __ __ __ __ __ __ _
 72
    65
 73
     2
 40
19.05
 49
12.7
 74
     0
 49
-6.349999999999998
 74
     0
  0
LTYPE
  5
25E
330
27
100
AcDbSymbolTableRecord
100
AcDbLinetypeTableRecord
  2
Amconstr
 70
     0
  3
_______________________
 72
    65
 73
     2
 40
9999.0
 49
9999.0
 74
     0
 49
0.0
 74
     0
  0
LTYPE
  5
261
330
27
100
AcDbSymbolTableRecord
100
AcDbLinetypeTableRecord
  2
Amzigzag
 70
     0
  3
/\/-/\/-/\/-/\/-/\/-/\/
 72
    65
 73
     2
 40
11.0001
 49
0.0001
 74
     4
 75
   135
340
262
 46
0.04
 50
0.0
 44
0.0
 45
0.0
 49
-11.0
 74
     0
  0
LTYPE
  5
25B
330
27
100
AcDbSymbolTableRecord
100
AcDbLinetypeTableRecord
  2
AM_DIN_F_W050
 70
     0
  3
__ __ __ __ __ __ __ __ __ __ __ __ __ __ __
 72
    65
 73
     2
 40
6.25
 49
4.75
 74
     0
 49
-1.5
 74
     0
  0
LTYPE
  5
25C
330
27
100
AcDbSymbolTableRecord
100
AcDbLinetypeTableRecord
  2
AM_DIN_G_W050
 70
     0
  3
____ . ____ . ____ . ____ . ____ . ____ . ____
 72
    65
 73
     4
 40
13.75
 49
9.75
 74
     0
 49
-1.5
 74
     0
 49
1.0
 74
     0
 49
-1.5
 74
     0
  0
LTYPE
  5
25D
330
27
100
AcDbSymbolTableRecord
100
AcDbLinetypeTableRecord
  2
AM_DIN_K_W050
 70
     0
  3
_____ . . _____ . . _____ . . ____ .. ____
 72
    65
 73
     6
 40
16.25
 49
9.75
 74
     0
 49
-1.5
 74
     0
 49
1.0
 74
     0
 49
-1.5
 74
     0
 49
1.0
 74
     0
 49
-1.5
 74
     0
  0
LTYPE
  5
25F
330
27
100
AcDbSymbolTableRecord
100
AcDbLinetypeTableRecord
  2
AM_DIN_G_W050x2
 70
     0
  3
__ . __ . __ . __ . __ . __
 72
    65
 73
     4
 40
6.875
 49
4.75
 74
     0
 49
-0.875
 74
     0
 49
0.375
 74
     0
 49
-0.875
 74
     0
  0
LTYPE
  5
260
330
27
100
AcDbSymbolTableRecord
100
AcDbLinetypeTableRecord
  2
AM_DIN_F_W050x2
 70
     0
  3
 _ _ _ _ _ _ _ _ _ _ _ _
 72
    65
 73
     2
 40
3.125
 49
2.25
 74
     0
 49
-0.875
 74
     0
  0
ENDTAB
  0
TABLE
  2
LAYER
  5
1E
102
{ACAD_XDICTIONARY
360
1F
102
}
330
0
100
AcDbSymbolTable
 70
     8
  0
LAYER
  5
6
102
{ACAD_XDICTIONARY
360
7
102
}
330
1E
100
AcDbSymbolTableRecord
100
AcDbLayerTableRecord
  2
0
 70
     0
 62
     7
  6
CONTINUOUS
370
    -3
390
9
  0
LAYER
  5
9C
102
{ACAD_XDICTIONARY
360
9D
102
}
330
1E
100
AcDbSymbolTableRecord
100
AcDbLayerTableRecord
  2
UMRISS05
 70
     0
 62
     4
  6
CONTINUOUS
370
    -3
390
9
  0
LAYER
  5
52
102
{ACAD_XDICTIONARY
360
53
102
}
330
1E
100
AcDbSymbolTableRecord
100
AcDbLayerTableRecord
  2
BEMASSUNG
 70
     0
 62
     2
  6
CONTINUOUS
370
    -3
390
9
  0
LAYER
  5
87
102
{ACAD_XDICTIONARY
360
88
102
}
330
1E
100
AcDbSymbolTableRecord
100
AcDbLayerTableRecord
  2
ACHSEN
 70
     0
 62
     1
  6
STRICHPUNKT2
370
    -3
390
9
  0
LAYER
  5
194
102
{ACAD_XDICTIONARY
360
195
102
}
330
1E
100
AcDbSymbolTableRecord
100
AcDbLayerTableRecord
  2
AVERDECKTE
 70
     0
 62
    13
  6
VERDECKT2
370
    -3
390
9
  0
LAYER
  5
7A
330
1E
100
AcDbSymbolTableRecord
100
AcDbLayerTableRecord
  2
DEFPOINTS
 70
     0
 62
     7
  6
CONTINUOUS
290
     0
370
    -3
390
9
  0
LAYER
  5
81
330
1E
100
AcDbSymbolTableRecord
100
AcDbLayerTableRecord
  2
Verdeckte Kanten(MSL)
 70
     0
 62
    11
  6
DASHED
370
    35
390
9
  0
LAYER
  5
6D
330
1E
100
AcDbSymbolTableRecord
100
AcDbLayerTableRecord
  2
AM_5
 70
     0
 62
     3
  6
CONTINUOUS
370
    25
390
9
1001
AcAecLayerStandard
1000

1000

  0
ENDTAB
  0
TABLE
  2
STYLE
  5
24
330
0
100
AcDbSymbolTable
 70
     5
  0
STYLE
  5
25
330
24
100
AcDbSymbolTableRecord
100
AcDbTextStyleTableRecord
  2
STANDARD
 70
     0
 40
0.0
 41
1.0
 50
0.0
 71
     0
 42
10.0
  3
txt
  4

  0
STYLE
  5
55
330
24
100
AcDbSymbolTableRecord
100
AcDbTextStyleTableRecord
  2
NORM
 70
     0
 40
0.0
 41
1.0
 50
0.0
 71
     0
 42
10.0
  3
SIMPLEX
  4

  0
STYLE
  5
26F
330
24
100
AcDbSymbolTableRecord
100
AcDbTextStyleTableRecord
  2
ACDINGDT
 70
     0
 40
0.0
 41
1.0
 50
0.0
 71
     0
 42
10.0
  3
amgdt.shx
  4

  0
STYLE
  5
34
330
24
100
AcDbSymbolTableRecord
100
AcDbTextStyleTableRecord
  2
ARIAL-STANDARD
 70
     0
 40
0.0
 41
1.0
 50
0.0
 71
     0
 42
3.5
  3
arial.ttf
  4

1001
ACAD
1000
Arial
1071
       34
  0
STYLE
  5
262
330
24
100
AcDbSymbolTableRecord
100
AcDbTextStyleTableRecord
  2

 70
     1
 40
0.0
 41
1.0
 50
0.0
 71
     0
 42
2.5
  3
ltypeshp.shx
  4

  0
ENDTAB
  0
TABLE
  2
VIEW
  5
2A
330
0
100
AcDbSymbolTable
 70
     0
  0
ENDTAB
  0
TABLE
  2
UCS
  5
2B
330
0
100
AcDbSymbolTable
 70
     0
  0
ENDTAB
  0
TABLE
  2
APPID
  5
31
330
0
100
AcDbSymbolTable
 70
    13
  0
APPID
  5
23
330
31
100
AcDbSymbolTableRecord
100
AcDbRegAppTableRecord
  2
ACAD
 70
     0
  0
APPID
  5
29E
330
31
100
AcDbSymbolTableRecord
100
AcDbRegAppTableRecord
  2
ACAD_DSTYLE_DIMJOGGED_JOGANGLE_SYMBOL
 70
     0
  0
APPID
  5
36
330
31
100
AcDbSymbolTableRecord
100
AcDbRegAppTableRecord
  2
ACAD_DSTYLE_DIMJAG
 70
     0
  0
APPID
  5
35
330
31
100
AcDbSymbolTableRecord
100
AcDbRegAppTableRecord
  2
ACAD_DSTYLE_DIMBREAK
 70
     0
  0
APPID
  5
37
330
31
100
AcDbSymbolTableRecord
100
AcDbRegAppTableRecord
  2
ACAD_DSTYLE_DIMTALN
 70
     0
  0
APPID
  5
7F
330
31
100
AcDbSymbolTableRecord
100
AcDbRegAppTableRecord
  2
ACAD_DSTYLE_DIMINSPECT
 70
     0
  0
APPID
  5
99
330
31
100
AcDbSymbolTableRecord
100
AcDbRegAppTableRecord
  2
ACAD_DSTYLE_DIMRADIAL_EXTENSION
 70
     0
  0
APPID
  5
30
330
31
100
AcDbSymbolTableRecord
100
AcDbRegAppTableRecord
  2
ACAD_NAV_VCDISPLAY
 70
     0
  0
APPID
  5
6E
330
31
100
AcDbSymbolTableRecord
100
AcDbRegAppTableRecord
  2
AcAecLayerStandard
 70
     0
  0
APPID
  5
2AC
330
31
100
AcDbSymbolTableRecord
100
AcDbRegAppTableRecord
  2
ACATTRIBSERVICES
 70
     0
  0
APPID
  5
2D3
330
31
100
AcDbSymbolTableRecord
100
AcDbRegAppTableRecord
  2
ACAD_DSTYLE_DIM_LINETYPE
 70
     0
  0
APPID
  5
2D4
330
31
100
AcDbSymbolTableRecord
100
AcDbRegAppTableRecord
  2
ACAD_DSTYLE_DIM_EXT1_LINETYPE
 70
     0
  0
APPID
  5
2D5
330
31
100
AcDbSymbolTableRecord
100
AcDbRegAppTableRecord
  2
ACAD_DSTYLE_DIM_EXT2_LINETYPE
 70
     0
  0
ENDTAB
  0
TABLE
  2
DIMSTYLE
  5
32
330
0
100
AcDbSymbolTable
 70
     9
100
AcDbDimStyleTable
 71
     1
340
33
  0
DIMSTYLE
105
29D
102
{ACAD_REACTORS
330
26B
102
}
330
32
100
AcDbSymbolTableRecord
100
AcDbDimStyleTableRecord
  2
AM_DIN
 70
     0
  4
"
 41
3.5
 42
1.0
 43
10.0
 44
1.0
 47
0.1
 48
0.1
 73
     0
 74
     0
 77
     1
 78
     8
 79
     2
140
3.5
141
0.0
143
0.0393701
146
0.71
147
1.5
172
     1
176
   256
177
   256
178
     2
271
     2
272
     3
274
     4
283
     0
284
     8
340
25
371
    -1
372
    -1
1001
ACAD_DSTYLE_DIMJOGGED_JOGANGLE_SYMBOL
1070
   384
1040
1.570796326794896
1001
ACAD_DSTYLE_DIM_LINETYPE
1070
   380
1005
28
1001
ACAD_DSTYLE_DIM_EXT1_LINETYPE
1070
   381
1005
28
1001
ACAD_DSTYLE_DIM_EXT2_LINETYPE
1070
   382
1005
28
  0
DIMSTYLE
105
29F
330
32
100
AcDbSymbolTableRecord
100
AcDbDimStyleTableRecord
  2
AM_DIN$3
 70
     0
  4
"
 41
3.5
 42
1.0
 43
10.0
 44
1.0
 47
0.1
 48
0.1
 73
     0
 77
     1
 78
     8
 79
     2
140
3.5
141
0.0
143
0.0393701
146
0.71
147
1.5
176
   256
177
   256
178
     2
271
     2
272
     3
274
     4
283
     0
284
     8
288
     1
289
     0
340
25
371
    -1
372
    -1
1001
ACAD_DSTYLE_DIMJOGGED_JOGANGLE_SYMBOL
1070
   384
1040
1.570796326794896
1001
ACAD_DSTYLE_DIM_LINETYPE
1070
   380
1005
28
1001
ACAD_DSTYLE_DIM_EXT1_LINETYPE
1070
   381
1005
28
1001
ACAD_DSTYLE_DIM_EXT2_LINETYPE
1070
   382
1005
28
  0
DIMSTYLE
105
2A0
330
32
100
AcDbSymbolTableRecord
100
AcDbDimStyleTableRecord
  2
AM_DIN$4
 70
     0
  4
"
 41
3.5
 42
1.0
 43
10.0
 44
1.0
 47
0.1
 48
0.1
 73
     0
 74
     0
 77
     1
 78
     8
 79
     2
140
3.5
141
0.0
143
0.0393701
146
0.71
147
1.5
172
     1
176
   256
177
   256
178
     2
271
     2
272
     3
274
     4
283
     0
284
     8
340
25
371
    -1
372
    -1
1001
ACAD_DSTYLE_DIMJOGGED_JOGANGLE_SYMBOL
1070
   384
1040
1.570796326794896
1001
ACAD_DSTYLE_DIM_LINETYPE
1070
   380
1005
28
1001
ACAD_DSTYLE_DIM_EXT1_LINETYPE
1070
   381
1005
28
1001
ACAD_DSTYLE_DIM_EXT2_LINETYPE
1070
   382
1005
28
  0
DIMSTYLE
105
2A1
330
32
100
AcDbSymbolTableRecord
100
AcDbDimStyleTableRecord
  2
AM_DIN$6
 70
     0
  4
"
 41
3.5
 42
1.0
 43
10.0
 44
1.0
 47
0.1
 48
0.1
 73
     0
 74
     0
 78
     8
 79
     2
140
3.5
141
0.0
143
0.0393701
146
0.71
147
1.5
172
     1
176
   256
177
   256
178
     2
271
     2
272
     3
274
     4
283
     0
284
     8
340
25
371
    -1
372
    -1
1001
ACAD_DSTYLE_DIMJOGGED_JOGANGLE_SYMBOL
1070
   384
1040
1.570796326794896
1001
ACAD_DSTYLE_DIM_LINETYPE
1070
   380
1005
28
1001
ACAD_DSTYLE_DIM_EXT1_LINETYPE
1070
   381
1005
28
1001
ACAD_DSTYLE_DIM_EXT2_LINETYPE
1070
   382
1005
28
  0
DIMSTYLE
105
2A2
330
32
100
AcDbSymbolTableRecord
100
AcDbDimStyleTableRecord
  2
AM_DIN$7
 70
     0
  4
"
 41
3.5
 42
1.0
 43
10.0
 44
1.0
 47
0.1
 48
0.1
 73
     0
 74
     0
 77
     1
 78
     8
 79
     2
140
3.5
141
0.0
143
0.0393701
146
0.71
147
1.5
172
     1
176
   256
177
   256
178
     2
271
     2
272
     3
274
     4
283
     0
284
     8
340
25
371
    -1
372
    -1
1001
ACAD_DSTYLE_DIMJOGGED_JOGANGLE_SYMBOL
1070
   384
1040
1.570796326794896
1001
ACAD_DSTYLE_DIM_LINETYPE
1070
   380
1005
28
1001
ACAD_DSTYLE_DIM_EXT1_LINETYPE
1070
   381
1005
28
1001
ACAD_DSTYLE_DIM_EXT2_LINETYPE
1070
   382
1005
28
  0
DIMSTYLE
105
2A3
330
32
100
AcDbSymbolTableRecord
100
AcDbDimStyleTableRecord
  2
AM_DIN$SF
 70
     0
  4
"
 41
3.5
 42
1.0
 43
10.0
 44
1.0
 47
0.1
 48
0.1
 73
     0
 74
     0
 75
     1
 76
     1
 77
     1
 78
     8
 79
     2
140
3.5
141
0.0
143
0.0393701
146
0.71
147
1.5
172
     1
176
   256
177
   256
178
     2
271
     2
272
     3
274
     4
283
     0
284
     8
340
25
371
    -1
372
    -1
1001
ACAD_DSTYLE_DIMJOGGED_JOGANGLE_SYMBOL
1070
   384
1040
1.570796326794896
1001
ACAD_DSTYLE_DIM_LINETYPE
1070
   380
1005
28
1001
ACAD_DSTYLE_DIM_EXT1_LINETYPE
1070
   381
1005
28
1001
ACAD_DSTYLE_DIM_EXT2_LINETYPE
1070
   382
1005
28
  0
DIMSTYLE
105
2A4
330
32
100
AcDbSymbolTableRecord
100
AcDbDimStyleTableRecord
  2
AM_DIN$SH
 70
     0
  4
"
 41
3.5
 42
1.0
 43
10.0
 44
1.0
 47
0.1
 48
0.1
 73
     0
 74
     0
 75
     1
 76
     1
 77
     1
 78
     8
 79
     2
140
3.5
141
0.0
143
0.0393701
144
2.0
146
0.71
147
1.5
172
     1
173
     1
176
   256
177
   256
178
     2
271
     2
272
     3
274
     4
283
     0
284
     8
340
25
343
2A5
371
    -1
372
    -1
1001
ACAD_DSTYLE_DIMJOGGED_JOGANGLE_SYMBOL
1070
   384
1040
1.570796326794896
1001
ACAD_DSTYLE_DIM_LINETYPE
1070
   380
1005
28
1001
ACAD_DSTYLE_DIM_EXT1_LINETYPE
1070
   381
1005
28
1001
ACAD_DSTYLE_DIM_EXT2_LINETYPE
1070
   382
1005
28
  0
DIMSTYLE
105
33
102
{ACAD_REACTORS
330
184
330
177
330
168
330
158
330
14B
330
13E
330
131
330
120
330
113
330
106
330
F9
330
EC
330
DF
330
D2
330
C2
330
B5
330
A2
330
8F
102
}
330
32
100
AcDbSymbolTableRecord
100
AcDbDimStyleTableRecord
  2
Katalog 09
 70
     0
 41
4.0
 42
0.0
 43
8.0
 44
1.0
 73
     0
 74
     0
 77
     1
 78
     8
140
4.349999999999998
141
1.5
143
25.39999999999999
146
0.4285714285714287
147
1.0
172
     1
174
     1
176
     2
177
     2
178
     3
271
     2
272
     2
284
     8
285
     8
286
     8
340
34
1001
ACAD_DSTYLE_DIMBREAK
1070
   391
1040
3.75
1001
ACAD_DSTYLE_DIMJAG
1070
   388
1040
1.5
1001
ACAD_DSTYLE_DIMTALN
1070
   392
1070
     0
  0
DIMSTYLE
105
7E
102
{ACAD_REACTORS
330
6C
102
}
330
32
100
AcDbSymbolTableRecord
100
AcDbDimStyleTableRecord
  2
Katalog 09$0
 70
     0
 41
4.0
 42
0.0
 43
8.0
 44
1.0
 73
     0
 74
     0
 77
     1
 78
     8
140
4.349999999999998
141
1.5
143
25.39999999999999
146
0.4285714285714287
147
1.0
172
     1
174
     1
176
     2
177
     2
178
     3
271
     2
272
     2
284
     8
285
     8
286
     8
340
34
1001
ACAD_DSTYLE_DIMBREAK
1070
   391
1040
3.75
1001
ACAD_DSTYLE_DIMJAG
1070
   388
1040
1.5
  0
ENDTAB
  0
TABLE
  2
BLOCK_RECORD
  5
1
330
0
100
AcDbSymbolTable
 70
    21
  0
BLOCK_RECORD
  5
2
102
{ACAD_XDICTIONARY
360
3
102
}
330
1
100
AcDbSymbolTableRecord
100
AcDbBlockTableRecord
  2
*MODEL_SPACE
340
18
  0
BLOCK_RECORD
  5
1A
330
1
100
AcDbSymbolTableRecord
100
AcDbBlockTableRecord
  2
*PAPER_SPACE
340
1D
  0
BLOCK_RECORD
  5
2A5
330
1
100
AcDbSymbolTableRecord
100
AcDbBlockTableRecord
  2
GENAXEH
340
0
  0
BLOCK_RECORD
  5
185
330
1
100
AcDbSymbolTableRecord
100
AcDbBlockTableRecord
  2
*D1
340
0
  0
BLOCK_RECORD
  5
178
330
1
100
AcDbSymbolTableRecord
100
AcDbBlockTableRecord
  2
*D2
340
0
  0
BLOCK_RECORD
  5
169
330
1
100
AcDbSymbolTableRecord
100
AcDbBlockTableRecord
  2
*D3
340
0
  0
BLOCK_RECORD
  5
159
330
1
100
AcDbSymbolTableRecord
100
AcDbBlockTableRecord
  2
*D4
340
0
  0
BLOCK_RECORD
  5
14C
330
1
100
AcDbSymbolTableRecord
100
AcDbBlockTableRecord
  2
*D5
340
0
  0
BLOCK_RECORD
  5
13F
330
1
100
AcDbSymbolTableRecord
100
AcDbBlockTableRecord
  2
*D6
340
0
  0
BLOCK_RECORD
  5
132
330
1
100
AcDbSymbolTableRecord
100
AcDbBlockTableRecord
  2
*D7
340
0
  0
BLOCK_RECORD
  5
121
330
1
100
AcDbSymbolTableRecord
100
AcDbBlockTableRecord
  2
*D8
340
0
  0
BLOCK_RECORD
  5
114
330
1
100
AcDbSymbolTableRecord
100
AcDbBlockTableRecord
  2
*D9
340
0
  0
BLOCK_RECORD
  5
107
330
1
100
AcDbSymbolTableRecord
100
AcDbBlockTableRecord
  2
*D10
340
0
  0
BLOCK_RECORD
  5
FA
330
1
100
AcDbSymbolTableRecord
100
AcDbBlockTableRecord
  2
*D11
340
0
  0
BLOCK_RECORD
  5
ED
330
1
100
AcDbSymbolTableRecord
100
AcDbBlockTableRecord
  2
*D12
340
0
  0
BLOCK_RECORD
  5
E0
330
1
100
AcDbSymbolTableRecord
100
AcDbBlockTableRecord
  2
*D13
340
0
  0
BLOCK_RECORD
  5
D3
330
1
100
AcDbSymbolTableRecord
100
AcDbBlockTableRecord
  2
*D14
340
0
  0
BLOCK_RECORD
  5
C3
330
1
100
AcDbSymbolTableRecord
100
AcDbBlockTableRecord
  2
*D15
340
0
  0
BLOCK_RECORD
  5
B6
330
1
100
AcDbSymbolTableRecord
100
AcDbBlockTableRecord
  2
*D16
340
0
  0
BLOCK_RECORD
  5
A3
330
1
100
AcDbSymbolTableRecord
100
AcDbBlockTableRecord
  2
*D17
340
0
  0
BLOCK_RECORD
  5
90
330
1
100
AcDbSymbolTableRecord
100
AcDbBlockTableRecord
  2
*D18
340
0
  0
BLOCK_RECORD
  5
289
330
1
100
AcDbSymbolTableRecord
100
AcDbBlockTableRecord
  2
_ACMFILLED30
340
0
  0
BLOCK_RECORD
  5
6F
330
1
100
AcDbSymbolTableRecord
100
AcDbBlockTableRecord
  2
*D20
340
0
  0
ENDTAB
  0
ENDSEC
  0
SECTION
  2
BLOCKS
  0
BLOCK
  5
5
330
2
100
AcDbEntity
  8
0
100
AcDbBlockBegin
  2
*MODEL_SPACE
 70
     0
 10
0.0
 20
0.0
 30
0.0
  3
*MODEL_SPACE
  1

  0
ENDBLK
  5
17
330
2
100
AcDbEntity
  8
0
100
AcDbBlockEnd
  0
BLOCK
  5
1B
330
1A
100
AcDbEntity
 67
     1
  8
0
100
AcDbBlockBegin
  2
*PAPER_SPACE
 70
     0
 10
0.0
 20
0.0
 30
0.0
  3
*PAPER_SPACE
  1

  0
ENDBLK
  5
1C
330
1A
100
AcDbEntity
 67
     1
  8
0
100
AcDbBlockEnd
  0
BLOCK
  5
2A6
330
2A5
100
AcDbEntity
  8
0
100
AcDbBlockBegin
  2
GENAXEH
 70
     0
 10
0.0
 20
0.0
 30
0.0
  3
GENAXEH
  1

  0
LINE
  5
2A7
330
2A5
100
AcDbEntity
  8
0
100
AcDbLine
 10
-1.0
 20
0.0
 30
0.0
 11
1.0
 21
0.0
 31
0.0
  0
ENDBLK
  5
2A8
330
2A5
100
AcDbEntity
  8
0
100
AcDbBlockEnd
  0
BLOCK
  5
186
330
185
100
AcDbEntity
  8
0
100
AcDbBlockBegin
  2
*D1
 70
     1
 10
0.0
 20
0.0
 30
0.0
  3
*D1
  1

  0
LINE
  5
187
330
185
100
AcDbEntity
  8
BEMASSUNG
 62
     2
370
    -2
100
AcDbLine
 10
142.5204728331516
 20
175.1140459906625
 30
0.0
 11
115.413327968115
 21
175.1140459906625
 31
0.0
  0
LINE
  5
188
330
185
100
AcDbEntity
  8
BEMASSUNG
 62
     2
370
    -2
100
AcDbLine
 10
142.5204728331516
 20
185.1140459906605
 30
0.0
 11
115.413327968115
 21
185.1140459906605
 31
0.0
  0
LINE
  5
189
330
185
100
AcDbEntity
  8
BEMASSUNG
 62
     2
370
    -2
100
AcDbLine
 10
116.413327968115
 20
171.1140459906626
 30
0.0
 11
116.413327968115
 21
167.1140459906626
 31
0.0
  0
LINE
  5
18A
330
185
100
AcDbEntity
  8
BEMASSUNG
 62
     2
370
    -2
100
AcDbLine
 10
116.413327968115
 20
189.1140459906605
 30
0.0
 11
116.413327968115
 21
193.1140459906605
 31
0.0
  0
LINE
  5
18B
330
185
100
AcDbEntity
  8
BEMASSUNG
 62
     2
370
    -2
100
AcDbLine
 10
116.413327968115
 20
175.1140459906625
 30
0.0
 11
116.413327968115
 21
185.1140459906605
 31
0.0
  0
SOLID
  5
18C
330
185
100
AcDbEntity
  8
BEMASSUNG
 62
     2
100
AcDbTrace
 10
115.7466613014483
 20
171.1140459906626
 30
0.0
 11
117.0799946347816
 21
171.1140459906626
 31
0.0
 12
116.413327968115
 22
175.1140459906625
 32
0.0
 13
116.413327968115
 23
175.1140459906625
 33
0.0
  0
SOLID
  5
18D
330
185
100
AcDbEntity
  8
BEMASSUNG
 62
     2
100
AcDbTrace
 10
115.7466613014483
 20
189.1140459906605
 30
0.0
 11
117.0799946347816
 21
189.1140459906605
 31
0.0
 12
116.413327968115
 22
185.1140459906605
 32
0.0
 13
116.413327968115
 23
185.1140459906605
 33
0.0
  0
MTEXT
  5
18E
330
185
100
AcDbEntity
  8
BEMASSUNG
 62
     3
100
AcDbMText
 10
113.1923354715256
 20
180.1140459906616
 30
0.0
 40
4.349999999999998
 41
0.0
 71
     5
 72
     1
  1
\A1;10
  7
ARIAL-STANDARD
 11
0.0000000000000001
 21
1.0
 31
0.0
 73
     1
 44
1.0
1001
ACAD
1000
MTEXTBEGIN
1070
    73
1070
     1
1070
    44
1040
1.0
1070
    74
1070
     0
1000
MTEXTEND
  0
POINT
  5
18F
330
185
100
AcDbEntity
  8
DEFPOINTS
 62
     0
100
AcDbPoint
 10
142.5204728331516
 20
175.1140459906625
 30
0.0
  0
POINT
  5
190
330
185
100
AcDbEntity
  8
DEFPOINTS
 62
     0
100
AcDbPoint
 10
142.5204728331516
 20
185.1140459906605
 30
0.0
  0
POINT
  5
191
330
185
100
AcDbEntity
  8
DEFPOINTS
 62
     0
100
AcDbPoint
 10
116.413327968115
 20
185.1140459906605
 30
0.0
  0
ENDBLK
  5
192
330
185
100
AcDbEntity
  8
0
100
AcDbBlockEnd
  0
BLOCK
  5
179
330
178
100
AcDbEntity
  8
0
100
AcDbBlockBegin
  2
*D2
 70
     1
 10
0.0
 20
0.0
 30
0.0
  3
*D2
  1

  0
LINE
  5
17A
330
178
100
AcDbEntity
  8
BEMASSUNG
 62
     2
370
    -2
100
AcDbLine
 10
141.5204728331515
 20
184.1140459906605
 30
0.0
 11
141.5204728331515
 21
199.9717122007005
 31
0.0
  0
LINE
  5
17B
330
178
100
AcDbEntity
  8
BEMASSUNG
 62
     2
370
    -2
100
AcDbLine
 10
161.5204728331516
 20
184.1140459906605
 30
0.0
 11
161.5204728331516
 21
199.9717122007005
 31
0.0
  0
LINE
  5
17C
330
178
100
AcDbEntity
  8
BEMASSUNG
 62
     2
370
    -2
100
AcDbLine
 10
145.5204728331515
 20
198.9717122007006
 30
0.0
 11
157.5204728331516
 21
198.9717122007006
 31
0.0
  0
SOLID
  5
17D
330
178
100
AcDbEntity
  8
BEMASSUNG
 62
     2
100
AcDbTrace
 10
145.5204728331515
 20
199.6383788673672
 30
0.0
 11
145.5204728331515
 21
198.3050455340339
 31
0.0
 12
141.5204728331515
 22
198.9717122007006
 32
0.0
 13
141.5204728331515
 23
198.9717122007006
 33
0.0
  0
SOLID
  5
17E
330
178
100
AcDbEntity
  8
BEMASSUNG
 62
     2
100
AcDbTrace
 10
157.5204728331516
 20
199.6383788673672
 30
0.0
 11
157.5204728331516
 21
198.3050455340339
 31
0.0
 12
161.5204728331516
 22
198.9717122007006
 32
0.0
 13
161.5204728331516
 23
198.9717122007006
 33
0.0
  0
MTEXT
  5
17F
330
178
100
AcDbEntity
  8
BEMASSUNG
 62
     3
100
AcDbMText
 10
151.4379029889846
 20
202.19270469729
 30
0.0
 40
4.349999999999998
 41
0.0
 71
     5
 72
     1
  1
\A1;20
  7
ARIAL-STANDARD
 73
     1
 44
1.0
1001
ACAD
1000
MTEXTBEGIN
1070
    73
1070
     1
1070
    44
1040
1.0
1070
    74
1070
     0
1000
MTEXTEND
  0
POINT
  5
180
330
178
100
AcDbEntity
  8
DEFPOINTS
 62
     0
100
AcDbPoint
 10
141.5204728331515
 20
184.1140459906605
 30
0.0
  0
POINT
  5
181
330
178
100
AcDbEntity
  8
DEFPOINTS
 62
     0
100
AcDbPoint
 10
161.5204728331516
 20
184.1140459906605
 30
0.0
  0
POINT
  5
182
330
178
100
AcDbEntity
  8
DEFPOINTS
 62
     0
100
AcDbPoint
 10
161.5204728331516
 20
198.9717122007006
 30
0.0
  0
ENDBLK
  5
183
330
178
100
AcDbEntity
  8
0
100
AcDbBlockEnd
  0
BLOCK
  5
16A
330
169
100
AcDbEntity
  8
0
100
AcDbBlockBegin
  2
*D3
 70
     1
 10
0.0
 20
0.0
 30
0.0
  3
*D3
  1

  0
LINE
  5
16B
330
169
100
AcDbEntity
  8
BEMASSUNG
 62
     2
370
    -2
100
AcDbLine
 10
146.020472833196
 20
380.7205343807585
 30
0.0
 11
146.020472833196
 21
384.860262392852
 31
0.0
  0
LINE
  5
16C
330
169
100
AcDbEntity
  8
BEMASSUNG
 62
     2
370
    -2
100
AcDbLine
 10
161.520472833196
 20
393.2205343807585
 30
0.0
 11
161.520472833196
 21
382.8602623928519
 31
0.0
  0
LINE
  5
16D
330
169
100
AcDbEntity
  8
BEMASSUNG
 62
     2
370
    -2
100
AcDbLine
 10
150.020472833196
 20
383.8602623928519
 30
0.0
 11
157.520472833196
 21
383.8602623928519
 31
0.0
  0
LINE
  5
16E
330
169
100
AcDbEntity
  8
BEMASSUNG
 62
     2
370
    -2
100
AcDbLine
 10
161.520472833196
 20
383.8602623928519
 30
0.0
 11
178.4429489587076
 21
383.8602623928519
 31
0.0
  0
SOLID
  5
16F
330
169
100
AcDbEntity
  8
BEMASSUNG
 62
     2
100
AcDbTrace
 10
150.020472833196
 20
384.5269290595187
 30
0.0
 11
150.020472833196
 21
383.1935957261853
 31
0.0
 12
146.020472833196
 22
383.8602623928519
 32
0.0
 13
146.020472833196
 23
383.8602623928519
 33
0.0
  0
SOLID
  5
170
330
169
100
AcDbEntity
  8
BEMASSUNG
 62
     2
100
AcDbTrace
 10
157.520472833196
 20
384.5269290595187
 30
0.0
 11
157.520472833196
 21
383.1935957261853
 31
0.0
 12
161.520472833196
 22
383.8602623928519
 32
0.0
 13
161.520472833196
 23
383.8602623928519
 33
0.0
  0
MTEXT
  5
171
330
169
100
AcDbEntity
  8
BEMASSUNG
 62
     3
100
AcDbMText
 10
171.9817108959517
 20
387.0812548894413
 30
0.0
 40
4.349999999999998
 41
0.0
 71
     5
 72
     1
  1
\A1;15.5
  7
ARIAL-STANDARD
 73
     1
 44
1.0
1001
ACAD
1000
MTEXTBEGIN
1070
    73
1070
     1
1070
    44
1040
1.0
1070
    74
1070
     0
1000
MTEXTEND
  0
POINT
  5
172
330
169
100
AcDbEntity
  8
DEFPOINTS
 62
     0
100
AcDbPoint
 10
146.020472833196
 20
380.7205343807585
 30
0.0
  0
POINT
  5
173
330
169
100
AcDbEntity
  8
DEFPOINTS
 62
     0
100
AcDbPoint
 10
161.520472833196
 20
393.2205343807585
 30
0.0
  0
POINT
  5
174
330
169
100
AcDbEntity
  8
DEFPOINTS
 62
     0
100
AcDbPoint
 10
161.520472833196
 20
383.8602623928519
 30
0.0
  0
ENDBLK
  5
175
330
169
100
AcDbEntity
  8
0
100
AcDbBlockEnd
  0
BLOCK
  5
15A
330
159
100
AcDbEntity
  8
0
100
AcDbBlockBegin
  2
*D4
 70
     1
 10
0.0
 20
0.0
 30
0.0
  3
*D4
  1

  0
LINE
  5
15B
330
159
100
AcDbEntity
  8
UMRISS05
 62
     2
370
    -2
100
AcDbLine
 10
142.5204728331959
 20
221.2205343807585
 30
0.0
 11
115.4133279681162
 21
221.2205343807585
 31
0.0
  0
LINE
  5
15C
330
159
100
AcDbEntity
  8
UMRISS05
 62
     2
370
    -2
100
AcDbLine
 10
144.7704728331959
 20
240.7205343807585
 30
0.0
 11
115.4133279681162
 21
240.7205343807585
 31
0.0
  0
LINE
  5
15D
330
159
100
AcDbEntity
  8
UMRISS05
 62
     2
370
    -2
100
AcDbLine
 10
116.4133279681162
 20
225.2205343807585
 30
0.0
 11
116.4133279681162
 21
236.7205343807585
 31
0.0
  0
SOLID
  5
15E
330
159
100
AcDbEntity
  8
UMRISS05
 62
     2
100
AcDbTrace
 10
115.7466613014495
 20
225.2205343807585
 30
0.0
 11
117.0799946347829
 21
225.2205343807585
 31
0.0
 12
116.4133279681162
 22
221.2205343807585
 32
0.0
 13
116.4133279681162
 23
221.2205343807585
 33
0.0
  0
SOLID
  5
15F
330
159
100
AcDbEntity
  8
UMRISS05
 62
     2
100
AcDbTrace
 10
115.7466613014495
 20
236.7205343807585
 30
0.0
 11
117.0799946347829
 21
236.7205343807585
 31
0.0
 12
116.4133279681162
 22
240.7205343807585
 32
0.0
 13
116.4133279681162
 23
240.7205343807585
 33
0.0
  0
MTEXT
  5
160
330
159
100
AcDbEntity
  8
UMRISS05
 62
     3
100
AcDbMText
 10
113.1923354715268
 20
230.9705343807586
 30
0.0
 40
4.349999999999998
 41
0.0
 71
     5
 72
     1
  1
\A1;19.5
  7
ARIAL-STANDARD
 11
0.0000000000000001
 21
1.0
 31
0.0
 73
     1
 44
1.0
1001
ACAD
1000
MTEXTBEGIN
1070
    73
1070
     1
1070
    44
1040
1.0
1070
    74
1070
     0
1000
MTEXTEND
  0
POINT
  5
161
330
159
100
AcDbEntity
  8
DEFPOINTS
 62
     0
100
AcDbPoint
 10
142.5204728331959
 20
221.2205343807585
 30
0.0
  0
POINT
  5
162
330
159
100
AcDbEntity
  8
DEFPOINTS
 62
     0
100
AcDbPoint
 10
144.7704728331959
 20
240.7205343807585
 30
0.0
  0
POINT
  5
163
330
159
100
AcDbEntity
  8
DEFPOINTS
 62
     0
100
AcDbPoint
 10
116.4133279681162
 20
240.7205343807585
 30
0.0
  0
ENDBLK
  5
164
330
159
100
AcDbEntity
  8
0
100
AcDbBlockEnd
  0
BLOCK
  5
14D
330
14C
100
AcDbEntity
  8
0
100
AcDbBlockBegin
  2
*D5
 70
     1
 10
0.0
 20
0.0
 30
0.0
  3
*D5
  1

  0
LINE
  5
14E
330
14C
100
AcDbEntity
  8
UMRISS05
 62
     2
370
    -2
100
AcDbLine
 10
144.7704728331959
 20
418.7205343807585
 30
0.0
 11
115.4133279681162
 21
418.7205343807585
 31
0.0
  0
LINE
  5
14F
330
14C
100
AcDbEntity
  8
UMRISS05
 62
     2
370
    -2
100
AcDbLine
 10
142.5204728331959
 20
438.2205343807583
 30
0.0
 11
115.4133279681162
 21
438.2205343807584
 31
0.0
  0
LINE
  5
150
330
14C
100
AcDbEntity
  8
UMRISS05
 62
     2
370
    -2
100
AcDbLine
 10
116.4133279681162
 20
422.7205343807585
 30
0.0
 11
116.4133279681162
 21
434.2205343807584
 31
0.0
  0
SOLID
  5
151
330
14C
100
AcDbEntity
  8
UMRISS05
 62
     2
100
AcDbTrace
 10
115.7466613014495
 20
422.7205343807585
 30
0.0
 11
117.0799946347829
 21
422.7205343807585
 31
0.0
 12
116.4133279681162
 22
418.7205343807585
 32
0.0
 13
116.4133279681162
 23
418.7205343807585
 33
0.0
  0
SOLID
  5
152
330
14C
100
AcDbEntity
  8
UMRISS05
 62
     2
100
AcDbTrace
 10
115.7466613014495
 20
434.2205343807584
 30
0.0
 11
117.0799946347829
 21
434.2205343807584
 31
0.0
 12
116.4133279681162
 22
438.2205343807584
 32
0.0
 13
116.4133279681162
 23
438.2205343807584
 33
0.0
  0
MTEXT
  5
153
330
14C
100
AcDbEntity
  8
UMRISS05
 62
     3
100
AcDbMText
 10
113.1923354715268
 20
428.4705343807585
 30
0.0
 40
4.349999999999998
 41
0.0
 71
     5
 72
     1
  1
\A1;19.5
  7
ARIAL-STANDARD
 11
0.0000000000000001
 21
1.0
 31
0.0
 73
     1
 44
1.0
1001
ACAD
1000
MTEXTBEGIN
1070
    73
1070
     1
1070
    44
1040
1.0
1070
    74
1070
     0
1000
MTEXTEND
  0
POINT
  5
154
330
14C
100
AcDbEntity
  8
DEFPOINTS
 62
     0
100
AcDbPoint
 10
144.7704728331959
 20
418.7205343807585
 30
0.0
  0
POINT
  5
155
330
14C
100
AcDbEntity
  8
DEFPOINTS
 62
     0
100
AcDbPoint
 10
142.5204728331959
 20
438.2205343807583
 30
0.0
  0
POINT
  5
156
330
14C
100
AcDbEntity
  8
DEFPOINTS
 62
     0
100
AcDbPoint
 10
116.4133279681162
 20
438.2205343807584
 30
0.0
  0
ENDBLK
  5
157
330
14C
100
AcDbEntity
  8
0
100
AcDbBlockEnd
  0
BLOCK
  5
140
330
13F
100
AcDbEntity
  8
0
100
AcDbBlockBegin
  2
*D6
 70
     1
 10
0.0
 20
0.0
 30
0.0
  3
*D6
  1

  0
LINE
  5
141
330
13F
100
AcDbEntity
  8
UMRISS05
 62
     2
370
    -2
100
AcDbLine
 10
144.7704728331959
 20
418.7205343807585
 30
0.0
 11
115.4133279681162
 21
418.7205343807585
 31
0.0
  0
LINE
  5
142
330
13F
100
AcDbEntity
  8
UMRISS05
 62
     2
370
    -2
100
AcDbLine
 10
144.5156502719579
 20
323.7205343807585
 30
0.0
 11
115.4133279681162
 21
323.7205343807586
 31
0.0
  0
LINE
  5
143
330
13F
100
AcDbEntity
  8
UMRISS05
 62
     2
370
    -2
100
AcDbLine
 10
116.4133279681162
 20
414.7205343807585
 30
0.0
 11
116.4133279681162
 21
327.7205343807586
 31
0.0
  0
SOLID
  5
144
330
13F
100
AcDbEntity
  8
UMRISS05
 62
     2
100
AcDbTrace
 10
115.7466613014495
 20
414.7205343807585
 30
0.0
 11
117.0799946347829
 21
414.7205343807585
 31
0.0
 12
116.4133279681162
 22
418.7205343807585
 32
0.0
 13
116.4133279681162
 23
418.7205343807585
 33
0.0
  0
SOLID
  5
145
330
13F
100
AcDbEntity
  8
UMRISS05
 62
     2
100
AcDbTrace
 10
115.7466613014495
 20
327.7205343807586
 30
0.0
 11
117.0799946347829
 21
327.7205343807586
 31
0.0
 12
116.4133279681162
 22
323.7205343807586
 32
0.0
 13
116.4133279681162
 23
323.7205343807586
 33
0.0
  0
MTEXT
  5
146
330
13F
100
AcDbEntity
  8
UMRISS05
 62
     3
100
AcDbMText
 10
113.1923354715268
 20
373.6578965024203
 30
0.0
 40
4.349999999999998
 41
0.0
 71
     5
 72
     1
  1
\A1;95
  7
ARIAL-STANDARD
 11
0.0000000000000001
 21
1.0
 31
0.0
 73
     1
 44
1.0
1001
ACAD
1000
MTEXTBEGIN
1070
    73
1070
     1
1070
    44
1040
1.0
1070
    74
1070
     0
1000
MTEXTEND
  0
POINT
  5
147
330
13F
100
AcDbEntity
  8
DEFPOINTS
 62
     0
100
AcDbPoint
 10
144.7704728331959
 20
418.7205343807585
 30
0.0
  0
POINT
  5
148
330
13F
100
AcDbEntity
  8
DEFPOINTS
 62
     0
100
AcDbPoint
 10
144.5156502719579
 20
323.7205343807585
 30
0.0
  0
POINT
  5
149
330
13F
100
AcDbEntity
  8
DEFPOINTS
 62
     0
100
AcDbPoint
 10
116.4133279681162
 20
323.7205343807586
 30
0.0
  0
ENDBLK
  5
14A
330
13F
100
AcDbEntity
  8
0
100
AcDbBlockEnd
  0
BLOCK
  5
133
330
132
100
AcDbEntity
  8
0
100
AcDbBlockBegin
  2
*D7
 70
     1
 10
0.0
 20
0.0
 30
0.0
  3
*D7
  1

  0
LINE
  5
134
330
132
100
AcDbEntity
  8
UMRISS05
 62
     2
370
    -2
100
AcDbLine
 10
144.7704728331959
 20
323.7205343807585
 30
0.0
 11
115.4133279681162
 21
323.7205343807586
 31
0.0
  0
LINE
  5
135
330
132
100
AcDbEntity
  8
UMRISS05
 62
     2
370
    -2
100
AcDbLine
 10
144.7704728331959
 20
240.7205343807585
 30
0.0
 11
115.4133279681162
 21
240.7205343807585
 31
0.0
  0
LINE
  5
136
330
132
100
AcDbEntity
  8
UMRISS05
 62
     2
370
    -2
100
AcDbLine
 10
116.4133279681162
 20
319.7205343807586
 30
0.0
 11
116.4133279681162
 21
244.7205343807585
 31
0.0
  0
SOLID
  5
137
330
132
100
AcDbEntity
  8
UMRISS05
 62
     2
100
AcDbTrace
 10
115.7466613014495
 20
319.7205343807586
 30
0.0
 11
117.0799946347829
 21
319.7205343807586
 31
0.0
 12
116.4133279681162
 22
323.7205343807586
 32
0.0
 13
116.4133279681162
 23
323.7205343807586
 33
0.0
  0
SOLID
  5
138
330
132
100
AcDbEntity
  8
UMRISS05
 62
     2
100
AcDbTrace
 10
115.7466613014495
 20
244.7205343807585
 30
0.0
 11
117.0799946347829
 21
244.7205343807585
 31
0.0
 12
116.4133279681162
 22
240.7205343807585
 32
0.0
 13
116.4133279681162
 23
240.7205343807585
 33
0.0
  0
MTEXT
  5
139
330
132
100
AcDbEntity
  8
UMRISS05
 62
     3
100
AcDbMText
 10
113.1908518426046
 20
282.2205343807586
 30
0.0
 40
4.349999999999998
 41
0.0
 71
     5
 72
     1
  1
\A1;83
  7
ARIAL-STANDARD
 11
0.0000000000000001
 21
1.0
 31
0.0
 73
     1
 44
1.0
1001
ACAD
1000
MTEXTBEGIN
1070
    73
1070
     1
1070
    44
1040
1.0
1070
    74
1070
     0
1000
MTEXTEND
  0
POINT
  5
13A
330
132
100
AcDbEntity
  8
DEFPOINTS
 62
     0
100
AcDbPoint
 10
144.7704728331959
 20
323.7205343807585
 30
0.0
  0
POINT
  5
13B
330
132
100
AcDbEntity
  8
DEFPOINTS
 62
     0
100
AcDbPoint
 10
144.7704728331959
 20
240.7205343807585
 30
0.0
  0
POINT
  5
13C
330
132
100
AcDbEntity
  8
DEFPOINTS
 62
     0
100
AcDbPoint
 10
116.4133279681162
 20
240.7205343807585
 30
0.0
  0
ENDBLK
  5
13D
330
132
100
AcDbEntity
  8
0
100
AcDbBlockEnd
  0
BLOCK
  5
122
330
121
100
AcDbEntity
  8
0
100
AcDbBlockBegin
  2
*D8
 70
     1
 10
0.0
 20
0.0
 30
0.0
  3
*D8
  1

  0
LINE
  5
123
330
121
100
AcDbEntity
  8
BEMASSUNG
 62
     2
370
    -2
100
AcDbLine
 10
144.5204728331959
 20
258.4728403253616
 30
0.0
 11
144.5204728331959
 21
259.4728403253616
 31
0.0
  0
LINE
  5
124
330
121
100
AcDbEntity
  8
BEMASSUNG
 62
     2
370
    -2
100
AcDbLine
 10
158.520472833196
 20
258.4728403253616
 30
0.0
 11
158.520472833196
 21
259.4728403253616
 31
0.0
  0
LINE
  5
125
330
121
100
AcDbEntity
  8
BEMASSUNG
 62
     2
370
    -2
100
AcDbLine
 10
148.5204728331959
 20
258.4728403253616
 30
0.0
 11
154.520472833196
 21
258.4728403253616
 31
0.0
  0
SOLID
  5
126
330
121
100
AcDbEntity
  8
BEMASSUNG
 62
     2
100
AcDbTrace
 10
148.5204728331959
 20
259.1395069920283
 30
0.0
 11
148.5204728331959
 21
257.806173658695
 31
0.0
 12
144.5204728331959
 22
258.4728403253616
 32
0.0
 13
144.5204728331959
 23
258.4728403253616
 33
0.0
  0
SOLID
  5
127
330
121
100
AcDbEntity
  8
BEMASSUNG
 62
     2
100
AcDbTrace
 10
154.520472833196
 20
259.1395069920283
 30
0.0
 11
154.520472833196
 21
257.806173658695
 31
0.0
 12
158.520472833196
 22
258.4728403253616
 32
0.0
 13
158.520472833196
 23
258.4728403253616
 33
0.0
  0
MTEXT
  5
128
330
121
100
AcDbEntity
  8
BEMASSUNG
 62
     3
100
AcDbMText
 10
152.1130480542685
 20
261.6567420988951
 30
0.0
 40
4.349999999999998
 41
0.0
 71
     5
 72
     1
  1
\A1;14
  7
ARIAL-STANDARD
 73
     1
 44
1.0
1001
ACAD
1000
MTEXTBEGIN
1070
    73
1070
     1
1070
    44
1040
1.0
1070
    74
1070
     0
1000
MTEXTEND
  0
POINT
  5
129
330
121
100
AcDbEntity
  8
DEFPOINTS
 62
     0
100
AcDbPoint
 10
144.5204728331959
 20
258.4728403253616
 30
0.0
  0
POINT
  5
12A
330
121
100
AcDbEntity
  8
DEFPOINTS
 62
     0
100
AcDbPoint
 10
158.520472833196
 20
258.4728403253616
 30
0.0
  0
POINT
  5
12B
330
121
100
AcDbEntity
  8
DEFPOINTS
 62
     0
100
AcDbPoint
 10
158.520472833196
 20
258.4728403253616
 30
0.0
  0
ENDBLK
  5
12C
330
121
100
AcDbEntity
  8
0
100
AcDbBlockEnd
  0
BLOCK
  5
115
330
114
100
AcDbEntity
  8
0
100
AcDbBlockBegin
  2
*D9
 70
     1
 10
0.0
 20
0.0
 30
0.0
  3
*D9
  1

  0
LINE
  5
116
330
114
100
AcDbEntity
  8
BEMASSUNG
 62
     2
370
    -2
100
AcDbLine
 10
161.520472833196
 20
393.2205343807585
 30
0.0
 11
181.5797048794223
 21
393.2205343807585
 31
0.0
  0
LINE
  5
117
330
114
100
AcDbEntity
  8
BEMASSUNG
 62
     2
370
    -2
100
AcDbLine
 10
160.5442756111422
 20
438.2202510545027
 30
0.0
 11
181.5797048794223
 21
438.2202510545027
 31
0.0
  0
LINE
  5
118
330
114
100
AcDbEntity
  8
BEMASSUNG
 62
     2
370
    -2
100
AcDbLine
 10
180.5797048794223
 20
397.2205343807585
 30
0.0
 11
180.5797048794223
 21
434.2202510545027
 31
0.0
  0
SOLID
  5
119
330
114
100
AcDbEntity
  8
BEMASSUNG
 62
     2
100
AcDbTrace
 10
179.9130382127557
 20
397.2205343807585
 30
0.0
 11
181.246371546089
 21
397.2205343807585
 31
0.0
 12
180.5797048794223
 22
393.2205343807585
 32
0.0
 13
180.5797048794223
 23
393.2205343807585
 33
0.0
  0
SOLID
  5
11A
330
114
100
AcDbEntity
  8
BEMASSUNG
 62
     2
100
AcDbTrace
 10
179.9130382127557
 20
434.2202510545027
 30
0.0
 11
181.246371546089
 21
434.2202510545027
 31
0.0
 12
180.5797048794223
 22
438.2202510545027
 32
0.0
 13
180.5797048794223
 23
438.2202510545027
 33
0.0
  0
MTEXT
  5
11B
330
114
100
AcDbEntity
  8
BEMASSUNG
 62
     3
100
AcDbMText
 10
177.3676141563664
 20
415.7203927176306
 30
0.0
 40
4.349999999999998
 41
0.0
 71
     5
 72
     1
  1
\A1;45
  7
ARIAL-STANDARD
 11
0.0000000000000001
 21
1.0
 31
0.0
 73
     1
 44
1.0
1001
ACAD
1000
MTEXTBEGIN
1070
    73
1070
     1
1070
    44
1040
1.0
1070
    74
1070
     0
1000
MTEXTEND
  0
POINT
  5
11C
330
114
100
AcDbEntity
  8
DEFPOINTS
 62
     0
100
AcDbPoint
 10
161.520472833196
 20
393.2205343807585
 30
0.0
  0
POINT
  5
11D
330
114
100
AcDbEntity
  8
DEFPOINTS
 62
     0
100
AcDbPoint
 10
160.5442756111422
 20
438.2202510545027
 30
0.0
  0
POINT
  5
11E
330
114
100
AcDbEntity
  8
DEFPOINTS
 62
     0
100
AcDbPoint
 10
180.5797048794223
 20
438.2202510545027
 30
0.0
  0
ENDBLK
  5
11F
330
114
100
AcDbEntity
  8
0
100
AcDbBlockEnd
  0
BLOCK
  5
108
330
107
100
AcDbEntity
  8
0
100
AcDbBlockBegin
  2
*D10
 70
     1
 10
0.0
 20
0.0
 30
0.0
  3
*D10
  1

  0
LINE
  5
109
330
107
100
AcDbEntity
  8
BEMASSUNG
 62
     2
370
    -2
100
AcDbLine
 10
161.520472833196
 20
347.2205343807585
 30
0.0
 11
181.5797048794223
 21
347.2205343807585
 31
0.0
  0
LINE
  5
10A
330
107
100
AcDbEntity
  8
BEMASSUNG
 62
     2
370
    -2
100
AcDbLine
 10
161.520472833196
 20
393.2205343807585
 30
0.0
 11
181.5797048794223
 21
393.2205343807585
 31
0.0
  0
LINE
  5
10B
330
107
100
AcDbEntity
  8
BEMASSUNG
 62
     2
370
    -2
100
AcDbLine
 10
180.5797048794223
 20
351.2205343807585
 30
0.0
 11
180.5797048794223
 21
389.2205343807585
 31
0.0
  0
SOLID
  5
10C
330
107
100
AcDbEntity
  8
BEMASSUNG
 62
     2
100
AcDbTrace
 10
179.9130382127557
 20
351.2205343807585
 30
0.0
 11
181.246371546089
 21
351.2205343807585
 31
0.0
 12
180.5797048794223
 22
347.2205343807585
 32
0.0
 13
180.5797048794223
 23
347.2205343807585
 33
0.0
  0
SOLID
  5
10D
330
107
100
AcDbEntity
  8
BEMASSUNG
 62
     2
100
AcDbTrace
 10
179.9130382127557
 20
389.2205343807585
 30
0.0
 11
181.246371546089
 21
389.2205343807585
 31
0.0
 12
180.5797048794223
 22
393.2205343807585
 32
0.0
 13
180.5797048794223
 23
393.2205343807585
 33
0.0
  0
MTEXT
  5
10E
330
107
100
AcDbEntity
  8
BEMASSUNG
 62
     3
100
AcDbMText
 10
177.3587123828329
 20
370.2205343807586
 30
0.0
 40
4.349999999999998
 41
0.0
 71
     5
 72
     1
  1
\A1;46
  7
ARIAL-STANDARD
 11
0.0000000000000001
 21
1.0
 31
0.0
 73
     1
 44
1.0
1001
ACAD
1000
MTEXTBEGIN
1070
    73
1070
     1
1070
    44
1040
1.0
1070
    74
1070
     0
1000
MTEXTEND
  0
POINT
  5
10F
330
107
100
AcDbEntity
  8
DEFPOINTS
 62
     0
100
AcDbPoint
 10
161.520472833196
 20
347.2205343807585
 30
0.0
  0
POINT
  5
110
330
107
100
AcDbEntity
  8
DEFPOINTS
 62
     0
100
AcDbPoint
 10
161.520472833196
 20
393.2205343807585
 30
0.0
  0
POINT
  5
111
330
107
100
AcDbEntity
  8
DEFPOINTS
 62
     0
100
AcDbPoint
 10
180.5797048794223
 20
393.2205343807585
 30
0.0
  0
ENDBLK
  5
112
330
107
100
AcDbEntity
  8
0
100
AcDbBlockEnd
  0
BLOCK
  5
FB
330
FA
100
AcDbEntity
  8
0
100
AcDbBlockBegin
  2
*D11
 70
     1
 10
0.0
 20
0.0
 30
0.0
  3
*D11
  1

  0
LINE
  5
FC
330
FA
100
AcDbEntity
  8
BEMASSUNG
 62
     2
370
    -2
100
AcDbLine
 10
156.520472833196
 20
315.7205343807585
 30
0.0
 11
181.5797048794223
 21
315.7205343807585
 31
0.0
  0
LINE
  5
FD
330
FA
100
AcDbEntity
  8
BEMASSUNG
 62
     2
370
    -2
100
AcDbLine
 10
161.520472833196
 20
347.2205343807585
 30
0.0
 11
181.5797048794223
 21
347.2205343807585
 31
0.0
  0
LINE
  5
FE
330
FA
100
AcDbEntity
  8
BEMASSUNG
 62
     2
370
    -2
100
AcDbLine
 10
180.5797048794223
 20
319.7205343807585
 30
0.0
 11
180.5797048794223
 21
343.2205343807585
 31
0.0
  0
SOLID
  5
FF
330
FA
100
AcDbEntity
  8
BEMASSUNG
 62
     2
100
AcDbTrace
 10
179.9130382127557
 20
319.7205343807585
 30
0.0
 11
181.246371546089
 21
319.7205343807585
 31
0.0
 12
180.5797048794223
 22
315.7205343807585
 32
0.0
 13
180.5797048794223
 23
315.7205343807585
 33
0.0
  0
SOLID
  5
100
330
FA
100
AcDbEntity
  8
BEMASSUNG
 62
     2
100
AcDbTrace
 10
179.9130382127557
 20
343.2205343807585
 30
0.0
 11
181.246371546089
 21
343.2205343807585
 31
0.0
 12
180.5797048794223
 22
347.2205343807585
 32
0.0
 13
180.5797048794223
 23
347.2205343807585
 33
0.0
  0
MTEXT
  5
101
330
FA
100
AcDbEntity
  8
BEMASSUNG
 62
     3
100
AcDbMText
 10
177.3572287539107
 20
331.4705343807585
 30
0.0
 40
4.349999999999998
 41
0.0
 71
     5
 72
     1
  1
\A1;31.5
  7
ARIAL-STANDARD
 11
0.0000000000000001
 21
1.0
 31
0.0
 73
     1
 44
1.0
1001
ACAD
1000
MTEXTBEGIN
1070
    73
1070
     1
1070
    44
1040
1.0
1070
    74
1070
     0
1000
MTEXTEND
  0
POINT
  5
102
330
FA
100
AcDbEntity
  8
DEFPOINTS
 62
     0
100
AcDbPoint
 10
156.520472833196
 20
315.7205343807585
 30
0.0
  0
POINT
  5
103
330
FA
100
AcDbEntity
  8
DEFPOINTS
 62
     0
100
AcDbPoint
 10
161.520472833196
 20
347.2205343807585
 30
0.0
  0
POINT
  5
104
330
FA
100
AcDbEntity
  8
DEFPOINTS
 62
     0
100
AcDbPoint
 10
180.5797048794223
 20
347.2205343807585
 30
0.0
  0
ENDBLK
  5
105
330
FA
100
AcDbEntity
  8
0
100
AcDbBlockEnd
  0
BLOCK
  5
EE
330
ED
100
AcDbEntity
  8
0
100
AcDbBlockBegin
  2
*D12
 70
     1
 10
0.0
 20
0.0
 30
0.0
  3
*D12
  1

  0
LINE
  5
EF
330
ED
100
AcDbEntity
  8
BEMASSUNG
 62
     2
370
    -2
100
AcDbLine
 10
156.520472833196
 20
253.720534380759
 30
0.0
 11
181.5797048794223
 21
253.720534380759
 31
0.0
  0
LINE
  5
F0
330
ED
100
AcDbEntity
  8
BEMASSUNG
 62
     2
370
    -2
100
AcDbLine
 10
160.520472833196
 20
221.2205343807585
 30
0.0
 11
181.5797048794223
 21
221.2205343807585
 31
0.0
  0
LINE
  5
F1
330
ED
100
AcDbEntity
  8
BEMASSUNG
 62
     2
370
    -2
100
AcDbLine
 10
180.5797048794223
 20
249.720534380759
 30
0.0
 11
180.5797048794223
 21
225.2205343807585
 31
0.0
  0
SOLID
  5
F2
330
ED
100
AcDbEntity
  8
BEMASSUNG
 62
     2
100
AcDbTrace
 10
179.9130382127557
 20
249.720534380759
 30
0.0
 11
181.246371546089
 21
249.720534380759
 31
0.0
 12
180.5797048794223
 22
253.720534380759
 32
0.0
 13
180.5797048794223
 23
253.720534380759
 33
0.0
  0
SOLID
  5
F3
330
ED
100
AcDbEntity
  8
BEMASSUNG
 62
     2
100
AcDbTrace
 10
179.9130382127557
 20
225.2205343807585
 30
0.0
 11
181.246371546089
 21
225.2205343807585
 31
0.0
 12
180.5797048794223
 22
221.2205343807585
 32
0.0
 13
180.5797048794223
 23
221.2205343807585
 33
0.0
  0
MTEXT
  5
F4
330
ED
100
AcDbEntity
  8
BEMASSUNG
 62
     3
100
AcDbMText
 10
177.3572287539107
 20
237.4705343807588
 30
0.0
 40
4.349999999999998
 41
0.0
 71
     5
 72
     1
  1
\A1;32.5
  7
ARIAL-STANDARD
 11
0.0000000000000001
 21
1.0
 31
0.0
 73
     1
 44
1.0
1001
ACAD
1000
MTEXTBEGIN
1070
    73
1070
     1
1070
    44
1040
1.0
1070
    74
1070
     0
1000
MTEXTEND
  0
POINT
  5
F5
330
ED
100
AcDbEntity
  8
DEFPOINTS
 62
     0
100
AcDbPoint
 10
156.520472833196
 20
253.720534380759
 30
0.0
  0
POINT
  5
F6
330
ED
100
AcDbEntity
  8
DEFPOINTS
 62
     0
100
AcDbPoint
 10
160.520472833196
 20
221.2205343807585
 30
0.0
  0
POINT
  5
F7
330
ED
100
AcDbEntity
  8
DEFPOINTS
 62
     0
100
AcDbPoint
 10
180.5797048794223
 20
221.2205343807585
 30
0.0
  0
ENDBLK
  5
F8
330
ED
100
AcDbEntity
  8
0
100
AcDbBlockEnd
  0
BLOCK
  5
E1
330
E0
100
AcDbEntity
  8
0
100
AcDbBlockBegin
  2
*D13
 70
     1
 10
0.0
 20
0.0
 30
0.0
  3
*D13
  1

  0
LINE
  5
E2
330
E0
100
AcDbEntity
  8
BEMASSUNG
 62
     2
370
    -2
100
AcDbLine
 10
156.520472833196
 20
253.720534380759
 30
0.0
 11
181.5797048794223
 21
253.720534380759
 31
0.0
  0
LINE
  5
E3
330
E0
100
AcDbEntity
  8
BEMASSUNG
 62
     2
370
    -2
100
AcDbLine
 10
156.520472833196
 20
315.7205343807585
 30
0.0
 11
181.5797048794223
 21
315.7205343807585
 31
0.0
  0
LINE
  5
E4
330
E0
100
AcDbEntity
  8
BEMASSUNG
 62
     2
370
    -2
100
AcDbLine
 10
180.5797048794223
 20
257.7205343807591
 30
0.0
 11
180.5797048794223
 21
311.7205343807585
 31
0.0
  0
SOLID
  5
E5
330
E0
100
AcDbEntity
  8
BEMASSUNG
 62
     2
100
AcDbTrace
 10
179.9130382127557
 20
257.7205343807591
 30
0.0
 11
181.246371546089
 21
257.7205343807591
 31
0.0
 12
180.5797048794223
 22
253.720534380759
 32
0.0
 13
180.5797048794223
 23
253.720534380759
 33
0.0
  0
SOLID
  5
E6
330
E0
100
AcDbEntity
  8
BEMASSUNG
 62
     2
100
AcDbTrace
 10
179.9130382127557
 20
311.7205343807585
 30
0.0
 11
181.246371546089
 21
311.7205343807585
 31
0.0
 12
180.5797048794223
 22
315.7205343807585
 32
0.0
 13
180.5797048794223
 23
315.7205343807585
 33
0.0
  0
MTEXT
  5
E7
330
E0
100
AcDbEntity
  8
BEMASSUNG
 62
     3
100
AcDbMText
 10
177.358712382833
 20
284.7205343807588
 30
0.0
 40
4.349999999999998
 41
0.0
 71
     5
 72
     1
  1
\A1;62
  7
ARIAL-STANDARD
 11
0.0000000000000001
 21
1.0
 31
0.0
 73
     1
 44
1.0
1001
ACAD
1000
MTEXTBEGIN
1070
    73
1070
     1
1070
    44
1040
1.0
1070
    74
1070
     0
1000
MTEXTEND
  0
POINT
  5
E8
330
E0
100
AcDbEntity
  8
DEFPOINTS
 62
     0
100
AcDbPoint
 10
156.520472833196
 20
253.720534380759
 30
0.0
  0
POINT
  5
E9
330
E0
100
AcDbEntity
  8
DEFPOINTS
 62
     0
100
AcDbPoint
 10
156.520472833196
 20
315.7205343807585
 30
0.0
  0
POINT
  5
EA
330
E0
100
AcDbEntity
  8
DEFPOINTS
 62
     0
100
AcDbPoint
 10
180.5797048794223
 20
315.7205343807585
 30
0.0
  0
ENDBLK
  5
EB
330
E0
100
AcDbEntity
  8
0
100
AcDbBlockEnd
  0
BLOCK
  5
D4
330
D3
100
AcDbEntity
  8
0
100
AcDbBlockBegin
  2
*D14
 70
     1
 10
0.0
 20
0.0
 30
0.0
  3
*D14
  1

  0
LINE
  5
D5
330
D3
100
AcDbEntity
  8
BEMASSUNG
 62
     2
370
    -2
100
AcDbLine
 10
160.520472833196
 20
221.2205343807585
 30
0.0
 11
190.9583928491098
 21
221.2205343807585
 31
0.0
  0
LINE
  5
D6
330
D3
100
AcDbEntity
  8
BEMASSUNG
 62
     2
370
    -2
100
AcDbLine
 10
160.520472833196
 20
438.2205343807583
 30
0.0
 11
190.9583928491099
 21
438.2205343807583
 31
0.0
  0
LINE
  5
D7
330
D3
100
AcDbEntity
  8
BEMASSUNG
 62
     2
370
    -2
100
AcDbLine
 10
189.9583928491098
 20
225.2205343807585
 30
0.0
 11
189.9583928491099
 21
434.2205343807584
 31
0.0
  0
SOLID
  5
D8
330
D3
100
AcDbEntity
  8
BEMASSUNG
 62
     2
100
AcDbTrace
 10
189.2917261824432
 20
225.2205343807585
 30
0.0
 11
190.6250595157765
 21
225.2205343807585
 31
0.0
 12
189.9583928491098
 22
221.2205343807585
 32
0.0
 13
189.9583928491098
 23
221.2205343807585
 33
0.0
  0
SOLID
  5
D9
330
D3
100
AcDbEntity
  8
BEMASSUNG
 62
     2
100
AcDbTrace
 10
189.2917261824432
 20
434.2205343807584
 30
0.0
 11
190.6250595157765
 21
434.2205343807584
 31
0.0
 12
189.9583928491099
 22
438.2205343807583
 32
0.0
 13
189.9583928491099
 23
438.2205343807583
 33
0.0
  0
MTEXT
  5
DA
330
D3
100
AcDbEntity
  8
BEMASSUNG
 62
     3
100
AcDbMText
 10
186.7744910755764
 20
331.4508956839188
 30
0.0
 40
4.349999999999998
 41
0.0
 71
     5
 72
     1
  1
\A1;217
  7
ARIAL-STANDARD
 11
0.0000000000000001
 21
1.0
 31
0.0
 73
     1
 44
1.0
1001
ACAD
1000
MTEXTBEGIN
1070
    73
1070
     1
1070
    44
1040
1.0
1070
    74
1070
     0
1000
MTEXTEND
  0
POINT
  5
DB
330
D3
100
AcDbEntity
  8
DEFPOINTS
 62
     0
100
AcDbPoint
 10
160.520472833196
 20
221.2205343807585
 30
0.0
  0
POINT
  5
DC
330
D3
100
AcDbEntity
  8
DEFPOINTS
 62
     0
100
AcDbPoint
 10
160.520472833196
 20
438.2205343807583
 30
0.0
  0
POINT
  5
DD
330
D3
100
AcDbEntity
  8
DEFPOINTS
 62
     0
100
AcDbPoint
 10
189.9583928491099
 20
438.2205343807583
 30
0.0
  0
ENDBLK
  5
DE
330
D3
100
AcDbEntity
  8
0
100
AcDbBlockEnd
  0
BLOCK
  5
C4
330
C3
100
AcDbEntity
  8
0
100
AcDbBlockBegin
  2
*D15
 70
     1
 10
0.0
 20
0.0
 30
0.0
  3
*D15
  1

  0
LINE
  5
C5
330
C3
100
AcDbEntity
  8
UMRISS05
 62
     2
370
    -2
100
AcDbLine
 10
140.7510398700826
 20
370.2205343807585
 30
0.0
 11
123.7282278674515
 21
370.2205343807585
 31
0.0
  0
LINE
  5
C6
330
C3
100
AcDbEntity
  8
UMRISS05
 62
     2
370
    -2
100
AcDbLine
 10
126.1959115438124
 20
348.2205343807585
 30
0.0
 11
123.7282278674515
 21
348.2205343807585
 31
0.0
  0
LINE
  5
C7
330
C3
100
AcDbEntity
  8
UMRISS05
 62
     2
370
    -2
100
AcDbLine
 10
124.7282278674515
 20
366.2205343807585
 30
0.0
 11
124.7282278674515
 21
352.2205343807585
 31
0.0
  0
SOLID
  5
C8
330
C3
100
AcDbEntity
  8
UMRISS05
 62
     2
100
AcDbTrace
 10
124.0615612007848
 20
366.2205343807585
 30
0.0
 11
125.3948945341181
 21
366.2205343807585
 31
0.0
 12
124.7282278674515
 22
370.2205343807585
 32
0.0
 13
124.7282278674515
 23
370.2205343807585
 33
0.0
  0
SOLID
  5
C9
330
C3
100
AcDbEntity
  8
UMRISS05
 62
     2
100
AcDbTrace
 10
124.0615612007848
 20
352.2205343807585
 30
0.0
 11
125.3948945341181
 21
352.2205343807585
 31
0.0
 12
124.7282278674515
 22
348.2205343807585
 32
0.0
 13
124.7282278674515
 23
348.2205343807585
 33
0.0
  0
MTEXT
  5
CA
330
C3
100
AcDbEntity
  8
UMRISS05
 62
     3
100
AcDbMText
 10
121.544326093918
 20
358.4907576426514
 30
0.0
 40
4.349999999999998
 41
0.0
 71
     5
 72
     1
  1
\A1;22
  7
ARIAL-STANDARD
 11
0.0000000000000001
 21
1.0
 31
0.0
 73
     1
 44
1.0
1001
ACAD
1000
MTEXTBEGIN
1070
    73
1070
     1
1070
    44
1040
1.0
1070
    74
1070
     0
1000
MTEXTEND
  0
POINT
  5
CB
330
C3
100
AcDbEntity
  8
DEFPOINTS
 62
     0
100
AcDbPoint
 10
140.7510398700826
 20
370.2205343807585
 30
0.0
  0
POINT
  5
CC
330
C3
100
AcDbEntity
  8
DEFPOINTS
 62
     0
100
AcDbPoint
 10
126.1959115438124
 20
348.2205343807585
 30
0.0
  0
POINT
  5
CD
330
C3
100
AcDbEntity
  8
DEFPOINTS
 62
     0
100
AcDbPoint
 10
124.7282278674515
 20
348.2205343807585
 30
0.0
  0
ENDBLK
  5
CE
330
C3
100
AcDbEntity
  8
0
100
AcDbBlockEnd
  0
BLOCK
  5
B7
330
B6
100
AcDbEntity
  8
0
100
AcDbBlockBegin
  2
*D16
 70
     1
 10
0.0
 20
0.0
 30
0.0
  3
*D16
  1

  0
LINE
  5
B8
330
B6
100
AcDbEntity
  8
UMRISS05
 62
     2
370
    -2
100
AcDbLine
 10
126.1959115438124
 20
348.2205343807585
 30
0.0
 11
123.7282278674514
 21
348.2205343807585
 31
0.0
  0
LINE
  5
B9
330
B6
100
AcDbEntity
  8
UMRISS05
 62
     2
370
    -2
100
AcDbLine
 10
138.525806090332
 20
283.2205343807587
 30
0.0
 11
123.7282278674514
 21
283.2205343807587
 31
0.0
  0
LINE
  5
BA
330
B6
100
AcDbEntity
  8
UMRISS05
 62
     2
370
    -2
100
AcDbLine
 10
124.7282278674514
 20
344.2205343807585
 30
0.0
 11
124.7282278674514
 21
287.2205343807587
 31
0.0
  0
SOLID
  5
BB
330
B6
100
AcDbEntity
  8
UMRISS05
 62
     2
100
AcDbTrace
 10
124.0615612007847
 20
344.2205343807585
 30
0.0
 11
125.3948945341181
 21
344.2205343807585
 31
0.0
 12
124.7282278674514
 22
348.2205343807585
 32
0.0
 13
124.7282278674514
 23
348.2205343807585
 33
0.0
  0
SOLID
  5
BC
330
B6
100
AcDbEntity
  8
UMRISS05
 62
     2
100
AcDbTrace
 10
124.0615612007847
 20
287.2205343807587
 30
0.0
 11
125.3948945341181
 21
287.2205343807587
 31
0.0
 12
124.7282278674514
 22
283.2205343807587
 32
0.0
 13
124.7282278674514
 23
283.2205343807587
 33
0.0
  0
MTEXT
  5
BD
330
B6
100
AcDbEntity
  8
UMRISS05
 62
     3
100
AcDbMText
 10
121.507235370862
 20
315.7205343807586
 30
0.0
 40
4.349999999999998
 41
0.0
 71
     5
 72
     1
  1
\A1;65
  7
ARIAL-STANDARD
 11
0.0000000000000001
 21
1.0
 31
0.0
 73
     1
 44
1.0
1001
ACAD
1000
MTEXTBEGIN
1070
    73
1070
     1
1070
    44
1040
1.0
1070
    74
1070
     0
1000
MTEXTEND
  0
POINT
  5
BE
330
B6
100
AcDbEntity
  8
DEFPOINTS
 62
     0
100
AcDbPoint
 10
126.1959115438124
 20
348.2205343807585
 30
0.0
  0
POINT
  5
BF
330
B6
100
AcDbEntity
  8
DEFPOINTS
 62
     0
100
AcDbPoint
 10
138.525806090332
 20
283.2205343807587
 30
0.0
  0
POINT
  5
C0
330
B6
100
AcDbEntity
  8
DEFPOINTS
 62
     0
100
AcDbPoint
 10
124.7282278674514
 20
283.2205343807587
 30
0.0
  0
ENDBLK
  5
C1
330
B6
100
AcDbEntity
  8
0
100
AcDbBlockEnd
  0
BLOCK
  5
A4
330
A3
100
AcDbEntity
  8
0
100
AcDbBlockBegin
  2
*D17
 70
     1
 10
0.0
 20
0.0
 30
0.0
  3
*D17
  1

  0
LINE
  5
A5
330
A3
100
AcDbEntity
  8
BEMASSUNG
 62
     2
370
    -2
100
AcDbLine
 10
213.9338725069734
 20
311.4486880554567
 30
0.0
 11
213.9338725069734
 21
312.4486880554567
 31
0.0
  0
LINE
  5
A6
330
A3
100
AcDbEntity
  8
BEMASSUNG
 62
     2
370
    -2
100
AcDbLine
 10
223.9338725069733
 20
313.4855002837197
 30
0.0
 11
223.9338725069733
 21
310.4486880554568
 31
0.0
  0
LINE
  5
A7
330
A3
100
AcDbEntity
  8
BEMASSUNG
 62
     2
370
    -2
100
AcDbLine
 10
227.9338725069733
 20
311.4486880554567
 30
0.0
 11
231.9338725069733
 21
311.4486880554567
 31
0.0
  0
LINE
  5
A8
330
A3
100
AcDbEntity
  8
BEMASSUNG
 62
     2
370
    -2
100
AcDbLine
 10
209.9338725069734
 20
311.4486880554567
 30
0.0
 11
197.9178936529489
 21
311.4486880554567
 31
0.0
  0
LINE
  5
A9
330
A3
100
AcDbEntity
  8
BEMASSUNG
 62
     2
370
    -2
100
AcDbLine
 10
223.9338725069733
 20
311.4486880554567
 30
0.0
 11
213.9338725069734
 21
311.4486880554567
 31
0.0
  0
SOLID
  5
AA
330
A3
100
AcDbEntity
  8
BEMASSUNG
 62
     2
100
AcDbTrace
 10
227.9338725069733
 20
312.1153547221234
 30
0.0
 11
227.9338725069733
 21
310.78202138879
 31
0.0
 12
223.9338725069733
 22
311.4486880554567
 32
0.0
 13
223.9338725069733
 23
311.4486880554567
 33
0.0
  0
SOLID
  5
AB
330
A3
100
AcDbEntity
  8
BEMASSUNG
 62
     2
100
AcDbTrace
 10
209.9338725069734
 20
312.1153547221234
 30
0.0
 11
209.9338725069734
 21
310.78202138879
 31
0.0
 12
213.9338725069734
 22
311.4486880554567
 32
0.0
 13
213.9338725069734
 23
311.4486880554567
 33
0.0
  0
MTEXT
  5
AC
330
A3
100
AcDbEntity
  8
BEMASSUNG
 62
     3
100
AcDbMText
 10
201.8213554537675
 20
314.6696805520461
 30
0.0
 40
4.349999999999998
 41
0.0
 71
     5
 72
     1
  1
\A1;10
  7
ARIAL-STANDARD
 73
     1
 44
1.0
1001
ACAD
1000
MTEXTBEGIN
1070
    73
1070
     1
1070
    44
1040
1.0
1070
    74
1070
     0
1000
MTEXTEND
  0
POINT
  5
AD
330
A3
100
AcDbEntity
  8
DEFPOINTS
 62
     0
100
AcDbPoint
 10
213.9338725069734
 20
311.4486880554567
 30
0.0
  0
POINT
  5
AE
330
A3
100
AcDbEntity
  8
DEFPOINTS
 62
     0
100
AcDbPoint
 10
223.9338725069733
 20
313.4855002837197
 30
0.0
  0
POINT
  5
AF
330
A3
100
AcDbEntity
  8
DEFPOINTS
 62
     0
100
AcDbPoint
 10
223.9338725069733
 20
311.4486880554567
 30
0.0
  0
ENDBLK
  5
B0
330
A3
100
AcDbEntity
  8
0
100
AcDbBlockEnd
  0
BLOCK
  5
91
330
90
100
AcDbEntity
  8
0
100
AcDbBlockBegin
  2
*D18
 70
     1
 10
0.0
 20
0.0
 30
0.0
  3
*D18
  1

  0
LINE
  5
92
330
90
100
AcDbEntity
  8
BEMASSUNG
 62
     2
370
    -2
100
AcDbLine
 10
203.8777267435496
 20
447.5454043162449
 30
0.0
 11
213.2750615865381
 21
438.5286625360142
 31
0.0
  0
MTEXT
  5
93
330
90
100
AcDbEntity
  8
BEMASSUNG
 62
     3
100
AcDbMText
 10
209.3632938823699
 20
446.7458852023478
 30
0.0
 40
4.349999999999998
 41
0.0
 71
     5
 72
     1
  1
\A1;R8
  7
ARIAL-STANDARD
 11
0.7215675767028942
 21
-0.6923440129380142
 31
0.0
 73
     1
 44
1.0
1001
ACAD
1000
MTEXTBEGIN
1070
    73
1070
     1
1070
    44
1040
1.0
1070
    74
1070
     0
1000
MTEXTEND
  0
LINE
  5
94
330
90
100
AcDbEntity
  8
BEMASSUNG
 62
     2
370
    -2
100
AcDbLine
 10
221.9338725069729
 20
430.2205343807578
 30
0.0
 11
216.1613318933497
 21
435.7592864842621
 31
0.0
  0
SOLID
  5
95
330
90
100
AcDbEntity
  8
BEMASSUNG
 62
     2
100
AcDbTrace
 10
213.7366242618302
 20
439.0097075871493
 30
0.0
 11
212.8134989112461
 21
438.0476174848788
 31
0.0
 12
216.1613318933497
 22
435.7592864842621
 32
0.0
 13
216.1613318933497
 23
435.7592864842621
 33
0.0
  0
POINT
  5
96
330
90
100
AcDbEntity
  8
DEFPOINTS
 62
     0
100
AcDbPoint
 10
216.1613318933497
 20
435.7592864842621
 30
0.0
  0
POINT
  5
97
330
90
100
AcDbEntity
  8
DEFPOINTS
 62
     0
100
AcDbPoint
 10
221.9338725069729
 20
430.2205343807578
 30
0.0
  0
ENDBLK
  5
98
330
90
100
AcDbEntity
  8
0
100
AcDbBlockEnd
  0
BLOCK
  5
28A
330
289
100
AcDbEntity
  8
0
100
AcDbBlockBegin
  2
_ACMFILLED30
 70
     0
 10
0.0
 20
0.0
 30
0.0
  3
_ACMFILLED30
  1

  0
TRACE
  5
28B
330
289
100
AcDbEntity
  8
BEMASSUNG
 62
     0
100
AcDbTrace
 10
-1.0
 20
-0.26794919
 30
0.0
 11
-1.0
 21
0.26794919
 31
0.0
 12
0.0
 22
0.0
 32
0.0
 13
0.0
 23
0.0
 33
0.0
  0
ENDBLK
  5
28C
330
289
100
AcDbEntity
  8
0
100
AcDbBlockEnd
  0
BLOCK
  5
70
330
6F
100
AcDbEntity
  8
0
100
AcDbBlockBegin
  2
*D20
 70
     1
 10
0.0
 20
0.0
 30
0.0
  3
*D20
  1

  0
LINE
  5
71
330
6F
100
AcDbEntity
  8
AM_5
 62
     2
370
    -2
100
AcDbLine
 10
156.520472833196
 20
390.2205343807585
 30
0.0
 11
156.520472833196
 21
403.4767684710681
 31
0.0
  0
LINE
  5
72
330
6F
100
AcDbEntity
  8
AM_5
 62
     2
370
    -2
100
AcDbLine
 10
161.520472833196
 20
393.2205343807585
 30
0.0
 11
161.520472833196
 21
403.4767684710681
 31
0.0
  0
LINE
  5
73
330
6F
100
AcDbEntity
  8
AM_5
 62
     2
370
    -2
100
AcDbLine
 10
152.520472833196
 20
402.4767684710681
 30
0.0
 11
148.520472833196
 21
402.4767684710681
 31
0.0
  0
LINE
  5
74
330
6F
100
AcDbEntity
  8
AM_5
 62
     2
370
    -2
100
AcDbLine
 10
165.5204728331959
 20
402.4767684710681
 30
0.0
 11
174.4046474580254
 21
402.4767684710681
 31
0.0
  0
LINE
  5
75
330
6F
100
AcDbEntity
  8
AM_5
 62
     2
370
    -2
100
AcDbLine
 10
156.520472833196
 20
402.4767684710681
 30
0.0
 11
161.520472833196
 21
402.4767684710681
 31
0.0
  0
SOLID
  5
76
330
6F
100
AcDbEntity
  8
AM_5
 62
     2
100
AcDbTrace
 10
152.520472833196
 20
403.1434351377349
 30
0.0
 11
152.520472833196
 21
401.8101018044014
 31
0.0
 12
156.520472833196
 22
402.4767684710681
 32
0.0
 13
156.520472833196
 23
402.4767684710681
 33
0.0
  0
SOLID
  5
77
330
6F
100
AcDbEntity
  8
AM_5
 62
     2
100
AcDbTrace
 10
165.5204728331959
 20
403.1434351377349
 30
0.0
 11
165.5204728331959
 21
401.8101018044014
 31
0.0
 12
161.520472833196
 22
402.4767684710681
 32
0.0
 13
161.520472833196
 23
402.4767684710681
 33
0.0
  0
MTEXT
  5
78
330
6F
100
AcDbEntity
  8
AM_5
 62
     3
100
AcDbMText
 10
171.9625601456107
 20
405.6888591941241
 30
0.0
 40
4.349999999999998
 41
0.0
 71
     5
 72
     1
  1
\A1;5
  7
ARIAL-STANDARD
 73
     1
 44
1.0
1001
ACAD
1000
MTEXTBEGIN
1070
    73
1070
     1
1070
    44
1040
1.0
1070
    74
1070
     0
1000
MTEXTEND
  0
POINT
  5
79
330
6F
100
AcDbEntity
  8
DEFPOINTS
 62
     0
100
AcDbPoint
 10
156.520472833196
 20
390.2205343807585
 30
0.0
  0
POINT
  5
7B
330
6F
100
AcDbEntity
  8
DEFPOINTS
 62
     0
100
AcDbPoint
 10
161.520472833196
 20
393.2205343807585
 30
0.0
  0
POINT
  5
7C
330
6F
100
AcDbEntity
  8
DEFPOINTS
 62
     0
100
AcDbPoint
 10
161.520472833196
 20
402.4767684710681
 30
0.0
  0
ENDBLK
  5
7D
330
6F
100
AcDbEntity
  8
0
100
AcDbBlockEnd
  0
ENDSEC
  0
SECTION
  2
ENTITIES
  0
DIMENSION
  5
6C
330
2
100
AcDbEntity
  8
AM_5
100
AcDbDimension
  2
*D20
 10
161.520472833196
 20
402.4767684710681
 30
0.0
 11
171.9625601456107
 21
402.4767684710681
 31
0.0
 70
   128
 71
     5
 42
5.0
  3
Katalog 09$0
100
AcDbAlignedDimension
 13
156.520472833196
 23
390.2205343807585
 33
0.0
 14
161.520472833196
 24
393.2205343807585
 34
0.0
100
AcDbRotatedDimension
1001
ACAD_DSTYLE_DIMINSPECT
1070
   396
1000
100%
1070
   395
1000

1070
   394
1070
    33
1070
   393
1070
     0
  0
LINE
  5
80
330
2
100
AcDbEntity
  8
Verdeckte Kanten(MSL)
100
AcDbLine
 10
160.520472833196
 20
350.2205343807583
 30
0.0
 11
156.520472833196
 21
350.2205343807585
 31
0.0
  0
LINE
  5
83
330
2
100
AcDbEntity
  8
Verdeckte Kanten(MSL)
100
AcDbLine
 10
156.520472833196
 20
390.2205343807585
 30
0.0
 11
160.520472833196
 21
390.2205343807583
 31
0.0
  0
LINE
  5
84
330
2
100
AcDbEntity
  8
Verdeckte Kanten(MSL)
100
AcDbLine
 10
160.520472833196
 20
390.2205343807583
 30
0.0
 11
160.520472833196
 21
350.2205343807583
 31
0.0
  0
LINE
  5
85
330
2
100
AcDbEntity
  8
Verdeckte Kanten(MSL)
100
AcDbLine
 10
156.520472833196
 20
390.2205343807585
 30
0.0
 11
156.520472833196
 21
350.2205343807585
 31
0.0
  0
LINE
  5
86
330
2
100
AcDbEntity
  8
ACHSEN
100
AcDbLine
 10
212.1838725069734
 20
323.7205343807585
 30
0.0
 11
225.6838725069734
 21
323.7205343807585
 31
0.0
  0
LINE
  5
8B
330
2
100
AcDbEntity
  8
ACHSEN
100
AcDbLine
 10
212.1838725069734
 20
240.7205343807586
 30
0.0
 11
225.6838725069734
 21
240.7205343807586
 31
0.0
  0
LINE
  5
8C
330
2
100
AcDbEntity
  8
ACHSEN
100
AcDbLine
 10
212.1838725069734
 20
418.7205343807585
 30
0.0
 11
225.6838725069734
 21
418.7205343807585
 31
0.0
  0
LINE
  5
8D
330
2
100
AcDbEntity
  8
ACHSEN
100
AcDbLine
 10
144.7704728331959
 20
323.7205343807585
 30
0.0
 11
158.2704728331959
 21
323.7205343807585
 31
0.0
  0
LINE
  5
8E
330
2
100
AcDbEntity
  8
ACHSEN
100
AcDbLine
 10
151.520472833196
 20
330.4705343807585
 30
0.0
 11
151.520472833196
 21
316.9705343807585
 31
0.0
  0
DIMENSION
  5
8F
330
2
100
AcDbEntity
  8
BEMASSUNG
100
AcDbDimension
  2
*D18
 10
221.9338725069729
 20
430.2205343807578
 30
0.0
 11
209.3632938823699
 21
446.7458852023478
 31
0.0
 70
     4
 71
     5
 42
8.000000000000111
  3
Katalog 09
100
AcDbRadialDimension
 15
216.1613318933497
 25
435.7592864842621
 35
0.0
 40
0.0
1001
ACAD_DSTYLE_DIMRADIAL_EXTENSION
1070
   387
1070
     1
1070
   388
1040
1.570796326794896
1070
   390
1040
3.141592653589792
  0
MTEXT
  5
9A
102
{ACAD_XDICTIONARY
360
9B
102
}
330
2
100
AcDbEntity
  8
UMRISS05
 62
     3
100
AcDbMText
 10
251.2991336592486
 20
356.9247129794256
 30
0.0
 40
3.5
 41
0.0
 71
     5
 72
     1
  1
\A1;Dr\U+00FCckerh\U+00F6he
  7
ARIAL-STANDARD
 73
     1
 44
1.0
1001
ACAD
1000
MTEXTBEGIN
1070
    73
1070
     1
1070
    44
1040
1.0
1070
    74
1070
     0
1000
MTEXTEND
  0
LINE
  5
9F
330
2
100
AcDbEntity
  8
UMRISS05
100
AcDbLine
 10
239.8511312853798
 20
348.2205343807585
 30
0.0
 11
229.8511312853798
 21
348.2205343807585
 31
0.0
  0
TRACE
  5
A0
330
2
100
AcDbEntity
  8
UMRISS05
100
AcDbTrace
 10
-236.1908772353798
 20
353.2205343807585
 30
-0.0000000000000058
 11
-233.5113853353798
 21
353.2205343807585
 31
-0.0000000000000058
 12
-234.8511312853798
 22
348.2205343807585
 32
-0.0000000000000058
 13
-234.8511312853798
 23
348.2205343807585
 33
-0.0000000000000058
210
0.0
220
0.0
230
-1.0
  0
LINE
  5
A1
330
2
100
AcDbEntity
  8
UMRISS05
100
AcDbLine
 10
234.8511312853798
 20
353.2205343807585
 30
0.0
 11
234.8511312853798
 21
358.2205343807585
 31
0.0
  0
DIMENSION
  5
A2
330
2
100
AcDbEntity
  8
BEMASSUNG
100
AcDbDimension
  2
*D17
 10
223.9338725069733
 20
311.4486880554567
 30
0.0
 11
201.8213554537675
 21
311.4486880554567
 31
0.0
 70
   128
 71
     5
 42
9.999999999999886
  3
Katalog 09
100
AcDbAlignedDimension
 13
213.9338725069734
 23
311.4486880554567
 33
0.0
 14
223.9338725069733
 24
313.4855002837197
 34
0.0
100
AcDbRotatedDimension
1001
ACAD_DSTYLE_DIMINSPECT
1070
   396
1000
100%
1070
   395
1000

1070
   394
1070
    33
1070
   393
1070
     0
  0
LINE
  5
B1
330
2
100
AcDbEntity
  8
ACHSEN
100
AcDbLine
 10
144.6883692689615
 20
396.4705343807585
 30
0.0
 11
155.0526919546038
 21
396.4705343807585
 31
0.0
  0
LINE
  5
B2
330
2
100
AcDbEntity
  8
ACHSEN
100
AcDbLine
 10
150.020472833196
 20
401.490119655868
 30
0.0
 11
150.020472833196
 21
391.2959778180388
 31
0.0
  0
LINE
  5
B3
330
2
100
AcDbEntity
  8
UMRISS05
100
AcDbLine
 10
131.1959115438124
 20
351.2205343807586
 30
0.0
 11
131.1959115438124
 21
356.2205343807586
 31
0.0
  0
LINE
  5
B4
330
2
100
AcDbEntity
  8
ACHSEN
100
AcDbLine
 10
138.5258060903325
 20
283.2205343807585
 30
0.0
 11
161.7311938996447
 21
283.2205343807585
 31
0.0
  0
DIMENSION
  5
B5
330
2
100
AcDbEntity
  8
UMRISS05
100
AcDbDimension
  2
*D16
 10
124.7282278674514
 20
283.2205343807587
 30
0.0
 11
121.507235370862
 21
315.7205343807586
 31
0.0
 71
     5
 42
64.99999999999977
  3
Katalog 09
100
AcDbAlignedDimension
 13
126.1959115438124
 23
348.2205343807585
 33
0.0
 14
138.525806090332
 24
283.2205343807587
 34
0.0
 50
90.0
100
AcDbRotatedDimension
1001
ACAD_DSTYLE_DIMINSPECT
1070
   396
1000
100%
1070
   395
1000

1070
   394
1070
    33
1070
   393
1070
     0
  0
DIMENSION
  5
C2
330
2
100
AcDbEntity
  8
UMRISS05
100
AcDbDimension
  2
*D15
 10
124.7282278674515
 20
348.2205343807585
 30
0.0
 11
124.7282278674514
 21
358.4907576426514
 31
0.0
 70
   128
 71
     5
 42
22.0
  3
Katalog 09
100
AcDbAlignedDimension
 13
140.7510398700826
 23
370.2205343807585
 33
0.0
 14
126.1959115438124
 24
348.2205343807585
 34
0.0
 50
90.0
100
AcDbRotatedDimension
1001
ACAD_DSTYLE_DIMINSPECT
1070
   396
1000
100%
1070
   395
1000

1070
   394
1070
    33
1070
   393
1070
     0
  0
LINE
  5
CF
330
2
100
AcDbEntity
  8
UMRISS05
100
AcDbLine
 10
136.1959115438123
 20
348.2205343807585
 30
0.0
 11
126.1959115438124
 21
348.2205343807585
 31
0.0
  0
TRACE
  5
D0
330
2
100
AcDbEntity
  8
UMRISS05
100
AcDbTrace
 10
-132.5356574938123
 20
353.2205343807585
 30
-0.0000000000000032
 11
-129.8561655938123
 21
353.2205343807585
 31
-0.0000000000000032
 12
-131.1959115438124
 22
348.2205343807585
 32
-0.0000000000000032
 13
-131.1959115438124
 23
348.2205343807585
 33
-0.0000000000000032
210
0.0
220
0.0
230
-1.0
  0
LINE
  5
D1
330
2
100
AcDbEntity
  8
ACHSEN
100
AcDbLine
 10
136.1959115438123
 20
348.2205343807585
 30
0.0
 11
229.8511312853798
 21
348.2205343807585
 31
0.0
  0
DIMENSION
  5
D2
330
2
100
AcDbEntity
  8
BEMASSUNG
100
AcDbDimension
  2
*D14
 10
189.9583928491099
 20
438.2205343807583
 30
0.0
 11
189.9583928491098
 21
331.4508956839188
 31
0.0
 70
   128
 71
     5
 42
217.0
  3
Katalog 09
100
AcDbAlignedDimension
 13
160.520472833196
 23
221.2205343807585
 33
0.0
 14
160.520472833196
 24
438.2205343807583
 34
0.0
 50
90.0
100
AcDbRotatedDimension
  0
DIMENSION
  5
DF
330
2
100
AcDbEntity
  8
BEMASSUNG
100
AcDbDimension
  2
*D13
 10
180.5797048794223
 20
315.7205343807585
 30
0.0
 11
177.358712382833
 21
284.7205343807588
 31
0.0
 71
     5
 42
61.99999999999942
  3
Katalog 09
100
AcDbAlignedDimension
 13
156.520472833196
 23
253.720534380759
 33
0.0
 14
156.520472833196
 24
315.7205343807585
 34
0.0
 50
270.0
100
AcDbRotatedDimension
  0
DIMENSION
  5
EC
330
2
100
AcDbEntity
  8
BEMASSUNG
100
AcDbDimension
  2
*D12
 10
180.5797048794223
 20
221.2205343807585
 30
0.0
 11
177.3572287539107
 21
237.4705343807588
 31
0.0
 71
     5
 42
32.50000000000054
  3
Katalog 09
100
AcDbAlignedDimension
 13
156.520472833196
 23
253.720534380759
 33
0.0
 14
160.520472833196
 24
221.2205343807585
 34
0.0
 50
270.0
100
AcDbRotatedDimension
  0
DIMENSION
  5
F9
330
2
100
AcDbEntity
  8
BEMASSUNG
100
AcDbDimension
  2
*D11
 10
180.5797048794223
 20
347.2205343807585
 30
0.0
 11
177.3572287539107
 21
331.4705343807585
 31
0.0
 71
     5
 42
31.50000000000006
  3
Katalog 09
100
AcDbAlignedDimension
 13
156.520472833196
 23
315.7205343807585
 33
0.0
 14
161.520472833196
 24
347.2205343807585
 34
0.0
 50
270.0
100
AcDbRotatedDimension
  0
DIMENSION
  5
106
330
2
100
AcDbEntity
  8
BEMASSUNG
100
AcDbDimension
  2
*D10
 10
180.5797048794223
 20
393.2205343807585
 30
0.0
 11
177.3587123828329
 21
370.2205343807586
 31
0.0
 71
     5
 42
46.0
  3
Katalog 09
100
AcDbAlignedDimension
 13
161.520472833196
 23
347.2205343807585
 33
0.0
 14
161.520472833196
 24
393.2205343807585
 34
0.0
 50
270.0
100
AcDbRotatedDimension
  0
DIMENSION
  5
113
330
2
100
AcDbEntity
  8
BEMASSUNG
100
AcDbDimension
  2
*D9
 10
180.5797048794223
 20
438.2202510545027
 30
0.0
 11
177.3676141563664
 21
415.7203927176306
 31
0.0
 71
     5
 42
44.99971667374415
  3
Katalog 09
100
AcDbAlignedDimension
 13
161.520472833196
 23
393.2205343807585
 33
0.0
 14
160.5442756111422
 24
438.2202510545027
 34
0.0
 50
270.0
100
AcDbRotatedDimension
  0
DIMENSION
  5
120
330
2
100
AcDbEntity
  8
BEMASSUNG
100
AcDbDimension
  2
*D8
 10
158.520472833196
 20
258.4728403253616
 30
0.0
 11
152.1130480542685
 21
258.4728403253616
 31
0.0
 70
   128
 71
     5
 42
14.00000000000003
  3
Katalog 09
100
AcDbAlignedDimension
 13
144.5204728331959
 23
258.4728403253616
 33
0.0
 14
158.520472833196
 24
258.4728403253616
 34
0.0
100
AcDbRotatedDimension
  0
LINE
  5
12D
330
2
100
AcDbEntity
  8
ACHSEN
100
AcDbLine
 10
144.7704728331959
 20
240.7205343807585
 30
0.0
 11
158.2704728331959
 21
240.7205343807585
 31
0.0
  0
LINE
  5
12E
330
2
100
AcDbEntity
  8
ACHSEN
100
AcDbLine
 10
151.520472833196
 20
247.4705343807585
 30
0.0
 11
151.520472833196
 21
233.9705343807585
 31
0.0
  0
LINE
  5
12F
330
2
100
AcDbEntity
  8
ACHSEN
100
AcDbLine
 10
144.6883692689605
 20
343.9705343807585
 30
0.0
 11
155.0526919546028
 21
343.9705343807585
 31
0.0
  0
LINE
  5
130
330
2
100
AcDbEntity
  8
ACHSEN
100
AcDbLine
 10
150.0204728331949
 20
348.990119655868
 30
0.0
 11
150.0204728331949
 21
338.7959778180388
 31
0.0
  0
DIMENSION
  5
131
330
2
100
AcDbEntity
  8
UMRISS05
100
AcDbDimension
  2
*D7
 10
116.4133279681162
 20
240.7205343807585
 30
0.0
 11
113.1908518426046
 21
282.2205343807586
 31
0.0
 71
     5
 42
83.00000000000002
  3
Katalog 09
100
AcDbAlignedDimension
 13
144.7704728331959
 23
323.7205343807585
 33
0.0
 14
144.7704728331959
 24
240.7205343807585
 34
0.0
 50
90.0
100
AcDbRotatedDimension
  0
DIMENSION
  5
13E
330
2
100
AcDbEntity
  8
UMRISS05
100
AcDbDimension
  2
*D6
 10
116.4133279681162
 20
323.7205343807586
 30
0.0
 11
116.4133279681161
 21
373.6578965024203
 31
0.0
 70
   128
 71
     5
 42
95.0
  3
Katalog 09
100
AcDbAlignedDimension
 13
144.7704728331959
 23
418.7205343807585
 33
0.0
 14
144.5156502719579
 24
323.7205343807585
 34
0.0
 50
90.0
100
AcDbRotatedDimension
  0
DIMENSION
  5
14B
330
2
100
AcDbEntity
  8
UMRISS05
100
AcDbDimension
  2
*D5
 10
116.4133279681162
 20
438.2205343807584
 30
0.0
 11
113.1923354715268
 21
428.4705343807585
 31
0.0
 71
     5
 42
19.5
  3
Katalog 09
100
AcDbAlignedDimension
 13
144.7704728331959
 23
418.7205343807585
 33
0.0
 14
142.5204728331959
 24
438.2205343807583
 34
0.0
 50
90.0
100
AcDbRotatedDimension
  0
DIMENSION
  5
158
330
2
100
AcDbEntity
  8
UMRISS05
100
AcDbDimension
  2
*D4
 10
116.4133279681162
 20
240.7205343807585
 30
0.0
 11
113.1923354715268
 21
230.9705343807586
 31
0.0
 71
     5
 42
19.5
  3
Katalog 09
100
AcDbAlignedDimension
 13
142.5204728331959
 23
221.2205343807585
 33
0.0
 14
144.7704728331959
 24
240.7205343807585
 34
0.0
 50
90.0
100
AcDbRotatedDimension
  0
LINE
  5
165
330
2
100
AcDbEntity
  8
ACHSEN
100
AcDbLine
 10
144.7704728331959
 20
418.7205343807585
 30
0.0
 11
158.2704728331959
 21
418.7205343807585
 31
0.0
  0
LINE
  5
166
330
2
100
AcDbEntity
  8
ACHSEN
100
AcDbLine
 10
151.520472833196
 20
425.4705343807585
 30
0.0
 11
151.520472833196
 21
411.9705343807585
 31
0.0
  0
LINE
  5
167
330
2
100
AcDbEntity
  8
ACHSEN
100
AcDbLine
 10
140.7510398700826
 20
370.2205343807585
 30
0.0
 11
163.9564276793948
 21
370.2205343807585
 31
0.0
  0
DIMENSION
  5
168
330
2
100
AcDbEntity
  8
BEMASSUNG
100
AcDbDimension
  2
*D3
 10
161.520472833196
 20
383.8602623928519
 30
0.0
 11
171.9817108959517
 21
383.8602623928519
 31
0.0
 70
   128
 71
     5
 42
15.5
  3
Katalog 09
100
AcDbAlignedDimension
 13
146.020472833196
 23
380.7205343807585
 33
0.0
 14
161.520472833196
 24
393.2205343807585
 34
0.0
100
AcDbRotatedDimension
  0
LINE
  5
176
330
2
100
AcDbEntity
  8
ACHSEN
100
AcDbLine
 10
151.5204728331948
 20
186.8640459906629
 30
0.0
 11
151.5204728331948
 21
173.3640459906629
 31
0.0
  0
DIMENSION
  5
177
330
2
100
AcDbEntity
  8
BEMASSUNG
100
AcDbDimension
  2
*D2
 10
161.5204728331516
 20
198.9717122007006
 30
0.0
 11
151.4379029889846
 21
198.9717122007006
 31
0.0
 70
   128
 71
     5
 42
20.00000000000006
  3
Katalog 09
100
AcDbAlignedDimension
 13
141.5204728331515
 23
184.1140459906605
 33
0.0
 14
161.5204728331516
 24
184.1140459906605
 34
0.0
100
AcDbRotatedDimension
  0
DIMENSION
  5
184
330
2
100
AcDbEntity
  8
BEMASSUNG
100
AcDbDimension
  2
*D1
 10
116.413327968115
 20
185.1140459906605
 30
0.0
 11
116.4133279681149
 21
180.1140459906616
 31
0.0
 70
   128
 71
     5
 42
9.999999999997896
  3
Katalog 09
100
AcDbAlignedDimension
 13
142.5204728331516
 23
175.1140459906625
 33
0.0
 14
142.5204728331516
 24
185.1140459906605
 34
0.0
 50
90.0
100
AcDbRotatedDimension
  0
LINE
  5
193
330
2
100
AcDbEntity
  8
AVERDECKTE
100
AcDbLine
 10
148.7704728331516
 20
185.114045990657
 30
0.0
 11
148.7704728331516
 21
183.614045990657
 31
0.0
  0
LINE
  5
198
330
2
100
AcDbEntity
  8
AVERDECKTE
100
AcDbLine
 10
154.2704728331516
 20
185.114045990657
 30
0.0
 11
154.2704728331516
 21
183.614045990657
 31
0.0
  0
LINE
  5
199
330
2
100
AcDbEntity
  8
AVERDECKTE
100
AcDbLine
 10
147.5204728331516
 20
176.6140459906571
 30
0.0
 11
147.5204728331516
 21
176.114045990657
 31
0.0
  0
LINE
  5
19A
330
2
100
AcDbEntity
  8
AVERDECKTE
100
AcDbLine
 10
155.5204728331515
 20
176.6140459906571
 30
0.0
 11
155.5204728331515
 21
176.114045990657
 31
0.0
  0
LINE
  5
19B
330
2
100
AcDbEntity
  8
AVERDECKTE
100
AcDbLine
 10
144.5204728331516
 20
175.114045990649
 30
0.0
 11
144.5204728331516
 21
176.614045990649
 31
0.0
  0
LINE
  5
19C
330
2
100
AcDbEntity
  8
AVERDECKTE
100
AcDbLine
 10
146.0204728331516
 20
175.1140459906458
 30
0.0
 11
146.0204728331516
 21
176.6140459906458
 31
0.0
  0
LINE
  5
19D
330
2
100
AcDbEntity
  8
AVERDECKTE
100
AcDbLine
 10
158.5204728331516
 20
175.1140459906259
 30
0.0
 11
158.5204728331516
 21
176.6140459906259
 31
0.0
  0
LINE
  5
19E
330
2
100
AcDbEntity
  8
AVERDECKTE
100
AcDbLine
 10
158.5204728331516
 20
183.6140459906259
 30
0.0
 11
158.5204728331516
 21
185.1140459906259
 31
0.0
  0
LINE
  5
19F
330
2
100
AcDbEntity
  8
AVERDECKTE
100
AcDbLine
 10
144.5204728331516
 20
183.6140459906259
 30
0.0
 11
144.5204728331516
 21
185.1140459906259
 31
0.0
  0
ARC
  5
1A0
330
2
100
AcDbEntity
  8
UMRISS05
100
AcDbCircle
 10
142.5204728331516
 20
184.1140459906604
 30
0.0
 40
0.9999999999999984
100
AcDbArc
 50
90.0
 51
180.0
  0
ARC
  5
1A1
330
2
100
AcDbEntity
  8
UMRISS05
100
AcDbCircle
 10
142.5204728331516
 20
176.1140459906625
 30
0.0
 40
1.0
100
AcDbArc
 50
180.0
 51
270.0
  0
LINE
  5
1A2
330
2
100
AcDbEntity
  8
UMRISS05
100
AcDbLine
 10
141.5204728331516
 20
176.1140459906625
 30
0.0
 11
141.5204728331516
 21
184.1140459906604
 31
0.0
  0
LINE
  5
1A3
330
2
100
AcDbEntity
  8
UMRISS05
100
AcDbLine
 10
161.5204728331516
 20
176.1140459906625
 30
0.0
 11
161.5204728331516
 21
177.1140459906625
 31
0.0
  0
LINE
  5
1A4
330
2
100
AcDbEntity
  8
UMRISS05
100
AcDbLine
 10
161.5204728331516
 20
184.1140459906604
 30
0.0
 11
161.5204728331516
 21
177.1140459906625
 31
0.0
  0
ARC
  5
1A5
330
2
100
AcDbEntity
  8
UMRISS05
100
AcDbCircle
 10
160.5204728331516
 20
184.1140459906604
 30
0.0
 40
0.9999999999999984
100
AcDbArc
 50
0.0
 51
90.0
  0
ARC
  5
1A6
330
2
100
AcDbEntity
  8
UMRISS05
100
AcDbCircle
 10
160.5204728331516
 20
176.1140459906625
 30
0.0
 40
1.0
100
AcDbArc
 50
270.0
 51
0.0
  0
LINE
  5
1A7
330
2
100
AcDbEntity
  8
AVERDECKTE
100
AcDbLine
 10
147.7704728331515
 20
176.6140459906505
 30
0.0
 11
147.7704728331515
 21
176.3640459906504
 31
0.0
  0
LINE
  5
1A8
330
2
100
AcDbEntity
  8
AVERDECKTE
100
AcDbLine
 10
152.2704728331515
 20
176.6140459906505
 30
0.0
 11
152.2704728331515
 21
176.3640459906504
 31
0.0
  0
LINE
  5
1A9
330
2
100
AcDbEntity
  8
AVERDECKTE
100
AcDbLine
 10
147.7704728331515
 20
176.3640459906504
 30
0.0
 11
147.5204728331516
 21
176.1140459906505
 31
0.0
  0
LINE
  5
1AA
330
2
100
AcDbEntity
  8
AVERDECKTE
100
AcDbLine
 10
152.2704728331515
 20
176.3640459906504
 30
0.0
 11
153.5204728331515
 21
175.1140459906505
 31
0.0
  0
LINE
  5
1AB
330
2
100
AcDbEntity
  8
AVERDECKTE
100
AcDbLine
 10
147.7704728331515
 20
176.3640459906504
 30
0.0
 11
152.2704728331515
 21
176.3640459906504
 31
0.0
  0
LINE
  5
1AC
330
2
100
AcDbEntity
  8
UMRISS05
100
AcDbLine
 10
160.5204728331516
 20
185.1140459906605
 30
0.0
 11
142.5204728331516
 21
185.1140459906605
 31
0.0
  0
LINE
  5
1AD
330
2
100
AcDbEntity
  8
UMRISS05
100
AcDbLine
 10
160.0204728331516
 20
177.1140459906628
 30
0.0
 11
160.0204728331516
 21
183.6140459906619
 31
0.0
  0
LINE
  5
1AE
330
2
100
AcDbEntity
  8
UMRISS05
100
AcDbLine
 10
143.0204728331515
 20
183.6140459906619
 30
0.0
 11
160.0204728331516
 21
183.6140459906618
 31
0.0
  0
LINE
  5
1AF
330
2
100
AcDbEntity
  8
UMRISS05
100
AcDbLine
 10
143.0204728331515
 20
183.6140459906618
 30
0.0
 11
143.0204728331515
 21
176.6140459906629
 31
0.0
  0
LINE
  5
1B0
330
2
100
AcDbEntity
  8
AVERDECKTE
100
AcDbLine
 10
160.0204728331516
 20
185.1140459906535
 30
0.0
 11
160.0204728331516
 21
183.6140459906535
 31
0.0
  0
LINE
  5
1B1
330
2
100
AcDbEntity
  8
AVERDECKTE
100
AcDbLine
 10
143.0204728331515
 20
185.1140459906535
 30
0.0
 11
143.0204728331515
 21
183.6140459906535
 31
0.0
  0
LINE
  5
1B2
330
2
100
AcDbEntity
  8
UMRISS05
100
AcDbLine
 10
160.0204728331516
 20
176.6140459906629
 30
0.0
 11
143.0204728331515
 21
176.6140459906629
 31
0.0
  0
LINE
  5
1B3
330
2
100
AcDbEntity
  8
UMRISS05
100
AcDbLine
 10
160.0204728331516
 20
177.1140459906628
 30
0.0
 11
160.0204728331516
 21
176.6140459906629
 31
0.0
  0
LINE
  5
1B4
330
2
100
AcDbEntity
  8
UMRISS05
100
AcDbLine
 10
160.5204728331516
 20
175.1140459906628
 30
0.0
 11
142.5204728331516
 21
175.1140459906628
 31
0.0
  0
LINE
  5
1B5
330
2
100
AcDbEntity
  8
AVERDECKTE
100
AcDbLine
 10
147.5204728331516
 20
176.114045990657
 30
0.0
 11
146.5204728331516
 21
175.114045990657
 31
0.0
  0
LINE
  5
1B6
330
2
100
AcDbEntity
  8
AVERDECKTE
100
AcDbLine
 10
155.5204728331515
 20
176.114045990657
 30
0.0
 11
156.5204728331516
 21
175.114045990657
 31
0.0
  0
LINE
  5
1B7
330
2
100
AcDbEntity
  8
AVERDECKTE
100
AcDbLine
 10
155.5204728331515
 20
176.114045990657
 30
0.0
 11
147.5204728331516
 21
176.114045990657
 31
0.0
  0
LINE
  5
1B8
330
2
100
AcDbEntity
  8
AVERDECKTE
100
AcDbLine
 10
213.9338725069761
 20
415.9705343807585
 30
0.0
 11
215.4338725069761
 21
415.9705343807585
 31
0.0
  0
LINE
  5
1B9
330
2
100
AcDbEntity
  8
AVERDECKTE
100
AcDbLine
 10
213.9338725069761
 20
421.4705343807585
 30
0.0
 11
215.4338725069761
 21
421.4705343807585
 31
0.0
  0
LINE
  5
1BA
330
2
100
AcDbEntity
  8
AVERDECKTE
100
AcDbLine
 10
213.9338725069761
 20
237.9705343807585
 30
0.0
 11
215.4338725069761
 21
237.9705343807585
 31
0.0
  0
LINE
  5
1BB
330
2
100
AcDbEntity
  8
AVERDECKTE
100
AcDbLine
 10
213.9338725069761
 20
243.4705343807585
 30
0.0
 11
215.4338725069761
 21
243.4705343807585
 31
0.0
  0
LINE
  5
1BC
330
2
100
AcDbEntity
  8
AVERDECKTE
100
AcDbLine
 10
213.9338725069761
 20
320.9705343807585
 30
0.0
 11
215.4338725069761
 21
320.9705343807585
 31
0.0
  0
LINE
  5
1BD
330
2
100
AcDbEntity
  8
AVERDECKTE
100
AcDbLine
 10
213.9338725069761
 20
326.4705343807585
 30
0.0
 11
215.4338725069761
 21
326.4705343807585
 31
0.0
  0
LINE
  5
1BE
330
2
100
AcDbEntity
  8
AVERDECKTE
100
AcDbLine
 10
222.4338725069761
 20
236.7205343807585
 30
0.0
 11
222.933872506976
 21
236.7205343807585
 31
0.0
  0
LINE
  5
1BF
330
2
100
AcDbEntity
  8
AVERDECKTE
100
AcDbLine
 10
222.4338725069761
 20
244.7205343807585
 30
0.0
 11
222.933872506976
 21
244.7205343807585
 31
0.0
  0
LINE
  5
1C0
330
2
100
AcDbEntity
  8
AVERDECKTE
100
AcDbLine
 10
222.4338725069761
 20
319.7205343807585
 30
0.0
 11
222.933872506976
 21
319.7205343807585
 31
0.0
  0
LINE
  5
1C1
330
2
100
AcDbEntity
  8
AVERDECKTE
100
AcDbLine
 10
222.4338725069761
 20
327.7205343807585
 30
0.0
 11
222.933872506976
 21
327.7205343807585
 31
0.0
  0
LINE
  5
1C2
330
2
100
AcDbEntity
  8
AVERDECKTE
100
AcDbLine
 10
222.4338725069761
 20
414.7205343807585
 30
0.0
 11
222.933872506976
 21
414.7205343807585
 31
0.0
  0
LINE
  5
1C3
330
2
100
AcDbEntity
  8
AVERDECKTE
100
AcDbLine
 10
222.4338725069761
 20
422.7205343807585
 30
0.0
 11
222.933872506976
 21
422.7205343807585
 31
0.0
  0
LINE
  5
1C4
330
2
100
AcDbEntity
  8
AVERDECKTE
100
AcDbLine
 10
223.9338725069746
 20
315.7205343807585
 30
0.0
 11
222.4338725069746
 21
315.7205343807585
 31
0.0
  0
LINE
  5
1C5
330
2
100
AcDbEntity
  8
AVERDECKTE
100
AcDbLine
 10
215.4338725069746
 20
315.7205343807585
 30
0.0
 11
213.9338725069746
 21
315.7205343807585
 31
0.0
  0
LINE
  5
1C6
330
2
100
AcDbEntity
  8
AVERDECKTE
100
AcDbLine
 10
223.9338725069746
 20
253.7205343807585
 30
0.0
 11
222.4338725069746
 21
253.7205343807585
 31
0.0
  0
LINE
  5
1C7
330
2
100
AcDbEntity
  8
AVERDECKTE
100
AcDbLine
 10
215.4338725069746
 20
253.7205343807585
 30
0.0
 11
213.9338725069746
 21
253.7205343807585
 31
0.0
  0
LINE
  5
1C8
330
2
100
AcDbEntity
  8
AVERDECKTE
100
AcDbLine
 10
222.4338725069756
 20
394.2205343807584
 30
0.0
 11
222.6838725069756
 21
394.2205343807584
 31
0.0
  0
LINE
  5
1C9
330
2
100
AcDbEntity
  8
AVERDECKTE
100
AcDbLine
 10
222.4338725069756
 20
398.7205343807585
 30
0.0
 11
222.6838725069756
 21
398.7205343807585
 31
0.0
  0
LINE
  5
1CA
330
2
100
AcDbEntity
  8
AVERDECKTE
100
AcDbLine
 10
222.6838725069756
 20
394.2205343807584
 30
0.0
 11
223.9338725069756
 21
392.9705343807585
 31
0.0
  0
LINE
  5
1CB
330
2
100
AcDbEntity
  8
AVERDECKTE
100
AcDbLine
 10
222.6838725069756
 20
398.7205343807585
 30
0.0
 11
223.9338725069756
 21
399.9705343807585
 31
0.0
  0
LINE
  5
1CC
330
2
100
AcDbEntity
  8
AVERDECKTE
100
AcDbLine
 10
222.4338725069756
 20
341.7205343807585
 30
0.0
 11
222.6838725069756
 21
341.7205343807585
 31
0.0
  0
LINE
  5
1CD
330
2
100
AcDbEntity
  8
AVERDECKTE
100
AcDbLine
 10
222.4338725069756
 20
346.2205343807585
 30
0.0
 11
222.6838725069756
 21
346.2205343807585
 31
0.0
  0
LINE
  5
1CE
330
2
100
AcDbEntity
  8
AVERDECKTE
100
AcDbLine
 10
222.6838725069756
 20
341.7205343807585
 30
0.0
 11
223.9338725069756
 21
340.4705343807585
 31
0.0
  0
LINE
  5
1CF
330
2
100
AcDbEntity
  8
AVERDECKTE
100
AcDbLine
 10
222.6838725069756
 20
346.2205343807585
 30
0.0
 11
223.9338725069756
 21
347.4705343807585
 31
0.0
  0
LINE
  5
1D0
330
2
100
AcDbEntity
  8
AVERDECKTE
100
AcDbLine
 10
222.6838725069756
 20
394.2205343807584
 30
0.0
 11
222.6838725069756
 21
398.7205343807585
 31
0.0
  0
LINE
  5
1D1
330
2
100
AcDbEntity
  8
AVERDECKTE
100
AcDbLine
 10
222.6838725069756
 20
341.7205343807585
 30
0.0
 11
222.6838725069756
 21
346.2205343807585
 31
0.0
  0
ELLIPSE
  5
1D2
330
2
100
AcDbEntity
  8
UMRISS05
100
AcDbEllipse
 10
213.9338725069731
 20
418.7205343807585
 30
0.0
 11
-3.535533905932736
 21
0.0000000000000002
 31
0.0
210
0.0
220
0.0
230
1.0
 40
0.7071067811865445
 41
1.857552879006444
 42
4.425632428173141
  0
ELLIPSE
  5
1D3
330
2
100
AcDbEntity
  8
UMRISS05
100
AcDbEllipse
 10
213.9338725069731
 20
240.7205343807585
 30
0.0
 11
-3.535533905932736
 21
0.0000000000000002
 31
0.0
210
0.0
220
0.0
230
1.0
 40
0.7071067811865445
 41
1.857552879006444
 42
4.425632428173141
  0
ELLIPSE
  5
1D4
330
2
100
AcDbEntity
  8
UMRISS05
100
AcDbEllipse
 10
213.9338725069731
 20
323.7205343807585
 30
0.0
 11
-3.535533905932736
 21
0.0000000000000002
 31
0.0
210
0.0
220
0.0
230
1.0
 40
0.7071067811865445
 41
1.857552879006444
 42
4.425632428173141
  0
LINE
  5
1D5
330
2
100
AcDbEntity
  8
UMRISS05
100
AcDbLine
 10
215.4338725069739
 20
242.9843806652927
 30
0.0
 11
215.4338725069739
 21
238.4566880962241
 31
0.0
  0
LINE
  5
1D6
330
2
100
AcDbEntity
  8
UMRISS05
100
AcDbLine
 10
215.4338725069739
 20
325.9843806652928
 30
0.0
 11
215.4338725069739
 21
321.4566880962242
 31
0.0
  0
LINE
  5
1D7
330
2
100
AcDbEntity
  8
UMRISS05
100
AcDbLine
 10
215.4338725069739
 20
420.9843806652926
 30
0.0
 11
215.4338725069739
 21
416.4566880962241
 31
0.0
  0
LINE
  5
1D8
330
2
100
AcDbEntity
  8
AVERDECKTE
100
AcDbLine
 10
215.4338725069735
 20
243.2205343807585
 30
0.0
 11
214.2267657257866
 21
243.2205343807585
 31
0.0
  0
LINE
  5
1D9
330
2
100
AcDbEntity
  8
AVERDECKTE
100
AcDbLine
 10
215.4338725069735
 20
238.2205343807585
 30
0.0
 11
214.2267657257866
 21
238.2205343807585
 31
0.0
  0
LINE
  5
1DA
330
2
100
AcDbEntity
  8
AVERDECKTE
100
AcDbLine
 10
215.4338725069735
 20
421.2205343807585
 30
0.0
 11
214.2267657257866
 21
421.2205343807585
 31
0.0
  0
LINE
  5
1DB
330
2
100
AcDbEntity
  8
AVERDECKTE
100
AcDbLine
 10
215.4338725069735
 20
416.2205343807585
 30
0.0
 11
214.2267657257866
 21
416.2205343807585
 31
0.0
  0
LINE
  5
1DC
330
2
100
AcDbEntity
  8
AVERDECKTE
100
AcDbLine
 10
215.4338725069735
 20
326.2205343807585
 30
0.0
 11
214.2267657257866
 21
326.2205343807585
 31
0.0
  0
LINE
  5
1DD
330
2
100
AcDbEntity
  8
AVERDECKTE
100
AcDbLine
 10
215.4338725069735
 20
321.2205343807585
 30
0.0
 11
214.2267657257866
 21
321.2205343807585
 31
0.0
  0
LINE
  5
1DE
330
2
100
AcDbEntity
  8
AVERDECKTE
100
AcDbLine
 10
215.4338725069739
 20
321.4566880962242
 30
0.0
 11
215.4338725069735
 21
321.2205343807585
 31
0.0
  0
LINE
  5
1DF
330
2
100
AcDbEntity
  8
AVERDECKTE
100
AcDbLine
 10
215.4338725069735
 20
326.2205343807585
 30
0.0
 11
215.4338725069739
 21
325.9843806652928
 31
0.0
  0
LINE
  5
1E0
330
2
100
AcDbEntity
  8
AVERDECKTE
100
AcDbLine
 10
215.4338725069739
 20
416.4566880962241
 30
0.0
 11
215.4338725069735
 21
416.2205343807585
 31
0.0
  0
LINE
  5
1E1
330
2
100
AcDbEntity
  8
AVERDECKTE
100
AcDbLine
 10
215.4338725069735
 20
421.2205343807585
 30
0.0
 11
215.4338725069739
 21
420.9843806652926
 31
0.0
  0
ELLIPSE
  5
1E2
330
2
100
AcDbEntity
  8
AVERDECKTE
100
AcDbEllipse
 10
215.4338725069735
 20
418.7205343807585
 30
0.0
 11
3.535533905932736
 21
0.0
 31
0.0
210
0.0
220
0.0
230
1.0
 40
0.7071067811865475
 41
4.712388980384688
 42
7.853981633974482
  0
ELLIPSE
  5
1E3
330
2
100
AcDbEntity
  8
AVERDECKTE
100
AcDbEllipse
 10
215.4338725069735
 20
323.7205343807585
 30
0.0
 11
3.535533905932736
 21
0.0
 31
0.0
210
0.0
220
0.0
230
1.0
 40
0.7071067811865475
 41
4.712388980384688
 42
7.853981633974482
  0
ELLIPSE
  5
1E4
330
2
100
AcDbEntity
  8
AVERDECKTE
100
AcDbEllipse
 10
215.4338725069735
 20
240.7205343807585
 30
0.0
 11
3.535533905932736
 21
0.0
 31
0.0
210
0.0
220
0.0
230
1.0
 40
0.7071067811865475
 41
4.712388980384688
 42
7.853981633974482
  0
LINE
  5
1E5
330
2
100
AcDbEntity
  8
AVERDECKTE
100
AcDbLine
 10
215.4338725069735
 20
434.8842239073028
 30
0.0
 11
215.4338725069735
 21
421.2205343807585
 31
0.0
  0
LINE
  5
1E6
330
2
100
AcDbEntity
  8
AVERDECKTE
100
AcDbLine
 10
215.4338725069735
 20
416.2205343807585
 30
0.0
 11
215.4338725069735
 21
406.7205343807583
 31
0.0
  0
LINE
  5
1E7
330
2
100
AcDbEntity
  8
AVERDECKTE
100
AcDbLine
 10
215.4338725069735
 20
333.7205343807585
 30
0.0
 11
215.4338725069735
 21
326.2205343807585
 31
0.0
  0
LINE
  5
1E8
330
2
100
AcDbEntity
  8
AVERDECKTE
100
AcDbLine
 10
215.4338725069735
 20
321.2205343807585
 30
0.0
 11
215.4338725069739
 21
242.9843806652927
 31
0.0
  0
LINE
  5
1E9
330
2
100
AcDbEntity
  8
AVERDECKTE
100
AcDbLine
 10
215.4338725069739
 20
238.4566880962241
 30
0.0
 11
215.4338725069735
 21
224.5568448542141
 31
0.0
  0
LINE
  5
1EA
330
2
100
AcDbEntity
  8
AVERDECKTE
100
AcDbLine
 10
222.4338725069736
 20
438.2205343807583
 30
0.0
 11
222.4338725069736
 21
221.2205343807585
 31
0.0
  0
LINE
  5
1EB
330
2
100
AcDbEntity
  8
AVERDECKTE
100
AcDbLine
 10
223.9338725069769
 20
393.2205343807585
 30
0.0
 11
222.4338725069769
 21
393.2205343807585
 31
0.0
  0
LINE
  5
1EC
330
2
100
AcDbEntity
  8
AVERDECKTE
100
AcDbLine
 10
223.9338725069741
 20
348.2205343807585
 30
0.0
 11
222.4338725069741
 21
348.2205343807585
 31
0.0
  0
LINE
  5
1ED
330
2
100
AcDbEntity
  8
AVERDECKTE
100
AcDbLine
 10
223.9338725069741
 20
392.2205343807586
 30
0.0
 11
222.4338725069741
 21
392.2205343807586
 31
0.0
  0
LINE
  5
1EE
330
2
100
AcDbEntity
  8
AVERDECKTE
100
AcDbLine
 10
223.9338725069741
 20
359.2205343807585
 30
0.0
 11
222.4338725069741
 21
359.2205343807585
 31
0.0
  0
LINE
  5
1EF
330
2
100
AcDbEntity
  8
AVERDECKTE
100
AcDbLine
 10
223.9338725069741
 20
381.2205343807585
 30
0.0
 11
222.4338725069741
 21
381.2205343807585
 31
0.0
  0
LINE
  5
1F0
330
2
100
AcDbEntity
  8
AVERDECKTE
100
AcDbLine
 10
222.4338725069785
 20
393.2205343807585
 30
0.0
 11
213.9338725069785
 21
393.2205343807585
 31
0.0
  0
LINE
  5
1F1
330
2
100
AcDbEntity
  8
AVERDECKTE
100
AcDbLine
 10
223.9338725069769
 20
347.2205343807585
 30
0.0
 11
222.4338725069769
 21
347.2205343807585
 31
0.0
  0
LINE
  5
1F2
330
2
100
AcDbEntity
  8
AVERDECKTE
100
AcDbLine
 10
213.9338725069785
 20
347.2205343807585
 30
0.0
 11
222.4338725069785
 21
347.2205343807585
 31
0.0
  0
LINE
  5
1F3
330
2
100
AcDbEntity
  8
AVERDECKTE
100
AcDbLine
 10
213.9338725069736
 20
406.7205343807583
 30
0.0
 11
215.4338725069735
 21
406.7205343807583
 31
0.0
  0
LINE
  5
1F4
330
2
100
AcDbEntity
  8
AVERDECKTE
100
AcDbLine
 10
213.9338725069736
 20
333.7205343807585
 30
0.0
 11
215.4338725069735
 21
333.7205343807585
 31
0.0
  0
LINE
  5
1F5
330
2
100
AcDbEntity
  8
UMRISS05
100
AcDbLine
 10
221.9338725069733
 20
221.2205343807585
 30
0.0
 11
223.9338725069734
 21
221.2205343807585
 31
0.0
  0
ARC
  5
1F6
330
2
100
AcDbEntity
  8
UMRISS05
100
AcDbCircle
 10
221.9338725069734
 20
229.2205343807585
 30
0.0
 40
8.000000000000008
100
AcDbArc
 50
180.0
 51
270.0
  0
SPLINE
  5
1F7
330
2
100
AcDbEntity
  8
UMRISS05
100
AcDbSpline
210
0.0
220
0.0
230
1.0
 70
     8
 71
     3
 72
    14
 73
    10
 74
     0
 42
0.000000001
 43
0.0000000001
 40
0.3814032672713047
 40
0.3814032672713047
 40
0.3814032672713047
 40
0.3814032672713047
 40
0.4195204343012331
 40
0.4195204343012331
 40
0.4576376013311615
 40
0.4576376013311615
 40
0.4957547683610898
 40
0.4957547683610898
 40
0.5338719353910181
 40
0.5338719353910181
 40
0.5338719353910181
 40
0.5338719353910181
 10
214.9338725069731
 20
238.3226186191021
 30
0.0
 10
214.8094904720615
 20
238.2966831719733
 30
0.0
 10
214.6763659105785
 20
238.2694539979627
 30
0.0
 10
214.4299350897809
 20
238.2311493364881
 30
0.0
 10
214.3166087500749
 20
238.2205343807585
 30
0.0
 10
214.1369227014984
 20
238.2205343807585
 30
0.0
 10
214.0599143788949
 20
238.2311493364881
 30
0.0
 10
213.9584515462295
 20
238.2694539979627
 30
0.0
 10
213.9338725069733
 20
238.2966831719733
 30
0.0
 10
213.9338725069734
 20
238.3226186191021
 30
0.0
  0
LINE
  5
1F8
330
2
100
AcDbEntity
  8
UMRISS05
100
AcDbLine
 10
222.9338725069731
 20
437.2205343807585
 30
0.0
 11
223.9338725069734
 21
438.2205343807583
 31
0.0
  0
LINE
  5
1F9
330
2
100
AcDbEntity
  8
UMRISS05
100
AcDbLine
 10
223.9338725069734
 20
221.2205343807585
 30
0.0
 11
222.9338725069731
 21
222.2205343807585
 31
0.0
  0
SPLINE
  5
1FA
330
2
100
AcDbEntity
  8
UMRISS05
100
AcDbSpline
210
0.0
220
0.0
230
1.0
 70
     8
 71
     3
 72
    14
 73
    10
 74
     0
 42
0.000000001
 43
0.0000000001
 40
0.0763115330505305
 40
0.0763115330505305
 40
0.0763115330505305
 40
0.0763115330505305
 40
0.1144287000804588
 40
0.1144287000804588
 40
0.1525458671103871
 40
0.1525458671103871
 40
0.1906630341403155
 40
0.1906630341403155
 40
0.228780201170244
 40
0.228780201170244
 40
0.228780201170244
 40
0.228780201170244
 10
213.9338725069734
 20
421.1184501424148
 30
0.0
 10
213.9338725069733
 20
421.1443855895437
 30
0.0
 10
213.9584515462295
 20
421.1716147635541
 30
0.0
 10
214.0599143788949
 20
421.2099194250288
 30
0.0
 10
214.1369227014984
 20
421.2205343807585
 30
0.0
 10
214.3166087500749
 20
421.2205343807585
 30
0.0
 10
214.4299350897809
 20
421.2099194250288
 30
0.0
 10
214.6763659105785
 20
421.1716147635541
 30
0.0
 10
214.8094904720615
 20
421.1443855895437
 30
0.0
 10
214.9338725069731
 20
421.1184501424148
 30
0.0
  0
SPLINE
  5
1FB
330
2
100
AcDbEntity
  8
UMRISS05
100
AcDbSpline
210
0.0
220
0.0
230
1.0
 70
     8
 71
     3
 72
    14
 73
    10
 74
     0
 42
0.000000001
 43
0.0000000001
 40
0.3814032672713047
 40
0.3814032672713047
 40
0.3814032672713047
 40
0.3814032672713047
 40
0.4195204343012331
 40
0.4195204343012331
 40
0.4576376013311615
 40
0.4576376013311615
 40
0.4957547683610898
 40
0.4957547683610898
 40
0.5338719353910181
 40
0.5338719353910181
 40
0.5338719353910181
 40
0.5338719353910181
 10
214.9338725069731
 20
416.3226186191021
 30
0.0
 10
214.8094904720615
 20
416.2966831719733
 30
0.0
 10
214.6763659105785
 20
416.2694539979626
 30
0.0
 10
214.4299350897809
 20
416.2311493364882
 30
0.0
 10
214.3166087500749
 20
416.2205343807585
 30
0.0
 10
214.1369227014984
 20
416.2205343807585
 30
0.0
 10
214.0599143788949
 20
416.2311493364882
 30
0.0
 10
213.9584515462295
 20
416.2694539979626
 30
0.0
 10
213.9338725069733
 20
416.2966831719733
 30
0.0
 10
213.9338725069734
 20
416.3226186191021
 30
0.0
  0
SPLINE
  5
1FC
330
2
100
AcDbEntity
  8
UMRISS05
100
AcDbSpline
210
0.0
220
0.0
230
1.0
 70
     8
 71
     3
 72
    14
 73
    10
 74
     0
 42
0.000000001
 43
0.0000000001
 40
0.0763115330505301
 40
0.0763115330505301
 40
0.0763115330505301
 40
0.0763115330505301
 40
0.1144287000804585
 40
0.1144287000804585
 40
0.152545867110387
 40
0.152545867110387
 40
0.1906630341403154
 40
0.1906630341403154
 40
0.2287802011702439
 40
0.2287802011702439
 40
0.2287802011702439
 40
0.2287802011702439
 10
213.9338725069734
 20
326.1184501424149
 30
0.0
 10
213.9338725069733
 20
326.1443855895437
 30
0.0
 10
213.9584515462295
 20
326.1716147635544
 30
0.0
 10
214.0599143788949
 20
326.2099194250289
 30
0.0
 10
214.1369227014984
 20
326.2205343807585
 30
0.0
 10
214.3166087500749
 20
326.2205343807585
 30
0.0
 10
214.4299350897809
 20
326.2099194250289
 30
0.0
 10
214.6763659105785
 20
326.1716147635544
 30
0.0
 10
214.8094904720615
 20
326.1443855895437
 30
0.0
 10
214.9338725069731
 20
326.1184501424149
 30
0.0
  0
SPLINE
  5
1FD
330
2
100
AcDbEntity
  8
UMRISS05
100
AcDbSpline
210
0.0
220
0.0
230
1.0
 70
     8
 71
     3
 72
    14
 73
    10
 74
     0
 42
0.000000001
 43
0.0000000001
 40
0.0763115330505305
 40
0.0763115330505305
 40
0.0763115330505305
 40
0.0763115330505305
 40
0.1144287000804588
 40
0.1144287000804588
 40
0.1525458671103871
 40
0.1525458671103871
 40
0.1906630341403155
 40
0.1906630341403155
 40
0.228780201170244
 40
0.228780201170244
 40
0.228780201170244
 40
0.228780201170244
 10
213.9338725069734
 20
243.1184501424148
 30
0.0
 10
213.9338725069733
 20
243.1443855895437
 30
0.0
 10
213.9584515462295
 20
243.1716147635543
 30
0.0
 10
214.0599143788949
 20
243.2099194250289
 30
0.0
 10
214.1369227014984
 20
243.2205343807585
 30
0.0
 10
214.3166087500749
 20
243.2205343807585
 30
0.0
 10
214.4299350897809
 20
243.2099194250289
 30
0.0
 10
214.6763659105785
 20
243.1716147635543
 30
0.0
 10
214.8094904720615
 20
243.1443855895437
 30
0.0
 10
214.9338725069731
 20
243.1184501424148
 30
0.0
  0
SPLINE
  5
1FE
330
2
100
AcDbEntity
  8
UMRISS05
100
AcDbSpline
210
0.0
220
0.0
230
1.0
 70
     8
 71
     3
 72
    14
 73
    10
 74
     0
 42
0.000000001
 43
0.0000000001
 40
0.3814032672713043
 40
0.3814032672713043
 40
0.3814032672713043
 40
0.3814032672713043
 40
0.4195204343012329
 40
0.4195204343012329
 40
0.4576376013311612
 40
0.4576376013311612
 40
0.4957547683610896
 40
0.4957547683610896
 40
0.5338719353910181
 40
0.5338719353910181
 40
0.5338719353910181
 40
0.5338719353910181
 10
214.9338725069731
 20
321.3226186191022
 30
0.0
 10
214.8094904720615
 20
321.2966831719733
 30
0.0
 10
214.6763659105785
 20
321.2694539979627
 30
0.0
 10
214.4299350897809
 20
321.2311493364881
 30
0.0
 10
214.3166087500749
 20
321.2205343807585
 30
0.0
 10
214.1369227014984
 20
321.2205343807585
 30
0.0
 10
214.0599143788949
 20
321.2311493364881
 30
0.0
 10
213.9584515462295
 20
321.2694539979627
 30
0.0
 10
213.9338725069733
 20
321.2966831719734
 30
0.0
 10
213.9338725069734
 20
321.3226186191022
 30
0.0
  0
LINE
  5
1FF
330
2
100
AcDbEntity
  8
UMRISS05
100
AcDbLine
 10
213.9338725069734
 20
430.2205343807584
 30
0.0
 11
213.9338725069734
 21
229.2205343807585
 31
0.0
  0
ARC
  5
200
330
2
100
AcDbEntity
  8
UMRISS05
100
AcDbCircle
 10
221.9338725069734
 20
430.2205343807584
 30
0.0
 40
8.000000000000008
100
AcDbArc
 50
90.0
 51
180.0
  0
LINE
  5
201
330
2
100
AcDbEntity
  8
UMRISS05
100
AcDbLine
 10
223.9338725069734
 20
438.2205343807583
 30
0.0
 11
221.9338725069733
 21
438.2205343807583
 31
0.0
  0
LINE
  5
202
330
2
100
AcDbEntity
  8
UMRISS05
100
AcDbLine
 10
223.9338725069734
 20
221.2205343807585
 30
0.0
 11
223.9338725069734
 21
438.2205343807583
 31
0.0
  0
LINE
  5
203
330
2
100
AcDbEntity
  8
AVERDECKTE
100
AcDbLine
 10
222.933872506976
 20
236.7205343807585
 30
0.0
 11
223.9338725069761
 21
235.7205343807585
 31
0.0
  0
LINE
  5
204
330
2
100
AcDbEntity
  8
AVERDECKTE
100
AcDbLine
 10
222.933872506976
 20
244.7205343807585
 30
0.0
 11
223.9338725069761
 21
245.7205343807585
 31
0.0
  0
LINE
  5
205
330
2
100
AcDbEntity
  8
AVERDECKTE
100
AcDbLine
 10
222.933872506976
 20
319.7205343807585
 30
0.0
 11
223.9338725069761
 21
318.7205343807585
 31
0.0
  0
LINE
  5
206
330
2
100
AcDbEntity
  8
AVERDECKTE
100
AcDbLine
 10
222.933872506976
 20
327.7205343807585
 30
0.0
 11
223.9338725069761
 21
328.7205343807585
 31
0.0
  0
LINE
  5
207
330
2
100
AcDbEntity
  8
AVERDECKTE
100
AcDbLine
 10
222.933872506976
 20
414.7205343807585
 30
0.0
 11
223.9338725069761
 21
413.7205343807583
 31
0.0
  0
LINE
  5
208
330
2
100
AcDbEntity
  8
AVERDECKTE
100
AcDbLine
 10
222.933872506976
 20
422.7205343807585
 30
0.0
 11
223.9338725069761
 21
423.7205343807585
 31
0.0
  0
LINE
  5
209
330
2
100
AcDbEntity
  8
AVERDECKTE
100
AcDbLine
 10
222.933872506976
 20
244.7205343807585
 30
0.0
 11
222.933872506976
 21
236.7205343807585
 31
0.0
  0
LINE
  5
20A
330
2
100
AcDbEntity
  8
AVERDECKTE
100
AcDbLine
 10
222.933872506976
 20
327.7205343807585
 30
0.0
 11
222.933872506976
 21
319.7205343807585
 31
0.0
  0
LINE
  5
20B
330
2
100
AcDbEntity
  8
AVERDECKTE
100
AcDbLine
 10
222.933872506976
 20
422.7205343807583
 30
0.0
 11
222.933872506976
 21
414.7205343807585
 31
0.0
  0
CIRCLE
  5
20C
330
2
100
AcDbEntity
  8
UMRISS05
100
AcDbCircle
 10
151.520472833196
 20
323.7205343807585
 30
0.0
 40
2.75
  0
CIRCLE
  5
20D
330
2
100
AcDbEntity
  8
UMRISS05
100
AcDbCircle
 10
151.520472833196
 20
240.7205343807585
 30
0.0
 40
2.75
  0
CIRCLE
  5
20E
330
2
100
AcDbEntity
  8
UMRISS05
100
AcDbCircle
 10
151.520472833196
 20
418.7205343807585
 30
0.0
 40
2.75
  0
LINE
  5
20F
330
2
100
AcDbEntity
  8
AVERDECKTE
100
AcDbLine
 10
143.020472833196
 20
243.2205343807585
 30
0.0
 11
141.8133660520094
 21
243.2205343807585
 31
0.0
  0
LINE
  5
210
330
2
100
AcDbEntity
  8
AVERDECKTE
100
AcDbLine
 10
143.020472833196
 20
238.2205343807585
 30
0.0
 11
141.8133660520094
 21
238.2205343807585
 31
0.0
  0
LINE
  5
211
330
2
100
AcDbEntity
  8
AVERDECKTE
100
AcDbLine
 10
143.020472833196
 20
421.2205343807585
 30
0.0
 11
141.8133660520094
 21
421.2205343807585
 31
0.0
  0
LINE
  5
212
330
2
100
AcDbEntity
  8
AVERDECKTE
100
AcDbLine
 10
143.020472833196
 20
416.2205343807585
 30
0.0
 11
141.8133660520094
 21
416.2205343807585
 31
0.0
  0
LINE
  5
213
330
2
100
AcDbEntity
  8
AVERDECKTE
100
AcDbLine
 10
143.020472833196
 20
326.2205343807585
 30
0.0
 11
141.8133660520094
 21
326.2205343807585
 31
0.0
  0
LINE
  5
214
330
2
100
AcDbEntity
  8
AVERDECKTE
100
AcDbLine
 10
143.020472833196
 20
321.2205343807585
 30
0.0
 11
141.8133660520094
 21
321.2205343807585
 31
0.0
  0
ELLIPSE
  5
215
330
2
100
AcDbEntity
  8
AVERDECKTE
100
AcDbEllipse
 10
141.520472833196
 20
418.7205343807585
 30
0.0
 11
3.535533905932738
 21
0.0
 31
0.0
210
0.0
220
0.0
230
1.0
 40
0.7071067811865471
 41
4.999145532596235
 42
7.567225081762936
  0
ELLIPSE
  5
216
330
2
100
AcDbEntity
  8
AVERDECKTE
100
AcDbEllipse
 10
141.520472833196
 20
323.7205343807585
 30
0.0
 11
3.535533905932738
 21
0.0
 31
0.0
210
0.0
220
0.0
230
1.0
 40
0.7071067811865471
 41
4.999145532596235
 42
7.567225081762936
  0
ELLIPSE
  5
217
330
2
100
AcDbEntity
  8
AVERDECKTE
100
AcDbEllipse
 10
141.520472833196
 20
240.7205343807585
 30
0.0
 11
3.535533905932738
 21
0.0
 31
0.0
210
0.0
220
0.0
230
1.0
 40
0.7071067811865471
 41
4.999145532596235
 42
7.567225081762936
  0
ELLIPSE
  5
218
330
2
100
AcDbEntity
  8
AVERDECKTE
100
AcDbEllipse
 10
143.020472833196
 20
240.7205343807585
 30
0.0
 11
3.535533905932738
 21
0.0
 31
0.0
210
0.0
220
0.0
230
1.0
 40
0.7071067811865475
 41
4.712388980384688
 42
7.853981633974482
  0
ELLIPSE
  5
219
330
2
100
AcDbEntity
  8
AVERDECKTE
100
AcDbEllipse
 10
143.020472833196
 20
323.7205343807585
 30
0.0
 11
3.535533905932738
 21
0.0
 31
0.0
210
0.0
220
0.0
230
1.0
 40
0.7071067811865475
 41
4.712388980384688
 42
7.853981633974482
  0
ELLIPSE
  5
21A
330
2
100
AcDbEntity
  8
AVERDECKTE
100
AcDbEllipse
 10
143.020472833196
 20
418.7205343807585
 30
0.0
 11
3.535533905932738
 21
0.0
 31
0.0
210
0.0
220
0.0
230
1.0
 40
0.7071067811865475
 41
4.712388980384688
 42
7.853981633974482
  0
LINE
  5
21B
330
2
100
AcDbEntity
  8
AVERDECKTE
100
AcDbLine
 10
160.0204728331959
 20
224.5568448542141
 30
0.0
 11
143.020472833196
 21
224.5568448542141
 31
0.0
  0
LINE
  5
21C
330
2
100
AcDbEntity
  8
AVERDECKTE
100
AcDbLine
 10
143.020472833196
 20
434.8842239073028
 30
0.0
 11
160.0204728331959
 21
434.8842239073028
 31
0.0
  0
SPLINE
  5
21D
330
2
100
AcDbEntity
  8
AVERDECKTE
100
AcDbSpline
210
0.0
220
0.0
230
1.0
 70
     8
 71
     3
 72
    14
 73
    10
 74
     0
 42
0.000000001
 43
0.0000000001
 40
0.3814032672713047
 40
0.3814032672713047
 40
0.3814032672713047
 40
0.3814032672713047
 40
0.4195204343012331
 40
0.4195204343012331
 40
0.4576376013311615
 40
0.4576376013311615
 40
0.4957547683610898
 40
0.4957547683610898
 40
0.5338719353910181
 40
0.5338719353910181
 40
0.5338719353910181
 40
0.5338719353910181
 10
141.520472833196
 20
238.3226186191021
 30
0.0
 10
141.520472833196
 20
238.2966831719733
 30
0.0
 10
141.5450518724522
 20
238.2694539979627
 30
0.0
 10
141.6465147051176
 20
238.2311493364881
 30
0.0
 10
141.7235230277212
 20
238.2205343807585
 30
0.0
 10
141.9032090762977
 20
238.2205343807585
 30
0.0
 10
142.0165354160037
 20
238.2311493364881
 30
0.0
 10
142.2629662368014
 20
238.2694539979627
 30
0.0
 10
142.3960907982843
 20
238.2966831719733
 30
0.0
 10
142.5204728331959
 20
238.3226186191021
 30
0.0
  0
SPLINE
  5
21E
330
2
100
AcDbEntity
  8
AVERDECKTE
100
AcDbSpline
210
0.0
220
0.0
230
1.0
 70
     8
 71
     3
 72
    14
 73
    10
 74
     0
 42
0.000000001
 43
0.0000000001
 40
0.0763115330505305
 40
0.0763115330505305
 40
0.0763115330505305
 40
0.0763115330505305
 40
0.1144287000804588
 40
0.1144287000804588
 40
0.1525458671103871
 40
0.1525458671103871
 40
0.1906630341403155
 40
0.1906630341403155
 40
0.228780201170244
 40
0.228780201170244
 40
0.228780201170244
 40
0.228780201170244
 10
142.5204728331959
 20
421.1184501424148
 30
0.0
 10
142.3960907982843
 20
421.1443855895437
 30
0.0
 10
142.2629662368014
 20
421.1716147635541
 30
0.0
 10
142.0165354160037
 20
421.2099194250288
 30
0.0
 10
141.9032090762977
 20
421.2205343807585
 30
0.0
 10
141.7235230277212
 20
421.2205343807585
 30
0.0
 10
141.6465147051176
 20
421.2099194250288
 30
0.0
 10
141.5450518724522
 20
421.1716147635541
 30
0.0
 10
141.520472833196
 20
421.1443855895437
 30
0.0
 10
141.520472833196
 20
421.1184501424148
 30
0.0
  0
SPLINE
  5
21F
330
2
100
AcDbEntity
  8
AVERDECKTE
100
AcDbSpline
210
0.0
220
0.0
230
1.0
 70
     8
 71
     3
 72
    14
 73
    10
 74
     0
 42
0.000000001
 43
0.0000000001
 40
0.3814032672713047
 40
0.3814032672713047
 40
0.3814032672713047
 40
0.3814032672713047
 40
0.4195204343012331
 40
0.4195204343012331
 40
0.4576376013311615
 40
0.4576376013311615
 40
0.4957547683610898
 40
0.4957547683610898
 40
0.5338719353910181
 40
0.5338719353910181
 40
0.5338719353910181
 40
0.5338719353910181
 10
141.520472833196
 20
416.3226186191021
 30
0.0
 10
141.520472833196
 20
416.2966831719733
 30
0.0
 10
141.5450518724522
 20
416.2694539979626
 30
0.0
 10
141.6465147051176
 20
416.2311493364882
 30
0.0
 10
141.7235230277212
 20
416.2205343807585
 30
0.0
 10
141.9032090762977
 20
416.2205343807585
 30
0.0
 10
142.0165354160037
 20
416.2311493364882
 30
0.0
 10
142.2629662368014
 20
416.2694539979626
 30
0.0
 10
142.3960907982843
 20
416.2966831719733
 30
0.0
 10
142.5204728331959
 20
416.3226186191021
 30
0.0
  0
SPLINE
  5
220
330
2
100
AcDbEntity
  8
AVERDECKTE
100
AcDbSpline
210
0.0
220
0.0
230
1.0
 70
     8
 71
     3
 72
    14
 73
    10
 74
     0
 42
0.000000001
 43
0.0000000001
 40
0.0763115330505301
 40
0.0763115330505301
 40
0.0763115330505301
 40
0.0763115330505301
 40
0.1144287000804585
 40
0.1144287000804585
 40
0.152545867110387
 40
0.152545867110387
 40
0.1906630341403154
 40
0.1906630341403154
 40
0.2287802011702439
 40
0.2287802011702439
 40
0.2287802011702439
 40
0.2287802011702439
 10
142.5204728331959
 20
326.1184501424149
 30
0.0
 10
142.3960907982843
 20
326.1443855895437
 30
0.0
 10
142.2629662368014
 20
326.1716147635544
 30
0.0
 10
142.0165354160037
 20
326.2099194250289
 30
0.0
 10
141.9032090762977
 20
326.2205343807585
 30
0.0
 10
141.7235230277212
 20
326.2205343807585
 30
0.0
 10
141.6465147051176
 20
326.2099194250289
 30
0.0
 10
141.5450518724522
 20
326.1716147635544
 30
0.0
 10
141.520472833196
 20
326.1443855895437
 30
0.0
 10
141.520472833196
 20
326.1184501424149
 30
0.0
  0
SPLINE
  5
221
330
2
100
AcDbEntity
  8
AVERDECKTE
100
AcDbSpline
210
0.0
220
0.0
230
1.0
 70
     8
 71
     3
 72
    14
 73
    10
 74
     0
 42
0.000000001
 43
0.0000000001
 40
0.0763115330505305
 40
0.0763115330505305
 40
0.0763115330505305
 40
0.0763115330505305
 40
0.1144287000804588
 40
0.1144287000804588
 40
0.1525458671103871
 40
0.1525458671103871
 40
0.1906630341403155
 40
0.1906630341403155
 40
0.228780201170244
 40
0.228780201170244
 40
0.228780201170244
 40
0.228780201170244
 10
142.5204728331959
 20
243.1184501424148
 30
0.0
 10
142.3960907982843
 20
243.1443855895437
 30
0.0
 10
142.2629662368014
 20
243.1716147635543
 30
0.0
 10
142.0165354160037
 20
243.2099194250289
 30
0.0
 10
141.9032090762977
 20
243.2205343807585
 30
0.0
 10
141.7235230277212
 20
243.2205343807585
 30
0.0
 10
141.6465147051176
 20
243.2099194250289
 30
0.0
 10
141.5450518724522
 20
243.1716147635543
 30
0.0
 10
141.520472833196
 20
243.1443855895437
 30
0.0
 10
141.520472833196
 20
243.1184501424148
 30
0.0
  0
SPLINE
  5
222
330
2
100
AcDbEntity
  8
AVERDECKTE
100
AcDbSpline
210
0.0
220
0.0
230
1.0
 70
     8
 71
     3
 72
    14
 73
    10
 74
     0
 42
0.000000001
 43
0.0000000001
 40
0.3814032672713043
 40
0.3814032672713043
 40
0.3814032672713043
 40
0.3814032672713043
 40
0.4195204343012329
 40
0.4195204343012329
 40
0.4576376013311612
 40
0.4576376013311612
 40
0.4957547683610896
 40
0.4957547683610896
 40
0.5338719353910181
 40
0.5338719353910181
 40
0.5338719353910181
 40
0.5338719353910181
 10
141.520472833196
 20
321.3226186191022
 30
0.0
 10
141.520472833196
 20
321.2966831719733
 30
0.0
 10
141.5450518724522
 20
321.2694539979627
 30
0.0
 10
141.6465147051176
 20
321.2311493364881
 30
0.0
 10
141.7235230277212
 20
321.2205343807585
 30
0.0
 10
141.9032090762977
 20
321.2205343807585
 30
0.0
 10
142.0165354160037
 20
321.2311493364881
 30
0.0
 10
142.2629662368014
 20
321.2694539979627
 30
0.0
 10
142.3960907982843
 20
321.2966831719734
 30
0.0
 10
142.5204728331959
 20
321.3226186191022
 30
0.0
  0
ARC
  5
223
330
2
100
AcDbEntity
  8
UMRISS05
100
AcDbCircle
 10
142.5204728331959
 20
437.2205343807585
 30
0.0
 40
1.0
100
AcDbArc
 50
90.0
 51
180.0
  0
ARC
  5
224
330
2
100
AcDbEntity
  8
UMRISS05
100
AcDbCircle
 10
142.5204728331959
 20
222.2205343807585
 30
0.0
 40
1.0
100
AcDbArc
 50
180.0
 51
270.0
  0
LINE
  5
225
330
2
100
AcDbEntity
  8
UMRISS05
100
AcDbLine
 10
141.520472833196
 20
437.2205343807585
 30
0.0
 11
141.520472833196
 21
222.2205343807585
 31
0.0
  0
LINE
  5
226
330
2
100
AcDbEntity
  8
UMRISS05
100
AcDbLine
 10
161.520472833196
 20
222.2205343807585
 30
0.0
 11
161.520472833196
 21
347.2205343807585
 31
0.0
  0
ARC
  5
227
330
2
100
AcDbEntity
  8
UMRISS05
100
AcDbCircle
 10
160.520472833196
 20
222.2205343807585
 30
0.0
 40
1.0
100
AcDbArc
 50
270.0
 51
0.0
  0
ARC
  5
228
330
2
100
AcDbEntity
  8
UMRISS05
100
AcDbCircle
 10
160.520472833196
 20
437.2205343807585
 30
0.0
 40
1.0
100
AcDbArc
 50
0.0
 51
90.0
  0
LINE
  5
229
330
2
100
AcDbEntity
  8
UMRISS05
100
AcDbLine
 10
161.520472833196
 20
393.2205343807585
 30
0.0
 11
161.520472833196
 21
437.2205343807585
 31
0.0
  0
LINE
  5
22A
330
2
100
AcDbEntity
  8
AVERDECKTE
100
AcDbLine
 10
143.020472833196
 20
406.7205343807583
 30
0.0
 11
160.0204728331959
 21
406.7205343807583
 31
0.0
  0
LINE
  5
22B
330
2
100
AcDbEntity
  8
AVERDECKTE
100
AcDbLine
 10
160.0204728331959
 20
333.7205343807585
 30
0.0
 11
143.020472833196
 21
333.7205343807585
 31
0.0
  0
CIRCLE
  5
22C
330
2
100
AcDbEntity
  8
UMRISS05
100
AcDbCircle
 10
150.020472833196
 20
396.4705343807585
 30
0.0
 40
2.25
  0
CIRCLE
  5
22D
330
2
100
AcDbEntity
  8
UMRISS05
100
AcDbCircle
 10
150.0204728331949
 20
343.9705343807585
 30
0.0
 40
2.25
  0
CIRCLE
  5
22E
330
2
100
AcDbEntity
  8
UMRISS05
100
AcDbCircle
 10
150.0204728331949
 20
343.9705343807585
 30
0.0
 40
3.5
  0
CIRCLE
  5
22F
330
2
100
AcDbEntity
  8
UMRISS05
100
AcDbCircle
 10
150.020472833196
 20
396.4705343807585
 30
0.0
 40
3.5
  0
LINE
  5
230
330
2
100
AcDbEntity
  8
UMRISS05
100
AcDbLine
 10
146.520472833196
 20
315.7205343807585
 30
0.0
 11
156.520472833196
 21
315.7205343807585
 31
0.0
  0
ARC
  5
231
330
2
100
AcDbEntity
  8
UMRISS05
100
AcDbCircle
 10
146.520472833196
 20
313.7205343807585
 30
0.0
 40
1.99999999999976
100
AcDbArc
 50
90.0
 51
180.0
  0
LINE
  5
232
330
2
100
AcDbEntity
  8
UMRISS05
100
AcDbLine
 10
144.520472833196
 20
255.7205343807585
 30
0.0
 11
144.520472833196
 21
313.7205343807585
 31
0.0
  0
ARC
  5
233
330
2
100
AcDbEntity
  8
UMRISS05
100
AcDbCircle
 10
146.520472833196
 20
255.7205343807585
 30
0.0
 40
1.99999999999985
100
AcDbArc
 50
180.0
 51
270.0
  0
LINE
  5
234
330
2
100
AcDbEntity
  8
UMRISS05
100
AcDbLine
 10
156.520472833196
 20
253.7205343807585
 30
0.0
 11
146.520472833196
 21
253.7205343807585
 31
0.0
  0
ARC
  5
235
330
2
100
AcDbEntity
  8
UMRISS05
100
AcDbCircle
 10
156.520472833196
 20
255.7205343807585
 30
0.0
 40
1.999999999999467
100
AcDbArc
 50
270.0
 51
0.0
  0
LINE
  5
236
330
2
100
AcDbEntity
  8
UMRISS05
100
AcDbLine
 10
158.520472833196
 20
313.7205343807585
 30
0.0
 11
158.520472833196
 21
255.7205343807585
 31
0.0
  0
ARC
  5
237
330
2
100
AcDbEntity
  8
UMRISS05
100
AcDbCircle
 10
156.520472833196
 20
313.7205343807585
 30
0.0
 40
1.99999999999981
100
AcDbArc
 50
0.0
 51
90.0
  0
LINE
  5
238
330
2
100
AcDbEntity
  8
UMRISS05
100
AcDbLine
 10
154.466216525577
 20
393.2205343807585
 30
0.0
 11
161.520472833196
 21
393.2205343807585
 31
0.0
  0
ARC
  5
239
330
2
100
AcDbEntity
  8
UMRISS05
100
AcDbCircle
 10
154.466216525577
 20
392.2205343807585
 30
0.0
 40
1.000000000000022
100
AcDbArc
 50
90.0
 51
135.0000000000002
  0
LINE
  5
23A
330
2
100
AcDbEntity
  8
UMRISS05
100
AcDbLine
 10
153.3448961820174
 20
392.513427599572
 30
0.0
 11
153.7591097443905
 21
392.9276411619452
 31
0.0
  0
ARC
  5
23B
330
2
100
AcDbEntity
  8
UMRISS05
100
AcDbCircle
 10
152.6377894008309
 20
393.2205343807585
 30
0.0
 40
1.00000000000003
100
AcDbArc
 50
270.0
 51
315.0000000000002
  0
LINE
  5
23C
330
2
100
AcDbEntity
  8
UMRISS05
100
AcDbLine
 10
145.020472833196
 20
392.2205343807586
 30
0.0
 11
152.6377894008309
 21
392.2205343807585
 31
0.0
  0
ARC
  5
23D
330
2
100
AcDbEntity
  8
UMRISS05
100
AcDbCircle
 10
145.020472833196
 20
391.7205343807585
 30
0.0
 40
0.499999999999986
100
AcDbArc
 50
90.00000000000325
 51
180.0
  0
LINE
  5
23E
330
2
100
AcDbEntity
  8
UMRISS05
100
AcDbLine
 10
144.520472833196
 20
381.7205343807586
 30
0.0
 11
144.520472833196
 21
391.7205343807585
 31
0.0
  0
ARC
  5
23F
330
2
100
AcDbEntity
  8
UMRISS05
100
AcDbCircle
 10
145.020472833196
 20
381.7205343807586
 30
0.0
 40
0.4999999999999984
100
AcDbArc
 50
180.0
 51
270.0
  0
LINE
  5
240
330
2
100
AcDbEntity
  8
UMRISS05
100
AcDbLine
 10
145.520472833196
 20
381.2205343807585
 30
0.0
 11
145.020472833196
 21
381.2205343807585
 31
0.0
  0
ARC
  5
241
330
2
100
AcDbEntity
  8
UMRISS05
100
AcDbCircle
 10
145.520472833196
 20
380.7205343807585
 30
0.0
 40
0.4999999999999938
100
AcDbArc
 50
0.0
 51
90.0
  0
LINE
  5
242
330
2
100
AcDbEntity
  8
UMRISS05
100
AcDbLine
 10
146.020472833196
 20
359.7205343807585
 30
0.0
 11
146.020472833196
 21
380.7205343807585
 31
0.0
  0
ARC
  5
243
330
2
100
AcDbEntity
  8
UMRISS05
100
AcDbCircle
 10
145.520472833196
 20
359.7205343807585
 30
0.0
 40
0.5000000000000116
100
AcDbArc
 50
270.0
 51
0.0
  0
LINE
  5
244
330
2
100
AcDbEntity
  8
UMRISS05
100
AcDbLine
 10
145.020472833196
 20
359.2205343807585
 30
0.0
 11
145.520472833196
 21
359.2205343807585
 31
0.0
  0
ARC
  5
245
330
2
100
AcDbEntity
  8
UMRISS05
100
AcDbCircle
 10
145.020472833196
 20
358.7205343807585
 30
0.0
 40
0.5000000000000116
100
AcDbArc
 50
90.0
 51
180.0
  0
LINE
  5
246
330
2
100
AcDbEntity
  8
UMRISS05
100
AcDbLine
 10
144.520472833196
 20
348.7205343807585
 30
0.0
 11
144.520472833196
 21
358.7205343807585
 31
0.0
  0
ARC
  5
247
330
2
100
AcDbEntity
  8
UMRISS05
100
AcDbCircle
 10
145.020472833196
 20
348.7205343807585
 30
0.0
 40
0.5000000000000049
100
AcDbArc
 50
180.0
 51
270.0
  0
LINE
  5
248
330
2
100
AcDbEntity
  8
UMRISS05
100
AcDbLine
 10
152.6377894008309
 20
348.2205343807585
 30
0.0
 11
145.020472833196
 21
348.2205343807585
 31
0.0
  0
ARC
  5
249
330
2
100
AcDbEntity
  8
UMRISS05
100
AcDbCircle
 10
152.6377894008309
 20
347.2205343807585
 30
0.0
 40
1.000000000000025
100
AcDbArc
 50
44.99999999999976
 51
90.0
  0
LINE
  5
24A
330
2
100
AcDbEntity
  8
UMRISS05
100
AcDbLine
 10
153.7591097443905
 20
347.513427599572
 30
0.0
 11
153.3448961820174
 21
347.9276411619451
 31
0.0
  0
ARC
  5
24B
330
2
100
AcDbEntity
  8
UMRISS05
100
AcDbCircle
 10
154.466216525577
 20
348.2205343807585
 30
0.0
 40
1.000000000000022
100
AcDbArc
 50
224.9999999999998
 51
270.0
  0
LINE
  5
24C
330
2
100
AcDbEntity
  8
UMRISS05
100
AcDbLine
 10
161.520472833196
 20
347.2205343807585
 30
0.0
 11
154.466216525577
 21
347.2205343807585
 31
0.0
  0
LINE
  5
24D
330
2
100
AcDbEntity
  8
AVERDECKTE
100
AcDbLine
 10
160.0204728331959
 20
347.2205343807585
 30
0.0
 11
160.0204728331959
 21
221.2205343807585
 31
0.0
  0
LINE
  5
24E
330
2
100
AcDbEntity
  8
AVERDECKTE
100
AcDbLine
 10
160.0204728331959
 20
438.2205343807583
 30
0.0
 11
160.0204728331959
 21
393.2205343807585
 31
0.0
  0
LINE
  5
24F
330
2
100
AcDbEntity
  8
AVERDECKTE
100
AcDbLine
 10
143.020472833196
 20
438.2205343807583
 30
0.0
 11
143.020472833196
 21
221.2205343807585
 31
0.0
  0
LINE
  5
250
330
2
100
AcDbEntity
  8
UMRISS05
100
AcDbLine
 10
142.5204728331959
 20
221.2205343807585
 30
0.0
 11
160.520472833196
 21
221.2205343807585
 31
0.0
  0
LINE
  5
251
330
2
100
AcDbEntity
  8
UMRISS05
100
AcDbLine
 10
160.520472833196
 20
438.2205343807583
 30
0.0
 11
142.5204728331959
 21
438.2205343807583
 31
0.0
  0
CIRCLE
  5
252
330
2
100
AcDbEntity
  8
UMRISS05
100
AcDbCircle
 10
151.520472833196
 20
240.7205343807585
 30
0.0
 40
4.0
  0
CIRCLE
  5
253
330
2
100
AcDbEntity
  8
UMRISS05
100
AcDbCircle
 10
151.520472833196
 20
323.7205343807585
 30
0.0
 40
4.0
  0
CIRCLE
  5
254
330
2
100
AcDbEntity
  8
UMRISS05
100
AcDbCircle
 10
151.520472833196
 20
240.7205343807585
 30
0.0
 40
5.0
  0
CIRCLE
  5
255
330
2
100
AcDbEntity
  8
UMRISS05
100
AcDbCircle
 10
151.520472833196
 20
323.7205343807585
 30
0.0
 40
5.0
  0
CIRCLE
  5
256
330
2
100
AcDbEntity
  8
UMRISS05
100
AcDbCircle
 10
151.520472833196
 20
418.7205343807585
 30
0.0
 40
5.0
  0
CIRCLE
  5
257
330
2
100
AcDbEntity
  8
UMRISS05
100
AcDbCircle
 10
151.520472833196
 20
418.7205343807585
 30
0.0
 40
4.0
  0
ENDSEC
  0
SECTION
  2
OBJECTS
  0
DICTIONARY
  5
B
330
0
100
AcDbDictionary
281
     1
  3
ACAD_2007HEADERVARS_RT
350
2BE
  3
ACAD_COLOR
350
4E
  3
ACAD_DETAILVIEWSTYLE
350
279
  3
ACAD_FIELDLIST
350
2AB
  3
ACAD_GROUP
350
39
  3
ACAD_LAYOUT
350
19
  3
ACAD_MATERIAL
350
D
  3
ACAD_MLEADERSTYLE
350
51
  3
ACAD_MLINESTYLE
350
3A
  3
ACAD_PLOTSETTINGS
350
3B
  3
ACAD_PLOTSTYLENAME
350
A
  3
ACAD_SCALELIST
350
4F
  3
ACAD_SECTIONVIEWSTYLE
350
283
  3
ACAD_TABLESTYLE
350
50
  3
ACAD_VISUALSTYLE
350
2F
  3
ACDB_RECOMPOSE_DATA
350
2BD
  3
AcDbVariableDictionary
350
2AF
  3
AcmDictionary
350
269
  3
AcmSystemVariableManager
350
2D6
  3
AMG
350
25A
  0
DICTIONARY
  5
1F
330
1E
100
AcDbDictionary
280
     1
281
     1
  3
ACAD_LAYERFILTERS
360
20
  3
ACAD_LAYERSTATES
360
21
  3
ACLYDICTIONARY
360
22
  0
DICTIONARY
  5
7
330
6
100
AcDbDictionary
280
     1
281
     1
  3
ADSK_XREC_LAYER_RECONCILED
360
8
  0
DICTIONARY
  5
9D
330
9C
100
AcDbDictionary
280
     1
281
     1
  3
ADSK_XREC_LAYER_RECONCILED
360
9E
  0
DICTIONARY
  5
53
330
52
100
AcDbDictionary
280
     1
281
     1
  3
ADSK_XREC_LAYER_RECONCILED
360
54
  0
DICTIONARY
  5
88
330
87
100
AcDbDictionary
280
     1
281
     1
  3
ADSK_XREC_LAYER_RECONCILED
360
89
  0
DICTIONARY
  5
195
330
194
100
AcDbDictionary
280
     1
281
     1
  3
ADSK_XREC_LAYER_RECONCILED
360
196
  0
DICTIONARY
  5
3
330
2
100
AcDbDictionary
280
     1
281
     1
  3
ACAD_SORTENTS
360
258
  0
DICTIONARY
  5
9B
330
9A
100
AcDbDictionary
280
     1
281
     1
  3
ACAD_MTEXT_RT
360
2CE
  0
DICTIONARY
  5
2BE
102
{ACAD_REACTORS
330
B
102
}
330
B
100
AcDbDictionary
281
     1
  3
DIMJOGANG
350
2BF
  3
DIMLTEX1
350
2C1
  3
DIMLTEX2
350
2C2
  3
DIMLTYPE
350
2C0
  0
DICTIONARY
  5
4E
102
{ACAD_REACTORS
330
B
102
}
330
B
100
AcDbDictionary
281
     1
  0
DICTIONARY
  5
279
102
{ACAD_REACTORS
330
B
102
}
330
B
100
AcDbDictionary
281
     1
  3
Metric50
350
280
  0
FIELDLIST
  5
2AB
102
{ACAD_REACTORS
330
B
102
}
330
B
100
AcDbIdSet
 90
        6
330
27C
330
27D
330
27E
330
286
330
287
330
288
100
AcDbFieldList
  0
DICTIONARY
  5
39
102
{ACAD_REACTORS
330
B
102
}
330
B
100
AcDbDictionary
281
     1
  0
DICTIONARY
  5
19
102
{ACAD_REACTORS
330
B
102
}
330
B
100
AcDbDictionary
281
     1
  3
Layout1
350
1D
  3
Model
350
18
  0
DICTIONARY
  5
D
102
{ACAD_REACTORS
330
B
102
}
330
B
100
AcDbDictionary
281
     1
  3
ByBlock
350
45
  3
ByLayer
350
3C
  3
Global
350
C
  0
DICTIONARY
  5
51
102
{ACAD_REACTORS
330
B
102
}
330
B
100
AcDbDictionary
281
     1
  0
DICTIONARY
  5
3A
102
{ACAD_REACTORS
330
B
102
}
330
B
100
AcDbDictionary
281
     1
  3
STANDARD
350
56
  0
DICTIONARY
  5
3B
102
{ACAD_REACTORS
330
B
102
}
330
B
100
AcDbDictionary
281
     1
  0
ACDBDICTIONARYWDFLT
  5
A
102
{ACAD_REACTORS
330
B
102
}
330
B
100
AcDbDictionary
281
     1
  3
Normal
350
9
100
AcDbDictionaryWithDefault
340
9
  0
DICTIONARY
  5
4F
102
{ACAD_REACTORS
330
B
102
}
330
B
100
AcDbDictionary
281
     1
  3
A0
350
5B
  3
A1
350
5C
  3
A2
350
5D
  3
A3
350
5E
  3
A4
350
5F
  3
A5
350
60
  3
A6
350
61
  3
A7
350
62
  3
A8
350
63
  3
A9
350
64
  3
B0
350
65
  3
B1
350
66
  3
B2
350
67
  3
B3
350
68
  3
B4
350
69
  3
B5
350
6A
  3
B6
350
6B
  0
DICTIONARY
  5
283
102
{ACAD_REACTORS
330
B
102
}
330
B
100
AcDbDictionary
281
     1
  3
Metric50
350
28E
  0
DICTIONARY
  5
50
102
{ACAD_REACTORS
330
B
102
}
330
B
100
AcDbDictionary
281
     1
  3
Standard
350
57
  0
DICTIONARY
  5
2F
102
{ACAD_REACTORS
330
B
102
}
330
B
100
AcDbDictionary
281
     1
  3
2dWireframe
350
2E
  3
Realistic
350
59
  3
Wireframe
350
5A
  0
XRECORD
  5
2BD
102
{ACAD_REACTORS
330
B
102
}
330
B
100
AcDbXrecord
280
     1
 90
        1
330
57
  0
DICTIONARY
  5
2AF
102
{ACAD_REACTORS
330
B
102
}
330
B
100
AcDbDictionary
281
     1
  3
CANNOSCALE
350
2B4
  3
CMLEADERSTYLE
350
2B1
  3
CTABLESTYLE
350
2B0
  3
CVIEWDETAILSTYLE
350
2B2
  3
CVIEWSECTIONSTYLE
350
2B3
  3
DIMASSOC
350
2B8
  3
HIDETEXT
350
2B7
  3
INDEXCTL
350
2B6
  3
SOLIDHIST
350
2B9
  3
SORTENTS
350
2B5
  3
XCLIPFRAME
350
2BA
  0
DICTIONARY
  5
269
102
{ACAD_REACTORS
330
B
102
}
330
B
100
AcDbDictionary
281
     1
  3
AcmStdDictionary
350
26A
  0
DICTIONARY
  5
25A
102
{ACAD_REACTORS
330
B
102
}
330
B
100
AcDbDictionary
281
     1
  3
AcMgSettings
350
264
  0
DICTIONARY
  5
20
102
{ACAD_REACTORS
330
1F
102
}
330
1F
100
AcDbDictionary
281
     1
  0
DICTIONARY
  5
21
102
{ACAD_REACTORS
330
1F
102
}
330
1F
100
AcDbDictionary
281
     1
  0
DICTIONARY
  5
22
102
{ACAD_REACTORS
330
1F
102
}
330
1F
100
AcDbDictionary
281
     1
1001
ACAD
1000
<All
  0
XRECORD
  5
8
102
{ACAD_REACTORS
330
7
102
}
330
7
100
AcDbXrecord
280
     1
290
     1
  0
XRECORD
  5
9E
102
{ACAD_REACTORS
330
9D
102
}
330
9D
100
AcDbXrecord
280
     1
290
     1
  0
XRECORD
  5
54
102
{ACAD_REACTORS
330
53
102
}
330
53
100
AcDbXrecord
280
     1
290
     1
  0
XRECORD
  5
89
102
{ACAD_REACTORS
330
88
102
}
330
88
100
AcDbXrecord
280
     1
290
     1
  0
XRECORD
  5
196
102
{ACAD_REACTORS
330
195
102
}
330
195
100
AcDbXrecord
280
     1
290
     1
  0
SORTENTSTABLE
  5
258
102
{ACAD_REACTORS
330
3
102
}
330
3
100
AcDbSortentsTable
330
2
331
1A7
  5
218
331
1A3
  5
21C
331
21D
  5
1A2
331
1DE
  5
1E1
331
219
  5
1A6
331
19F
  5
220
331
1DA
  5
1E5
331
215
  5
1AA
331
254
  5
84
331
19B
  5
224
331
211
  5
1AE
331
250
  5
8C
331
B2
  5
246
331
167
  5
22D
331
120
  5
238
331
1D6
  5
1E9
331
24C
  5
9A
331
193
  5
228
331
1D2
  5
1ED
331
20D
  5
1B2
331
209
  5
1B6
331
248
  5
A2
331
1CE
  5
1F1
331
1CA
  5
1F5
331
205
  5
1BA
331
244
  5
B4
331
201
  5
1BE
331
240
  5
D0
331
A2
  5
248
331
9A
  5
24C
331
1C6
  5
1F9
331
23C
  5
EC
331
1C2
  5
1FD
331
1FD
  5
1C2
331
1F9
  5
1C6
331
238
  5
120
331
1BE
  5
201
331
1BA
  5
205
331
1F5
  5
1CA
331
234
  5
130
331
1F1
  5
1CE
331
230
  5
158
331
14B
  5
231
331
D1
  5
23F
331
8E
  5
24E
331
177
  5
22A
331
1B6
  5
209
331
22C
  5
168
331
1B2
  5
20D
331
1ED
  5
1D2
331
228
  5
193
331
1AE
  5
211
331
1E9
  5
1D6
331
1AA
  5
215
331
1E5
  5
1DA
331
224
  5
19B
331
1E1
  5
1DE
331
220
  5
19F
331
86
  5
252
331
1A6
  5
219
331
1A2
  5
21D
331
21C
  5
1A3
331
1DD
  5
1E2
331
218
  5
1A7
331
257
  5
6C
331
19E
  5
221
331
19A
  5
225
331
1D9
  5
1E6
331
214
  5
1AB
331
253
  5
85
331
210
  5
1AF
331
B5
  5
243
331
12F
  5
235
331
B1
  5
247
331
EC
  5
23C
331
166
  5
22E
331
1D5
  5
1EA
331
24F
  5
8D
331
24B
  5
9F
331
1D1
  5
1EE
331
20C
  5
1B3
331
1CD
  5
1F2
331
208
  5
1B7
331
247
  5
B1
331
1C9
  5
1F6
331
204
  5
1BB
331
243
  5
B5
331
200
  5
1BF
331
A1
  5
249
331
113
  5
239
331
1C5
  5
1FA
331
23F
  5
D1
331
23B
  5
F9
331
1C1
  5
1FE
331
1FC
  5
1C3
331
1F8
  5
1C7
331
237
  5
12D
331
1BD
  5
202
331
1B9
  5
206
331
1F4
  5
1CB
331
233
  5
131
331
1F0
  5
1CF
331
D0
  5
240
331
8D
  5
24F
331
176
  5
22B
331
1B5
  5
20A
331
22F
  5
165
331
22B
  5
176
331
1B1
  5
20E
331
1EC
  5
1D3
331
1E8
  5
1D7
331
227
  5
198
331
1AD
  5
212
331
1A9
  5
216
331
1E4
  5
1DB
331
223
  5
19C
331
1E0
  5
1DF
331
85
  5
253
331
13E
  5
232
331
1A5
  5
21A
331
21F
  5
1A0
331
21B
  5
1A4
331
1A1
  5
21E
331
1DC
  5
1E3
331
217
  5
1A8
331
256
  5
80
331
19D
  5
222
331
199
  5
226
331
1D8
  5
1E7
331
213
  5
1AC
331
252
  5
86
331
B4
  5
244
331
12E
  5
236
331
165
  5
22F
331
24E
  5
8E
331
1D4
  5
1EB
331
20F
  5
1B0
331
24A
  5
A0
331
1D0
  5
1EF
331
20B
  5
1B4
331
1CC
  5
1F3
331
207
  5
1B8
331
246
  5
B2
331
1C8
  5
1F7
331
203
  5
1BC
331
242
  5
C2
331
A0
  5
24A
331
DF
  5
23D
331
6C
  5
257
331
1C4
  5
1FB
331
1FF
  5
1C0
331
23E
  5
D2
331
23A
  5
106
331
1C0
  5
1FF
331
1FB
  5
1C4
331
1BC
  5
203
331
1F7
  5
1C8
331
236
  5
12E
331
1B8
  5
207
331
1F3
  5
1CC
331
232
  5
13E
331
CF
  5
241
331
106
  5
23A
331
8C
  5
250
331
1B4
  5
20B
331
1EF
  5
1D0
331
22E
  5
166
331
22A
  5
177
331
1B0
  5
20F
331
1EB
  5
1D4
331
1E7
  5
1D8
331
226
  5
199
331
1AC
  5
213
331
1A8
  5
217
331
1E3
  5
1DC
331
222
  5
19D
331
84
  5
254
331
80
  5
256
331
131
  5
233
331
1A4
  5
21B
331
21E
  5
1A1
331
21A
  5
1A5
331
1A0
  5
21F
331
1DF
  5
1E0
331
1DB
  5
1E4
331
216
  5
1A9
331
255
  5
83
331
19C
  5
223
331
198
  5
227
331
212
  5
1AD
331
251
  5
8B
331
B3
  5
245
331
12D
  5
237
331
1D7
  5
1E8
331
24D
  5
8F
331
1D3
  5
1EC
331
20E
  5
1B1
331
20A
  5
1B5
331
249
  5
A1
331
1CF
  5
1F0
331
1CB
  5
1F4
331
206
  5
1B9
331
245
  5
B3
331
202
  5
1BD
331
241
  5
CF
331
158
  5
230
331
9F
  5
24B
331
1C7
  5
1F8
331
23D
  5
DF
331
184
  5
229
331
1C3
  5
1FC
331
1FE
  5
1C1
331
239
  5
113
331
1BF
  5
200
331
1FA
  5
1C5
331
1BB
  5
204
331
1F6
  5
1C9
331
235
  5
12F
331
1F2
  5
1CD
331
231
  5
14B
331
D2
  5
23E
331
8F
  5
24D
331
8B
  5
251
331
1B7
  5
208
331
1B3
  5
20C
331
1EE
  5
1D1
331
22D
  5
167
331
229
  5
184
331
1AF
  5
210
331
1EA
  5
1D5
331
1AB
  5
214
331
1E6
  5
1D9
331
225
  5
19A
331
1E2
  5
1DD
331
221
  5
19E
331
168
  5
22C
331
83
  5
255
331
C2
  5
242
331
F9
  5
23B
331
130
  5
234
  0
XRECORD
  5
2CE
102
{ACAD_REACTORS
330
9B
102
}
330
9B
100
AcDbXrecord
280
     1
 40
29448.0
  1
\A1;Drückerhöhe
  0
XRECORD
  5
2BF
102
{ACAD_REACTORS
330
2BE
102
}
330
2BE
100
AcDbXrecord
280
     1
 40
1.570796326794896
  0
XRECORD
  5
2C1
102
{ACAD_REACTORS
330
2BE
102
}
330
2BE
100
AcDbXrecord
280
     1
340
28
  0
XRECORD
  5
2C2
102
{ACAD_REACTORS
330
2BE
102
}
330
2BE
100
AcDbXrecord
280
     1
340
28
  0
XRECORD
  5
2C0
102
{ACAD_REACTORS
330
2BE
102
}
330
2BE
100
AcDbXrecord
280
     1
340
28
  0
ACDBDETAILVIEWSTYLE
  5
280
102
{ACAD_XDICTIONARY
360
2CF
102
}
102
{ACAD_REACTORS
330
279
330
27F
102
}
330
279
100
AcDbModelDocViewStyle
 70
     0
  3
Metric50
290
     0
100
AcDbDetailViewStyle
 70
     0
 71
     0
 90
        3
 71
     1
340
25
 40
5.0
340
0
 40
5.0
300

 40
0.0
280
     1
 71
     2
340
16
 90
       25
 71
     3
340
25
 40
5.0
 90
        0
 40
15.0
 90
        1
300
%<\AcVar ViewDetailId>% (%<\AcVar ViewScale \f "%sn">%)
 71
     4
340
16
 90
       25
340
16
 90
       25
280
     0
  0
LAYOUT
  5
1D
102
{ACAD_XDICTIONARY
360
2C5
102
}
102
{ACAD_REACTORS
330
19
102
}
330
19
100
AcDbPlotSettings
  1

  2
HP LaserJet 5000 Series PS
  4

  6

 40
0.0
 41
0.0
 42
0.0
 43
0.0
 44
0.0
 45
0.0
 46
0.0
 47
0.0
 48
0.0
 49
0.0
140
0.0
141
0.0
142
1.0
143
1.0
 70
   688
 72
     0
 73
     0
 74
     5
  7
monochrome.ctb
 75
    16
147
1.0
148
0.0
149
0.0
100
AcDbLayout
  1
Layout1
 70
     1
 71
     1
 10
0.0
 20
0.0
 11
12.0
 21
9.0
 12
0.0
 22
0.0
 32
0.0
 14
1.000000000000000E+20
 24
1.000000000000000E+20
 34
1.000000000000000E+20
 15
-1.000000000000000E+20
 25
-1.000000000000000E+20
 35
-1.000000000000000E+20
146
0.0
 13
0.0
 23
0.0
 33
0.0
 16
1.0
 26
0.0
 36
0.0
 17
0.0
 27
1.0
 37
0.0
 76
     0
330
1A
  0
LAYOUT
  5
18
102
{ACAD_XDICTIONARY
360
2C3
102
}
102
{ACAD_REACTORS
330
19
102
}
330
19
100
AcDbPlotSettings
  1

  2
HP LaserJet 5000 Series PS
  4
A4
  6

 40
3.174999952316283
 41
3.174999952316283
 42
3.175003051757812
 43
3.17498779296875
 44
210.0
 45
297.0
 46
0.0
 47
0.0
 48
0.0
 49
0.0
140
0.0
141
0.0
142
1.0
143
1.0
 70
 11952
 72
     1
 73
     1
 74
     0
  7
monochrome.ctb
 75
     0
147
1.0
148
-557.4637585994694
149
54.71174086130691
100
AcDbLayout
  1
Model
 70
     1
 71
     0
 10
0.0
 20
0.0
 11
12.0
 21
9.0
 12
0.0
 22
0.0
 32
0.0
 14
0.0
 24
0.0
 34
0.0
 15
0.0
 25
0.0
 35
0.0
146
0.0
 13
0.0
 23
0.0
 33
0.0
 16
1.0
 26
0.0
 36
0.0
 17
0.0
 27
1.0
 37
0.0
 76
     0
330
2
331
2D
  0
MATERIAL
  5
45
102
{ACAD_XDICTIONARY
360
46
102
}
102
{ACAD_REACTORS
330
D
102
}
330
D
100
AcDbMaterial
  1
ByBlock
 72
     0
 43
0.0008202099737533
 43
0.0
 43
0.0
 43
0.0
 43
0.0
 43
0.0008202099737533
 43
0.0
 43
0.0
 43
0.0
 43
0.0
 43
1.0
 43
0.0
 43
0.0
 43
0.0
 43
0.0
 43
1.0
 77
     0
 47
0.0008202099737533
 47
0.0
 47
0.0
 47
0.0
 47
0.0
 47
0.0008202099737533
 47
0.0
 47
0.0
 47
0.0
 47
0.0
 47
1.0
 47
0.0
 47
0.0
 47
0.0
 47
0.0
 47
1.0
171
     0
 49
0.0008202099737533
 49
0.0
 49
0.0
 49
0.0
 49
0.0
 49
0.0008202099737533
 49
0.0
 49
0.0
 49
0.0
 49
0.0
 49
1.0
 49
0.0
 49
0.0
 49
0.0
 49
0.0
 49
1.0
175
     0
142
0.0008202099737533
142
0.0
142
0.0
142
0.0
142
0.0
142
0.0008202099737533
142
0.0
142
0.0
142
0.0
142
0.0
142
1.0
142
0.0
142
0.0
142
0.0
142
0.0
142
1.0
179
     0
144
0.0008202099737533
144
0.0
144
0.0
144
0.0
144
0.0
144
0.0008202099737533
144
0.0
144
0.0
144
0.0
144
0.0
144
1.0
144
0.0
144
0.0
144
0.0
144
0.0
144
1.0
147
0.0008202099737533
147
0.0
147
0.0
147
0.0
147
0.0
147
0.0008202099737533
147
0.0
147
0.0
147
0.0
147
0.0
147
1.0
147
0.0
147
0.0
147
0.0
147
0.0
147
1.0
  0
MATERIAL
  5
3C
102
{ACAD_XDICTIONARY
360
3D
102
}
102
{ACAD_REACTORS
330
D
102
}
330
D
100
AcDbMaterial
  1
ByLayer
 72
     0
 43
0.0008202099737533
 43
0.0
 43
0.0
 43
0.0
 43
0.0
 43
0.0008202099737533
 43
0.0
 43
0.0
 43
0.0
 43
0.0
 43
1.0
 43
0.0
 43
0.0
 43
0.0
 43
0.0
 43
1.0
 77
     0
 47
0.0008202099737533
 47
0.0
 47
0.0
 47
0.0
 47
0.0
 47
0.0008202099737533
 47
0.0
 47
0.0
 47
0.0
 47
0.0
 47
1.0
 47
0.0
 47
0.0
 47
0.0
 47
0.0
 47
1.0
171
     0
 49
0.0008202099737533
 49
0.0
 49
0.0
 49
0.0
 49
0.0
 49
0.0008202099737533
 49
0.0
 49
0.0
 49
0.0
 49
0.0
 49
1.0
 49
0.0
 49
0.0
 49
0.0
 49
0.0
 49
1.0
175
     0
142
0.0008202099737533
142
0.0
142
0.0
142
0.0
142
0.0
142
0.0008202099737533
142
0.0
142
0.0
142
0.0
142
0.0
142
1.0
142
0.0
142
0.0
142
0.0
142
0.0
142
1.0
179
     0
144
0.0008202099737533
144
0.0
144
0.0
144
0.0
144
0.0
144
0.0008202099737533
144
0.0
144
0.0
144
0.0
144
0.0
144
1.0
144
0.0
144
0.0
144
0.0
144
0.0
144
1.0
147
0.0008202099737533
147
0.0
147
0.0
147
0.0
147
0.0
147
0.0008202099737533
147
0.0
147
0.0
147
0.0
147
0.0
147
1.0
147
0.0
147
0.0
147
0.0
147
0.0
147
1.0
  0
MATERIAL
  5
C
102
{ACAD_XDICTIONARY
360
E
102
}
102
{ACAD_REACTORS
330
D
102
}
330
D
100
AcDbMaterial
  1
Global
 72
     0
 43
0.0008202099737533
 43
0.0
 43
0.0
 43
0.0
 43
0.0
 43
0.0008202099737533
 43
0.0
 43
0.0
 43
0.0
 43
0.0
 43
1.0
 43
0.0
 43
0.0
 43
0.0
 43
0.0
 43
1.0
 77
     0
 47
0.0008202099737533
 47
0.0
 47
0.0
 47
0.0
 47
0.0
 47
0.0008202099737533
 47
0.0
 47
0.0
 47
0.0
 47
0.0
 47
1.0
 47
0.0
 47
0.0
 47
0.0
 47
0.0
 47
1.0
171
     0
 49
0.0008202099737533
 49
0.0
 49
0.0
 49
0.0
 49
0.0
 49
0.0008202099737533
 49
0.0
 49
0.0
 49
0.0
 49
0.0
 49
1.0
 49
0.0
 49
0.0
 49
0.0
 49
0.0
 49
1.0
175
     0
142
0.0008202099737533
142
0.0
142
0.0
142
0.0
142
0.0
142
0.0008202099737533
142
0.0
142
0.0
142
0.0
142
0.0
142
1.0
142
0.0
142
0.0
142
0.0
142
0.0
142
1.0
179
     0
144
0.0008202099737533
144
0.0
144
0.0
144
0.0
144
0.0
144
0.0008202099737533
144
0.0
144
0.0
144
0.0
144
0.0
144
1.0
144
0.0
144
0.0
144
0.0
144
0.0
144
1.0
147
0.0008202099737533
147
0.0
147
0.0
147
0.0
147
0.0
147
0.0008202099737533
147
0.0
147
0.0
147
0.0
147
0.0
147
1.0
147
0.0
147
0.0
147
0.0
147
0.0
147
1.0
  0
MLINESTYLE
  5
56
102
{ACAD_REACTORS
330
3A
102
}
330
3A
100
AcDbMlineStyle
  2
STANDARD
 70
     0
  3

 62
     0
 51
90.0
 52
90.0
 71
     2
 49
0.5
 62
   256
  6
BYLAYER
 49
-0.5
 62
   256
  6
BYLAYER
  0
ACDBPLACEHOLDER
  5
9
102
{ACAD_REACTORS
330
A
102
}
330
A
  0
SCALE
  5
5B
102
{ACAD_REACTORS
330
4F
102
}
330
4F
100
AcDbScale
 70
     0
300
1:1
140
1.0
141
1.0
290
     1
  0
SCALE
  5
5C
102
{ACAD_REACTORS
330
4F
102
}
330
4F
100
AcDbScale
 70
     0
300
1:2
140
1.0
141
2.0
290
     0
  0
SCALE
  5
5D
102
{ACAD_REACTORS
330
4F
102
}
330
4F
100
AcDbScale
 70
     0
300
1:4
140
1.0
141
4.0
290
     0
  0
SCALE
  5
5E
102
{ACAD_REACTORS
330
4F
102
}
330
4F
100
AcDbScale
 70
     0
300
1:5
140
1.0
141
5.0
290
     0
  0
SCALE
  5
5F
102
{ACAD_REACTORS
330
4F
102
}
330
4F
100
AcDbScale
 70
     0
300
1:8
140
1.0
141
8.0
290
     0
  0
SCALE
  5
60
102
{ACAD_REACTORS
330
4F
102
}
330
4F
100
AcDbScale
 70
     0
300
1:10
140
1.0
141
10.0
290
     0
  0
SCALE
  5
61
102
{ACAD_REACTORS
330
4F
102
}
330
4F
100
AcDbScale
 70
     0
300
1:16
140
1.0
141
16.0
290
     0
  0
SCALE
  5
62
102
{ACAD_REACTORS
330
4F
102
}
330
4F
100
AcDbScale
 70
     0
300
1:20
140
1.0
141
20.0
290
     0
  0
SCALE
  5
63
102
{ACAD_REACTORS
330
4F
102
}
330
4F
100
AcDbScale
 70
     0
300
1:30
140
1.0
141
30.0
290
     0
  0
SCALE
  5
64
102
{ACAD_REACTORS
330
4F
102
}
330
4F
100
AcDbScale
 70
     0
300
1:40
140
1.0
141
40.0
290
     0
  0
SCALE
  5
65
102
{ACAD_REACTORS
330
4F
102
}
330
4F
100
AcDbScale
 70
     0
300
1:50
140
1.0
141
50.0
290
     0
  0
SCALE
  5
66
102
{ACAD_REACTORS
330
4F
102
}
330
4F
100
AcDbScale
 70
     0
300
1:100
140
1.0
141
100.0
290
     0
  0
SCALE
  5
67
102
{ACAD_REACTORS
330
4F
102
}
330
4F
100
AcDbScale
 70
     0
300
2:1
140
2.0
141
1.0
290
     0
  0
SCALE
  5
68
102
{ACAD_REACTORS
330
4F
102
}
330
4F
100
AcDbScale
 70
     0
300
4:1
140
4.0
141
1.0
290
     0
  0
SCALE
  5
69
102
{ACAD_REACTORS
330
4F
102
}
330
4F
100
AcDbScale
 70
     0
300
8:1
140
8.0
141
1.0
290
     0
  0
SCALE
  5
6A
102
{ACAD_REACTORS
330
4F
102
}
330
4F
100
AcDbScale
 70
     0
300
10:1
140
10.0
141
1.0
290
     0
  0
SCALE
  5
6B
102
{ACAD_REACTORS
330
4F
102
}
330
4F
100
AcDbScale
 70
     0
300
100:1
140
100.0
141
1.0
290
     0
  0
ACDBSECTIONVIEWSTYLE
  5
28E
102
{ACAD_XDICTIONARY
360
2D1
102
}
102
{ACAD_REACTORS
330
283
330
28D
102
}
330
283
100
AcDbModelDocViewStyle
 70
     0
  3
Metric50
290
     0
100
AcDbSectionViewStyle
 70
     0
 71
     0
 90
      102
 71
     1
340
25
 40
5.0
340
0
340
0
 40
5.0
300
I, O, Q, S, X, Z
 40
10.0
 90
        0
 40
2.5
 90
        0
 71
     2
340
16
 90
       25
340
16
 90
       50
 40
5.0
 40
2.5
 40
5.0
 71
     3
340
25
 40
5.0
 90
        0
 40
15.0
 90
        1
300
%<\AcVar ViewSectionStartId>%-%<\AcVar ViewSectionEndId>% (%<\AcVar ViewScale \f "%sn">%)
 71
     4
300
ANSI31
 40
1.0
 90
        0
290
     0
290
     0
 90
        6
 40
0.0
 40
1.570796326794896
 40
0.2617993877991494
 40
1.308996938995747
 40
-0.2617993877991494
 40
1.832595714594045
  0
TABLESTYLE
  5
57
102
{ACAD_XDICTIONARY
360
58
102
}
102
{ACAD_REACTORS
330
50
102
}
330
50
100
AcDbTableStyle
  3
Standard
 70
     0
 71
     0
 40
1.5
 41
1.5
280
     0
281
     0
  7
STANDARD
140
4.5
170
     2
 62
     0
 63
     7
283
     0
274
    -2
284
     1
 64
     0
275
    -2
285
     1
 65
     0
276
    -2
286
     1
 66
     0
277
    -2
287
     1
 67
     0
278
    -2
288
     1
 68
     0
279
    -2
289
     1
 69
     0
  7
STANDARD
140
6.0
170
     5
 62
     0
 63
     7
283
     0
274
    -2
284
     1
 64
     0
275
    -2
285
     1
 65
     0
276
    -2
286
     1
 66
     0
277
    -2
287
     1
 67
     0
278
    -2
288
     1
 68
     0
279
    -2
289
     1
 69
     0
  7
STANDARD
140
4.5
170
     5
 62
     0
 63
     7
283
     0
274
    -2
284
     1
 64
     0
275
    -2
285
     1
 65
     0
276
    -2
286
     1
 66
     0
277
    -2
287
     1
 67
     0
278
    -2
288
     1
 68
     0
279
    -2
289
     1
 69
     0
  0
VISUALSTYLE
  5
2E
102
{ACAD_XDICTIONARY
360
2C7
102
}
102
{ACAD_REACTORS
330
2F
102
}
330
2F
100
AcDbVisualStyle
  2

 70
     4
 71
     0
 72
     2
 73
     0
 90
        0
 40
-0.6
 41
-30.0
 62
     5
 63
     7
 74
     1
 91
        4
 64
     7
 65
   257
 75
     1
175
     1
 42
1.0
 92
        0
 66
   257
 43
1.0
 76
     1
 77
     6
 78
     2
 67
     7
 79
     5
170
     0
171
     0
290
     0
174
     0
 93
        1
 44
0.0
173
     0
291
     0
 45
0.0
1001
ACAD
1000
AcDbSavedByObjectVersion
1070
     0
  0
VISUALSTYLE
  5
59
102
{ACAD_XDICTIONARY
360
2CA
102
}
102
{ACAD_REACTORS
330
2F
102
}
330
2F
100
AcDbVisualStyle
  2

 70
     8
 71
     2
 72
     2
 73
     0
 90
        0
 40
-0.6
 41
-30.0
 62
     5
 63
     7
 74
     1
 91
        0
 64
     7
 65
   257
 75
     1
175
     1
 42
1.0
 92
        8
 66
     8
 43
1.0
 76
     1
 77
     6
 78
     2
 67
     7
 79
     5
170
     0
171
     0
290
     0
174
     0
 93
       13
 44
0.0
173
     0
291
     0
 45
0.0
1001
ACAD
1000
AcDbSavedByObjectVersion
1070
     0
  0
VISUALSTYLE
  5
5A
102
{ACAD_XDICTIONARY
360
2CC
102
}
102
{ACAD_REACTORS
330
2F
102
}
330
2F
100
AcDbVisualStyle
  2

 70
     5
 71
     0
 72
     2
 73
     0
 90
        0
 40
-0.6
 41
-30.0
 62
     5
 63
     7
 74
     1
 91
        4
 64
     7
 65
   257
 75
     1
175
     1
 42
1.0
 92
        0
 66
   257
 43
1.0
 76
     1
 77
     6
 78
     2
 67
     7
 79
     3
170
     0
171
     0
290
     0
174
     0
 93
        1
 44
0.0
173
     0
291
     0
 45
0.0
1001
ACAD
1000
AcDbSavedByObjectVersion
1070
     0
  0
DICTIONARYVAR
  5
2B4
102
{ACAD_REACTORS
330
2AF
102
}
330
2AF
100
DictionaryVariables
280
     0
  1
1:1
  0
DICTIONARYVAR
  5
2B1
102
{ACAD_REACTORS
330
2AF
102
}
330
2AF
100
DictionaryVariables
280
     0
  1
STANDARD
  0
DICTIONARYVAR
  5
2B0
102
{ACAD_REACTORS
330
2AF
102
}
330
2AF
100
DictionaryVariables
280
     0
  1
STANDARD
  0
DICTIONARYVAR
  5
2B2
102
{ACAD_REACTORS
330
2AF
102
}
330
2AF
100
DictionaryVariables
280
     0
  1

  0
DICTIONARYVAR
  5
2B3
102
{ACAD_REACTORS
330
2AF
102
}
330
2AF
100
DictionaryVariables
280
     0
  1

  0
DICTIONARYVAR
  5
2B8
102
{ACAD_REACTORS
330
2AF
102
}
330
2AF
100
DictionaryVariables
280
     0
  1
1
  0
DICTIONARYVAR
  5
2B7
102
{ACAD_REACTORS
330
2AF
102
}
330
2AF
100
DictionaryVariables
280
     0
  1
1
  0
DICTIONARYVAR
  5
2B6
102
{ACAD_REACTORS
330
2AF
102
}
330
2AF
100
DictionaryVariables
280
     0
  1
0
  0
DICTIONARYVAR
  5
2B9
102
{ACAD_REACTORS
330
2AF
102
}
330
2AF
100
DictionaryVariables
280
     0
  1
1
  0
DICTIONARYVAR
  5
2B5
102
{ACAD_REACTORS
330
2AF
102
}
330
2AF
100
DictionaryVariables
280
     0
  1
127
  0
DICTIONARYVAR
  5
2BA
102
{ACAD_REACTORS
330
2AF
102
}
330
2AF
100
DictionaryVariables
280
     0
  1
2
  0
DICTIONARY
  5
26A
102
{ACAD_REACTORS
330
269
102
}
330
269
100
AcDbDictionary
281
     1
  0
DICTIONARY
  5
264
102
{ACAD_REACTORS
330
25A
102
}
330
25A
100
AcDbDictionary
281
     1
  3
DWGSETTINGS
350
263
  3
TRANSSETTINGS
350
265
  0
DICTIONARY
  5
2CF
330
280
100
AcDbDictionary
280
     1
281
     1
  3
ACAD_XREC_ROUNDTRIP
360
2D0
  0
DICTIONARY
  5
2C5
330
1D
100
AcDbDictionary
280
     1
281
     1
  3
ACAD_XREC_ROUNDTRIP
360
2C6
  0
DICTIONARY
  5
2C3
330
18
100
AcDbDictionary
280
     1
281
     1
  3
ACAD_XREC_ROUNDTRIP
360
2C4
  0
DICTIONARY
  5
46
330
45
100
AcDbDictionary
280
     1
281
     1
  3
ACAD_XREC_ROUNDTRIP
360
47
  3
BUMPTILE
360
48
  3
DIFFUSETILE
360
49
  3
OPACITYTILE
360
4A
  3
REFLECTIONTILE
360
4B
  3
REFRACTIONTILE
360
4C
  3
SPECULARTILE
360
4D
  0
DICTIONARY
  5
3D
330
3C
100
AcDbDictionary
280
     1
281
     1
  3
ACAD_XREC_ROUNDTRIP
360
3E
  3
BUMPTILE
360
3F
  3
DIFFUSETILE
360
40
  3
OPACITYTILE
360
41
  3
REFLECTIONTILE
360
42
  3
REFRACTIONTILE
360
43
  3
SPECULARTILE
360
44
  0
DICTIONARY
  5
E
330
C
100
AcDbDictionary
280
     1
281
     1
  3
ACAD_XREC_ROUNDTRIP
360
F
  3
BUMPTILE
360
10
  3
DIFFUSETILE
360
11
  3
OPACITYTILE
360
12
  3
REFLECTIONTILE
360
13
  3
REFRACTIONTILE
360
14
  3
SPECULARTILE
360
15
  0
DICTIONARY
  5
2D1
330
28E
100
AcDbDictionary
280
     1
281
     1
  3
ACAD_XREC_ROUNDTRIP
360
2D2
  0
DICTIONARY
  5
58
330
57
100
AcDbDictionary
280
     1
281
     1
  3
ACAD_ROUNDTRIP_2008_TABLESTYLE_CELLSTYLEMAP
360
2BB
  3
ACAD_XREC_ROUNDTRIP
360
2C9
  0
DICTIONARY
  5
2C7
330
2E
100
AcDbDictionary
280
     1
281
     1
  3
ACAD_XREC_ROUNDTRIP
360
2C8
  0
DICTIONARY
  5
2CA
330
59
100
AcDbDictionary
280
     1
281
     1
  3
ACAD_XREC_ROUNDTRIP
360
2CB
  0
DICTIONARY
  5
2CC
330
5A
100
AcDbDictionary
280
     1
281
     1
  3
ACAD_XREC_ROUNDTRIP
360
2CD
  0
XRECORD
  5
2D0
102
{ACAD_REACTORS
330
2CF
102
}
330
2CF
100
AcDbXrecord
280
     1
102
DISPLAYNAME
  1
Metric50
102
FLAGS
 90
        0
  0
XRECORD
  5
2C6
102
{ACAD_REACTORS
330
2C5
102
}
330
2C5
100
AcDbXrecord
280
     1
102
SHADEPLOT
 70
     0
102
SHADEPLOTRESLEVEL
 70
     2
102
SHADEPLOTCUSTOMDPI
 70
   300
  0
XRECORD
  5
2C4
102
{ACAD_REACTORS
330
2C3
102
}
330
2C3
100
AcDbXrecord
280
     1
102
SHADEPLOT
 70
     0
102
SHADEPLOTRESLEVEL
 70
     2
102
SHADEPLOTCUSTOMDPI
 70
   300
  0
XRECORD
  5
47
102
{ACAD_REACTORS
330
46
102
}
330
46
100
AcDbXrecord
280
     1
102
MATERIAL
148
0.0
149
0.0
149
0.0
 93
        0
 94
      127
282
     0
 72
     0
 77
     0
171
     0
175
     0
179
     0
273
     0
  0
XRECORD
  5
48
102
{ACAD_REACTORS
330
46
102
}
330
46
100
AcDbXrecord
280
     1
270
     1
271
     1
  0
XRECORD
  5
49
102
{ACAD_REACTORS
330
46
102
}
330
46
100
AcDbXrecord
280
     1
270
     1
271
     1
  0
XRECORD
  5
4A
102
{ACAD_REACTORS
330
46
102
}
330
46
100
AcDbXrecord
280
     1
270
     1
271
     1
  0
XRECORD
  5
4B
102
{ACAD_REACTORS
330
46
102
}
330
46
100
AcDbXrecord
280
     1
270
     1
271
     1
  0
XRECORD
  5
4C
102
{ACAD_REACTORS
330
46
102
}
330
46
100
AcDbXrecord
280
     1
270
     1
271
     1
  0
XRECORD
  5
4D
102
{ACAD_REACTORS
330
46
102
}
330
46
100
AcDbXrecord
280
     1
270
     1
271
     1
  0
XRECORD
  5
3E
102
{ACAD_REACTORS
330
3D
102
}
330
3D
100
AcDbXrecord
280
     1
102
MATERIAL
148
0.0
149
0.0
149
0.0
 93
        0
 94
      127
282
     0
 72
     0
 77
     0
171
     0
175
     0
179
     0
273
     0
  0
XRECORD
  5
3F
102
{ACAD_REACTORS
330
3D
102
}
330
3D
100
AcDbXrecord
280
     1
270
     1
271
     1
  0
XRECORD
  5
40
102
{ACAD_REACTORS
330
3D
102
}
330
3D
100
AcDbXrecord
280
     1
270
     1
271
     1
  0
XRECORD
  5
41
102
{ACAD_REACTORS
330
3D
102
}
330
3D
100
AcDbXrecord
280
     1
270
     1
271
     1
  0
XRECORD
  5
42
102
{ACAD_REACTORS
330
3D
102
}
330
3D
100
AcDbXrecord
280
     1
270
     1
271
     1
  0
XRECORD
  5
43
102
{ACAD_REACTORS
330
3D
102
}
330
3D
100
AcDbXrecord
280
     1
270
     1
271
     1
  0
XRECORD
  5
44
102
{ACAD_REACTORS
330
3D
102
}
330
3D
100
AcDbXrecord
280
     1
270
     1
271
     1
  0
XRECORD
  5
F
102
{ACAD_REACTORS
330
E
102
}
330
E
100
AcDbXrecord
280
     1
102
MATERIAL
148
0.0
149
0.0
149
0.0
 93
        0
 94
      127
282
     0
 72
     0
 77
     0
171
     0
175
     0
179
     0
273
     0
  0
XRECORD
  5
10
102
{ACAD_REACTORS
330
E
102
}
330
E
100
AcDbXrecord
280
     1
270
     1
271
     1
  0
XRECORD
  5
11
102
{ACAD_REACTORS
330
E
102
}
330
E
100
AcDbXrecord
280
     1
270
     1
271
     1
  0
XRECORD
  5
12
102
{ACAD_REACTORS
330
E
102
}
330
E
100
AcDbXrecord
280
     1
270
     1
271
     1
  0
XRECORD
  5
13
102
{ACAD_REACTORS
330
E
102
}
330
E
100
AcDbXrecord
280
     1
270
     1
271
     1
  0
XRECORD
  5
14
102
{ACAD_REACTORS
330
E
102
}
330
E
100
AcDbXrecord
280
     1
270
     1
271
     1
  0
XRECORD
  5
15
102
{ACAD_REACTORS
330
E
102
}
330
E
100
AcDbXrecord
280
     1
270
     1
271
     1
  0
XRECORD
  5
2D2
102
{ACAD_REACTORS
330
2D1
102
}
330
2D1
100
AcDbXrecord
280
     1
102
DISPLAYNAME
  1
Metric50
102
FLAGS
 90
        0
  0
CELLSTYLEMAP
  5
2BB
102
{ACAD_REACTORS
330
58
102
}
330
58
100
AcDbCellStyleMap
 90
        3
300
CELLSTYLE
  1
TABLEFORMAT_BEGIN
 90
        5
170
     1
 91
        0
 92
    32768
 62
   257
 93
        1
300
CONTENTFORMAT
  1
CONTENTFORMAT_BEGIN
 90
        0
 91
        0
 92
      512
 93
        0
300

 40
0.0
140
1.0
 94
        5
 62
     0
340
25
144
6.0
309
CONTENTFORMAT_END
171
     1
301
MARGIN
  1
CELLMARGIN_BEGIN
 40
1.5
 40
1.5
 40
1.5
 40
1.5
 40
0.18
 40
0.18
309
CELLMARGIN_END
 94
        6
 95
        1
302
GRIDFORMAT
  1
GRIDFORMAT_BEGIN
 90
        0
 91
        1
 62
     0
 92
       -2
340
0
 93
        0
 40
1.125
309
GRIDFORMAT_END
 95
        2
302
GRIDFORMAT
  1
GRIDFORMAT_BEGIN
 90
        0
 91
        1
 62
     0
 92
       -2
340
0
 93
        0
 40
1.125
309
GRIDFORMAT_END
 95
        4
302
GRIDFORMAT
  1
GRIDFORMAT_BEGIN
 90
        0
 91
        1
 62
     0
 92
       -2
340
0
 93
        0
 40
1.125
309
GRIDFORMAT_END
 95
        8
302
GRIDFORMAT
  1
GRIDFORMAT_BEGIN
 90
        0
 91
        1
 62
     0
 92
       -2
340
0
 93
        0
 40
1.125
309
GRIDFORMAT_END
 95
       16
302
GRIDFORMAT
  1
GRIDFORMAT_BEGIN
 90
        0
 91
        1
 62
     0
 92
       -2
340
0
 93
        0
 40
1.125
309
GRIDFORMAT_END
 95
       32
302
GRIDFORMAT
  1
GRIDFORMAT_BEGIN
 90
        0
 91
        1
 62
     0
 92
       -2
340
0
 93
        0
 40
1.125
309
GRIDFORMAT_END
309
TABLEFORMAT_END
  1
CELLSTYLE_BEGIN
 90
        1
 91
        1
300
_TITLE
309
CELLSTYLE_END
300
CELLSTYLE
  1
TABLEFORMAT_BEGIN
 90
        5
170
     1
 91
        0
 92
        0
 62
   257
 93
        1
300
CONTENTFORMAT
  1
CONTENTFORMAT_BEGIN
 90
        0
 91
        0
 92
      512
 93
        0
300

 40
0.0
140
1.0
 94
        5
 62
     0
340
25
144
4.5
309
CONTENTFORMAT_END
171
     1
301
MARGIN
  1
CELLMARGIN_BEGIN
 40
1.5
 40
1.5
 40
1.5
 40
1.5
 40
0.18
 40
0.18
309
CELLMARGIN_END
 94
        6
 95
        1
302
GRIDFORMAT
  1
GRIDFORMAT_BEGIN
 90
        0
 91
        1
 62
     0
 92
       -2
340
0
 93
        0
 40
1.125
309
GRIDFORMAT_END
 95
        2
302
GRIDFORMAT
  1
GRIDFORMAT_BEGIN
 90
        0
 91
        1
 62
     0
 92
       -2
340
0
 93
        0
 40
1.125
309
GRIDFORMAT_END
 95
        4
302
GRIDFORMAT
  1
GRIDFORMAT_BEGIN
 90
        0
 91
        1
 62
     0
 92
       -2
340
0
 93
        0
 40
1.125
309
GRIDFORMAT_END
 95
        8
302
GRIDFORMAT
  1
GRIDFORMAT_BEGIN
 90
        0
 91
        1
 62
     0
 92
       -2
340
0
 93
        0
 40
1.125
309
GRIDFORMAT_END
 95
       16
302
GRIDFORMAT
  1
GRIDFORMAT_BEGIN
 90
        0
 91
        1
 62
     0
 92
       -2
340
0
 93
        0
 40
1.125
309
GRIDFORMAT_END
 95
       32
302
GRIDFORMAT
  1
GRIDFORMAT_BEGIN
 90
        0
 91
        1
 62
     0
 92
       -2
340
0
 93
        0
 40
1.125
309
GRIDFORMAT_END
309
TABLEFORMAT_END
  1
CELLSTYLE_BEGIN
 90
        2
 91
        1
300
_HEADER
309
CELLSTYLE_END
300
CELLSTYLE
  1
TABLEFORMAT_BEGIN
 90
        5
170
     1
 91
        0
 92
        0
 62
   257
 93
        1
300
CONTENTFORMAT
  1
CONTENTFORMAT_BEGIN
 90
        0
 91
        0
 92
      512
 93
        0
300

 40
0.0
140
1.0
 94
        2
 62
     0
340
25
144
4.5
309
CONTENTFORMAT_END
171
     1
301
MARGIN
  1
CELLMARGIN_BEGIN
 40
1.5
 40
1.5
 40
1.5
 40
1.5
 40
0.18
 40
0.18
309
CELLMARGIN_END
 94
        6
 95
        1
302
GRIDFORMAT
  1
GRIDFORMAT_BEGIN
 90
        0
 91
        1
 62
     0
 92
       -2
340
0
 93
        0
 40
1.125
309
GRIDFORMAT_END
 95
        2
302
GRIDFORMAT
  1
GRIDFORMAT_BEGIN
 90
        0
 91
        1
 62
     0
 92
       -2
340
0
 93
        0
 40
1.125
309
GRIDFORMAT_END
 95
        4
302
GRIDFORMAT
  1
GRIDFORMAT_BEGIN
 90
        0
 91
        1
 62
     0
 92
       -2
340
0
 93
        0
 40
1.125
309
GRIDFORMAT_END
 95
        8
302
GRIDFORMAT
  1
GRIDFORMAT_BEGIN
 90
        0
 91
        1
 62
     0
 92
       -2
340
0
 93
        0
 40
1.125
309
GRIDFORMAT_END
 95
       16
302
GRIDFORMAT
  1
GRIDFORMAT_BEGIN
 90
        0
 91
        1
 62
     0
 92
       -2
340
0
 93
        0
 40
1.125
309
GRIDFORMAT_END
 95
       32
302
GRIDFORMAT
  1
GRIDFORMAT_BEGIN
 90
        0
 91
        1
 62
     0
 92
       -2
340
0
 93
        0
 40
1.125
309
GRIDFORMAT_END
309
TABLEFORMAT_END
  1
CELLSTYLE_BEGIN
 90
        3
 91
        2
300
_DATA
309
CELLSTYLE_END
  0
XRECORD
  5
2C9
102
{ACAD_REACTORS
330
58
102
}
330
58
100
AcDbXrecord
280
     1
102
ACAD_ROUNDTRIP_PRE2007_TABLESTYLE
 90
      512
 91
        0
  1

 92
      512
 93
        0
  2

 94
      512
 95
        0
  3

  0
XRECORD
  5
2C8
102
{ACAD_REACTORS
330
2C7
102
}
330
2C7
100
AcDbXrecord
280
     1
102
RTVSPost2010Prop28
280
     1
102
RTVSPost2010PropOp28
 70
     1
102
RTVSPost2010Prop29
280
     1
102
RTVSPost2010PropOp29
 70
     1
102
RTVSPost2010Prop30
280
     0
102
RTVSPost2010PropOp30
 70
     1
102
RTVSPost2010Prop31
280
     0
102
RTVSPost2010PropOp31
 70
     1
102
RTVSPost2010Prop32
280
     0
102
RTVSPost2010PropOp32
 70
     1
102
RTVSPost2010Prop33
280
     0
102
RTVSPost2010PropOp33
 70
     1
102
RTVSPost2010Prop34
280
     0
102
RTVSPost2010PropOp34
 70
     1
102
RTVSPost2010Prop35
280
     0
102
RTVSPost2010PropOp35
 70
     1
102
RTVSPost2010Prop36
280
     0
102
RTVSPost2010PropOp36
 70
     1
102
RTVSPost2010Prop37
 90
       50
102
RTVSPost2010PropOp37
 70
     1
102
RTVSPost2010Prop38
140
0.0
102
RTVSPost2010PropOp38
 70
     1
102
RTVSPost2010Prop39
140
1.0
102
RTVSPost2010PropOp39
 70
     1
102
RTVSPost2010Prop40
 90
        0
102
RTVSPost2010PropOp40
 70
     1
102
RTVSPost2010Prop41ColorIndex
 90
       18
102
RTVSPost2010Prop41ColorRGB
 90
        0
102
RTVSPost2010PropOp41
 70
     1
102
RTVSPost2010Prop42
 90
       50
102
RTVSPost2010PropOp42
 70
     1
102
RTVSPost2010Prop43
 90
        3
102
RTVSPost2010PropOp43
 70
     1
102
RTVSPost2010Prop44ColorIndex
 90
        5
102
RTVSPost2010Prop44ColorRGB
 90
      255
102
RTVSPost2010PropOp44
 70
     1
102
RTVSPost2010Prop45
280
     0
102
RTVSPost2010PropOp45
 70
     1
102
RTVSPost2010Prop46
 90
       50
102
RTVSPost2010PropOp46
 70
     1
102
RTVSPost2010Prop47
 90
       50
102
RTVSPost2010PropOp47
 70
     1
102
RTVSPost2010Prop48
 90
       50
102
RTVSPost2010PropOp48
 70
     1
102
RTVSPost2010Prop49
280
     0
102
RTVSPost2010PropOp49
 70
     1
102
RTVSPost2010Prop50
 90
       50
102
RTVSPost2010PropOp50
 70
     1
102
RTVSPost2010Prop51ColorIndex
 90
      256
102
RTVSPost2010Prop51ColorRGB
 90
-16777216
102
RTVSPost2010PropOp51
 70
     0
102
RTVSPost2010Prop52
140
1.0
102
RTVSPost2010PropOp52
 70
     0
102
RTVSPost2010Prop53
 90
        2
102
RTVSPost2010PropOp53
 70
     1
102
RTVSPost2010Prop54
  1
strokes_ogs.tif
102
RTVSPost2010PropOp54
 70
     1
102
RTVSPost2010Prop55
280
     0
102
RTVSPost2010PropOp55
 70
     1
102
RTVSPost2010Prop56
140
1.0
102
RTVSPost2010PropOp56
 70
     1
102
RTVSPost2010Prop57
140
1.0
102
RTVSPost2010PropOp57
 70
     1
102
RTVSPropertyOp0
 70
     1
102
RTVSPropertyOp1
 70
     1
102
RTVSPropertyOp2
 70
     1
102
RTVSPropertyOp3
 70
     1
102
RTVSPropertyOp4
 70
     1
102
RTVSPropertyOp5
 70
     1
102
RTVSPropertyOp6
 70
     1
102
RTVSPropertyOp7
 70
     1
102
RTVSPropertyOp8
 70
     1
102
RTVSPropertyOp9
 70
     1
102
RTVSPropertyOp10
 70
     1
102
RTVSPropertyOp11
 70
     1
102
RTVSPropertyOp12
 70
     1
102
RTVSPropertyOp13
 70
     1
102
RTVSPropertyOp14
 70
     1
102
RTVSPropertyOp15
 70
     1
102
RTVSPropertyOp16
 70
     1
102
RTVSPropertyOp17
 70
     1
102
RTVSPropertyOp18
 70
     1
102
RTVSPropertyOp19
 70
     1
102
RTVSPropertyOp20
 70
     1
102
RTVSPropertyOp21
 70
     1
102
RTVSPropertyOp22
 70
     1
102
RTVSPropertyOp23
 70
     1
102
RTVSPropertyOp24
 70
     1
102
RTVSPropertyOp25
 70
     1
102
RTVSPropertyOp26
 70
     1
102
RTVSPropertyOp27
 70
     1
102
RTVSPropertyOp28
 70
     1
102
RTVSPropertyOp29
 70
     1
102
RTVSPropertyOp30
 70
     1
102
RTVSPropertyOp31
 70
     1
102
RTVSPropertyOp32
 70
     1
102
RTVSPropertyOp33
 70
     1
102
RTVSPropertyOp34
 70
     1
102
RTVSPropertyOp35
 70
     1
102
RTVSPropertyOp36
 70
     1
102
RTVSPropertyOp37
 70
     1
102
RTVSPropertyOp38
 70
     1
102
RTVSPropertyOp39
 70
     1
102
RTVSPropertyOp40
 70
     1
102
RTVSPropertyOp41
 70
     1
102
RTVSPropertyOp42
 70
     1
102
RTVSPropertyOp43
 70
     1
102
RTVSPropertyOp44
 70
     1
102
RTVSPropertyOp45
 70
     1
102
RTVSPropertyOp46
 70
     1
102
RTVSPropertyOp47
 70
     1
102
RTVSPropertyOp48
 70
     1
102
RTVSPropertyOp49
 70
     1
102
RTVSPropertyOp50
 70
     1
102
RTVSPropertyOp51
 70
     0
102
RTVSPropertyOp52
 70
     0
102
RTVSPropertyOp53
 70
     1
102
RTVSPropertyOp54
 70
     1
102
RTVSPropertyOp55
 70
     1
102
RTVSPropertyOp56
 70
     1
102
RTVSPropertyOp57
 70
     1
102
RTVSPropertyOp58
 70
     1
102
RTVSPropertyOp59
 70
     1
102
RTVSPropertyOp60
 70
     1
102
RTVSPropertyOp61
 70
     1
102
RTVSPropertyOp62
 70
     1
  0
XRECORD
  5
2CB
102
{ACAD_REACTORS
330
2CA
102
}
330
2CA
100
AcDbXrecord
280
     1
102
RTVSPost2010Prop28
280
     0
102
RTVSPost2010PropOp28
 70
     1
102
RTVSPost2010Prop29
280
     1
102
RTVSPost2010PropOp29
 70
     1
102
RTVSPost2010Prop30
280
     1
102
RTVSPost2010PropOp30
 70
     1
102
RTVSPost2010Prop31
280
     0
102
RTVSPost2010PropOp31
 70
     1
102
RTVSPost2010Prop32
280
     0
102
RTVSPost2010PropOp32
 70
     1
102
RTVSPost2010Prop33
280
     0
102
RTVSPost2010PropOp33
 70
     1
102
RTVSPost2010Prop34
280
     0
102
RTVSPost2010PropOp34
 70
     1
102
RTVSPost2010Prop35
280
     0
102
RTVSPost2010PropOp35
 70
     1
102
RTVSPost2010Prop36
280
     0
102
RTVSPost2010PropOp36
 70
     1
102
RTVSPost2010Prop37
 90
       50
102
RTVSPost2010PropOp37
 70
     1
102
RTVSPost2010Prop38
140
0.0
102
RTVSPost2010PropOp38
 70
     1
102
RTVSPost2010Prop39
140
1.0
102
RTVSPost2010PropOp39
 70
     1
102
RTVSPost2010Prop40
 90
        0
102
RTVSPost2010PropOp40
 70
     1
102
RTVSPost2010Prop41ColorIndex
 90
       18
102
RTVSPost2010Prop41ColorRGB
 90
        0
102
RTVSPost2010PropOp41
 70
     1
102
RTVSPost2010Prop42
 90
       50
102
RTVSPost2010PropOp42
 70
     1
102
RTVSPost2010Prop43
 90
        3
102
RTVSPost2010PropOp43
 70
     1
102
RTVSPost2010Prop44ColorIndex
 90
        5
102
RTVSPost2010Prop44ColorRGB
 90
      255
102
RTVSPost2010PropOp44
 70
     1
102
RTVSPost2010Prop45
280
     0
102
RTVSPost2010PropOp45
 70
     1
102
RTVSPost2010Prop46
 90
       50
102
RTVSPost2010PropOp46
 70
     1
102
RTVSPost2010Prop47
 90
       50
102
RTVSPost2010PropOp47
 70
     1
102
RTVSPost2010Prop48
 90
       50
102
RTVSPost2010PropOp48
 70
     1
102
RTVSPost2010Prop49
280
     0
102
RTVSPost2010PropOp49
 70
     1
102
RTVSPost2010Prop50
 90
       50
102
RTVSPost2010PropOp50
 70
     1
102
RTVSPost2010Prop51ColorIndex
 90
      256
102
RTVSPost2010Prop51ColorRGB
 90
-16777216
102
RTVSPost2010PropOp51
 70
     0
102
RTVSPost2010Prop52
140
1.0
102
RTVSPost2010PropOp52
 70
     0
102
RTVSPost2010Prop53
 90
        2
102
RTVSPost2010PropOp53
 70
     1
102
RTVSPost2010Prop54
  1
strokes_ogs.tif
102
RTVSPost2010PropOp54
 70
     1
102
RTVSPost2010Prop55
280
     0
102
RTVSPost2010PropOp55
 70
     1
102
RTVSPost2010Prop56
140
1.0
102
RTVSPost2010PropOp56
 70
     1
102
RTVSPost2010Prop57
140
1.0
102
RTVSPost2010PropOp57
 70
     1
102
RTVSPropertyOp0
 70
     1
102
RTVSPropertyOp1
 70
     1
102
RTVSPropertyOp2
 70
     1
102
RTVSPropertyOp3
 70
     1
102
RTVSPropertyOp4
 70
     1
102
RTVSPropertyOp5
 70
     1
102
RTVSPropertyOp6
 70
     1
102
RTVSPropertyOp7
 70
     1
102
RTVSPropertyOp8
 70
     1
102
RTVSPropertyOp9
 70
     1
102
RTVSPropertyOp10
 70
     1
102
RTVSPropertyOp11
 70
     1
102
RTVSPropertyOp12
 70
     1
102
RTVSPropertyOp13
 70
     1
102
RTVSPropertyOp14
 70
     1
102
RTVSPropertyOp15
 70
     1
102
RTVSPropertyOp16
 70
     1
102
RTVSPropertyOp17
 70
     1
102
RTVSPropertyOp18
 70
     1
102
RTVSPropertyOp19
 70
     1
102
RTVSPropertyOp20
 70
     1
102
RTVSPropertyOp21
 70
     1
102
RTVSPropertyOp22
 70
     1
102
RTVSPropertyOp23
 70
     1
102
RTVSPropertyOp24
 70
     1
102
RTVSPropertyOp25
 70
     1
102
RTVSPropertyOp26
 70
     1
102
RTVSPropertyOp27
 70
     1
102
RTVSPropertyOp28
 70
     1
102
RTVSPropertyOp29
 70
     1
102
RTVSPropertyOp30
 70
     1
102
RTVSPropertyOp31
 70
     1
102
RTVSPropertyOp32
 70
     1
102
RTVSPropertyOp33
 70
     1
102
RTVSPropertyOp34
 70
     1
102
RTVSPropertyOp35
 70
     1
102
RTVSPropertyOp36
 70
     1
102
RTVSPropertyOp37
 70
     1
102
RTVSPropertyOp38
 70
     1
102
RTVSPropertyOp39
 70
     1
102
RTVSPropertyOp40
 70
     1
102
RTVSPropertyOp41
 70
     1
102
RTVSPropertyOp42
 70
     1
102
RTVSPropertyOp43
 70
     1
102
RTVSPropertyOp44
 70
     1
102
RTVSPropertyOp45
 70
     1
102
RTVSPropertyOp46
 70
     1
102
RTVSPropertyOp47
 70
     1
102
RTVSPropertyOp48
 70
     1
102
RTVSPropertyOp49
 70
     1
102
RTVSPropertyOp50
 70
     1
102
RTVSPropertyOp51
 70
     0
102
RTVSPropertyOp52
 70
     0
102
RTVSPropertyOp53
 70
     1
102
RTVSPropertyOp54
 70
     1
102
RTVSPropertyOp55
 70
     1
102
RTVSPropertyOp56
 70
     1
102
RTVSPropertyOp57
 70
     1
102
RTVSPropertyOp58
 70
     1
102
RTVSPropertyOp59
 70
     1
102
RTVSPropertyOp60
 70
     1
102
RTVSPropertyOp61
 70
     1
102
RTVSPropertyOp62
 70
     1
  0
XRECORD
  5
2CD
102
{ACAD_REACTORS
330
2CC
102
}
330
2CC
100
AcDbXrecord
280
     1
102
RTVSPost2010Prop28
280
     0
102
RTVSPost2010PropOp28
 70
     1
102
RTVSPost2010Prop29
280
     1
102
RTVSPost2010PropOp29
 70
     1
102
RTVSPost2010Prop30
280
     1
102
RTVSPost2010PropOp30
 70
     1
102
RTVSPost2010Prop31
280
     0
102
RTVSPost2010PropOp31
 70
     1
102
RTVSPost2010Prop32
280
     0
102
RTVSPost2010PropOp32
 70
     1
102
RTVSPost2010Prop33
280
     0
102
RTVSPost2010PropOp33
 70
     1
102
RTVSPost2010Prop34
280
     0
102
RTVSPost2010PropOp34
 70
     1
102
RTVSPost2010Prop35
280
     0
102
RTVSPost2010PropOp35
 70
     1
102
RTVSPost2010Prop36
280
     0
102
RTVSPost2010PropOp36
 70
     1
102
RTVSPost2010Prop37
 90
       50
102
RTVSPost2010PropOp37
 70
     1
102
RTVSPost2010Prop38
140
0.0
102
RTVSPost2010PropOp38
 70
     1
102
RTVSPost2010Prop39
140
1.0
102
RTVSPost2010PropOp39
 70
     1
102
RTVSPost2010Prop40
 90
        0
102
RTVSPost2010PropOp40
 70
     1
102
RTVSPost2010Prop41ColorIndex
 90
       18
102
RTVSPost2010Prop41ColorRGB
 90
        0
102
RTVSPost2010PropOp41
 70
     1
102
RTVSPost2010Prop42
 90
       50
102
RTVSPost2010PropOp42
 70
     1
102
RTVSPost2010Prop43
 90
        3
102
RTVSPost2010PropOp43
 70
     1
102
RTVSPost2010Prop44ColorIndex
 90
        5
102
RTVSPost2010Prop44ColorRGB
 90
      255
102
RTVSPost2010PropOp44
 70
     1
102
RTVSPost2010Prop45
280
     0
102
RTVSPost2010PropOp45
 70
     1
102
RTVSPost2010Prop46
 90
       50
102
RTVSPost2010PropOp46
 70
     1
102
RTVSPost2010Prop47
 90
       50
102
RTVSPost2010PropOp47
 70
     1
102
RTVSPost2010Prop48
 90
       50
102
RTVSPost2010PropOp48
 70
     1
102
RTVSPost2010Prop49
280
     0
102
RTVSPost2010PropOp49
 70
     1
102
RTVSPost2010Prop50
 90
       50
102
RTVSPost2010PropOp50
 70
     1
102
RTVSPost2010Prop51ColorIndex
 90
      256
102
RTVSPost2010Prop51ColorRGB
 90
-16777216
102
RTVSPost2010PropOp51
 70
     0
102
RTVSPost2010Prop52
140
1.0
102
RTVSPost2010PropOp52
 70
     0
102
RTVSPost2010Prop53
 90
        2
102
RTVSPost2010PropOp53
 70
     1
102
RTVSPost2010Prop54
  1
strokes_ogs.tif
102
RTVSPost2010PropOp54
 70
     1
102
RTVSPost2010Prop55
280
     0
102
RTVSPost2010PropOp55
 70
     1
102
RTVSPost2010Prop56
140
1.0
102
RTVSPost2010PropOp56
 70
     1
102
RTVSPost2010Prop57
140
1.0
102
RTVSPost2010PropOp57
 70
     1
102
RTVSPropertyOp0
 70
     1
102
RTVSPropertyOp1
 70
     1
102
RTVSPropertyOp2
 70
     1
102
RTVSPropertyOp3
 70
     1
102
RTVSPropertyOp4
 70
     1
102
RTVSPropertyOp5
 70
     1
102
RTVSPropertyOp6
 70
     1
102
RTVSPropertyOp7
 70
     1
102
RTVSPropertyOp8
 70
     1
102
RTVSPropertyOp9
 70
     1
102
RTVSPropertyOp10
 70
     1
102
RTVSPropertyOp11
 70
     1
102
RTVSPropertyOp12
 70
     1
102
RTVSPropertyOp13
 70
     1
102
RTVSPropertyOp14
 70
     1
102
RTVSPropertyOp15
 70
     1
102
RTVSPropertyOp16
 70
     1
102
RTVSPropertyOp17
 70
     1
102
RTVSPropertyOp18
 70
     1
102
RTVSPropertyOp19
 70
     1
102
RTVSPropertyOp20
 70
     1
102
RTVSPropertyOp21
 70
     1
102
RTVSPropertyOp22
 70
     1
102
RTVSPropertyOp23
 70
     1
102
RTVSPropertyOp24
 70
     1
102
RTVSPropertyOp25
 70
     1
102
RTVSPropertyOp26
 70
     1
102
RTVSPropertyOp27
 70
     1
102
RTVSPropertyOp28
 70
     1
102
RTVSPropertyOp29
 70
     1
102
RTVSPropertyOp30
 70
     1
102
RTVSPropertyOp31
 70
     1
102
RTVSPropertyOp32
 70
     1
102
RTVSPropertyOp33
 70
     1
102
RTVSPropertyOp34
 70
     1
102
RTVSPropertyOp35
 70
     1
102
RTVSPropertyOp36
 70
     1
102
RTVSPropertyOp37
 70
     1
102
RTVSPropertyOp38
 70
     1
102
RTVSPropertyOp39
 70
     1
102
RTVSPropertyOp40
 70
     1
102
RTVSPropertyOp41
 70
     1
102
RTVSPropertyOp42
 70
     1
102
RTVSPropertyOp43
 70
     1
102
RTVSPropertyOp44
 70
     1
102
RTVSPropertyOp45
 70
     1
102
RTVSPropertyOp46
 70
     1
102
RTVSPropertyOp47
 70
     1
102
RTVSPropertyOp48
 70
     1
102
RTVSPropertyOp49
 70
     1
102
RTVSPropertyOp50
 70
     1
102
RTVSPropertyOp51
 70
     0
102
RTVSPropertyOp52
 70
     0
102
RTVSPropertyOp53
 70
     1
102
RTVSPropertyOp54
 70
     1
102
RTVSPropertyOp55
 70
     1
102
RTVSPropertyOp56
 70
     1
102
RTVSPropertyOp57
 70
     1
102
RTVSPropertyOp58
 70
     1
102
RTVSPropertyOp59
 70
     1
102
RTVSPropertyOp60
 70
     1
102
RTVSPropertyOp61
 70
     1
102
RTVSPropertyOp62
 70
     1
  0
ENDSEC
  0
EOF
