  0
SECTION
  2
HEADER
  9
$ACADVER
  1
AC1015
  9
$ACADMAINTVER
 70
    20
  9
$DWGCODEPAGE
  3
ANSI_1252
  9
$INSBASE
 10
0.0
 20
0.0
 30
0.0
  9
$EXTMIN
 10
-544.1477532684293
 20
98.12622221434299
 30
-0.0015258207003583
  9
$EXTMAX
 10
528.9381112105784
 20
524.7161878327794
 30
0.0000000349246037
  9
$LIMMIN
 10
0.0
 20
0.0
  9
$LIMMAX
 10
500.0
 20
600.0
  9
$ORTHOMODE
 70
     1
  9
$REGENMODE
 70
     1
  9
$FILLMODE
 70
     1
  9
$QTEXTMODE
 70
     0
  9
$MIRRTEXT
 70
     1
  9
$LTSCALE
 40
1.0
  9
$ATTMODE
 70
     1
  9
$TEXTSIZE
 40
2.399999999999999
  9
$TRACEWID
 40
0.05
  9
$TEXTSTYLE
  7
NORM
  9
$CLAYER
  8
UMRISS05
  9
$CELTYPE
  6
BYLAYER
  9
$CECOLOR
 62
   256
  9
$CELTSCALE
 40
1.0
  9
$DISPSILH
 70
     0
  9
$DIMSCALE
 40
1.0
  9
$DIMASZ
 40
6.0
  9
$DIMEXO
 40
0.0
  9
$DIMDLI
 40
8.0
  9
$DIMRND
 40
0.0
  9
$DIMDLE
 40
0.0
  9
$DIMEXE
 40
1.0
  9
$DIMTP
 40
0.0
  9
$DIMTM
 40
0.0
  9
$DIMTXT
 40
5.0
  9
$DIMCEN
 40
1.5
  9
$DIMTSZ
 40
0.0
  9
$DIMTOL
 70
     0
  9
$DIMLIM
 70
     0
  9
$DIMTIH
 70
     0
  9
$DIMTOH
 70
     0
  9
$DIMSE1
 70
     0
  9
$DIMSE2
 70
     0
  9
$DIMTAD
 70
     1
  9
$DIMZIN
 70
     8
  9
$DIMBLK
  1

  9
$DIMASO
 70
     1
  9
$DIMSHO
 70
     1
  9
$DIMPOST
  1

  9
$DIMAPOST
  1

  9
$DIMALT
 70
     0
  9
$DIMALTD
 70
     2
  9
$DIMALTF
 40
25.39999999999999
  9
$DIMLFAC
 40
1.0
  9
$DIMTOFL
 70
     1
  9
$DIMTVP
 40
0.0
  9
$DIMTIX
 70
     1
  9
$DIMSOXD
 70
     0
  9
$DIMSAH
 70
     0
  9
$DIMBLK1
  1

  9
$DIMBLK2
  1

  9
$DIMSTYLE
  2
Katalog 09
  9
$DIMCLRD
 70
     2
  9
$DIMCLRE
 70
     2
  9
$DIMCLRT
 70
     3
  9
$DIMTFAC
 40
0.4285714285714287
  9
$DIMGAP
 40
2.0
  9
$DIMJUST
 70
     0
  9
$DIMSD1
 70
     0
  9
$DIMSD2
 70
     0
  9
$DIMTOLJ
 70
     1
  9
$DIMTZIN
 70
     8
  9
$DIMALTZ
 70
     8
  9
$DIMALTTZ
 70
     8
  9
$DIMUPT
 70
     0
  9
$DIMDEC
 70
     2
  9
$DIMTDEC
 70
     2
  9
$DIMALTU
 70
     2
  9
$DIMALTTD
 70
     2
  9
$DIMTXSTY
  7
ARIAL-STANDARD
  9
$DIMAUNIT
 70
     0
  9
$DIMADEC
 70
     0
  9
$DIMALTRND
 40
0.0
  9
$DIMAZIN
 70
     0
  9
$DIMDSEP
 70
    46
  9
$DIMATFIT
 70
     3
  9
$DIMFRAC
 70
     0
  9
$DIMLDRBLK
  1

  9
$DIMLUNIT
 70
     2
  9
$DIMLWD
 70
    -2
  9
$DIMLWE
 70
    -2
  9
$DIMTMOVE
 70
     0
  9
$LUNITS
 70
     2
  9
$LUPREC
 70
     2
  9
$SKETCHINC
 40
0.1
  9
$FILLETRAD
 40
0.0
  9
$AUNITS
 70
     0
  9
$AUPREC
 70
     0
  9
$MENU
  1
.
  9
$ELEVATION
 40
0.0
  9
$PELEVATION
 40
0.0
  9
$THICKNESS
 40
0.0
  9
$LIMCHECK
 70
     0
  9
$CHAMFERA
 40
0.5
  9
$CHAMFERB
 40
0.5
  9
$CHAMFERC
 40
1.0
  9
$CHAMFERD
 40
0.0
  9
$SKPOLY
 70
     0
  9
$TDCREATE
 40
2451305.384745371
  9
$TDUCREATE
 40
2451305.343078704
  9
$TDUPDATE
 40
2457149.462987570
  9
$TDUUPDATE
 40
2457149.421320903
  9
$TDINDWG
 40
4.2562827662
  9
$TDUSRTIMER
 40
4.2562826620
  9
$USRTIMER
 70
     1
  9
$ANGBASE
 50
0.0
  9
$ANGDIR
 70
     0
  9
$PDMODE
 70
     0
  9
$PDSIZE
 40
0.0
  9
$PLINEWID
 40
0.0
  9
$SPLFRAME
 70
     0
  9
$SPLINETYPE
 70
     6
  9
$SPLINESEGS
 70
     8
  9
$HANDSEED
  5
3A5
  9
$SURFTAB1
 70
     6
  9
$SURFTAB2
 70
     6
  9
$SURFTYPE
 70
     6
  9
$SURFU
 70
     6
  9
$SURFV
 70
     6
  9
$UCSBASE
  2

  9
$UCSNAME
  2

  9
$UCSORG
 10
0.0
 20
0.0
 30
0.0
  9
$UCSXDIR
 10
1.0
 20
0.0
 30
0.0
  9
$UCSYDIR
 10
0.0
 20
1.0
 30
0.0
  9
$UCSORTHOREF
  2

  9
$UCSORTHOVIEW
 70
     0
  9
$UCSORGTOP
 10
0.0
 20
0.0
 30
0.0
  9
$UCSORGBOTTOM
 10
0.0
 20
0.0
 30
0.0
  9
$UCSORGLEFT
 10
0.0
 20
0.0
 30
0.0
  9
$UCSORGRIGHT
 10
0.0
 20
0.0
 30
0.0
  9
$UCSORGFRONT
 10
0.0
 20
0.0
 30
0.0
  9
$UCSORGBACK
 10
0.0
 20
0.0
 30
0.0
  9
$PUCSBASE
  2

  9
$PUCSNAME
  2

  9
$PUCSORG
 10
0.0
 20
0.0
 30
0.0
  9
$PUCSXDIR
 10
1.0
 20
0.0
 30
0.0
  9
$PUCSYDIR
 10
0.0
 20
1.0
 30
0.0
  9
$PUCSORTHOREF
  2

  9
$PUCSORTHOVIEW
 70
     0
  9
$PUCSORGTOP
 10
0.0
 20
0.0
 30
0.0
  9
$PUCSORGBOTTOM
 10
0.0
 20
0.0
 30
0.0
  9
$PUCSORGLEFT
 10
0.0
 20
0.0
 30
0.0
  9
$PUCSORGRIGHT
 10
0.0
 20
0.0
 30
0.0
  9
$PUCSORGFRONT
 10
0.0
 20
0.0
 30
0.0
  9
$PUCSORGBACK
 10
0.0
 20
0.0
 30
0.0
  9
$USERI1
 70
     0
  9
$USERI2
 70
     0
  9
$USERI3
 70
     0
  9
$USERI4
 70
     0
  9
$USERI5
 70
     0
  9
$USERR1
 40
0.0
  9
$USERR2
 40
0.0
  9
$USERR3
 40
0.0
  9
$USERR4
 40
0.0
  9
$USERR5
 40
0.0
  9
$WORLDVIEW
 70
     1
  9
$SHADEDGE
 70
     3
  9
$SHADEDIF
 70
    70
  9
$TILEMODE
 70
     1
  9
$MAXACTVP
 70
    48
  9
$PINSBASE
 10
0.0
 20
0.0
 30
0.0
  9
$PLIMCHECK
 70
     0
  9
$PEXTMIN
 10
1.000000000000000E+20
 20
1.000000000000000E+20
 30
1.000000000000000E+20
  9
$PEXTMAX
 10
-1.000000000000000E+20
 20
-1.000000000000000E+20
 30
-1.000000000000000E+20
  9
$PLIMMIN
 10
0.0
 20
0.0
  9
$PLIMMAX
 10
12.0
 20
9.0
  9
$UNITMODE
 70
     0
  9
$VISRETAIN
 70
     1
  9
$PLINEGEN
 70
     0
  9
$PSLTSCALE
 70
     1
  9
$TREEDEPTH
 70
  3020
  9
$CMLSTYLE
  2
STANDARD
  9
$CMLJUST
 70
     0
  9
$CMLSCALE
 40
1.0
  9
$PROXYGRAPHICS
 70
     1
  9
$MEASUREMENT
 70
     1
  9
$CELWEIGHT
370
    -1
  9
$ENDCAPS
280
     0
  9
$JOINSTYLE
280
     0
  9
$LWDISPLAY
290
     0
  9
$INSUNITS
 70
     4
  9
$HYPERLINKBASE
  1

  9
$STYLESHEET
  1

  9
$XEDIT
290
     1
  9
$CEPSNTYPE
380
     0
  9
$PSTYLEMODE
290
     1
  9
$FINGERPRINTGUID
  2
{8074051B-47DE-4689-AA48-93A4E8455EB3}
  9
$VERSIONGUID
  2
{508B036C-BC69-49BB-AB05-7C40C6A63E15}
  9
$EXTNAMES
290
     1
  9
$PSVPSCALE
 40
0.0
  9
$OLESTARTUP
290
     0
  0
ENDSEC
  0
SECTION
  2
CLASSES
  0
CLASS
  1
ACDBDICTIONARYWDFLT
  2
AcDbDictionaryWithDefault
  3
ObjectDBX Classes
 90
        0
280
     0
281
     0
  0
CLASS
  1
TABLESTYLE
  2
AcDbTableStyle
  3
ObjectDBX Classes
 90
     4095
280
     0
281
     0
  0
CLASS
  1
ACME_DOCUMENT
  2
AcMeDbDoc
  3
AcMeServices
 90
    33792
280
     0
281
     0
  0
CLASS
  1
AMGSETTINGSOBJ
  2
AmgSettingsObj
  3
"AcadM|Product Description: AutoCAD Mechanical|Company: Autodesk, Inc."
 90
     1024
280
     0
281
     0
  0
CLASS
  1
ACMESCOPE
  2
AcMeScope
  3
AcMeServices
 90
     1024
280
     0
281
     0
  0
CLASS
  1
ACMECOMMANDHISTORY
  2
AcMeCommandHistory
  3
AcMeServices
 90
    33792
280
     0
281
     0
  0
CLASS
  1
ACIMSYSVARMAN
  2
AcImSysVarManager
  3
AcMeServices
 90
     1024
280
     0
281
     0
  0
CLASS
  1
ACIMINTSYSVAR
  2
AcImIntSysVar
  3
AcMeServices
 90
    33792
280
     0
281
     0
  0
CLASS
  1
ACMEDRAWINGMAN
  2
AcMeDrawingMan
  3
AcMeServices
 90
    33792
280
     0
281
     0
  0
CLASS
  1
ACMEVIEW
  2
AcMeView
  3
AcMeServices
 90
    33792
280
     0
281
     0
  0
CLASS
  1
ACDBENTITYCACHE
  2
AcMeEntityCache
  3
AcMeServices
 90
    33792
280
     0
281
     0
  0
CLASS
  1
GSMANAGER
  2
AcMeGSManager
  3
AcMeServices
 90
    33792
280
     1
281
     0
  0
CLASS
  1
AMDTINTERNALREACTOR
  2
AmdtInternalReactor
  3
AcMeServices
 90
    33792
280
     0
281
     0
  0
CLASS
  1
ACMESTATEMGR
  2
AcMeStateMgr
  3
AcMeServices
 90
     1024
280
     0
281
     0
  0
CLASS
  1
ACGREFMASTER
  2
AcGrefMaster
  3
AcAttribServices
 90
     1024
280
     0
281
     0
  0
CLASS
  1
AM_DRAWING_MGR
  2
AcDmDwgMgr
  3
AcMechDwgViewMgmt
 90
    33792
280
     0
281
     0
  0
CLASS
  1
AM_DWG_DOCUMENT
  2
AcDmDwgDocument
  3
AcMechDwgViewMgmt
 90
    33792
280
     0
281
     0
  0
CLASS
  1
AM_DWG_SHEET
  2
AcDmSheet
  3
AcMechDwgViewMgmt
 90
    33792
280
     0
281
     0
  0
CLASS
  1
AM_VIEWDIMPARMAP
  2
AcDmViewDimParMap
  3
AcMechDwgViewMgmt
 90
    33792
280
     0
281
     0
  0
CLASS
  1
ACIMREALSYSVAR
  2
AcImRealSysVar
  3
AcMeServices
 90
    33792
280
     0
281
     0
  0
CLASS
  1
AM_DWGMGR_NAME
  2
AcDmDwgMgrName
  3
AcMechDwgViewMgmt
 90
    33792
280
     0
281
     0
  0
CLASS
  1
ACME_DATABASE
  2
AcMeDbDatabase
  3
AcMeServices
 90
    33792
280
     0
281
     0
  0
CLASS
  1
ACRFINSADJUSTERMGR
  2
AcRfInsAdjusterMgr
  3
AcMeServices
 90
    33792
280
     0
281
     0
  0
CLASS
  1
ACGREFACADMASTER
  2
AcGrefacadMaster
  3
AcGrefServices
 90
    33792
280
     0
281
     0
  0
CLASS
  1
AMDTMENUSTATEMGR
  2
AmdtMenuStateMgr
  3
McadcomServices
 90
    33792
280
     0
281
     0
  0
CLASS
  1
AMDTMCOMMENUSTATE
  2
AmdtMcomMenuState
  3
McadcomServices
 90
    33792
280
     0
281
     0
  0
CLASS
  1
AMIMASTER
  2
AmiMaster
  3
AmiServices
 90
    33792
280
     0
281
     0
  0
CLASS
  1
MAPIAMMOUDLE
  2
MApiAmModule
  3
MApiAmServices
 90
    33792
280
     0
281
     0
  0
CLASS
  1
ACIMSTRSYSVAR
  2
AcImStrSysVar
  3
AcMeServices
 90
     1024
280
     0
281
     0
  0
CLASS
  1
AMDTADMENUSTATE
  2
AmdtAdMenuState
  3
DesignerServices
 90
    33792
280
     1
281
     0
  0
CLASS
  1
ADAPPL
  2
AcAdAppl
  3
DesignerAssemblies
 90
    33792
280
     0
281
     0
  0
CLASS
  1
DEPMGR
  2
AcAdDepMgr
  3
DesignerAssemblies
 90
    33792
280
     0
281
     0
  0
CLASS
  1
PARAMMGR
  2
AcAdParamMgr
  3
DesignerAssemblies
 90
    33792
280
     0
281
     0
  0
CLASS
  1
PARAMSCOPE
  2
AcAdParamScope
  3
DesignerAssemblies
 90
    33792
280
     0
281
     0
  0
CLASS
  1
NAMEDAPPL
  2
AcAdNamedAppl
  3
DesignerAssemblies
 90
    33792
280
     0
281
     0
  0
CLASS
  1
AMDTDMMENUSTATE
  2
AmdtDmMenuState
  3
AcMechDwgViewMgmt
 90
    33792
280
     1
281
     0
  0
CLASS
  1
AMDTAMMENUSTATE
  2
AmdtAmMenuState
  3
DesignerAssemblies
 90
    33792
280
     0
281
     0
  0
CLASS
  1
ACAMPROJECT
  2
AcAmProject
  3
DesignerAssemblies
 90
    33792
280
     0
281
     0
  0
CLASS
  1
ACAMGRCOMPDEF
  2
AcAmGrCompDef
  3
DesignerAssemblies
 90
    33792
280
     0
281
     0
  0
CLASS
  1
ACCMCONTEXT
  2
AcCmContext
  3
DesignerAssemblies
 90
    33792
280
     0
281
     0
  0
CLASS
  1
ACAMCOMPDEF
  2
AcAmCompDef
  3
DesignerAssemblies
 90
    33792
280
     0
281
     0
  0
CLASS
  1
ACAMCOMPDEFMGR
  2
AcAmCompDefMgr
  3
DesignerAssemblies
 90
    33792
280
     0
281
     0
  0
CLASS
  1
AMCONTEXTMGR
  2
AcAmContextMgr
  3
DesignerAssemblies
 90
    33792
280
     0
281
     0
  0
CLASS
  1
ACAMCONTEXTMODELER
  2
AcAmContextModeler
  3
DesignerAssemblies
 90
    33792
280
     0
281
     0
  0
CLASS
  1
ACMDATADICTIONARY
  2
AcmDataDictionary
  3
"AcmSymBB|Product Description: AutoCAD Mechanical|Company: Autodesk, Inc."
 90
    33792
280
     0
281
     0
  0
CLASS
  1
CATALOGSTATE
  2
AcAmCatalogState
  3
DesignerAssemblies
 90
    33792
280
     0
281
     0
  0
CLASS
  1
ACAMGRCOMPDEFSET
  2
AcAmGrCompDefSet
  3
DesignerAssemblies
 90
    33792
280
     0
281
     0
  0
CLASS
  1
AMDTBROWSERDBTAB
  2
AmdtBrowserDbTab
  3
McadcomServices
 90
    33792
280
     0
281
     0
  0
CLASS
  1
CBROWSERAPPOBJECT
  2
CBrowserAppObject
  3
McadcomServices
 90
    33792
280
     0
281
     0
  0
CLASS
  1
DM_PLACEHOLDER
  2
AcDmSelsetPlaceholder
  3
McadcomServices
 90
    33792
280
     0
281
     0
  0
CLASS
  1
ACMSTANDARDANSI
  2
AcmStandardANSI
  3
"Amdt_StdImp|Product Description: AutoCAD Mechanical|Company: Autodesk, Inc."
 90
    33792
280
     0
281
     0
  0
CLASS
  1
AMGOBJPROPCFG
  2
AmgObjPropCfg
  3
"AmgLay|Product Description: AutoCAD Mechanical|Company: Autodesk, Inc."
 90
     1024
280
     0
281
     0
  0
CLASS
  1
ACMSURFSTANDARDANSI
  2
AcmSurfTextStdANSI
  3
"Amdt_StdImp|Product Description: AutoCAD Mechanical|Company: Autodesk, Inc."
 90
    33792
280
     0
281
     0
  0
CLASS
  1
ACMFCFSTANDARDANSI
  2
AcmFCFStdANSI
  3
"Amdt_StdImp|Product Description: AutoCAD Mechanical|Company: Autodesk, Inc."
 90
    33792
280
     0
281
     0
  0
CLASS
  1
ACMWELDSTANDARDANSI
  2
AcmWeldingStdANSI
  3
"Amdt_StdImp|Product Description: AutoCAD Mechanical|Company: Autodesk, Inc."
 90
    33792
280
     0
281
     0
  0
CLASS
  1
ACMIDSTANDARDANSI
  2
AcmIdStdANSI
  3
"Amdt_StdImp|Product Description: AutoCAD Mechanical|Company: Autodesk, Inc."
 90
    33792
280
     0
281
     0
  0
CLASS
  1
ACMDATUMSTANDARDANSI
  2
AcmDatumStdANSI
  3
"Amdt_StdImp|Product Description: AutoCAD Mechanical|Company: Autodesk, Inc."
 90
    33792
280
     0
281
     0
  0
CLASS
  1
ACMBOMSTANDARDANSI
  2
AcmBOMStdANSI
  3
"Amdt_StdImp|Product Description: AutoCAD Mechanical|Company: Autodesk, Inc."
 90
    33792
280
     0
281
     0
  0
CLASS
  1
ACMDETAILSTANDARDANSI
  2
AmdtDetailSymStdANSI
  3
"Amdt_StdImp|Product Description: AutoCAD Mechanical|Company: Autodesk, Inc."
 90
    33792
280
     0
281
     0
  0
CLASS
  1
ACMSECTIONSTANDARDANSI
  2
AmdtSectionSymStdANSI
  3
"Amdt_StdImp|Product Description: AutoCAD Mechanical|Company: Autodesk, Inc."
 90
    33792
280
     0
281
     0
  0
CLASS
  1
ACMCENTERLINESTANDARDANSI
  2
AmdtCenterLineStdANSI
  3
"Amdt_StdImp|Product Description: AutoCAD Mechanical|Company: Autodesk, Inc."
 90
    33792
280
     0
281
     0
  0
CLASS
  1
ACMTHREADLINESTANDARDANSI
  2
AmdtThreadLineStdANSI
  3
"Amdt_StdImp|Product Description: AutoCAD Mechanical|Company: Autodesk, Inc."
 90
    33792
280
     0
281
     0
  0
CLASS
  1
ACMNOTESTANDARDANSI
  2
AmdtNoteStdANSI
  3
"Amdt_StdImp|Product Description: AutoCAD Mechanical|Company: Autodesk, Inc."
 90
    33792
280
     0
281
     0
  0
CLASS
  1
AMDTNOTETEMPLATEDB
  2
AmdtNoteTemplateDB
  3
AcmSymBB|Product Description: AutoCAD Mechanical|Company: Autodesk, Inc.
 90
     1024
280
     0
281
     0
  0
CLASS
  1
ACAMGLAYSTD
  2
AcAmgLayStd
  3
"AmgLay|Product Description: AutoCAD Mechanical|Company: Autodesk, Inc."
 90
     1024
280
     0
281
     0
  0
CLASS
  1
ACAMGDIMSTD
  2
AcAmgDimStd
  3
"AmgDim|Product Description: AutoCAD Mechanical|Company: Autodesk, Inc."
 90
     1024
280
     0
281
     0
  0
CLASS
  1
ACAMGHOLECHARTSTDANSI
  2
AcAmgHoleChartStdANSI
  3
AmgDim|Product Description: AutoCAD Mechanical|Company: Autodesk, Inc.
 90
    33792
280
     0
281
     0
  0
CLASS
  1
ACAMGTITLESTD
  2
AcAmgTitleStd
  3
"AmgTitle|Product Description: AutoCAD Mechanical|Company: Autodesk, Inc."
 90
     1024
280
     0
281
     0
  0
CLASS
  1
ACAMGFILTERDAT
  2
AcAmgFilterDat
  3
"AcadM|Product Description: AutoCAD Mechanical|Company: Autodesk, Inc."
 90
    33792
280
     0
281
     0
  0
CLASS
  1
PLOTSETTINGS
  2
AcDbPlotSettings
  3
ObjectDBX Classes
 90
    32768
280
     0
281
     0
  0
CLASS
  1
ACMSTANDARDDIN
  2
AcmStandardDIN
  3
"Amdt_StdImp|Product Description: AutoCAD Mechanical|Company: Autodesk, Inc."
 90
     1024
280
     0
281
     0
  0
CLASS
  1
AMDTEDGESTANDARDDIN
  2
AmdtEdgeStdDIN
  3
"Amdt_StdImp|Product Description: AutoCAD Mechanical|Company: Autodesk, Inc."
 90
    33792
280
     0
281
     0
  0
CLASS
  1
ACMSURFSTANDARDDIN
  2
AcmSurfTextStdDIN
  3
"Amdt_StdImp|Product Description: AutoCAD Mechanical|Company: Autodesk, Inc."
 90
    33792
280
     0
281
     0
  0
CLASS
  1
ACMFCFSTANDARDDIN
  2
AcmFCFStdDIN
  3
"Amdt_StdImp|Product Description: AutoCAD Mechanical|Company: Autodesk, Inc."
 90
    33792
280
     0
281
     0
  0
CLASS
  1
ACMWELDSTANDARDDIN
  2
AcmWeldingStdDIN
  3
"Amdt_StdImp|Product Description: AutoCAD Mechanical|Company: Autodesk, Inc."
 90
     1024
280
     0
281
     0
  0
CLASS
  1
ACMIDSTANDARDDIN
  2
AcmIdStdDIN
  3
"Amdt_StdImp|Product Description: AutoCAD Mechanical|Company: Autodesk, Inc."
 90
    33792
280
     0
281
     0
  0
CLASS
  1
ACMDATUMSTANDARDDIN
  2
AcmDatumStdDIN
  3
"Amdt_StdImp|Product Description: AutoCAD Mechanical|Company: Autodesk, Inc."
 90
     1024
280
     0
281
     0
  0
CLASS
  1
ACMBOMSTANDARDDIN
  2
AcmBOMStdDIN
  3
"Amdt_StdImp|Product Description: AutoCAD Mechanical|Company: Autodesk, Inc."
 90
     1024
280
     0
281
     0
  0
CLASS
  1
ACMDETAILSTANDARDDIN
  2
AmdtDetailSymStdDIN
  3
"Amdt_StdImp|Product Description: AutoCAD Mechanical|Company: Autodesk, Inc."
 90
     1024
280
     0
281
     0
  0
CLASS
  1
ACMSECTIONSTANDARDDIN
  2
AmdtSectionSymStdDIN
  3
"Amdt_StdImp|Product Description: AutoCAD Mechanical|Company: Autodesk, Inc."
 90
     1024
280
     0
281
     0
  0
CLASS
  1
ACMCENTERLINESTANDARDDIN
  2
AmdtCenterLineStdDIN
  3
"Amdt_StdImp|Product Description: AutoCAD Mechanical|Company: Autodesk, Inc."
 90
     1024
280
     0
281
     0
  0
CLASS
  1
ACMNOTESTANDARDDIN
  2
AmdtNoteStdDIN
  3
"Amdt_StdImp|Product Description: AutoCAD Mechanical|Company: Autodesk, Inc."
 90
     1024
280
     0
281
     0
  0
CLASS
  1
ACAMGHOLECHARTSTDDIN
  2
AcAmgHoleChartStdDIN
  3
AmgDim|Product Description: AutoCAD Mechanical|Company: Autodesk, Inc.
 90
     1024
280
     0
281
     0
  0
CLASS
  1
ACMTHREADLINESTANDARDDIN
  2
AmdtThreadLineStdDIN
  3
"Amdt_StdImp|Product Description: AutoCAD Mechanical|Company: Autodesk, Inc."
 90
     1024
280
     0
281
     0
  0
CLASS
  1
ACMDATAENTRYBLOCK
  2
AcmDataEntryBlock
  3
AcmSymBB|Product Description: AutoCAD Mechanical|Company: Autodesk, Inc.
 90
    33792
280
     0
281
     0
  0
CLASS
  1
DICTIONARYVAR
  2
AcDbDictionaryVar
  3
ObjectDBX Classes
 90
        0
280
     0
281
     0
  0
CLASS
  1
SORTENTSTABLE
  2
AcDbSortentsTable
  3
ObjectDBX Classes
 90
        0
280
     0
281
     0
  0
CLASS
  1
MATERIAL
  2
AcDbMaterial
  3
ObjectDBX Classes
 90
     1153
280
     0
281
     0
  0
CLASS
  1
VISUALSTYLE
  2
AcDbVisualStyle
  3
ObjectDBX Classes
 90
     4095
280
     0
281
     0
  0
CLASS
  1
SCALE
  2
AcDbScale
  3
ObjectDBX Classes
 90
     1153
280
     0
281
     0
  0
CLASS
  1
MLEADERSTYLE
  2
AcDbMLeaderStyle
  3
ACDB_MLEADERSTYLE_CLASS
 90
    36863
280
     0
281
     0
  0
CLASS
  1
ACMTAPERSTANDARDANSI
  2
AcmTaperStdANSI
  3
"Amdt_StdImp|Product Description: AutoCAD Mechanical|Company: Autodesk, Inc."
 90
    33792
280
     0
281
     0
  0
CLASS
  1
ACMANOOTATIONVIEWSTANDARDANSI
  2
AmdtAnViewStdANSI
  3
"Amdt_StdImp|Product Description: AutoCAD Mechanical|Company: Autodesk, Inc."
 90
    33792
280
     0
281
     0
  0
CLASS
  1
ACMTAPERSTANDARDDIN
  2
AcmTaperStdDIN
  3
"Amdt_StdImp|Product Description: AutoCAD Mechanical|Company: Autodesk, Inc."
 90
     1024
280
     0
281
     0
  0
CLASS
  1
ACMANOOTATIONVIEWSTANDARDDIN
  2
AmdtAnViewStdDIN
  3
"Amdt_StdImp|Product Description: AutoCAD Mechanical|Company: Autodesk, Inc."
 90
     1024
280
     0
281
     0
  0
CLASS
  1
ACRFATTGENMGR
  2
AcRfAttGeneralMgr
  3
AcAttribServices
 90
    33792
280
     0
281
     0
  0
CLASS
  1
ACRFMCADAPIATTHOLDER
  2
AcRfMCADAPIAttHolder
  3
AcAttribServices
 90
    33792
280
     0
281
     0
  0
CLASS
  1
AMDTSYSATTR
  2
AmdtSystemAttribute
  3
AcAttribServices
 90
    33792
280
     0
281
     0
  0
CLASS
  1
CAMSSTRUCTBTNSTATE
  2
StructBtnState
  3
DesignerAssemblies
 90
    33792
280
     0
281
     0
  0
CLASS
  1
CELLSTYLEMAP
  2
AcDbCellStyleMap
  3
ObjectDBX Classes
 90
     1152
280
     0
281
     0
  0
CLASS
  1
AEC_REFEDIT_STATUS_TRACKER
  2
AecDbRefEditStatusTracker
  3
AecArchBase70|Product Desc: Autodesk Architectural Desktop 2007 |Company: Autodesk,Inc. |WEB Address: www.autodesk.com
 90
    32897
280
     0
281
     0
  0
CLASS
  1
NPOCOLLECTION
  2
AcDbImpNonPersistentObjectsCollection
  3
ObjectDBX Classes
 90
    33921
280
     0
281
     0
  0
CLASS
  1
ACDBLINERES
  2
AcDbLineRes
  3
AcGrefServices
 90
    33792
280
     0
281
     0
  0
CLASS
  1
AMDTNOTE
  2
AmdtNote
  3
"AcmSymBB|Product Description: AutoCAD Mechanical|Company: Autodesk, Inc."
 90
    33792
280
     0
281
     1
  0
CLASS
  1
AMDTFORMULAUPDATEDISPATCHER
  2
AmdtFormulaUpdateDispatcher
  3
AcMeServices
 90
    33792
280
     0
281
     0
  0
CLASS
  1
AMDTEDGESTANDARDDIN13715
  2
AmdtEdgeStdDIN13715
  3
"Amdt_StdImp|Product Description: AutoCAD Mechanical|Company: Autodesk, Inc."
 90
     1024
280
     0
281
     0
  0
CLASS
  1
ACMSURFSTANDARDDIN2002
  2
AcmSurfTextStdDIN2002
  3
"Amdt_StdImp|Product Description: AutoCAD Mechanical|Company: Autodesk, Inc."
 90
     1024
280
     0
281
     0
  0
CLASS
  1
ACMDIMBREAKPERSREACTOR
  2
AcmDimBreakPersReactor
  3
AmgDim|Product Description: AutoCAD Mechanical|Company: Autodesk, Inc.
 90
    33792
280
     0
281
     0
  0
CLASS
  1
ACDBASSOCNETWORK
  2
AcDbAssocNetwork
  3
ObjectDBX Classes
 90
    33793
280
     0
281
     0
  0
CLASS
  1
ACDBASSOC2DCONSTRAINTGROUP
  2
AcDbAssoc2dConstraintGroup
  3
ObjectDBX Classes
 90
    33793
280
     0
281
     0
  0
CLASS
  1
ACDBASSOCGEOMDEPENDENCY
  2
AcDbAssocGeomDependency
  3
ObjectDBX Classes
 90
    33793
280
     0
281
     0
  0
CLASS
  1
ACMFCFSTANDARDDIN2008
  2
AcmFCFStdDIN2008
  3
"Amdt_StdImp|Product Description: AutoCAD Mechanical|Company: Autodesk, Inc."
 90
     1024
280
     0
281
     0
  0
CLASS
  1
ACMIDSTANDARDDIN2008
  2
AcmIdStdDIN2008
  3
"Amdt_StdImp|Product Description: AutoCAD Mechanical|Company: Autodesk, Inc."
 90
     1024
280
     0
281
     0
  0
CLASS
  1
ACDBSECTIONVIEWSTYLE
  2
AcDbSectionViewStyle
  3
ObjectDBX Classes
 90
     1025
280
     0
281
     0
  0
CLASS
  1
ACDBDETAILVIEWSTYLE
  2
AcDbDetailViewStyle
  3
ObjectDBX Classes
 90
     1025
280
     0
281
     0
  0
CLASS
  1
ACMSECTIONSTANDARDCUSTOM
  2
AmdtSectionSymStdCustom
  3
"Amdt_StdImp|Product Description: AutoCAD Mechanical|Company: Autodesk, Inc."
 90
     1024
280
     0
281
     0
  0
CLASS
  1
ACMDETAILTANDARDCUSTOM
  2
AmdtDetailSymStdCustom
  3
"Amdt_StdImp|Product Description: AutoCAD Mechanical|Company: Autodesk, Inc."
 90
     1024
280
     0
281
     0
  0
CLASS
  1
FIELD
  2
AcDbField
  3
ObjectDBX Classes
 90
     1152
280
     0
281
     0
  0
CLASS
  1
FIELDLIST
  2
AcDbFieldList
  3
ObjectDBX Classes
 90
     1152
280
     0
281
     0
  0
CLASS
  1
ACDBPLACEHOLDER
  2
AcDbPlaceHolder
  3
ObjectDBX Classes
 90
        0
280
     0
281
     0
  0
CLASS
  1
LAYOUT
  2
AcDbLayout
  3
ObjectDBX Classes
 90
        0
280
     0
281
     0
  0
ENDSEC
  0
SECTION
  2
TABLES
  0
TABLE
  2
VPORT
  5
2E
330
0
100
AcDbSymbolTable
 70
     1
  0
VPORT
  5
2F
330
2E
100
AcDbSymbolTableRecord
100
AcDbViewportTableRecord
  2
*Active
 70
     0
 10
0.0
 20
0.0
 11
1.0
 21
1.0
 12
-395.6976847494147
 22
314.6232951904349
 13
0.0
 23
0.0
 14
10.0
 24
10.0
 15
10.0
 25
10.0
 16
0.0
 26
0.0
 36
1.0
 17
0.0
 27
0.0
 37
0.0
 40
530.2352510030068
 41
2.033022861981371
 42
50.0
 43
0.0
 44
0.0
 50
0.0
 51
0.0
 71
     0
 72
  5000
 73
     1
 74
     0
 75
     0
 76
     0
 77
     0
 78
     0
281
     0
 65
     0
110
0.0
120
0.0
130
0.0
111
1.0
121
0.0
131
0.0
112
0.0
122
1.0
132
0.0
 79
     0
146
0.0
1001
ACAD_NAV_VCDISPLAY
1070
     3
  0
ENDTAB
  0
TABLE
  2
LTYPE
  5
29
330
0
100
AcDbSymbolTable
 70
    13
  0
LTYPE
  5
2A
330
29
100
AcDbSymbolTableRecord
100
AcDbLinetypeTableRecord
  2
BYBLOCK
 70
     0
  3

 72
    65
 73
     0
 40
0.0
  0
LTYPE
  5
2B
330
29
100
AcDbSymbolTableRecord
100
AcDbLinetypeTableRecord
  2
BYLAYER
 70
     0
  3

 72
    65
 73
     0
 40
0.0
  0
LTYPE
  5
16
330
29
100
AcDbSymbolTableRecord
100
AcDbLinetypeTableRecord
  2
CONTINUOUS
 70
     0
  3
Solid line
 72
    65
 73
     0
 40
0.0
  0
LTYPE
  5
70
330
29
100
AcDbSymbolTableRecord
100
AcDbLinetypeTableRecord
  2
STRICHPUNKT2
 70
     0
  3
Strichpunkt (.5x) _._._._._._._._._._._._._._._
 72
    65
 73
     4
 40
12.7
 49
6.349999999999998
 74
     0
 49
-3.174999999999998
 74
     0
 49
0.0
 74
     0
 49
-3.174999999999998
 74
     0
  0
LTYPE
  5
32F
330
29
100
AcDbSymbolTableRecord
100
AcDbLinetypeTableRecord
  2
ACDINWELD
 70
     0
  3
_ _ _ _ _
 72
    65
 73
     2
 40
2.0
 49
2.0
 74
     0
 49
-1.0
 74
     0
  0
LTYPE
  5
333
330
29
100
AcDbSymbolTableRecord
100
AcDbLinetypeTableRecord
  2
ACDINTGB
 70
     0
  3
__ . . __ . .
 72
    65
 73
     6
 40
9.0
 49
4.0
 74
     0
 49
-1.0
 74
     0
 49
1.0
 74
     0
 49
-1.0
 74
     0
 49
1.0
 74
     0
 49
-1.0
 74
     0
  0
LTYPE
  5
331
330
29
100
AcDbSymbolTableRecord
100
AcDbLinetypeTableRecord
  2
ACDINTGL
 70
     0
  3
_ _ _ _ _
 72
    65
 73
     2
 40
3.0
 49
2.0
 74
     0
 49
-1.0
 74
     0
  0
LTYPE
  5
FD
330
29
100
AcDbSymbolTableRecord
100
AcDbLinetypeTableRecord
  2
VERDECKT
 70
     0
  3
Verdeckt __ __ __ __ __ __ __ __ __ __ __ __ __
 72
    65
 73
     2
 40
9.524999999999996
 49
6.349999999999998
 74
     0
 49
-3.174999999999998
 74
     0
  0
LTYPE
  5
31C
330
29
100
AcDbSymbolTableRecord
100
AcDbLinetypeTableRecord
  2
Amconstr
 70
     0
  3
_______________________
 72
    65
 73
     2
 40
9999.0
 49
9999.0
 74
     0
 49
0.0
 74
     0
  0
LTYPE
  5
31F
330
29
100
AcDbSymbolTableRecord
100
AcDbLinetypeTableRecord
  2
Amzigzag
 70
     0
  3
/\/-/\/-/\/-/\/-/\/-/\/
 72
    65
 73
     2
 40
11.0001
 49
0.0001
 74
     4
 75
   135
340
320
 46
0.04
 50
0.0
 44
0.0
 45
0.0
 49
-11.0
 74
     0
  0
LTYPE
  5
319
330
29
100
AcDbSymbolTableRecord
100
AcDbLinetypeTableRecord
  2
AM_DIN_F_W050
 70
     0
  3
__ __ __ __ __ __ __ __ __ __ __ __ __ __ __
 72
    65
 73
     2
 40
6.25
 49
4.75
 74
     0
 49
-1.5
 74
     0
  0
LTYPE
  5
31A
330
29
100
AcDbSymbolTableRecord
100
AcDbLinetypeTableRecord
  2
AM_DIN_G_W050
 70
     0
  3
____ . ____ . ____ . ____ . ____ . ____ . ____
 72
    65
 73
     4
 40
13.75
 49
9.75
 74
     0
 49
-1.5
 74
     0
 49
1.0
 74
     0
 49
-1.5
 74
     0
  0
LTYPE
  5
31B
330
29
100
AcDbSymbolTableRecord
100
AcDbLinetypeTableRecord
  2
AM_DIN_K_W050
 70
     0
  3
_____ . . _____ . . _____ . . ____ .. ____
 72
    65
 73
     6
 40
16.25
 49
9.75
 74
     0
 49
-1.5
 74
     0
 49
1.0
 74
     0
 49
-1.5
 74
     0
 49
1.0
 74
     0
 49
-1.5
 74
     0
  0
LTYPE
  5
31D
330
29
100
AcDbSymbolTableRecord
100
AcDbLinetypeTableRecord
  2
AM_DIN_G_W050x2
 70
     0
  3
__ . __ . __ . __ . __ . __
 72
    65
 73
     4
 40
6.875
 49
4.75
 74
     0
 49
-0.875
 74
     0
 49
0.375
 74
     0
 49
-0.875
 74
     0
  0
LTYPE
  5
31E
330
29
100
AcDbSymbolTableRecord
100
AcDbLinetypeTableRecord
  2
AM_DIN_F_W050x2
 70
     0
  3
 _ _ _ _ _ _ _ _ _ _ _ _
 72
    65
 73
     2
 40
3.125
 49
2.25
 74
     0
 49
-0.875
 74
     0
  0
ENDTAB
  0
TABLE
  2
LAYER
  5
20
102
{ACAD_XDICTIONARY
360
21
102
}
330
0
100
AcDbSymbolTable
 70
     7
  0
LAYER
  5
7
102
{ACAD_XDICTIONARY
360
8
102
}
330
20
100
AcDbSymbolTableRecord
100
AcDbLayerTableRecord
  2
0
 70
     0
 62
     7
  6
CONTINUOUS
370
    -3
390
A
  0
LAYER
  5
52
102
{ACAD_XDICTIONARY
360
53
102
}
330
20
100
AcDbSymbolTableRecord
100
AcDbLayerTableRecord
  2
UMRISS05
 70
     0
 62
     4
  6
CONTINUOUS
370
    -3
390
A
  0
LAYER
  5
72
102
{ACAD_XDICTIONARY
360
73
102
}
330
20
100
AcDbSymbolTableRecord
100
AcDbLayerTableRecord
  2
BEMASSUNG
 70
     0
 62
     2
  6
CONTINUOUS
370
    -3
390
A
  0
LAYER
  5
6D
102
{ACAD_XDICTIONARY
360
6E
102
}
330
20
100
AcDbSymbolTableRecord
100
AcDbLayerTableRecord
  2
ACHSEN
 70
     0
 62
     1
  6
STRICHPUNKT2
370
    -3
390
A
  0
LAYER
  5
80
330
20
100
AcDbSymbolTableRecord
100
AcDbLayerTableRecord
  2
DEFPOINTS
 70
     0
 62
     7
  6
CONTINUOUS
290
     0
370
    -3
390
A
  0
LAYER
  5
FA
102
{ACAD_XDICTIONARY
360
FB
102
}
330
20
100
AcDbSymbolTableRecord
100
AcDbLayerTableRecord
  2
AVERDECKTE
 70
     0
 62
    13
  6
VERDECKT
370
    -3
390
A
  0
LAYER
  5
1DD
330
20
100
AcDbSymbolTableRecord
100
AcDbLayerTableRecord
  2
Sichtbare Kanten(MSL)
 70
     0
 62
     7
  6
CONTINUOUS
370
    50
390
A
  0
ENDTAB
  0
TABLE
  2
STYLE
  5
26
330
0
100
AcDbSymbolTable
 70
     5
  0
STYLE
  5
27
330
26
100
AcDbSymbolTableRecord
100
AcDbTextStyleTableRecord
  2
STANDARD
 70
     0
 40
0.0
 41
1.0
 50
0.0
 71
     0
 42
10.0
  3
txt
  4

  0
STYLE
  5
55
330
26
100
AcDbSymbolTableRecord
100
AcDbTextStyleTableRecord
  2
NORM
 70
     0
 40
0.0
 41
0.8
 50
0.0
 71
     0
 42
2.399999999999999
  3
SIMPLEX.shx
  4

  0
STYLE
  5
32D
330
26
100
AcDbSymbolTableRecord
100
AcDbTextStyleTableRecord
  2
ACDINGDT
 70
     0
 40
0.0
 41
1.0
 50
0.0
 71
     0
 42
2.5
  3
amgdt.shx
  4

  0
STYLE
  5
36
330
26
100
AcDbSymbolTableRecord
100
AcDbTextStyleTableRecord
  2
ARIAL-STANDARD
 70
     0
 40
0.0
 41
1.0
 50
0.0
 71
     0
 42
3.5
  3
arial.ttf
  4

1001
ACAD
1000
Arial
1071
       34
  0
STYLE
  5
320
330
26
100
AcDbSymbolTableRecord
100
AcDbTextStyleTableRecord
  2

 70
     1
 40
0.0
 41
1.0
 50
0.0
 71
     0
 42
2.5
  3
ltypeshp.shx
  4

  0
ENDTAB
  0
TABLE
  2
VIEW
  5
2C
330
0
100
AcDbSymbolTable
 70
     0
  0
ENDTAB
  0
TABLE
  2
UCS
  5
2D
330
0
100
AcDbSymbolTable
 70
     0
  0
ENDTAB
  0
TABLE
  2
APPID
  5
33
330
0
100
AcDbSymbolTable
 70
    17
  0
APPID
  5
25
330
33
100
AcDbSymbolTableRecord
100
AcDbRegAppTableRecord
  2
ACAD
 70
     0
  0
APPID
  5
130
330
33
100
AcDbSymbolTableRecord
100
AcDbRegAppTableRecord
  2
GENIUS_GENODEF_13
 70
     0
  0
APPID
  5
364
330
33
100
AcDbSymbolTableRecord
100
AcDbRegAppTableRecord
  2
ACAD_DSTYLE_DIMJOGGED_JOGANGLE_SYMBOL
 70
     0
  0
APPID
  5
38
330
33
100
AcDbSymbolTableRecord
100
AcDbRegAppTableRecord
  2
ACAD_DSTYLE_DIMJAG
 70
     0
  0
APPID
  5
37
330
33
100
AcDbSymbolTableRecord
100
AcDbRegAppTableRecord
  2
ACAD_DSTYLE_DIMBREAK
 70
     0
  0
APPID
  5
39
330
33
100
AcDbSymbolTableRecord
100
AcDbRegAppTableRecord
  2
ACAD_DSTYLE_DIMTALN
 70
     0
  0
APPID
  5
1B
330
33
100
AcDbSymbolTableRecord
100
AcDbRegAppTableRecord
  2
ACAD_PSEXT
 70
     0
  0
APPID
  5
85
330
33
100
AcDbSymbolTableRecord
100
AcDbRegAppTableRecord
  2
ACAD_DSTYLE_DIMINSPECT
 70
     0
  0
APPID
  5
23D
330
33
100
AcDbSymbolTableRecord
100
AcDbRegAppTableRecord
  2
ACAD_DSTYLE_DIMRADIAL_EXTENSION
 70
     0
  0
APPID
  5
131
330
33
100
AcDbSymbolTableRecord
100
AcDbRegAppTableRecord
  2
GENIUS_GENOBJ-N-CEN_13
 70
     0
  0
APPID
  5
132
330
33
100
AcDbSymbolTableRecord
100
AcDbRegAppTableRecord
  2
GENIUS_GENCEN_19
 70
     0
  0
APPID
  5
32
330
33
100
AcDbSymbolTableRecord
100
AcDbRegAppTableRecord
  2
ACAD_NAV_VCDISPLAY
 70
     0
  0
APPID
  5
F5
330
33
100
AcDbSymbolTableRecord
100
AcDbRegAppTableRecord
  2
GENIUS_GENOREF_13
 70
     0
  0
APPID
  5
372
330
33
100
AcDbSymbolTableRecord
100
AcDbRegAppTableRecord
  2
ACATTRIBSERVICES
 70
     0
  0
APPID
  5
3A0
330
33
100
AcDbSymbolTableRecord
100
AcDbRegAppTableRecord
  2
ACAD_DSTYLE_DIM_LINETYPE
 70
     0
  0
APPID
  5
3A1
330
33
100
AcDbSymbolTableRecord
100
AcDbRegAppTableRecord
  2
ACAD_DSTYLE_DIM_EXT1_LINETYPE
 70
     0
  0
APPID
  5
3A2
330
33
100
AcDbSymbolTableRecord
100
AcDbRegAppTableRecord
  2
ACAD_DSTYLE_DIM_EXT2_LINETYPE
 70
     0
  0
ENDTAB
  0
TABLE
  2
DIMSTYLE
  5
34
330
0
100
AcDbSymbolTable
 70
     9
100
AcDbDimStyleTable
 71
     1
340
35
  0
DIMSTYLE
105
363
102
{ACAD_REACTORS
330
329
102
}
330
34
100
AcDbSymbolTableRecord
100
AcDbDimStyleTableRecord
  2
AM_DIN
 70
     0
  4
"
 41
3.5
 42
1.0
 43
10.0
 44
1.0
 47
0.1
 48
0.1
 73
     0
 74
     0
 77
     1
 78
     8
 79
     2
140
3.5
141
0.0
143
0.0393701
146
0.71
147
1.5
172
     1
176
   256
177
   256
178
     2
271
     2
272
     3
274
     4
283
     0
284
     8
340
27
371
    -1
372
    -1
1001
ACAD_DSTYLE_DIMJOGGED_JOGANGLE_SYMBOL
1070
   384
1040
1.570796326794896
1001
ACAD_DSTYLE_DIM_LINETYPE
1070
   380
1005
2A
1001
ACAD_DSTYLE_DIM_EXT1_LINETYPE
1070
   381
1005
2A
1001
ACAD_DSTYLE_DIM_EXT2_LINETYPE
1070
   382
1005
2A
  0
DIMSTYLE
105
365
330
34
100
AcDbSymbolTableRecord
100
AcDbDimStyleTableRecord
  2
AM_DIN$3
 70
     0
  4
"
 41
3.5
 42
1.0
 43
10.0
 44
1.0
 47
0.1
 48
0.1
 73
     0
 77
     1
 78
     8
 79
     2
140
3.5
141
0.0
143
0.0393701
146
0.71
147
1.5
176
   256
177
   256
178
     2
271
     2
272
     3
274
     4
283
     0
284
     8
288
     1
289
     0
340
27
371
    -1
372
    -1
1001
ACAD_DSTYLE_DIMJOGGED_JOGANGLE_SYMBOL
1070
   384
1040
1.570796326794896
1001
ACAD_DSTYLE_DIM_LINETYPE
1070
   380
1005
2A
1001
ACAD_DSTYLE_DIM_EXT1_LINETYPE
1070
   381
1005
2A
1001
ACAD_DSTYLE_DIM_EXT2_LINETYPE
1070
   382
1005
2A
  0
DIMSTYLE
105
366
330
34
100
AcDbSymbolTableRecord
100
AcDbDimStyleTableRecord
  2
AM_DIN$4
 70
     0
  4
"
 41
3.5
 42
1.0
 43
10.0
 44
1.0
 47
0.1
 48
0.1
 73
     0
 74
     0
 77
     1
 78
     8
 79
     2
140
3.5
141
0.0
143
0.0393701
146
0.71
147
1.5
172
     1
176
   256
177
   256
178
     2
271
     2
272
     3
274
     4
283
     0
284
     8
340
27
371
    -1
372
    -1
1001
ACAD_DSTYLE_DIMJOGGED_JOGANGLE_SYMBOL
1070
   384
1040
1.570796326794896
1001
ACAD_DSTYLE_DIM_LINETYPE
1070
   380
1005
2A
1001
ACAD_DSTYLE_DIM_EXT1_LINETYPE
1070
   381
1005
2A
1001
ACAD_DSTYLE_DIM_EXT2_LINETYPE
1070
   382
1005
2A
  0
DIMSTYLE
105
367
330
34
100
AcDbSymbolTableRecord
100
AcDbDimStyleTableRecord
  2
AM_DIN$6
 70
     0
  4
"
 41
3.5
 42
1.0
 43
10.0
 44
1.0
 47
0.1
 48
0.1
 73
     0
 74
     0
 78
     8
 79
     2
140
3.5
141
0.0
143
0.0393701
146
0.71
147
1.5
172
     1
176
   256
177
   256
178
     2
271
     2
272
     3
274
     4
283
     0
284
     8
340
27
371
    -1
372
    -1
1001
ACAD_DSTYLE_DIMJOGGED_JOGANGLE_SYMBOL
1070
   384
1040
1.570796326794896
1001
ACAD_DSTYLE_DIM_LINETYPE
1070
   380
1005
2A
1001
ACAD_DSTYLE_DIM_EXT1_LINETYPE
1070
   381
1005
2A
1001
ACAD_DSTYLE_DIM_EXT2_LINETYPE
1070
   382
1005
2A
  0
DIMSTYLE
105
368
330
34
100
AcDbSymbolTableRecord
100
AcDbDimStyleTableRecord
  2
AM_DIN$7
 70
     0
  4
"
 41
3.5
 42
1.0
 43
10.0
 44
1.0
 47
0.1
 48
0.1
 73
     0
 74
     0
 77
     1
 78
     8
 79
     2
140
3.5
141
0.0
143
0.0393701
146
0.71
147
1.5
172
     1
176
   256
177
   256
178
     2
271
     2
272
     3
274
     4
283
     0
284
     8
340
27
371
    -1
372
    -1
1001
ACAD_DSTYLE_DIMJOGGED_JOGANGLE_SYMBOL
1070
   384
1040
1.570796326794896
1001
ACAD_DSTYLE_DIM_LINETYPE
1070
   380
1005
2A
1001
ACAD_DSTYLE_DIM_EXT1_LINETYPE
1070
   381
1005
2A
1001
ACAD_DSTYLE_DIM_EXT2_LINETYPE
1070
   382
1005
2A
  0
DIMSTYLE
105
369
330
34
100
AcDbSymbolTableRecord
100
AcDbDimStyleTableRecord
  2
AM_DIN$SF
 70
     0
  4
"
 41
3.5
 42
1.0
 43
10.0
 44
1.0
 47
0.1
 48
0.1
 73
     0
 74
     0
 75
     1
 76
     1
 77
     1
 78
     8
 79
     2
140
3.5
141
0.0
143
0.0393701
146
0.71
147
1.5
172
     1
176
   256
177
   256
178
     2
271
     2
272
     3
274
     4
283
     0
284
     8
340
27
371
    -1
372
    -1
1001
ACAD_DSTYLE_DIMJOGGED_JOGANGLE_SYMBOL
1070
   384
1040
1.570796326794896
1001
ACAD_DSTYLE_DIM_LINETYPE
1070
   380
1005
2A
1001
ACAD_DSTYLE_DIM_EXT1_LINETYPE
1070
   381
1005
2A
1001
ACAD_DSTYLE_DIM_EXT2_LINETYPE
1070
   382
1005
2A
  0
DIMSTYLE
105
36A
330
34
100
AcDbSymbolTableRecord
100
AcDbDimStyleTableRecord
  2
AM_DIN$SH
 70
     0
  4
"
 41
3.5
 42
1.0
 43
10.0
 44
1.0
 47
0.1
 48
0.1
 73
     0
 74
     0
 75
     1
 76
     1
 77
     1
 78
     8
 79
     2
140
3.5
141
0.0
143
0.0393701
144
2.0
146
0.71
147
1.5
172
     1
173
     1
176
   256
177
   256
178
     2
271
     2
272
     3
274
     4
283
     0
284
     8
340
27
343
36B
371
    -1
372
    -1
1001
ACAD_DSTYLE_DIMJOGGED_JOGANGLE_SYMBOL
1070
   384
1040
1.570796326794896
1001
ACAD_DSTYLE_DIM_LINETYPE
1070
   380
1005
2A
1001
ACAD_DSTYLE_DIM_EXT1_LINETYPE
1070
   381
1005
2A
1001
ACAD_DSTYLE_DIM_EXT2_LINETYPE
1070
   382
1005
2A
  0
DIMSTYLE
105
35
102
{ACAD_REACTORS
330
233
330
F9
330
E5
330
D8
330
CB
330
BC
330
AD
330
A0
330
93
330
86
330
169
330
15C
330
14D
330
140
330
133
102
}
330
34
100
AcDbSymbolTableRecord
100
AcDbDimStyleTableRecord
  2
Katalog 09
 70
     0
 41
6.0
 42
0.0
 43
8.0
 44
1.0
 73
     0
 74
     0
 77
     1
 78
     8
140
5.0
141
1.5
143
25.39999999999999
146
0.4285714285714287
147
2.0
172
     1
174
     1
176
     2
177
     2
178
     3
271
     2
272
     2
284
     8
285
     8
286
     8
340
36
1001
ACAD_DSTYLE_DIMBREAK
1070
   391
1040
3.75
1001
ACAD_DSTYLE_DIMJAG
1070
   388
1040
1.5
1001
ACAD_DSTYLE_DIMTALN
1070
   392
1070
     0
  0
DIMSTYLE
105
84
102
{ACAD_REACTORS
330
71
102
}
330
34
100
AcDbSymbolTableRecord
100
AcDbDimStyleTableRecord
  2
Katalog 09$0
 70
     0
 41
9.0
 42
0.0
 43
8.0
 44
1.0
 73
     0
 74
     0
 77
     1
 78
     8
140
9.0
141
1.5
143
25.39999999999999
146
0.4285714285714287
147
2.5
172
     1
174
     1
176
     2
177
     2
178
     3
271
     2
272
     2
284
     8
285
     8
286
     8
340
36
1001
ACAD_DSTYLE_DIMBREAK
1070
   391
1040
3.75
1001
ACAD_DSTYLE_DIMJAG
1070
   388
1040
1.5
  0
ENDTAB
  0
TABLE
  2
BLOCK_RECORD
  5
1
330
0
100
AcDbSymbolTable
 70
    18
  0
BLOCK_RECORD
  5
2
102
{ACAD_XDICTIONARY
360
3
102
}
330
1
100
AcDbSymbolTableRecord
100
AcDbBlockTableRecord
  2
*MODEL_SPACE
340
18
  0
BLOCK_RECORD
  5
1C
330
1
100
AcDbSymbolTableRecord
100
AcDbBlockTableRecord
  2
*PAPER_SPACE
340
1F
  0
BLOCK_RECORD
  5
36B
330
1
100
AcDbSymbolTableRecord
100
AcDbBlockTableRecord
  2
GENAXEH
340
0
  0
BLOCK_RECORD
  5
34B
330
1
100
AcDbSymbolTableRecord
100
AcDbBlockTableRecord
  2
_ACMFILLED30
340
0
  0
BLOCK_RECORD
  5
234
330
1
100
AcDbSymbolTableRecord
100
AcDbBlockTableRecord
  2
*D2
340
0
  0
BLOCK_RECORD
  5
FE
330
1
100
AcDbSymbolTableRecord
100
AcDbBlockTableRecord
  2
*D3
340
0
  0
BLOCK_RECORD
  5
E6
330
1
100
AcDbSymbolTableRecord
100
AcDbBlockTableRecord
  2
*D4
340
0
  0
BLOCK_RECORD
  5
D9
330
1
100
AcDbSymbolTableRecord
100
AcDbBlockTableRecord
  2
*D5
340
0
  0
BLOCK_RECORD
  5
CC
330
1
100
AcDbSymbolTableRecord
100
AcDbBlockTableRecord
  2
*D6
340
0
  0
BLOCK_RECORD
  5
BD
330
1
100
AcDbSymbolTableRecord
100
AcDbBlockTableRecord
  2
*D7
340
0
  0
BLOCK_RECORD
  5
AE
330
1
100
AcDbSymbolTableRecord
100
AcDbBlockTableRecord
  2
*D8
340
0
  0
BLOCK_RECORD
  5
A1
330
1
100
AcDbSymbolTableRecord
100
AcDbBlockTableRecord
  2
*D9
340
0
  0
BLOCK_RECORD
  5
94
330
1
100
AcDbSymbolTableRecord
100
AcDbBlockTableRecord
  2
*D10
340
0
  0
BLOCK_RECORD
  5
87
330
1
100
AcDbSymbolTableRecord
100
AcDbBlockTableRecord
  2
*D11
340
0
  0
BLOCK_RECORD
  5
75
330
1
100
AcDbSymbolTableRecord
100
AcDbBlockTableRecord
  2
*D12
340
0
  0
BLOCK_RECORD
  5
16A
330
1
100
AcDbSymbolTableRecord
100
AcDbBlockTableRecord
  2
*D13
340
0
  0
BLOCK_RECORD
  5
15D
330
1
100
AcDbSymbolTableRecord
100
AcDbBlockTableRecord
  2
*D14
340
0
  0
BLOCK_RECORD
  5
14E
330
1
100
AcDbSymbolTableRecord
100
AcDbBlockTableRecord
  2
*D15
340
0
  0
BLOCK_RECORD
  5
141
330
1
100
AcDbSymbolTableRecord
100
AcDbBlockTableRecord
  2
*D16
340
0
  0
BLOCK_RECORD
  5
134
330
1
100
AcDbSymbolTableRecord
100
AcDbBlockTableRecord
  2
*D17
340
0
  0
ENDTAB
  0
ENDSEC
  0
SECTION
  2
BLOCKS
  0
BLOCK
  5
6
330
2
100
AcDbEntity
  8
0
100
AcDbBlockBegin
  2
*MODEL_SPACE
 70
     0
 10
0.0
 20
0.0
 30
0.0
  3
*MODEL_SPACE
  1

  0
ENDBLK
  5
17
330
2
100
AcDbEntity
  8
0
100
AcDbBlockEnd
  0
BLOCK
  5
1D
330
1C
100
AcDbEntity
 67
     1
  8
0
100
AcDbBlockBegin
  2
*PAPER_SPACE
 70
     0
 10
0.0
 20
0.0
 30
0.0
  3
*PAPER_SPACE
  1

  0
ENDBLK
  5
1E
330
1C
100
AcDbEntity
 67
     1
  8
0
100
AcDbBlockEnd
  0
BLOCK
  5
36C
330
36B
100
AcDbEntity
  8
0
100
AcDbBlockBegin
  2
GENAXEH
 70
     0
 10
0.0
 20
0.0
 30
0.0
  3
GENAXEH
  1

  0
LINE
  5
36D
330
36B
100
AcDbEntity
  8
0
100
AcDbLine
 10
-1.0
 20
0.0
 30
0.0
 11
1.0
 21
0.0
 31
0.0
  0
ENDBLK
  5
36E
330
36B
100
AcDbEntity
  8
0
100
AcDbBlockEnd
  0
BLOCK
  5
34C
330
34B
100
AcDbEntity
  8
0
100
AcDbBlockBegin
  2
_ACMFILLED30
 70
     0
 10
0.0
 20
0.0
 30
0.0
  3
_ACMFILLED30
  1

  0
TRACE
  5
34D
330
34B
100
AcDbEntity
  8
BEMASSUNG
 62
     0
100
AcDbTrace
 10
-1.0
 20
-0.26794919
 30
0.0
 11
-1.0
 21
0.26794919
 31
0.0
 12
0.0
 22
0.0
 32
0.0
 13
0.0
 23
0.0
 33
0.0
  0
ENDBLK
  5
34E
330
34B
100
AcDbEntity
  8
0
100
AcDbBlockEnd
  0
BLOCK
  5
235
330
234
100
AcDbEntity
  8
0
100
AcDbBlockBegin
  2
*D2
 70
     1
 10
0.0
 20
0.0
 30
0.0
  3
*D2
  1

  0
LINE
  5
236
330
234
100
AcDbEntity
  8
BEMASSUNG
 62
     2
370
    -2
100
AcDbLine
 10
-436.4164079424923
 20
469.5898197302417
 30
0.0
 11
-415.5561313504779
 21
458.214461270905
 31
0.0
  0
MTEXT
  5
237
330
234
100
AcDbEntity
  8
BEMASSUNG
 62
     3
100
AcDbMText
 10
-428.9369692539066
 20
470.6969936935054
 30
0.0
 40
5.0
 41
0.0
 71
     5
 72
     1
  1
\A1;R8
  7
ARIAL-STANDARD
 11
0.8779481896015994
 21
-0.4787556541444436
 31
0.0
 73
     1
 44
1.0
1001
ACAD
1000
MTEXTBEGIN
1070
    73
1070
     1
1070
    44
1040
1.0
1070
    74
1070
     0
1000
MTEXTEND
  0
LINE
  5
238
330
234
100
AcDbEntity
  8
BEMASSUNG
 62
     2
370
    -2
100
AcDbLine
 10
-403.2648566960552
 20
451.5118821128827
 30
0.0
 11
-410.2884422128682
 21
455.3419273460383
 31
0.0
  0
SOLID
  5
239
330
234
100
AcDbEntity
  8
BEMASSUNG
 62
     2
100
AcDbTrace
 10
-415.0773756963334
 20
459.0924094605066
 30
0.0
 11
-416.0348870046223
 21
457.3365130813034
 31
0.0
 12
-410.2884422128682
 22
455.3419273460383
 32
0.0
 13
-410.2884422128682
 23
455.3419273460383
 33
0.0
  0
POINT
  5
23A
330
234
100
AcDbEntity
  8
DEFPOINTS
 62
     0
100
AcDbPoint
 10
-410.2884422128682
 20
455.3419273460383
 30
0.0
  0
POINT
  5
23B
330
234
100
AcDbEntity
  8
DEFPOINTS
 62
     0
100
AcDbPoint
 10
-403.2648566960552
 20
451.5118821128827
 30
0.0
  0
ENDBLK
  5
23C
330
234
100
AcDbEntity
  8
0
100
AcDbBlockEnd
  0
BLOCK
  5
FF
330
FE
100
AcDbEntity
  8
0
100
AcDbBlockBegin
  2
*D3
 70
     1
 10
0.0
 20
0.0
 30
0.0
  3
*D3
  1

  0
LINE
  5
100
330
FE
100
AcDbEntity
  8
AVERDECKTE
 62
     2
370
    -2
100
AcDbLine
 10
-401.2648566960551
 20
459.5118821128828
 30
0.0
 11
-401.2648566960551
 21
465.4912469947178
 31
0.0
  0
LINE
  5
101
330
FE
100
AcDbEntity
  8
AVERDECKTE
 62
     2
370
    -2
100
AcDbLine
 10
-403.2648566960551
 20
459.5118821128828
 30
0.0
 11
-403.2648566960551
 21
465.4912469947178
 31
0.0
  0
LINE
  5
102
330
FE
100
AcDbEntity
  8
AVERDECKTE
 62
     2
370
    -2
100
AcDbLine
 10
-409.2648566960551
 20
464.4912469947178
 30
0.0
 11
-415.2648566960551
 21
464.4912469947178
 31
0.0
  0
LINE
  5
103
330
FE
100
AcDbEntity
  8
AVERDECKTE
 62
     2
370
    -2
100
AcDbLine
 10
-395.2648566960552
 20
464.4912469947178
 30
0.0
 11
-381.9531240903253
 21
464.4912469947178
 31
0.0
  0
LINE
  5
104
330
FE
100
AcDbEntity
  8
AVERDECKTE
 62
     2
370
    -2
100
AcDbLine
 10
-403.2648566960551
 20
464.4912469947178
 30
0.0
 11
-401.2648566960551
 21
464.4912469947178
 31
0.0
  0
SOLID
  5
105
330
FE
100
AcDbEntity
  8
AVERDECKTE
 62
     2
100
AcDbTrace
 10
-409.2648566960551
 20
465.4912469947178
 30
0.0
 11
-409.2648566960551
 21
463.4912469947177
 31
0.0
 12
-403.2648566960551
 22
464.4912469947178
 32
0.0
 13
-403.2648566960551
 23
464.4912469947178
 33
0.0
  0
SOLID
  5
106
330
FE
100
AcDbEntity
  8
AVERDECKTE
 62
     2
100
AcDbTrace
 10
-395.2648566960552
 20
465.4912469947178
 30
0.0
 11
-395.2648566960552
 21
463.4912469947177
 31
0.0
 12
-401.2648566960551
 22
464.4912469947178
 32
0.0
 13
-401.2648566960551
 23
464.4912469947178
 33
0.0
  0
MTEXT
  5
107
330
FE
100
AcDbEntity
  8
AVERDECKTE
 62
     3
100
AcDbMText
 10
-385.6089903931902
 20
469.0014789183194
 30
0.0
 40
5.0
 41
0.0
 71
     5
 72
     1
  1
\A1;2
  7
ARIAL-STANDARD
 73
     1
 44
1.0
1001
ACAD
1000
MTEXTBEGIN
1070
    73
1070
     1
1070
    44
1040
1.0
1070
    74
1070
     0
1000
MTEXTEND
  0
POINT
  5
108
330
FE
100
AcDbEntity
  8
DEFPOINTS
 62
     0
100
AcDbPoint
 10
-401.2648566960551
 20
459.5118821128828
 30
0.0
  0
POINT
  5
109
330
FE
100
AcDbEntity
  8
DEFPOINTS
 62
     0
100
AcDbPoint
 10
-403.2648566960551
 20
459.5118821128828
 30
0.0
  0
POINT
  5
10A
330
FE
100
AcDbEntity
  8
DEFPOINTS
 62
     0
100
AcDbPoint
 10
-403.2648566960551
 20
464.4912469947178
 30
0.0
  0
ENDBLK
  5
10B
330
FE
100
AcDbEntity
  8
0
100
AcDbBlockEnd
  0
BLOCK
  5
E7
330
E6
100
AcDbEntity
  8
0
100
AcDbBlockBegin
  2
*D4
 70
     1
 10
0.0
 20
0.0
 30
0.0
  3
*D4
  1

  0
LINE
  5
E8
330
E6
100
AcDbEntity
  8
BEMASSUNG
 62
     2
370
    -2
100
AcDbLine
 10
-401.2648566960551
 20
459.5118821128828
 30
0.0
 11
-401.2648566960551
 21
474.6331697680093
 31
0.0
  0
LINE
  5
E9
330
E6
100
AcDbEntity
  8
BEMASSUNG
 62
     2
370
    -2
100
AcDbLine
 10
-411.2648566960551
 20
451.5118821128829
 30
0.0
 11
-411.2648566960551
 21
474.6331697680093
 31
0.0
  0
LINE
  5
EA
330
E6
100
AcDbEntity
  8
BEMASSUNG
 62
     2
370
    -2
100
AcDbLine
 10
-395.2648566960552
 20
473.6331697680093
 30
0.0
 11
-389.2648566960552
 21
473.6331697680093
 31
0.0
  0
LINE
  5
EB
330
E6
100
AcDbEntity
  8
BEMASSUNG
 62
     2
370
    -2
100
AcDbLine
 10
-417.2648566960551
 20
473.6331697680093
 30
0.0
 11
-423.2648566960551
 21
473.6331697680093
 31
0.0
  0
LINE
  5
EC
330
E6
100
AcDbEntity
  8
BEMASSUNG
 62
     2
370
    -2
100
AcDbLine
 10
-401.2648566960551
 20
473.6331697680093
 30
0.0
 11
-411.2648566960551
 21
473.6331697680093
 31
0.0
  0
SOLID
  5
ED
330
E6
100
AcDbEntity
  8
BEMASSUNG
 62
     2
100
AcDbTrace
 10
-395.2648566960552
 20
474.6331697680093
 30
0.0
 11
-395.2648566960552
 21
472.6331697680093
 31
0.0
 12
-401.2648566960551
 22
473.6331697680093
 32
0.0
 13
-401.2648566960551
 23
473.6331697680093
 33
0.0
  0
SOLID
  5
EE
330
E6
100
AcDbEntity
  8
BEMASSUNG
 62
     2
100
AcDbTrace
 10
-417.2648566960551
 20
474.6331697680093
 30
0.0
 11
-417.2648566960551
 21
472.6331697680093
 31
0.0
 12
-411.2648566960551
 22
473.6331697680093
 32
0.0
 13
-411.2648566960551
 23
473.6331697680093
 33
0.0
  0
MTEXT
  5
EF
330
E6
100
AcDbEntity
  8
BEMASSUNG
 62
     3
100
AcDbMText
 10
-406.2648566960551
 20
478.1860347066178
 30
0.0
 40
5.0
 41
0.0
 71
     5
 72
     1
  1
\A1;10
  7
ARIAL-STANDARD
 73
     1
 44
1.0
1001
ACAD
1000
MTEXTBEGIN
1070
    73
1070
     1
1070
    44
1040
1.0
1070
    74
1070
     0
1000
MTEXTEND
  0
POINT
  5
F0
330
E6
100
AcDbEntity
  8
DEFPOINTS
 62
     0
100
AcDbPoint
 10
-401.2648566960551
 20
459.5118821128828
 30
0.0
  0
POINT
  5
F1
330
E6
100
AcDbEntity
  8
DEFPOINTS
 62
     0
100
AcDbPoint
 10
-411.2648566960551
 20
451.5118821128829
 30
0.0
  0
POINT
  5
F2
330
E6
100
AcDbEntity
  8
DEFPOINTS
 62
     0
100
AcDbPoint
 10
-411.2648566960551
 20
473.6331697680093
 30
0.0
  0
ENDBLK
  5
F3
330
E6
100
AcDbEntity
  8
0
100
AcDbBlockEnd
  0
BLOCK
  5
DA
330
D9
100
AcDbEntity
  8
0
100
AcDbBlockBegin
  2
*D5
 70
     1
 10
0.0
 20
0.0
 30
0.0
  3
*D5
  1

  0
LINE
  5
DB
330
D9
100
AcDbEntity
  8
BEMASSUNG
 62
     2
370
    -2
100
AcDbLine
 10
-486.2648566960502
 20
414.0118821128829
 30
0.0
 11
-500.6699293987087
 21
414.0118821128829
 31
0.0
  0
LINE
  5
DC
330
D9
100
AcDbEntity
  8
BEMASSUNG
 62
     2
370
    -2
100
AcDbLine
 10
-494.2648566960502
 20
391.5118821128828
 30
0.0
 11
-500.6699293987087
 21
391.5118821128828
 31
0.0
  0
LINE
  5
DD
330
D9
100
AcDbEntity
  8
BEMASSUNG
 62
     2
370
    -2
100
AcDbLine
 10
-499.6699293987086
 20
408.0118821128829
 30
0.0
 11
-499.6699293987086
 21
397.5118821128829
 31
0.0
  0
SOLID
  5
DE
330
D9
100
AcDbEntity
  8
BEMASSUNG
 62
     2
100
AcDbTrace
 10
-500.6699293987087
 20
408.0118821128829
 30
0.0
 11
-498.6699293987086
 21
408.0118821128829
 31
0.0
 12
-499.6699293987086
 22
414.0118821128829
 32
0.0
 13
-499.6699293987086
 23
414.0118821128829
 33
0.0
  0
SOLID
  5
DF
330
D9
100
AcDbEntity
  8
BEMASSUNG
 62
     2
100
AcDbTrace
 10
-500.6699293987087
 20
397.5118821128829
 30
0.0
 11
-498.6699293987086
 21
397.5118821128829
 31
0.0
 12
-499.6699293987086
 22
391.5118821128828
 32
0.0
 13
-499.6699293987086
 23
391.5118821128828
 33
0.0
  0
MTEXT
  5
E0
330
D9
100
AcDbEntity
  8
BEMASSUNG
 62
     3
100
AcDbMText
 10
-504.2227943373172
 20
402.7618821128828
 30
0.0
 40
5.0
 41
0.0
 71
     5
 72
     1
  1
\A1;22.5
  7
ARIAL-STANDARD
 11
0.0000000000000001
 21
1.0
 31
0.0
 73
     1
 44
1.0
1001
ACAD
1000
MTEXTBEGIN
1070
    73
1070
     1
1070
    44
1040
1.0
1070
    74
1070
     0
1000
MTEXTEND
  0
POINT
  5
E1
330
D9
100
AcDbEntity
  8
DEFPOINTS
 62
     0
100
AcDbPoint
 10
-486.2648566960502
 20
414.0118821128829
 30
0.0
  0
POINT
  5
E2
330
D9
100
AcDbEntity
  8
DEFPOINTS
 62
     0
100
AcDbPoint
 10
-494.2648566960502
 20
391.5118821128828
 30
0.0
  0
POINT
  5
E3
330
D9
100
AcDbEntity
  8
DEFPOINTS
 62
     0
100
AcDbPoint
 10
-499.6699293987086
 20
391.5118821128828
 30
0.0
  0
ENDBLK
  5
E4
330
D9
100
AcDbEntity
  8
0
100
AcDbBlockEnd
  0
BLOCK
  5
CD
330
CC
100
AcDbEntity
  8
0
100
AcDbBlockBegin
  2
*D6
 70
     1
 10
0.0
 20
0.0
 30
0.0
  3
*D6
  1

  0
LINE
  5
CE
330
CC
100
AcDbEntity
  8
BEMASSUNG
 62
     2
370
    -2
100
AcDbLine
 10
-492.7648566960502
 20
459.5118821128829
 30
0.0
 11
-512.3823045288052
 21
459.5118821128829
 31
0.0
  0
LINE
  5
CF
330
CC
100
AcDbEntity
  8
BEMASSUNG
 62
     2
370
    -2
100
AcDbLine
 10
-494.2648566960502
 20
369.5118914679914
 30
0.0
 11
-512.3823045288052
 21
369.5118914679914
 31
0.0
  0
LINE
  5
D0
330
CC
100
AcDbEntity
  8
BEMASSUNG
 62
     2
370
    -2
100
AcDbLine
 10
-511.3823045288052
 20
453.5118821128829
 30
0.0
 11
-511.3823045288052
 21
375.5118914679914
 31
0.0
  0
SOLID
  5
D1
330
CC
100
AcDbEntity
  8
BEMASSUNG
 62
     2
100
AcDbTrace
 10
-512.3823045288052
 20
453.5118821128829
 30
0.0
 11
-510.3823045288051
 21
453.5118821128829
 31
0.0
 12
-511.3823045288052
 22
459.5118821128829
 32
0.0
 13
-511.3823045288052
 23
459.5118821128829
 33
0.0
  0
SOLID
  5
D2
330
CC
100
AcDbEntity
  8
BEMASSUNG
 62
     2
100
AcDbTrace
 10
-512.3823045288052
 20
375.5118914679914
 30
0.0
 11
-510.3823045288052
 21
375.5118914679914
 31
0.0
 12
-511.3823045288052
 22
369.5118914679914
 32
0.0
 13
-511.3823045288052
 23
369.5118914679914
 33
0.0
  0
MTEXT
  5
D3
330
CC
100
AcDbEntity
  8
BEMASSUNG
 62
     3
100
AcDbMText
 10
-515.9351694674137
 20
414.5118867904371
 30
0.0
 40
5.0
 41
0.0
 71
     5
 72
     1
  1
\A1;90
  7
ARIAL-STANDARD
 11
0.0000000000000001
 21
1.0
 31
0.0
 73
     1
 44
1.0
1001
ACAD
1000
MTEXTBEGIN
1070
    73
1070
     1
1070
    44
1040
1.0
1070
    74
1070
     0
1000
MTEXTEND
  0
POINT
  5
D4
330
CC
100
AcDbEntity
  8
DEFPOINTS
 62
     0
100
AcDbPoint
 10
-492.7648566960502
 20
459.5118821128829
 30
0.0
  0
POINT
  5
D5
330
CC
100
AcDbEntity
  8
DEFPOINTS
 62
     0
100
AcDbPoint
 10
-494.2648566960502
 20
369.5118914679914
 30
0.0
  0
POINT
  5
D6
330
CC
100
AcDbEntity
  8
DEFPOINTS
 62
     0
100
AcDbPoint
 10
-511.3823045288052
 20
369.5118914679914
 30
0.0
  0
ENDBLK
  5
D7
330
CC
100
AcDbEntity
  8
0
100
AcDbBlockEnd
  0
BLOCK
  5
BE
330
BD
100
AcDbEntity
  8
0
100
AcDbBlockBegin
  2
*D7
 70
     1
 10
0.0
 20
0.0
 30
0.0
  3
*D7
  1

  0
LINE
  5
BF
330
BD
100
AcDbEntity
  8
BEMASSUNG
 62
     2
370
    -2
100
AcDbLine
 10
-484.2648566960502
 20
447.5118821128829
 30
0.0
 11
-500.693082295322
 21
447.5118821128829
 31
0.0
  0
LINE
  5
C0
330
BD
100
AcDbEntity
  8
BEMASSUNG
 62
     2
370
    -2
100
AcDbLine
 10
-492.7648566960502
 20
459.511882112883
 30
0.0
 11
-500.693082295322
 21
459.511882112883
 31
0.0
  0
LINE
  5
C1
330
BD
100
AcDbEntity
  8
BEMASSUNG
 62
     2
370
    -2
100
AcDbLine
 10
-499.693082295322
 20
441.5118821128829
 30
0.0
 11
-499.693082295322
 21
435.5118821128828
 31
0.0
  0
LINE
  5
C2
330
BD
100
AcDbEntity
  8
BEMASSUNG
 62
     2
370
    -2
100
AcDbLine
 10
-499.693082295322
 20
465.511882112883
 30
0.0
 11
-499.693082295322
 21
471.5118821128831
 31
0.0
  0
LINE
  5
C3
330
BD
100
AcDbEntity
  8
BEMASSUNG
 62
     2
370
    -2
100
AcDbLine
 10
-499.693082295322
 20
447.5118821128829
 30
0.0
 11
-499.693082295322
 21
459.511882112883
 31
0.0
  0
SOLID
  5
C4
330
BD
100
AcDbEntity
  8
BEMASSUNG
 62
     2
100
AcDbTrace
 10
-500.693082295322
 20
441.5118821128829
 30
0.0
 11
-498.693082295322
 21
441.5118821128829
 31
0.0
 12
-499.693082295322
 22
447.5118821128829
 32
0.0
 13
-499.693082295322
 23
447.5118821128829
 33
0.0
  0
SOLID
  5
C5
330
BD
100
AcDbEntity
  8
BEMASSUNG
 62
     2
100
AcDbTrace
 10
-500.693082295322
 20
465.511882112883
 30
0.0
 11
-498.693082295322
 21
465.511882112883
 31
0.0
 12
-499.693082295322
 22
459.511882112883
 32
0.0
 13
-499.693082295322
 23
459.511882112883
 33
0.0
  0
MTEXT
  5
C6
330
BD
100
AcDbEntity
  8
BEMASSUNG
 62
     3
100
AcDbMText
 10
-504.2033142189238
 20
453.5118821128829
 30
0.0
 40
5.0
 41
0.0
 71
     5
 72
     1
  1
\A1;12
  7
ARIAL-STANDARD
 11
0.0000000000000001
 21
1.0
 31
0.0
 73
     1
 44
1.0
1001
ACAD
1000
MTEXTBEGIN
1070
    73
1070
     1
1070
    44
1040
1.0
1070
    74
1070
     0
1000
MTEXTEND
  0
POINT
  5
C7
330
BD
100
AcDbEntity
  8
DEFPOINTS
 62
     0
100
AcDbPoint
 10
-484.2648566960502
 20
447.5118821128829
 30
0.0
  0
POINT
  5
C8
330
BD
100
AcDbEntity
  8
DEFPOINTS
 62
     0
100
AcDbPoint
 10
-492.7648566960502
 20
459.511882112883
 30
0.0
  0
POINT
  5
C9
330
BD
100
AcDbEntity
  8
DEFPOINTS
 62
     0
100
AcDbPoint
 10
-499.693082295322
 20
459.511882112883
 30
0.0
  0
ENDBLK
  5
CA
330
BD
100
AcDbEntity
  8
0
100
AcDbBlockEnd
  0
BLOCK
  5
AF
330
AE
100
AcDbEntity
  8
0
100
AcDbBlockBegin
  2
*D8
 70
     1
 10
0.0
 20
0.0
 30
0.0
  3
*D8
  1

  0
LINE
  5
B0
330
AE
100
AcDbEntity
  8
BEMASSUNG
 62
     2
370
    -2
100
AcDbLine
 10
-492.4509101947193
 20
242.5118821128829
 30
0.0
 11
-500.6369636933884
 21
242.5118821128829
 31
0.0
  0
LINE
  5
B1
330
AE
100
AcDbEntity
  8
BEMASSUNG
 62
     2
370
    -2
100
AcDbLine
 10
-484.2648566960502
 20
254.5118821128829
 30
0.0
 11
-500.6369636933884
 21
254.5118821128829
 31
0.0
  0
LINE
  5
B2
330
AE
100
AcDbEntity
  8
BEMASSUNG
 62
     2
370
    -2
100
AcDbLine
 10
-499.6369636933884
 20
236.5118821128829
 30
0.0
 11
-499.6369636933884
 21
230.5118821128829
 31
0.0
  0
LINE
  5
B3
330
AE
100
AcDbEntity
  8
BEMASSUNG
 62
     2
370
    -2
100
AcDbLine
 10
-499.6369636933884
 20
260.5118821128829
 30
0.0
 11
-499.6369636933884
 21
266.5118821128829
 31
0.0
  0
LINE
  5
B4
330
AE
100
AcDbEntity
  8
BEMASSUNG
 62
     2
370
    -2
100
AcDbLine
 10
-499.6369636933884
 20
242.5118821128829
 30
0.0
 11
-499.6369636933884
 21
254.5118821128829
 31
0.0
  0
SOLID
  5
B5
330
AE
100
AcDbEntity
  8
BEMASSUNG
 62
     2
100
AcDbTrace
 10
-500.6369636933884
 20
236.5118821128829
 30
0.0
 11
-498.6369636933885
 21
236.5118821128829
 31
0.0
 12
-499.6369636933884
 22
242.5118821128829
 32
0.0
 13
-499.6369636933884
 23
242.5118821128829
 33
0.0
  0
SOLID
  5
B6
330
AE
100
AcDbEntity
  8
BEMASSUNG
 62
     2
100
AcDbTrace
 10
-500.6369636933884
 20
260.5118821128829
 30
0.0
 11
-498.6369636933885
 21
260.5118821128829
 31
0.0
 12
-499.6369636933884
 22
254.5118821128829
 32
0.0
 13
-499.6369636933884
 23
254.5118821128829
 33
0.0
  0
MTEXT
  5
B7
330
AE
100
AcDbEntity
  8
BEMASSUNG
 62
     3
100
AcDbMText
 10
-504.1471956169901
 20
248.5118821128828
 30
0.0
 40
5.0
 41
0.0
 71
     5
 72
     1
  1
\A1;12
  7
ARIAL-STANDARD
 11
0.0000000000000001
 21
1.0
 31
0.0
 73
     1
 44
1.0
1001
ACAD
1000
MTEXTBEGIN
1070
    73
1070
     1
1070
    44
1040
1.0
1070
    74
1070
     0
1000
MTEXTEND
  0
POINT
  5
B8
330
AE
100
AcDbEntity
  8
DEFPOINTS
 62
     0
100
AcDbPoint
 10
-492.4509101947193
 20
242.5118821128829
 30
0.0
  0
POINT
  5
B9
330
AE
100
AcDbEntity
  8
DEFPOINTS
 62
     0
100
AcDbPoint
 10
-484.2648566960502
 20
254.5118821128829
 30
0.0
  0
POINT
  5
BA
330
AE
100
AcDbEntity
  8
DEFPOINTS
 62
     0
100
AcDbPoint
 10
-499.6369636933884
 20
254.5118821128829
 30
0.0
  0
ENDBLK
  5
BB
330
AE
100
AcDbEntity
  8
0
100
AcDbBlockEnd
  0
BLOCK
  5
A2
330
A1
100
AcDbEntity
  8
0
100
AcDbBlockBegin
  2
*D9
 70
     1
 10
0.0
 20
0.0
 30
0.0
  3
*D9
  1

  0
LINE
  5
A3
330
A1
100
AcDbEntity
  8
BEMASSUNG
 62
     2
370
    -2
100
AcDbLine
 10
-475.7648566960502
 20
459.511882112883
 30
0.0
 11
-461.3854182227876
 21
459.511882112883
 31
0.0
  0
LINE
  5
A4
330
A1
100
AcDbEntity
  8
BEMASSUNG
 62
     2
370
    -2
100
AcDbLine
 10
-471.2648566960502
 20
391.5118821128829
 30
0.0
 11
-461.3854182227876
 21
391.5118821128829
 31
0.0
  0
LINE
  5
A5
330
A1
100
AcDbEntity
  8
BEMASSUNG
 62
     2
370
    -2
100
AcDbLine
 10
-462.3854182227876
 20
453.5118821128831
 30
0.0
 11
-462.3854182227876
 21
397.5118821128829
 31
0.0
  0
SOLID
  5
A6
330
A1
100
AcDbEntity
  8
BEMASSUNG
 62
     2
100
AcDbTrace
 10
-463.3854182227876
 20
453.5118821128831
 30
0.0
 11
-461.3854182227876
 21
453.5118821128831
 31
0.0
 12
-462.3854182227876
 22
459.511882112883
 32
0.0
 13
-462.3854182227876
 23
459.511882112883
 33
0.0
  0
SOLID
  5
A7
330
A1
100
AcDbEntity
  8
BEMASSUNG
 62
     2
100
AcDbTrace
 10
-463.3854182227876
 20
397.5118821128829
 30
0.0
 11
-461.3854182227876
 21
397.5118821128829
 31
0.0
 12
-462.3854182227876
 22
391.5118821128829
 32
0.0
 13
-462.3854182227876
 23
391.5118821128829
 33
0.0
  0
MTEXT
  5
A8
330
A1
100
AcDbEntity
  8
BEMASSUNG
 62
     3
100
AcDbMText
 10
-466.9382831613962
 20
425.5118821128829
 30
0.0
 40
5.0
 41
0.0
 71
     5
 72
     1
  1
\A1;68
  7
ARIAL-STANDARD
 11
0.0000000000000001
 21
1.0
 31
0.0
 73
     1
 44
1.0
1001
ACAD
1000
MTEXTBEGIN
1070
    73
1070
     1
1070
    44
1040
1.0
1070
    74
1070
     0
1000
MTEXTEND
  0
POINT
  5
A9
330
A1
100
AcDbEntity
  8
DEFPOINTS
 62
     0
100
AcDbPoint
 10
-475.7648566960502
 20
459.511882112883
 30
0.0
  0
POINT
  5
AA
330
A1
100
AcDbEntity
  8
DEFPOINTS
 62
     0
100
AcDbPoint
 10
-471.2648566960502
 20
391.5118821128829
 30
0.0
  0
POINT
  5
AB
330
A1
100
AcDbEntity
  8
DEFPOINTS
 62
     0
100
AcDbPoint
 10
-462.3854182227876
 20
391.5118821128829
 30
0.0
  0
ENDBLK
  5
AC
330
A1
100
AcDbEntity
  8
0
100
AcDbBlockEnd
  0
BLOCK
  5
95
330
94
100
AcDbEntity
  8
0
100
AcDbBlockBegin
  2
*D10
 70
     1
 10
0.0
 20
0.0
 30
0.0
  3
*D10
  1

  0
LINE
  5
96
330
94
100
AcDbEntity
  8
BEMASSUNG
 62
     2
370
    -2
100
AcDbLine
 10
-475.7648566960502
 20
242.5118821128829
 30
0.0
 11
-461.3872443320367
 21
242.5118821128829
 31
0.0
  0
LINE
  5
97
330
94
100
AcDbEntity
  8
BEMASSUNG
 62
     2
370
    -2
100
AcDbLine
 10
-471.2648566960502
 20
391.5118821128829
 30
0.0
 11
-461.3872443320366
 21
391.5118821128829
 31
0.0
  0
LINE
  5
98
330
94
100
AcDbEntity
  8
BEMASSUNG
 62
     2
370
    -2
100
AcDbLine
 10
-462.3872443320367
 20
248.5118821128829
 30
0.0
 11
-462.3872443320366
 21
385.5118821128829
 31
0.0
  0
SOLID
  5
99
330
94
100
AcDbEntity
  8
BEMASSUNG
 62
     2
100
AcDbTrace
 10
-463.3872443320367
 20
248.5118821128829
 30
0.0
 11
-461.3872443320367
 21
248.5118821128829
 31
0.0
 12
-462.3872443320367
 22
242.5118821128829
 32
0.0
 13
-462.3872443320367
 23
242.5118821128829
 33
0.0
  0
SOLID
  5
9A
330
94
100
AcDbEntity
  8
BEMASSUNG
 62
     2
100
AcDbTrace
 10
-463.3872443320367
 20
385.5118821128829
 30
0.0
 11
-461.3872443320366
 21
385.5118821128829
 31
0.0
 12
-462.3872443320366
 22
391.5118821128829
 32
0.0
 13
-462.3872443320366
 23
391.5118821128829
 33
0.0
  0
MTEXT
  5
9B
330
94
100
AcDbEntity
  8
BEMASSUNG
 62
     3
100
AcDbMText
 10
-466.9401092706452
 20
317.0118821128828
 30
0.0
 40
5.0
 41
0.0
 71
     5
 72
     1
  1
\A1;149
  7
ARIAL-STANDARD
 11
0.0000000000000001
 21
1.0
 31
0.0
 73
     1
 44
1.0
1001
ACAD
1000
MTEXTBEGIN
1070
    73
1070
     1
1070
    44
1040
1.0
1070
    74
1070
     0
1000
MTEXTEND
  0
POINT
  5
9C
330
94
100
AcDbEntity
  8
DEFPOINTS
 62
     0
100
AcDbPoint
 10
-475.7648566960502
 20
242.5118821128829
 30
0.0
  0
POINT
  5
9D
330
94
100
AcDbEntity
  8
DEFPOINTS
 62
     0
100
AcDbPoint
 10
-471.2648566960502
 20
391.5118821128829
 30
0.0
  0
POINT
  5
9E
330
94
100
AcDbEntity
  8
DEFPOINTS
 62
     0
100
AcDbPoint
 10
-462.3872443320366
 20
391.5118821128829
 30
0.0
  0
ENDBLK
  5
9F
330
94
100
AcDbEntity
  8
0
100
AcDbBlockEnd
  0
BLOCK
  5
88
330
87
100
AcDbEntity
  8
0
100
AcDbBlockBegin
  2
*D11
 70
     1
 10
0.0
 20
0.0
 30
0.0
  3
*D11
  1

  0
LINE
  5
89
330
87
100
AcDbEntity
  8
BEMASSUNG
 62
     2
370
    -2
100
AcDbLine
 10
-492.7648566960502
 20
459.5118821128829
 30
0.0
 11
-524.9719871616946
 21
459.5118821128829
 31
0.0
  0
LINE
  5
8A
330
87
100
AcDbEntity
  8
BEMASSUNG
 62
     2
370
    -2
100
AcDbLine
 10
-490.7293227901174
 20
352.5118821129151
 30
0.0
 11
-524.9719871616946
 21
352.5118821129151
 31
0.0
  0
LINE
  5
8B
330
87
100
AcDbEntity
  8
BEMASSUNG
 62
     2
370
    -2
100
AcDbLine
 10
-523.9719871616946
 20
453.5118821128829
 30
0.0
 11
-523.9719871616946
 21
358.5118821129151
 31
0.0
  0
SOLID
  5
8C
330
87
100
AcDbEntity
  8
BEMASSUNG
 62
     2
100
AcDbTrace
 10
-524.9719871616946
 20
453.5118821128829
 30
0.0
 11
-522.9719871616946
 21
453.5118821128829
 31
0.0
 12
-523.9719871616946
 22
459.5118821128829
 32
0.0
 13
-523.9719871616946
 23
459.5118821128829
 33
0.0
  0
SOLID
  5
8D
330
87
100
AcDbEntity
  8
BEMASSUNG
 62
     2
100
AcDbTrace
 10
-524.9719871616946
 20
358.5118821129151
 30
0.0
 11
-522.9719871616946
 21
358.5118821129151
 31
0.0
 12
-523.9719871616946
 22
352.5118821129151
 32
0.0
 13
-523.9719871616946
 23
352.5118821129151
 33
0.0
  0
MTEXT
  5
8E
330
87
100
AcDbEntity
  8
BEMASSUNG
 62
     3
100
AcDbMText
 10
-528.5248521003031
 20
406.0118821128989
 30
0.0
 40
5.0
 41
0.0
 71
     5
 72
     1
  1
\A1;107
  7
ARIAL-STANDARD
 11
0.0000000000000001
 21
1.0
 31
0.0
 73
     1
 44
1.0
1001
ACAD
1000
MTEXTBEGIN
1070
    73
1070
     1
1070
    44
1040
1.0
1070
    74
1070
     0
1000
MTEXTEND
  0
POINT
  5
8F
330
87
100
AcDbEntity
  8
DEFPOINTS
 62
     0
100
AcDbPoint
 10
-492.7648566960502
 20
459.5118821128829
 30
0.0
  0
POINT
  5
90
330
87
100
AcDbEntity
  8
DEFPOINTS
 62
     0
100
AcDbPoint
 10
-490.7293227901174
 20
352.5118821129151
 30
0.0
  0
POINT
  5
91
330
87
100
AcDbEntity
  8
DEFPOINTS
 62
     0
100
AcDbPoint
 10
-523.9719871616946
 20
352.5118821129151
 30
0.0
  0
ENDBLK
  5
92
330
87
100
AcDbEntity
  8
0
100
AcDbBlockEnd
  0
BLOCK
  5
76
330
75
100
AcDbEntity
  8
0
100
AcDbBlockBegin
  2
*D12
 70
     1
 10
0.0
 20
0.0
 30
0.0
  3
*D12
  1

  0
LINE
  5
77
330
75
100
AcDbEntity
  8
BEMASSUNG
 62
     2
370
    -2
100
AcDbLine
 10
-479.2648566960502
 20
413.0118821128828
 30
0.0
 11
-479.2648566960502
 21
419.3663618106069
 31
0.0
  0
LINE
  5
78
330
75
100
AcDbEntity
  8
BEMASSUNG
 62
     2
370
    -2
100
AcDbLine
 10
-474.2648566960502
 20
414.0118821128829
 30
0.0
 11
-474.2648566960502
 21
419.3663618106069
 31
0.0
  0
LINE
  5
79
330
75
100
AcDbEntity
  8
BEMASSUNG
 62
     2
370
    -2
100
AcDbLine
 10
-468.2648566960502
 20
418.3663618106069
 30
0.0
 11
-462.2648566960502
 21
418.3663618106069
 31
0.0
  0
LINE
  5
7A
330
75
100
AcDbEntity
  8
BEMASSUNG
 62
     2
370
    -2
100
AcDbLine
 10
-485.2648566960502
 20
418.3663618106069
 30
0.0
 11
-507.8479728190835
 21
418.3663618106069
 31
0.0
  0
LINE
  5
7B
330
75
100
AcDbEntity
  8
BEMASSUNG
 62
     2
370
    -2
100
AcDbLine
 10
-474.2648566960502
 20
418.3663618106069
 30
0.0
 11
-479.2648566960502
 21
418.3663618106069
 31
0.0
  0
SOLID
  5
7C
330
75
100
AcDbEntity
  8
BEMASSUNG
 62
     2
100
AcDbTrace
 10
-468.2648566960502
 20
419.3663618106069
 30
0.0
 11
-468.2648566960502
 21
417.3663618106068
 31
0.0
 12
-474.2648566960502
 22
418.3663618106069
 32
0.0
 13
-474.2648566960502
 23
418.3663618106069
 33
0.0
  0
SOLID
  5
7D
330
75
100
AcDbEntity
  8
BEMASSUNG
 62
     2
100
AcDbTrace
 10
-485.2648566960502
 20
419.3663618106069
 30
0.0
 11
-485.2648566960502
 21
417.3663618106068
 31
0.0
 12
-479.2648566960502
 22
418.3663618106069
 32
0.0
 13
-479.2648566960502
 23
418.3663618106069
 33
0.0
  0
MTEXT
  5
7E
330
75
100
AcDbEntity
  8
BEMASSUNG
 62
     3
100
AcDbMText
 10
-501.1907422597384
 20
422.9192267492154
 30
0.0
 40
5.0
 41
0.0
 71
     5
 72
     1
  1
\A1;4.8
  7
ARIAL-STANDARD
 73
     1
 44
1.0
1001
ACAD
1000
MTEXTBEGIN
1070
    73
1070
     1
1070
    44
1040
1.0
1070
    74
1070
     0
1000
MTEXTEND
  0
POINT
  5
7F
330
75
100
AcDbEntity
  8
DEFPOINTS
 62
     0
100
AcDbPoint
 10
-479.2648566960502
 20
413.0118821128828
 30
0.0
  0
POINT
  5
81
330
75
100
AcDbEntity
  8
DEFPOINTS
 62
     0
100
AcDbPoint
 10
-474.2648566960502
 20
414.0118821128829
 30
0.0
  0
POINT
  5
82
330
75
100
AcDbEntity
  8
DEFPOINTS
 62
     0
100
AcDbPoint
 10
-474.2648566960502
 20
418.3663618106069
 30
0.0
  0
ENDBLK
  5
83
330
75
100
AcDbEntity
  8
0
100
AcDbBlockEnd
  0
BLOCK
  5
16B
330
16A
100
AcDbEntity
  8
0
100
AcDbBlockBegin
  2
*D13
 70
     1
 10
0.0
 20
0.0
 30
0.0
  3
*D13
  1

  0
LINE
  5
16C
330
16A
100
AcDbEntity
  8
BEMASSUNG
 62
     2
370
    -2
100
AcDbLine
 10
-493.2652095813264
 20
192.0744500696154
 30
0.0
 11
-520.3526776149726
 21
192.0744500696154
 31
0.0
  0
LINE
  5
16D
330
16A
100
AcDbEntity
  8
BEMASSUNG
 62
     2
370
    -2
100
AcDbLine
 10
-493.2652095813264
 20
202.0744500696133
 30
0.0
 11
-520.3526776149726
 21
202.0744500696133
 31
0.0
  0
LINE
  5
16E
330
16A
100
AcDbEntity
  8
BEMASSUNG
 62
     2
370
    -2
100
AcDbLine
 10
-519.3526776149727
 20
186.0744500696154
 30
0.0
 11
-519.3526776149727
 21
180.0744500696154
 31
0.0
  0
LINE
  5
16F
330
16A
100
AcDbEntity
  8
BEMASSUNG
 62
     2
370
    -2
100
AcDbLine
 10
-519.3526776149727
 20
208.0744500696133
 30
0.0
 11
-519.3526776149727
 21
214.0744500696133
 31
0.0
  0
LINE
  5
170
330
16A
100
AcDbEntity
  8
BEMASSUNG
 62
     2
370
    -2
100
AcDbLine
 10
-519.3526776149727
 20
192.0744500696154
 30
0.0
 11
-519.3526776149727
 21
202.0744500696133
 31
0.0
  0
SOLID
  5
171
330
16A
100
AcDbEntity
  8
BEMASSUNG
 62
     2
100
AcDbTrace
 10
-520.3526776149726
 20
186.0744500696154
 30
0.0
 11
-518.3526776149726
 21
186.0744500696154
 31
0.0
 12
-519.3526776149727
 22
192.0744500696154
 32
0.0
 13
-519.3526776149727
 23
192.0744500696154
 33
0.0
  0
SOLID
  5
172
330
16A
100
AcDbEntity
  8
BEMASSUNG
 62
     2
100
AcDbTrace
 10
-520.3526776149726
 20
208.0744500696133
 30
0.0
 11
-518.3526776149726
 21
208.0744500696133
 31
0.0
 12
-519.3526776149727
 22
202.0744500696133
 32
0.0
 13
-519.3526776149727
 23
202.0744500696133
 33
0.0
  0
MTEXT
  5
173
330
16A
100
AcDbEntity
  8
BEMASSUNG
 62
     3
100
AcDbMText
 10
-523.905542553581
 20
197.0744500696143
 30
0.0
 40
5.0
 41
0.0
 71
     5
 72
     1
  1
\A1;10
  7
ARIAL-STANDARD
 11
0.0000000000000001
 21
1.0
 31
0.0
 73
     1
 44
1.0
1001
ACAD
1000
MTEXTBEGIN
1070
    73
1070
     1
1070
    44
1040
1.0
1070
    74
1070
     0
1000
MTEXTEND
  0
POINT
  5
174
330
16A
100
AcDbEntity
  8
DEFPOINTS
 62
     0
100
AcDbPoint
 10
-493.2652095813264
 20
192.0744500696154
 30
0.0
  0
POINT
  5
175
330
16A
100
AcDbEntity
  8
DEFPOINTS
 62
     0
100
AcDbPoint
 10
-493.2652095813264
 20
202.0744500696133
 30
0.0
  0
POINT
  5
176
330
16A
100
AcDbEntity
  8
DEFPOINTS
 62
     0
100
AcDbPoint
 10
-519.3526776149727
 20
202.0744500696133
 30
0.0
  0
ENDBLK
  5
177
330
16A
100
AcDbEntity
  8
0
100
AcDbBlockEnd
  0
BLOCK
  5
15E
330
15D
100
AcDbEntity
  8
0
100
AcDbBlockBegin
  2
*D14
 70
     1
 10
0.0
 20
0.0
 30
0.0
  3
*D14
  1

  0
LINE
  5
15F
330
15D
100
AcDbEntity
  8
BEMASSUNG
 62
     2
370
    -2
100
AcDbLine
 10
-494.2652095813264
 20
201.0744500696133
 30
0.0
 11
-494.2652095813264
 21
216.9321162796534
 31
0.0
  0
LINE
  5
160
330
15D
100
AcDbEntity
  8
BEMASSUNG
 62
     2
370
    -2
100
AcDbLine
 10
-474.2652095813264
 20
201.0744500696133
 30
0.0
 11
-474.2652095813264
 21
216.9321162796534
 31
0.0
  0
LINE
  5
161
330
15D
100
AcDbEntity
  8
BEMASSUNG
 62
     2
370
    -2
100
AcDbLine
 10
-488.2652095813265
 20
215.9321162796534
 30
0.0
 11
-480.2652095813265
 21
215.9321162796534
 31
0.0
  0
SOLID
  5
162
330
15D
100
AcDbEntity
  8
BEMASSUNG
 62
     2
100
AcDbTrace
 10
-488.2652095813265
 20
216.9321162796534
 30
0.0
 11
-488.2652095813265
 21
214.9321162796534
 31
0.0
 12
-494.2652095813264
 22
215.9321162796534
 32
0.0
 13
-494.2652095813264
 23
215.9321162796534
 33
0.0
  0
SOLID
  5
163
330
15D
100
AcDbEntity
  8
BEMASSUNG
 62
     2
100
AcDbTrace
 10
-480.2652095813265
 20
216.9321162796534
 30
0.0
 11
-480.2652095813265
 21
214.9321162796534
 31
0.0
 12
-474.2652095813264
 22
215.9321162796534
 32
0.0
 13
-474.2652095813264
 23
215.9321162796534
 33
0.0
  0
MTEXT
  5
164
330
15D
100
AcDbEntity
  8
BEMASSUNG
 62
     3
100
AcDbMText
 10
-484.3477794254934
 20
220.4849812182619
 30
0.0
 40
5.0
 41
0.0
 71
     5
 72
     1
  1
\A1;20
  7
ARIAL-STANDARD
 73
     1
 44
1.0
1001
ACAD
1000
MTEXTBEGIN
1070
    73
1070
     1
1070
    44
1040
1.0
1070
    74
1070
     0
1000
MTEXTEND
  0
POINT
  5
165
330
15D
100
AcDbEntity
  8
DEFPOINTS
 62
     0
100
AcDbPoint
 10
-494.2652095813264
 20
201.0744500696133
 30
0.0
  0
POINT
  5
166
330
15D
100
AcDbEntity
  8
DEFPOINTS
 62
     0
100
AcDbPoint
 10
-474.2652095813264
 20
201.0744500696133
 30
0.0
  0
POINT
  5
167
330
15D
100
AcDbEntity
  8
DEFPOINTS
 62
     0
100
AcDbPoint
 10
-474.2652095813264
 20
215.9321162796534
 30
0.0
  0
ENDBLK
  5
168
330
15D
100
AcDbEntity
  8
0
100
AcDbBlockEnd
  0
BLOCK
  5
14F
330
14E
100
AcDbEntity
  8
0
100
AcDbBlockBegin
  2
*D15
 70
     1
 10
0.0
 20
0.0
 30
0.0
  3
*D15
  1

  0
LINE
  5
150
330
14E
100
AcDbEntity
  8
BEMASSUNG
 62
     2
370
    -2
100
AcDbLine
 10
-492.7648566960502
 20
459.511882112883
 30
0.0
 11
-536.7968371504286
 21
459.511882112883
 31
0.0
  0
LINE
  5
151
330
14E
100
AcDbEntity
  8
BEMASSUNG
 62
     2
370
    -2
100
AcDbLine
 10
-492.7648566960502
 20
242.5118821128829
 30
0.0
 11
-536.7968371504287
 21
242.5118821128829
 31
0.0
  0
LINE
  5
152
330
14E
100
AcDbEntity
  8
BEMASSUNG
 62
     2
370
    -2
100
AcDbLine
 10
-535.7968371504285
 20
453.5118821128831
 30
0.0
 11
-535.7968371504287
 21
248.5118821128829
 31
0.0
  0
SOLID
  5
153
330
14E
100
AcDbEntity
  8
BEMASSUNG
 62
     2
100
AcDbTrace
 10
-536.7968371504286
 20
453.5118821128831
 30
0.0
 11
-534.7968371504285
 21
453.5118821128831
 31
0.0
 12
-535.7968371504285
 22
459.511882112883
 32
0.0
 13
-535.7968371504285
 23
459.511882112883
 33
0.0
  0
SOLID
  5
154
330
14E
100
AcDbEntity
  8
BEMASSUNG
 62
     2
100
AcDbTrace
 10
-536.7968371504287
 20
248.5118821128829
 30
0.0
 11
-534.7968371504286
 21
248.5118821128829
 31
0.0
 12
-535.7968371504287
 22
242.5118821128829
 32
0.0
 13
-535.7968371504287
 23
242.5118821128829
 33
0.0
  0
MTEXT
  5
155
330
14E
100
AcDbEntity
  8
BEMASSUNG
 62
     3
100
AcDbMText
 10
-540.3070690740303
 20
344.2409932295242
 30
0.0
 40
5.0
 41
0.0
 71
     5
 72
     1
  1
\A1;217
  7
ARIAL-STANDARD
 11
0.0000000000000001
 21
1.0
 31
0.0
 73
     1
 44
1.0
1001
ACAD
1000
MTEXTBEGIN
1070
    73
1070
     1
1070
    44
1040
1.0
1070
    74
1070
     0
1000
MTEXTEND
  0
POINT
  5
156
330
14E
100
AcDbEntity
  8
DEFPOINTS
 62
     0
100
AcDbPoint
 10
-492.7648566960502
 20
459.511882112883
 30
0.0
  0
POINT
  5
157
330
14E
100
AcDbEntity
  8
DEFPOINTS
 62
     0
100
AcDbPoint
 10
-492.7648566960502
 20
242.5118821128829
 30
0.0
  0
POINT
  5
158
330
14E
100
AcDbEntity
  8
DEFPOINTS
 62
     0
100
AcDbPoint
 10
-535.7968371504287
 20
242.5118821128829
 30
0.0
  0
ENDBLK
  5
159
330
14E
100
AcDbEntity
  8
0
100
AcDbBlockEnd
  0
BLOCK
  5
142
330
141
100
AcDbEntity
  8
0
100
AcDbBlockBegin
  2
*D16
 70
     1
 10
0.0
 20
0.0
 30
0.0
  3
*D16
  1

  0
LINE
  5
143
330
141
100
AcDbEntity
  8
BEMASSUNG
 62
     2
370
    -2
100
AcDbLine
 10
-494.2648566960502
 20
369.5118914679914
 30
0.0
 11
-500.6812010499817
 21
369.5118914679914
 31
0.0
  0
LINE
  5
144
330
141
100
AcDbEntity
  8
BEMASSUNG
 62
     2
370
    -2
100
AcDbLine
 10
-494.2648566960502
 20
391.5118821128828
 30
0.0
 11
-500.6812010499816
 21
391.5118821128828
 31
0.0
  0
LINE
  5
145
330
141
100
AcDbEntity
  8
BEMASSUNG
 62
     2
370
    -2
100
AcDbLine
 10
-499.6812010499816
 20
375.5118914679914
 30
0.0
 11
-499.6812010499816
 21
385.5118821128828
 31
0.0
  0
SOLID
  5
146
330
141
100
AcDbEntity
  8
BEMASSUNG
 62
     2
100
AcDbTrace
 10
-500.6812010499817
 20
375.5118914679914
 30
0.0
 11
-498.6812010499816
 21
375.5118914679914
 31
0.0
 12
-499.6812010499816
 22
369.5118914679914
 32
0.0
 13
-499.6812010499816
 23
369.5118914679914
 33
0.0
  0
SOLID
  5
147
330
141
100
AcDbEntity
  8
BEMASSUNG
 62
     2
100
AcDbTrace
 10
-500.6812010499816
 20
385.5118821128828
 30
0.0
 11
-498.6812010499816
 21
385.5118821128828
 31
0.0
 12
-499.6812010499816
 22
391.5118821128828
 32
0.0
 13
-499.6812010499816
 23
391.5118821128828
 33
0.0
  0
MTEXT
  5
148
330
141
100
AcDbEntity
  8
BEMASSUNG
 62
     3
100
AcDbMText
 10
-504.1914329735833
 20
380.5118867904371
 30
0.0
 40
5.0
 41
0.0
 71
     5
 72
     1
  1
\A1;22
  7
ARIAL-STANDARD
 11
0.0000000000000001
 21
1.0
 31
0.0
 73
     1
 44
1.0
1001
ACAD
1000
MTEXTBEGIN
1070
    73
1070
     1
1070
    44
1040
1.0
1070
    74
1070
     0
1000
MTEXTEND
  0
POINT
  5
149
330
141
100
AcDbEntity
  8
DEFPOINTS
 62
     0
100
AcDbPoint
 10
-494.2648566960502
 20
369.5118914679914
 30
0.0
  0
POINT
  5
14A
330
141
100
AcDbEntity
  8
DEFPOINTS
 62
     0
100
AcDbPoint
 10
-494.2648566960502
 20
391.5118821128828
 30
0.0
  0
POINT
  5
14B
330
141
100
AcDbEntity
  8
DEFPOINTS
 62
     0
100
AcDbPoint
 10
-499.6812010499816
 20
391.5118821128828
 30
0.0
  0
ENDBLK
  5
14C
330
141
100
AcDbEntity
  8
0
100
AcDbBlockEnd
  0
BLOCK
  5
135
330
134
100
AcDbEntity
  8
0
100
AcDbBlockBegin
  2
*D17
 70
     1
 10
0.0
 20
0.0
 30
0.0
  3
*D17
  1

  0
LINE
  5
136
330
134
100
AcDbEntity
  8
BEMASSUNG
 62
     2
370
    -2
100
AcDbLine
 10
-494.2648566960502
 20
369.5118914679913
 30
0.0
 11
-500.6348755145099
 21
369.5118914679913
 31
0.0
  0
LINE
  5
137
330
134
100
AcDbEntity
  8
BEMASSUNG
 62
     2
370
    -2
100
AcDbLine
 10
-494.2648566960502
 20
313.5118821128829
 30
0.0
 11
-500.6348755145099
 21
313.5118821128829
 31
0.0
  0
LINE
  5
138
330
134
100
AcDbEntity
  8
BEMASSUNG
 62
     2
370
    -2
100
AcDbLine
 10
-499.6348755145099
 20
363.5118914679913
 30
0.0
 11
-499.6348755145099
 21
319.5118821128829
 31
0.0
  0
SOLID
  5
139
330
134
100
AcDbEntity
  8
BEMASSUNG
 62
     2
100
AcDbTrace
 10
-500.6348755145099
 20
363.5118914679913
 30
0.0
 11
-498.6348755145099
 21
363.5118914679913
 31
0.0
 12
-499.6348755145099
 22
369.5118914679913
 32
0.0
 13
-499.6348755145099
 23
369.5118914679913
 33
0.0
  0
SOLID
  5
13A
330
134
100
AcDbEntity
  8
BEMASSUNG
 62
     2
100
AcDbTrace
 10
-500.6348755145099
 20
319.5118821128829
 30
0.0
 11
-498.6348755145099
 21
319.5118821128829
 31
0.0
 12
-499.6348755145099
 22
313.5118821128829
 32
0.0
 13
-499.6348755145099
 23
313.5118821128829
 33
0.0
  0
MTEXT
  5
13B
330
134
100
AcDbEntity
  8
BEMASSUNG
 62
     3
100
AcDbMText
 10
-504.1877404531184
 20
341.5118867904371
 30
0.0
 40
5.0
 41
0.0
 71
     5
 72
     1
  1
\A1;56
  7
ARIAL-STANDARD
 11
0.0000000000000001
 21
1.0
 31
0.0
 73
     1
 44
1.0
1001
ACAD
1000
MTEXTBEGIN
1070
    73
1070
     1
1070
    44
1040
1.0
1070
    74
1070
     0
1000
MTEXTEND
  0
POINT
  5
13C
330
134
100
AcDbEntity
  8
DEFPOINTS
 62
     0
100
AcDbPoint
 10
-494.2648566960502
 20
369.5118914679913
 30
0.0
  0
POINT
  5
13D
330
134
100
AcDbEntity
  8
DEFPOINTS
 62
     0
100
AcDbPoint
 10
-494.2648566960502
 20
313.5118821128829
 30
0.0
  0
POINT
  5
13E
330
134
100
AcDbEntity
  8
DEFPOINTS
 62
     0
100
AcDbPoint
 10
-499.6348755145099
 20
313.5118821128829
 30
0.0
  0
ENDBLK
  5
13F
330
134
100
AcDbEntity
  8
0
100
AcDbBlockEnd
  0
ENDSEC
  0
SECTION
  2
ENTITIES
  0
LINE
  5
6C
330
2
100
AcDbEntity
  8
ACHSEN
100
AcDbLine
 10
-417.7175026217687
 20
369.5118914679919
 30
0.0
 11
-394.5121148124565
 21
369.511891467992
 31
0.0
  0
DIMENSION
  5
71
330
2
100
AcDbEntity
  8
BEMASSUNG
100
AcDbDimension
  2
*D12
 10
-474.2648566960502
 20
418.3663618106069
 30
0.0
 11
-501.1907422597384
 21
418.3663618106069
 31
0.0
 70
   128
  1
4.8
 71
     5
 42
5.0
  3
Katalog 09$0
100
AcDbAlignedDimension
 13
-479.2648566960502
 23
413.0118821128828
 33
0.0
 14
-474.2648566960502
 24
414.0118821128829
 34
0.0
100
AcDbRotatedDimension
1001
ACAD_DSTYLE_DIMINSPECT
1070
   396
1000
100%
1070
   395
1000

1070
   394
1070
    33
1070
   393
1070
     0
1001
ACAD
1000
DSTYLE
1002
{
1070
    41
1040
6.0
1070
   140
1040
5.0
1070
   147
1040
2.0
1002
}
  0
DIMENSION
  5
86
330
2
100
AcDbEntity
  8
BEMASSUNG
100
AcDbDimension
  2
*D11
 10
-523.9719871616946
 20
352.5118821129151
 30
0.0
 11
-528.5248521003031
 21
406.0118821128989
 31
0.0
 71
     5
 42
106.9999999999678
  3
Katalog 09
100
AcDbAlignedDimension
 13
-492.7648566960502
 23
459.5118821128829
 33
0.0
 14
-490.7293227901174
 24
352.5118821129151
 34
0.0
 50
90.0
100
AcDbRotatedDimension
1001
ACAD_DSTYLE_DIMINSPECT
1070
   396
1000
100%
1070
   395
1000

1070
   394
1070
    33
1070
   393
1070
     0
1001
ACAD
1000
DSTYLE
1002
{
1070
   271
1070
     1
1002
}
  0
DIMENSION
  5
93
330
2
100
AcDbEntity
  8
BEMASSUNG
100
AcDbDimension
  2
*D10
 10
-462.3872443320366
 20
391.5118821128829
 30
0.0
 11
-466.9401092706452
 21
317.0118821128828
 31
0.0
 71
     5
 42
149.0
  3
Katalog 09
100
AcDbAlignedDimension
 13
-475.7648566960502
 23
242.5118821128829
 33
0.0
 14
-471.2648566960502
 24
391.5118821128829
 34
0.0
 50
90.0
100
AcDbRotatedDimension
  0
DIMENSION
  5
A0
330
2
100
AcDbEntity
  8
BEMASSUNG
100
AcDbDimension
  2
*D9
 10
-462.3854182227876
 20
391.5118821128829
 30
0.0
 11
-466.9382831613962
 21
425.5118821128829
 31
0.0
 71
     5
 42
68.00000000000017
  3
Katalog 09
100
AcDbAlignedDimension
 13
-475.7648566960502
 23
459.511882112883
 33
0.0
 14
-471.2648566960502
 24
391.5118821128829
 34
0.0
 50
90.0
100
AcDbRotatedDimension
  0
DIMENSION
  5
AD
330
2
100
AcDbEntity
  8
BEMASSUNG
100
AcDbDimension
  2
*D8
 10
-499.6369636933884
 20
254.5118821128829
 30
0.0
 11
-504.1471956169901
 21
248.5118821128828
 31
0.0
 71
     5
 42
12.0
  3
Katalog 09
100
AcDbAlignedDimension
 13
-492.4509101947193
 23
242.5118821128829
 33
0.0
 14
-484.2648566960502
 24
254.5118821128829
 34
0.0
 50
90.0
100
AcDbRotatedDimension
  0
DIMENSION
  5
BC
330
2
100
AcDbEntity
  8
BEMASSUNG
100
AcDbDimension
  2
*D7
 10
-499.693082295322
 20
459.511882112883
 30
0.0
 11
-504.2033142189238
 21
453.5118821128829
 31
0.0
 71
     5
 42
12.00000000000017
  3
Katalog 09
100
AcDbAlignedDimension
 13
-484.2648566960502
 23
447.5118821128829
 33
0.0
 14
-492.7648566960502
 24
459.511882112883
 34
0.0
 50
90.0
100
AcDbRotatedDimension
  0
DIMENSION
  5
CB
330
2
100
AcDbEntity
  8
BEMASSUNG
100
AcDbDimension
  2
*D6
 10
-511.3823045288052
 20
369.5118914679914
 30
0.0
 11
-515.9351694674137
 21
414.5118867904371
 31
0.0
 71
     5
 42
89.9999906448915
  3
Katalog 09
100
AcDbAlignedDimension
 13
-492.7648566960502
 23
459.5118821128829
 33
0.0
 14
-494.2648566960502
 24
369.5118914679914
 34
0.0
 50
90.0
100
AcDbRotatedDimension
  0
DIMENSION
  5
D8
330
2
100
AcDbEntity
  8
BEMASSUNG
100
AcDbDimension
  2
*D5
 10
-499.6699293987086
 20
391.5118821128828
 30
0.0
 11
-504.2227943373172
 21
402.7618821128828
 31
0.0
 71
     5
 42
22.50000000000006
  3
Katalog 09
100
AcDbAlignedDimension
 13
-486.2648566960502
 23
414.0118821128829
 33
0.0
 14
-494.2648566960502
 24
391.5118821128828
 34
0.0
 50
90.0
100
AcDbRotatedDimension
  0
DIMENSION
  5
E5
330
2
100
AcDbEntity
  8
BEMASSUNG
100
AcDbDimension
  2
*D4
 10
-411.2648566960551
 20
473.6331697680093
 30
0.0
 11
-406.2648566960551
 21
478.1860347066178
 31
0.0
 71
     5
 42
10.0
  3
Katalog 09
100
AcDbAlignedDimension
 13
-401.2648566960551
 23
459.5118821128828
 33
0.0
 14
-411.2648566960551
 24
451.5118821128829
 34
0.0
100
AcDbRotatedDimension
  0
LINE
  5
F4
330
2
100
AcDbEntity
  8
ACHSEN
 48
0.5
100
AcDbLine
 10
-403.2648566960551
 20
451.5118821128829
 30
0.0
 11
-418.7789479209206
 21
451.5118821128829
 31
0.0
1001
GENIUS_GENOREF_13
1005
0
  0
LINE
  5
F6
330
2
100
AcDbEntity
  8
ACHSEN
 48
0.5
100
AcDbLine
 10
-403.2648566960551
 20
451.5118821128829
 30
0.0
 11
-403.2648566960551
 21
467.0259733377483
 31
0.0
1001
GENIUS_GENOREF_13
1005
0
  0
LINE
  5
F7
330
2
100
AcDbEntity
  8
BEMASSUNG
100
AcDbLine
 10
-403.2648566960106
 20
459.5118821128828
 30
0.0
 11
-403.2648566960106
 21
461.2036953030411
 31
0.0
  0
LINE
  5
F8
330
2
100
AcDbEntity
  8
BEMASSUNG
100
AcDbLine
 10
-411.2648566960501
 20
451.5118821128829
 30
0.0
 11
-408.5652553520015
 21
451.5118821128829
 31
0.0
  0
DIMENSION
  5
F9
330
2
100
AcDbEntity
  8
AVERDECKTE
100
AcDbDimension
  2
*D3
 10
-403.2648566960551
 20
464.4912469947178
 30
0.0
 11
-385.6089903931902
 21
464.4912469947178
 31
0.0
 70
   128
 71
     5
 42
2.0
  3
Katalog 09
100
AcDbAlignedDimension
 13
-401.2648566960551
 23
459.5118821128828
 33
0.0
 14
-403.2648566960551
 24
459.5118821128828
 34
0.0
100
AcDbRotatedDimension
  0
LINE
  5
10C
330
2
100
AcDbEntity
  8
UMRISS05
100
AcDbLine
 10
-401.2648566960551
 20
413.011891467991
 30
0.0
 11
-401.0048566960493
 21
413.011891467991
 31
0.0
  0
LINE
  5
10D
330
2
100
AcDbEntity
  8
UMRISS05
100
AcDbLine
 10
-401.0048566960493
 20
413.011891467991
 30
0.0
 11
-401.0048566960493
 21
370.0118914679911
 31
0.0
  0
LINE
  5
10E
330
2
100
AcDbEntity
  8
UMRISS05
100
AcDbLine
 10
-401.264856696051
 20
370.0118914679911
 30
0.0
 11
-401.0048566960493
 21
370.0118914679911
 31
0.0
  0
LINE
  5
10F
330
2
100
AcDbEntity
  8
ACHSEN
100
AcDbLine
 10
-492.3697428103734
 20
377.5118821128829
 30
0.0
 11
-477.5036365452045
 21
377.5118821128829
 31
0.0
  0
LINE
  5
110
330
2
100
AcDbEntity
  8
ACHSEN
100
AcDbLine
 10
-492.3697428103734
 20
405.5118821128829
 30
0.0
 11
-477.5036365452045
 21
405.5118821128829
 31
0.0
  0
LINE
  5
111
330
2
100
AcDbEntity
  8
AVERDECKTE
100
AcDbLine
 10
-402.1648566960505
 20
292.0118914679911
 30
0.0
 11
-402.1648566960505
 21
335.0118914679911
 31
0.0
  0
LINE
  5
112
330
2
100
AcDbEntity
  8
AVERDECKTE
100
AcDbLine
 10
-401.2648566960552
 20
335.0118914679912
 30
0.0
 11
-409.7648566960546
 21
335.0118914679913
 31
0.0
  0
LINE
  5
113
330
2
100
AcDbEntity
  8
AVERDECKTE
100
AcDbLine
 10
-407.1648566960509
 20
292.0118914679912
 30
0.0
 11
-401.264856696051
 21
292.0118914679912
 31
0.0
  0
LINE
  5
114
330
2
100
AcDbEntity
  8
AVERDECKTE
100
AcDbLine
 10
-401.2648566960532
 20
291.0118914679912
 30
0.0
 11
-409.76485669605
 21
291.0118914679912
 31
0.0
  0
LINE
  5
115
330
2
100
AcDbEntity
  8
AVERDECKTE
100
AcDbLine
 10
-409.76485669605
 20
335.857585735998
 30
0.0
 11
-401.2648566960532
 21
335.857585735998
 31
0.0
  0
LINE
  5
116
330
2
100
AcDbEntity
  8
AVERDECKTE
 48
0.7
100
AcDbLine
 10
-407.1648566960532
 20
335.0118914679912
 30
0.0
 11
-407.1648566960532
 21
292.011891467991
 31
0.0
  0
LINE
  5
117
330
2
100
AcDbEntity
  8
AVERDECKTE
100
AcDbLine
 10
-411.2648566960501
 20
350.2618821128828
 30
0.0
 11
-409.7648566960502
 21
350.2618821128828
 31
0.0
  0
LINE
  5
118
330
2
100
AcDbEntity
  8
AVERDECKTE
100
AcDbLine
 10
-411.2648566960501
 20
355.7618821128827
 30
0.0
 11
-409.7648566960502
 21
355.7618821128827
 31
0.0
  0
LINE
  5
119
330
2
100
AcDbEntity
  8
AVERDECKTE
100
AcDbLine
 10
-402.7648566960523
 20
349.0118821128829
 30
0.0
 11
-402.2648566960523
 21
349.0118821128829
 31
0.0
  0
LINE
  5
11A
330
2
100
AcDbEntity
  8
AVERDECKTE
100
AcDbLine
 10
-402.7648566960523
 20
357.0118821128827
 30
0.0
 11
-402.2648566960523
 21
357.0118821128827
 31
0.0
  0
LINE
  5
11B
330
2
100
AcDbEntity
  8
AVERDECKTE
100
AcDbLine
 10
-409.7648566960502
 20
355.5118821128829
 30
0.0
 11
-410.9719634772371
 21
355.5118821128829
 31
0.0
  0
LINE
  5
11C
330
2
100
AcDbEntity
  8
AVERDECKTE
100
AcDbLine
 10
-409.7648566960502
 20
350.5118821128828
 30
0.0
 11
-410.9719634772371
 21
350.5118821128828
 31
0.0
  0
ELLIPSE
  5
11D
330
2
100
AcDbEntity
  8
AVERDECKTE
100
AcDbEllipse
 10
-409.7648566960548
 20
353.0118821128829
 30
0.0
 11
-3.535533905932736
 21
0.0
 31
0.0
210
0.0
220
0.0
230
1.0
 40
0.7071067811865479
 41
1.570796326794896
 42
4.712388980384688
  0
ELLIPSE
  5
11E
330
2
100
AcDbEntity
  8
UMRISS05
100
AcDbEllipse
 10
-411.2648566960501
 20
353.0118821128829
 30
0.0
 11
-2.634843496662687
 21
-0.0000000000003106
 31
0.0
210
0.0
220
0.0
230
1.0
 40
0.983678030863469
 41
1.960083677818909
 42
4.323101629360442
  0
LINE
  5
11F
330
2
100
AcDbEntity
  8
UMRISS05
100
AcDbLine
 10
-409.7648566960543
 20
355.2757283974169
 30
0.0
 11
-409.7648566960543
 21
350.7480358283483
 31
0.0
  0
SPLINE
  5
120
330
2
100
AcDbEntity
  8
UMRISS05
100
AcDbSpline
210
0.0
220
0.0
230
1.0
 70
     8
 71
     3
 72
    14
 73
    10
 74
     0
 42
0.000000001
 43
0.0000000001
 40
0.3814032672713042
 40
0.3814032672713042
 40
0.3814032672713042
 40
0.3814032672713042
 40
0.4195204343012328
 40
0.4195204343012328
 40
0.4576376013311612
 40
0.4576376013311612
 40
0.4957547683610896
 40
0.4957547683610896
 40
0.533871935391018
 40
0.533871935391018
 40
0.533871935391018
 40
0.533871935391018
 10
-410.2648566960552
 20
350.6139663512263
 30
0.0
 10
-410.3892387309668
 20
350.5880309040976
 30
0.0
 10
-410.5223632924499
 20
350.5608017300869
 30
0.0
 10
-410.7687941132475
 20
350.5224970686124
 30
0.0
 10
-410.8821204529534
 20
350.5118821128828
 30
0.0
 10
-411.06180650153
 20
350.5118821128828
 30
0.0
 10
-411.1388148241335
 20
350.5224970686124
 30
0.0
 10
-411.2402776567988
 20
350.5608017300869
 30
0.0
 10
-411.2648566960549
 20
350.5880309040976
 30
0.0
 10
-411.2648566960549
 20
350.6139663512263
 30
0.0
  0
SPLINE
  5
121
330
2
100
AcDbEntity
  8
UMRISS05
100
AcDbSpline
210
0.0
220
0.0
230
1.0
 70
     8
 71
     3
 72
    14
 73
    10
 74
     0
 42
0.000000001
 43
0.0000000001
 40
0.0763115330505301
 40
0.0763115330505301
 40
0.0763115330505301
 40
0.0763115330505301
 40
0.1144287000804585
 40
0.1144287000804585
 40
0.152545867110387
 40
0.152545867110387
 40
0.1906630341403154
 40
0.1906630341403154
 40
0.2287802011702439
 40
0.2287802011702439
 40
0.2287802011702439
 40
0.2287802011702439
 10
-411.2648566960549
 20
355.4097978745391
 30
0.0
 10
-411.2648566960549
 20
355.4357333216679
 30
0.0
 10
-411.2402776567988
 20
355.4629624956785
 30
0.0
 10
-411.1388148241335
 20
355.5012671571531
 30
0.0
 10
-411.06180650153
 20
355.5118821128829
 30
0.0
 10
-410.8821204529534
 20
355.5118821128829
 30
0.0
 10
-410.7687941132475
 20
355.5012671571531
 30
0.0
 10
-410.5223632924499
 20
355.4629624956785
 30
0.0
 10
-410.3892387309668
 20
355.4357333216679
 30
0.0
 10
-410.2648566960552
 20
355.4097978745391
 30
0.0
  0
LINE
  5
122
330
2
100
AcDbEntity
  8
AVERDECKTE
100
AcDbLine
 10
-402.2648566960523
 20
349.0118821128829
 30
0.0
 11
-401.2648566960522
 21
348.0118821128828
 31
0.0
  0
LINE
  5
123
330
2
100
AcDbEntity
  8
AVERDECKTE
100
AcDbLine
 10
-402.2648566960523
 20
357.0118821128827
 30
0.0
 11
-401.2648566960522
 21
358.0118821128829
 31
0.0
  0
LINE
  5
124
330
2
100
AcDbEntity
  8
AVERDECKTE
100
AcDbLine
 10
-402.2648566960523
 20
357.0118821128827
 30
0.0
 11
-402.2648566960523
 21
349.0118821128829
 31
0.0
  0
LINE
  5
125
330
2
100
AcDbEntity
  8
AVERDECKTE
100
AcDbLine
 10
-402.1648566960505
 20
370.0118914679911
 30
0.0
 11
-402.1648566960505
 21
413.0118914679909
 31
0.0
  0
LINE
  5
126
330
2
100
AcDbEntity
  8
AVERDECKTE
100
AcDbLine
 10
-401.2648566960551
 20
413.0118914679911
 30
0.0
 11
-409.7648566960546
 21
413.0118914679911
 31
0.0
  0
LINE
  5
127
330
2
100
AcDbEntity
  8
AVERDECKTE
100
AcDbLine
 10
-407.1648566960509
 20
370.0118914679912
 30
0.0
 11
-401.264856696051
 21
370.0118914679912
 31
0.0
  0
LINE
  5
128
330
2
100
AcDbEntity
  8
AVERDECKTE
100
AcDbLine
 10
-401.2648566960532
 20
369.0118914679912
 30
0.0
 11
-409.7648566960499
 21
369.0118914679912
 31
0.0
  0
LINE
  5
129
330
2
100
AcDbEntity
  8
AVERDECKTE
100
AcDbLine
 10
-409.7648566960499
 20
413.8575857359978
 30
0.0
 11
-401.2648566960532
 21
413.8575857359978
 31
0.0
  0
LINE
  5
12A
330
2
100
AcDbEntity
  8
AVERDECKTE
 48
0.7
100
AcDbLine
 10
-407.1648566960532
 20
413.011891467991
 30
0.0
 11
-407.1648566960532
 21
370.0118914679911
 31
0.0
  0
LINE
  5
12B
330
2
100
AcDbEntity
  8
UMRISS05
100
AcDbLine
 10
-401.2648566960551
 20
413.011891467991
 30
0.0
 11
-401.0048566960493
 21
413.011891467991
 31
0.0
  0
LINE
  5
12C
330
2
100
AcDbEntity
  8
UMRISS05
100
AcDbLine
 10
-401.0048566960493
 20
413.011891467991
 30
0.0
 11
-401.0048566960493
 21
370.0118914679911
 31
0.0
  0
LINE
  5
12D
330
2
100
AcDbEntity
  8
UMRISS05
100
AcDbLine
 10
-401.264856696051
 20
370.0118914679911
 30
0.0
 11
-401.0048566960493
 21
370.0118914679911
 31
0.0
  0
LINE
  5
12E
330
2
100
AcDbEntity
  8
AVERDECKTE
100
AcDbLine
 10
-402.764856696055
 20
459.5118821128828
 30
0.0
 11
-402.764856696055
 21
242.5118821128827
 31
0.0
  0
LINE
  5
12F
330
2
100
AcDbEntity
  8
ACHSEN
 48
0.5
100
AcDbLine
 10
-494.2648566960502
 20
391.5118821128829
 30
0.0
 11
-471.2648566960502
 21
391.5118821128829
 31
0.0
1001
GENIUS_GENODEF_13
1002
{
1000
HIER
1070
     0
1002
}
1002
{
1000
MANEDIT
1070
     0
1002
}
1002
{
1000
NOSEL
1070
     0
1002
}
1002
{
1000
BEHIND
1070
     0
1002
}
1002
{
1000
OTHER
1070
     0
1002
}
1002
{
1000
REACTOR
1002
}
1001
GENIUS_GENOBJ-N-CEN_13
1002
{
1000
OWNER
1000
GEN
1002
}
1001
GENIUS_GENCEN_19
1002
{
1040
3.0
1002
}
  0
DIMENSION
  5
133
330
2
100
AcDbEntity
  8
BEMASSUNG
100
AcDbDimension
  2
*D17
 10
-499.6348755145099
 20
313.5118821128829
 30
0.0
 11
-504.1877404531184
 21
341.5118867904371
 31
0.0
 71
     5
 42
56.00000935510843
  3
Katalog 09
100
AcDbAlignedDimension
 13
-494.2648566960502
 23
369.5118914679913
 33
0.0
 14
-494.2648566960502
 24
313.5118821128829
 34
0.0
 50
90.0
100
AcDbRotatedDimension
  0
DIMENSION
  5
140
330
2
100
AcDbEntity
  8
BEMASSUNG
100
AcDbDimension
  2
*D16
 10
-499.6812010499816
 20
391.5118821128828
 30
0.0
 11
-504.1914329735833
 21
380.5118867904371
 31
0.0
  1
22
 71
     5
 42
21.99999064489146
  3
Katalog 09
100
AcDbAlignedDimension
 13
-494.2648566960502
 23
369.5118914679914
 33
0.0
 14
-494.2648566960502
 24
391.5118821128828
 34
0.0
 50
90.0
100
AcDbRotatedDimension
1001
ACAD_DSTYLE_DIMINSPECT
1070
   396
1000
100%
1070
   395
1000

1070
   394
1070
    33
1070
   393
1070
     0
  0
DIMENSION
  5
14D
330
2
100
AcDbEntity
  8
BEMASSUNG
100
AcDbDimension
  2
*D15
 10
-535.7968371504287
 20
242.5118821128829
 30
0.0
 11
-535.7968371504287
 21
344.2409932295242
 31
0.0
 70
   128
 71
     5
 42
217.0000000000002
  3
Katalog 09
100
AcDbAlignedDimension
 13
-492.7648566960502
 23
459.511882112883
 33
0.0
 14
-492.7648566960502
 24
242.5118821128829
 34
0.0
 50
90.0
100
AcDbRotatedDimension
  0
LINE
  5
15A
330
2
100
AcDbEntity
  8
ACHSEN
 48
0.5
100
AcDbLine
 10
-491.3454733862166
 20
199.1547138745053
 30
0.0
 11
-509.3249909611866
 21
217.1342314494753
 31
0.0
  0
LINE
  5
15B
330
2
100
AcDbEntity
  8
ACHSEN
100
AcDbLine
 10
-484.2648566960935
 20
203.8244500695725
 30
0.0
 11
-484.2648566960935
 21
190.3244500695725
 31
0.0
  0
DIMENSION
  5
15C
330
2
100
AcDbEntity
  8
BEMASSUNG
100
AcDbDimension
  2
*D14
 10
-474.2652095813264
 20
215.9321162796534
 30
0.0
 11
-484.3477794254934
 21
215.9321162796534
 31
0.0
 70
   128
 71
     5
 42
20.0
  3
Katalog 09
100
AcDbAlignedDimension
 13
-494.2652095813264
 23
201.0744500696133
 33
0.0
 14
-474.2652095813264
 24
201.0744500696133
 34
0.0
100
AcDbRotatedDimension
  0
DIMENSION
  5
169
330
2
100
AcDbEntity
  8
BEMASSUNG
100
AcDbDimension
  2
*D13
 10
-519.3526776149727
 20
202.0744500696133
 30
0.0
 11
-519.3526776149727
 21
197.0744500696143
 31
0.0
 70
   128
 71
     5
 42
9.999999999997896
  3
Katalog 09
100
AcDbAlignedDimension
 13
-493.2652095813264
 23
192.0744500696154
 33
0.0
 14
-493.2652095813264
 24
202.0744500696133
 34
0.0
 50
90.0
100
AcDbRotatedDimension
  0
LINE
  5
178
330
2
100
AcDbEntity
  8
UMRISS05
100
AcDbLine
 10
-480.7652095813263
 20
202.0744500695997
 30
0.0
 11
-480.7652095813263
 21
202.7744500695997
 31
0.0
  0
LINE
  5
179
330
2
100
AcDbEntity
  8
UMRISS05
100
AcDbLine
 10
-483.7652095813263
 20
202.0744500695997
 30
0.0
 11
-483.7652095813263
 21
202.7744500695997
 31
0.0
  0
LINE
  5
17A
330
2
100
AcDbEntity
  8
UMRISS05
100
AcDbLine
 10
-483.4584845813263
 20
202.9278125695997
 30
0.0
 11
-483.7652095813265
 21
202.7744500695997
 31
0.0
  0
LINE
  5
17B
330
2
100
AcDbEntity
  8
UMRISS05
100
AcDbLine
 10
-481.0719345813263
 20
202.9278125695997
 30
0.0
 11
-480.7652095813264
 21
202.7744500695997
 31
0.0
  0
LINE
  5
17C
330
2
100
AcDbEntity
  8
UMRISS05
100
AcDbLine
 10
-483.4584845813263
 20
202.9278125695997
 30
0.0
 11
-481.0719345813263
 21
202.9278125695997
 31
0.0
  0
LINE
  5
17D
330
2
100
AcDbEntity
  8
UMRISS05
100
AcDbLine
 10
-480.7652095813264
 20
202.7744500695997
 30
0.0
 11
-483.7652095813265
 21
202.7744500695997
 31
0.0
  0
LINE
  5
17E
330
2
100
AcDbEntity
  8
UMRISS05
100
AcDbLine
 10
-476.2652095813262
 20
200.5744500696006
 30
0.0
 11
-476.2652095813262
 21
197.2744500696019
 31
0.0
  0
LINE
  5
17F
330
2
100
AcDbEntity
  8
UMRISS05
100
AcDbLine
 10
-476.2652095813264
 20
197.2744500696019
 30
0.0
 11
-477.3261675086339
 21
193.574450069602
 31
0.0
  0
LINE
  5
180
330
2
100
AcDbEntity
  8
UMRISS05
100
AcDbLine
 10
-479.2652095813263
 20
197.9744500696018
 30
0.0
 11
-489.7652095813262
 21
197.9744500696018
 31
0.0
  0
LINE
  5
181
330
2
100
AcDbEntity
  8
UMRISS05
100
AcDbLine
 10
-489.7652095813262
 20
197.9744500696018
 30
0.0
 11
-489.7652095813262
 21
200.5744500696006
 31
0.0
  0
LINE
  5
182
330
2
100
AcDbEntity
  8
UMRISS05
100
AcDbLine
 10
-479.2652095813262
 20
193.574450069602
 30
0.0
 11
-479.2652095813262
 21
197.9744500696018
 31
0.0
  0
LINE
  5
183
330
2
100
AcDbEntity
  8
AVERDECKTE
100
AcDbLine
 10
-477.3261675086339
 20
193.574450069602
 30
0.0
 11
-477.4982147400891
 21
192.974450069602
 31
0.0
  0
LINE
  5
184
330
2
100
AcDbEntity
  8
AVERDECKTE
100
AcDbLine
 10
-477.4982147400891
 20
192.974450069602
 30
0.0
 11
-478.3982147400891
 21
192.074450069602
 31
0.0
  0
LINE
  5
185
330
2
100
AcDbEntity
  8
AVERDECKTE
100
AcDbLine
 10
-479.2652095813265
 20
192.2744500696019
 30
0.0
 11
-479.2652095813265
 21
193.574450069602
 31
0.0
  0
ARC
  5
186
330
2
100
AcDbEntity
  8
AVERDECKTE
100
AcDbCircle
 10
-479.0652095813263
 20
192.2744500696019
 30
0.0
 40
0.1999999999999996
100
AcDbArc
 50
180.0
 51
269.9999999999935
  0
LINE
  5
187
330
2
100
AcDbEntity
  8
AVERDECKTE
100
AcDbLine
 10
-477.2652095813262
 20
200.5744500695788
 30
0.0
 11
-477.2652095813262
 21
202.0744500695788
 31
0.0
  0
LINE
  5
188
330
2
100
AcDbEntity
  8
AVERDECKTE
100
AcDbLine
 10
-477.265209581283
 20
192.0744500696157
 30
0.0
 11
-477.265209581283
 21
193.5744500696157
 31
0.0
  0
LINE
  5
189
330
2
100
AcDbEntity
  8
AVERDECKTE
100
AcDbLine
 10
-491.2652095813263
 20
200.5744500695788
 30
0.0
 11
-491.2652095813263
 21
202.0744500695788
 31
0.0
  0
LINE
  5
18A
330
2
100
AcDbEntity
  8
AVERDECKTE
100
AcDbLine
 10
-491.265209581283
 20
192.0744500696157
 30
0.0
 11
-491.265209581283
 21
193.5744500696157
 31
0.0
  0
LINE
  5
18B
330
2
100
AcDbEntity
  8
UMRISS05
100
AcDbLine
 10
-475.7652095813262
 20
194.0744500696157
 30
0.0
 11
-475.7652095813262
 21
200.5744500696147
 31
0.0
  0
LINE
  5
18C
330
2
100
AcDbEntity
  8
UMRISS05
100
AcDbLine
 10
-492.7652095812826
 20
200.5744500695714
 30
0.0
 11
-475.7645038109039
 21
200.5744500695715
 31
0.0
  0
LINE
  5
18D
330
2
100
AcDbEntity
  8
UMRISS05
100
AcDbLine
 10
-492.765209581326
 20
200.5744500696147
 30
0.0
 11
-492.765209581326
 21
193.5744500696157
 31
0.0
  0
LINE
  5
18E
330
2
100
AcDbEntity
  8
UMRISS05
100
AcDbLine
 10
-475.2645038109039
 20
202.0744500695701
 30
0.0
 11
-493.265209581283
 21
202.0744500695701
 31
0.0
  0
LINE
  5
18F
330
2
100
AcDbEntity
  8
UMRISS05
100
AcDbLine
 10
-494.2652095813262
 20
193.0744500696154
 30
0.0
 11
-494.2652095813262
 21
201.0744500696133
 31
0.0
  0
ARC
  5
190
330
2
100
AcDbEntity
  8
UMRISS05
100
AcDbCircle
 10
-493.2652095813264
 20
201.0744500696133
 30
0.0
 40
0.9999999999999984
100
AcDbArc
 50
90.0
 51
180.0
  0
ARC
  5
191
330
2
100
AcDbEntity
  8
UMRISS05
100
AcDbCircle
 10
-493.2652095813264
 20
193.0744500696154
 30
0.0
 40
1.0
100
AcDbArc
 50
180.0
 51
270.0
  0
LINE
  5
192
330
2
100
AcDbEntity
  8
UMRISS05
100
AcDbLine
 10
-474.2652095813262
 20
201.0744500696133
 30
0.0
 11
-474.2652095813262
 21
193.0744500696154
 31
0.0
  0
ARC
  5
193
330
2
100
AcDbEntity
  8
UMRISS05
100
AcDbCircle
 10
-475.2652095813265
 20
201.0744500696133
 30
0.0
 40
0.9999999999999984
100
AcDbArc
 50
0.0
 51
90.0
  0
ARC
  5
194
330
2
100
AcDbEntity
  8
UMRISS05
100
AcDbCircle
 10
-475.2652095813265
 20
193.0744500696154
 30
0.0
 40
1.0
100
AcDbArc
 50
270.0
 51
0.0
  0
LINE
  5
195
330
2
100
AcDbEntity
  8
UMRISS05
100
AcDbLine
 10
-475.764503810904
 20
193.5744500695726
 30
0.0
 11
-492.765209581283
 21
193.5744500695726
 31
0.0
  0
LINE
  5
196
330
2
100
AcDbEntity
  8
UMRISS05
100
AcDbLine
 10
-475.7652095813262
 20
194.0744500696157
 30
0.0
 11
-475.7652095813262
 21
193.5744500696157
 31
0.0
  0
LINE
  5
197
330
2
100
AcDbEntity
  8
UMRISS05
100
AcDbLine
 10
-475.2645038109039
 20
192.0744500695725
 30
0.0
 11
-493.265209581283
 21
192.0744500695725
 31
0.0
  0
LINE
  5
198
330
2
100
AcDbEntity
  8
UMRISS05
100
AcDbLine
 10
-411.2648566960501
 20
301.0118914679912
 30
0.0
 11
-411.9648566960468
 21
301.0118914679912
 31
0.0
  0
LINE
  5
199
330
2
100
AcDbEntity
  8
UMRISS05
100
AcDbLine
 10
-411.2648566960501
 20
298.0118914679912
 30
0.0
 11
-411.9648566960468
 21
298.0118914679912
 31
0.0
  0
LINE
  5
19A
330
2
100
AcDbEntity
  8
AVERDECKTE
100
AcDbLine
 10
-409.768219196057
 20
301.0118914679912
 30
0.0
 11
-411.2648566960501
 21
301.0118914679912
 31
0.0
  0
LINE
  5
19B
330
2
100
AcDbEntity
  8
AVERDECKTE
100
AcDbLine
 10
-409.7682191960467
 20
298.0118914679912
 30
0.0
 11
-411.2648566960501
 21
298.0118914679912
 31
0.0
  0
LINE
  5
19C
330
2
100
AcDbEntity
  8
UMRISS05
100
AcDbLine
 10
-412.1182191960519
 20
298.3186164679911
 30
0.0
 11
-411.9648566960519
 21
298.0118914679912
 31
0.0
  0
LINE
  5
19D
330
2
100
AcDbEntity
  8
UMRISS05
100
AcDbLine
 10
-412.1182191960519
 20
300.7051664679912
 30
0.0
 11
-411.9648566960519
 21
301.0118914679912
 31
0.0
  0
LINE
  5
19E
330
2
100
AcDbEntity
  8
UMRISS05
100
AcDbLine
 10
-412.1182191960519
 20
298.3186164679911
 30
0.0
 11
-412.1182191960519
 21
300.7051664679912
 31
0.0
  0
LINE
  5
19F
330
2
100
AcDbEntity
  8
UMRISS05
100
AcDbLine
 10
-411.9648566960519
 20
301.0118914679912
 30
0.0
 11
-411.9648566960519
 21
298.0118914679912
 31
0.0
  0
LINE
  5
1A0
330
2
100
AcDbEntity
  8
UMRISS05
100
AcDbLine
 10
-411.2648566960501
 20
329.0118914679912
 30
0.0
 11
-411.9648566960468
 21
329.0118914679912
 31
0.0
  0
LINE
  5
1A1
330
2
100
AcDbEntity
  8
UMRISS05
100
AcDbLine
 10
-411.2648566960501
 20
326.0118914679912
 30
0.0
 11
-411.9648566960468
 21
326.0118914679912
 31
0.0
  0
LINE
  5
1A2
330
2
100
AcDbEntity
  8
AVERDECKTE
100
AcDbLine
 10
-409.7682191960467
 20
329.0118914679912
 30
0.0
 11
-411.2648566960501
 21
329.0118914679912
 31
0.0
  0
LINE
  5
1A3
330
2
100
AcDbEntity
  8
AVERDECKTE
100
AcDbLine
 10
-409.7682191960467
 20
326.0118914679912
 30
0.0
 11
-411.2648566960501
 21
326.0118914679912
 31
0.0
  0
LINE
  5
1A4
330
2
100
AcDbEntity
  8
UMRISS05
100
AcDbLine
 10
-412.1182191960519
 20
326.3186164679912
 30
0.0
 11
-411.9648566960519
 21
326.0118914679912
 31
0.0
  0
LINE
  5
1A5
330
2
100
AcDbEntity
  8
UMRISS05
100
AcDbLine
 10
-412.1182191960519
 20
328.7051664679912
 30
0.0
 11
-411.9648566960519
 21
329.0118914679912
 31
0.0
  0
LINE
  5
1A6
330
2
100
AcDbEntity
  8
UMRISS05
100
AcDbLine
 10
-412.1182191960519
 20
326.3186164679912
 30
0.0
 11
-412.1182191960519
 21
328.7051664679912
 31
0.0
  0
LINE
  5
1A7
330
2
100
AcDbEntity
  8
UMRISS05
100
AcDbLine
 10
-411.9648566960519
 20
329.0118914679912
 30
0.0
 11
-411.9648566960519
 21
326.0118914679912
 31
0.0
  0
LINE
  5
1A8
330
2
100
AcDbEntity
  8
AVERDECKTE
100
AcDbLine
 10
-407.1648566960539
 20
313.0118914679911
 30
0.0
 11
-409.5648566960541
 21
313.0118914679911
 31
0.0
  0
LINE
  5
1A9
330
2
100
AcDbEntity
  8
ACHSEN
100
AcDbLine
 10
-504.608254607447
 20
313.5118821128827
 30
0.0
 11
-471.2648566960502
 21
313.5118821128827
 31
0.0
1001
GENIUS_GENODEF_13
1002
{
1000
HIER
1070
     0
1002
}
1002
{
1000
MANEDIT
1070
     0
1002
}
1002
{
1000
NOSEL
1070
     0
1002
}
1002
{
1000
BEHIND
1070
     0
1002
}
1002
{
1000
OTHER
1070
     0
1002
}
1002
{
1000
REACTOR
1002
}
1001
GENIUS_GENOBJ-N-CEN_13
1002
{
1000
OWNER
1000
GEN
1002
}
1001
GENIUS_GENCEN_19
1002
{
1040
3.0
1002
}
  0
LINE
  5
1AA
330
2
100
AcDbEntity
  8
ACHSEN
100
AcDbLine
 10
-491.0148566960502
 20
352.4948504927244
 30
0.0
 11
-477.5148566960501
 21
352.4948504927244
 31
0.0
  0
LINE
  5
1AB
330
2
100
AcDbEntity
  8
ACHSEN
100
AcDbLine
 10
-484.2648566960502
 20
359.2278188725659
 30
0.0
 11
-484.2648566960502
 21
345.7618821128829
 31
0.0
  0
LINE
  5
1AC
330
2
100
AcDbEntity
  8
AVERDECKTE
100
AcDbLine
 10
-492.7648566960502
 20
355.0118821129151
 30
0.0
 11
-493.9719634772368
 21
355.0118821129151
 31
0.0
  0
LINE
  5
1AD
330
2
100
AcDbEntity
  8
AVERDECKTE
100
AcDbLine
 10
-492.7648566960502
 20
350.0118821129151
 30
0.0
 11
-493.9719634772368
 21
350.0118821129151
 31
0.0
  0
ELLIPSE
  5
1AE
330
2
100
AcDbEntity
  8
AVERDECKTE
100
AcDbEllipse
 10
-492.7648566960502
 20
352.5118821129151
 30
0.0
 11
3.535533905932766
 21
0.0
 31
0.0
210
0.0
220
0.0
230
1.0
 40
0.7071067811865418
 41
4.712388980384688
 42
7.853981633974482
  0
ELLIPSE
  5
1AF
330
2
100
AcDbEntity
  8
AVERDECKTE
100
AcDbEllipse
 10
-494.2648566960502
 20
352.5118821129151
 30
0.0
 11
3.535533905932766
 21
0.000000000000001
 31
0.0
210
0.0
220
0.0
230
1.0
 40
0.7071067811865383
 41
-1.28403977458335
 42
1.28403977458335
  0
SPLINE
  5
1B0
330
2
100
AcDbEntity
  8
AVERDECKTE
100
AcDbSpline
210
0.0
220
0.0
230
1.0
 70
     8
 71
     3
 72
    14
 73
    10
 74
     0
 42
0.000000001
 43
0.0000000001
 40
0.0763115330505305
 40
0.0763115330505305
 40
0.0763115330505305
 40
0.0763115330505305
 40
0.1144287000804588
 40
0.1144287000804588
 40
0.1525458671103871
 40
0.1525458671103871
 40
0.1906630341403155
 40
0.1906630341403155
 40
0.228780201170244
 40
0.228780201170244
 40
0.228780201170244
 40
0.228780201170244
 10
-493.2648566960502
 20
354.9097978745716
 30
0.0
 10
-493.3892387309618
 20
354.9357333217004
 30
0.0
 10
-493.5223632924448
 20
354.962962495711
 30
0.0
 10
-493.7687941132425
 20
355.0012671571856
 30
0.0
 10
-493.8821204529485
 20
355.0118821129151
 30
0.0
 10
-494.0618065015251
 20
355.0118821129151
 30
0.0
 10
-494.1388148241285
 20
355.0012671571856
 30
0.0
 10
-494.240277656794
 20
354.962962495711
 30
0.0
 10
-494.2648566960502
 20
354.9357333217004
 30
0.0
 10
-494.2648566960502
 20
354.9097978745716
 30
0.0
  0
SPLINE
  5
1B1
330
2
100
AcDbEntity
  8
AVERDECKTE
100
AcDbSpline
210
0.0
220
0.0
230
1.0
 70
     8
 71
     3
 72
    14
 73
    10
 74
     0
 42
0.000000001
 43
0.0000000001
 40
0.3814032672713047
 40
0.3814032672713047
 40
0.3814032672713047
 40
0.3814032672713047
 40
0.4195204343012331
 40
0.4195204343012331
 40
0.4576376013311615
 40
0.4576376013311615
 40
0.4957547683610898
 40
0.4957547683610898
 40
0.5338719353910181
 40
0.5338719353910181
 40
0.5338719353910181
 40
0.5338719353910181
 10
-494.2648566960502
 20
350.1139663512589
 30
0.0
 10
-494.2648566960502
 20
350.08803090413
 30
0.0
 10
-494.240277656794
 20
350.0608017301194
 30
0.0
 10
-494.1388148241285
 20
350.022497068645
 30
0.0
 10
-494.0618065015251
 20
350.0118821129151
 30
0.0
 10
-493.8821204529485
 20
350.0118821129151
 30
0.0
 10
-493.7687941132425
 20
350.022497068645
 30
0.0
 10
-493.5223632924448
 20
350.0608017301194
 30
0.0
 10
-493.3892387309619
 20
350.08803090413
 30
0.0
 10
-493.2648566960502
 20
350.1139663512589
 30
0.0
  0
CIRCLE
  5
1B2
330
2
100
AcDbEntity
  8
UMRISS05
100
AcDbCircle
 10
-484.2648566960502
 20
352.5118821128829
 30
0.0
 40
2.75
  0
CIRCLE
  5
1B3
330
2
100
AcDbEntity
  8
UMRISS05
100
AcDbCircle
 10
-484.2648566960502
 20
352.5118821128829
 30
0.0
 40
5.0
  0
CIRCLE
  5
1B4
330
2
100
AcDbEntity
  8
UMRISS05
100
AcDbCircle
 10
-484.2648566960502
 20
352.5118821128829
 30
0.0
 40
4.0
  0
LINE
  5
1B5
330
2
100
AcDbEntity
  8
UMRISS05
100
AcDbLine
 10
-485.7648566960502
 20
329.1618821128829
 30
0.0
 11
-484.338500831383
 21
329.1618821128829
 31
0.0
  0
ARC
  5
1B6
330
2
100
AcDbEntity
  8
UMRISS05
100
AcDbCircle
 10
-485.7648566960502
 20
327.5118821128829
 30
0.0
 40
1.649999999999999
100
AcDbArc
 50
90.0
 51
270.0
  0
LINE
  5
1B7
330
2
100
AcDbEntity
  8
UMRISS05
100
AcDbLine
 10
-484.338500831383
 20
325.861882112883
 30
0.0
 11
-485.7648566960502
 21
325.861882112883
 31
0.0
  0
SPLINE
  5
1B8
330
2
100
AcDbEntity
  8
UMRISS05
100
AcDbSpline
210
0.0
220
0.0
230
1.0
 70
    12
 71
     2
 72
     6
 73
     3
 74
     0
 42
0.000000001
 43
0.0000000001
 40
0.0
 40
0.0
 40
0.0
 40
0.0074036886590344
 40
0.0074036886590344
 40
0.0074036886590344
 10
-481.4045450208494
 20
299.7019994010592
 30
0.0
 41
1.0
 10
-481.6569781827609
 20
299.6713510500441
 30
0.0
 41
1.357093436693618
 10
-481.7966937756867
 20
299.6544582850834
 30
0.0
 41
1.686909074955913
  0
LINE
  5
1B9
330
2
100
AcDbEntity
  8
UMRISS05
100
AcDbLine
 10
-480.6931517440015
 20
299.8684066145113
 30
0.0
 11
-481.8064605219259
 21
299.7853085381753
 31
0.0
  0
SPLINE
  5
1BA
330
2
100
AcDbEntity
  8
UMRISS05
100
AcDbSpline
210
0.0
220
0.0
230
1.0
 70
    12
 71
     2
 72
     6
 73
     3
 74
     0
 42
0.000000001
 43
0.0000000001
 40
0.0
 40
0.0
 40
0.0
 40
0.0074036886590343
 40
0.0074036886590343
 40
0.0074036886590343
 10
-482.4549739842266
 20
300.3721937880838
 30
0.0
 41
1.0
 10
-482.4243256332112
 20
300.1197606261721
 30
0.0
 41
1.357093436693616
 10
-482.4074328682507
 20
299.9800450332466
 30
0.0
 41
1.686909074955913
  0
LINE
  5
1BB
330
2
100
AcDbEntity
  8
UMRISS05
100
AcDbLine
 10
-482.6213811976786
 20
301.0835870649319
 30
0.0
 11
-482.5382831213426
 21
299.9702782870074
 31
0.0
  0
ARC
  5
1BC
330
2
100
AcDbEntity
  8
UMRISS05
100
AcDbCircle
 10
-482.7104055429852
 20
299.9574309598179
 30
0.0
 40
0.1726012220351236
100
AcDbArc
 50
265.7313220328063
 51
4.268677967206863
  0
SPLINE
  5
1BD
330
2
100
AcDbEntity
  8
UMRISS05
100
AcDbSpline
210
0.0
220
0.0
230
1.0
 70
     8
 71
     3
 72
    18
 73
    14
 74
     0
 42
0.000000001
 43
0.0000000001
 40
0.1307806668072011
 40
0.1307806668072011
 40
0.1307806668072011
 40
0.1307806668072011
 40
0.1428948119469433
 40
0.1428948119469433
 40
0.1502675919277733
 40
0.1502675919277733
 40
0.1576403719086032
 40
0.1576403719086032
 40
0.1650131518894332
 40
0.1650131518894332
 40
0.1723859318702632
 40
0.1723859318702632
 40
0.1845000770100053
 40
0.1845000770100053
 40
0.1845000770100053
 40
0.1845000770100053
 10
-482.4074328682506
 20
299.9800450332466
 30
0.0
 10
-482.4028278925713
 20
299.9419584968534
 30
0.0
 10
-482.4059680997295
 20
299.9011249301846
 30
0.0
 10
-482.4217919104864
 20
299.8432868803612
 30
0.0
 10
-482.4310943456247
 20
299.8197429413709
 30
0.0
 10
-482.4564736237022
 20
299.7752864157757
 30
0.0
 10
-482.4725708548146
 20
299.7543518897849
 30
0.0
 10
-482.5073264729521
 20
299.7195962716473
 30
0.0
 10
-482.528260998943
 20
299.7034990405351
 30
0.0
 10
-482.5727175245383
 20
299.6781197624575
 30
0.0
 10
-482.5962614635284
 20
299.6688173273191
 30
0.0
 10
-482.6540995133519
 20
299.6529935165623
 30
0.0
 10
-482.6949330800206
 20
299.649853309404
 30
0.0
 10
-482.7330196164139
 20
299.6544582850834
 30
0.0
  0
ARC
  5
1BE
330
2
100
AcDbEntity
  8
UMRISS05
100
AcDbCircle
 10
-482.7104055429852
 20
299.066333265948
 30
0.0
 40
0.1726012220351236
100
AcDbArc
 50
355.7313220328063
 51
94.26867796719372
  0
SPLINE
  5
1BF
330
2
100
AcDbEntity
  8
UMRISS05
100
AcDbSpline
210
0.0
220
0.0
230
1.0
 70
     8
 71
     3
 72
    18
 73
    14
 74
     0
 42
0.000000001
 43
0.0000000001
 40
0.1307806668072011
 40
0.1307806668072011
 40
0.1307806668072011
 40
0.1307806668072011
 40
0.1428948119469434
 40
0.1428948119469434
 40
0.1502675919277733
 40
0.1502675919277733
 40
0.1576403719086033
 40
0.1576403719086033
 40
0.1650131518894332
 40
0.1650131518894332
 40
0.1723859318702632
 40
0.1723859318702632
 40
0.1845000770100053
 40
0.1845000770100053
 40
0.1845000770100053
 40
0.1845000770100053
 10
-482.7330196164139
 20
299.3693059406826
 30
0.0
 10
-482.6949330800206
 20
299.373910916362
 30
0.0
 10
-482.6540995133519
 20
299.3707707092036
 30
0.0
 10
-482.5962614635284
 20
299.3549468984468
 30
0.0
 10
-482.5727175245383
 20
299.3456444633084
 30
0.0
 10
-482.528260998943
 20
299.3202651852309
 30
0.0
 10
-482.5073264729521
 20
299.3041679541186
 30
0.0
 10
-482.4725708548146
 20
299.2694123359811
 30
0.0
 10
-482.4564736237022
 20
299.2484778099902
 30
0.0
 10
-482.4310943456247
 20
299.204021284395
 30
0.0
 10
-482.4217919104864
 20
299.1804773454047
 30
0.0
 10
-482.4059680997295
 20
299.1226392955813
 30
0.0
 10
-482.4028278925713
 20
299.0818057289124
 30
0.0
 10
-482.4074328682506
 20
299.0437191925193
 30
0.0
  0
LINE
  5
1C0
330
2
100
AcDbEntity
  8
UMRISS05
100
AcDbLine
 10
-482.6213811976786
 20
297.9401771608343
 30
0.0
 11
-482.5382831213426
 21
299.0534859387586
 31
0.0
  0
SPLINE
  5
1C1
330
2
100
AcDbEntity
  8
UMRISS05
100
AcDbSpline
210
0.0
220
0.0
230
1.0
 70
    12
 71
     2
 72
     6
 73
     3
 74
     0
 42
0.000000001
 43
0.0000000001
 40
0.1864395669923014
 40
0.1864395669923014
 40
0.1864395669923014
 40
0.1938432556513322
 40
0.1938432556513322
 40
0.1938432556513322
 10
-482.4074328682505
 20
299.0437191925193
 30
0.0
 41
1.686909074955607
 10
-482.4243256332111
 20
298.9040035995936
 30
0.0
 41
1.35709343669345
 10
-482.4549739842266
 20
298.6515704376822
 30
0.0
 41
1.0
  0
SPLINE
  5
1C2
330
2
100
AcDbEntity
  8
UMRISS05
100
AcDbSpline
210
0.0
220
0.0
230
1.0
 70
    12
 71
     2
 72
     6
 73
     3
 74
     0
 42
0.000000001
 43
0.0000000001
 40
0.0
 40
0.0
 40
0.0
 40
0.0074036886590344
 40
0.0074036886590344
 40
0.0074036886590344
 10
-483.125168371251
 20
299.3217648247066
 30
0.0
 41
1.0
 10
-482.8727352093395
 20
299.3524131757221
 30
0.0
 41
1.357093436693618
 10
-482.7330196164139
 20
299.3693059406826
 30
0.0
 41
1.686909074955913
  0
LINE
  5
1C3
330
2
100
AcDbEntity
  8
UMRISS05
100
AcDbLine
 10
-483.836561648099
 20
299.1553576112546
 30
0.0
 11
-482.7232528701746
 21
299.2384556875906
 31
0.0
  0
ARC
  5
1C4
330
2
100
AcDbEntity
  8
UMRISS05
100
AcDbCircle
 10
-481.8193078491153
 20
299.066333265948
 30
0.0
 40
0.1726012220351236
100
AcDbArc
 50
85.731322032803
 51
184.2686779672068
  0
SPLINE
  5
1C5
330
2
100
AcDbEntity
  8
UMRISS05
100
AcDbSpline
210
0.0
220
0.0
230
1.0
 70
     8
 71
     3
 72
    18
 73
    14
 74
     0
 42
0.000000001
 43
0.0000000001
 40
0.1307806668072012
 40
0.1307806668072012
 40
0.1307806668072012
 40
0.1307806668072012
 40
0.1428948119469434
 40
0.1428948119469434
 40
0.1502675919277733
 40
0.1502675919277733
 40
0.1576403719086033
 40
0.1576403719086033
 40
0.1650131518894333
 40
0.1650131518894333
 40
0.1723859318702632
 40
0.1723859318702632
 40
0.1845000770100055
 40
0.1845000770100055
 40
0.1845000770100055
 40
0.1845000770100055
 10
-482.1222805238499
 20
299.0437191925193
 30
0.0
 10
-482.1268854995292
 20
299.0818057289124
 30
0.0
 10
-482.123745292371
 20
299.1226392955813
 30
0.0
 10
-482.1079214816141
 20
299.1804773454047
 30
0.0
 10
-482.0986190464757
 20
299.204021284395
 30
0.0
 10
-482.0732397683982
 20
299.2484778099902
 30
0.0
 10
-482.0571425372859
 20
299.2694123359811
 30
0.0
 10
-482.0223869191483
 20
299.3041679541186
 30
0.0
 10
-482.0014523931575
 20
299.3202651852309
 30
0.0
 10
-481.9569958675621
 20
299.3456444633084
 30
0.0
 10
-481.9334519285721
 20
299.3549468984468
 30
0.0
 10
-481.8756138787486
 20
299.3707707092036
 30
0.0
 10
-481.8347803120797
 20
299.373910916362
 30
0.0
 10
-481.7966937756866
 20
299.3693059406826
 30
0.0
  0
LINE
  5
1C6
330
2
100
AcDbEntity
  8
UMRISS05
100
AcDbLine
 10
-480.6931517440015
 20
299.1553576112546
 30
0.0
 11
-481.8064605219259
 21
299.2384556875906
 31
0.0
  0
SPLINE
  5
1C7
330
2
100
AcDbEntity
  8
UMRISS05
100
AcDbSpline
210
0.0
220
0.0
230
1.0
 70
    12
 71
     2
 72
     6
 73
     3
 74
     0
 42
0.000000001
 43
0.0000000001
 40
0.1864395669923013
 40
0.1864395669923013
 40
0.1864395669923013
 40
0.1938432556513321
 40
0.1938432556513321
 40
0.1938432556513321
 10
-481.7966937756865
 20
299.3693059406825
 30
0.0
 41
1.6869090749556
 10
-481.656978182761
 20
299.3524131757222
 30
0.0
 41
1.357093436693448
 10
-481.4045450208494
 20
299.3217648247066
 30
0.0
 41
1.0
  0
SPLINE
  5
1C8
330
2
100
AcDbEntity
  8
UMRISS05
100
AcDbSpline
210
0.0
220
0.0
230
1.0
 70
    12
 71
     2
 72
     6
 73
     3
 74
     0
 42
0.000000001
 43
0.0000000001
 40
0.0
 40
0.0
 40
0.0
 40
0.0074036886590343
 40
0.0074036886590343
 40
0.0074036886590343
 10
-482.0747394078739
 20
298.6515704376822
 30
0.0
 41
1.0
 10
-482.1053877588894
 20
298.9040035995937
 30
0.0
 41
1.35709343669362
 10
-482.1222805238499
 20
299.0437191925193
 30
0.0
 41
1.686909074955919
  0
LINE
  5
1C9
330
2
100
AcDbEntity
  8
UMRISS05
100
AcDbLine
 10
-481.9083321944218
 20
297.9401771608343
 30
0.0
 11
-481.9914302707579
 21
299.0534859387586
 31
0.0
  0
LINE
  5
1CA
330
2
100
AcDbEntity
  8
UMRISS05
100
AcDbLine
 10
-481.9083321944218
 20
301.0835870649319
 30
0.0
 11
-481.9914302707579
 21
299.9702782870074
 31
0.0
  0
SPLINE
  5
1CB
330
2
100
AcDbEntity
  8
UMRISS05
100
AcDbSpline
210
0.0
220
0.0
230
1.0
 70
    12
 71
     2
 72
     6
 73
     3
 74
     0
 42
0.000000001
 43
0.0000000001
 40
0.1864395669923015
 40
0.1864395669923015
 40
0.1864395669923015
 40
0.1938432556513323
 40
0.1938432556513323
 40
0.1938432556513323
 10
-482.1222805238498
 20
299.9800450332466
 30
0.0
 41
1.686909074955601
 10
-482.1053877588893
 20
300.1197606261724
 30
0.0
 41
1.357093436693449
 10
-482.0747394078739
 20
300.3721937880838
 30
0.0
 41
1.0
  0
LINE
  5
1CC
330
2
100
AcDbEntity
  8
UMRISS05
100
AcDbLine
 10
-483.836561648099
 20
299.8684066145113
 30
0.0
 11
-482.7232528701746
 21
299.7853085381753
 31
0.0
  0
SPLINE
  5
1CD
330
2
100
AcDbEntity
  8
UMRISS05
100
AcDbSpline
210
0.0
220
0.0
230
1.0
 70
    12
 71
     2
 72
     6
 73
     3
 74
     0
 42
0.000000001
 43
0.0000000001
 40
0.1864395669923013
 40
0.1864395669923013
 40
0.1864395669923013
 40
0.1938432556513321
 40
0.1938432556513321
 40
0.1938432556513321
 10
-482.733019616414
 20
299.6544582850834
 30
0.0
 41
1.6869090749556
 10
-482.8727352093396
 20
299.6713510500439
 30
0.0
 41
1.357093436693448
 10
-483.125168371251
 20
299.7019994010592
 30
0.0
 41
1.0
  0
ARC
  5
1CE
330
2
100
AcDbEntity
  8
UMRISS05
100
AcDbCircle
 10
-481.8193078491153
 20
299.9574309598179
 30
0.0
 40
0.1726012220351237
100
AcDbArc
 50
175.7313220328063
 51
274.2686779671938
  0
SPLINE
  5
1CF
330
2
100
AcDbEntity
  8
UMRISS05
100
AcDbSpline
210
0.0
220
0.0
230
1.0
 70
     8
 71
     3
 72
    18
 73
    14
 74
     0
 42
0.000000001
 43
0.0000000001
 40
0.1307806668072011
 40
0.1307806668072011
 40
0.1307806668072011
 40
0.1307806668072011
 40
0.1428948119469433
 40
0.1428948119469433
 40
0.1502675919277733
 40
0.1502675919277733
 40
0.1576403719086032
 40
0.1576403719086032
 40
0.1650131518894332
 40
0.1650131518894332
 40
0.1723859318702632
 40
0.1723859318702632
 40
0.1845000770100054
 40
0.1845000770100054
 40
0.1845000770100054
 40
0.1845000770100054
 10
-481.7966937756866
 20
299.6544582850834
 30
0.0
 10
-481.8347803120797
 20
299.649853309404
 30
0.0
 10
-481.8756138787486
 20
299.6529935165623
 30
0.0
 10
-481.9334519285721
 20
299.6688173273191
 30
0.0
 10
-481.9569958675621
 20
299.6781197624575
 30
0.0
 10
-482.0014523931575
 20
299.7034990405351
 30
0.0
 10
-482.0223869191483
 20
299.7195962716473
 30
0.0
 10
-482.0571425372859
 20
299.7543518897849
 30
0.0
 10
-482.0732397683982
 20
299.7752864157757
 30
0.0
 10
-482.0986190464757
 20
299.8197429413709
 30
0.0
 10
-482.1079214816141
 20
299.8432868803612
 30
0.0
 10
-482.123745292371
 20
299.9011249301846
 30
0.0
 10
-482.1268854995292
 20
299.9419584968534
 30
0.0
 10
-482.1222805238499
 20
299.9800450332466
 30
0.0
  0
SPLINE
  5
1D0
330
2
100
AcDbEntity
  8
UMRISS05
100
AcDbSpline
210
0.0
220
0.0
230
1.0
 70
    28
 71
     2
 72
     6
 73
     3
 74
     0
 42
0.000000001
 43
0.0000000001
 40
0.0
 40
0.0
 40
0.0
 40
0.1376359333936737
 40
0.1376359333936737
 40
0.1376359333936737
 10
-483.125168371251
 20
299.7019994010592
 30
0.0
 41
1.0
 10
-483.3437858681969
 20
299.7580060870586
 30
0.0
 41
1.035797791375359
 10
-483.7116960651183
 20
299.8522845008996
 30
0.0
 41
1.003318069934927
  0
SPLINE
  5
1D1
330
2
100
AcDbEntity
  8
UMRISS05
100
AcDbSpline
210
0.0
220
0.0
230
1.0
 70
    28
 71
     2
 72
     6
 73
     3
 74
     0
 42
0.000000001
 43
0.0000000001
 40
0.0066886685476671
 40
0.0066886685476671
 40
0.0066886685476671
 40
0.1443246019424431
 40
0.1443246019424431
 40
0.1443246019424431
 10
-483.7116960651183
 20
299.1714797248663
 30
0.0
 41
1.00331806994064
 10
-483.3437858681589
 20
299.2657581387171
 30
0.0
 41
1.035797791442895
 10
-483.125168371251
 20
299.3217648247066
 30
0.0
 41
1.0
  0
SPLINE
  5
1D2
330
2
100
AcDbEntity
  8
UMRISS05
100
AcDbSpline
210
0.0
220
0.0
230
1.0
 70
    28
 71
     2
 72
     6
 73
     3
 74
     0
 42
0.000000001
 43
0.0000000001
 40
0.0
 40
0.0
 40
0.0
 40
0.1376359332989502
 40
0.1376359332989502
 40
0.1376359332989502
 10
-482.0747394078739
 20
300.3721937880838
 30
0.0
 41
1.0
 10
-482.0187327210917
 20
300.5908112880851
 30
0.0
 41
1.035797784978621
 10
-481.9244543080336
 20
300.958721481951
 30
0.0
 41
1.003318069389008
  0
SPLINE
  5
1D3
330
2
100
AcDbEntity
  8
UMRISS05
100
AcDbSpline
210
0.0
220
0.0
230
1.0
 70
    28
 71
     2
 72
     6
 73
     3
 74
     0
 42
0.000000001
 43
0.0000000001
 40
0.0066886686434352
 40
0.0066886686434352
 40
0.0066886686434352
 40
0.1443246019424431
 40
0.1443246019424431
 40
0.1443246019424431
 10
-482.605259084067
 20
300.958721481951
 30
0.0
 41
1.003318069389957
 10
-482.5109806710089
 20
300.5908112880856
 30
0.0
 41
1.035797784989171
 10
-482.4549739842266
 20
300.3721937880838
 30
0.0
 41
1.0
  0
SPLINE
  5
1D4
330
2
100
AcDbEntity
  8
UMRISS05
100
AcDbSpline
210
0.0
220
0.0
230
1.0
 70
    28
 71
     2
 72
     6
 73
     3
 74
     0
 42
0.000000001
 43
0.0000000001
 40
0.0
 40
0.0
 40
0.0
 40
0.1376359333936737
 40
0.1376359333936737
 40
0.1376359333936737
 10
-481.4045450208494
 20
299.3217648247066
 30
0.0
 41
1.0
 10
-481.1859275239036
 20
299.2657581387072
 30
0.0
 41
1.035797791375359
 10
-480.8180173269822
 20
299.1714797248663
 30
0.0
 41
1.003318069934927
  0
SPLINE
  5
1D5
330
2
100
AcDbEntity
  8
UMRISS05
100
AcDbSpline
210
0.0
220
0.0
230
1.0
 70
    28
 71
     2
 72
     6
 73
     3
 74
     0
 42
0.000000001
 43
0.0000000001
 40
0.0066886685476671
 40
0.0066886685476671
 40
0.0066886685476671
 40
0.1443246019424431
 40
0.1443246019424431
 40
0.1443246019424431
 10
-480.8180173269822
 20
299.8522845008996
 30
0.0
 41
1.00331806994064
 10
-481.1859275239416
 20
299.7580060870488
 30
0.0
 41
1.035797791442895
 10
-481.4045450208494
 20
299.7019994010592
 30
0.0
 41
1.0
  0
SPLINE
  5
1D6
330
2
100
AcDbEntity
  8
UMRISS05
100
AcDbSpline
210
0.0
220
0.0
230
1.0
 70
    28
 71
     2
 72
     6
 73
     3
 74
     0
 42
0.000000001
 43
0.0000000001
 40
0.0
 40
0.0
 40
0.0
 40
0.1376359334142349
 40
0.1376359334142349
 40
0.1376359334142349
 10
-482.4549739842266
 20
298.6515704376822
 30
0.0
 41
1.0
 10
-482.5109806700542
 20
298.4329529414064
 30
0.0
 41
1.035797792744685
 10
-482.605259084067
 20
298.0650427438149
 30
0.0
 41
1.003318070051649
  0
SPLINE
  5
1D7
330
2
100
AcDbEntity
  8
UMRISS05
100
AcDbSpline
210
0.0
220
0.0
230
1.0
 70
    28
 71
     2
 72
     6
 73
     3
 74
     0
 42
0.000000001
 43
0.0000000001
 40
0.0066886685305404
 40
0.0066886685305404
 40
0.0066886685305404
 40
0.1443246019424431
 40
0.1443246019424431
 40
0.1443246019424431
 10
-481.9244543080336
 20
298.0650427438149
 30
0.0
 41
1.003318070038472
 10
-482.0187327220267
 20
298.4329529413301
 30
0.0
 41
1.035797792590058
 10
-482.0747394078739
 20
298.6515704376822
 30
0.0
 41
1.0
  0
SPLINE
  5
1D8
330
2
100
AcDbEntity
  8
UMRISS05
100
AcDbSpline
210
0.0
220
0.0
230
1.0
 70
     8
 71
     3
 72
    12
 73
     8
 74
     0
 42
0.000000001
 43
0.0000000001
 40
0.0209582253696219
 40
0.0209582253696219
 40
0.0209582253696219
 40
0.0209582253696219
 40
0.0262100952007496
 40
0.0262100952007496
 40
0.0314079723979964
 40
0.0314079723979964
 40
0.0356231486981253
 40
0.0356231486981253
 40
0.0356231486981253
 40
0.0356231486981253
 10
-483.836561648099
 20
299.8684066145113
 30
0.0
 10
-483.8191039780851
 20
299.8671035629014
 30
0.0
 10
-483.798579981856
 20
299.8652151231187
 30
0.0
 10
-483.7665873840203
 20
299.8616595352081
 30
0.0
 10
-483.7494375654409
 20
299.8593679932828
 30
0.0
 10
-483.7275501502575
 20
299.8557870773694
 30
0.0
 10
-483.7180974779522
 20
299.8539248877478
 30
0.0
 10
-483.7116960651183
 20
299.8522845008996
 30
0.0
  0
SPLINE
  5
1D9
330
2
100
AcDbEntity
  8
UMRISS05
100
AcDbSpline
210
0.0
220
0.0
230
1.0
 70
     8
 71
     3
 72
    12
 73
     8
 74
     0
 42
0.000000001
 43
0.0000000001
 40
0.0478894890006209
 40
0.0478894890006209
 40
0.0478894890006209
 40
0.0478894890006209
 40
0.0521046653007499
 40
0.0521046653007499
 40
0.0573025424979967
 40
0.0573025424979967
 40
0.0625544123291244
 40
0.0625544123291244
 40
0.0625544123291244
 40
0.0625544123291244
 10
-483.7116960651183
 20
299.1714797248663
 30
0.0
 10
-483.7180974779522
 20
299.1698393380181
 30
0.0
 10
-483.7275501502575
 20
299.1679771483965
 30
0.0
 10
-483.7494375654409
 20
299.1643962324833
 30
0.0
 10
-483.7665873840203
 20
299.1621046905578
 30
0.0
 10
-483.798579981856
 20
299.1585491026474
 30
0.0
 10
-483.8191039780851
 20
299.1566606628645
 30
0.0
 10
-483.836561648099
 20
299.1553576112546
 30
0.0
  0
SPLINE
  5
1DA
330
2
100
AcDbEntity
  8
UMRISS05
100
AcDbSpline
210
0.0
220
0.0
230
1.0
 70
     8
 71
     3
 72
    12
 73
     8
 74
     0
 42
0.000000001
 43
0.0000000001
 40
0.0209582253696219
 40
0.0209582253696219
 40
0.0209582253696219
 40
0.0209582253696219
 40
0.0262100952007496
 40
0.0262100952007496
 40
0.0314079723979964
 40
0.0314079723979964
 40
0.035623148698123
 40
0.035623148698123
 40
0.035623148698123
 40
0.035623148698123
 10
-481.9083321944218
 20
301.0835870649319
 30
0.0
 10
-481.9096352460318
 20
301.0661293949179
 30
0.0
 10
-481.9115236858146
 20
301.0456053986889
 30
0.0
 10
-481.915079273725
 20
301.0136128008529
 30
0.0
 10
-481.9173708156505
 20
300.9964629822736
 30
0.0
 10
-481.9209517315639
 20
300.9745755670902
 30
0.0
 10
-481.9228139211854
 20
300.9651228947851
 30
0.0
 10
-481.9244543080336
 20
300.958721481951
 30
0.0
  0
SPLINE
  5
1DB
330
2
100
AcDbEntity
  8
UMRISS05
100
AcDbSpline
210
0.0
220
0.0
230
1.0
 70
     8
 71
     3
 72
    12
 73
     8
 74
     0
 42
0.000000001
 43
0.0000000001
 40
0.0478894890006233
 40
0.0478894890006233
 40
0.0478894890006233
 40
0.0478894890006233
 40
0.0521046653007499
 40
0.0521046653007499
 40
0.0573025424979966
 40
0.0573025424979966
 40
0.0625544123291244
 40
0.0625544123291244
 40
0.0625544123291244
 40
0.0625544123291244
 10
-482.605259084067
 20
300.958721481951
 30
0.0
 10
-482.6068994709151
 20
300.9651228947851
 30
0.0
 10
-482.6087616605366
 20
300.9745755670902
 30
0.0
 10
-482.61234257645
 20
300.9964629822736
 30
0.0
 10
-482.6146341183754
 20
301.0136128008529
 30
0.0
 10
-482.6181897062859
 20
301.0456053986889
 30
0.0
 10
-482.6200781460687
 20
301.0661293949179
 30
0.0
 10
-482.6213811976786
 20
301.0835870649319
 30
0.0
  0
SPLINE
  5
1DC
330
2
100
AcDbEntity
  8
Sichtbare Kanten(MSL)
100
AcDbSpline
210
0.0
220
0.0
230
1.0
 70
     8
 71
     3
 72
    12
 73
     8
 74
     0
 42
0.000000001
 43
0.0000000001
 40
0.0209582253696219
 40
0.0209582253696219
 40
0.0209582253696219
 40
0.0209582253696219
 40
0.0262100952007496
 40
0.0262100952007496
 40
0.0314079723979964
 40
0.0314079723979964
 40
0.0356231486981253
 40
0.0356231486981253
 40
0.0356231486981253
 40
0.0356231486981253
 10
-480.6931517440015
 20
299.1553576112546
 30
0.0
 10
-480.7106094140154
 20
299.1566606628645
 30
0.0
 10
-480.7311334102444
 20
299.1585491026474
 30
0.0
 10
-480.7631260080801
 20
299.1621046905578
 30
0.0
 10
-480.7802758266596
 20
299.1643962324833
 30
0.0
 10
-480.802163241843
 20
299.1679771483965
 30
0.0
 10
-480.8116159141482
 20
299.1698393380181
 30
0.0
 10
-480.8180173269822
 20
299.1714797248663
 30
0.0
  0
SPLINE
  5
1DE
330
2
100
AcDbEntity
  8
Sichtbare Kanten(MSL)
100
AcDbSpline
210
0.0
220
0.0
230
1.0
 70
     8
 71
     3
 72
    12
 73
     8
 74
     0
 42
0.000000001
 43
0.0000000001
 40
0.0478894890006209
 40
0.0478894890006209
 40
0.0478894890006209
 40
0.0478894890006209
 40
0.0521046653007499
 40
0.0521046653007499
 40
0.0573025424979967
 40
0.0573025424979967
 40
0.0625544123291244
 40
0.0625544123291244
 40
0.0625544123291244
 40
0.0625544123291244
 10
-480.8180173269822
 20
299.8522845008996
 30
0.0
 10
-480.8116159141482
 20
299.8539248877478
 30
0.0
 10
-480.802163241843
 20
299.8557870773694
 30
0.0
 10
-480.7802758266596
 20
299.8593679932828
 30
0.0
 10
-480.7631260080801
 20
299.8616595352081
 30
0.0
 10
-480.7311334102444
 20
299.8652151231187
 30
0.0
 10
-480.7106094140154
 20
299.8671035629014
 30
0.0
 10
-480.6931517440015
 20
299.8684066145113
 30
0.0
  0
SPLINE
  5
1DF
330
2
100
AcDbEntity
  8
UMRISS05
100
AcDbSpline
210
0.0
220
0.0
230
1.0
 70
     8
 71
     3
 72
    12
 73
     8
 74
     0
 42
0.000000001
 43
0.0000000001
 40
0.0209582253696219
 40
0.0209582253696219
 40
0.0209582253696219
 40
0.0209582253696219
 40
0.0262100952007496
 40
0.0262100952007496
 40
0.0314079723979964
 40
0.0314079723979964
 40
0.0356231486981258
 40
0.0356231486981258
 40
0.0356231486981258
 40
0.0356231486981258
 10
-482.6213811976786
 20
297.9401771608343
 30
0.0
 10
-482.6200781460687
 20
297.9576348308481
 30
0.0
 10
-482.6181897062859
 20
297.9781588270771
 30
0.0
 10
-482.6146341183754
 20
298.010151424913
 30
0.0
 10
-482.61234257645
 20
298.0273012434922
 30
0.0
 10
-482.6087616605366
 20
298.0491886586758
 30
0.0
 10
-482.6068994709151
 20
298.0586413309809
 30
0.0
 10
-482.605259084067
 20
298.0650427438149
 30
0.0
  0
SPLINE
  5
1E0
330
2
100
AcDbEntity
  8
UMRISS05
100
AcDbSpline
210
0.0
220
0.0
230
1.0
 70
     8
 71
     3
 72
    12
 73
     8
 74
     0
 42
0.000000001
 43
0.0000000001
 40
0.0478894890006205
 40
0.0478894890006205
 40
0.0478894890006205
 40
0.0478894890006205
 40
0.0521046653007498
 40
0.0521046653007498
 40
0.0573025424979966
 40
0.0573025424979966
 40
0.0625544123291244
 40
0.0625544123291244
 40
0.0625544123291244
 40
0.0625544123291244
 10
-481.9244543080336
 20
298.0650427438149
 30
0.0
 10
-481.9228139211854
 20
298.0586413309809
 30
0.0
 10
-481.9209517315639
 20
298.0491886586758
 30
0.0
 10
-481.9173708156505
 20
298.0273012434922
 30
0.0
 10
-481.915079273725
 20
298.010151424913
 30
0.0
 10
-481.9115236858146
 20
297.9781588270771
 30
0.0
 10
-481.9096352460318
 20
297.9576348308481
 30
0.0
 10
-481.9083321944218
 20
297.9401771608343
 30
0.0
  0
CIRCLE
  5
1E1
330
2
100
AcDbEntity
  8
UMRISS05
100
AcDbCircle
 10
-482.2648566960502
 20
299.511882112883
 30
0.0
 40
2.649999999999995
  0
ARC
  5
1E2
330
2
100
AcDbEntity
  8
UMRISS05
100
AcDbCircle
 10
-482.2648566960502
 20
299.511882112883
 30
0.0
 40
0.8810679665896243
100
AcDbArc
 50
167.538678337302
 51
192.461321662698
  0
ARC
  5
1E3
330
2
100
AcDbEntity
  8
UMRISS05
100
AcDbCircle
 10
-482.2648566960502
 20
299.511882112883
 30
0.0
 40
0.8810679665896202
100
AcDbArc
 50
77.53867833730189
 51
102.4613216626981
  0
ARC
  5
1E4
330
2
100
AcDbEntity
  8
UMRISS05
100
AcDbCircle
 10
-482.2648566960502
 20
299.511882112883
 30
0.0
 40
0.8810679665896225
100
AcDbArc
 50
347.5386783373019
 51
12.46132166269803
  0
ARC
  5
1E5
330
2
100
AcDbEntity
  8
UMRISS05
100
AcDbCircle
 10
-482.2648566960502
 20
299.511882112883
 30
0.0
 40
0.881067966589619
100
AcDbArc
 50
257.5386783373019
 51
282.4613216626981
  0
SPLINE
  5
1E6
330
2
100
AcDbEntity
  8
UMRISS05
100
AcDbSpline
210
0.0
220
0.0
230
1.0
 70
    12
 71
     2
 72
     6
 73
     3
 74
     0
 42
0.000000001
 43
0.0000000001
 40
0.0
 40
0.0
 40
0.0
 40
0.0074036886590344
 40
0.0074036886590344
 40
0.0074036886590344
 10
-481.900410592888
 20
326.7097226526506
 30
0.0
 41
1.0
 10
-481.9827573804664
 20
326.9503070021587
 30
0.0
 41
1.357093436693618
 10
-482.0282654983205
 20
327.0834791599991
 30
0.0
 41
1.686909074955913
  0
LINE
  5
1E7
330
2
100
AcDbEntity
  8
UMRISS05
100
AcDbLine
 10
-481.590050667168
 20
326.0483237778856
 30
0.0
 11
-481.9022876042056
 21
327.1201772288963
 31
0.0
  0
SPLINE
  5
1E8
330
2
100
AcDbEntity
  8
UMRISS05
100
AcDbSpline
210
0.0
220
0.0
230
1.0
 70
    12
 71
     2
 72
     6
 73
     3
 74
     0
 42
0.000000001
 43
0.0000000001
 40
0.0
 40
0.0
 40
0.0
 40
0.0074036886590343
 40
0.0074036886590343
 40
0.0074036886590343
 10
-481.462697235818
 20
327.8763282160452
 30
0.0
 41
1.0
 10
-481.7032815853258
 20
327.7939814284668
 30
0.0
 41
1.357093436693616
 10
-481.8364537431667
 20
327.7484733106131
 30
0.0
 41
1.686909074955913
  0
LINE
  5
1E9
330
2
100
AcDbEntity
  8
UMRISS05
100
AcDbLine
 10
-480.8012983610529
 20
328.1866881417651
 30
0.0
 11
-481.8731518120636
 21
327.8744512047276
 31
0.0
  0
ARC
  5
1EA
330
2
100
AcDbEntity
  8
UMRISS05
100
AcDbCircle
 10
-481.9214250124505
 20
328.0401644509467
 30
0.0
 40
0.1726012220351237
100
AcDbArc
 50
187.7037824366619
 51
286.2411383710565
  0
SPLINE
  5
1EB
330
2
100
AcDbEntity
  8
UMRISS05
100
AcDbSpline
210
0.0
220
0.0
230
1.0
 70
     8
 71
     3
 72
    18
 73
    14
 74
     0
 42
0.000000001
 43
0.0000000001
 40
0.1307806668072011
 40
0.1307806668072011
 40
0.1307806668072011
 40
0.1307806668072011
 40
0.1428948119469433
 40
0.1428948119469433
 40
0.1502675919277733
 40
0.1502675919277733
 40
0.1576403719086032
 40
0.1576403719086032
 40
0.1650131518894332
 40
0.1650131518894332
 40
0.1723859318702632
 40
0.1723859318702632
 40
0.1845000770100053
 40
0.1845000770100053
 40
0.1845000770100053
 40
0.1845000770100053
 10
-481.8364537431666
 20
327.7484733106129
 30
0.0
 10
-481.8727565360758
 20
327.7360677762662
 30
0.0
 10
-481.9133532767216
 20
327.7306690989436
 30
0.0
 10
-481.9732157151031
 20
327.7341506884164
 30
0.0
 10
-481.9981772239471
 20
327.7383667812652
 30
0.0
 10
-482.0469314213568
 20
327.7539718656506
 30
0.0
 10
-482.0707498014236
 20
327.7653762507254
 30
0.0
 10
-482.1119591532981
 20
327.7921660865284
 30
0.0
 10
-482.1320489178929
 20
327.8093059986188
 30
0.0
 10
-482.1660982602041
 20
327.8475307643067
 30
0.0
 10
-482.1800823337377
 20
327.8686328506984
 30
0.0
 10
-482.2075599484192
 20
327.9219302585685
 30
0.0
 10
-482.2191024248552
 20
327.9612241805619
 30
0.0
 10
-482.2224983480298
 20
327.999437499722
 30
0.0
  0
ARC
  5
1EC
330
2
100
AcDbEntity
  8
UMRISS05
100
AcDbCircle
 10
-482.7931390341139
 20
327.8553137964826
 30
0.0
 40
0.1726012220351236
100
AcDbArc
 50
277.7037824366646
 51
16.24113837105643
  0
SPLINE
  5
1ED
330
2
100
AcDbEntity
  8
UMRISS05
100
AcDbSpline
210
0.0
220
0.0
230
1.0
 70
     8
 71
     3
 72
    18
 73
    14
 74
     0
 42
0.000000001
 43
0.0000000001
 40
0.1307806668072011
 40
0.1307806668072011
 40
0.1307806668072011
 40
0.1307806668072011
 40
0.1428948119469434
 40
0.1428948119469434
 40
0.1502675919277733
 40
0.1502675919277733
 40
0.1576403719086033
 40
0.1576403719086033
 40
0.1650131518894332
 40
0.1650131518894332
 40
0.1723859318702632
 40
0.1723859318702632
 40
0.1845000770100053
 40
0.1845000770100053
 40
0.1845000770100053
 40
0.1845000770100053
 10
-482.5014478937803
 20
327.9402850657666
 30
0.0
 10
-482.4890423594334
 20
327.9039822728575
 30
0.0
 10
-482.4836436821109
 20
327.8633855322115
 30
0.0
 10
-482.4871252715836
 20
327.80352309383
 30
0.0
 10
-482.4913413644325
 20
327.7785615849861
 30
0.0
 10
-482.5069464488178
 20
327.7298073875764
 30
0.0
 10
-482.5183508338926
 20
327.7059890075096
 30
0.0
 10
-482.5451406696955
 20
327.664779655635
 30
0.0
 10
-482.5622805817859
 20
327.6446898910403
 30
0.0
 10
-482.6005053474741
 20
327.6106405487291
 30
0.0
 10
-482.6216074338656
 20
327.5966564751954
 30
0.0
 10
-482.6749048417357
 20
327.569178860514
 30
0.0
 10
-482.7141987637291
 20
327.557636384078
 30
0.0
 10
-482.7524120828893
 20
327.5542404609035
 30
0.0
  0
LINE
  5
1EE
330
2
100
AcDbEntity
  8
UMRISS05
100
AcDbLine
 10
-483.8763309956198
 20
327.5346144331044
 30
0.0
 11
-482.770001563129
 21
327.6842704122657
 31
0.0
  0
SPLINE
  5
1EF
330
2
100
AcDbEntity
  8
UMRISS05
100
AcDbSpline
210
0.0
220
0.0
230
1.0
 70
    12
 71
     2
 72
     6
 73
     3
 74
     0
 42
0.000000001
 43
0.0000000001
 40
0.1864395669923014
 40
0.1864395669923014
 40
0.1864395669923014
 40
0.1938432556513322
 40
0.1938432556513322
 40
0.1938432556513322
 10
-482.7524120828893
 20
327.5542404609036
 30
0.0
 41
1.686909074955607
 10
-482.8925927621977
 20
327.5417829505915
 30
0.0
 41
1.35709343669345
 10
-483.1458925923593
 20
327.519399503744
 30
0.0
 41
1.0
  0
SPLINE
  5
1F0
330
2
100
AcDbEntity
  8
UMRISS05
100
AcDbSpline
210
0.0
220
0.0
230
1.0
 70
    12
 71
     2
 72
     6
 73
     3
 74
     0
 42
0.000000001
 43
0.0000000001
 40
0.0
 40
0.0
 40
0.0
 40
0.0074036886590344
 40
0.0074036886590344
 40
0.0074036886590344
 10
-482.6293027992125
 20
328.3140415731154
 30
0.0
 41
1.0
 10
-482.546956011634
 20
328.0734572236074
 30
0.0
 41
1.357093436693618
 10
-482.5014478937801
 20
327.9402850657667
 30
0.0
 41
1.686909074955913
  0
LINE
  5
1F1
330
2
100
AcDbEntity
  8
UMRISS05
100
AcDbLine
 10
-482.9396627249324
 20
328.9754404478804
 30
0.0
 11
-482.6274257878949
 21
327.9035869968695
 31
0.0
  0
ARC
  5
1F2
330
2
100
AcDbEntity
  8
UMRISS05
100
AcDbCircle
 10
-482.60828837965
 20
326.9835997748193
 30
0.0
 40
0.1726012220351237
100
AcDbArc
 50
7.703782436661959
 51
106.2411383710565
  0
SPLINE
  5
1F3
330
2
100
AcDbEntity
  8
UMRISS05
100
AcDbSpline
210
0.0
220
0.0
230
1.0
 70
     8
 71
     3
 72
    18
 73
    14
 74
     0
 42
0.000000001
 43
0.0000000001
 40
0.1307806668072012
 40
0.1307806668072012
 40
0.1307806668072012
 40
0.1307806668072012
 40
0.1428948119469434
 40
0.1428948119469434
 40
0.1502675919277733
 40
0.1502675919277733
 40
0.1576403719086033
 40
0.1576403719086033
 40
0.1650131518894333
 40
0.1650131518894333
 40
0.1723859318702632
 40
0.1723859318702632
 40
0.1845000770100055
 40
0.1845000770100055
 40
0.1845000770100055
 40
0.1845000770100055
 10
-482.6932596489339
 20
327.2752909151531
 30
0.0
 10
-482.6569568560246
 20
327.2876964494998
 30
0.0
 10
-482.6163601153789
 20
327.2930951268224
 30
0.0
 10
-482.5564976769972
 20
327.2896135373496
 30
0.0
 10
-482.5315361681533
 20
327.2853974445007
 30
0.0
 10
-482.4827819707436
 20
327.2697923601155
 30
0.0
 10
-482.4589635906768
 20
327.2583879750406
 30
0.0
 10
-482.4177542388024
 20
327.2315981392377
 30
0.0
 10
-482.3976644742075
 20
327.2144582271474
 30
0.0
 10
-482.3636151318964
 20
327.1762334614591
 30
0.0
 10
-482.3496310583628
 20
327.1551313750676
 30
0.0
 10
-482.3221534436812
 20
327.1018339671974
 30
0.0
 10
-482.3106109672452
 20
327.0625400452041
 30
0.0
 10
-482.3072150440706
 20
327.024326726044
 30
0.0
  0
LINE
  5
1F4
330
2
100
AcDbEntity
  8
UMRISS05
100
AcDbLine
 10
-482.2875890162717
 20
325.9004078133134
 30
0.0
 11
-482.4372449954328
 21
327.0067372458042
 31
0.0
  0
SPLINE
  5
1F5
330
2
100
AcDbEntity
  8
UMRISS05
100
AcDbSpline
210
0.0
220
0.0
230
1.0
 70
    12
 71
     2
 72
     6
 73
     3
 74
     0
 42
0.000000001
 43
0.0000000001
 40
0.1864395669923013
 40
0.1864395669923013
 40
0.1864395669923013
 40
0.1938432556513321
 40
0.1938432556513321
 40
0.1938432556513321
 10
-482.3072150440706
 20
327.024326726044
 30
0.0
 41
1.6869090749556
 10
-482.2947575337586
 20
326.8841460467354
 30
0.0
 41
1.357093436693448
 10
-482.2723740869112
 20
326.6308462165739
 30
0.0
 41
1.0
  0
SPLINE
  5
1F6
330
2
100
AcDbEntity
  8
UMRISS05
100
AcDbSpline
210
0.0
220
0.0
230
1.0
 70
    12
 71
     2
 72
     6
 73
     3
 74
     0
 42
0.000000001
 43
0.0000000001
 40
0.0
 40
0.0
 40
0.0
 40
0.0074036886590343
 40
0.0074036886590343
 40
0.0074036886590343
 10
-483.0670161562825
 20
327.1474360097208
 30
0.0
 41
1.0
 10
-482.8264318067748
 20
327.2297827972993
 30
0.0
 41
1.35709343669362
 10
-482.6932596489338
 20
327.2752909151533
 30
0.0
 41
1.686909074955919
  0
LINE
  5
1F7
330
2
100
AcDbEntity
  8
UMRISS05
100
AcDbLine
 10
-483.7284150310476
 20
326.837076084001
 30
0.0
 11
-482.6565615800368
 21
327.1493130210384
 31
0.0
  0
LINE
  5
1F8
330
2
100
AcDbEntity
  8
UMRISS05
100
AcDbLine
 10
-480.6533823964807
 20
327.4891497926616
 30
0.0
 11
-481.7597118289715
 21
327.3394938135004
 31
0.0
  0
SPLINE
  5
1F9
330
2
100
AcDbEntity
  8
UMRISS05
100
AcDbSpline
210
0.0
220
0.0
230
1.0
 70
    12
 71
     2
 72
     6
 73
     3
 74
     0
 42
0.000000001
 43
0.0000000001
 40
0.1864395669923015
 40
0.1864395669923015
 40
0.1864395669923015
 40
0.1938432556513323
 40
0.1938432556513323
 40
0.1938432556513323
 10
-481.7773013092113
 20
327.4695237648625
 30
0.0
 41
1.686909074955601
 10
-481.6371206299026
 20
327.4819812751744
 30
0.0
 41
1.357093436693449
 10
-481.3838207997413
 20
327.5043647220221
 30
0.0
 41
1.0
  0
LINE
  5
1FA
330
2
100
AcDbEntity
  8
UMRISS05
100
AcDbLine
 10
-482.2421243758288
 20
329.1233564124525
 30
0.0
 11
-482.0924683966676
 21
328.0170269799616
 31
0.0
  0
SPLINE
  5
1FB
330
2
100
AcDbEntity
  8
UMRISS05
100
AcDbSpline
210
0.0
220
0.0
230
1.0
 70
    12
 71
     2
 72
     6
 73
     3
 74
     0
 42
0.000000001
 43
0.0000000001
 40
0.1864395669923013
 40
0.1864395669923013
 40
0.1864395669923013
 40
0.1938432556513321
 40
0.1938432556513321
 40
0.1938432556513321
 10
-482.2224983480298
 20
327.9994374997219
 30
0.0
 41
1.6869090749556
 10
-482.2349558583417
 20
328.1396181790307
 30
0.0
 41
1.357093436693448
 10
-482.2573393051893
 20
328.3929180091919
 30
0.0
 41
1.0
  0
ARC
  5
1FC
330
2
100
AcDbEntity
  8
UMRISS05
100
AcDbCircle
 10
-481.7365743579866
 20
327.1684504292834
 30
0.0
 40
0.1726012220351237
100
AcDbArc
 50
97.7037824366654
 51
196.2411383710564
  0
SPLINE
  5
1FD
330
2
100
AcDbEntity
  8
UMRISS05
100
AcDbSpline
210
0.0
220
0.0
230
1.0
 70
     8
 71
     3
 72
    18
 73
    14
 74
     0
 42
0.000000001
 43
0.0000000001
 40
0.1307806668072011
 40
0.1307806668072011
 40
0.1307806668072011
 40
0.1307806668072011
 40
0.1428948119469433
 40
0.1428948119469433
 40
0.1502675919277733
 40
0.1502675919277733
 40
0.1576403719086032
 40
0.1576403719086032
 40
0.1650131518894332
 40
0.1650131518894332
 40
0.1723859318702632
 40
0.1723859318702632
 40
0.1845000770100054
 40
0.1845000770100054
 40
0.1845000770100054
 40
0.1845000770100054
 10
-482.0282654983203
 20
327.0834791599993
 30
0.0
 10
-482.0406710326671
 20
327.1197819529086
 30
0.0
 10
-482.0460697099895
 20
327.1603786935542
 30
0.0
 10
-482.0425881205169
 20
327.220241131936
 30
0.0
 10
-482.0383720276679
 20
327.2452026407799
 30
0.0
 10
-482.0227669432827
 20
327.2939568381896
 30
0.0
 10
-482.0113625582078
 20
327.3177752182564
 30
0.0
 10
-481.9845727224049
 20
327.3589845701307
 30
0.0
 10
-481.9674328103145
 20
327.3790743347256
 30
0.0
 10
-481.9292080446264
 20
327.4131236770369
 30
0.0
 10
-481.9081059582347
 20
327.4271077505704
 30
0.0
 10
-481.8548085503646
 20
327.454585365252
 30
0.0
 10
-481.8155146283713
 20
327.4661278416879
 30
0.0
 10
-481.7773013092113
 20
327.4695237648624
 30
0.0
  0
SPLINE
  5
1FE
330
2
100
AcDbEntity
  8
UMRISS05
100
AcDbSpline
210
0.0
220
0.0
230
1.0
 70
    28
 71
     2
 72
     6
 73
     3
 74
     0
 42
0.000000001
 43
0.0000000001
 40
0.0
 40
0.0
 40
0.0
 40
0.1376359333936737
 40
0.1376359333936737
 40
0.1376359333936737
 10
-482.2573393051893
 20
328.3929180091919
 30
0.0
 41
1.0
 10
-482.2479012534889
 20
328.6183981236757
 30
0.0
 41
1.035797791375359
 10
-482.231993486363
 20
328.9978625821697
 30
0.0
 41
1.003318069934927
  0
SPLINE
  5
1FF
330
2
100
AcDbEntity
  8
UMRISS05
100
AcDbSpline
210
0.0
220
0.0
230
1.0
 70
    28
 71
     2
 72
     6
 73
     3
 74
     0
 42
0.000000001
 43
0.0000000001
 40
0.0066886685476671
 40
0.0066886685476671
 40
0.0066886685476671
 40
0.1443246019424431
 40
0.1443246019424431
 40
0.1443246019424431
 10
-482.8979890033151
 20
328.8566354089007
 30
0.0
 41
1.00331806994064
 10
-482.7294415398675
 20
328.5162854641228
 30
0.0
 41
1.035797791442895
 10
-482.6293027992125
 20
328.3140415731154
 30
0.0
 41
1.0
  0
SPLINE
  5
200
330
2
100
AcDbEntity
  8
UMRISS05
100
AcDbSpline
210
0.0
220
0.0
230
1.0
 70
    28
 71
     2
 72
     6
 73
     3
 74
     0
 42
0.000000001
 43
0.0000000001
 40
0.0
 40
0.0
 40
0.0
 40
0.1376359332989502
 40
0.1376359332989502
 40
0.1376359332989502
 10
-481.3838207997413
 20
327.5043647220221
 30
0.0
 41
1.0
 10
-481.1583406821061
 20
327.4949266701896
 30
0.0
 41
1.035797784978621
 10
-480.7788762267634
 20
327.4790189031957
 30
0.0
 41
1.003318069389008
  0
SPLINE
  5
201
330
2
100
AcDbEntity
  8
UMRISS05
100
AcDbSpline
210
0.0
220
0.0
230
1.0
 70
    28
 71
     2
 72
     6
 73
     3
 74
     0
 42
0.000000001
 43
0.0000000001
 40
0.0066886686434352
 40
0.0066886686434352
 40
0.0066886686434352
 40
0.1443246019424431
 40
0.1443246019424431
 40
0.1443246019424431
 10
-480.9201034000326
 20
328.1450144201479
 30
0.0
 41
1.003318069389957
 10
-481.2604533419483
 20
327.9764669581175
 30
0.0
 41
1.035797784989171
 10
-481.462697235818
 20
327.8763282160452
 30
0.0
 41
1.0
  0
SPLINE
  5
202
330
2
100
AcDbEntity
  8
UMRISS05
100
AcDbSpline
210
0.0
220
0.0
230
1.0
 70
    28
 71
     2
 72
     6
 73
     3
 74
     0
 42
0.000000001
 43
0.0000000001
 40
0.0
 40
0.0
 40
0.0
 40
0.1376359333936737
 40
0.1376359333936737
 40
0.1376359333936737
 10
-482.2723740869112
 20
326.6308462165739
 30
0.0
 41
1.0
 10
-482.2818121386116
 20
326.4053661020902
 30
0.0
 41
1.035797791375359
 10
-482.2977199057375
 20
326.0259016435962
 30
0.0
 41
1.003318069934927
  0
SPLINE
  5
203
330
2
100
AcDbEntity
  8
UMRISS05
100
AcDbSpline
210
0.0
220
0.0
230
1.0
 70
    28
 71
     2
 72
     6
 73
     3
 74
     0
 42
0.000000001
 43
0.0000000001
 40
0.0066886685476671
 40
0.0066886685476671
 40
0.0066886685476671
 40
0.1443246019424431
 40
0.1443246019424431
 40
0.1443246019424431
 10
-481.6317243887854
 20
326.1671288168654
 30
0.0
 41
1.00331806994064
 10
-481.800271852233
 20
326.5074787616432
 30
0.0
 41
1.035797791442895
 10
-481.900410592888
 20
326.7097226526506
 30
0.0
 41
1.0
  0
SPLINE
  5
204
330
2
100
AcDbEntity
  8
UMRISS05
100
AcDbSpline
210
0.0
220
0.0
230
1.0
 70
    28
 71
     2
 72
     6
 73
     3
 74
     0
 42
0.000000001
 43
0.0000000001
 40
0.0
 40
0.0
 40
0.0
 40
0.1376359334142349
 40
0.1376359334142349
 40
0.1376359334142349
 10
-483.1458925923593
 20
327.519399503744
 30
0.0
 41
1.0
 10
-483.3713727061519
 20
327.5288375554154
 30
0.0
 41
1.035797792744685
 10
-483.7508371653369
 20
327.5447453225703
 30
0.0
 41
1.003318070051649
  0
SPLINE
  5
205
330
2
100
AcDbEntity
  8
UMRISS05
100
AcDbSpline
210
0.0
220
0.0
230
1.0
 70
    28
 71
     2
 72
     6
 73
     3
 74
     0
 42
0.000000001
 43
0.0000000001
 40
0.0066886685305404
 40
0.0066886685305404
 40
0.0066886685305404
 40
0.1443246019424431
 40
0.1443246019424431
 40
0.1443246019424431
 10
-483.6096099920678
 20
326.8787498056182
 30
0.0
 41
1.003318070038472
 10
-483.2692600467758
 20
327.0472972693203
 30
0.0
 41
1.035797792590058
 10
-483.0670161562825
 20
327.1474360097208
 30
0.0
 41
1.0
  0
SPLINE
  5
206
330
2
100
AcDbEntity
  8
UMRISS05
100
AcDbSpline
210
0.0
220
0.0
230
1.0
 70
     8
 71
     3
 72
    12
 73
     8
 74
     0
 42
0.000000001
 43
0.0000000001
 40
0.0209582253696219
 40
0.0209582253696219
 40
0.0209582253696219
 40
0.0209582253696219
 40
0.0262100952007496
 40
0.0262100952007496
 40
0.0314079723979964
 40
0.0314079723979964
 40
0.0356231486981253
 40
0.0356231486981253
 40
0.0356231486981253
 40
0.0356231486981253
 10
-482.2421243758288
 20
329.1233564124525
 30
0.0
 10
-482.2397776372136
 20
329.1060081847713
 30
0.0
 10
-482.2373674697176
 20
329.0855388975667
 30
0.0
 10
-482.2342091215022
 20
329.0535046446765
 30
0.0
 10
-482.2328932321573
 20
329.0362525179401
 30
0.0
 10
-482.2318558953811
 20
329.014098379848
 30
0.0
 10
-482.231716700926
 20
329.0044650321018
 30
0.0
 10
-482.231993486363
 20
328.9978625821697
 30
0.0
  0
SPLINE
  5
207
330
2
100
AcDbEntity
  8
UMRISS05
100
AcDbSpline
210
0.0
220
0.0
230
1.0
 70
     8
 71
     3
 72
    12
 73
     8
 74
     0
 42
0.000000001
 43
0.0000000001
 40
0.0478894890006209
 40
0.0478894890006209
 40
0.0478894890006209
 40
0.0478894890006209
 40
0.0521046653007499
 40
0.0521046653007499
 40
0.0573025424979967
 40
0.0573025424979967
 40
0.0625544123291244
 40
0.0625544123291244
 40
0.0625544123291244
 40
0.0625544123291244
 10
-482.8979890033151
 20
328.8566354089005
 30
0.0
 10
-482.9009216262882
 20
328.8625572901709
 30
0.0
 10
-482.9047041851359
 20
328.8714180470494
 30
0.0
 10
-482.9127475654326
 20
328.8920865239066
 30
0.0
 10
-482.918546844739
 20
328.9083879287917
 30
0.0
 10
-482.9286616823676
 20
328.9389470286053
 30
0.0
 10
-482.9347665725611
 20
328.9586328341958
 30
0.0
 10
-482.9396627249324
 20
328.9754404478804
 30
0.0
  0
SPLINE
  5
208
330
2
100
AcDbEntity
  8
UMRISS05
100
AcDbSpline
210
0.0
220
0.0
230
1.0
 70
     8
 71
     3
 72
    12
 73
     8
 74
     0
 42
0.000000001
 43
0.0000000001
 40
0.0209582253696219
 40
0.0209582253696219
 40
0.0209582253696219
 40
0.0209582253696219
 40
0.0262100952007496
 40
0.0262100952007496
 40
0.0314079723979964
 40
0.0314079723979964
 40
0.035623148698123
 40
0.035623148698123
 40
0.035623148698123
 40
0.035623148698123
 10
-480.6533823964807
 20
327.4891497926616
 30
0.0
 10
-480.670730624162
 20
327.4868030540464
 30
0.0
 10
-480.6911999113665
 20
327.4843928865504
 30
0.0
 10
-480.7232341642566
 20
327.4812345383351
 30
0.0
 10
-480.7404862909931
 20
327.4799186489901
 30
0.0
 10
-480.7626404290852
 20
327.4788813122138
 30
0.0
 10
-480.7722737768314
 20
327.4787421177587
 30
0.0
 10
-480.7788762267635
 20
327.4790189031957
 30
0.0
  0
SPLINE
  5
209
330
2
100
AcDbEntity
  8
UMRISS05
100
AcDbSpline
210
0.0
220
0.0
230
1.0
 70
     8
 71
     3
 72
    12
 73
     8
 74
     0
 42
0.000000001
 43
0.0000000001
 40
0.0478894890006233
 40
0.0478894890006233
 40
0.0478894890006233
 40
0.0478894890006233
 40
0.0521046653007499
 40
0.0521046653007499
 40
0.0573025424979966
 40
0.0573025424979966
 40
0.0625544123291244
 40
0.0625544123291244
 40
0.0625544123291244
 40
0.0625544123291244
 10
-480.9201034000326
 20
328.1450144201479
 30
0.0
 10
-480.9141815187622
 20
328.1479470431209
 30
0.0
 10
-480.9053207618838
 20
328.1517296019687
 30
0.0
 10
-480.8846522850266
 20
328.1597729822653
 30
0.0
 10
-480.8683508801416
 20
328.1655722615716
 30
0.0
 10
-480.8377917803278
 20
328.1756870992002
 30
0.0
 10
-480.8181059747374
 20
328.1817919893939
 30
0.0
 10
-480.8012983610529
 20
328.1866881417651
 30
0.0
  0
SPLINE
  5
20A
330
2
100
AcDbEntity
  8
UMRISS05
100
AcDbSpline
210
0.0
220
0.0
230
1.0
 70
     8
 71
     3
 72
    12
 73
     8
 74
     0
 42
0.000000001
 43
0.0000000001
 40
0.0209582253696219
 40
0.0209582253696219
 40
0.0209582253696219
 40
0.0209582253696219
 40
0.0262100952007496
 40
0.0262100952007496
 40
0.0314079723979964
 40
0.0314079723979964
 40
0.0356231486981253
 40
0.0356231486981253
 40
0.0356231486981253
 40
0.0356231486981253
 10
-482.2875890162717
 20
325.9004078133134
 30
0.0
 10
-482.2899357548869
 20
325.9177560409948
 30
0.0
 10
-482.2923459223828
 20
325.9382253281994
 30
0.0
 10
-482.2955042705982
 20
325.9702595810893
 30
0.0
 10
-482.2968201599431
 20
325.9875117078258
 30
0.0
 10
-482.2978574967194
 20
326.009665845918
 30
0.0
 10
-482.2979966911745
 20
326.0192991936641
 30
0.0
 10
-482.2977199057375
 20
326.0259016435962
 30
0.0
  0
SPLINE
  5
20B
330
2
100
AcDbEntity
  8
UMRISS05
100
AcDbSpline
210
0.0
220
0.0
230
1.0
 70
     8
 71
     3
 72
    12
 73
     8
 74
     0
 42
0.000000001
 43
0.0000000001
 40
0.0478894890006209
 40
0.0478894890006209
 40
0.0478894890006209
 40
0.0478894890006209
 40
0.0521046653007499
 40
0.0521046653007499
 40
0.0573025424979967
 40
0.0573025424979967
 40
0.0625544123291244
 40
0.0625544123291244
 40
0.0625544123291244
 40
0.0625544123291244
 10
-481.6317243887854
 20
326.1671288168654
 30
0.0
 10
-481.6287917658122
 20
326.161206935595
 30
0.0
 10
-481.6250092069646
 20
326.1523461787165
 30
0.0
 10
-481.6169658266679
 20
326.1316777018594
 30
0.0
 10
-481.6111665473616
 20
326.1153762969742
 30
0.0
 10
-481.6010517097329
 20
326.0848171971607
 30
0.0
 10
-481.5949468195393
 20
326.0651313915702
 30
0.0
 10
-481.590050667168
 20
326.0483237778856
 30
0.0
  0
SPLINE
  5
20C
330
2
100
AcDbEntity
  8
UMRISS05
100
AcDbSpline
210
0.0
220
0.0
230
1.0
 70
     8
 71
     3
 72
    12
 73
     8
 74
     0
 42
0.000000001
 43
0.0000000001
 40
0.0209582253696219
 40
0.0209582253696219
 40
0.0209582253696219
 40
0.0209582253696219
 40
0.0262100952007496
 40
0.0262100952007496
 40
0.0314079723979964
 40
0.0314079723979964
 40
0.0356231486981258
 40
0.0356231486981258
 40
0.0356231486981258
 40
0.0356231486981258
 10
-483.8763309956198
 20
327.5346144331044
 30
0.0
 10
-483.8589827679384
 20
327.5369611717196
 30
0.0
 10
-483.8385134807338
 20
327.5393713392156
 30
0.0
 10
-483.8064792278439
 20
327.5425296874309
 30
0.0
 10
-483.7892271011074
 20
327.5438455767759
 30
0.0
 10
-483.7670729630153
 20
327.5448829135521
 30
0.0
 10
-483.757439615269
 20
327.5450221080072
 30
0.0
 10
-483.7508371653369
 20
327.5447453225703
 30
0.0
  0
SPLINE
  5
20D
330
2
100
AcDbEntity
  8
UMRISS05
100
AcDbSpline
210
0.0
220
0.0
230
1.0
 70
     8
 71
     3
 72
    12
 73
     8
 74
     0
 42
0.000000001
 43
0.0000000001
 40
0.0478894890006205
 40
0.0478894890006205
 40
0.0478894890006205
 40
0.0478894890006205
 40
0.0521046653007498
 40
0.0521046653007498
 40
0.0573025424979966
 40
0.0573025424979966
 40
0.0625544123291244
 40
0.0625544123291244
 40
0.0625544123291244
 40
0.0625544123291244
 10
-483.6096099920678
 20
326.8787498056181
 30
0.0
 10
-483.6155318733382
 20
326.875817182645
 30
0.0
 10
-483.6243926302167
 20
326.8720346237973
 30
0.0
 10
-483.6450611070739
 20
326.8639912435007
 30
0.0
 10
-483.6613625119589
 20
326.8581919641944
 30
0.0
 10
-483.6919216117725
 20
326.8480771265656
 30
0.0
 10
-483.711607417363
 20
326.8419722363721
 30
0.0
 10
-483.7284150310476
 20
326.837076084001
 30
0.0
  0
CIRCLE
  5
20E
330
2
100
AcDbEntity
  8
UMRISS05
100
AcDbCircle
 10
-482.2648566960502
 20
327.511882112883
 30
0.0
 40
2.649999999999995
  0
ARC
  5
20F
330
2
100
AcDbEntity
  8
UMRISS05
100
AcDbCircle
 10
-482.2648566960502
 20
327.511882112883
 30
0.0
 40
0.8810679665896245
100
AcDbArc
 50
89.51113874116257
 51
114.4337820665585
  0
ARC
  5
210
330
2
100
AcDbEntity
  8
UMRISS05
100
AcDbCircle
 10
-482.2648566960502
 20
327.511882112883
 30
0.0
 40
0.8810679665896204
100
AcDbArc
 50
359.5111387411626
 51
24.43378206655881
  0
ARC
  5
211
330
2
100
AcDbEntity
  8
UMRISS05
100
AcDbCircle
 10
-482.2648566960502
 20
327.511882112883
 30
0.0
 40
0.8810679665896229
100
AcDbArc
 50
269.5111387411626
 51
294.4337820665586
  0
ARC
  5
212
330
2
100
AcDbEntity
  8
UMRISS05
100
AcDbCircle
 10
-482.2648566960502
 20
327.511882112883
 30
0.0
 40
0.8810679665896195
100
AcDbArc
 50
179.5111387411625
 51
204.4337820665588
  0
SPLINE
  5
213
330
2
100
AcDbEntity
  8
UMRISS05
100
AcDbSpline
210
0.0
220
0.0
230
1.0
 70
     8
 71
     3
 72
    18
 73
    14
 74
     0
 42
0.000000001
 43
0.0000000001
 40
-0.2623135056241344
 40
-0.2623135056241344
 40
-0.2623135056241344
 40
-0.2623135056241344
 40
-0.2590148052895744
 40
-0.2590148052895744
 40
-0.2557161049550145
 40
-0.2557161049550145
 40
-0.2491187042858944
 40
-0.2491187042858944
 40
-0.2390800049869275
 40
-0.2390800049869275
 40
-0.2143218936185063
 40
-0.2143218936185063
 40
-0.2015701309880868
 40
-0.2015701309880868
 40
-0.2015701309880868
 40
-0.2015701309880868
 10
-479.2648566960502
 20
328.7728341341749
 30
0.0
 10
-479.2648566960502
 20
328.7728341341749
 30
0.0
 10
-479.2639396933656
 20
328.7710201866736
 30
0.0
 10
-479.2605750326274
 20
328.7643145295094
 30
0.0
 10
-479.2581152943315
 20
328.7593990822194
 30
0.0
 10
-479.2492341045763
 20
328.7414386086639
 30
0.0
 10
-479.241170815731
 20
328.7248717597683
 30
0.0
 10
-479.221469714939
 20
328.6831876606881
 30
0.0
 10
-479.2062573140637
 20
328.6496768608125
 30
0.0
 10
-479.1626901737969
 20
328.5486359949872
 30
0.0
 10
-479.127825644956
 20
328.4567917893
 30
0.0
 10
-479.0891965068096
 20
328.3381042543309
 30
0.0
 10
-479.0766216188215
 20
328.2963342718896
 30
0.0
 10
-479.0648566960501
 20
328.2535019615924
 30
0.0
  0
ARC
  5
214
330
2
100
AcDbEntity
  8
UMRISS05
100
AcDbCircle
 10
-481.7648566960502
 20
327.5118821128829
 30
0.0
 40
2.799999999999995
100
AcDbArc
 50
344.6411144191737
 51
15.35888558082627
  0
SPLINE
  5
215
330
2
100
AcDbEntity
  8
UMRISS05
100
AcDbSpline
210
0.0
220
0.0
230
1.0
 70
     8
 71
     3
 72
    18
 73
    14
 74
     0
 42
0.000000001
 43
0.0000000001
 40
-0.0607433746360477
 40
-0.0607433746360477
 40
-0.0607433746360477
 40
-0.0607433746360477
 40
-0.0479916120056284
 40
-0.0479916120056284
 40
-0.0232335006372069
 40
-0.0232335006372069
 40
-0.0131948013382399
 40
-0.0131948013382399
 40
-0.00659740066912
 40
-0.00659740066912
 40
-0.0032987003345599
 40
-0.0032987003345599
 40
0.0
 40
0.0
 40
0.0
 40
0.0
 10
-479.0648566960501
 20
326.7702622641734
 30
0.0
 10
-479.0766216188215
 20
326.7274299538763
 30
0.0
 10
-479.0891965068096
 20
326.685659971435
 30
0.0
 10
-479.127825644956
 20
326.5669724364659
 30
0.0
 10
-479.1626901737969
 20
326.4751282307786
 30
0.0
 10
-479.2062573140637
 20
326.3740873649533
 30
0.0
 10
-479.221469714939
 20
326.3405765650779
 30
0.0
 10
-479.241170815731
 20
326.2988924659975
 30
0.0
 10
-479.2492341045763
 20
326.2823256171021
 30
0.0
 10
-479.2581152943315
 20
326.2643651435465
 30
0.0
 10
-479.2605750326274
 20
326.2594496962565
 30
0.0
 10
-479.2639396933656
 20
326.2527440390922
 30
0.0
 10
-479.2648566960502
 20
326.2509300915911
 30
0.0
 10
-479.2648566960502
 20
326.2509300915911
 30
0.0
  0
SPLINE
  5
216
330
2
100
AcDbEntity
  8
UMRISS05
100
AcDbSpline
210
0.0
220
0.0
230
1.0
 70
     8
 71
     3
 72
    18
 73
    14
 74
     0
 42
0.000000001
 43
0.0000000001
 40
-0.262313505624138
 40
-0.262313505624138
 40
-0.262313505624138
 40
-0.262313505624138
 40
-0.259014805289578
 40
-0.259014805289578
 40
-0.255716104955018
 40
-0.255716104955018
 40
-0.2491187042858979
 40
-0.2491187042858979
 40
-0.2390800049869307
 40
-0.2390800049869307
 40
-0.2143218936185092
 40
-0.2143218936185092
 40
-0.2015701309880913
 40
-0.2015701309880913
 40
-0.2015701309880913
 40
-0.2015701309880913
 10
-479.2648566960502
 20
300.7728341341748
 30
0.0
 10
-479.2648566960502
 20
300.7728341341748
 30
0.0
 10
-479.2639396933656
 20
300.7710201866737
 30
0.0
 10
-479.2605750326274
 20
300.7643145295095
 30
0.0
 10
-479.2581152943315
 20
300.7593990822194
 30
0.0
 10
-479.2492341045763
 20
300.7414386086639
 30
0.0
 10
-479.241170815731
 20
300.7248717597682
 30
0.0
 10
-479.221469714939
 20
300.6831876606881
 30
0.0
 10
-479.2062573140637
 20
300.6496768608126
 30
0.0
 10
-479.1626901737969
 20
300.5486359949872
 30
0.0
 10
-479.127825644956
 20
300.4567917893
 30
0.0
 10
-479.0891965068096
 20
300.338104254331
 30
0.0
 10
-479.0766216188215
 20
300.2963342718896
 30
0.0
 10
-479.0648566960501
 20
300.2535019615926
 30
0.0
  0
ARC
  5
217
330
2
100
AcDbEntity
  8
UMRISS05
100
AcDbCircle
 10
-481.7648566960502
 20
299.5118821128829
 30
0.0
 40
2.79999999999999
100
AcDbArc
 50
344.6411144191737
 51
15.35888558082627
  0
SPLINE
  5
218
330
2
100
AcDbEntity
  8
UMRISS05
100
AcDbSpline
210
0.0
220
0.0
230
1.0
 70
     8
 71
     3
 72
    18
 73
    14
 74
     0
 42
0.000000001
 43
0.0000000001
 40
-0.0607433746360466
 40
-0.0607433746360466
 40
-0.0607433746360466
 40
-0.0607433746360466
 40
-0.0479916120056285
 40
-0.0479916120056285
 40
-0.0232335006372073
 40
-0.0232335006372073
 40
-0.0131948013382402
 40
-0.0131948013382402
 40
-0.0065974006691201
 40
-0.0065974006691201
 40
-0.00329870033456
 40
-0.00329870033456
 40
0.0
 40
0.0
 40
0.0
 40
0.0
 10
-479.0648566960501
 20
298.7702622641734
 30
0.0
 10
-479.0766216188215
 20
298.7274299538762
 30
0.0
 10
-479.0891965068096
 20
298.6856599714349
 30
0.0
 10
-479.127825644956
 20
298.5669724364659
 30
0.0
 10
-479.1626901737969
 20
298.4751282307785
 30
0.0
 10
-479.2062573140637
 20
298.3740873649533
 30
0.0
 10
-479.221469714939
 20
298.3405765650779
 30
0.0
 10
-479.241170815731
 20
298.2988924659975
 30
0.0
 10
-479.2492341045763
 20
298.2823256171021
 30
0.0
 10
-479.2581152943315
 20
298.2643651435464
 30
0.0
 10
-479.2605750326274
 20
298.2594496962564
 30
0.0
 10
-479.2639396933656
 20
298.2527440390922
 30
0.0
 10
-479.2648566960502
 20
298.2509300915911
 30
0.0
 10
-479.2648566960502
 20
298.2509300915911
 30
0.0
  0
LINE
  5
219
330
2
100
AcDbEntity
  8
UMRISS05
100
AcDbLine
 10
-481.7648566960502
 20
330.311882112883
 30
0.0
 11
-485.7648566960502
 21
330.311882112883
 31
0.0
  0
ARC
  5
21A
330
2
100
AcDbEntity
  8
UMRISS05
100
AcDbCircle
 10
-485.7648566960502
 20
327.5118821128829
 30
0.0
 40
2.799999999999999
100
AcDbArc
 50
90.0
 51
270.0
  0
LINE
  5
21B
330
2
100
AcDbEntity
  8
UMRISS05
100
AcDbLine
 10
-485.7648566960502
 20
324.7118821128829
 30
0.0
 11
-481.7648566960502
 21
324.7118821128829
 31
0.0
  0
ARC
  5
21C
330
2
100
AcDbEntity
  8
UMRISS05
100
AcDbCircle
 10
-481.7648566960502
 20
327.5118821128829
 30
0.0
 40
2.800000000000001
100
AcDbArc
 50
26.76550057675866
 51
90.0
  0
ARC
  5
21D
330
2
100
AcDbEntity
  8
UMRISS05
100
AcDbCircle
 10
-481.7648566960502
 20
327.5118821128829
 30
0.0
 40
2.799999999999998
100
AcDbArc
 50
270.0
 51
333.2344994232413
  0
LINE
  5
21E
330
2
100
AcDbEntity
  8
UMRISS05
100
AcDbLine
 10
-485.7648566960502
 20
301.1618821128829
 30
0.0
 11
-484.338500831383
 21
301.1618821128829
 31
0.0
  0
LINE
  5
21F
330
2
100
AcDbEntity
  8
UMRISS05
100
AcDbLine
 10
-481.7648566960502
 20
302.311882112883
 30
0.0
 11
-485.7648566960502
 21
302.311882112883
 31
0.0
  0
ARC
  5
220
330
2
100
AcDbEntity
  8
UMRISS05
100
AcDbCircle
 10
-485.7648566960502
 20
299.5118821128829
 30
0.0
 40
1.649999999999999
100
AcDbArc
 50
90.0
 51
270.0
  0
ARC
  5
221
330
2
100
AcDbEntity
  8
UMRISS05
100
AcDbCircle
 10
-485.7648566960502
 20
299.5118821128829
 30
0.0
 40
2.799999999999999
100
AcDbArc
 50
90.0
 51
270.0
  0
LINE
  5
222
330
2
100
AcDbEntity
  8
UMRISS05
100
AcDbLine
 10
-484.338500831383
 20
297.8618821128829
 30
0.0
 11
-485.7648566960502
 21
297.8618821128829
 31
0.0
  0
LINE
  5
223
330
2
100
AcDbEntity
  8
UMRISS05
100
AcDbLine
 10
-485.7648566960502
 20
296.7118821128829
 30
0.0
 11
-481.7648566960502
 21
296.7118821128829
 31
0.0
  0
ARC
  5
224
330
2
100
AcDbEntity
  8
UMRISS05
100
AcDbCircle
 10
-481.7648566960502
 20
299.5118821128829
 30
0.0
 40
2.799999999999995
100
AcDbArc
 50
26.76550057675866
 51
90.0
  0
ARC
  5
225
330
2
100
AcDbEntity
  8
UMRISS05
100
AcDbCircle
 10
-481.7648566960502
 20
299.5118821128829
 30
0.0
 40
2.79999999999999
100
AcDbArc
 50
270.0
 51
333.2344994232413
  0
LINE
  5
226
330
2
100
AcDbEntity
  8
UMRISS05
100
AcDbLine
 10
-476.2648566960502
 20
292.0118821128829
 30
0.0
 11
-476.2648566960502
 21
335.0118821128829
 31
0.0
  0
LINE
  5
227
330
2
100
AcDbEntity
  8
UMRISS05
100
AcDbLine
 10
-488.50092467355
 20
292.0118821128829
 30
0.0
 11
-476.2648566960502
 21
292.0118821128829
 31
0.0
  0
LINE
  5
228
330
2
100
AcDbEntity
  8
UMRISS05
100
AcDbLine
 10
-476.2648566960502
 20
335.0118821128829
 30
0.0
 11
-488.50092467355
 21
335.0118821128829
 31
0.0
  0
LINE
  5
229
330
2
100
AcDbEntity
  8
UMRISS05
100
AcDbLine
 10
-479.2648566960502
 20
292.0118821128829
 30
0.0
 11
-479.2648566960502
 21
298.2509300915911
 31
0.0
  0
LINE
  5
22A
330
2
100
AcDbEntity
  8
UMRISS05
100
AcDbLine
 10
-479.2648566960502
 20
300.7728341341748
 30
0.0
 11
-479.2648566960502
 21
326.2509300915911
 31
0.0
  0
LINE
  5
22B
330
2
100
AcDbEntity
  8
UMRISS05
100
AcDbLine
 10
-479.2648566960502
 20
328.7728341341749
 30
0.0
 11
-479.2648566960502
 21
335.0118821128829
 31
0.0
  0
LINE
  5
22C
330
2
100
AcDbEntity
  8
UMRISS05
100
AcDbLine
 10
-486.2648566960502
 20
291.0118821128829
 30
0.0
 11
-474.2648566960502
 21
291.0118821128829
 31
0.0
  0
LINE
  5
22D
330
2
100
AcDbEntity
  8
UMRISS05
100
AcDbLine
 10
-486.2648566960502
 20
336.0118821128829
 30
0.0
 11
-474.2648566960502
 21
336.0118821128829
 31
0.0
  0
ARC
  5
22E
330
2
100
AcDbEntity
  8
UMRISS05
100
AcDbCircle
 10
-486.2648566960502
 20
333.0118821128829
 30
0.0
 40
3.000000000000006
100
AcDbArc
 50
90.0
 51
180.0
  0
LINE
  5
22F
330
2
100
AcDbEntity
  8
UMRISS05
100
AcDbLine
 10
-489.2648566960501
 20
294.0118821128829
 30
0.0
 11
-489.2648566960501
 21
333.0118821128829
 31
0.0
  0
ARC
  5
230
330
2
100
AcDbEntity
  8
UMRISS05
100
AcDbCircle
 10
-486.2648566960502
 20
294.0118821128829
 30
0.0
 40
3.000000000000023
100
AcDbArc
 50
180.0
 51
270.0
  0
LINE
  5
231
330
2
100
AcDbEntity
  8
ACHSEN
100
AcDbLine
 10
-413.0148566960551
 20
254.5118821128828
 30
0.0
 11
-399.5148566960552
 21
254.5118821128828
 31
0.0
  0
LINE
  5
232
330
2
100
AcDbEntity
  8
ACHSEN
100
AcDbLine
 10
-413.0148566960551
 20
447.5118821128827
 30
0.0
 11
-399.5148566960552
 21
447.5118821128827
 31
0.0
  0
DIMENSION
  5
233
330
2
100
AcDbEntity
  8
BEMASSUNG
100
AcDbDimension
  2
*D2
 10
-403.2648566960552
 20
451.5118821128827
 30
0.0
 11
-431.1166790858214
 21
466.6998141631536
 31
0.0
 70
   132
 71
     5
 42
8.000000000000227
  3
Katalog 09
100
AcDbRadialDimension
 15
-410.2884422128682
 25
455.3419273460383
 35
0.0
 40
0.0
1001
ACAD_DSTYLE_DIMRADIAL_EXTENSION
1070
   387
1070
     1
1070
   388
1040
1.570796326794896
1070
   390
1040
3.141592653589792
  0
LINE
  5
23E
330
2
100
AcDbEntity
  8
UMRISS05
100
AcDbLine
 10
-485.7648566960502
 20
407.1618821128828
 30
0.0
 11
-484.338500831383
 21
407.1618821128828
 31
0.0
  0
ARC
  5
23F
330
2
100
AcDbEntity
  8
UMRISS05
100
AcDbCircle
 10
-485.7648566960502
 20
405.5118821128829
 30
0.0
 40
1.649999999999999
100
AcDbArc
 50
90.0
 51
270.0
  0
LINE
  5
240
330
2
100
AcDbEntity
  8
UMRISS05
100
AcDbLine
 10
-484.338500831383
 20
403.8618821128827
 30
0.0
 11
-485.7648566960502
 21
403.8618821128827
 31
0.0
  0
LINE
  5
241
330
2
100
AcDbEntity
  8
ACHSEN
100
AcDbLine
 10
-491.0148566960502
 20
254.5118821128829
 30
0.0
 11
-477.5148566960502
 21
254.5118821128829
 31
0.0
  0
LINE
  5
242
330
2
100
AcDbEntity
  8
ACHSEN
100
AcDbLine
 10
-484.2648566960502
 20
261.261882112883
 30
0.0
 11
-484.2648566960502
 21
247.761882112883
 31
0.0
  0
LINE
  5
243
330
2
100
AcDbEntity
  8
ACHSEN
100
AcDbLine
 10
-491.0148566960502
 20
447.4923630852528
 30
0.0
 11
-477.5148566960501
 21
447.4923630852528
 31
0.0
  0
LINE
  5
244
330
2
100
AcDbEntity
  8
ACHSEN
100
AcDbLine
 10
-484.2648566960502
 20
454.2228440576227
 30
0.0
 11
-484.2648566960502
 21
440.7618821128829
 31
0.0
  0
LINE
  5
245
330
2
100
AcDbEntity
  8
ACHSEN
100
AcDbLine
 10
-495.0342896591636
 20
369.5118914679914
 30
0.0
 11
-471.8289018498513
 21
369.5118914679916
 31
0.0
  0
SPLINE
  5
246
330
2
100
AcDbEntity
  8
UMRISS05
100
AcDbSpline
210
0.0
220
0.0
230
1.0
 70
    12
 71
     2
 72
     6
 73
     3
 74
     0
 42
0.000000001
 43
0.0000000001
 40
0.0
 40
0.0
 40
0.0
 40
0.0074036886590344
 40
0.0074036886590344
 40
0.0074036886590344
 10
-481.4045450208494
 20
377.7019994010593
 30
0.0
 41
1.0
 10
-481.6569781827609
 20
377.6713510500441
 30
0.0
 41
1.357093436693618
 10
-481.7966937756867
 20
377.6544582850834
 30
0.0
 41
1.686909074955913
  0
LINE
  5
247
330
2
100
AcDbEntity
  8
UMRISS05
100
AcDbLine
 10
-480.6931517440015
 20
377.8684066145113
 30
0.0
 11
-481.8064605219259
 21
377.7853085381754
 31
0.0
  0
SPLINE
  5
248
330
2
100
AcDbEntity
  8
UMRISS05
100
AcDbSpline
210
0.0
220
0.0
230
1.0
 70
    12
 71
     2
 72
     6
 73
     3
 74
     0
 42
0.000000001
 43
0.0000000001
 40
0.0
 40
0.0
 40
0.0
 40
0.0074036886590343
 40
0.0074036886590343
 40
0.0074036886590343
 10
-482.4549739842266
 20
378.3721937880839
 30
0.0
 41
1.0
 10
-482.4243256332112
 20
378.1197606261721
 30
0.0
 41
1.357093436693616
 10
-482.4074328682507
 20
377.9800450332466
 30
0.0
 41
1.686909074955913
  0
LINE
  5
249
330
2
100
AcDbEntity
  8
UMRISS05
100
AcDbLine
 10
-482.6213811976786
 20
379.0835870649319
 30
0.0
 11
-482.5382831213426
 21
377.9702782870074
 31
0.0
  0
ARC
  5
24A
330
2
100
AcDbEntity
  8
UMRISS05
100
AcDbCircle
 10
-482.7104055429852
 20
377.9574309598179
 30
0.0
 40
0.1726012220351236
100
AcDbArc
 50
265.7313220328063
 51
4.268677967206863
  0
SPLINE
  5
24B
330
2
100
AcDbEntity
  8
UMRISS05
100
AcDbSpline
210
0.0
220
0.0
230
1.0
 70
     8
 71
     3
 72
    18
 73
    14
 74
     0
 42
0.000000001
 43
0.0000000001
 40
0.1307806668072011
 40
0.1307806668072011
 40
0.1307806668072011
 40
0.1307806668072011
 40
0.1428948119469433
 40
0.1428948119469433
 40
0.1502675919277733
 40
0.1502675919277733
 40
0.1576403719086032
 40
0.1576403719086032
 40
0.1650131518894332
 40
0.1650131518894332
 40
0.1723859318702632
 40
0.1723859318702632
 40
0.1845000770100053
 40
0.1845000770100053
 40
0.1845000770100053
 40
0.1845000770100053
 10
-482.4074328682506
 20
377.9800450332466
 30
0.0
 10
-482.4028278925713
 20
377.9419584968534
 30
0.0
 10
-482.4059680997295
 20
377.9011249301846
 30
0.0
 10
-482.4217919104864
 20
377.8432868803611
 30
0.0
 10
-482.4310943456247
 20
377.8197429413711
 30
0.0
 10
-482.4564736237022
 20
377.7752864157758
 30
0.0
 10
-482.4725708548146
 20
377.7543518897849
 30
0.0
 10
-482.5073264729521
 20
377.7195962716473
 30
0.0
 10
-482.528260998943
 20
377.7034990405351
 30
0.0
 10
-482.5727175245383
 20
377.6781197624576
 30
0.0
 10
-482.5962614635284
 20
377.6688173273191
 30
0.0
 10
-482.6540995133519
 20
377.6529935165622
 30
0.0
 10
-482.6949330800206
 20
377.6498533094041
 30
0.0
 10
-482.7330196164139
 20
377.6544582850834
 30
0.0
  0
ARC
  5
24C
330
2
100
AcDbEntity
  8
UMRISS05
100
AcDbCircle
 10
-482.7104055429852
 20
377.066333265948
 30
0.0
 40
0.1726012220351236
100
AcDbArc
 50
355.7313220328063
 51
94.26867796719372
  0
SPLINE
  5
24D
330
2
100
AcDbEntity
  8
UMRISS05
100
AcDbSpline
210
0.0
220
0.0
230
1.0
 70
     8
 71
     3
 72
    18
 73
    14
 74
     0
 42
0.000000001
 43
0.0000000001
 40
0.1307806668072011
 40
0.1307806668072011
 40
0.1307806668072011
 40
0.1307806668072011
 40
0.1428948119469434
 40
0.1428948119469434
 40
0.1502675919277733
 40
0.1502675919277733
 40
0.1576403719086033
 40
0.1576403719086033
 40
0.1650131518894332
 40
0.1650131518894332
 40
0.1723859318702632
 40
0.1723859318702632
 40
0.1845000770100053
 40
0.1845000770100053
 40
0.1845000770100053
 40
0.1845000770100053
 10
-482.7330196164139
 20
377.3693059406826
 30
0.0
 10
-482.6949330800206
 20
377.3739109163621
 30
0.0
 10
-482.6540995133519
 20
377.3707707092037
 30
0.0
 10
-482.5962614635284
 20
377.3549468984469
 30
0.0
 10
-482.5727175245383
 20
377.3456444633084
 30
0.0
 10
-482.528260998943
 20
377.3202651852309
 30
0.0
 10
-482.5073264729521
 20
377.3041679541186
 30
0.0
 10
-482.4725708548146
 20
377.2694123359811
 30
0.0
 10
-482.4564736237022
 20
377.2484778099902
 30
0.0
 10
-482.4310943456247
 20
377.2040212843949
 30
0.0
 10
-482.4217919104864
 20
377.1804773454049
 30
0.0
 10
-482.4059680997295
 20
377.1226392955814
 30
0.0
 10
-482.4028278925713
 20
377.0818057289125
 30
0.0
 10
-482.4074328682506
 20
377.0437191925194
 30
0.0
  0
LINE
  5
24E
330
2
100
AcDbEntity
  8
UMRISS05
100
AcDbLine
 10
-482.6213811976786
 20
375.9401771608342
 30
0.0
 11
-482.5382831213426
 21
377.0534859387587
 31
0.0
  0
SPLINE
  5
24F
330
2
100
AcDbEntity
  8
UMRISS05
100
AcDbSpline
210
0.0
220
0.0
230
1.0
 70
    12
 71
     2
 72
     6
 73
     3
 74
     0
 42
0.000000001
 43
0.0000000001
 40
0.1864395669923014
 40
0.1864395669923014
 40
0.1864395669923014
 40
0.1938432556513322
 40
0.1938432556513322
 40
0.1938432556513322
 10
-482.4074328682505
 20
377.0437191925194
 30
0.0
 41
1.686909074955607
 10
-482.4243256332111
 20
376.9040035995935
 30
0.0
 41
1.35709343669345
 10
-482.4549739842266
 20
376.6515704376823
 30
0.0
 41
1.0
  0
SPLINE
  5
250
330
2
100
AcDbEntity
  8
UMRISS05
100
AcDbSpline
210
0.0
220
0.0
230
1.0
 70
    12
 71
     2
 72
     6
 73
     3
 74
     0
 42
0.000000001
 43
0.0000000001
 40
0.0
 40
0.0
 40
0.0
 40
0.0074036886590344
 40
0.0074036886590344
 40
0.0074036886590344
 10
-483.125168371251
 20
377.3217648247067
 30
0.0
 41
1.0
 10
-482.8727352093395
 20
377.3524131757221
 30
0.0
 41
1.357093436693618
 10
-482.7330196164139
 20
377.3693059406826
 30
0.0
 41
1.686909074955913
  0
LINE
  5
251
330
2
100
AcDbEntity
  8
UMRISS05
100
AcDbLine
 10
-483.836561648099
 20
377.1553576112546
 30
0.0
 11
-482.7232528701746
 21
377.2384556875906
 31
0.0
  0
ARC
  5
252
330
2
100
AcDbEntity
  8
UMRISS05
100
AcDbCircle
 10
-481.8193078491153
 20
377.066333265948
 30
0.0
 40
0.1726012220351236
100
AcDbArc
 50
85.731322032803
 51
184.2686779672068
  0
SPLINE
  5
253
330
2
100
AcDbEntity
  8
UMRISS05
100
AcDbSpline
210
0.0
220
0.0
230
1.0
 70
     8
 71
     3
 72
    18
 73
    14
 74
     0
 42
0.000000001
 43
0.0000000001
 40
0.1307806668072012
 40
0.1307806668072012
 40
0.1307806668072012
 40
0.1307806668072012
 40
0.1428948119469434
 40
0.1428948119469434
 40
0.1502675919277733
 40
0.1502675919277733
 40
0.1576403719086033
 40
0.1576403719086033
 40
0.1650131518894333
 40
0.1650131518894333
 40
0.1723859318702632
 40
0.1723859318702632
 40
0.1845000770100055
 40
0.1845000770100055
 40
0.1845000770100055
 40
0.1845000770100055
 10
-482.1222805238499
 20
377.0437191925194
 30
0.0
 10
-482.1268854995292
 20
377.0818057289125
 30
0.0
 10
-482.123745292371
 20
377.1226392955814
 30
0.0
 10
-482.1079214816141
 20
377.1804773454049
 30
0.0
 10
-482.0986190464757
 20
377.2040212843949
 30
0.0
 10
-482.0732397683982
 20
377.2484778099902
 30
0.0
 10
-482.0571425372859
 20
377.2694123359811
 30
0.0
 10
-482.0223869191483
 20
377.3041679541186
 30
0.0
 10
-482.0014523931575
 20
377.3202651852309
 30
0.0
 10
-481.9569958675621
 20
377.3456444633084
 30
0.0
 10
-481.9334519285721
 20
377.3549468984469
 30
0.0
 10
-481.8756138787486
 20
377.3707707092037
 30
0.0
 10
-481.8347803120797
 20
377.3739109163621
 30
0.0
 10
-481.7966937756866
 20
377.3693059406826
 30
0.0
  0
LINE
  5
254
330
2
100
AcDbEntity
  8
UMRISS05
100
AcDbLine
 10
-480.6931517440015
 20
377.1553576112546
 30
0.0
 11
-481.8064605219259
 21
377.2384556875906
 31
0.0
  0
SPLINE
  5
255
330
2
100
AcDbEntity
  8
UMRISS05
100
AcDbSpline
210
0.0
220
0.0
230
1.0
 70
    12
 71
     2
 72
     6
 73
     3
 74
     0
 42
0.000000001
 43
0.0000000001
 40
0.1864395669923013
 40
0.1864395669923013
 40
0.1864395669923013
 40
0.1938432556513321
 40
0.1938432556513321
 40
0.1938432556513321
 10
-481.7966937756865
 20
377.3693059406825
 30
0.0
 41
1.6869090749556
 10
-481.656978182761
 20
377.3524131757221
 30
0.0
 41
1.357093436693448
 10
-481.4045450208494
 20
377.3217648247067
 30
0.0
 41
1.0
  0
SPLINE
  5
256
330
2
100
AcDbEntity
  8
UMRISS05
100
AcDbSpline
210
0.0
220
0.0
230
1.0
 70
    12
 71
     2
 72
     6
 73
     3
 74
     0
 42
0.000000001
 43
0.0000000001
 40
0.0
 40
0.0
 40
0.0
 40
0.0074036886590343
 40
0.0074036886590343
 40
0.0074036886590343
 10
-482.0747394078739
 20
376.6515704376823
 30
0.0
 41
1.0
 10
-482.1053877588894
 20
376.9040035995936
 30
0.0
 41
1.35709343669362
 10
-482.1222805238499
 20
377.0437191925193
 30
0.0
 41
1.686909074955919
  0
LINE
  5
257
330
2
100
AcDbEntity
  8
UMRISS05
100
AcDbLine
 10
-481.9083321944218
 20
375.9401771608342
 30
0.0
 11
-481.9914302707579
 21
377.0534859387587
 31
0.0
  0
LINE
  5
258
330
2
100
AcDbEntity
  8
UMRISS05
100
AcDbLine
 10
-481.9083321944218
 20
379.0835870649319
 30
0.0
 11
-481.9914302707579
 21
377.9702782870074
 31
0.0
  0
SPLINE
  5
259
330
2
100
AcDbEntity
  8
UMRISS05
100
AcDbSpline
210
0.0
220
0.0
230
1.0
 70
    12
 71
     2
 72
     6
 73
     3
 74
     0
 42
0.000000001
 43
0.0000000001
 40
0.1864395669923015
 40
0.1864395669923015
 40
0.1864395669923015
 40
0.1938432556513323
 40
0.1938432556513323
 40
0.1938432556513323
 10
-482.1222805238498
 20
377.9800450332466
 30
0.0
 41
1.686909074955601
 10
-482.1053877588893
 20
378.1197606261723
 30
0.0
 41
1.357093436693449
 10
-482.0747394078739
 20
378.3721937880839
 30
0.0
 41
1.0
  0
LINE
  5
25A
330
2
100
AcDbEntity
  8
UMRISS05
100
AcDbLine
 10
-483.836561648099
 20
377.8684066145113
 30
0.0
 11
-482.7232528701746
 21
377.7853085381754
 31
0.0
  0
SPLINE
  5
25B
330
2
100
AcDbEntity
  8
UMRISS05
100
AcDbSpline
210
0.0
220
0.0
230
1.0
 70
    12
 71
     2
 72
     6
 73
     3
 74
     0
 42
0.000000001
 43
0.0000000001
 40
0.1864395669923013
 40
0.1864395669923013
 40
0.1864395669923013
 40
0.1938432556513321
 40
0.1938432556513321
 40
0.1938432556513321
 10
-482.733019616414
 20
377.6544582850834
 30
0.0
 41
1.6869090749556
 10
-482.8727352093396
 20
377.6713510500439
 30
0.0
 41
1.357093436693448
 10
-483.125168371251
 20
377.7019994010593
 30
0.0
 41
1.0
  0
ARC
  5
25C
330
2
100
AcDbEntity
  8
UMRISS05
100
AcDbCircle
 10
-481.8193078491153
 20
377.9574309598179
 30
0.0
 40
0.1726012220351237
100
AcDbArc
 50
175.7313220328063
 51
274.2686779671938
  0
SPLINE
  5
25D
330
2
100
AcDbEntity
  8
UMRISS05
100
AcDbSpline
210
0.0
220
0.0
230
1.0
 70
     8
 71
     3
 72
    18
 73
    14
 74
     0
 42
0.000000001
 43
0.0000000001
 40
0.1307806668072011
 40
0.1307806668072011
 40
0.1307806668072011
 40
0.1307806668072011
 40
0.1428948119469433
 40
0.1428948119469433
 40
0.1502675919277733
 40
0.1502675919277733
 40
0.1576403719086032
 40
0.1576403719086032
 40
0.1650131518894332
 40
0.1650131518894332
 40
0.1723859318702632
 40
0.1723859318702632
 40
0.1845000770100054
 40
0.1845000770100054
 40
0.1845000770100054
 40
0.1845000770100054
 10
-481.7966937756866
 20
377.6544582850834
 30
0.0
 10
-481.8347803120797
 20
377.6498533094041
 30
0.0
 10
-481.8756138787486
 20
377.6529935165622
 30
0.0
 10
-481.9334519285721
 20
377.6688173273191
 30
0.0
 10
-481.9569958675621
 20
377.6781197624576
 30
0.0
 10
-482.0014523931575
 20
377.7034990405351
 30
0.0
 10
-482.0223869191483
 20
377.7195962716473
 30
0.0
 10
-482.0571425372859
 20
377.7543518897849
 30
0.0
 10
-482.0732397683982
 20
377.7752864157758
 30
0.0
 10
-482.0986190464757
 20
377.8197429413711
 30
0.0
 10
-482.1079214816141
 20
377.8432868803611
 30
0.0
 10
-482.123745292371
 20
377.9011249301846
 30
0.0
 10
-482.1268854995292
 20
377.9419584968534
 30
0.0
 10
-482.1222805238499
 20
377.9800450332466
 30
0.0
  0
SPLINE
  5
25E
330
2
100
AcDbEntity
  8
UMRISS05
100
AcDbSpline
210
0.0
220
0.0
230
1.0
 70
    28
 71
     2
 72
     6
 73
     3
 74
     0
 42
0.000000001
 43
0.0000000001
 40
0.0
 40
0.0
 40
0.0
 40
0.1376359333936737
 40
0.1376359333936737
 40
0.1376359333936737
 10
-483.125168371251
 20
377.7019994010593
 30
0.0
 41
1.0
 10
-483.3437858681969
 20
377.7580060870586
 30
0.0
 41
1.035797791375359
 10
-483.7116960651183
 20
377.8522845008996
 30
0.0
 41
1.003318069934927
  0
SPLINE
  5
25F
330
2
100
AcDbEntity
  8
UMRISS05
100
AcDbSpline
210
0.0
220
0.0
230
1.0
 70
    28
 71
     2
 72
     6
 73
     3
 74
     0
 42
0.000000001
 43
0.0000000001
 40
0.0066886685476671
 40
0.0066886685476671
 40
0.0066886685476671
 40
0.1443246019424431
 40
0.1443246019424431
 40
0.1443246019424431
 10
-483.7116960651183
 20
377.1714797248663
 30
0.0
 41
1.00331806994064
 10
-483.3437858681589
 20
377.265758138717
 30
0.0
 41
1.035797791442895
 10
-483.125168371251
 20
377.3217648247067
 30
0.0
 41
1.0
  0
SPLINE
  5
260
330
2
100
AcDbEntity
  8
UMRISS05
100
AcDbSpline
210
0.0
220
0.0
230
1.0
 70
    28
 71
     2
 72
     6
 73
     3
 74
     0
 42
0.000000001
 43
0.0000000001
 40
0.0
 40
0.0
 40
0.0
 40
0.1376359332989502
 40
0.1376359332989502
 40
0.1376359332989502
 10
-482.0747394078739
 20
378.3721937880839
 30
0.0
 41
1.0
 10
-482.0187327210917
 20
378.5908112880851
 30
0.0
 41
1.035797784978621
 10
-481.9244543080336
 20
378.9587214819511
 30
0.0
 41
1.003318069389008
  0
SPLINE
  5
261
330
2
100
AcDbEntity
  8
UMRISS05
100
AcDbSpline
210
0.0
220
0.0
230
1.0
 70
    28
 71
     2
 72
     6
 73
     3
 74
     0
 42
0.000000001
 43
0.0000000001
 40
0.0066886686434352
 40
0.0066886686434352
 40
0.0066886686434352
 40
0.1443246019424431
 40
0.1443246019424431
 40
0.1443246019424431
 10
-482.605259084067
 20
378.9587214819511
 30
0.0
 41
1.003318069389957
 10
-482.5109806710089
 20
378.5908112880856
 30
0.0
 41
1.035797784989171
 10
-482.4549739842266
 20
378.3721937880839
 30
0.0
 41
1.0
  0
SPLINE
  5
262
330
2
100
AcDbEntity
  8
UMRISS05
100
AcDbSpline
210
0.0
220
0.0
230
1.0
 70
    28
 71
     2
 72
     6
 73
     3
 74
     0
 42
0.000000001
 43
0.0000000001
 40
0.0
 40
0.0
 40
0.0
 40
0.1376359333936737
 40
0.1376359333936737
 40
0.1376359333936737
 10
-481.4045450208494
 20
377.3217648247067
 30
0.0
 41
1.0
 10
-481.1859275239036
 20
377.2657581387072
 30
0.0
 41
1.035797791375359
 10
-480.8180173269822
 20
377.1714797248663
 30
0.0
 41
1.003318069934927
  0
SPLINE
  5
263
330
2
100
AcDbEntity
  8
UMRISS05
100
AcDbSpline
210
0.0
220
0.0
230
1.0
 70
    28
 71
     2
 72
     6
 73
     3
 74
     0
 42
0.000000001
 43
0.0000000001
 40
0.0066886685476671
 40
0.0066886685476671
 40
0.0066886685476671
 40
0.1443246019424431
 40
0.1443246019424431
 40
0.1443246019424431
 10
-480.8180173269822
 20
377.8522845008996
 30
0.0
 41
1.00331806994064
 10
-481.1859275239416
 20
377.7580060870489
 30
0.0
 41
1.035797791442895
 10
-481.4045450208494
 20
377.7019994010593
 30
0.0
 41
1.0
  0
SPLINE
  5
264
330
2
100
AcDbEntity
  8
UMRISS05
100
AcDbSpline
210
0.0
220
0.0
230
1.0
 70
    28
 71
     2
 72
     6
 73
     3
 74
     0
 42
0.000000001
 43
0.0000000001
 40
0.0
 40
0.0
 40
0.0
 40
0.1376359334142349
 40
0.1376359334142349
 40
0.1376359334142349
 10
-482.4549739842266
 20
376.6515704376823
 30
0.0
 41
1.0
 10
-482.5109806700542
 20
376.4329529414064
 30
0.0
 41
1.035797792744685
 10
-482.605259084067
 20
376.0650427438149
 30
0.0
 41
1.003318070051649
  0
SPLINE
  5
265
330
2
100
AcDbEntity
  8
UMRISS05
100
AcDbSpline
210
0.0
220
0.0
230
1.0
 70
    28
 71
     2
 72
     6
 73
     3
 74
     0
 42
0.000000001
 43
0.0000000001
 40
0.0066886685305404
 40
0.0066886685305404
 40
0.0066886685305404
 40
0.1443246019424431
 40
0.1443246019424431
 40
0.1443246019424431
 10
-481.9244543080336
 20
376.0650427438149
 30
0.0
 41
1.003318070038472
 10
-482.0187327220267
 20
376.43295294133
 30
0.0
 41
1.035797792590058
 10
-482.0747394078739
 20
376.6515704376823
 30
0.0
 41
1.0
  0
SPLINE
  5
266
330
2
100
AcDbEntity
  8
UMRISS05
100
AcDbSpline
210
0.0
220
0.0
230
1.0
 70
     8
 71
     3
 72
    12
 73
     8
 74
     0
 42
0.000000001
 43
0.0000000001
 40
0.0209582253696219
 40
0.0209582253696219
 40
0.0209582253696219
 40
0.0209582253696219
 40
0.0262100952007496
 40
0.0262100952007496
 40
0.0314079723979964
 40
0.0314079723979964
 40
0.0356231486981253
 40
0.0356231486981253
 40
0.0356231486981253
 40
0.0356231486981253
 10
-483.836561648099
 20
377.8684066145113
 30
0.0
 10
-483.8191039780851
 20
377.8671035629014
 30
0.0
 10
-483.798579981856
 20
377.8652151231187
 30
0.0
 10
-483.7665873840203
 20
377.8616595352082
 30
0.0
 10
-483.7494375654409
 20
377.8593679932827
 30
0.0
 10
-483.7275501502575
 20
377.8557870773694
 30
0.0
 10
-483.7180974779522
 20
377.8539248877479
 30
0.0
 10
-483.7116960651183
 20
377.8522845008996
 30
0.0
  0
SPLINE
  5
267
330
2
100
AcDbEntity
  8
UMRISS05
100
AcDbSpline
210
0.0
220
0.0
230
1.0
 70
     8
 71
     3
 72
    12
 73
     8
 74
     0
 42
0.000000001
 43
0.0000000001
 40
0.0478894890006209
 40
0.0478894890006209
 40
0.0478894890006209
 40
0.0478894890006209
 40
0.0521046653007499
 40
0.0521046653007499
 40
0.0573025424979967
 40
0.0573025424979967
 40
0.0625544123291244
 40
0.0625544123291244
 40
0.0625544123291244
 40
0.0625544123291244
 10
-483.7116960651183
 20
377.1714797248663
 30
0.0
 10
-483.7180974779522
 20
377.1698393380181
 30
0.0
 10
-483.7275501502575
 20
377.1679771483966
 30
0.0
 10
-483.7494375654409
 20
377.1643962324834
 30
0.0
 10
-483.7665873840203
 20
377.1621046905577
 30
0.0
 10
-483.798579981856
 20
377.1585491026473
 30
0.0
 10
-483.8191039780851
 20
377.1566606628645
 30
0.0
 10
-483.836561648099
 20
377.1553576112546
 30
0.0
  0
SPLINE
  5
268
330
2
100
AcDbEntity
  8
UMRISS05
100
AcDbSpline
210
0.0
220
0.0
230
1.0
 70
     8
 71
     3
 72
    12
 73
     8
 74
     0
 42
0.000000001
 43
0.0000000001
 40
0.0209582253696219
 40
0.0209582253696219
 40
0.0209582253696219
 40
0.0209582253696219
 40
0.0262100952007496
 40
0.0262100952007496
 40
0.0314079723979964
 40
0.0314079723979964
 40
0.035623148698123
 40
0.035623148698123
 40
0.035623148698123
 40
0.035623148698123
 10
-481.9083321944218
 20
379.0835870649319
 30
0.0
 10
-481.9096352460318
 20
379.0661293949178
 30
0.0
 10
-481.9115236858146
 20
379.0456053986889
 30
0.0
 10
-481.915079273725
 20
379.0136128008529
 30
0.0
 10
-481.9173708156505
 20
378.9964629822736
 30
0.0
 10
-481.9209517315639
 20
378.9745755670902
 30
0.0
 10
-481.9228139211854
 20
378.965122894785
 30
0.0
 10
-481.9244543080336
 20
378.9587214819511
 30
0.0
  0
SPLINE
  5
269
330
2
100
AcDbEntity
  8
UMRISS05
100
AcDbSpline
210
0.0
220
0.0
230
1.0
 70
     8
 71
     3
 72
    12
 73
     8
 74
     0
 42
0.000000001
 43
0.0000000001
 40
0.0478894890006233
 40
0.0478894890006233
 40
0.0478894890006233
 40
0.0478894890006233
 40
0.0521046653007499
 40
0.0521046653007499
 40
0.0573025424979966
 40
0.0573025424979966
 40
0.0625544123291244
 40
0.0625544123291244
 40
0.0625544123291244
 40
0.0625544123291244
 10
-482.605259084067
 20
378.9587214819511
 30
0.0
 10
-482.6068994709151
 20
378.965122894785
 30
0.0
 10
-482.6087616605366
 20
378.9745755670902
 30
0.0
 10
-482.61234257645
 20
378.9964629822736
 30
0.0
 10
-482.6146341183754
 20
379.0136128008529
 30
0.0
 10
-482.6181897062859
 20
379.0456053986889
 30
0.0
 10
-482.6200781460687
 20
379.0661293949178
 30
0.0
 10
-482.6213811976786
 20
379.0835870649319
 30
0.0
  0
SPLINE
  5
26A
330
2
100
AcDbEntity
  8
Sichtbare Kanten(MSL)
100
AcDbSpline
210
0.0
220
0.0
230
1.0
 70
     8
 71
     3
 72
    12
 73
     8
 74
     0
 42
0.000000001
 43
0.0000000001
 40
0.0209582253696219
 40
0.0209582253696219
 40
0.0209582253696219
 40
0.0209582253696219
 40
0.0262100952007496
 40
0.0262100952007496
 40
0.0314079723979964
 40
0.0314079723979964
 40
0.0356231486981253
 40
0.0356231486981253
 40
0.0356231486981253
 40
0.0356231486981253
 10
-480.6931517440015
 20
377.1553576112546
 30
0.0
 10
-480.7106094140154
 20
377.1566606628645
 30
0.0
 10
-480.7311334102444
 20
377.1585491026473
 30
0.0
 10
-480.7631260080801
 20
377.1621046905577
 30
0.0
 10
-480.7802758266596
 20
377.1643962324834
 30
0.0
 10
-480.802163241843
 20
377.1679771483966
 30
0.0
 10
-480.8116159141482
 20
377.1698393380181
 30
0.0
 10
-480.8180173269822
 20
377.1714797248663
 30
0.0
  0
SPLINE
  5
26B
330
2
100
AcDbEntity
  8
Sichtbare Kanten(MSL)
100
AcDbSpline
210
0.0
220
0.0
230
1.0
 70
     8
 71
     3
 72
    12
 73
     8
 74
     0
 42
0.000000001
 43
0.0000000001
 40
0.0478894890006209
 40
0.0478894890006209
 40
0.0478894890006209
 40
0.0478894890006209
 40
0.0521046653007499
 40
0.0521046653007499
 40
0.0573025424979967
 40
0.0573025424979967
 40
0.0625544123291244
 40
0.0625544123291244
 40
0.0625544123291244
 40
0.0625544123291244
 10
-480.8180173269822
 20
377.8522845008996
 30
0.0
 10
-480.8116159141482
 20
377.8539248877479
 30
0.0
 10
-480.802163241843
 20
377.8557870773694
 30
0.0
 10
-480.7802758266596
 20
377.8593679932827
 30
0.0
 10
-480.7631260080801
 20
377.8616595352082
 30
0.0
 10
-480.7311334102444
 20
377.8652151231187
 30
0.0
 10
-480.7106094140154
 20
377.8671035629014
 30
0.0
 10
-480.6931517440015
 20
377.8684066145113
 30
0.0
  0
SPLINE
  5
26C
330
2
100
AcDbEntity
  8
UMRISS05
100
AcDbSpline
210
0.0
220
0.0
230
1.0
 70
     8
 71
     3
 72
    12
 73
     8
 74
     0
 42
0.000000001
 43
0.0000000001
 40
0.0209582253696219
 40
0.0209582253696219
 40
0.0209582253696219
 40
0.0209582253696219
 40
0.0262100952007496
 40
0.0262100952007496
 40
0.0314079723979964
 40
0.0314079723979964
 40
0.0356231486981258
 40
0.0356231486981258
 40
0.0356231486981258
 40
0.0356231486981258
 10
-482.6213811976786
 20
375.9401771608342
 30
0.0
 10
-482.6200781460687
 20
375.9576348308481
 30
0.0
 10
-482.6181897062859
 20
375.9781588270771
 30
0.0
 10
-482.6146341183754
 20
376.0101514249129
 30
0.0
 10
-482.61234257645
 20
376.0273012434922
 30
0.0
 10
-482.6087616605366
 20
376.0491886586757
 30
0.0
 10
-482.6068994709151
 20
376.0586413309809
 30
0.0
 10
-482.605259084067
 20
376.0650427438149
 30
0.0
  0
SPLINE
  5
26D
330
2
100
AcDbEntity
  8
UMRISS05
100
AcDbSpline
210
0.0
220
0.0
230
1.0
 70
     8
 71
     3
 72
    12
 73
     8
 74
     0
 42
0.000000001
 43
0.0000000001
 40
0.0478894890006205
 40
0.0478894890006205
 40
0.0478894890006205
 40
0.0478894890006205
 40
0.0521046653007498
 40
0.0521046653007498
 40
0.0573025424979966
 40
0.0573025424979966
 40
0.0625544123291244
 40
0.0625544123291244
 40
0.0625544123291244
 40
0.0625544123291244
 10
-481.9244543080336
 20
376.0650427438149
 30
0.0
 10
-481.9228139211854
 20
376.0586413309809
 30
0.0
 10
-481.9209517315639
 20
376.0491886586757
 30
0.0
 10
-481.9173708156505
 20
376.0273012434922
 30
0.0
 10
-481.915079273725
 20
376.0101514249129
 30
0.0
 10
-481.9115236858146
 20
375.9781588270771
 30
0.0
 10
-481.9096352460318
 20
375.9576348308481
 30
0.0
 10
-481.9083321944218
 20
375.9401771608342
 30
0.0
  0
CIRCLE
  5
26E
330
2
100
AcDbEntity
  8
UMRISS05
100
AcDbCircle
 10
-482.2648566960502
 20
377.5118821128831
 30
0.0
 40
2.649999999999995
  0
ARC
  5
26F
330
2
100
AcDbEntity
  8
UMRISS05
100
AcDbCircle
 10
-482.2648566960502
 20
377.5118821128831
 30
0.0
 40
0.8810679665896243
100
AcDbArc
 50
167.538678337302
 51
192.461321662698
  0
ARC
  5
270
330
2
100
AcDbEntity
  8
UMRISS05
100
AcDbCircle
 10
-482.2648566960502
 20
377.5118821128831
 30
0.0
 40
0.8810679665896202
100
AcDbArc
 50
77.53867833730189
 51
102.4613216626981
  0
ARC
  5
271
330
2
100
AcDbEntity
  8
UMRISS05
100
AcDbCircle
 10
-482.2648566960502
 20
377.5118821128831
 30
0.0
 40
0.8810679665896225
100
AcDbArc
 50
347.5386783373019
 51
12.46132166269803
  0
ARC
  5
272
330
2
100
AcDbEntity
  8
UMRISS05
100
AcDbCircle
 10
-482.2648566960502
 20
377.5118821128831
 30
0.0
 40
0.881067966589619
100
AcDbArc
 50
257.5386783373019
 51
282.4613216626981
  0
SPLINE
  5
273
330
2
100
AcDbEntity
  8
UMRISS05
100
AcDbSpline
210
0.0
220
0.0
230
1.0
 70
    12
 71
     2
 72
     6
 73
     3
 74
     0
 42
0.000000001
 43
0.0000000001
 40
0.0
 40
0.0
 40
0.0
 40
0.0074036886590344
 40
0.0074036886590344
 40
0.0074036886590344
 10
-481.900410592888
 20
404.7097226526505
 30
0.0
 41
1.0
 10
-481.9827573804664
 20
404.9503070021586
 30
0.0
 41
1.357093436693618
 10
-482.0282654983205
 20
405.083479159999
 30
0.0
 41
1.686909074955913
  0
LINE
  5
274
330
2
100
AcDbEntity
  8
UMRISS05
100
AcDbLine
 10
-481.590050667168
 20
404.0483237778856
 30
0.0
 11
-481.9022876042056
 21
405.1201772288963
 31
0.0
  0
SPLINE
  5
275
330
2
100
AcDbEntity
  8
UMRISS05
100
AcDbSpline
210
0.0
220
0.0
230
1.0
 70
    12
 71
     2
 72
     6
 73
     3
 74
     0
 42
0.000000001
 43
0.0000000001
 40
0.0
 40
0.0
 40
0.0
 40
0.0074036886590343
 40
0.0074036886590343
 40
0.0074036886590343
 10
-481.462697235818
 20
405.8763282160452
 30
0.0
 41
1.0
 10
-481.7032815853258
 20
405.7939814284666
 30
0.0
 41
1.357093436693616
 10
-481.8364537431667
 20
405.7484733106131
 30
0.0
 41
1.686909074955913
  0
LINE
  5
276
330
2
100
AcDbEntity
  8
UMRISS05
100
AcDbLine
 10
-480.8012983610529
 20
406.1866881417651
 30
0.0
 11
-481.8731518120636
 21
405.8744512047276
 31
0.0
  0
ARC
  5
277
330
2
100
AcDbEntity
  8
UMRISS05
100
AcDbCircle
 10
-481.9214250124505
 20
406.0401644509465
 30
0.0
 40
0.1726012220351237
100
AcDbArc
 50
187.7037824366619
 51
286.2411383710565
  0
SPLINE
  5
278
330
2
100
AcDbEntity
  8
UMRISS05
100
AcDbSpline
210
0.0
220
0.0
230
1.0
 70
     8
 71
     3
 72
    18
 73
    14
 74
     0
 42
0.000000001
 43
0.0000000001
 40
0.1307806668072011
 40
0.1307806668072011
 40
0.1307806668072011
 40
0.1307806668072011
 40
0.1428948119469433
 40
0.1428948119469433
 40
0.1502675919277733
 40
0.1502675919277733
 40
0.1576403719086032
 40
0.1576403719086032
 40
0.1650131518894332
 40
0.1650131518894332
 40
0.1723859318702632
 40
0.1723859318702632
 40
0.1845000770100053
 40
0.1845000770100053
 40
0.1845000770100053
 40
0.1845000770100053
 10
-481.8364537431666
 20
405.7484733106129
 30
0.0
 10
-481.8727565360758
 20
405.7360677762662
 30
0.0
 10
-481.9133532767216
 20
405.7306690989435
 30
0.0
 10
-481.9732157151031
 20
405.7341506884164
 30
0.0
 10
-481.9981772239471
 20
405.7383667812652
 30
0.0
 10
-482.0469314213568
 20
405.7539718656504
 30
0.0
 10
-482.0707498014236
 20
405.7653762507253
 30
0.0
 10
-482.1119591532981
 20
405.7921660865282
 30
0.0
 10
-482.1320489178929
 20
405.8093059986187
 30
0.0
 10
-482.1660982602041
 20
405.8475307643067
 30
0.0
 10
-482.1800823337377
 20
405.8686328506984
 30
0.0
 10
-482.2075599484192
 20
405.9219302585685
 30
0.0
 10
-482.2191024248552
 20
405.9612241805617
 30
0.0
 10
-482.2224983480298
 20
405.9994374997219
 30
0.0
  0
ARC
  5
279
330
2
100
AcDbEntity
  8
UMRISS05
100
AcDbCircle
 10
-482.7931390341139
 20
405.8553137964826
 30
0.0
 40
0.1726012220351236
100
AcDbArc
 50
277.7037824366646
 51
16.24113837105643
  0
SPLINE
  5
27A
330
2
100
AcDbEntity
  8
UMRISS05
100
AcDbSpline
210
0.0
220
0.0
230
1.0
 70
     8
 71
     3
 72
    18
 73
    14
 74
     0
 42
0.000000001
 43
0.0000000001
 40
0.1307806668072011
 40
0.1307806668072011
 40
0.1307806668072011
 40
0.1307806668072011
 40
0.1428948119469434
 40
0.1428948119469434
 40
0.1502675919277733
 40
0.1502675919277733
 40
0.1576403719086033
 40
0.1576403719086033
 40
0.1650131518894332
 40
0.1650131518894332
 40
0.1723859318702632
 40
0.1723859318702632
 40
0.1845000770100053
 40
0.1845000770100053
 40
0.1845000770100053
 40
0.1845000770100053
 10
-482.5014478937803
 20
405.9402850657666
 30
0.0
 10
-482.4890423594334
 20
405.9039822728574
 30
0.0
 10
-482.4836436821109
 20
405.8633855322114
 30
0.0
 10
-482.4871252715836
 20
405.80352309383
 30
0.0
 10
-482.4913413644325
 20
405.778561584986
 30
0.0
 10
-482.5069464488178
 20
405.7298073875763
 30
0.0
 10
-482.5183508338926
 20
405.7059890075095
 30
0.0
 10
-482.5451406696955
 20
405.664779655635
 30
0.0
 10
-482.5622805817859
 20
405.6446898910401
 30
0.0
 10
-482.6005053474741
 20
405.6106405487289
 30
0.0
 10
-482.6216074338656
 20
405.5966564751954
 30
0.0
 10
-482.6749048417357
 20
405.569178860514
 30
0.0
 10
-482.7141987637291
 20
405.557636384078
 30
0.0
 10
-482.7524120828893
 20
405.5542404609033
 30
0.0
  0
LINE
  5
27B
330
2
100
AcDbEntity
  8
UMRISS05
100
AcDbLine
 10
-483.8763309956198
 20
405.5346144331044
 30
0.0
 11
-482.770001563129
 21
405.6842704122656
 31
0.0
  0
SPLINE
  5
27C
330
2
100
AcDbEntity
  8
UMRISS05
100
AcDbSpline
210
0.0
220
0.0
230
1.0
 70
    12
 71
     2
 72
     6
 73
     3
 74
     0
 42
0.000000001
 43
0.0000000001
 40
0.1864395669923014
 40
0.1864395669923014
 40
0.1864395669923014
 40
0.1938432556513322
 40
0.1938432556513322
 40
0.1938432556513322
 10
-482.7524120828893
 20
405.5542404609036
 30
0.0
 41
1.686909074955607
 10
-482.8925927621977
 20
405.5417829505914
 30
0.0
 41
1.35709343669345
 10
-483.1458925923593
 20
405.5193995037439
 30
0.0
 41
1.0
  0
SPLINE
  5
27D
330
2
100
AcDbEntity
  8
UMRISS05
100
AcDbSpline
210
0.0
220
0.0
230
1.0
 70
    12
 71
     2
 72
     6
 73
     3
 74
     0
 42
0.000000001
 43
0.0000000001
 40
0.0
 40
0.0
 40
0.0
 40
0.0074036886590344
 40
0.0074036886590344
 40
0.0074036886590344
 10
-482.6293027992125
 20
406.3140415731154
 30
0.0
 41
1.0
 10
-482.546956011634
 20
406.0734572236071
 30
0.0
 41
1.357093436693618
 10
-482.5014478937801
 20
405.9402850657667
 30
0.0
 41
1.686909074955913
  0
LINE
  5
27E
330
2
100
AcDbEntity
  8
UMRISS05
100
AcDbLine
 10
-482.9396627249324
 20
406.9754404478802
 30
0.0
 11
-482.6274257878949
 21
405.9035869968694
 31
0.0
  0
ARC
  5
27F
330
2
100
AcDbEntity
  8
UMRISS05
100
AcDbCircle
 10
-482.60828837965
 20
404.9835997748192
 30
0.0
 40
0.1726012220351237
100
AcDbArc
 50
7.703782436661959
 51
106.2411383710565
  0
SPLINE
  5
280
330
2
100
AcDbEntity
  8
UMRISS05
100
AcDbSpline
210
0.0
220
0.0
230
1.0
 70
     8
 71
     3
 72
    18
 73
    14
 74
     0
 42
0.000000001
 43
0.0000000001
 40
0.1307806668072012
 40
0.1307806668072012
 40
0.1307806668072012
 40
0.1307806668072012
 40
0.1428948119469434
 40
0.1428948119469434
 40
0.1502675919277733
 40
0.1502675919277733
 40
0.1576403719086033
 40
0.1576403719086033
 40
0.1650131518894333
 40
0.1650131518894333
 40
0.1723859318702632
 40
0.1723859318702632
 40
0.1845000770100055
 40
0.1845000770100055
 40
0.1845000770100055
 40
0.1845000770100055
 10
-482.6932596489339
 20
405.2752909151529
 30
0.0
 10
-482.6569568560246
 20
405.2876964494998
 30
0.0
 10
-482.6163601153789
 20
405.2930951268224
 30
0.0
 10
-482.5564976769972
 20
405.2896135373496
 30
0.0
 10
-482.5315361681533
 20
405.2853974445005
 30
0.0
 10
-482.4827819707436
 20
405.2697923601154
 30
0.0
 10
-482.4589635906768
 20
405.2583879750406
 30
0.0
 10
-482.4177542388024
 20
405.2315981392377
 30
0.0
 10
-482.3976644742075
 20
405.2144582271473
 30
0.0
 10
-482.3636151318964
 20
405.1762334614591
 30
0.0
 10
-482.3496310583628
 20
405.1551313750675
 30
0.0
 10
-482.3221534436812
 20
405.1018339671974
 30
0.0
 10
-482.3106109672452
 20
405.0625400452039
 30
0.0
 10
-482.3072150440706
 20
405.0243267260439
 30
0.0
  0
LINE
  5
281
330
2
100
AcDbEntity
  8
UMRISS05
100
AcDbLine
 10
-482.2875890162717
 20
403.9004078133134
 30
0.0
 11
-482.4372449954328
 21
405.0067372458041
 31
0.0
  0
SPLINE
  5
282
330
2
100
AcDbEntity
  8
UMRISS05
100
AcDbSpline
210
0.0
220
0.0
230
1.0
 70
    12
 71
     2
 72
     6
 73
     3
 74
     0
 42
0.000000001
 43
0.0000000001
 40
0.1864395669923013
 40
0.1864395669923013
 40
0.1864395669923013
 40
0.1938432556513321
 40
0.1938432556513321
 40
0.1938432556513321
 10
-482.3072150440706
 20
405.0243267260439
 30
0.0
 41
1.6869090749556
 10
-482.2947575337586
 20
404.8841460467354
 30
0.0
 41
1.357093436693448
 10
-482.2723740869112
 20
404.6308462165739
 30
0.0
 41
1.0
  0
SPLINE
  5
283
330
2
100
AcDbEntity
  8
UMRISS05
100
AcDbSpline
210
0.0
220
0.0
230
1.0
 70
    12
 71
     2
 72
     6
 73
     3
 74
     0
 42
0.000000001
 43
0.0000000001
 40
0.0
 40
0.0
 40
0.0
 40
0.0074036886590343
 40
0.0074036886590343
 40
0.0074036886590343
 10
-483.0670161562825
 20
405.1474360097207
 30
0.0
 41
1.0
 10
-482.8264318067748
 20
405.2297827972992
 30
0.0
 41
1.35709343669362
 10
-482.6932596489338
 20
405.2752909151531
 30
0.0
 41
1.686909074955919
  0
LINE
  5
284
330
2
100
AcDbEntity
  8
UMRISS05
100
AcDbLine
 10
-483.7284150310476
 20
404.8370760840008
 30
0.0
 11
-482.6565615800368
 21
405.1493130210381
 31
0.0
  0
LINE
  5
285
330
2
100
AcDbEntity
  8
UMRISS05
100
AcDbLine
 10
-480.6533823964807
 20
405.4891497926615
 30
0.0
 11
-481.7597118289715
 21
405.3394938135004
 31
0.0
  0
SPLINE
  5
286
330
2
100
AcDbEntity
  8
UMRISS05
100
AcDbSpline
210
0.0
220
0.0
230
1.0
 70
    12
 71
     2
 72
     6
 73
     3
 74
     0
 42
0.000000001
 43
0.0000000001
 40
0.1864395669923015
 40
0.1864395669923015
 40
0.1864395669923015
 40
0.1938432556513323
 40
0.1938432556513323
 40
0.1938432556513323
 10
-481.7773013092113
 20
405.4695237648624
 30
0.0
 41
1.686909074955601
 10
-481.6371206299026
 20
405.4819812751743
 30
0.0
 41
1.357093436693449
 10
-481.3838207997413
 20
405.5043647220219
 30
0.0
 41
1.0
  0
LINE
  5
287
330
2
100
AcDbEntity
  8
UMRISS05
100
AcDbLine
 10
-482.2421243758288
 20
407.1233564124525
 30
0.0
 11
-482.0924683966676
 21
406.0170269799615
 31
0.0
  0
SPLINE
  5
288
330
2
100
AcDbEntity
  8
UMRISS05
100
AcDbSpline
210
0.0
220
0.0
230
1.0
 70
    12
 71
     2
 72
     6
 73
     3
 74
     0
 42
0.000000001
 43
0.0000000001
 40
0.1864395669923013
 40
0.1864395669923013
 40
0.1864395669923013
 40
0.1938432556513321
 40
0.1938432556513321
 40
0.1938432556513321
 10
-482.2224983480298
 20
405.9994374997218
 30
0.0
 41
1.6869090749556
 10
-482.2349558583417
 20
406.1396181790305
 30
0.0
 41
1.357093436693448
 10
-482.2573393051893
 20
406.3929180091919
 30
0.0
 41
1.0
  0
ARC
  5
289
330
2
100
AcDbEntity
  8
UMRISS05
100
AcDbCircle
 10
-481.7365743579866
 20
405.1684504292832
 30
0.0
 40
0.1726012220351237
100
AcDbArc
 50
97.7037824366654
 51
196.2411383710564
  0
SPLINE
  5
28A
330
2
100
AcDbEntity
  8
UMRISS05
100
AcDbSpline
210
0.0
220
0.0
230
1.0
 70
     8
 71
     3
 72
    18
 73
    14
 74
     0
 42
0.000000001
 43
0.0000000001
 40
0.1307806668072011
 40
0.1307806668072011
 40
0.1307806668072011
 40
0.1307806668072011
 40
0.1428948119469433
 40
0.1428948119469433
 40
0.1502675919277733
 40
0.1502675919277733
 40
0.1576403719086032
 40
0.1576403719086032
 40
0.1650131518894332
 40
0.1650131518894332
 40
0.1723859318702632
 40
0.1723859318702632
 40
0.1845000770100054
 40
0.1845000770100054
 40
0.1845000770100054
 40
0.1845000770100054
 10
-482.0282654983203
 20
405.0834791599992
 30
0.0
 10
-482.0406710326671
 20
405.1197819529085
 30
0.0
 10
-482.0460697099895
 20
405.1603786935542
 30
0.0
 10
-482.0425881205169
 20
405.2202411319359
 30
0.0
 10
-482.0383720276679
 20
405.2452026407799
 30
0.0
 10
-482.0227669432827
 20
405.2939568381893
 30
0.0
 10
-482.0113625582078
 20
405.3177752182564
 30
0.0
 10
-481.9845727224049
 20
405.3589845701306
 30
0.0
 10
-481.9674328103145
 20
405.3790743347255
 30
0.0
 10
-481.9292080446264
 20
405.4131236770367
 30
0.0
 10
-481.9081059582347
 20
405.4271077505704
 30
0.0
 10
-481.8548085503646
 20
405.454585365252
 30
0.0
 10
-481.8155146283713
 20
405.4661278416878
 30
0.0
 10
-481.7773013092113
 20
405.4695237648624
 30
0.0
  0
SPLINE
  5
28B
330
2
100
AcDbEntity
  8
UMRISS05
100
AcDbSpline
210
0.0
220
0.0
230
1.0
 70
    28
 71
     2
 72
     6
 73
     3
 74
     0
 42
0.000000001
 43
0.0000000001
 40
0.0
 40
0.0
 40
0.0
 40
0.1376359333936737
 40
0.1376359333936737
 40
0.1376359333936737
 10
-482.2573393051893
 20
406.3929180091919
 30
0.0
 41
1.0
 10
-482.2479012534889
 20
406.6183981236756
 30
0.0
 41
1.035797791375359
 10
-482.231993486363
 20
406.9978625821695
 30
0.0
 41
1.003318069934927
  0
SPLINE
  5
28C
330
2
100
AcDbEntity
  8
UMRISS05
100
AcDbSpline
210
0.0
220
0.0
230
1.0
 70
    28
 71
     2
 72
     6
 73
     3
 74
     0
 42
0.000000001
 43
0.0000000001
 40
0.0066886685476671
 40
0.0066886685476671
 40
0.0066886685476671
 40
0.1443246019424431
 40
0.1443246019424431
 40
0.1443246019424431
 10
-482.8979890033151
 20
406.8566354089005
 30
0.0
 41
1.00331806994064
 10
-482.7294415398675
 20
406.5162854641227
 30
0.0
 41
1.035797791442895
 10
-482.6293027992125
 20
406.3140415731154
 30
0.0
 41
1.0
  0
SPLINE
  5
28D
330
2
100
AcDbEntity
  8
UMRISS05
100
AcDbSpline
210
0.0
220
0.0
230
1.0
 70
    28
 71
     2
 72
     6
 73
     3
 74
     0
 42
0.000000001
 43
0.0000000001
 40
0.0
 40
0.0
 40
0.0
 40
0.1376359332989502
 40
0.1376359332989502
 40
0.1376359332989502
 10
-481.3838207997413
 20
405.5043647220219
 30
0.0
 41
1.0
 10
-481.1583406821061
 20
405.4949266701895
 30
0.0
 41
1.035797784978621
 10
-480.7788762267634
 20
405.4790189031956
 30
0.0
 41
1.003318069389008
  0
SPLINE
  5
28E
330
2
100
AcDbEntity
  8
UMRISS05
100
AcDbSpline
210
0.0
220
0.0
230
1.0
 70
    28
 71
     2
 72
     6
 73
     3
 74
     0
 42
0.000000001
 43
0.0000000001
 40
0.0066886686434352
 40
0.0066886686434352
 40
0.0066886686434352
 40
0.1443246019424431
 40
0.1443246019424431
 40
0.1443246019424431
 10
-480.9201034000326
 20
406.1450144201477
 30
0.0
 41
1.003318069389957
 10
-481.2604533419483
 20
405.9764669581174
 30
0.0
 41
1.035797784989171
 10
-481.462697235818
 20
405.8763282160452
 30
0.0
 41
1.0
  0
SPLINE
  5
28F
330
2
100
AcDbEntity
  8
UMRISS05
100
AcDbSpline
210
0.0
220
0.0
230
1.0
 70
    28
 71
     2
 72
     6
 73
     3
 74
     0
 42
0.000000001
 43
0.0000000001
 40
0.0
 40
0.0
 40
0.0
 40
0.1376359333936737
 40
0.1376359333936737
 40
0.1376359333936737
 10
-482.2723740869112
 20
404.6308462165739
 30
0.0
 41
1.0
 10
-482.2818121386116
 20
404.4053661020901
 30
0.0
 41
1.035797791375359
 10
-482.2977199057375
 20
404.025901643596
 30
0.0
 41
1.003318069934927
  0
SPLINE
  5
290
330
2
100
AcDbEntity
  8
UMRISS05
100
AcDbSpline
210
0.0
220
0.0
230
1.0
 70
    28
 71
     2
 72
     6
 73
     3
 74
     0
 42
0.000000001
 43
0.0000000001
 40
0.0066886685476671
 40
0.0066886685476671
 40
0.0066886685476671
 40
0.1443246019424431
 40
0.1443246019424431
 40
0.1443246019424431
 10
-481.6317243887854
 20
404.1671288168654
 30
0.0
 41
1.00331806994064
 10
-481.800271852233
 20
404.5074787616431
 30
0.0
 41
1.035797791442895
 10
-481.900410592888
 20
404.7097226526505
 30
0.0
 41
1.0
  0
SPLINE
  5
291
330
2
100
AcDbEntity
  8
UMRISS05
100
AcDbSpline
210
0.0
220
0.0
230
1.0
 70
    28
 71
     2
 72
     6
 73
     3
 74
     0
 42
0.000000001
 43
0.0000000001
 40
0.0
 40
0.0
 40
0.0
 40
0.1376359334142349
 40
0.1376359334142349
 40
0.1376359334142349
 10
-483.1458925923593
 20
405.5193995037439
 30
0.0
 41
1.0
 10
-483.3713727061519
 20
405.5288375554154
 30
0.0
 41
1.035797792744685
 10
-483.7508371653369
 20
405.5447453225703
 30
0.0
 41
1.003318070051649
  0
SPLINE
  5
292
330
2
100
AcDbEntity
  8
UMRISS05
100
AcDbSpline
210
0.0
220
0.0
230
1.0
 70
    28
 71
     2
 72
     6
 73
     3
 74
     0
 42
0.000000001
 43
0.0000000001
 40
0.0066886685305404
 40
0.0066886685305404
 40
0.0066886685305404
 40
0.1443246019424431
 40
0.1443246019424431
 40
0.1443246019424431
 10
-483.6096099920678
 20
404.8787498056181
 30
0.0
 41
1.003318070038472
 10
-483.2692600467758
 20
405.0472972693202
 30
0.0
 41
1.035797792590058
 10
-483.0670161562825
 20
405.1474360097207
 30
0.0
 41
1.0
  0
SPLINE
  5
293
330
2
100
AcDbEntity
  8
UMRISS05
100
AcDbSpline
210
0.0
220
0.0
230
1.0
 70
     8
 71
     3
 72
    12
 73
     8
 74
     0
 42
0.000000001
 43
0.0000000001
 40
0.0209582253696219
 40
0.0209582253696219
 40
0.0209582253696219
 40
0.0209582253696219
 40
0.0262100952007496
 40
0.0262100952007496
 40
0.0314079723979964
 40
0.0314079723979964
 40
0.0356231486981253
 40
0.0356231486981253
 40
0.0356231486981253
 40
0.0356231486981253
 10
-482.2421243758288
 20
407.1233564124525
 30
0.0
 10
-482.2397776372136
 20
407.1060081847711
 30
0.0
 10
-482.2373674697176
 20
407.0855388975665
 30
0.0
 10
-482.2342091215022
 20
407.0535046446765
 30
0.0
 10
-482.2328932321573
 20
407.03625251794
 30
0.0
 10
-482.2318558953811
 20
407.0140983798479
 30
0.0
 10
-482.231716700926
 20
407.0044650321017
 30
0.0
 10
-482.231993486363
 20
406.9978625821695
 30
0.0
  0
SPLINE
  5
294
330
2
100
AcDbEntity
  8
UMRISS05
100
AcDbSpline
210
0.0
220
0.0
230
1.0
 70
     8
 71
     3
 72
    12
 73
     8
 74
     0
 42
0.000000001
 43
0.0000000001
 40
0.0478894890006209
 40
0.0478894890006209
 40
0.0478894890006209
 40
0.0478894890006209
 40
0.0521046653007499
 40
0.0521046653007499
 40
0.0573025424979967
 40
0.0573025424979967
 40
0.0625544123291244
 40
0.0625544123291244
 40
0.0625544123291244
 40
0.0625544123291244
 10
-482.8979890033151
 20
406.8566354089004
 30
0.0
 10
-482.9009216262882
 20
406.8625572901709
 30
0.0
 10
-482.9047041851359
 20
406.8714180470492
 30
0.0
 10
-482.9127475654326
 20
406.8920865239065
 30
0.0
 10
-482.918546844739
 20
406.9083879287915
 30
0.0
 10
-482.9286616823676
 20
406.9389470286052
 30
0.0
 10
-482.9347665725611
 20
406.9586328341958
 30
0.0
 10
-482.9396627249324
 20
406.9754404478802
 30
0.0
  0
SPLINE
  5
295
330
2
100
AcDbEntity
  8
UMRISS05
100
AcDbSpline
210
0.0
220
0.0
230
1.0
 70
     8
 71
     3
 72
    12
 73
     8
 74
     0
 42
0.000000001
 43
0.0000000001
 40
0.0209582253696219
 40
0.0209582253696219
 40
0.0209582253696219
 40
0.0209582253696219
 40
0.0262100952007496
 40
0.0262100952007496
 40
0.0314079723979964
 40
0.0314079723979964
 40
0.035623148698123
 40
0.035623148698123
 40
0.035623148698123
 40
0.035623148698123
 10
-480.6533823964807
 20
405.4891497926615
 30
0.0
 10
-480.670730624162
 20
405.4868030540462
 30
0.0
 10
-480.6911999113665
 20
405.4843928865503
 30
0.0
 10
-480.7232341642566
 20
405.481234538335
 30
0.0
 10
-480.7404862909931
 20
405.47991864899
 30
0.0
 10
-480.7626404290852
 20
405.4788813122137
 30
0.0
 10
-480.7722737768314
 20
405.4787421177586
 30
0.0
 10
-480.7788762267635
 20
405.4790189031956
 30
0.0
  0
SPLINE
  5
296
330
2
100
AcDbEntity
  8
UMRISS05
100
AcDbSpline
210
0.0
220
0.0
230
1.0
 70
     8
 71
     3
 72
    12
 73
     8
 74
     0
 42
0.000000001
 43
0.0000000001
 40
0.0478894890006233
 40
0.0478894890006233
 40
0.0478894890006233
 40
0.0478894890006233
 40
0.0521046653007499
 40
0.0521046653007499
 40
0.0573025424979966
 40
0.0573025424979966
 40
0.0625544123291244
 40
0.0625544123291244
 40
0.0625544123291244
 40
0.0625544123291244
 10
-480.9201034000326
 20
406.1450144201477
 30
0.0
 10
-480.9141815187622
 20
406.1479470431208
 30
0.0
 10
-480.9053207618838
 20
406.1517296019688
 30
0.0
 10
-480.8846522850266
 20
406.1597729822653
 30
0.0
 10
-480.8683508801416
 20
406.1655722615715
 30
0.0
 10
-480.8377917803278
 20
406.1756870992001
 30
0.0
 10
-480.8181059747374
 20
406.1817919893938
 30
0.0
 10
-480.8012983610529
 20
406.1866881417651
 30
0.0
  0
SPLINE
  5
297
330
2
100
AcDbEntity
  8
UMRISS05
100
AcDbSpline
210
0.0
220
0.0
230
1.0
 70
     8
 71
     3
 72
    12
 73
     8
 74
     0
 42
0.000000001
 43
0.0000000001
 40
0.0209582253696219
 40
0.0209582253696219
 40
0.0209582253696219
 40
0.0209582253696219
 40
0.0262100952007496
 40
0.0262100952007496
 40
0.0314079723979964
 40
0.0314079723979964
 40
0.0356231486981253
 40
0.0356231486981253
 40
0.0356231486981253
 40
0.0356231486981253
 10
-482.2875890162717
 20
403.9004078133134
 30
0.0
 10
-482.2899357548869
 20
403.9177560409947
 30
0.0
 10
-482.2923459223828
 20
403.9382253281994
 30
0.0
 10
-482.2955042705982
 20
403.9702595810893
 30
0.0
 10
-482.2968201599431
 20
403.9875117078257
 30
0.0
 10
-482.2978574967194
 20
404.0096658459178
 30
0.0
 10
-482.2979966911745
 20
404.019299193664
 30
0.0
 10
-482.2977199057375
 20
404.025901643596
 30
0.0
  0
SPLINE
  5
298
330
2
100
AcDbEntity
  8
UMRISS05
100
AcDbSpline
210
0.0
220
0.0
230
1.0
 70
     8
 71
     3
 72
    12
 73
     8
 74
     0
 42
0.000000001
 43
0.0000000001
 40
0.0478894890006209
 40
0.0478894890006209
 40
0.0478894890006209
 40
0.0478894890006209
 40
0.0521046653007499
 40
0.0521046653007499
 40
0.0573025424979967
 40
0.0573025424979967
 40
0.0625544123291244
 40
0.0625544123291244
 40
0.0625544123291244
 40
0.0625544123291244
 10
-481.6317243887854
 20
404.1671288168654
 30
0.0
 10
-481.6287917658122
 20
404.161206935595
 30
0.0
 10
-481.6250092069646
 20
404.1523461787163
 30
0.0
 10
-481.6169658266679
 20
404.1316777018593
 30
0.0
 10
-481.6111665473616
 20
404.1153762969742
 30
0.0
 10
-481.6010517097329
 20
404.0848171971606
 30
0.0
 10
-481.5949468195393
 20
404.0651313915702
 30
0.0
 10
-481.590050667168
 20
404.0483237778856
 30
0.0
  0
SPLINE
  5
299
330
2
100
AcDbEntity
  8
UMRISS05
100
AcDbSpline
210
0.0
220
0.0
230
1.0
 70
     8
 71
     3
 72
    12
 73
     8
 74
     0
 42
0.000000001
 43
0.0000000001
 40
0.0209582253696219
 40
0.0209582253696219
 40
0.0209582253696219
 40
0.0209582253696219
 40
0.0262100952007496
 40
0.0262100952007496
 40
0.0314079723979964
 40
0.0314079723979964
 40
0.0356231486981258
 40
0.0356231486981258
 40
0.0356231486981258
 40
0.0356231486981258
 10
-483.8763309956198
 20
405.5346144331044
 30
0.0
 10
-483.8589827679384
 20
405.5369611717195
 30
0.0
 10
-483.8385134807338
 20
405.5393713392155
 30
0.0
 10
-483.8064792278439
 20
405.5425296874308
 30
0.0
 10
-483.7892271011074
 20
405.5438455767759
 30
0.0
 10
-483.7670729630153
 20
405.5448829135521
 30
0.0
 10
-483.757439615269
 20
405.5450221080072
 30
0.0
 10
-483.7508371653369
 20
405.5447453225703
 30
0.0
  0
SPLINE
  5
29A
330
2
100
AcDbEntity
  8
UMRISS05
100
AcDbSpline
210
0.0
220
0.0
230
1.0
 70
     8
 71
     3
 72
    12
 73
     8
 74
     0
 42
0.000000001
 43
0.0000000001
 40
0.0478894890006205
 40
0.0478894890006205
 40
0.0478894890006205
 40
0.0478894890006205
 40
0.0521046653007498
 40
0.0521046653007498
 40
0.0573025424979966
 40
0.0573025424979966
 40
0.0625544123291244
 40
0.0625544123291244
 40
0.0625544123291244
 40
0.0625544123291244
 10
-483.6096099920678
 20
404.8787498056181
 30
0.0
 10
-483.6155318733382
 20
404.8758171826448
 30
0.0
 10
-483.6243926302167
 20
404.8720346237973
 30
0.0
 10
-483.6450611070739
 20
404.8639912435007
 30
0.0
 10
-483.6613625119589
 20
404.8581919641942
 30
0.0
 10
-483.6919216117725
 20
404.8480771265656
 30
0.0
 10
-483.711607417363
 20
404.841972236372
 30
0.0
 10
-483.7284150310476
 20
404.8370760840008
 30
0.0
  0
CIRCLE
  5
29B
330
2
100
AcDbEntity
  8
UMRISS05
100
AcDbCircle
 10
-482.2648566960502
 20
405.511882112883
 30
0.0
 40
2.649999999999995
  0
ARC
  5
29C
330
2
100
AcDbEntity
  8
UMRISS05
100
AcDbCircle
 10
-482.2648566960502
 20
405.511882112883
 30
0.0
 40
0.8810679665896245
100
AcDbArc
 50
89.51113874116257
 51
114.4337820665585
  0
ARC
  5
29D
330
2
100
AcDbEntity
  8
UMRISS05
100
AcDbCircle
 10
-482.2648566960502
 20
405.511882112883
 30
0.0
 40
0.8810679665896204
100
AcDbArc
 50
359.5111387411626
 51
24.43378206655881
  0
ARC
  5
29E
330
2
100
AcDbEntity
  8
UMRISS05
100
AcDbCircle
 10
-482.2648566960502
 20
405.511882112883
 30
0.0
 40
0.8810679665896229
100
AcDbArc
 50
269.5111387411626
 51
294.4337820665586
  0
ARC
  5
29F
330
2
100
AcDbEntity
  8
UMRISS05
100
AcDbCircle
 10
-482.2648566960502
 20
405.511882112883
 30
0.0
 40
0.8810679665896195
100
AcDbArc
 50
179.5111387411625
 51
204.4337820665588
  0
SPLINE
  5
2A0
330
2
100
AcDbEntity
  8
UMRISS05
100
AcDbSpline
210
0.0
220
0.0
230
1.0
 70
     8
 71
     3
 72
    18
 73
    14
 74
     0
 42
0.000000001
 43
0.0000000001
 40
-0.2623135056241344
 40
-0.2623135056241344
 40
-0.2623135056241344
 40
-0.2623135056241344
 40
-0.2590148052895744
 40
-0.2590148052895744
 40
-0.2557161049550145
 40
-0.2557161049550145
 40
-0.2491187042858944
 40
-0.2491187042858944
 40
-0.2390800049869275
 40
-0.2390800049869275
 40
-0.2143218936185063
 40
-0.2143218936185063
 40
-0.2015701309880868
 40
-0.2015701309880868
 40
-0.2015701309880868
 40
-0.2015701309880868
 10
-479.2648566960502
 20
406.7728341341749
 30
0.0
 10
-479.2648566960502
 20
406.7728341341749
 30
0.0
 10
-479.2639396933656
 20
406.7710201866735
 30
0.0
 10
-479.2605750326274
 20
406.7643145295093
 30
0.0
 10
-479.2581152943315
 20
406.7593990822193
 30
0.0
 10
-479.2492341045763
 20
406.7414386086637
 30
0.0
 10
-479.241170815731
 20
406.7248717597683
 30
0.0
 10
-479.221469714939
 20
406.683187660688
 30
0.0
 10
-479.2062573140637
 20
406.6496768608125
 30
0.0
 10
-479.1626901737969
 20
406.5486359949872
 30
0.0
 10
-479.127825644956
 20
406.4567917892999
 30
0.0
 10
-479.0891965068096
 20
406.3381042543308
 30
0.0
 10
-479.0766216188215
 20
406.2963342718895
 30
0.0
 10
-479.0648566960501
 20
406.2535019615924
 30
0.0
  0
ARC
  5
2A1
330
2
100
AcDbEntity
  8
UMRISS05
100
AcDbCircle
 10
-481.7648566960502
 20
405.5118821128829
 30
0.0
 40
2.799999999999995
100
AcDbArc
 50
344.6411144191737
 51
15.35888558082627
  0
SPLINE
  5
2A2
330
2
100
AcDbEntity
  8
UMRISS05
100
AcDbSpline
210
0.0
220
0.0
230
1.0
 70
     8
 71
     3
 72
    18
 73
    14
 74
     0
 42
0.000000001
 43
0.0000000001
 40
-0.0607433746360477
 40
-0.0607433746360477
 40
-0.0607433746360477
 40
-0.0607433746360477
 40
-0.0479916120056284
 40
-0.0479916120056284
 40
-0.0232335006372069
 40
-0.0232335006372069
 40
-0.0131948013382399
 40
-0.0131948013382399
 40
-0.00659740066912
 40
-0.00659740066912
 40
-0.0032987003345599
 40
-0.0032987003345599
 40
0.0
 40
0.0
 40
0.0
 40
0.0
 10
-479.0648566960501
 20
404.7702622641733
 30
0.0
 10
-479.0766216188215
 20
404.7274299538761
 30
0.0
 10
-479.0891965068096
 20
404.6856599714349
 30
0.0
 10
-479.127825644956
 20
404.5669724364659
 30
0.0
 10
-479.1626901737969
 20
404.4751282307785
 30
0.0
 10
-479.2062573140637
 20
404.3740873649532
 30
0.0
 10
-479.221469714939
 20
404.3405765650777
 30
0.0
 10
-479.241170815731
 20
404.2988924659973
 30
0.0
 10
-479.2492341045763
 20
404.282325617102
 30
0.0
 10
-479.2581152943315
 20
404.2643651435464
 30
0.0
 10
-479.2605750326274
 20
404.2594496962563
 30
0.0
 10
-479.2639396933656
 20
404.252744039092
 30
0.0
 10
-479.2648566960502
 20
404.250930091591
 30
0.0
 10
-479.2648566960502
 20
404.250930091591
 30
0.0
  0
SPLINE
  5
2A3
330
2
100
AcDbEntity
  8
UMRISS05
100
AcDbSpline
210
0.0
220
0.0
230
1.0
 70
     8
 71
     3
 72
    18
 73
    14
 74
     0
 42
0.000000001
 43
0.0000000001
 40
-0.262313505624138
 40
-0.262313505624138
 40
-0.262313505624138
 40
-0.262313505624138
 40
-0.259014805289578
 40
-0.259014805289578
 40
-0.255716104955018
 40
-0.255716104955018
 40
-0.2491187042858979
 40
-0.2491187042858979
 40
-0.2390800049869307
 40
-0.2390800049869307
 40
-0.2143218936185092
 40
-0.2143218936185092
 40
-0.2015701309880913
 40
-0.2015701309880913
 40
-0.2015701309880913
 40
-0.2015701309880913
 10
-479.2648566960502
 20
378.7728341341749
 30
0.0
 10
-479.2648566960502
 20
378.7728341341749
 30
0.0
 10
-479.2639396933656
 20
378.7710201866738
 30
0.0
 10
-479.2605750326274
 20
378.7643145295094
 30
0.0
 10
-479.2581152943315
 20
378.7593990822194
 30
0.0
 10
-479.2492341045763
 20
378.7414386086639
 30
0.0
 10
-479.241170815731
 20
378.7248717597683
 30
0.0
 10
-479.221469714939
 20
378.6831876606881
 30
0.0
 10
-479.2062573140637
 20
378.6496768608125
 30
0.0
 10
-479.1626901737969
 20
378.5486359949873
 30
0.0
 10
-479.127825644956
 20
378.4567917893001
 30
0.0
 10
-479.0891965068096
 20
378.3381042543309
 30
0.0
 10
-479.0766216188215
 20
378.2963342718896
 30
0.0
 10
-479.0648566960501
 20
378.2535019615926
 30
0.0
  0
ARC
  5
2A4
330
2
100
AcDbEntity
  8
UMRISS05
100
AcDbCircle
 10
-481.7648566960502
 20
377.5118821128829
 30
0.0
 40
2.79999999999999
100
AcDbArc
 50
344.6411144191737
 51
15.35888558082627
  0
SPLINE
  5
2A5
330
2
100
AcDbEntity
  8
UMRISS05
100
AcDbSpline
210
0.0
220
0.0
230
1.0
 70
     8
 71
     3
 72
    18
 73
    14
 74
     0
 42
0.000000001
 43
0.0000000001
 40
-0.0607433746360466
 40
-0.0607433746360466
 40
-0.0607433746360466
 40
-0.0607433746360466
 40
-0.0479916120056285
 40
-0.0479916120056285
 40
-0.0232335006372073
 40
-0.0232335006372073
 40
-0.0131948013382402
 40
-0.0131948013382402
 40
-0.0065974006691201
 40
-0.0065974006691201
 40
-0.00329870033456
 40
-0.00329870033456
 40
0.0
 40
0.0
 40
0.0
 40
0.0
 10
-479.0648566960501
 20
376.7702622641734
 30
0.0
 10
-479.0766216188215
 20
376.7274299538763
 30
0.0
 10
-479.0891965068096
 20
376.685659971435
 30
0.0
 10
-479.127825644956
 20
376.5669724364659
 30
0.0
 10
-479.1626901737969
 20
376.4751282307786
 30
0.0
 10
-479.2062573140637
 20
376.3740873649533
 30
0.0
 10
-479.221469714939
 20
376.3405765650778
 30
0.0
 10
-479.241170815731
 20
376.2988924659975
 30
0.0
 10
-479.2492341045763
 20
376.2823256171021
 30
0.0
 10
-479.2581152943315
 20
376.2643651435464
 30
0.0
 10
-479.2605750326274
 20
376.2594496962566
 30
0.0
 10
-479.2639396933656
 20
376.2527440390922
 30
0.0
 10
-479.2648566960502
 20
376.2509300915911
 30
0.0
 10
-479.2648566960502
 20
376.2509300915911
 30
0.0
  0
LINE
  5
2A6
330
2
100
AcDbEntity
  8
UMRISS05
100
AcDbLine
 10
-481.7648566960502
 20
408.3118821128829
 30
0.0
 11
-485.7648566960502
 21
408.3118821128827
 31
0.0
  0
ARC
  5
2A7
330
2
100
AcDbEntity
  8
UMRISS05
100
AcDbCircle
 10
-485.7648566960502
 20
405.5118821128829
 30
0.0
 40
2.799999999999999
100
AcDbArc
 50
90.0
 51
270.0
  0
LINE
  5
2A8
330
2
100
AcDbEntity
  8
UMRISS05
100
AcDbLine
 10
-485.7648566960502
 20
402.7118821128828
 30
0.0
 11
-481.7648566960502
 21
402.7118821128828
 31
0.0
  0
ARC
  5
2A9
330
2
100
AcDbEntity
  8
UMRISS05
100
AcDbCircle
 10
-481.7648566960502
 20
405.5118821128829
 30
0.0
 40
2.800000000000001
100
AcDbArc
 50
26.76550057675866
 51
90.0
  0
ARC
  5
2AA
330
2
100
AcDbEntity
  8
UMRISS05
100
AcDbCircle
 10
-481.7648566960502
 20
405.5118821128829
 30
0.0
 40
2.799999999999998
100
AcDbArc
 50
270.0
 51
333.2344994232413
  0
LINE
  5
2AB
330
2
100
AcDbEntity
  8
UMRISS05
100
AcDbLine
 10
-485.7648566960502
 20
379.1618821128829
 30
0.0
 11
-484.338500831383
 21
379.1618821128829
 31
0.0
  0
LINE
  5
2AC
330
2
100
AcDbEntity
  8
UMRISS05
100
AcDbLine
 10
-481.7648566960502
 20
380.3118821128831
 30
0.0
 11
-485.7648566960502
 21
380.3118821128829
 31
0.0
  0
ARC
  5
2AD
330
2
100
AcDbEntity
  8
UMRISS05
100
AcDbCircle
 10
-485.7648566960502
 20
377.5118821128829
 30
0.0
 40
1.649999999999999
100
AcDbArc
 50
90.0
 51
270.0
  0
ARC
  5
2AE
330
2
100
AcDbEntity
  8
UMRISS05
100
AcDbCircle
 10
-485.7648566960502
 20
377.5118821128829
 30
0.0
 40
2.799999999999999
100
AcDbArc
 50
90.0
 51
270.0
  0
LINE
  5
2AF
330
2
100
AcDbEntity
  8
UMRISS05
100
AcDbLine
 10
-484.338500831383
 20
375.8618821128828
 30
0.0
 11
-485.7648566960502
 21
375.8618821128828
 31
0.0
  0
LINE
  5
2B0
330
2
100
AcDbEntity
  8
UMRISS05
100
AcDbLine
 10
-485.7648566960502
 20
374.7118821128829
 30
0.0
 11
-481.7648566960502
 21
374.7118821128829
 31
0.0
  0
ARC
  5
2B1
330
2
100
AcDbEntity
  8
UMRISS05
100
AcDbCircle
 10
-481.7648566960502
 20
377.5118821128829
 30
0.0
 40
2.799999999999995
100
AcDbArc
 50
26.76550057675866
 51
90.0
  0
ARC
  5
2B2
330
2
100
AcDbEntity
  8
UMRISS05
100
AcDbCircle
 10
-481.7648566960502
 20
377.5118821128829
 30
0.0
 40
2.79999999999999
100
AcDbArc
 50
270.0
 51
333.2344994232413
  0
LINE
  5
2B3
330
2
100
AcDbEntity
  8
UMRISS05
100
AcDbLine
 10
-476.2648566960502
 20
370.0118821128829
 30
0.0
 11
-476.2648566960502
 21
413.0118821128828
 31
0.0
  0
LINE
  5
2B4
330
2
100
AcDbEntity
  8
UMRISS05
100
AcDbLine
 10
-488.50092467355
 20
370.0118821128829
 30
0.0
 11
-476.2648566960502
 21
370.0118821128829
 31
0.0
  0
LINE
  5
2B5
330
2
100
AcDbEntity
  8
UMRISS05
100
AcDbLine
 10
-476.2648566960502
 20
413.0118821128828
 30
0.0
 11
-488.50092467355
 21
413.0118821128828
 31
0.0
  0
LINE
  5
2B6
330
2
100
AcDbEntity
  8
UMRISS05
100
AcDbLine
 10
-479.2648566960502
 20
370.0118821128829
 30
0.0
 11
-479.2648566960502
 21
376.2509300915911
 31
0.0
  0
LINE
  5
2B7
330
2
100
AcDbEntity
  8
UMRISS05
100
AcDbLine
 10
-479.2648566960502
 20
378.7728341341749
 30
0.0
 11
-479.2648566960502
 21
404.250930091591
 31
0.0
  0
LINE
  5
2B8
330
2
100
AcDbEntity
  8
UMRISS05
100
AcDbLine
 10
-479.2648566960502
 20
406.7728341341749
 30
0.0
 11
-479.2648566960502
 21
413.0118821128828
 31
0.0
  0
LINE
  5
2B9
330
2
100
AcDbEntity
  8
AVERDECKTE
100
AcDbLine
 10
-492.7648566960502
 20
450.0118821129148
 30
0.0
 11
-493.9719634772368
 21
450.0118821129148
 31
0.0
  0
LINE
  5
2BA
330
2
100
AcDbEntity
  8
AVERDECKTE
100
AcDbLine
 10
-492.7648566960502
 20
445.0118821129148
 30
0.0
 11
-493.9719634772368
 21
445.0118821129148
 31
0.0
  0
LINE
  5
2BB
330
2
100
AcDbEntity
  8
AVERDECKTE
100
AcDbLine
 10
-492.7648566960502
 20
257.0118821128827
 30
0.0
 11
-493.9719634772368
 21
257.0118821128827
 31
0.0
  0
LINE
  5
2BC
330
2
100
AcDbEntity
  8
AVERDECKTE
100
AcDbLine
 10
-492.7648566960502
 20
252.0118821128827
 30
0.0
 11
-493.9719634772368
 21
252.0118821128827
 31
0.0
  0
ELLIPSE
  5
2BD
330
2
100
AcDbEntity
  8
AVERDECKTE
100
AcDbEllipse
 10
-492.7648566960502
 20
447.511882112915
 30
0.0
 11
3.535533905932766
 21
0.0
 31
0.0
210
0.0
220
0.0
230
1.0
 40
0.7071067811865418
 41
4.712388980384688
 42
7.853981633974482
  0
ELLIPSE
  5
2BE
330
2
100
AcDbEntity
  8
AVERDECKTE
100
AcDbEllipse
 10
-492.7648566960502
 20
254.5118821128829
 30
0.0
 11
3.535533905932738
 21
0.0
 31
0.0
210
0.0
220
0.0
230
1.0
 40
0.7071067811865475
 41
4.712388980384688
 42
7.853981633974482
  0
ELLIPSE
  5
2BF
330
2
100
AcDbEntity
  8
AVERDECKTE
100
AcDbEllipse
 10
-494.2648566960502
 20
447.511882112915
 30
0.0
 11
3.535533905932766
 21
0.000000000000001
 31
0.0
210
0.0
220
0.0
230
1.0
 40
0.7071067811865383
 41
-1.28403977458335
 42
1.28403977458335
  0
ELLIPSE
  5
2C0
330
2
100
AcDbEntity
  8
AVERDECKTE
100
AcDbEllipse
 10
-494.2648566960502
 20
254.5118821128829
 30
0.0
 11
3.535533905932738
 21
0.0
 31
0.0
210
0.0
220
0.0
230
1.0
 40
0.7071067811865471
 41
4.999145532596235
 42
7.567225081762936
  0
LINE
  5
2C1
330
2
100
AcDbEntity
  8
AVERDECKTE
100
AcDbLine
 10
-475.7648566960502
 20
245.8481925863387
 30
0.0
 11
-492.7648566960502
 21
245.8481925863385
 31
0.0
  0
LINE
  5
2C2
330
2
100
AcDbEntity
  8
AVERDECKTE
100
AcDbLine
 10
-492.7648566960502
 20
456.1755716394273
 30
0.0
 11
-475.7648566960502
 21
456.1755716394273
 31
0.0
  0
SPLINE
  5
2C3
330
2
100
AcDbEntity
  8
AVERDECKTE
100
AcDbSpline
210
0.0
220
0.0
230
1.0
 70
     8
 71
     3
 72
    14
 73
    10
 74
     0
 42
0.000000001
 43
0.0000000001
 40
0.0763115330505305
 40
0.0763115330505305
 40
0.0763115330505305
 40
0.0763115330505305
 40
0.1144287000804588
 40
0.1144287000804588
 40
0.1525458671103871
 40
0.1525458671103871
 40
0.1906630341403155
 40
0.1906630341403155
 40
0.228780201170244
 40
0.228780201170244
 40
0.228780201170244
 40
0.228780201170244
 10
-493.2648566960502
 20
449.9097978745716
 30
0.0
 10
-493.3892387309618
 20
449.9357333217004
 30
0.0
 10
-493.5223632924448
 20
449.9629624957108
 30
0.0
 10
-493.7687941132425
 20
450.0012671571855
 30
0.0
 10
-493.8821204529485
 20
450.011882112915
 30
0.0
 10
-494.0618065015251
 20
450.011882112915
 30
0.0
 10
-494.1388148241285
 20
450.0012671571855
 30
0.0
 10
-494.240277656794
 20
449.9629624957108
 30
0.0
 10
-494.2648566960502
 20
449.9357333217004
 30
0.0
 10
-494.2648566960502
 20
449.9097978745716
 30
0.0
  0
SPLINE
  5
2C4
330
2
100
AcDbEntity
  8
AVERDECKTE
100
AcDbSpline
210
0.0
220
0.0
230
1.0
 70
     8
 71
     3
 72
    14
 73
    10
 74
     0
 42
0.000000001
 43
0.0000000001
 40
0.3814032672713047
 40
0.3814032672713047
 40
0.3814032672713047
 40
0.3814032672713047
 40
0.4195204343012331
 40
0.4195204343012331
 40
0.4576376013311615
 40
0.4576376013311615
 40
0.4957547683610898
 40
0.4957547683610898
 40
0.5338719353910181
 40
0.5338719353910181
 40
0.5338719353910181
 40
0.5338719353910181
 10
-494.2648566960502
 20
252.1139663512267
 30
0.0
 10
-494.2648566960502
 20
252.0880309040977
 30
0.0
 10
-494.240277656794
 20
252.0608017300871
 30
0.0
 10
-494.1388148241285
 20
252.0224970686126
 30
0.0
 10
-494.0618065015251
 20
252.0118821128829
 30
0.0
 10
-493.8821204529485
 20
252.0118821128829
 30
0.0
 10
-493.7687941132425
 20
252.0224970686126
 30
0.0
 10
-493.5223632924448
 20
252.0608017300871
 30
0.0
 10
-493.3892387309619
 20
252.0880309040977
 30
0.0
 10
-493.2648566960502
 20
252.1139663512267
 30
0.0
  0
SPLINE
  5
2C5
330
2
100
AcDbEntity
  8
AVERDECKTE
100
AcDbSpline
210
0.0
220
0.0
230
1.0
 70
     8
 71
     3
 72
    14
 73
    10
 74
     0
 42
0.000000001
 43
0.0000000001
 40
0.0763115330505305
 40
0.0763115330505305
 40
0.0763115330505305
 40
0.0763115330505305
 40
0.1144287000804588
 40
0.1144287000804588
 40
0.1525458671103871
 40
0.1525458671103871
 40
0.1906630341403155
 40
0.1906630341403155
 40
0.228780201170244
 40
0.228780201170244
 40
0.228780201170244
 40
0.228780201170244
 10
-493.2648566960502
 20
256.9097978745392
 30
0.0
 10
-493.3892387309618
 20
256.9357333216681
 30
0.0
 10
-493.5223632924448
 20
256.9629624956787
 30
0.0
 10
-493.7687941132425
 20
257.0012671571533
 30
0.0
 10
-493.8821204529485
 20
257.0118821128829
 30
0.0
 10
-494.0618065015251
 20
257.0118821128829
 30
0.0
 10
-494.1388148241285
 20
257.0012671571533
 30
0.0
 10
-494.240277656794
 20
256.9629624956787
 30
0.0
 10
-494.2648566960502
 20
256.9357333216681
 30
0.0
 10
-494.2648566960502
 20
256.9097978745392
 30
0.0
  0
SPLINE
  5
2C6
330
2
100
AcDbEntity
  8
AVERDECKTE
100
AcDbSpline
210
0.0
220
0.0
230
1.0
 70
     8
 71
     3
 72
    14
 73
    10
 74
     0
 42
0.000000001
 43
0.0000000001
 40
0.3814032672713047
 40
0.3814032672713047
 40
0.3814032672713047
 40
0.3814032672713047
 40
0.4195204343012331
 40
0.4195204343012331
 40
0.4576376013311615
 40
0.4576376013311615
 40
0.4957547683610898
 40
0.4957547683610898
 40
0.5338719353910181
 40
0.5338719353910181
 40
0.5338719353910181
 40
0.5338719353910181
 10
-494.2648566960502
 20
445.1139663512589
 30
0.0
 10
-494.2648566960502
 20
445.0880309041299
 30
0.0
 10
-494.240277656794
 20
445.0608017301193
 30
0.0
 10
-494.1388148241285
 20
445.0224970686449
 30
0.0
 10
-494.0618065015251
 20
445.011882112915
 30
0.0
 10
-493.8821204529485
 20
445.011882112915
 30
0.0
 10
-493.7687941132425
 20
445.0224970686449
 30
0.0
 10
-493.5223632924448
 20
445.0608017301193
 30
0.0
 10
-493.3892387309619
 20
445.0880309041299
 30
0.0
 10
-493.2648566960502
 20
445.1139663512589
 30
0.0
  0
ARC
  5
2C7
330
2
100
AcDbEntity
  8
UMRISS05
100
AcDbCircle
 10
-493.2648566960502
 20
458.5118821128831
 30
0.0
 40
1.0
100
AcDbArc
 50
90.0
 51
180.0
  0
ARC
  5
2C8
330
2
100
AcDbEntity
  8
UMRISS05
100
AcDbCircle
 10
-493.2648566960502
 20
243.5118821128829
 30
0.0
 40
1.0
100
AcDbArc
 50
180.0
 51
270.0
  0
LINE
  5
2C9
330
2
100
AcDbEntity
  8
UMRISS05
100
AcDbLine
 10
-494.2648566960502
 20
458.5118821128831
 30
0.0
 11
-494.2648566960502
 21
243.511882112883
 31
0.0
  0
LINE
  5
2CA
330
2
100
AcDbEntity
  8
UMRISS05
100
AcDbLine
 10
-474.2648566960502
 20
243.5118821128829
 30
0.0
 11
-474.2648566960502
 21
458.5118821128831
 31
0.0
  0
ARC
  5
2CB
330
2
100
AcDbEntity
  8
UMRISS05
100
AcDbCircle
 10
-475.2648566960502
 20
243.5118821128829
 30
0.0
 40
1.0
100
AcDbArc
 50
270.0
 51
0.0
  0
LINE
  5
2CC
330
2
100
AcDbEntity
  8
UMRISS05
100
AcDbLine
 10
-486.2648566960502
 20
369.0118821128829
 30
0.0
 11
-474.2648566960502
 21
369.0118821128831
 31
0.0
  0
ARC
  5
2CD
330
2
100
AcDbEntity
  8
UMRISS05
100
AcDbCircle
 10
-475.2648566960502
 20
458.5118821128831
 30
0.0
 40
1.0
100
AcDbArc
 50
0.0
 51
90.0
  0
LINE
  5
2CE
330
2
100
AcDbEntity
  8
UMRISS05
100
AcDbLine
 10
-486.2648566960502
 20
414.0118821128829
 30
0.0
 11
-474.2648566960502
 21
414.0118821128829
 31
0.0
  0
ARC
  5
2CF
330
2
100
AcDbEntity
  8
UMRISS05
100
AcDbCircle
 10
-486.2648566960502
 20
411.0118821128828
 30
0.0
 40
3.000000000000006
100
AcDbArc
 50
90.0
 51
180.0
  0
LINE
  5
2D0
330
2
100
AcDbEntity
  8
UMRISS05
100
AcDbLine
 10
-489.2648566960501
 20
372.0118821128829
 30
0.0
 11
-489.2648566960501
 21
411.0118821128828
 31
0.0
  0
ARC
  5
2D1
330
2
100
AcDbEntity
  8
UMRISS05
100
AcDbCircle
 10
-486.2648566960502
 20
372.0118821128829
 30
0.0
 40
3.000000000000023
100
AcDbArc
 50
180.0
 51
270.0
  0
LINE
  5
2D2
330
2
100
AcDbEntity
  8
AVERDECKTE
100
AcDbLine
 10
-475.7648566960502
 20
347.0118914679913
 30
0.0
 11
-475.7648566960502
 21
242.5118821128829
 31
0.0
  0
LINE
  5
2D3
330
2
100
AcDbEntity
  8
AVERDECKTE
100
AcDbLine
 10
-475.7648566960502
 20
459.511882112883
 30
0.0
 11
-475.7648566960502
 21
414.0118821128829
 31
0.0
  0
LINE
  5
2D4
330
2
100
AcDbEntity
  8
AVERDECKTE
100
AcDbLine
 10
-492.7648566960502
 20
459.511882112883
 30
0.0
 11
-492.7648566960502
 21
242.5118821128829
 31
0.0
  0
LINE
  5
2D5
330
2
100
AcDbEntity
  8
UMRISS05
100
AcDbLine
 10
-493.2648566960502
 20
242.5118821128828
 30
0.0
 11
-475.2648566960502
 21
242.5118821128828
 31
0.0
  0
LINE
  5
2D6
330
2
100
AcDbEntity
  8
UMRISS05
100
AcDbLine
 10
-475.2648566960502
 20
459.511882112883
 30
0.0
 11
-493.2648566960502
 21
459.5118821128829
 31
0.0
  0
LINE
  5
2D7
330
2
100
AcDbEntity
  8
UMRISS05
100
AcDbLine
 10
-411.2648566960518
 20
379.0118914679912
 30
0.0
 11
-411.9648566960519
 21
379.0118914679912
 31
0.0
  0
LINE
  5
2D8
330
2
100
AcDbEntity
  8
UMRISS05
100
AcDbLine
 10
-411.2648566960518
 20
376.0118914679912
 30
0.0
 11
-411.9648566960519
 21
376.0118914679912
 31
0.0
  0
LINE
  5
2D9
330
2
100
AcDbEntity
  8
AVERDECKTE
100
AcDbLine
 10
-409.7682191960518
 20
379.0118914679912
 30
0.0
 11
-411.2648566960518
 21
379.0118914679912
 31
0.0
  0
LINE
  5
2DA
330
2
100
AcDbEntity
  8
AVERDECKTE
100
AcDbLine
 10
-409.7682191960518
 20
376.0118914679912
 30
0.0
 11
-411.2648566960518
 21
376.0118914679912
 31
0.0
  0
LINE
  5
2DB
330
2
100
AcDbEntity
  8
UMRISS05
100
AcDbLine
 10
-412.1182191960519
 20
376.3186164679912
 30
0.0
 11
-411.9648566960519
 21
376.0118914679912
 31
0.0
  0
LINE
  5
2DC
330
2
100
AcDbEntity
  8
UMRISS05
100
AcDbLine
 10
-412.1182191960519
 20
378.7051664679912
 30
0.0
 11
-411.9648566960519
 21
379.0118914679912
 31
0.0
  0
LINE
  5
2DD
330
2
100
AcDbEntity
  8
UMRISS05
100
AcDbLine
 10
-412.1182191960519
 20
376.3186164679912
 30
0.0
 11
-412.1182191960519
 21
378.7051664679912
 31
0.0
  0
LINE
  5
2DE
330
2
100
AcDbEntity
  8
UMRISS05
100
AcDbLine
 10
-411.9648566960519
 20
379.0118914679912
 30
0.0
 11
-411.9648566960519
 21
376.0118914679912
 31
0.0
  0
LINE
  5
2DF
330
2
100
AcDbEntity
  8
UMRISS05
100
AcDbLine
 10
-411.2648566960518
 20
407.0118914679912
 30
0.0
 11
-411.9648566960519
 21
407.0118914679912
 31
0.0
  0
LINE
  5
2E0
330
2
100
AcDbEntity
  8
UMRISS05
100
AcDbLine
 10
-411.2648566960518
 20
404.0118914679911
 30
0.0
 11
-411.9648566960519
 21
404.0118914679911
 31
0.0
  0
LINE
  5
2E1
330
2
100
AcDbEntity
  8
AVERDECKTE
100
AcDbLine
 10
-409.7682191960518
 20
407.0118914679912
 30
0.0
 11
-411.2648566960518
 21
407.0118914679912
 31
0.0
  0
LINE
  5
2E2
330
2
100
AcDbEntity
  8
AVERDECKTE
100
AcDbLine
 10
-409.7682191960518
 20
404.0118914679911
 30
0.0
 11
-411.2648566960518
 21
404.0118914679911
 31
0.0
  0
LINE
  5
2E3
330
2
100
AcDbEntity
  8
UMRISS05
100
AcDbLine
 10
-412.1182191960519
 20
404.318616467991
 30
0.0
 11
-411.9648566960519
 21
404.0118914679911
 31
0.0
  0
LINE
  5
2E4
330
2
100
AcDbEntity
  8
UMRISS05
100
AcDbLine
 10
-412.1182191960519
 20
406.7051664679912
 30
0.0
 11
-411.9648566960519
 21
407.0118914679912
 31
0.0
  0
LINE
  5
2E5
330
2
100
AcDbEntity
  8
UMRISS05
100
AcDbLine
 10
-412.1182191960519
 20
404.318616467991
 30
0.0
 11
-412.1182191960519
 21
406.7051664679912
 31
0.0
  0
LINE
  5
2E6
330
2
100
AcDbEntity
  8
UMRISS05
100
AcDbLine
 10
-411.9648566960519
 20
407.0118914679912
 30
0.0
 11
-411.9648566960519
 21
404.0118914679911
 31
0.0
  0
LINE
  5
2E7
330
2
100
AcDbEntity
  8
AVERDECKTE
100
AcDbLine
 10
-411.2648566960502
 20
444.7618821128828
 30
0.0
 11
-409.7648566960473
 21
444.7618821128828
 31
0.0
  0
LINE
  5
2E8
330
2
100
AcDbEntity
  8
AVERDECKTE
100
AcDbLine
 10
-411.2648566960502
 20
450.2618821128828
 30
0.0
 11
-409.7648566960473
 21
450.2618821128828
 31
0.0
  0
LINE
  5
2E9
330
2
100
AcDbEntity
  8
AVERDECKTE
100
AcDbLine
 10
-411.26485669605
 20
251.7618821128827
 30
0.0
 11
-409.7648566960474
 21
251.7618821128827
 31
0.0
  0
LINE
  5
2EA
330
2
100
AcDbEntity
  8
AVERDECKTE
100
AcDbLine
 10
-411.26485669605
 20
257.2618821128828
 30
0.0
 11
-409.7648566960474
 21
257.2618821128828
 31
0.0
  0
LINE
  5
2EB
330
2
100
AcDbEntity
  8
AVERDECKTE
100
AcDbLine
 10
-402.7648566960524
 20
250.5118821128828
 30
0.0
 11
-402.2648566960525
 21
250.5118821128828
 31
0.0
  0
LINE
  5
2EC
330
2
100
AcDbEntity
  8
AVERDECKTE
100
AcDbLine
 10
-402.7648566960524
 20
258.5118821128828
 30
0.0
 11
-402.2648566960525
 21
258.5118821128828
 31
0.0
  0
LINE
  5
2ED
330
2
100
AcDbEntity
  8
AVERDECKTE
100
AcDbLine
 10
-402.7648566960524
 20
443.5118821128829
 30
0.0
 11
-402.2648566960525
 21
443.5118821128829
 31
0.0
  0
LINE
  5
2EE
330
2
100
AcDbEntity
  8
AVERDECKTE
100
AcDbLine
 10
-402.7648566960524
 20
451.5118821128829
 30
0.0
 11
-402.2648566960525
 21
451.5118821128829
 31
0.0
  0
LINE
  5
2EF
330
2
100
AcDbEntity
  8
AVERDECKTE
100
AcDbLine
 10
-402.764856696055
 20
459.5118821128828
 30
0.0
 11
-402.764856696055
 21
242.5118821128827
 31
0.0
  0
LINE
  5
2F0
330
2
100
AcDbEntity
  8
AVERDECKTE
100
AcDbLine
 10
-409.7648566960502
 20
442.2757283974168
 30
0.0
 11
-409.7648566960502
 21
333.2757377525254
 31
0.0
  0
LINE
  5
2F1
330
2
100
AcDbEntity
  8
AVERDECKTE
100
AcDbLine
 10
-409.764856696053
 20
456.1755716394271
 30
0.0
 11
-409.7648566960502
 21
442.2757283974168
 31
0.0
  0
LINE
  5
2F2
330
2
100
AcDbEntity
  8
AVERDECKTE
100
AcDbLine
 10
-409.7648566960502
 20
259.7480358283483
 30
0.0
 11
-409.7648566960502
 21
245.8481925863384
 31
0.0
  0
LINE
  5
2F3
330
2
100
AcDbEntity
  8
AVERDECKTE
100
AcDbLine
 10
-409.764856696055
 20
450.0118821128826
 30
0.0
 11
-410.9719634772419
 21
450.0118821128826
 31
0.0
  0
LINE
  5
2F4
330
2
100
AcDbEntity
  8
AVERDECKTE
100
AcDbLine
 10
-409.764856696055
 20
445.0118821128826
 30
0.0
 11
-410.9719634772419
 21
445.0118821128826
 31
0.0
  0
LINE
  5
2F5
330
2
100
AcDbEntity
  8
AVERDECKTE
100
AcDbLine
 10
-409.764856696055
 20
257.0118821128827
 30
0.0
 11
-410.9719634772419
 21
257.0118821128827
 31
0.0
  0
LINE
  5
2F6
330
2
100
AcDbEntity
  8
AVERDECKTE
100
AcDbLine
 10
-409.764856696055
 20
252.0118821128827
 30
0.0
 11
-410.9719634772419
 21
252.0118821128827
 31
0.0
  0
ELLIPSE
  5
2F7
330
2
100
AcDbEntity
  8
AVERDECKTE
100
AcDbEllipse
 10
-409.764856696055
 20
447.5118821128827
 30
0.0
 11
-3.535533905932736
 21
0.0
 31
0.0
210
0.0
220
0.0
230
1.0
 40
0.7071067811865479
 41
1.570796326794896
 42
4.712388980384688
  0
ELLIPSE
  5
2F8
330
2
100
AcDbEntity
  8
AVERDECKTE
100
AcDbEllipse
 10
-409.764856696055
 20
254.5118821128827
 30
0.0
 11
-3.535533905932736
 21
0.0
 31
0.0
210
0.0
220
0.0
230
1.0
 40
0.7071067811865479
 41
1.570796326794896
 42
4.712388980384688
  0
LINE
  5
2F9
330
2
100
AcDbEntity
  8
AVERDECKTE
100
AcDbLine
 10
-409.7648566960502
 20
333.2757377525254
 30
0.0
 11
-409.7648566960502
 21
245.8481925863384
 31
0.0
  0
ELLIPSE
  5
2FA
330
2
100
AcDbEntity
  8
UMRISS05
100
AcDbEllipse
 10
-411.2648566960555
 20
447.5118821128827
 30
0.0
 11
-3.535533905932736
 21
0.0
 31
0.0
210
0.0
220
0.0
230
1.0
 40
0.7071067811865476
 41
1.857552879006448
 42
4.425632428173138
  0
LINE
  5
2FB
330
2
100
AcDbEntity
  8
UMRISS05
100
AcDbLine
 10
-409.7648566960546
 20
449.7757283974168
 30
0.0
 11
-409.7648566960546
 21
445.2480358283483
 31
0.0
  0
LINE
  5
2FC
330
2
100
AcDbEntity
  8
UMRISS05
100
AcDbLine
 10
-409.7648566960546
 20
256.7757283974169
 30
0.0
 11
-409.7648566960546
 21
252.2480358283484
 31
0.0
  0
ELLIPSE
  5
2FD
330
2
100
AcDbEntity
  8
UMRISS05
100
AcDbEllipse
 10
-411.2648566960555
 20
254.5118821128827
 30
0.0
 11
-3.535533905932736
 21
0.0
 31
0.0
210
0.0
220
0.0
230
1.0
 40
0.7071067811865476
 41
1.857552879006448
 42
4.425632428173138
  0
LINE
  5
2FE
330
2
100
AcDbEntity
  8
UMRISS05
100
AcDbLine
 10
-411.26485669605
 20
250.5118821128827
 30
0.0
 11
-411.2648566960502
 21
451.5118821128829
 31
0.0
  0
SPLINE
  5
2FF
330
2
100
AcDbEntity
  8
UMRISS05
100
AcDbSpline
210
0.0
220
0.0
230
1.0
 70
     8
 71
     3
 72
    14
 73
    10
 74
     0
 42
0.000000001
 43
0.0000000001
 40
0.0763115330505305
 40
0.0763115330505305
 40
0.0763115330505305
 40
0.0763115330505305
 40
0.1144287000804588
 40
0.1144287000804588
 40
0.1525458671103871
 40
0.1525458671103871
 40
0.1906630341403155
 40
0.1906630341403155
 40
0.228780201170244
 40
0.228780201170244
 40
0.228780201170244
 40
0.228780201170244
 10
-411.2648566960551
 20
449.9097978745391
 30
0.0
 10
-411.2648566960553
 20
449.9357333216678
 30
0.0
 10
-411.240277656799
 20
449.9629624956784
 30
0.0
 10
-411.1388148241337
 20
450.0012671571531
 30
0.0
 10
-411.0618065015302
 20
450.0118821128826
 30
0.0
 10
-410.8821204529537
 20
450.0118821128826
 30
0.0
 10
-410.7687941132478
 20
450.0012671571531
 30
0.0
 10
-410.52236329245
 20
449.9629624956784
 30
0.0
 10
-410.3892387309671
 20
449.9357333216678
 30
0.0
 10
-410.2648566960556
 20
449.9097978745391
 30
0.0
  0
LINE
  5
300
330
2
100
AcDbEntity
  8
UMRISS05
100
AcDbLine
 10
-402.2648566960554
 20
458.5118821128828
 30
0.0
 11
-401.2648566960551
 21
459.5118821128828
 31
0.0
  0
SPLINE
  5
301
330
2
100
AcDbEntity
  8
UMRISS05
100
AcDbSpline
210
0.0
220
0.0
230
1.0
 70
     8
 71
     3
 72
    14
 73
    10
 74
     0
 42
0.000000001
 43
0.0000000001
 40
0.3814032672713047
 40
0.3814032672713047
 40
0.3814032672713047
 40
0.3814032672713047
 40
0.4195204343012331
 40
0.4195204343012331
 40
0.4576376013311615
 40
0.4576376013311615
 40
0.4957547683610898
 40
0.4957547683610898
 40
0.5338719353910181
 40
0.5338719353910181
 40
0.5338719353910181
 40
0.5338719353910181
 10
-410.2648566960556
 20
252.1139663512264
 30
0.0
 10
-410.3892387309671
 20
252.0880309040975
 30
0.0
 10
-410.52236329245
 20
252.0608017300869
 30
0.0
 10
-410.7687941132478
 20
252.0224970686124
 30
0.0
 10
-410.8821204529537
 20
252.0118821128827
 30
0.0
 10
-411.0618065015302
 20
252.0118821128827
 30
0.0
 10
-411.1388148241337
 20
252.0224970686124
 30
0.0
 10
-411.240277656799
 20
252.0608017300869
 30
0.0
 10
-411.2648566960553
 20
252.0880309040975
 30
0.0
 10
-411.2648566960551
 20
252.1139663512264
 30
0.0
  0
SPLINE
  5
302
330
2
100
AcDbEntity
  8
UMRISS05
100
AcDbSpline
210
0.0
220
0.0
230
1.0
 70
     8
 71
     3
 72
    14
 73
    10
 74
     0
 42
0.000000001
 43
0.0000000001
 40
0.0763115330505305
 40
0.0763115330505305
 40
0.0763115330505305
 40
0.0763115330505305
 40
0.1144287000804588
 40
0.1144287000804588
 40
0.1525458671103871
 40
0.1525458671103871
 40
0.1906630341403155
 40
0.1906630341403155
 40
0.228780201170244
 40
0.228780201170244
 40
0.228780201170244
 40
0.228780201170244
 10
-411.2648566960551
 20
256.909797874539
 30
0.0
 10
-411.2648566960553
 20
256.9357333216679
 30
0.0
 10
-411.240277656799
 20
256.9629624956785
 30
0.0
 10
-411.1388148241337
 20
257.0012671571531
 30
0.0
 10
-411.0618065015302
 20
257.0118821128827
 30
0.0
 10
-410.8821204529537
 20
257.0118821128827
 30
0.0
 10
-410.7687941132478
 20
257.0012671571531
 30
0.0
 10
-410.52236329245
 20
256.9629624956785
 30
0.0
 10
-410.3892387309671
 20
256.9357333216679
 30
0.0
 10
-410.2648566960556
 20
256.909797874539
 30
0.0
  0
SPLINE
  5
303
330
2
100
AcDbEntity
  8
UMRISS05
100
AcDbSpline
210
0.0
220
0.0
230
1.0
 70
     8
 71
     3
 72
    14
 73
    10
 74
     0
 42
0.000000001
 43
0.0000000001
 40
0.3814032672713047
 40
0.3814032672713047
 40
0.3814032672713047
 40
0.3814032672713047
 40
0.4195204343012331
 40
0.4195204343012331
 40
0.4576376013311615
 40
0.4576376013311615
 40
0.4957547683610898
 40
0.4957547683610898
 40
0.5338719353910181
 40
0.5338719353910181
 40
0.5338719353910181
 40
0.5338719353910181
 10
-410.2648566960556
 20
445.1139663512263
 30
0.0
 10
-410.3892387309671
 20
445.0880309040975
 30
0.0
 10
-410.52236329245
 20
445.0608017300869
 30
0.0
 10
-410.7687941132478
 20
445.0224970686122
 30
0.0
 10
-410.8821204529537
 20
445.0118821128826
 30
0.0
 10
-411.0618065015302
 20
445.0118821128826
 30
0.0
 10
-411.1388148241337
 20
445.0224970686122
 30
0.0
 10
-411.240277656799
 20
445.0608017300869
 30
0.0
 10
-411.2648566960553
 20
445.0880309040975
 30
0.0
 10
-411.2648566960551
 20
445.1139663512263
 30
0.0
  0
LINE
  5
304
330
2
100
AcDbEntity
  8
UMRISS05
100
AcDbLine
 10
-403.2648566960551
 20
242.5118821128827
 30
0.0
 11
-401.2648566960551
 21
242.5118821128827
 31
0.0
  0
ARC
  5
305
330
2
100
AcDbEntity
  8
UMRISS05
100
AcDbCircle
 10
-403.2648566960551
 20
250.5118821128827
 30
0.0
 40
8.000000000000008
100
AcDbArc
 50
180.0
 51
270.0
  0
ARC
  5
306
330
2
100
AcDbEntity
  8
UMRISS05
100
AcDbCircle
 10
-403.2648566960551
 20
451.5118821128829
 30
0.0
 40
8.000000000000008
100
AcDbArc
 50
89.99999999968082
 51
180.0
  0
LINE
  5
307
330
2
100
AcDbEntity
  8
UMRISS05
100
AcDbLine
 10
-401.2648566960105
 20
459.5118821128828
 30
0.0
 11
-403.2648566960106
 21
459.5118821128828
 31
0.0
  0
LINE
  5
308
330
2
100
AcDbEntity
  8
UMRISS05
100
AcDbLine
 10
-401.2648566960551
 20
242.5118821128827
 30
0.0
 11
-401.2648566960551
 21
459.5118821128828
 31
0.0
  0
LINE
  5
309
330
2
100
AcDbEntity
  8
AVERDECKTE
100
AcDbLine
 10
-402.2648566960524
 20
250.5118821128827
 30
0.0
 11
-401.2648566960524
 21
249.5118821128827
 31
0.0
  0
LINE
  5
30A
330
2
100
AcDbEntity
  8
AVERDECKTE
100
AcDbLine
 10
-402.2648566960524
 20
258.5118821128828
 30
0.0
 11
-401.2648566960524
 21
259.5118821128827
 31
0.0
  0
LINE
  5
30B
330
2
100
AcDbEntity
  8
AVERDECKTE
100
AcDbLine
 10
-402.2648566960524
 20
443.5118821128829
 30
0.0
 11
-401.2648566960524
 21
442.5118821128826
 31
0.0
  0
LINE
  5
30C
330
2
100
AcDbEntity
  8
AVERDECKTE
100
AcDbLine
 10
-402.2648566960524
 20
451.5118821128829
 30
0.0
 11
-401.2648566960524
 21
452.5118821128827
 31
0.0
  0
LINE
  5
30D
330
2
100
AcDbEntity
  8
AVERDECKTE
100
AcDbLine
 10
-402.2648566960525
 20
258.5118821128828
 30
0.0
 11
-402.2648566960525
 21
250.5118821128827
 31
0.0
  0
LINE
  5
30E
330
2
100
AcDbEntity
  8
AVERDECKTE
100
AcDbLine
 10
-402.2648566960525
 20
451.5118821128827
 30
0.0
 11
-402.2648566960525
 21
443.5118821128829
 31
0.0
  0
LINE
  5
30F
330
2
100
AcDbEntity
  8
UMRISS05
100
AcDbLine
 10
-401.2648566960551
 20
242.5118821128827
 30
0.0
 11
-402.2648566960554
 21
243.5118821128827
 31
0.0
  0
CIRCLE
  5
310
330
2
100
AcDbEntity
  8
UMRISS05
100
AcDbCircle
 10
-484.2648566960502
 20
254.5118821128829
 30
0.0
 40
2.75
  0
CIRCLE
  5
311
330
2
100
AcDbEntity
  8
UMRISS05
100
AcDbCircle
 10
-484.2648566960502
 20
447.5118821128829
 30
0.0
 40
2.75
  0
CIRCLE
  5
312
330
2
100
AcDbEntity
  8
UMRISS05
100
AcDbCircle
 10
-484.2648566960502
 20
254.5118821128829
 30
0.0
 40
4.0
  0
CIRCLE
  5
313
330
2
100
AcDbEntity
  8
UMRISS05
100
AcDbCircle
 10
-484.2648566960502
 20
254.5118821128829
 30
0.0
 40
5.0
  0
CIRCLE
  5
314
330
2
100
AcDbEntity
  8
UMRISS05
100
AcDbCircle
 10
-484.2648566960502
 20
447.5118821128829
 30
0.0
 40
5.0
  0
CIRCLE
  5
315
330
2
100
AcDbEntity
  8
UMRISS05
100
AcDbCircle
 10
-484.2648566960502
 20
447.5118821128829
 30
0.0
 40
4.0
  0
ENDSEC
  0
SECTION
  2
OBJECTS
  0
DICTIONARY
  5
C
330
0
100
AcDbDictionary
281
     1
  3
ACAD_COLOR
350
4E
  3
ACAD_DETAILVIEWSTYLE
350
337
  3
ACAD_FIELDLIST
350
371
  3
ACAD_GROUP
350
3B
  3
ACAD_LAYOUT
350
19
  3
ACAD_MATERIAL
350
E
  3
ACAD_MLEADERSTYLE
350
51
  3
ACAD_MLINESTYLE
350
3C
  3
ACAD_PLOTSETTINGS
350
3D
  3
ACAD_PLOTSTYLENAME
350
B
  3
ACAD_SCALELIST
350
4F
  3
ACAD_SECTIONVIEWSTYLE
350
345
  3
ACAD_TABLESTYLE
350
50
  3
ACAD_VISUALSTYLE
350
31
  3
ACDB_RECOMPOSE_DATA
350
386
  3
AcDbVariableDictionary
350
375
  3
AcDsDecomposeData
350
38C
  3
AcmDictionary
350
327
  3
AcmSystemVariableManager
350
3A3
  3
AMG
350
318
  0
DICTIONARY
  5
21
330
20
100
AcDbDictionary
280
     1
281
     1
  3
ACAD_LAYERFILTERS
360
22
  3
ACAD_LAYERSTATES
360
23
  3
ACLYDICTIONARY
360
24
  0
DICTIONARY
  5
8
330
7
100
AcDbDictionary
280
     1
281
     1
  3
ADSK_XREC_LAYER_RECONCILED
360
9
  0
DICTIONARY
  5
53
330
52
100
AcDbDictionary
280
     1
281
     1
  3
ADSK_XREC_LAYER_RECONCILED
360
54
  0
DICTIONARY
  5
73
330
72
100
AcDbDictionary
280
     1
281
     1
  3
ADSK_XREC_LAYER_RECONCILED
360
74
  0
DICTIONARY
  5
6E
330
6D
100
AcDbDictionary
280
     1
281
     1
  3
ADSK_XREC_LAYER_RECONCILED
360
6F
  0
DICTIONARY
  5
FB
330
FA
100
AcDbDictionary
280
     1
281
     1
  3
ADSK_XREC_LAYER_RECONCILED
360
FC
  0
DICTIONARY
  5
3
330
2
100
AcDbDictionary
280
     1
281
     1
  3
ACAD_ASSOCNETWORK
360
4
  3
ACAD_SORTENTS
360
316
  0
DICTIONARY
  5
4E
102
{ACAD_REACTORS
330
C
102
}
330
C
100
AcDbDictionary
281
     1
  0
DICTIONARY
  5
337
102
{ACAD_REACTORS
330
C
102
}
330
C
100
AcDbDictionary
281
     1
  3
Imperial24
350
33E
  3
Metric50
350
341
  0
FIELDLIST
  5
371
102
{ACAD_REACTORS
330
C
102
}
330
C
100
AcDbIdSet
 90
        6
330
348
330
349
330
34A
330
33A
330
33B
330
33C
100
AcDbFieldList
  0
DICTIONARY
  5
3B
102
{ACAD_REACTORS
330
C
102
}
330
C
100
AcDbDictionary
281
     1
  0
DICTIONARY
  5
19
102
{ACAD_REACTORS
330
C
102
}
330
C
100
AcDbDictionary
281
     1
  3
Layout1
350
1F
  3
Model
350
18
  0
DICTIONARY
  5
E
102
{ACAD_REACTORS
330
C
102
}
330
C
100
AcDbDictionary
281
     1
  3
ByBlock
350
46
  3
ByLayer
350
3E
  3
Global
350
D
  0
DICTIONARY
  5
51
102
{ACAD_REACTORS
330
C
102
}
330
C
100
AcDbDictionary
281
     1
  0
DICTIONARY
  5
3C
102
{ACAD_REACTORS
330
C
102
}
330
C
100
AcDbDictionary
281
     1
  3
STANDARD
350
56
  0
DICTIONARY
  5
3D
102
{ACAD_REACTORS
330
C
102
}
330
C
100
AcDbDictionary
281
     1
  0
ACDBDICTIONARYWDFLT
  5
B
102
{ACAD_REACTORS
330
C
102
}
330
C
100
AcDbDictionary
281
     1
  3
Normal
350
A
100
AcDbDictionaryWithDefault
340
A
  0
DICTIONARY
  5
4F
102
{ACAD_REACTORS
330
C
102
}
330
C
100
AcDbDictionary
281
     1
  3
A0
350
5B
  3
A1
350
5C
  3
A2
350
5D
  3
A3
350
5E
  3
A4
350
5F
  3
A5
350
60
  3
A6
350
61
  3
A7
350
62
  3
A8
350
63
  3
A9
350
64
  3
B0
350
65
  3
B1
350
66
  3
B2
350
67
  3
B3
350
68
  3
B4
350
69
  3
B5
350
6A
  3
B6
350
6B
  0
DICTIONARY
  5
345
102
{ACAD_REACTORS
330
C
102
}
330
C
100
AcDbDictionary
281
     1
  3
Imperial24
350
350
  3
Metric50
350
353
  0
DICTIONARY
  5
50
102
{ACAD_REACTORS
330
C
102
}
330
C
100
AcDbDictionary
281
     1
  3
Standard
350
57
  0
DICTIONARY
  5
31
102
{ACAD_REACTORS
330
C
102
}
330
C
100
AcDbDictionary
281
     1
  3
2dWireframe
350
30
  3
Realistic
350
59
  3
Wireframe
350
5A
  0
XRECORD
  5
386
102
{ACAD_REACTORS
330
C
102
}
330
C
100
AcDbXrecord
280
     1
 90
        1
330
57
  0
DICTIONARY
  5
375
102
{ACAD_REACTORS
330
C
102
}
330
C
100
AcDbDictionary
281
     1
  3
CANNOSCALE
350
37A
  3
CMLEADERSTYLE
350
377
  3
CTABLESTYLE
350
376
  3
CVIEWDETAILSTYLE
350
378
  3
CVIEWSECTIONSTYLE
350
379
  3
DIMASSOC
350
37F
  3
HIDETEXT
350
37D
  3
INDEXCTL
350
37C
  3
LOFTANG1
350
381
  3
LOFTANG2
350
382
  3
LONGITUDE
350
383
  3
SOLIDHIST
350
380
  3
SORTENTS
350
37B
  3
XCLIPFRAME
350
37E
  0
DICTIONARY
  5
38C
102
{ACAD_REACTORS
330
C
102
}
330
C
100
AcDbDictionary
281
     1
  3
AcDsRecords
350
38E
  3
AcDsSchemas
350
38D
1001
ACAD
1070
     2
  0
DICTIONARY
  5
327
102
{ACAD_REACTORS
330
C
102
}
330
C
100
AcDbDictionary
281
     1
  3
AcmStdDictionary
350
328
  0
DICTIONARY
  5
318
102
{ACAD_REACTORS
330
C
102
}
330
C
100
AcDbDictionary
281
     1
  3
AcMgSettings
350
322
  0
DICTIONARY
  5
22
102
{ACAD_REACTORS
330
21
102
}
330
21
100
AcDbDictionary
281
     1
  0
DICTIONARY
  5
23
102
{ACAD_REACTORS
330
21
102
}
330
21
100
AcDbDictionary
281
     1
  0
DICTIONARY
  5
24
102
{ACAD_REACTORS
330
21
102
}
330
21
100
AcDbDictionary
281
     1
1001
ACAD
1000
<All
  0
XRECORD
  5
9
102
{ACAD_REACTORS
330
8
102
}
330
8
100
AcDbXrecord
280
     1
290
     1
  0
XRECORD
  5
54
102
{ACAD_REACTORS
330
53
102
}
330
53
100
AcDbXrecord
280
     1
290
     1
  0
XRECORD
  5
74
102
{ACAD_REACTORS
330
73
102
}
330
73
100
AcDbXrecord
280
     1
290
     1
  0
XRECORD
  5
6F
102
{ACAD_REACTORS
330
6E
102
}
330
6E
100
AcDbXrecord
280
     1
290
     1
  0
XRECORD
  5
FC
102
{ACAD_REACTORS
330
FB
102
}
330
FB
100
AcDbXrecord
280
     1
290
     1
  0
DICTIONARY
  5
4
102
{ACAD_REACTORS
330
3
102
}
330
3
100
AcDbDictionary
281
     1
  0
SORTENTSTABLE
  5
316
102
{ACAD_REACTORS
330
3
102
}
330
3
100
AcDbSortentsTable
330
2
331
303
  5
10F
331
AD
  5
310
331
289
  5
1CA
331
127
  5
2EB
331
2C8
  5
18B
331
123
  5
2EF
331
21F
  5
22B
331
1A5
  5
2AE
331
21B
  5
22F
331
1A1
  5
2B2
331
19D
  5
2B6
331
1DC
  5
277
331
217
  5
233
331
256
  5
1FE
331
252
  5
202
331
199
  5
2BA
331
1D8
  5
27B
331
213
  5
241
331
2C4
  5
18F
331
2FF
  5
113
331
285
  5
1CE
331
281
  5
1D2
331
2C0
  5
193
331
11F
  5
2F3
331
2FB
  5
117
331
27D
  5
1D6
331
2BC
  5
197
331
2F7
  5
11B
331
11B
  5
2F7
331
15A
  5
2DF
331
6C
  5
315
331
2F3
  5
11F
331
279
  5
1DA
331
117
  5
2FB
331
2B8
  5
19B
331
113
  5
2FF
331
D8
  5
30D
331
20F
  5
245
331
24E
  5
206
331
195
  5
2BE
331
1D4
  5
27F
331
1D0
  5
283
331
20B
  5
249
331
24A
  5
20A
331
191
  5
2C2
331
18D
  5
2C6
331
1CC
  5
287
331
207
  5
24D
331
246
  5
20E
331
242
  5
212
331
189
  5
2CA
331
1C8
  5
28B
331
203
  5
251
331
2B4
  5
19F
331
2EF
  5
123
331
275
  5
1DF
331
271
  5
1E3
331
2B0
  5
1A3
331
10F
  5
303
331
2EB
  5
127
331
26D
  5
1E7
331
2AC
  5
1A7
331
2E7
  5
12B
331
269
  5
1EB
331
2A8
  5
1AB
331
2E3
  5
12F
331
23E
  5
216
331
185
  5
2CE
331
1C4
  5
28F
331
1FF
  5
255
331
1C0
  5
293
331
1FB
  5
259
331
181
  5
2D2
331
17D
  5
2D6
331
1BC
  5
297
331
1F7
  5
25D
331
179
  5
2DA
331
1B8
  5
29B
331
1F3
  5
261
331
232
  5
218
331
2A4
  5
1AF
331
2DF
  5
15A
331
265
  5
1EF
331
261
  5
1F3
331
2A0
  5
1B3
331
2DB
  5
178
331
25D
  5
1F7
331
29C
  5
1B7
331
2D7
  5
17C
331
312
  5
93
331
259
  5
1FB
331
298
  5
1BB
331
BC
  5
30F
331
F7
  5
309
331
2D3
  5
180
331
22E
  5
21C
331
1B4
  5
29F
331
1EF
  5
265
331
1B0
  5
2A3
331
1EB
  5
269
331
22A
  5
220
331
1AC
  5
2A7
331
1E7
  5
26D
331
226
  5
224
331
169
  5
2DC
331
1A8
  5
2AB
331
1E3
  5
271
331
222
  5
228
331
294
  5
1BF
331
30E
  5
CB
331
290
  5
1C3
331
2CF
  5
184
331
12E
  5
2E4
331
30A
  5
F6
331
28C
  5
1C7
331
2CB
  5
188
331
12A
  5
2E8
331
306
  5
10C
331
302
  5
110
331
288
  5
1CB
331
126
  5
2EC
331
122
  5
2F0
331
21E
  5
22C
331
1A4
  5
2AF
331
1DF
  5
275
331
21A
  5
230
331
1A0
  5
2B3
331
19C
  5
2B7
331
1DB
  5
278
331
216
  5
23E
331
255
  5
1FF
331
251
  5
203
331
198
  5
2BB
331
212
  5
242
331
2C7
  5
18C
331
2C3
  5
190
331
2FE
  5
114
331
284
  5
1CF
331
280
  5
1D3
331
2BF
  5
194
331
11E
  5
2F4
331
2FA
  5
118
331
27C
  5
1D7
331
2BB
  5
198
331
A0
  5
311
331
11A
  5
2F8
331
2F6
  5
11C
331
2F2
  5
120
331
278
  5
1DB
331
116
  5
2FC
331
112
  5
300
331
1D7
  5
27C
331
20E
  5
246
331
24D
  5
207
331
194
  5
2BF
331
1D3
  5
280
331
1CF
  5
284
331
20A
  5
24A
331
249
  5
20B
331
190
  5
2C3
331
18C
  5
2C7
331
1CB
  5
288
331
206
  5
24E
331
245
  5
20F
331
241
  5
213
331
188
  5
2CB
331
202
  5
252
331
2B7
  5
19C
331
2B3
  5
1A0
331
2EE
  5
124
331
274
  5
1E0
331
270
  5
1E4
331
2AF
  5
1A4
331
2EA
  5
128
331
10E
  5
304
331
14D
  5
2E0
331
26C
  5
1E8
331
2AB
  5
1A8
331
2E6
  5
12C
331
2E2
  5
133
331
268
  5
1EC
331
CB
  5
30E
331
1C7
  5
28C
331
1FE
  5
256
331
184
  5
2CF
331
1C3
  5
290
331
1BF
  5
294
331
1FA
  5
25A
331
180
  5
2D3
331
17C
  5
2D7
331
1BB
  5
298
331
1F6
  5
25E
331
231
  5
219
331
178
  5
2DB
331
1F2
  5
262
331
2A7
  5
1AC
331
2A3
  5
1B0
331
2DE
  5
15B
331
264
  5
1F0
331
260
  5
1F4
331
29F
  5
1B4
331
2DA
  5
179
331
315
  5
6C
331
25C
  5
1F8
331
29B
  5
1B8
331
2D6
  5
17D
331
311
  5
A0
331
258
  5
1FC
331
F6
  5
30A
331
2D2
  5
181
331
1B7
  5
29C
331
22D
  5
21D
331
1B3
  5
2A0
331
1EE
  5
266
331
1AF
  5
2A4
331
1EA
  5
26A
331
229
  5
221
331
1AB
  5
2A8
331
1E6
  5
26E
331
1E2
  5
272
331
221
  5
229
331
297
  5
1BC
331
293
  5
1C0
331
30D
  5
D8
331
28F
  5
1C4
331
2CE
  5
185
331
12D
  5
2E5
331
309
  5
F7
331
28B
  5
1C8
331
2CA
  5
189
331
129
  5
2E9
331
305
  5
10D
331
125
  5
2ED
331
301
  5
111
331
121
  5
2F1
331
1A7
  5
2AC
331
21D
  5
22D
331
1A3
  5
2B0
331
19F
  5
2B4
331
1DE
  5
276
331
219
  5
231
331
19B
  5
2B8
331
1DA
  5
279
331
215
  5
23F
331
254
  5
200
331
250
  5
204
331
211
  5
243
331
2C6
  5
18D
331
287
  5
1CC
331
283
  5
1D0
331
2C2
  5
191
331
2FD
  5
115
331
27F
  5
1D4
331
2BE
  5
195
331
2F9
  5
119
331
11D
  5
2F5
331
15C
  5
2DD
331
27B
  5
1D8
331
2BA
  5
199
331
119
  5
2F9
331
2F5
  5
11D
331
2F1
  5
121
331
115
  5
2FD
331
111
  5
301
331
197
  5
2BC
331
1D6
  5
27D
331
1D2
  5
281
331
20D
  5
247
331
24C
  5
208
331
193
  5
2C0
331
1CE
  5
285
331
209
  5
24B
331
248
  5
20C
331
18F
  5
2C4
331
18B
  5
2C8
331
1CA
  5
289
331
205
  5
24F
331
244
  5
210
331
240
  5
214
331
201
  5
253
331
2B6
  5
19D
331
277
  5
1DC
331
2B2
  5
1A1
331
2ED
  5
125
331
273
  5
1E1
331
26F
  5
1E5
331
2AE
  5
1A5
331
93
  5
312
331
10D
  5
305
331
2E9
  5
129
331
26B
  5
1E9
331
2AA
  5
1A9
331
2E5
  5
12D
331
2E1
  5
140
331
140
  5
2E1
331
187
  5
2CC
331
1C6
  5
28D
331
1FD
  5
257
331
183
  5
2D0
331
1C2
  5
291
331
1BE
  5
295
331
1F9
  5
25B
331
17F
  5
2D4
331
17B
  5
2D8
331
1BA
  5
299
331
1F5
  5
25F
331
230
  5
21A
331
1F1
  5
263
331
267
  5
1ED
331
2A6
  5
1AD
331
2A2
  5
1B1
331
2DD
  5
15C
331
263
  5
1F1
331
25F
  5
1F5
331
29E
  5
1B5
331
2D9
  5
17A
331
314
  5
71
331
25B
  5
1F9
331
29A
  5
1B9
331
F9
  5
307
331
2D5
  5
17E
331
2D1
  5
182
331
310
  5
AD
331
1B6
  5
29D
331
1ED
  5
267
331
22C
  5
21E
331
1B2
  5
2A1
331
1AE
  5
2A5
331
1E9
  5
26B
331
228
  5
222
331
1AA
  5
2A9
331
1E5
  5
26F
331
224
  5
226
331
220
  5
22A
331
1E1
  5
273
331
296
  5
1BD
331
292
  5
1C1
331
30C
  5
E5
331
28E
  5
1C5
331
2CD
  5
186
331
12C
  5
2E6
331
308
  5
F8
331
304
  5
10E
331
28A
  5
1C9
331
128
  5
2EA
331
2C9
  5
18A
331
124
  5
2EE
331
300
  5
112
331
120
  5
2F2
331
71
  5
314
331
1A6
  5
2AD
331
21C
  5
22E
331
1A2
  5
2B1
331
19E
  5
2B5
331
218
  5
232
331
257
  5
1FD
331
253
  5
201
331
19A
  5
2B9
331
1D9
  5
27A
331
214
  5
240
331
210
  5
244
331
2C5
  5
18E
331
286
  5
1CD
331
282
  5
1D1
331
2C1
  5
192
331
E5
  5
30C
331
2FC
  5
116
331
27E
  5
1D5
331
2BD
  5
196
331
2F8
  5
11A
331
11C
  5
2F6
331
15B
  5
2DE
331
27A
  5
1D9
331
2B9
  5
19A
331
118
  5
2FA
331
2F4
  5
11E
331
114
  5
2FE
331
2F0
  5
122
331
110
  5
302
331
24F
  5
205
331
196
  5
2BD
331
1D5
  5
27E
331
1D1
  5
282
331
20C
  5
248
331
24B
  5
209
331
192
  5
2C1
331
18E
  5
2C5
331
1CD
  5
286
331
208
  5
24C
331
247
  5
20D
331
18A
  5
2C9
331
1C9
  5
28A
331
204
  5
250
331
243
  5
211
331
200
  5
254
331
2B5
  5
19E
331
276
  5
1DE
331
272
  5
1E2
331
2B1
  5
1A2
331
2EC
  5
126
331
26E
  5
1E6
331
2AD
  5
1A6
331
10C
  5
306
331
2E8
  5
12A
331
26A
  5
1EA
331
2A9
  5
1AA
331
2E4
  5
12E
331
2E0
  5
14D
331
23F
  5
215
331
186
  5
2CD
331
1C5
  5
28E
331
1C1
  5
292
331
1FC
  5
258
331
182
  5
2D1
331
1BD
  5
296
331
1F8
  5
25C
331
17E
  5
2D5
331
17A
  5
2D9
331
1B9
  5
29A
331
1F4
  5
260
331
233
  5
217
331
1F0
  5
264
331
2A5
  5
1AE
331
266
  5
1EE
331
2A1
  5
1B2
331
2DC
  5
169
331
86
  5
313
331
262
  5
1F2
331
25E
  5
1F6
331
29D
  5
1B6
331
2D8
  5
17B
331
313
  5
86
331
25A
  5
1FA
331
299
  5
1BA
331
F8
  5
308
331
2D4
  5
17F
331
2D0
  5
183
331
133
  5
2E2
331
F4
  5
30B
331
22F
  5
21B
331
1B5
  5
29E
331
1EC
  5
268
331
22B
  5
21F
331
1B1
  5
2A2
331
1AD
  5
2A6
331
1E8
  5
26C
331
227
  5
223
331
1A9
  5
2AA
331
1E4
  5
270
331
223
  5
227
331
1E0
  5
274
331
30F
  5
BC
331
295
  5
1BE
331
291
  5
1C2
331
12F
  5
2E3
331
30B
  5
F4
331
28D
  5
1C6
331
2CC
  5
187
331
12B
  5
2E7
331
307
  5
F9
  0
ACDBDETAILVIEWSTYLE
  5
33E
102
{ACAD_XDICTIONARY
360
33F
102
}
102
{ACAD_REACTORS
330
337
330
33D
102
}
330
337
100
AcDbModelDocViewStyle
 70
     0
  3
Imperial24
290
     0
100
AcDbDetailViewStyle
 70
     0
 71
     0
 90
        3
 71
     1
340
27
 40
0.24
340
0
 40
0.24
300

 40
0.36
280
     3
 71
     2
340
16
 90
       25
 71
     3
340
27
 40
0.24
 90
        1
 40
0.75
 90
        1
300
%<\AcVar ViewType \f "%tc1">% %<\AcVar ViewDetailId>%\PVARIA %<\AcVar ViewScale \f "%sn">%
 71
     4
340
16
 90
       25
340
16
 90
       25
280
     0
  0
ACDBDETAILVIEWSTYLE
  5
341
102
{ACAD_XDICTIONARY
360
342
102
}
102
{ACAD_REACTORS
330
337
330
340
102
}
330
337
100
AcDbModelDocViewStyle
 70
     0
  3
Metric50
290
     0
100
AcDbDetailViewStyle
 70
     0
 71
     0
 90
        3
 71
     1
340
27
 40
5.0
340
0
 40
5.0
300

 40
0.0
280
     1
 71
     2
340
16
 90
       25
 71
     3
340
27
 40
5.0
 90
        0
 40
15.0
 90
        1
300
%<\AcVar ViewDetailId>% (%<\AcVar ViewScale \f "%sn">%)
 71
     4
340
16
 90
       25
340
16
 90
       25
280
     0
  0
LAYOUT
  5
1F
102
{ACAD_XDICTIONARY
360
391
102
}
102
{ACAD_REACTORS
330
19
102
}
330
19
100
AcDbPlotSettings
  1

  2
\\mslklsv1\MSLKLP05
  4

  6

 40
0.0
 41
0.0
 42
0.0
 43
0.0
 44
0.0
 45
0.0
 46
0.0
 47
0.0
 48
0.0
 49
0.0
140
0.0
141
0.0
142
1.0
143
1.0
 70
   688
 72
     0
 73
     0
 74
     5
  7
Stuplbeschriftung.ctb
 75
    16
147
1.0
148
0.0
149
0.0
100
AcDbLayout
  1
Layout1
 70
     1
 71
     1
 10
0.0
 20
0.0
 11
12.0
 21
9.0
 12
0.0
 22
0.0
 32
0.0
 14
1.000000000000000E+20
 24
1.000000000000000E+20
 34
1.000000000000000E+20
 15
-1.000000000000000E+20
 25
-1.000000000000000E+20
 35
-1.000000000000000E+20
146
0.0
 13
0.0
 23
0.0
 33
0.0
 16
1.0
 26
0.0
 36
0.0
 17
0.0
 27
1.0
 37
0.0
 76
     0
330
1C
  0
LAYOUT
  5
18
102
{ACAD_XDICTIONARY
360
1A
102
}
102
{ACAD_REACTORS
330
19
102
}
330
19
100
AcDbPlotSettings
  1

  2
\\mslklsv1\MSLKLP05
  4
A4
  6

 40
6.720416545867919
 41
6.720392704010008
 42
7.694076538085937
 43
4.011077880859375
 44
209.9733276367186
 45
296.9683227539062
 46
0.0
 47
0.0
 48
0.0
 49
0.0
140
0.0
141
0.0
142
1.0
143
2.49309260033622
 70
 11952
 72
     1
 73
     1
 74
     0
  7
Stuplbeschriftung.ctb
 75
     0
147
0.4011082459853835
148
235.6679059730945
149
-4.095299769500029
100
AcDbLayout
  1
Model
 70
     1
 71
     0
 10
0.0
 20
0.0
 11
12.0
 21
9.0
 12
0.0
 22
0.0
 32
0.0
 14
0.0
 24
0.0
 34
0.0
 15
0.0
 25
0.0
 35
0.0
146
0.0
 13
0.0
 23
0.0
 33
0.0
 16
1.0
 26
0.0
 36
0.0
 17
0.0
 27
1.0
 37
0.0
 76
     0
330
2
331
2F
1001
ACAD_PSEXT
1000
\\mslklsv1\MSLKLP05
1000
HP LaserJet 5000 Series PCL
1000
CAD
1000
HP LaserJet 5000N
1070
     0
  0
MATERIAL
  5
46
102
{ACAD_XDICTIONARY
360
47
102
}
102
{ACAD_REACTORS
330
E
102
}
330
E
100
AcDbMaterial
  1
ByBlock
 72
     0
 43
0.0008202099737533
 43
0.0
 43
0.0
 43
0.0
 43
0.0
 43
0.0008202099737533
 43
0.0
 43
0.0
 43
0.0
 43
0.0
 43
1.0
 43
0.0
 43
0.0
 43
0.0
 43
0.0
 43
1.0
 77
     0
 47
0.0008202099737533
 47
0.0
 47
0.0
 47
0.0
 47
0.0
 47
0.0008202099737533
 47
0.0
 47
0.0
 47
0.0
 47
0.0
 47
1.0
 47
0.0
 47
0.0
 47
0.0
 47
0.0
 47
1.0
171
     0
 49
0.0008202099737533
 49
0.0
 49
0.0
 49
0.0
 49
0.0
 49
0.0008202099737533
 49
0.0
 49
0.0
 49
0.0
 49
0.0
 49
1.0
 49
0.0
 49
0.0
 49
0.0
 49
0.0
 49
1.0
175
     0
142
0.0008202099737533
142
0.0
142
0.0
142
0.0
142
0.0
142
0.0008202099737533
142
0.0
142
0.0
142
0.0
142
0.0
142
1.0
142
0.0
142
0.0
142
0.0
142
0.0
142
1.0
179
     0
144
0.0008202099737533
144
0.0
144
0.0
144
0.0
144
0.0
144
0.0008202099737533
144
0.0
144
0.0
144
0.0
144
0.0
144
1.0
144
0.0
144
0.0
144
0.0
144
0.0
144
1.0
147
0.0008202099737533
147
0.0
147
0.0
147
0.0
147
0.0
147
0.0008202099737533
147
0.0
147
0.0
147
0.0
147
0.0
147
1.0
147
0.0
147
0.0
147
0.0
147
0.0
147
1.0
  0
MATERIAL
  5
3E
102
{ACAD_XDICTIONARY
360
3F
102
}
102
{ACAD_REACTORS
330
E
102
}
330
E
100
AcDbMaterial
  1
ByLayer
 72
     0
 43
0.0008202099737533
 43
0.0
 43
0.0
 43
0.0
 43
0.0
 43
0.0008202099737533
 43
0.0
 43
0.0
 43
0.0
 43
0.0
 43
1.0
 43
0.0
 43
0.0
 43
0.0
 43
0.0
 43
1.0
 77
     0
 47
0.0008202099737533
 47
0.0
 47
0.0
 47
0.0
 47
0.0
 47
0.0008202099737533
 47
0.0
 47
0.0
 47
0.0
 47
0.0
 47
1.0
 47
0.0
 47
0.0
 47
0.0
 47
0.0
 47
1.0
171
     0
 49
0.0008202099737533
 49
0.0
 49
0.0
 49
0.0
 49
0.0
 49
0.0008202099737533
 49
0.0
 49
0.0
 49
0.0
 49
0.0
 49
1.0
 49
0.0
 49
0.0
 49
0.0
 49
0.0
 49
1.0
175
     0
142
0.0008202099737533
142
0.0
142
0.0
142
0.0
142
0.0
142
0.0008202099737533
142
0.0
142
0.0
142
0.0
142
0.0
142
1.0
142
0.0
142
0.0
142
0.0
142
0.0
142
1.0
179
     0
144
0.0008202099737533
144
0.0
144
0.0
144
0.0
144
0.0
144
0.0008202099737533
144
0.0
144
0.0
144
0.0
144
0.0
144
1.0
144
0.0
144
0.0
144
0.0
144
0.0
144
1.0
147
0.0008202099737533
147
0.0
147
0.0
147
0.0
147
0.0
147
0.0008202099737533
147
0.0
147
0.0
147
0.0
147
0.0
147
1.0
147
0.0
147
0.0
147
0.0
147
0.0
147
1.0
  0
MATERIAL
  5
D
102
{ACAD_XDICTIONARY
360
F
102
}
102
{ACAD_REACTORS
330
E
102
}
330
E
100
AcDbMaterial
  1
Global
 72
     0
 43
0.0008202099737533
 43
0.0
 43
0.0
 43
0.0
 43
0.0
 43
0.0008202099737533
 43
0.0
 43
0.0
 43
0.0
 43
0.0
 43
1.0
 43
0.0
 43
0.0
 43
0.0
 43
0.0
 43
1.0
 77
     0
 47
0.0008202099737533
 47
0.0
 47
0.0
 47
0.0
 47
0.0
 47
0.0008202099737533
 47
0.0
 47
0.0
 47
0.0
 47
0.0
 47
1.0
 47
0.0
 47
0.0
 47
0.0
 47
0.0
 47
1.0
171
     0
 49
0.0008202099737533
 49
0.0
 49
0.0
 49
0.0
 49
0.0
 49
0.0008202099737533
 49
0.0
 49
0.0
 49
0.0
 49
0.0
 49
1.0
 49
0.0
 49
0.0
 49
0.0
 49
0.0
 49
1.0
175
     0
142
0.0008202099737533
142
0.0
142
0.0
142
0.0
142
0.0
142
0.0008202099737533
142
0.0
142
0.0
142
0.0
142
0.0
142
1.0
142
0.0
142
0.0
142
0.0
142
0.0
142
1.0
179
     0
144
0.0008202099737533
144
0.0
144
0.0
144
0.0
144
0.0
144
0.0008202099737533
144
0.0
144
0.0
144
0.0
144
0.0
144
1.0
144
0.0
144
0.0
144
0.0
144
0.0
144
1.0
147
0.0008202099737533
147
0.0
147
0.0
147
0.0
147
0.0
147
0.0008202099737533
147
0.0
147
0.0
147
0.0
147
0.0
147
1.0
147
0.0
147
0.0
147
0.0
147
0.0
147
1.0
  0
MLINESTYLE
  5
56
102
{ACAD_REACTORS
330
3C
102
}
330
3C
100
AcDbMlineStyle
  2
STANDARD
 70
     0
  3

 62
     0
 51
90.0
 52
90.0
 71
     2
 49
0.5
 62
   256
  6
BYLAYER
 49
-0.5
 62
   256
  6
BYLAYER
  0
ACDBPLACEHOLDER
  5
A
102
{ACAD_REACTORS
330
B
102
}
330
B
  0
SCALE
  5
5B
102
{ACAD_REACTORS
330
4F
102
}
330
4F
100
AcDbScale
 70
     0
300
1:1
140
1.0
141
1.0
290
     1
  0
SCALE
  5
5C
102
{ACAD_REACTORS
330
4F
102
}
330
4F
100
AcDbScale
 70
     0
300
1:2
140
1.0
141
2.0
290
     0
  0
SCALE
  5
5D
102
{ACAD_REACTORS
330
4F
102
}
330
4F
100
AcDbScale
 70
     0
300
1:4
140
1.0
141
4.0
290
     0
  0
SCALE
  5
5E
102
{ACAD_REACTORS
330
4F
102
}
330
4F
100
AcDbScale
 70
     0
300
1:5
140
1.0
141
5.0
290
     0
  0
SCALE
  5
5F
102
{ACAD_REACTORS
330
4F
102
}
330
4F
100
AcDbScale
 70
     0
300
1:8
140
1.0
141
8.0
290
     0
  0
SCALE
  5
60
102
{ACAD_REACTORS
330
4F
102
}
330
4F
100
AcDbScale
 70
     0
300
1:10
140
1.0
141
10.0
290
     0
  0
SCALE
  5
61
102
{ACAD_REACTORS
330
4F
102
}
330
4F
100
AcDbScale
 70
     0
300
1:16
140
1.0
141
16.0
290
     0
  0
SCALE
  5
62
102
{ACAD_REACTORS
330
4F
102
}
330
4F
100
AcDbScale
 70
     0
300
1:20
140
1.0
141
20.0
290
     0
  0
SCALE
  5
63
102
{ACAD_REACTORS
330
4F
102
}
330
4F
100
AcDbScale
 70
     0
300
1:30
140
1.0
141
30.0
290
     0
  0
SCALE
  5
64
102
{ACAD_REACTORS
330
4F
102
}
330
4F
100
AcDbScale
 70
     0
300
1:40
140
1.0
141
40.0
290
     0
  0
SCALE
  5
65
102
{ACAD_REACTORS
330
4F
102
}
330
4F
100
AcDbScale
 70
     0
300
1:50
140
1.0
141
50.0
290
     0
  0
SCALE
  5
66
102
{ACAD_REACTORS
330
4F
102
}
330
4F
100
AcDbScale
 70
     0
300
1:100
140
1.0
141
100.0
290
     0
  0
SCALE
  5
67
102
{ACAD_REACTORS
330
4F
102
}
330
4F
100
AcDbScale
 70
     0
300
2:1
140
2.0
141
1.0
290
     0
  0
SCALE
  5
68
102
{ACAD_REACTORS
330
4F
102
}
330
4F
100
AcDbScale
 70
     0
300
4:1
140
4.0
141
1.0
290
     0
  0
SCALE
  5
69
102
{ACAD_REACTORS
330
4F
102
}
330
4F
100
AcDbScale
 70
     0
300
8:1
140
8.0
141
1.0
290
     0
  0
SCALE
  5
6A
102
{ACAD_REACTORS
330
4F
102
}
330
4F
100
AcDbScale
 70
     0
300
10:1
140
10.0
141
1.0
290
     0
  0
SCALE
  5
6B
102
{ACAD_REACTORS
330
4F
102
}
330
4F
100
AcDbScale
 70
     0
300
100:1
140
100.0
141
1.0
290
     0
  0
ACDBSECTIONVIEWSTYLE
  5
350
102
{ACAD_XDICTIONARY
360
351
102
}
102
{ACAD_REACTORS
330
345
330
34F
102
}
330
345
100
AcDbModelDocViewStyle
 70
     0
  3
Imperial24
290
     0
100
AcDbSectionViewStyle
 70
     0
 71
     0
 90
       78
 71
     1
340
27
 40
0.24
340
0
340
0
 40
0.24
300
I, O, Q, S, X, Z
 40
0.48
 90
        3
 40
0.18
 90
        1
 71
     2
340
16
 90
       25
340
16
 90
       50
 40
0.24
 40
0.0
 40
0.24
 71
     3
340
27
 40
0.24
 90
        1
 40
0.75
 90
        1
300
%<\AcVar ViewType \f "%tc1">% %<\AcVar ViewSectionStartId>%-%<\AcVar ViewSectionEndId>%\PVARIA %<\AcVar ViewScale \f "%sn">%
 71
     4
300
ANSI31
 40
1.0
 90
        0
290
     0
290
     0
 90
        6
 40
0.0
 40
1.570796326794896
 40
0.2617993877991494
 40
1.308996938995747
 40
-0.2617993877991494
 40
1.832595714594044
  0
ACDBSECTIONVIEWSTYLE
  5
353
102
{ACAD_XDICTIONARY
360
354
102
}
102
{ACAD_REACTORS
330
345
330
352
102
}
330
345
100
AcDbModelDocViewStyle
 70
     0
  3
Metric50
290
     0
100
AcDbSectionViewStyle
 70
     0
 71
     0
 90
      102
 71
     1
340
27
 40
5.0
340
0
340
0
 40
5.0
300
I, O, Q, S, X, Z
 40
10.0
 90
        0
 40
2.5
 90
        0
 71
     2
340
16
 90
       25
340
16
 90
       50
 40
5.0
 40
2.5
 40
5.0
 71
     3
340
27
 40
5.0
 90
        0
 40
15.0
 90
        1
300
%<\AcVar ViewSectionStartId>%-%<\AcVar ViewSectionEndId>% (%<\AcVar ViewScale \f "%sn">%)
 71
     4
300
ANSI31
 40
1.0
 90
        0
290
     0
290
     0
 90
        6
 40
0.0
 40
1.570796326794896
 40
0.2617993877991494
 40
1.308996938995747
 40
-0.2617993877991494
 40
1.832595714594045
  0
TABLESTYLE
  5
57
102
{ACAD_XDICTIONARY
360
58
102
}
102
{ACAD_REACTORS
330
50
102
}
330
50
100
AcDbTableStyle
  3
Standard
 70
     0
 71
     0
 40
0.06
 41
0.06
280
     0
281
     0
  7
STANDARD
140
0.18
170
     2
 62
     0
 63
     7
283
     0
274
    -2
284
     1
 64
     0
275
    -2
285
     1
 65
     0
276
    -2
286
     1
 66
     0
277
    -2
287
     1
 67
     0
278
    -2
288
     1
 68
     0
279
    -2
289
     1
 69
     0
  7
STANDARD
140
0.25
170
     5
 62
     0
 63
     7
283
     0
274
    -2
284
     1
 64
     0
275
    -2
285
     1
 65
     0
276
    -2
286
     1
 66
     0
277
    -2
287
     1
 67
     0
278
    -2
288
     1
 68
     0
279
    -2
289
     1
 69
     0
  7
STANDARD
140
0.18
170
     5
 62
     0
 63
     7
283
     0
274
    -2
284
     1
 64
     0
275
    -2
285
     1
 65
     0
276
    -2
286
     1
 66
     0
277
    -2
287
     1
 67
     0
278
    -2
288
     1
 68
     0
279
    -2
289
     1
 69
     0
  0
VISUALSTYLE
  5
30
102
{ACAD_XDICTIONARY
360
393
102
}
102
{ACAD_REACTORS
330
31
102
}
330
31
100
AcDbVisualStyle
  2
2dWireframe
 70
     4
 71
     0
 72
     2
 73
     0
 90
        0
 40
-0.6
 41
-30.0
 62
     5
 63
     7
 74
     1
 91
        4
 64
     7
 65
   257
 75
     1
175
     1
 42
1.0
 92
        0
 66
   257
 43
1.0
 76
     1
 77
     6
 78
     2
 67
     7
 79
     5
170
     0
171
     0
290
     0
174
     0
 93
        1
 44
0.0
173
     0
291
     0
 45
0.0
1001
ACAD
1000
AcDbSavedByObjectVersion
1070
     0
  0
VISUALSTYLE
  5
59
102
{ACAD_XDICTIONARY
360
398
102
}
102
{ACAD_REACTORS
330
31
102
}
330
31
100
AcDbVisualStyle
  2
Realistic
 70
     8
 71
     2
 72
     2
 73
     0
 90
        0
 40
-0.6
 41
-30.0
 62
     5
 63
     7
 74
     1
 91
        0
 64
     7
 65
   257
 75
     1
175
     1
 42
1.0
 92
        8
 66
     8
 43
1.0
 76
     1
 77
     6
 78
     2
 67
     7
 79
     5
170
     0
171
     0
290
     0
174
     0
 93
       13
 44
0.0
173
     0
291
     0
 45
0.0
1001
ACAD
1000
AcDbSavedByObjectVersion
1070
     0
  0
VISUALSTYLE
  5
5A
102
{ACAD_XDICTIONARY
360
39A
102
}
102
{ACAD_REACTORS
330
31
102
}
330
31
100
AcDbVisualStyle
  2
Wireframe
 70
     5
 71
     0
 72
     2
 73
     0
 90
        0
 40
-0.6
 41
-30.0
 62
     5
 63
     7
 74
     1
 91
        4
 64
     7
 65
   257
 75
     1
175
     1
 42
1.0
 92
        0
 66
   257
 43
1.0
 76
     1
 77
     6
 78
     2
 67
     7
 79
     3
170
     0
171
     0
290
     0
174
     0
 93
        1
 44
0.0
173
     0
291
     0
 45
0.0
1001
ACAD
1000
AcDbSavedByObjectVersion
1070
     0
  0
DICTIONARYVAR
  5
37A
102
{ACAD_REACTORS
330
375
102
}
330
375
100
DictionaryVariables
280
     0
  1
1:1
  0
DICTIONARYVAR
  5
377
102
{ACAD_REACTORS
330
375
102
}
330
375
100
DictionaryVariables
280
     0
  1
STANDARD
  0
DICTIONARYVAR
  5
376
102
{ACAD_REACTORS
330
375
102
}
330
375
100
DictionaryVariables
280
     0
  1
STANDARD
  0
DICTIONARYVAR
  5
378
102
{ACAD_REACTORS
330
375
102
}
330
375
100
DictionaryVariables
280
     0
  1

  0
DICTIONARYVAR
  5
379
102
{ACAD_REACTORS
330
375
102
}
330
375
100
DictionaryVariables
280
     0
  1

  0
DICTIONARYVAR
  5
37F
102
{ACAD_REACTORS
330
375
102
}
330
375
100
DictionaryVariables
280
     0
  1
1
  0
DICTIONARYVAR
  5
37D
102
{ACAD_REACTORS
330
375
102
}
330
375
100
DictionaryVariables
280
     0
  1
1
  0
DICTIONARYVAR
  5
37C
102
{ACAD_REACTORS
330
375
102
}
330
375
100
DictionaryVariables
280
     0
  1
0
  0
DICTIONARYVAR
  5
381
102
{ACAD_REACTORS
330
375
102
}
330
375
100
DictionaryVariables
280
     0
  1
1.570796
  0
DICTIONARYVAR
  5
382
102
{ACAD_REACTORS
330
375
102
}
330
375
100
DictionaryVariables
280
     0
  1
1.570796
  0
DICTIONARYVAR
  5
383
102
{ACAD_REACTORS
330
375
102
}
330
375
100
DictionaryVariables
280
     0
  1
-122.394000
  0
DICTIONARYVAR
  5
380
102
{ACAD_REACTORS
330
375
102
}
330
375
100
DictionaryVariables
280
     0
  1
1
  0
DICTIONARYVAR
  5
37B
102
{ACAD_REACTORS
330
375
102
}
330
375
100
DictionaryVariables
280
     0
  1
127
  0
DICTIONARYVAR
  5
37E
102
{ACAD_REACTORS
330
375
102
}
330
375
100
DictionaryVariables
280
     0
  1
0
  0
DICTIONARY
  5
38E
102
{ACAD_REACTORS
330
38C
102
}
330
38C
100
AcDbDictionary
281
     1
  0
DICTIONARY
  5
38D
102
{ACAD_REACTORS
330
38C
102
}
330
38C
100
AcDbDictionary
281
     1
  3
8796079555568
350
387
  3
8796079555584
350
388
  3
8796079555600
350
389
  3
8796079555616
350
38A
  3
8796079555632
350
38B
  0
DICTIONARY
  5
328
102
{ACAD_REACTORS
330
327
102
}
330
327
100
AcDbDictionary
281
     1
  0
DICTIONARY
  5
322
102
{ACAD_REACTORS
330
318
102
}
330
318
100
AcDbDictionary
281
     1
  3
DWGSETTINGS
350
321
  3
TRANSSETTINGS
350
323
  0
DICTIONARY
  5
33F
330
33E
100
AcDbDictionary
280
     1
281
     1
  3
ACAD_XREC_ROUNDTRIP
360
39C
  0
DICTIONARY
  5
342
330
341
100
AcDbDictionary
280
     1
281
     1
  3
ACAD_XREC_ROUNDTRIP
360
39D
  0
DICTIONARY
  5
391
330
1F
100
AcDbDictionary
280
     1
281
     1
  3
ACAD_XREC_ROUNDTRIP
360
392
  0
DICTIONARY
  5
1A
330
18
100
AcDbDictionary
280
     1
281
     1
  3
ACAD_XREC_ROUNDTRIP
360
390
  0
DICTIONARY
  5
47
330
46
100
AcDbDictionary
280
     1
281
     1
  3
ACAD_XREC_ROUNDTRIP
360
396
  3
BUMPTILE
360
48
  3
DIFFUSETILE
360
49
  3
OPACITYTILE
360
4A
  3
REFLECTIONTILE
360
4B
  3
REFRACTIONTILE
360
4C
  3
SPECULARTILE
360
4D
  0
DICTIONARY
  5
3F
330
3E
100
AcDbDictionary
280
     1
281
     1
  3
ACAD_XREC_ROUNDTRIP
360
395
  3
BUMPTILE
360
40
  3
DIFFUSETILE
360
41
  3
OPACITYTILE
360
42
  3
REFLECTIONTILE
360
43
  3
REFRACTIONTILE
360
44
  3
SPECULARTILE
360
45
  0
DICTIONARY
  5
F
330
D
100
AcDbDictionary
280
     1
281
     1
  3
ACAD_XREC_ROUNDTRIP
360
38F
  3
BUMPTILE
360
10
  3
DIFFUSETILE
360
11
  3
OPACITYTILE
360
12
  3
REFLECTIONTILE
360
13
  3
REFRACTIONTILE
360
14
  3
SPECULARTILE
360
15
  0
DICTIONARY
  5
351
330
350
100
AcDbDictionary
280
     1
281
     1
  3
ACAD_XREC_ROUNDTRIP
360
39E
  0
DICTIONARY
  5
354
330
353
100
AcDbDictionary
280
     1
281
     1
  3
ACAD_XREC_ROUNDTRIP
360
39F
  0
DICTIONARY
  5
58
330
57
100
AcDbDictionary
280
     1
281
     1
  3
ACAD_ROUNDTRIP_2008_TABLESTYLE_CELLSTYLEMAP
360
384
  3
ACAD_XREC_ROUNDTRIP
360
397
  0
DICTIONARY
  5
393
330
30
100
AcDbDictionary
280
     1
281
     1
  3
ACAD_XREC_ROUNDTRIP
360
394
  0
DICTIONARY
  5
398
330
59
100
AcDbDictionary
280
     1
281
     1
  3
ACAD_XREC_ROUNDTRIP
360
399
  0
DICTIONARY
  5
39A
330
5A
100
AcDbDictionary
280
     1
281
     1
  3
ACAD_XREC_ROUNDTRIP
360
39B
  0
XRECORD
  5
387
102
{ACAD_REACTORS
330
38D
102
}
330
38D
100
AcDbXrecord
280
     1
  1
AcDb_Thumbnail_Schema
102
{ATTRRECORD
341
388
  2
AcDbDs::TreatedAsObjectData
280
     1
291
     1
102
ATTRRECORD}
102
{ATTRRECORD
341
389
  2
AcDbDs::Legacy
280
     1
291
     1
102
ATTRRECORD}
  2
AcDbDs::ID
280
    10
 91
        8
102
{ATTRRECORD
341
38A
  2
AcDs:Indexable
280
     1
291
     1
102
ATTRRECORD}
102
{ATTRRECORD
341
38B
  2
AcDbDs::HandleAttribute
280
     7
282
     1
102
ATTRRECORD}
  2
Thumbnail_Data
280
    15
 91
        0
  0
XRECORD
  5
388
102
{ACAD_REACTORS
330
38D
102
}
330
38D
100
AcDbXrecord
280
     1
  1
AcDbDs::TreatedAsObjectDataSchema
  2
AcDbDs::TreatedAsObjectData
280
     1
 91
        0
  0
XRECORD
  5
389
102
{ACAD_REACTORS
330
38D
102
}
330
38D
100
AcDbXrecord
280
     1
  1
AcDbDs::LegacySchema
  2
AcDbDs::Legacy
280
     1
 91
        0
  0
XRECORD
  5
38A
102
{ACAD_REACTORS
330
38D
102
}
330
38D
100
AcDbXrecord
280
     1
  1
AcDbDs::IndexedPropertySchema
  2
AcDs:Indexable
280
     1
 91
        0
  0
XRECORD
  5
38B
102
{ACAD_REACTORS
330
38D
102
}
330
38D
100
AcDbXrecord
280
     1
  1
AcDbDs::HandleAttributeSchema
  2
AcDbDs::HandleAttribute
280
     7
 91
        1
284
     1
  0
XRECORD
  5
39C
102
{ACAD_REACTORS
330
33F
102
}
330
33F
100
AcDbXrecord
280
     1
102
DISPLAYNAME
  1
Imperial24
102
FLAGS
 90
        0
  0
XRECORD
  5
39D
102
{ACAD_REACTORS
330
342
102
}
330
342
100
AcDbXrecord
280
     1
102
DISPLAYNAME
  1
Metric50
102
FLAGS
 90
        0
  0
XRECORD
  5
392
102
{ACAD_REACTORS
330
391
102
}
330
391
100
AcDbXrecord
280
     1
102
SHADEPLOT
 70
     0
102
SHADEPLOTRESLEVEL
 70
     2
102
SHADEPLOTCUSTOMDPI
 70
   300
  0
XRECORD
  5
390
102
{ACAD_REACTORS
330
1A
102
}
330
1A
100
AcDbXrecord
280
     1
102
SHADEPLOT
 70
     0
102
SHADEPLOTRESLEVEL
 70
     2
102
SHADEPLOTCUSTOMDPI
 70
   300
  0
XRECORD
  5
396
102
{ACAD_REACTORS
330
47
102
}
330
47
100
AcDbXrecord
280
     1
102
MATERIAL
148
0.0
149
0.0
149
0.0
 93
        0
 94
      127
282
     0
 72
     0
 77
     0
171
     0
175
     0
179
     0
273
     0
  0
XRECORD
  5
48
102
{ACAD_REACTORS
330
47
102
}
330
47
100
AcDbXrecord
280
     1
270
     1
271
     1
  0
XRECORD
  5
49
102
{ACAD_REACTORS
330
47
102
}
330
47
100
AcDbXrecord
280
     1
270
     1
271
     1
  0
XRECORD
  5
4A
102
{ACAD_REACTORS
330
47
102
}
330
47
100
AcDbXrecord
280
     1
270
     1
271
     1
  0
XRECORD
  5
4B
102
{ACAD_REACTORS
330
47
102
}
330
47
100
AcDbXrecord
280
     1
270
     1
271
     1
  0
XRECORD
  5
4C
102
{ACAD_REACTORS
330
47
102
}
330
47
100
AcDbXrecord
280
     1
270
     1
271
     1
  0
XRECORD
  5
4D
102
{ACAD_REACTORS
330
47
102
}
330
47
100
AcDbXrecord
280
     1
270
     1
271
     1
  0
XRECORD
  5
395
102
{ACAD_REACTORS
330
3F
102
}
330
3F
100
AcDbXrecord
280
     1
102
MATERIAL
148
0.0
149
0.0
149
0.0
 93
        0
 94
      127
282
     0
 72
     0
 77
     0
171
     0
175
     0
179
     0
273
     0
  0
XRECORD
  5
40
102
{ACAD_REACTORS
330
3F
102
}
330
3F
100
AcDbXrecord
280
     1
270
     1
271
     1
  0
XRECORD
  5
41
102
{ACAD_REACTORS
330
3F
102
}
330
3F
100
AcDbXrecord
280
     1
270
     1
271
     1
  0
XRECORD
  5
42
102
{ACAD_REACTORS
330
3F
102
}
330
3F
100
AcDbXrecord
280
     1
270
     1
271
     1
  0
XRECORD
  5
43
102
{ACAD_REACTORS
330
3F
102
}
330
3F
100
AcDbXrecord
280
     1
270
     1
271
     1
  0
XRECORD
  5
44
102
{ACAD_REACTORS
330
3F
102
}
330
3F
100
AcDbXrecord
280
     1
270
     1
271
     1
  0
XRECORD
  5
45
102
{ACAD_REACTORS
330
3F
102
}
330
3F
100
AcDbXrecord
280
     1
270
     1
271
     1
  0
XRECORD
  5
38F
102
{ACAD_REACTORS
330
F
102
}
330
F
100
AcDbXrecord
280
     1
102
MATERIAL
148
0.0
149
0.0
149
0.0
 93
        0
 94
      127
282
     0
 72
     0
 77
     0
171
     0
175
     0
179
     0
273
     0
  0
XRECORD
  5
10
102
{ACAD_REACTORS
330
F
102
}
330
F
100
AcDbXrecord
280
     1
270
     1
271
     1
  0
XRECORD
  5
11
102
{ACAD_REACTORS
330
F
102
}
330
F
100
AcDbXrecord
280
     1
270
     1
271
     1
  0
XRECORD
  5
12
102
{ACAD_REACTORS
330
F
102
}
330
F
100
AcDbXrecord
280
     1
270
     1
271
     1
  0
XRECORD
  5
13
102
{ACAD_REACTORS
330
F
102
}
330
F
100
AcDbXrecord
280
     1
270
     1
271
     1
  0
XRECORD
  5
14
102
{ACAD_REACTORS
330
F
102
}
330
F
100
AcDbXrecord
280
     1
270
     1
271
     1
  0
XRECORD
  5
15
102
{ACAD_REACTORS
330
F
102
}
330
F
100
AcDbXrecord
280
     1
270
     1
271
     1
  0
XRECORD
  5
39E
102
{ACAD_REACTORS
330
351
102
}
330
351
100
AcDbXrecord
280
     1
102
DISPLAYNAME
  1
Imperial24
102
FLAGS
 90
        0
  0
XRECORD
  5
39F
102
{ACAD_REACTORS
330
354
102
}
330
354
100
AcDbXrecord
280
     1
102
DISPLAYNAME
  1
Metric50
102
FLAGS
 90
        0
  0
CELLSTYLEMAP
  5
384
102
{ACAD_REACTORS
330
58
102
}
330
58
100
AcDbCellStyleMap
 90
        3
300
CELLSTYLE
  1
TABLEFORMAT_BEGIN
 90
        5
170
     1
 91
        0
 92
    32768
 62
   257
 93
        1
300
CONTENTFORMAT
  1
CONTENTFORMAT_BEGIN
 90
        0
 91
        0
 92
        4
 93
        0
300

 40
0.0
140
1.0
 94
        5
 62
     0
340
27
144
0.25
309
CONTENTFORMAT_END
171
     1
301
MARGIN
  1
CELLMARGIN_BEGIN
 40
0.06
 40
0.06
 40
0.06
 40
0.06
 40
0.18
 40
0.18
309
CELLMARGIN_END
 94
        6
 95
        1
302
GRIDFORMAT
  1
GRIDFORMAT_BEGIN
 90
        0
 91
        1
 62
     0
 92
       -2
340
0
 93
        0
 40
0.045
309
GRIDFORMAT_END
 95
        2
302
GRIDFORMAT
  1
GRIDFORMAT_BEGIN
 90
        0
 91
        1
 62
     0
 92
       -2
340
0
 93
        0
 40
0.045
309
GRIDFORMAT_END
 95
        4
302
GRIDFORMAT
  1
GRIDFORMAT_BEGIN
 90
        0
 91
        1
 62
     0
 92
       -2
340
0
 93
        0
 40
0.045
309
GRIDFORMAT_END
 95
        8
302
GRIDFORMAT
  1
GRIDFORMAT_BEGIN
 90
        0
 91
        1
 62
     0
 92
       -2
340
0
 93
        0
 40
0.045
309
GRIDFORMAT_END
 95
       16
302
GRIDFORMAT
  1
GRIDFORMAT_BEGIN
 90
        0
 91
        1
 62
     0
 92
       -2
340
0
 93
        0
 40
0.045
309
GRIDFORMAT_END
 95
       32
302
GRIDFORMAT
  1
GRIDFORMAT_BEGIN
 90
        0
 91
        1
 62
     0
 92
       -2
340
0
 93
        0
 40
0.045
309
GRIDFORMAT_END
309
TABLEFORMAT_END
  1
CELLSTYLE_BEGIN
 90
        1
 91
        1
300
_TITLE
309
CELLSTYLE_END
300
CELLSTYLE
  1
TABLEFORMAT_BEGIN
 90
        5
170
     1
 91
        0
 92
        0
 62
   257
 93
        1
300
CONTENTFORMAT
  1
CONTENTFORMAT_BEGIN
 90
        0
 91
        0
 92
        4
 93
        0
300

 40
0.0
140
1.0
 94
        5
 62
     0
340
27
144
0.18
309
CONTENTFORMAT_END
171
     1
301
MARGIN
  1
CELLMARGIN_BEGIN
 40
0.06
 40
0.06
 40
0.06
 40
0.06
 40
0.18
 40
0.18
309
CELLMARGIN_END
 94
        6
 95
        1
302
GRIDFORMAT
  1
GRIDFORMAT_BEGIN
 90
        0
 91
        1
 62
     0
 92
       -2
340
0
 93
        0
 40
0.045
309
GRIDFORMAT_END
 95
        2
302
GRIDFORMAT
  1
GRIDFORMAT_BEGIN
 90
        0
 91
        1
 62
     0
 92
       -2
340
0
 93
        0
 40
0.045
309
GRIDFORMAT_END
 95
        4
302
GRIDFORMAT
  1
GRIDFORMAT_BEGIN
 90
        0
 91
        1
 62
     0
 92
       -2
340
0
 93
        0
 40
0.045
309
GRIDFORMAT_END
 95
        8
302
GRIDFORMAT
  1
GRIDFORMAT_BEGIN
 90
        0
 91
        1
 62
     0
 92
       -2
340
0
 93
        0
 40
0.045
309
GRIDFORMAT_END
 95
       16
302
GRIDFORMAT
  1
GRIDFORMAT_BEGIN
 90
        0
 91
        1
 62
     0
 92
       -2
340
0
 93
        0
 40
0.045
309
GRIDFORMAT_END
 95
       32
302
GRIDFORMAT
  1
GRIDFORMAT_BEGIN
 90
        0
 91
        1
 62
     0
 92
       -2
340
0
 93
        0
 40
0.045
309
GRIDFORMAT_END
309
TABLEFORMAT_END
  1
CELLSTYLE_BEGIN
 90
        2
 91
        1
300
_HEADER
309
CELLSTYLE_END
300
CELLSTYLE
  1
TABLEFORMAT_BEGIN
 90
        5
170
     1
 91
        0
 92
        0
 62
   257
 93
        1
300
CONTENTFORMAT
  1
CONTENTFORMAT_BEGIN
 90
        0
 91
        0
 92
        4
 93
        0
300

 40
0.0
140
1.0
 94
        2
 62
     0
340
27
144
0.18
309
CONTENTFORMAT_END
171
     1
301
MARGIN
  1
CELLMARGIN_BEGIN
 40
0.06
 40
0.06
 40
0.06
 40
0.06
 40
0.18
 40
0.18
309
CELLMARGIN_END
 94
        6
 95
        1
302
GRIDFORMAT
  1
GRIDFORMAT_BEGIN
 90
        0
 91
        1
 62
     0
 92
       -2
340
0
 93
        0
 40
0.045
309
GRIDFORMAT_END
 95
        2
302
GRIDFORMAT
  1
GRIDFORMAT_BEGIN
 90
        0
 91
        1
 62
     0
 92
       -2
340
0
 93
        0
 40
0.045
309
GRIDFORMAT_END
 95
        4
302
GRIDFORMAT
  1
GRIDFORMAT_BEGIN
 90
        0
 91
        1
 62
     0
 92
       -2
340
0
 93
        0
 40
0.045
309
GRIDFORMAT_END
 95
        8
302
GRIDFORMAT
  1
GRIDFORMAT_BEGIN
 90
        0
 91
        1
 62
     0
 92
       -2
340
0
 93
        0
 40
0.045
309
GRIDFORMAT_END
 95
       16
302
GRIDFORMAT
  1
GRIDFORMAT_BEGIN
 90
        0
 91
        1
 62
     0
 92
       -2
340
0
 93
        0
 40
0.045
309
GRIDFORMAT_END
 95
       32
302
GRIDFORMAT
  1
GRIDFORMAT_BEGIN
 90
        0
 91
        1
 62
     0
 92
       -2
340
0
 93
        0
 40
0.045
309
GRIDFORMAT_END
309
TABLEFORMAT_END
  1
CELLSTYLE_BEGIN
 90
        3
 91
        2
300
_DATA
309
CELLSTYLE_END
  0
XRECORD
  5
397
102
{ACAD_REACTORS
330
58
102
}
330
58
100
AcDbXrecord
280
     1
102
ACAD_ROUNDTRIP_PRE2007_TABLESTYLE
 90
        4
 91
        0
  1

 92
        4
 93
        0
  2

 94
        4
 95
        0
  3

  0
XRECORD
  5
394
102
{ACAD_REACTORS
330
393
102
}
330
393
100
AcDbXrecord
280
     1
102
RTVSPost2010Prop28
280
     1
102
RTVSPost2010PropOp28
 70
     1
102
RTVSPost2010Prop29
280
     1
102
RTVSPost2010PropOp29
 70
     1
102
RTVSPost2010Prop30
280
     0
102
RTVSPost2010PropOp30
 70
     1
102
RTVSPost2010Prop31
280
     0
102
RTVSPost2010PropOp31
 70
     1
102
RTVSPost2010Prop32
280
     0
102
RTVSPost2010PropOp32
 70
     1
102
RTVSPost2010Prop33
280
     0
102
RTVSPost2010PropOp33
 70
     1
102
RTVSPost2010Prop34
280
     0
102
RTVSPost2010PropOp34
 70
     1
102
RTVSPost2010Prop35
280
     0
102
RTVSPost2010PropOp35
 70
     1
102
RTVSPost2010Prop36
280
     0
102
RTVSPost2010PropOp36
 70
     1
102
RTVSPost2010Prop37
 90
       50
102
RTVSPost2010PropOp37
 70
     1
102
RTVSPost2010Prop38
140
0.0
102
RTVSPost2010PropOp38
 70
     1
102
RTVSPost2010Prop39
140
1.0
102
RTVSPost2010PropOp39
 70
     1
102
RTVSPost2010Prop40
 90
        0
102
RTVSPost2010PropOp40
 70
     1
102
RTVSPost2010Prop41ColorIndex
 90
       18
102
RTVSPost2010Prop41ColorRGB
 90
-16777216
102
RTVSPost2010PropOp41
 70
     1
102
RTVSPost2010Prop42
 90
       50
102
RTVSPost2010PropOp42
 70
     1
102
RTVSPost2010Prop43
 90
        3
102
RTVSPost2010PropOp43
 70
     1
102
RTVSPost2010Prop44ColorIndex
 90
        5
102
RTVSPost2010Prop44ColorRGB
 90
      255
102
RTVSPost2010PropOp44
 70
     1
102
RTVSPost2010Prop45
280
     0
102
RTVSPost2010PropOp45
 70
     1
102
RTVSPost2010Prop46
 90
       50
102
RTVSPost2010PropOp46
 70
     1
102
RTVSPost2010Prop47
 90
       50
102
RTVSPost2010PropOp47
 70
     1
102
RTVSPost2010Prop48
 90
       50
102
RTVSPost2010PropOp48
 70
     1
102
RTVSPost2010Prop49
280
     0
102
RTVSPost2010PropOp49
 70
     1
102
RTVSPost2010Prop50
 90
       50
102
RTVSPost2010PropOp50
 70
     1
102
RTVSPost2010Prop51ColorIndex
 90
      256
102
RTVSPost2010Prop51ColorRGB
 90
-16777216
102
RTVSPost2010PropOp51
 70
     0
102
RTVSPost2010Prop52
140
1.0
102
RTVSPost2010PropOp52
 70
     0
102
RTVSPost2010Prop53
 90
        2
102
RTVSPost2010PropOp53
 70
     1
102
RTVSPost2010Prop54
  1
strokes_ogs.tif
102
RTVSPost2010PropOp54
 70
     1
102
RTVSPost2010Prop55
280
     0
102
RTVSPost2010PropOp55
 70
     1
102
RTVSPost2010Prop56
140
1.0
102
RTVSPost2010PropOp56
 70
     1
102
RTVSPost2010Prop57
140
1.0
102
RTVSPost2010PropOp57
 70
     1
102
RTVSPropertyOp0
 70
     1
102
RTVSPropertyOp1
 70
     1
102
RTVSPropertyOp2
 70
     1
102
RTVSPropertyOp3
 70
     1
102
RTVSPropertyOp4
 70
     1
102
RTVSPropertyOp5
 70
     1
102
RTVSPropertyOp6
 70
     1
102
RTVSPropertyOp7
 70
     1
102
RTVSPropertyOp8
 70
     1
102
RTVSPropertyOp9
 70
     1
102
RTVSPropertyOp10
 70
     1
102
RTVSPropertyOp11
 70
     1
102
RTVSPropertyOp12
 70
     1
102
RTVSPropertyOp13
 70
     1
102
RTVSPropertyOp14
 70
     1
102
RTVSPropertyOp15
 70
     1
102
RTVSPropertyOp16
 70
     1
102
RTVSPropertyOp17
 70
     1
102
RTVSPropertyOp18
 70
     1
102
RTVSPropertyOp19
 70
     1
102
RTVSPropertyOp20
 70
     1
102
RTVSPropertyOp21
 70
     1
102
RTVSPropertyOp22
 70
     1
102
RTVSPropertyOp23
 70
     1
102
RTVSPropertyOp24
 70
     1
102
RTVSPropertyOp25
 70
     1
102
RTVSPropertyOp26
 70
     1
102
RTVSPropertyOp27
 70
     1
102
RTVSPropertyOp28
 70
     1
102
RTVSPropertyOp29
 70
     1
102
RTVSPropertyOp30
 70
     1
102
RTVSPropertyOp31
 70
     1
102
RTVSPropertyOp32
 70
     1
102
RTVSPropertyOp33
 70
     1
102
RTVSPropertyOp34
 70
     1
102
RTVSPropertyOp35
 70
     1
102
RTVSPropertyOp36
 70
     1
102
RTVSPropertyOp37
 70
     1
102
RTVSPropertyOp38
 70
     1
102
RTVSPropertyOp39
 70
     1
102
RTVSPropertyOp40
 70
     1
102
RTVSPropertyOp41
 70
     1
102
RTVSPropertyOp42
 70
     1
102
RTVSPropertyOp43
 70
     1
102
RTVSPropertyOp44
 70
     1
102
RTVSPropertyOp45
 70
     1
102
RTVSPropertyOp46
 70
     1
102
RTVSPropertyOp47
 70
     1
102
RTVSPropertyOp48
 70
     1
102
RTVSPropertyOp49
 70
     1
102
RTVSPropertyOp50
 70
     1
102
RTVSPropertyOp51
 70
     0
102
RTVSPropertyOp52
 70
     0
102
RTVSPropertyOp53
 70
     1
102
RTVSPropertyOp54
 70
     1
102
RTVSPropertyOp55
 70
     1
102
RTVSPropertyOp56
 70
     1
102
RTVSPropertyOp57
 70
     1
102
RTVSPropertyOp58
 70
     1
102
RTVSPropertyOp59
 70
     1
102
RTVSPropertyOp60
 70
     1
102
RTVSPropertyOp61
 70
     1
102
RTVSPropertyOp62
 70
     1
  0
XRECORD
  5
399
102
{ACAD_REACTORS
330
398
102
}
330
398
100
AcDbXrecord
280
     1
102
RTVSPost2010Prop28
280
     0
102
RTVSPost2010PropOp28
 70
     1
102
RTVSPost2010Prop29
280
     1
102
RTVSPost2010PropOp29
 70
     1
102
RTVSPost2010Prop30
280
     1
102
RTVSPost2010PropOp30
 70
     1
102
RTVSPost2010Prop31
280
     0
102
RTVSPost2010PropOp31
 70
     1
102
RTVSPost2010Prop32
280
     0
102
RTVSPost2010PropOp32
 70
     1
102
RTVSPost2010Prop33
280
     0
102
RTVSPost2010PropOp33
 70
     1
102
RTVSPost2010Prop34
280
     0
102
RTVSPost2010PropOp34
 70
     1
102
RTVSPost2010Prop35
280
     0
102
RTVSPost2010PropOp35
 70
     1
102
RTVSPost2010Prop36
280
     0
102
RTVSPost2010PropOp36
 70
     1
102
RTVSPost2010Prop37
 90
       50
102
RTVSPost2010PropOp37
 70
     1
102
RTVSPost2010Prop38
140
0.0
102
RTVSPost2010PropOp38
 70
     1
102
RTVSPost2010Prop39
140
1.0
102
RTVSPost2010PropOp39
 70
     1
102
RTVSPost2010Prop40
 90
        0
102
RTVSPost2010PropOp40
 70
     1
102
RTVSPost2010Prop41ColorIndex
 90
       18
102
RTVSPost2010Prop41ColorRGB
 90
-16777216
102
RTVSPost2010PropOp41
 70
     1
102
RTVSPost2010Prop42
 90
       50
102
RTVSPost2010PropOp42
 70
     1
102
RTVSPost2010Prop43
 90
        3
102
RTVSPost2010PropOp43
 70
     1
102
RTVSPost2010Prop44ColorIndex
 90
        5
102
RTVSPost2010Prop44ColorRGB
 90
      255
102
RTVSPost2010PropOp44
 70
     1
102
RTVSPost2010Prop45
280
     0
102
RTVSPost2010PropOp45
 70
     1
102
RTVSPost2010Prop46
 90
       50
102
RTVSPost2010PropOp46
 70
     1
102
RTVSPost2010Prop47
 90
       50
102
RTVSPost2010PropOp47
 70
     1
102
RTVSPost2010Prop48
 90
       50
102
RTVSPost2010PropOp48
 70
     1
102
RTVSPost2010Prop49
280
     0
102
RTVSPost2010PropOp49
 70
     1
102
RTVSPost2010Prop50
 90
       50
102
RTVSPost2010PropOp50
 70
     1
102
RTVSPost2010Prop51ColorIndex
 90
      256
102
RTVSPost2010Prop51ColorRGB
 90
-16777216
102
RTVSPost2010PropOp51
 70
     0
102
RTVSPost2010Prop52
140
1.0
102
RTVSPost2010PropOp52
 70
     0
102
RTVSPost2010Prop53
 90
        2
102
RTVSPost2010PropOp53
 70
     1
102
RTVSPost2010Prop54
  1
strokes_ogs.tif
102
RTVSPost2010PropOp54
 70
     1
102
RTVSPost2010Prop55
280
     0
102
RTVSPost2010PropOp55
 70
     1
102
RTVSPost2010Prop56
140
1.0
102
RTVSPost2010PropOp56
 70
     1
102
RTVSPost2010Prop57
140
1.0
102
RTVSPost2010PropOp57
 70
     1
102
RTVSPropertyOp0
 70
     1
102
RTVSPropertyOp1
 70
     1
102
RTVSPropertyOp2
 70
     1
102
RTVSPropertyOp3
 70
     1
102
RTVSPropertyOp4
 70
     1
102
RTVSPropertyOp5
 70
     1
102
RTVSPropertyOp6
 70
     1
102
RTVSPropertyOp7
 70
     1
102
RTVSPropertyOp8
 70
     1
102
RTVSPropertyOp9
 70
     1
102
RTVSPropertyOp10
 70
     1
102
RTVSPropertyOp11
 70
     1
102
RTVSPropertyOp12
 70
     1
102
RTVSPropertyOp13
 70
     1
102
RTVSPropertyOp14
 70
     1
102
RTVSPropertyOp15
 70
     1
102
RTVSPropertyOp16
 70
     1
102
RTVSPropertyOp17
 70
     1
102
RTVSPropertyOp18
 70
     1
102
RTVSPropertyOp19
 70
     1
102
RTVSPropertyOp20
 70
     1
102
RTVSPropertyOp21
 70
     1
102
RTVSPropertyOp22
 70
     1
102
RTVSPropertyOp23
 70
     1
102
RTVSPropertyOp24
 70
     1
102
RTVSPropertyOp25
 70
     1
102
RTVSPropertyOp26
 70
     1
102
RTVSPropertyOp27
 70
     1
102
RTVSPropertyOp28
 70
     1
102
RTVSPropertyOp29
 70
     1
102
RTVSPropertyOp30
 70
     1
102
RTVSPropertyOp31
 70
     1
102
RTVSPropertyOp32
 70
     1
102
RTVSPropertyOp33
 70
     1
102
RTVSPropertyOp34
 70
     1
102
RTVSPropertyOp35
 70
     1
102
RTVSPropertyOp36
 70
     1
102
RTVSPropertyOp37
 70
     1
102
RTVSPropertyOp38
 70
     1
102
RTVSPropertyOp39
 70
     1
102
RTVSPropertyOp40
 70
     1
102
RTVSPropertyOp41
 70
     1
102
RTVSPropertyOp42
 70
     1
102
RTVSPropertyOp43
 70
     1
102
RTVSPropertyOp44
 70
     1
102
RTVSPropertyOp45
 70
     1
102
RTVSPropertyOp46
 70
     1
102
RTVSPropertyOp47
 70
     1
102
RTVSPropertyOp48
 70
     1
102
RTVSPropertyOp49
 70
     1
102
RTVSPropertyOp50
 70
     1
102
RTVSPropertyOp51
 70
     0
102
RTVSPropertyOp52
 70
     0
102
RTVSPropertyOp53
 70
     1
102
RTVSPropertyOp54
 70
     1
102
RTVSPropertyOp55
 70
     1
102
RTVSPropertyOp56
 70
     1
102
RTVSPropertyOp57
 70
     1
102
RTVSPropertyOp58
 70
     1
102
RTVSPropertyOp59
 70
     1
102
RTVSPropertyOp60
 70
     1
102
RTVSPropertyOp61
 70
     1
102
RTVSPropertyOp62
 70
     1
  0
XRECORD
  5
39B
102
{ACAD_REACTORS
330
39A
102
}
330
39A
100
AcDbXrecord
280
     1
102
RTVSPost2010Prop28
280
     0
102
RTVSPost2010PropOp28
 70
     1
102
RTVSPost2010Prop29
280
     1
102
RTVSPost2010PropOp29
 70
     1
102
RTVSPost2010Prop30
280
     1
102
RTVSPost2010PropOp30
 70
     1
102
RTVSPost2010Prop31
280
     0
102
RTVSPost2010PropOp31
 70
     1
102
RTVSPost2010Prop32
280
     0
102
RTVSPost2010PropOp32
 70
     1
102
RTVSPost2010Prop33
280
     0
102
RTVSPost2010PropOp33
 70
     1
102
RTVSPost2010Prop34
280
     0
102
RTVSPost2010PropOp34
 70
     1
102
RTVSPost2010Prop35
280
     0
102
RTVSPost2010PropOp35
 70
     1
102
RTVSPost2010Prop36
280
     0
102
RTVSPost2010PropOp36
 70
     1
102
RTVSPost2010Prop37
 90
       50
102
RTVSPost2010PropOp37
 70
     1
102
RTVSPost2010Prop38
140
0.0
102
RTVSPost2010PropOp38
 70
     1
102
RTVSPost2010Prop39
140
1.0
102
RTVSPost2010PropOp39
 70
     1
102
RTVSPost2010Prop40
 90
        0
102
RTVSPost2010PropOp40
 70
     1
102
RTVSPost2010Prop41ColorIndex
 90
       18
102
RTVSPost2010Prop41ColorRGB
 90
-16777216
102
RTVSPost2010PropOp41
 70
     1
102
RTVSPost2010Prop42
 90
       50
102
RTVSPost2010PropOp42
 70
     1
102
RTVSPost2010Prop43
 90
        3
102
RTVSPost2010PropOp43
 70
     1
102
RTVSPost2010Prop44ColorIndex
 90
        5
102
RTVSPost2010Prop44ColorRGB
 90
      255
102
RTVSPost2010PropOp44
 70
     1
102
RTVSPost2010Prop45
280
     0
102
RTVSPost2010PropOp45
 70
     1
102
RTVSPost2010Prop46
 90
       50
102
RTVSPost2010PropOp46
 70
     1
102
RTVSPost2010Prop47
 90
       50
102
RTVSPost2010PropOp47
 70
     1
102
RTVSPost2010Prop48
 90
       50
102
RTVSPost2010PropOp48
 70
     1
102
RTVSPost2010Prop49
280
     0
102
RTVSPost2010PropOp49
 70
     1
102
RTVSPost2010Prop50
 90
       50
102
RTVSPost2010PropOp50
 70
     1
102
RTVSPost2010Prop51ColorIndex
 90
      256
102
RTVSPost2010Prop51ColorRGB
 90
-16777216
102
RTVSPost2010PropOp51
 70
     0
102
RTVSPost2010Prop52
140
1.0
102
RTVSPost2010PropOp52
 70
     0
102
RTVSPost2010Prop53
 90
        2
102
RTVSPost2010PropOp53
 70
     1
102
RTVSPost2010Prop54
  1
strokes_ogs.tif
102
RTVSPost2010PropOp54
 70
     1
102
RTVSPost2010Prop55
280
     0
102
RTVSPost2010PropOp55
 70
     1
102
RTVSPost2010Prop56
140
1.0
102
RTVSPost2010PropOp56
 70
     1
102
RTVSPost2010Prop57
140
1.0
102
RTVSPost2010PropOp57
 70
     1
102
RTVSPropertyOp0
 70
     1
102
RTVSPropertyOp1
 70
     1
102
RTVSPropertyOp2
 70
     1
102
RTVSPropertyOp3
 70
     1
102
RTVSPropertyOp4
 70
     1
102
RTVSPropertyOp5
 70
     1
102
RTVSPropertyOp6
 70
     1
102
RTVSPropertyOp7
 70
     1
102
RTVSPropertyOp8
 70
     1
102
RTVSPropertyOp9
 70
     1
102
RTVSPropertyOp10
 70
     1
102
RTVSPropertyOp11
 70
     1
102
RTVSPropertyOp12
 70
     1
102
RTVSPropertyOp13
 70
     1
102
RTVSPropertyOp14
 70
     1
102
RTVSPropertyOp15
 70
     1
102
RTVSPropertyOp16
 70
     1
102
RTVSPropertyOp17
 70
     1
102
RTVSPropertyOp18
 70
     1
102
RTVSPropertyOp19
 70
     1
102
RTVSPropertyOp20
 70
     1
102
RTVSPropertyOp21
 70
     1
102
RTVSPropertyOp22
 70
     1
102
RTVSPropertyOp23
 70
     1
102
RTVSPropertyOp24
 70
     1
102
RTVSPropertyOp25
 70
     1
102
RTVSPropertyOp26
 70
     1
102
RTVSPropertyOp27
 70
     1
102
RTVSPropertyOp28
 70
     1
102
RTVSPropertyOp29
 70
     1
102
RTVSPropertyOp30
 70
     1
102
RTVSPropertyOp31
 70
     1
102
RTVSPropertyOp32
 70
     1
102
RTVSPropertyOp33
 70
     1
102
RTVSPropertyOp34
 70
     1
102
RTVSPropertyOp35
 70
     1
102
RTVSPropertyOp36
 70
     1
102
RTVSPropertyOp37
 70
     1
102
RTVSPropertyOp38
 70
     1
102
RTVSPropertyOp39
 70
     1
102
RTVSPropertyOp40
 70
     1
102
RTVSPropertyOp41
 70
     1
102
RTVSPropertyOp42
 70
     1
102
RTVSPropertyOp43
 70
     1
102
RTVSPropertyOp44
 70
     1
102
RTVSPropertyOp45
 70
     1
102
RTVSPropertyOp46
 70
     1
102
RTVSPropertyOp47
 70
     1
102
RTVSPropertyOp48
 70
     1
102
RTVSPropertyOp49
 70
     1
102
RTVSPropertyOp50
 70
     1
102
RTVSPropertyOp51
 70
     0
102
RTVSPropertyOp52
 70
     0
102
RTVSPropertyOp53
 70
     1
102
RTVSPropertyOp54
 70
     1
102
RTVSPropertyOp55
 70
     1
102
RTVSPropertyOp56
 70
     1
102
RTVSPropertyOp57
 70
     1
102
RTVSPropertyOp58
 70
     1
102
RTVSPropertyOp59
 70
     1
102
RTVSPropertyOp60
 70
     1
102
RTVSPropertyOp61
 70
     1
102
RTVSPropertyOp62
 70
     1
  0
ENDSEC
  0
EOF
