  0
SECTION
  2
HEADER
  9
$ACADVER
  1
AC1015
  9
$ACADMAINTVER
 70
    20
  9
$DWGCODEPAGE
  3
ANSI_1252
  9
$INSBASE
 10
0.0
 20
0.0
 30
0.0
  9
$EXTMIN
 10
-281.3078428944848
 20
328.7832241655654
 30
0.0
  9
$EXTMAX
 10
476.7740527756283
 20
710.2244840699071
 30
0.0
  9
$LIMMIN
 10
0.0
 20
0.0
  9
$LIMMAX
 10
420.0
 20
420.0
  9
$ORTHOMODE
 70
     1
  9
$REGENMODE
 70
     1
  9
$FILLMODE
 70
     1
  9
$QTEXTMODE
 70
     0
  9
$MIRRTEXT
 70
     0
  9
$LTSCALE
 40
1.0
  9
$ATTMODE
 70
     1
  9
$TEXTSIZE
 40
2.399999999999999
  9
$TRACEWID
 40
0.05
  9
$TEXTSTYLE
  7
NORM
  9
$CLAYER
  8
0
  9
$CELTYPE
  6
BYLAYER
  9
$CECOLOR
 62
   256
  9
$CELTSCALE
 40
1.0
  9
$DISPSILH
 70
     0
  9
$DIMSCALE
 40
1.0
  9
$DIMASZ
 40
3.5
  9
$DIMEXO
 40
0.0
  9
$DIMDLI
 40
8.0
  9
$DIMRND
 40
0.0
  9
$DIMDLE
 40
0.0
  9
$DIMEXE
 40
0.5
  9
$DIMTP
 40
0.0
  9
$DIMTM
 40
0.0
  9
$DIMTXT
 40
3.5
  9
$DIMCEN
 40
1.5
  9
$DIMTSZ
 40
0.0
  9
$DIMTOL
 70
     0
  9
$DIMLIM
 70
     0
  9
$DIMTIH
 70
     0
  9
$DIMTOH
 70
     0
  9
$DIMSE1
 70
     0
  9
$DIMSE2
 70
     0
  9
$DIMTAD
 70
     1
  9
$DIMZIN
 70
     8
  9
$DIMBLK
  1

  9
$DIMASO
 70
     1
  9
$DIMSHO
 70
     1
  9
$DIMPOST
  1

  9
$DIMAPOST
  1

  9
$DIMALT
 70
     0
  9
$DIMALTD
 70
     2
  9
$DIMALTF
 40
25.4
  9
$DIMLFAC
 40
1.0
  9
$DIMTOFL
 70
     1
  9
$DIMTVP
 40
0.0
  9
$DIMTIX
 70
     1
  9
$DIMSOXD
 70
     0
  9
$DIMSAH
 70
     0
  9
$DIMBLK1
  1

  9
$DIMBLK2
  1

  9
$DIMSTYLE
  2
NORMAL
  9
$DIMCLRD
 70
   256
  9
$DIMCLRE
 70
   256
  9
$DIMCLRT
 70
     3
  9
$DIMTFAC
 40
0.5
  9
$DIMGAP
 40
1.0
  9
$DIMJUST
 70
     0
  9
$DIMSD1
 70
     0
  9
$DIMSD2
 70
     0
  9
$DIMTOLJ
 70
     1
  9
$DIMTZIN
 70
     8
  9
$DIMALTZ
 70
     0
  9
$DIMALTTZ
 70
     0
  9
$DIMUPT
 70
     0
  9
$DIMDEC
 70
     2
  9
$DIMTDEC
 70
     2
  9
$DIMALTU
 70
     2
  9
$DIMALTTD
 70
     2
  9
$DIMTXSTY
  7
ARIAL-STANDARD
  9
$DIMAUNIT
 70
     0
  9
$DIMADEC
 70
     0
  9
$DIMALTRND
 40
0.0
  9
$DIMAZIN
 70
     0
  9
$DIMDSEP
 70
    46
  9
$DIMATFIT
 70
     3
  9
$DIMFRAC
 70
     0
  9
$DIMLDRBLK
  1

  9
$DIMLUNIT
 70
     2
  9
$DIMLWD
 70
    -2
  9
$DIMLWE
 70
    -2
  9
$DIMTMOVE
 70
     0
  9
$LUNITS
 70
     2
  9
$LUPREC
 70
     2
  9
$SKETCHINC
 40
0.1
  9
$FILLETRAD
 40
5.0
  9
$AUNITS
 70
     0
  9
$AUPREC
 70
     0
  9
$MENU
  1
.
  9
$ELEVATION
 40
0.0
  9
$PELEVATION
 40
0.0
  9
$THICKNESS
 40
0.0
  9
$LIMCHECK
 70
     0
  9
$CHAMFERA
 40
2.5
  9
$CHAMFERB
 40
2.5
  9
$CHAMFERC
 40
1.0
  9
$CHAMFERD
 40
0.0
  9
$SKPOLY
 70
     0
  9
$TDCREATE
 40
2456190.417516122
  9
$TDUCREATE
 40
2456190.375849456
  9
$TDUPDATE
 40
2457067.501232257
  9
$TDUUPDATE
 40
2457067.459565590
  9
$TDINDWG
 40
0.6361889699
  9
$TDUSRTIMER
 40
0.6361885301
  9
$USRTIMER
 70
     1
  9
$ANGBASE
 50
0.0
  9
$ANGDIR
 70
     0
  9
$PDMODE
 70
     0
  9
$PDSIZE
 40
0.0
  9
$PLINEWID
 40
0.0
  9
$SPLFRAME
 70
     0
  9
$SPLINETYPE
 70
     6
  9
$SPLINESEGS
 70
     8
  9
$HANDSEED
  5
321
  9
$SURFTAB1
 70
     6
  9
$SURFTAB2
 70
     6
  9
$SURFTYPE
 70
     6
  9
$SURFU
 70
     6
  9
$SURFV
 70
     6
  9
$UCSBASE
  2

  9
$UCSNAME
  2

  9
$UCSORG
 10
0.0
 20
0.0
 30
0.0
  9
$UCSXDIR
 10
1.0
 20
0.0
 30
0.0
  9
$UCSYDIR
 10
0.0
 20
1.0
 30
0.0
  9
$UCSORTHOREF
  2

  9
$UCSORTHOVIEW
 70
     0
  9
$UCSORGTOP
 10
0.0
 20
0.0
 30
0.0
  9
$UCSORGBOTTOM
 10
0.0
 20
0.0
 30
0.0
  9
$UCSORGLEFT
 10
0.0
 20
0.0
 30
0.0
  9
$UCSORGRIGHT
 10
0.0
 20
0.0
 30
0.0
  9
$UCSORGFRONT
 10
0.0
 20
0.0
 30
0.0
  9
$UCSORGBACK
 10
0.0
 20
0.0
 30
0.0
  9
$PUCSBASE
  2

  9
$PUCSNAME
  2

  9
$PUCSORG
 10
0.0
 20
0.0
 30
0.0
  9
$PUCSXDIR
 10
1.0
 20
0.0
 30
0.0
  9
$PUCSYDIR
 10
0.0
 20
1.0
 30
0.0
  9
$PUCSORTHOREF
  2

  9
$PUCSORTHOVIEW
 70
     0
  9
$PUCSORGTOP
 10
0.0
 20
0.0
 30
0.0
  9
$PUCSORGBOTTOM
 10
0.0
 20
0.0
 30
0.0
  9
$PUCSORGLEFT
 10
0.0
 20
0.0
 30
0.0
  9
$PUCSORGRIGHT
 10
0.0
 20
0.0
 30
0.0
  9
$PUCSORGFRONT
 10
0.0
 20
0.0
 30
0.0
  9
$PUCSORGBACK
 10
0.0
 20
0.0
 30
0.0
  9
$USERI1
 70
     0
  9
$USERI2
 70
     0
  9
$USERI3
 70
     0
  9
$USERI4
 70
     0
  9
$USERI5
 70
     0
  9
$USERR1
 40
0.0
  9
$USERR2
 40
0.0
  9
$USERR3
 40
0.0
  9
$USERR4
 40
0.0
  9
$USERR5
 40
0.0
  9
$WORLDVIEW
 70
     1
  9
$SHADEDGE
 70
     3
  9
$SHADEDIF
 70
    70
  9
$TILEMODE
 70
     1
  9
$MAXACTVP
 70
    48
  9
$PINSBASE
 10
0.0
 20
0.0
 30
0.0
  9
$PLIMCHECK
 70
     0
  9
$PEXTMIN
 10
26.66999878883363
 20
20.31999878883363
 30
0.0
  9
$PEXTMAX
 10
240.0299890995026
 20
182.8799890995025
 30
0.0
  9
$PLIMMIN
 10
-6.350006103515625
 20
-6.349999904632567
  9
$PLIMMAX
 10
273.0499877929688
 20
209.5499939918518
  9
$UNITMODE
 70
     0
  9
$VISRETAIN
 70
     1
  9
$PLINEGEN
 70
     0
  9
$PSLTSCALE
 70
     1
  9
$TREEDEPTH
 70
  3020
  9
$CMLSTYLE
  2
STANDARD
  9
$CMLJUST
 70
     0
  9
$CMLSCALE
 40
1.0
  9
$PROXYGRAPHICS
 70
     1
  9
$MEASUREMENT
 70
     1
  9
$CELWEIGHT
370
    -1
  9
$ENDCAPS
280
     0
  9
$JOINSTYLE
280
     0
  9
$LWDISPLAY
290
     0
  9
$INSUNITS
 70
     0
  9
$HYPERLINKBASE
  1

  9
$STYLESHEET
  1

  9
$XEDIT
290
     1
  9
$CEPSNTYPE
380
     0
  9
$PSTYLEMODE
290
     1
  9
$FINGERPRINTGUID
  2
{DA075013-D4DC-441B-BAF7-E6DFF1387390}
  9
$VERSIONGUID
  2
{BBD85C5F-669C-4740-BD1A-48B4C017A92A}
  9
$EXTNAMES
290
     1
  9
$PSVPSCALE
 40
0.0
  9
$OLESTARTUP
290
     0
  0
ENDSEC
  0
SECTION
  2
CLASSES
  0
CLASS
  1
ACDBDICTIONARYWDFLT
  2
AcDbDictionaryWithDefault
  3
ObjectDBX Classes
 90
        0
280
     0
281
     0
  0
CLASS
  1
PLOTSETTINGS
  2
AcDbPlotSettings
  3
ObjectDBX Classes
 90
    32768
280
     0
281
     0
  0
CLASS
  1
DICTIONARYVAR
  2
AcDbDictionaryVar
  3
ObjectDBX Classes
 90
        0
280
     0
281
     0
  0
CLASS
  1
ACME_DOCUMENT
  2
AcMeDbDoc
  3
AcMeServices
 90
    33792
280
     0
281
     0
  0
CLASS
  1
AMGSETTINGSOBJ
  2
AmgSettingsObj
  3
"AcadM|Product Description: AutoCAD Mechanical|Company: Autodesk, Inc."
 90
     1024
280
     0
281
     0
  0
CLASS
  1
ACMESCOPE
  2
AcMeScope
  3
AcMeServices
 90
     1024
280
     0
281
     0
  0
CLASS
  1
ACMECOMMANDHISTORY
  2
AcMeCommandHistory
  3
AcMeServices
 90
    33792
280
     0
281
     0
  0
CLASS
  1
ACIMSYSVARMAN
  2
AcImSysVarManager
  3
AcMeServices
 90
     1024
280
     0
281
     0
  0
CLASS
  1
ACIMREALSYSVAR
  2
AcImRealSysVar
  3
AcMeServices
 90
    33792
280
     0
281
     0
  0
CLASS
  1
ACIMINTSYSVAR
  2
AcImIntSysVar
  3
AcMeServices
 90
    33792
280
     0
281
     0
  0
CLASS
  1
ACMEDRAWINGMAN
  2
AcMeDrawingMan
  3
AcMeServices
 90
    33792
280
     0
281
     0
  0
CLASS
  1
ACMEVIEW
  2
AcMeView
  3
AcMeServices
 90
    33792
280
     0
281
     0
  0
CLASS
  1
ACDBENTITYCACHE
  2
AcMeEntityCache
  3
AcMeServices
 90
    33792
280
     0
281
     0
  0
CLASS
  1
GSMANAGER
  2
AcMeGSManager
  3
AcMeServices
 90
    33792
280
     1
281
     0
  0
CLASS
  1
AMDTINTERNALREACTOR
  2
AmdtInternalReactor
  3
AcMeServices
 90
    33792
280
     0
281
     0
  0
CLASS
  1
ACMESTATEMGR
  2
AcMeStateMgr
  3
AcMeServices
 90
     1024
280
     0
281
     0
  0
CLASS
  1
ACGREFMASTER
  2
AcGrefMaster
  3
AcAttribServices
 90
     1024
280
     0
281
     0
  0
CLASS
  1
ACME_DATABASE
  2
AcMeDbDatabase
  3
AcMeServices
 90
    33792
280
     0
281
     0
  0
CLASS
  1
ACRFINSADJUSTERMGR
  2
AcRfInsAdjusterMgr
  3
AcMeServices
 90
    33792
280
     0
281
     0
  0
CLASS
  1
ACGREFACADMASTER
  2
AcGrefacadMaster
  3
AcGrefServices
 90
    33792
280
     0
281
     0
  0
CLASS
  1
AMIMASTER
  2
AmiMaster
  3
AmiServices
 90
    33792
280
     0
281
     0
  0
CLASS
  1
ACMDATADICTIONARY
  2
AcmDataDictionary
  3
"AcmSymBB|Product Description: AutoCAD Mechanical|Company: Autodesk, Inc."
 90
    33792
280
     0
281
     0
  0
CLASS
  1
ACMDATAENTRYBLOCK
  2
AcmDataEntryBlock
  3
AcmSymBB|Product Description: AutoCAD Mechanical|Company: Autodesk, Inc.
 90
    33792
280
     0
281
     0
  0
CLASS
  1
ACIMSTRSYSVAR
  2
AcImStrSysVar
  3
AcMeServices
 90
     1024
280
     0
281
     0
  0
CLASS
  1
ACMSTANDARDDIN
  2
AcmStandardDIN
  3
"Amdt_StdImp|Product Description: AutoCAD Mechanical|Company: Autodesk, Inc."
 90
     1024
280
     0
281
     0
  0
CLASS
  1
AMGOBJPROPCFG
  2
AmgObjPropCfg
  3
"AmgLay|Product Description: AutoCAD Mechanical|Company: Autodesk, Inc."
 90
     1024
280
     0
281
     0
  0
CLASS
  1
AMDTEDGESTANDARDDIN
  2
AmdtEdgeStdDIN
  3
"Amdt_StdImp|Product Description: AutoCAD Mechanical|Company: Autodesk, Inc."
 90
    33792
280
     0
281
     0
  0
CLASS
  1
ACMSURFSTANDARDDIN
  2
AcmSurfTextStdDIN
  3
"Amdt_StdImp|Product Description: AutoCAD Mechanical|Company: Autodesk, Inc."
 90
    33792
280
     0
281
     0
  0
CLASS
  1
ACMFCFSTANDARDDIN
  2
AcmFCFStdDIN
  3
"Amdt_StdImp|Product Description: AutoCAD Mechanical|Company: Autodesk, Inc."
 90
    33792
280
     0
281
     0
  0
CLASS
  1
ACMWELDSTANDARDDIN
  2
AcmWeldingStdDIN
  3
"Amdt_StdImp|Product Description: AutoCAD Mechanical|Company: Autodesk, Inc."
 90
     1024
280
     0
281
     0
  0
CLASS
  1
ACMIDSTANDARDDIN
  2
AcmIdStdDIN
  3
"Amdt_StdImp|Product Description: AutoCAD Mechanical|Company: Autodesk, Inc."
 90
    33792
280
     0
281
     0
  0
CLASS
  1
ACMDATUMSTANDARDDIN
  2
AcmDatumStdDIN
  3
"Amdt_StdImp|Product Description: AutoCAD Mechanical|Company: Autodesk, Inc."
 90
     1024
280
     0
281
     0
  0
CLASS
  1
ACMBOMSTANDARDDIN
  2
AcmBOMStdDIN
  3
"Amdt_StdImp|Product Description: AutoCAD Mechanical|Company: Autodesk, Inc."
 90
     1024
280
     0
281
     0
  0
CLASS
  1
ACMDETAILSTANDARDDIN
  2
AmdtDetailSymStdDIN
  3
"Amdt_StdImp|Product Description: AutoCAD Mechanical|Company: Autodesk, Inc."
 90
     1024
280
     0
281
     0
  0
CLASS
  1
ACMSECTIONSTANDARDDIN
  2
AmdtSectionSymStdDIN
  3
"Amdt_StdImp|Product Description: AutoCAD Mechanical|Company: Autodesk, Inc."
 90
     1024
280
     0
281
     0
  0
CLASS
  1
ACMCENTERLINESTANDARDDIN
  2
AmdtCenterLineStdDIN
  3
"Amdt_StdImp|Product Description: AutoCAD Mechanical|Company: Autodesk, Inc."
 90
     1024
280
     0
281
     0
  0
CLASS
  1
ACMNOTESTANDARDDIN
  2
AmdtNoteStdDIN
  3
"Amdt_StdImp|Product Description: AutoCAD Mechanical|Company: Autodesk, Inc."
 90
     1024
280
     0
281
     0
  0
CLASS
  1
ACAMGLAYSTD
  2
AcAmgLayStd
  3
"AmgLay|Product Description: AutoCAD Mechanical|Company: Autodesk, Inc."
 90
     1024
280
     0
281
     0
  0
CLASS
  1
ACAMGDIMSTD
  2
AcAmgDimStd
  3
"AmgDim|Product Description: AutoCAD Mechanical|Company: Autodesk, Inc."
 90
     1024
280
     0
281
     0
  0
CLASS
  1
ACAMGHOLECHARTSTDDIN
  2
AcAmgHoleChartStdDIN
  3
AmgDim|Product Description: AutoCAD Mechanical|Company: Autodesk, Inc.
 90
     1024
280
     0
281
     0
  0
CLASS
  1
ACAMGTITLESTD
  2
AcAmgTitleStd
  3
"AmgTitle|Product Description: AutoCAD Mechanical|Company: Autodesk, Inc."
 90
     1024
280
     0
281
     0
  0
CLASS
  1
ACAMGFILTERDAT
  2
AcAmgFilterDat
  3
"AcadM|Product Description: AutoCAD Mechanical|Company: Autodesk, Inc."
 90
    33792
280
     0
281
     0
  0
CLASS
  1
LAYER_INDEX
  2
AcDbLayerIndex
  3
ObjectDBX Classes
 90
    32768
280
     0
281
     0
  0
CLASS
  1
IDBUFFER
  2
AcDbIdBuffer
  3
ObjectDBX Classes
 90
    32768
280
     0
281
     0
  0
CLASS
  1
TABLESTYLE
  2
AcDbTableStyle
  3
ObjectDBX Classes
 90
     4095
280
     0
281
     0
  0
CLASS
  1
AM_DRAWING_MGR
  2
AcDmDwgMgr
  3
AcMechDwgViewMgmt
 90
    33792
280
     0
281
     0
  0
CLASS
  1
AM_DWG_DOCUMENT
  2
AcDmDwgDocument
  3
AcMechDwgViewMgmt
 90
    33792
280
     0
281
     0
  0
CLASS
  1
AM_DWG_SHEET
  2
AcDmSheet
  3
AcMechDwgViewMgmt
 90
    33792
280
     0
281
     0
  0
CLASS
  1
AM_VIEWDIMPARMAP
  2
AcDmViewDimParMap
  3
AcMechDwgViewMgmt
 90
    33792
280
     0
281
     0
  0
CLASS
  1
AM_DWGMGR_NAME
  2
AcDmDwgMgrName
  3
AcMechDwgViewMgmt
 90
    33792
280
     0
281
     0
  0
CLASS
  1
AMDTMENUSTATEMGR
  2
AmdtMenuStateMgr
  3
McadcomServices
 90
    33792
280
     0
281
     0
  0
CLASS
  1
AMDTMCOMMENUSTATE
  2
AmdtMcomMenuState
  3
McadcomServices
 90
    33792
280
     0
281
     0
  0
CLASS
  1
MAPIAMMOUDLE
  2
MApiAmModule
  3
MApiAmServices
 90
    33792
280
     0
281
     0
  0
CLASS
  1
AMDTADMENUSTATE
  2
AmdtAdMenuState
  3
DesignerServices
 90
    33792
280
     1
281
     0
  0
CLASS
  1
ADAPPL
  2
AcAdAppl
  3
DesignerAssemblies
 90
    33792
280
     0
281
     0
  0
CLASS
  1
DEPMGR
  2
AcAdDepMgr
  3
DesignerAssemblies
 90
    33792
280
     0
281
     0
  0
CLASS
  1
PARAMMGR
  2
AcAdParamMgr
  3
DesignerAssemblies
 90
    33792
280
     0
281
     0
  0
CLASS
  1
PARAMSCOPE
  2
AcAdParamScope
  3
DesignerAssemblies
 90
    33792
280
     0
281
     0
  0
CLASS
  1
NAMEDAPPL
  2
AcAdNamedAppl
  3
DesignerAssemblies
 90
    33792
280
     0
281
     0
  0
CLASS
  1
AMDTDMMENUSTATE
  2
AmdtDmMenuState
  3
AcMechDwgViewMgmt
 90
    33792
280
     1
281
     0
  0
CLASS
  1
AMDTAMMENUSTATE
  2
AmdtAmMenuState
  3
DesignerAssemblies
 90
    33792
280
     0
281
     0
  0
CLASS
  1
ACAMPROJECT
  2
AcAmProject
  3
DesignerAssemblies
 90
    33792
280
     0
281
     0
  0
CLASS
  1
ACAMGRCOMPDEF
  2
AcAmGrCompDef
  3
DesignerAssemblies
 90
    33792
280
     0
281
     0
  0
CLASS
  1
ACCMCONTEXT
  2
AcCmContext
  3
DesignerAssemblies
 90
    33792
280
     0
281
     0
  0
CLASS
  1
ACAMCOMPDEF
  2
AcAmCompDef
  3
DesignerAssemblies
 90
    33792
280
     0
281
     0
  0
CLASS
  1
ACAMCOMPDEFMGR
  2
AcAmCompDefMgr
  3
DesignerAssemblies
 90
    33792
280
     0
281
     0
  0
CLASS
  1
AMCONTEXTMGR
  2
AcAmContextMgr
  3
DesignerAssemblies
 90
    33792
280
     0
281
     0
  0
CLASS
  1
ACAMCONTEXTMODELER
  2
AcAmContextModeler
  3
DesignerAssemblies
 90
    33792
280
     0
281
     0
  0
CLASS
  1
ACMTHREADLINESTANDARDDIN
  2
AmdtThreadLineStdDIN
  3
"Amdt_StdImp|Product Description: AutoCAD Mechanical|Company: Autodesk, Inc."
 90
     1024
280
     0
281
     0
  0
CLASS
  1
CATALOGSTATE
  2
AcAmCatalogState
  3
DesignerAssemblies
 90
    33792
280
     0
281
     0
  0
CLASS
  1
ACAMGRCOMPDEFSET
  2
AcAmGrCompDefSet
  3
DesignerAssemblies
 90
    33792
280
     0
281
     0
  0
CLASS
  1
AMDTBROWSERDBTAB
  2
AmdtBrowserDbTab
  3
McadcomServices
 90
    33792
280
     0
281
     0
  0
CLASS
  1
CBROWSERAPPOBJECT
  2
CBrowserAppObject
  3
McadcomServices
 90
    33792
280
     0
281
     0
  0
CLASS
  1
DM_PLACEHOLDER
  2
AcDmSelsetPlaceholder
  3
McadcomServices
 90
    33792
280
     0
281
     0
  0
CLASS
  1
SORTENTSTABLE
  2
AcDbSortentsTable
  3
ObjectDBX Classes
 90
        0
280
     0
281
     0
  0
CLASS
  1
MATERIAL
  2
AcDbMaterial
  3
ObjectDBX Classes
 90
     1153
280
     0
281
     0
  0
CLASS
  1
VISUALSTYLE
  2
AcDbVisualStyle
  3
ObjectDBX Classes
 90
     4095
280
     0
281
     0
  0
CLASS
  1
SCALE
  2
AcDbScale
  3
ObjectDBX Classes
 90
     1153
280
     0
281
     0
  0
CLASS
  1
MLEADERSTYLE
  2
AcDbMLeaderStyle
  3
ACDB_MLEADERSTYLE_CLASS
 90
    36863
280
     0
281
     0
  0
CLASS
  1
ACRFATTGENMGR
  2
AcRfAttGeneralMgr
  3
AcAttribServices
 90
    33792
280
     0
281
     0
  0
CLASS
  1
ACRFOBJATTMGR
  2
AcRfObjAttGroupMgr
  3
AcAttribServices
 90
    33792
280
     0
281
     0
  0
CLASS
  1
ACRFMCADAPIATTHOLDER
  2
AcRfMCADAPIAttHolder
  3
AcAttribServices
 90
    33792
280
     0
281
     0
  0
CLASS
  1
AMDTSYSATTR
  2
AmdtSystemAttribute
  3
AcAttribServices
 90
    33792
280
     0
281
     0
  0
CLASS
  1
ACMTAPERSTANDARDDIN
  2
AcmTaperStdDIN
  3
"Amdt_StdImp|Product Description: AutoCAD Mechanical|Company: Autodesk, Inc."
 90
     1024
280
     0
281
     0
  0
CLASS
  1
ACMANOOTATIONVIEWSTANDARDDIN
  2
AmdtAnViewStdDIN
  3
"Amdt_StdImp|Product Description: AutoCAD Mechanical|Company: Autodesk, Inc."
 90
     1024
280
     0
281
     0
  0
CLASS
  1
CAMSSTRUCTBTNSTATE
  2
StructBtnState
  3
DesignerAssemblies
 90
    33792
280
     0
281
     0
  0
CLASS
  1
CELLSTYLEMAP
  2
AcDbCellStyleMap
  3
ObjectDBX Classes
 90
     1152
280
     0
281
     0
  0
CLASS
  1
ACDBASSOCNETWORK
  2
AcDbAssocNetwork
  3
ObjectDBX Classes
 90
     1025
280
     0
281
     0
  0
CLASS
  1
ACDBASSOC2DCONSTRAINTGROUP
  2
AcDbAssoc2dConstraintGroup
  3
ObjectDBX Classes
 90
     1025
280
     0
281
     0
  0
CLASS
  1
ACDBASSOCGEOMDEPENDENCY
  2
AcDbAssocGeomDependency
  3
ObjectDBX Classes
 90
     1025
280
     0
281
     0
  0
CLASS
  1
ACMSTANDARDANSI
  2
AcmStandardANSI
  3
"Amdt_StdImp|Product Description: AutoCAD Mechanical|Company: Autodesk, Inc."
 90
    33792
280
     0
281
     0
  0
CLASS
  1
ACMSURFSTANDARDANSI
  2
AcmSurfTextStdANSI
  3
"Amdt_StdImp|Product Description: AutoCAD Mechanical|Company: Autodesk, Inc."
 90
    33792
280
     0
281
     0
  0
CLASS
  1
ACMFCFSTANDARDANSI
  2
AcmFCFStdANSI
  3
"Amdt_StdImp|Product Description: AutoCAD Mechanical|Company: Autodesk, Inc."
 90
    33792
280
     0
281
     0
  0
CLASS
  1
ACMWELDSTANDARDANSI
  2
AcmWeldingStdANSI
  3
"Amdt_StdImp|Product Description: AutoCAD Mechanical|Company: Autodesk, Inc."
 90
    33792
280
     0
281
     0
  0
CLASS
  1
ACMIDSTANDARDANSI
  2
AcmIdStdANSI
  3
"Amdt_StdImp|Product Description: AutoCAD Mechanical|Company: Autodesk, Inc."
 90
    33792
280
     0
281
     0
  0
CLASS
  1
ACMDATUMSTANDARDANSI
  2
AcmDatumStdANSI
  3
"Amdt_StdImp|Product Description: AutoCAD Mechanical|Company: Autodesk, Inc."
 90
    33792
280
     0
281
     0
  0
CLASS
  1
ACMBOMSTANDARDANSI
  2
AcmBOMStdANSI
  3
"Amdt_StdImp|Product Description: AutoCAD Mechanical|Company: Autodesk, Inc."
 90
    33792
280
     0
281
     0
  0
CLASS
  1
ACMDETAILSTANDARDANSI
  2
AmdtDetailSymStdANSI
  3
"Amdt_StdImp|Product Description: AutoCAD Mechanical|Company: Autodesk, Inc."
 90
    33792
280
     0
281
     0
  0
CLASS
  1
ACMSECTIONSTANDARDANSI
  2
AmdtSectionSymStdANSI
  3
"Amdt_StdImp|Product Description: AutoCAD Mechanical|Company: Autodesk, Inc."
 90
    33792
280
     0
281
     0
  0
CLASS
  1
ACMCENTERLINESTANDARDANSI
  2
AmdtCenterLineStdANSI
  3
"Amdt_StdImp|Product Description: AutoCAD Mechanical|Company: Autodesk, Inc."
 90
    33792
280
     0
281
     0
  0
CLASS
  1
ACMTHREADLINESTANDARDANSI
  2
AmdtThreadLineStdANSI
  3
"Amdt_StdImp|Product Description: AutoCAD Mechanical|Company: Autodesk, Inc."
 90
    33792
280
     0
281
     0
  0
CLASS
  1
ACMNOTESTANDARDANSI
  2
AmdtNoteStdANSI
  3
"Amdt_StdImp|Product Description: AutoCAD Mechanical|Company: Autodesk, Inc."
 90
    33792
280
     0
281
     0
  0
CLASS
  1
AMDTNOTETEMPLATEDB
  2
AmdtNoteTemplateDB
  3
AcmSymBB|Product Description: AutoCAD Mechanical|Company: Autodesk, Inc.
 90
     1024
280
     0
281
     0
  0
CLASS
  1
ACMTAPERSTANDARDANSI
  2
AcmTaperStdANSI
  3
"Amdt_StdImp|Product Description: AutoCAD Mechanical|Company: Autodesk, Inc."
 90
    33792
280
     0
281
     0
  0
CLASS
  1
ACMANOOTATIONVIEWSTANDARDANSI
  2
AmdtAnViewStdANSI
  3
"Amdt_StdImp|Product Description: AutoCAD Mechanical|Company: Autodesk, Inc."
 90
    33792
280
     0
281
     0
  0
CLASS
  1
ACAMGHOLECHARTSTDANSI
  2
AcAmgHoleChartStdANSI
  3
AmgDim|Product Description: AutoCAD Mechanical|Company: Autodesk, Inc.
 90
    33792
280
     0
281
     0
  0
CLASS
  1
AMDTEDGESTANDARDDIN13715
  2
AmdtEdgeStdDIN13715
  3
"Amdt_StdImp|Product Description: AutoCAD Mechanical|Company: Autodesk, Inc."
 90
     1024
280
     0
281
     0
  0
CLASS
  1
ACMSURFSTANDARDDIN2002
  2
AcmSurfTextStdDIN2002
  3
"Amdt_StdImp|Product Description: AutoCAD Mechanical|Company: Autodesk, Inc."
 90
     1024
280
     0
281
     0
  0
CLASS
  1
ACMFCFSTANDARDDIN2008
  2
AcmFCFStdDIN2008
  3
"Amdt_StdImp|Product Description: AutoCAD Mechanical|Company: Autodesk, Inc."
 90
     1024
280
     0
281
     0
  0
CLASS
  1
ACMIDSTANDARDDIN2008
  2
AcmIdStdDIN2008
  3
"Amdt_StdImp|Product Description: AutoCAD Mechanical|Company: Autodesk, Inc."
 90
     1024
280
     0
281
     0
  0
CLASS
  1
ACDBSECTIONVIEWSTYLE
  2
AcDbSectionViewStyle
  3
ObjectDBX Classes
 90
     1025
280
     0
281
     0
  0
CLASS
  1
ACDBDETAILVIEWSTYLE
  2
AcDbDetailViewStyle
  3
ObjectDBX Classes
 90
     1025
280
     0
281
     0
  0
CLASS
  1
ACMSECTIONSTANDARDCUSTOM
  2
AmdtSectionSymStdCustom
  3
"Amdt_StdImp|Product Description: AutoCAD Mechanical|Company: Autodesk, Inc."
 90
     1024
280
     0
281
     0
  0
CLASS
  1
ACMDETAILTANDARDCUSTOM
  2
AmdtDetailSymStdCustom
  3
"Amdt_StdImp|Product Description: AutoCAD Mechanical|Company: Autodesk, Inc."
 90
     1024
280
     0
281
     0
  0
CLASS
  1
FIELD
  2
AcDbField
  3
ObjectDBX Classes
 90
     1152
280
     0
281
     0
  0
CLASS
  1
FIELDLIST
  2
AcDbFieldList
  3
ObjectDBX Classes
 90
     1152
280
     0
281
     0
  0
CLASS
  1
ACDBPLACEHOLDER
  2
AcDbPlaceHolder
  3
ObjectDBX Classes
 90
        0
280
     0
281
     0
  0
CLASS
  1
LAYOUT
  2
AcDbLayout
  3
ObjectDBX Classes
 90
        0
280
     0
281
     0
  0
ENDSEC
  0
SECTION
  2
TABLES
  0
TABLE
  2
VPORT
  5
2B
330
0
100
AcDbSymbolTable
 70
     1
  0
VPORT
  5
2C
330
2B
100
AcDbSymbolTableRecord
100
AcDbViewportTableRecord
  2
*Active
 70
     0
 10
0.0
 20
0.0
 11
1.0
 21
1.0
 12
167.4927029261639
 22
505.6881180255786
 13
0.0
 23
0.0
 14
2.5
 24
2.5
 15
10.0
 25
10.0
 16
0.0
 26
0.0
 36
1.0
 17
0.0
 27
0.0
 37
0.0
 40
574.6331031207784
 41
2.033022861981371
 42
50.0
 43
0.0
 44
0.0
 50
0.0
 51
0.0
 71
     0
 72
  5000
 73
     1
 74
     1
 75
     0
 76
     0
 77
     0
 78
     0
281
     0
 65
     0
110
0.0
120
0.0
130
0.0
111
1.0
121
0.0
131
0.0
112
0.0
122
1.0
132
0.0
 79
     0
146
0.0
1001
ACAD_NAV_VCDISPLAY
1070
     3
  0
ENDTAB
  0
TABLE
  2
LTYPE
  5
26
330
0
100
AcDbSymbolTable
 70
    13
  0
LTYPE
  5
27
330
26
100
AcDbSymbolTableRecord
100
AcDbLinetypeTableRecord
  2
BYBLOCK
 70
     0
  3

 72
    65
 73
     0
 40
0.0
  0
LTYPE
  5
28
330
26
100
AcDbSymbolTableRecord
100
AcDbLinetypeTableRecord
  2
BYLAYER
 70
     0
  3

 72
    65
 73
     0
 40
0.0
  0
LTYPE
  5
1F
330
26
100
AcDbSymbolTableRecord
100
AcDbLinetypeTableRecord
  2
CONTINUOUS
 70
     0
  3
Solid line
 72
    65
 73
     0
 40
0.0
  0
LTYPE
  5
86
330
26
100
AcDbSymbolTableRecord
100
AcDbLinetypeTableRecord
  2
STRICHPUNKT
 70
     0
  3
Strichpunkt __ . __ . __ . __ . __ . __ . __ . 
 72
    65
 73
     4
 40
25.4
 49
12.7
 74
     0
 49
-6.349999999999998
 74
     0
 49
0.0
 74
     0
 49
-6.349999999999998
 74
     0
  0
LTYPE
  5
C8
330
26
100
AcDbSymbolTableRecord
100
AcDbLinetypeTableRecord
  2
VERDECKT
 70
     0
  3
Verdeckt __ __ __ __ __ __ __ __ __ __ __ __ __
 72
    65
 73
     2
 40
9.524999999999996
 49
6.349999999999998
 74
     0
 49
-3.174999999999998
 74
     0
  0
LTYPE
  5
281
330
26
100
AcDbSymbolTableRecord
100
AcDbLinetypeTableRecord
  2
Amconstr
 70
     0
  3
_______________________
 72
    65
 73
     2
 40
9999.0
 49
9999.0
 74
     0
 49
0.0
 74
     0
  0
LTYPE
  5
284
330
26
100
AcDbSymbolTableRecord
100
AcDbLinetypeTableRecord
  2
Amzigzag
 70
     0
  3
/\/-/\/-/\/-/\/-/\/-/\/
 72
    65
 73
     2
 40
11.0001
 49
0.0001
 74
     4
 75
   135
340
285
 46
0.04
 50
0.0
 44
0.0
 45
0.0
 49
-11.0
 74
     0
  0
LTYPE
  5
27E
330
26
100
AcDbSymbolTableRecord
100
AcDbLinetypeTableRecord
  2
AM_DIN_F_W050
 70
     0
  3
__ __ __ __ __ __ __ __ __ __ __ __ __ __ __
 72
    65
 73
     2
 40
6.25
 49
4.75
 74
     0
 49
-1.5
 74
     0
  0
LTYPE
  5
27F
330
26
100
AcDbSymbolTableRecord
100
AcDbLinetypeTableRecord
  2
AM_DIN_G_W050
 70
     0
  3
____ . ____ . ____ . ____ . ____ . ____ . ____
 72
    65
 73
     4
 40
13.75
 49
9.75
 74
     0
 49
-1.5
 74
     0
 49
1.0
 74
     0
 49
-1.5
 74
     0
  0
LTYPE
  5
280
330
26
100
AcDbSymbolTableRecord
100
AcDbLinetypeTableRecord
  2
AM_DIN_K_W050
 70
     0
  3
_____ . . _____ . . _____ . . ____ .. ____
 72
    65
 73
     6
 40
16.25
 49
9.75
 74
     0
 49
-1.5
 74
     0
 49
1.0
 74
     0
 49
-1.5
 74
     0
 49
1.0
 74
     0
 49
-1.5
 74
     0
  0
LTYPE
  5
282
330
26
100
AcDbSymbolTableRecord
100
AcDbLinetypeTableRecord
  2
AM_DIN_G_W050x2
 70
     0
  3
__ . __ . __ . __ . __ . __
 72
    65
 73
     4
 40
6.875
 49
4.75
 74
     0
 49
-0.875
 74
     0
 49
0.375
 74
     0
 49
-0.875
 74
     0
  0
LTYPE
  5
283
330
26
100
AcDbSymbolTableRecord
100
AcDbLinetypeTableRecord
  2
AM_DIN_F_W050x2
 70
     0
  3
 _ _ _ _ _ _ _ _ _ _ _ _
 72
    65
 73
     2
 40
3.125
 49
2.25
 74
     0
 49
-0.875
 74
     0
  0
LTYPE
  5
294
330
26
100
AcDbSymbolTableRecord
100
AcDbLinetypeTableRecord
  2
ACDINWELD
 70
     0
  3
_ _ _ _ _
 72
    65
 73
     2
 40
2.0
 49
2.0
 74
     0
 49
-1.0
 74
     0
  0
LTYPE
  5
298
330
26
100
AcDbSymbolTableRecord
100
AcDbLinetypeTableRecord
  2
ACDINTGB
 70
     0
  3
__ . . __ . .
 72
    65
 73
     6
 40
9.0
 49
4.0
 74
     0
 49
-1.0
 74
     0
 49
1.0
 74
     0
 49
-1.0
 74
     0
 49
1.0
 74
     0
 49
-1.0
 74
     0
  0
LTYPE
  5
296
330
26
100
AcDbSymbolTableRecord
100
AcDbLinetypeTableRecord
  2
ACDINTGL
 70
     0
  3
_ _ _ _ _
 72
    65
 73
     2
 40
3.0
 49
2.0
 74
     0
 49
-1.0
 74
     0
  0
ENDTAB
  0
TABLE
  2
LAYER
  5
10
102
{ACAD_XDICTIONARY
360
20
102
}
330
0
100
AcDbSymbolTable
 70
     8
  0
LAYER
  5
11
102
{ACAD_XDICTIONARY
360
12
102
}
330
10
100
AcDbSymbolTableRecord
100
AcDbLayerTableRecord
  2
0
 70
     0
 62
     7
  6
CONTINUOUS
370
    -3
390
14
  0
LAYER
  5
D2
102
{ACAD_XDICTIONARY
360
D3
102
}
330
10
100
AcDbSymbolTableRecord
100
AcDbLayerTableRecord
  2
UMRISS05
 70
     0
 62
     4
  6
CONTINUOUS
370
    -3
390
14
  0
LAYER
  5
8B
102
{ACAD_XDICTIONARY
360
8C
102
}
330
10
100
AcDbSymbolTableRecord
100
AcDbLayerTableRecord
  2
BEMASSUNG
 70
     0
 62
     2
  6
CONTINUOUS
370
    -3
390
14
  0
LAYER
  5
83
102
{ACAD_XDICTIONARY
360
84
102
}
330
10
100
AcDbSymbolTableRecord
100
AcDbLayerTableRecord
  2
ACHSEN
 70
     0
 62
     1
  6
STRICHPUNKT
370
    -3
390
14
  0
LAYER
  5
C5
102
{ACAD_XDICTIONARY
360
C6
102
}
330
10
100
AcDbSymbolTableRecord
100
AcDbLayerTableRecord
  2
AVERDECKTE
 70
     0
 62
    13
  6
VERDECKT
370
    -3
390
14
  0
LAYER
  5
77
330
10
100
AcDbSymbolTableRecord
100
AcDbLayerTableRecord
  2
DEFPOINTS
 70
     0
 62
     7
  6
CONTINUOUS
290
     0
370
    -3
390
14
  0
LAYER
  5
7E
330
10
100
AcDbSymbolTableRecord
100
AcDbLayerTableRecord
  2
Verdeckte Kanten(MSL)
 70
     0
 62
    11
  6
CONTINUOUS
370
    35
390
14
  0
LAYER
  5
6A
330
10
100
AcDbSymbolTableRecord
100
AcDbLayerTableRecord
  2
AM_5
 70
     0
 62
     3
  6
CONTINUOUS
370
    25
390
14
1001
AcAecLayerStandard
1000

1000

  0
ENDTAB
  0
TABLE
  2
STYLE
  5
23
330
0
100
AcDbSymbolTable
 70
     5
  0
STYLE
  5
24
330
23
100
AcDbSymbolTableRecord
100
AcDbTextStyleTableRecord
  2
STANDARD
 70
     0
 40
0.0
 41
1.0
 50
0.0
 71
     0
 42
3.5
  3
ISOCP.SHX
  4

  0
STYLE
  5
34
330
23
100
AcDbSymbolTableRecord
100
AcDbTextStyleTableRecord
  2
ARIAL-STANDARD
 70
     0
 40
0.0
 41
1.0
 50
0.0
 71
     0
 42
3.5
  3
arial.ttf
  4

1001
ACAD
1000
Arial
1071
       34
  0
STYLE
  5
51
330
23
100
AcDbSymbolTableRecord
100
AcDbTextStyleTableRecord
  2
NORM
 70
     0
 40
0.0
 41
1.0
 50
0.0
 71
     0
 42
2.399999999999999
  3
simplex.shx
  4

  0
STYLE
  5
285
330
23
100
AcDbSymbolTableRecord
100
AcDbTextStyleTableRecord
  2

 70
     1
 40
0.0
 41
1.0
 50
0.0
 71
     0
 42
2.5
  3
ltypeshp.shx
  4

  0
STYLE
  5
292
330
23
100
AcDbSymbolTableRecord
100
AcDbTextStyleTableRecord
  2
ACDINGDT
 70
     0
 40
0.0
 41
1.0
 50
0.0
 71
     0
 42
3.5
  3
amgdt.shx
  4

  0
ENDTAB
  0
TABLE
  2
VIEW
  5
29
330
0
100
AcDbSymbolTable
 70
     0
  0
ENDTAB
  0
TABLE
  2
UCS
  5
2A
330
0
100
AcDbSymbolTable
 70
     0
  0
ENDTAB
  0
TABLE
  2
APPID
  5
30
330
0
100
AcDbSymbolTable
 70
    12
  0
APPID
  5
31
330
30
100
AcDbSymbolTableRecord
100
AcDbRegAppTableRecord
  2
ACAD
 70
     0
  0
APPID
  5
2F
330
30
100
AcDbSymbolTableRecord
100
AcDbRegAppTableRecord
  2
ACAD_NAV_VCDISPLAY
 70
     0
  0
APPID
  5
37
330
30
100
AcDbSymbolTableRecord
100
AcDbRegAppTableRecord
  2
ACAD_DSTYLE_DIMJAG
 70
     0
  0
APPID
  5
36
330
30
100
AcDbSymbolTableRecord
100
AcDbRegAppTableRecord
  2
ACAD_DSTYLE_DIMBREAK
 70
     0
  0
APPID
  5
38
330
30
100
AcDbSymbolTableRecord
100
AcDbRegAppTableRecord
  2
ACAD_DSTYLE_DIMTALN
 70
     0
  0
APPID
  5
7C
330
30
100
AcDbSymbolTableRecord
100
AcDbRegAppTableRecord
  2
ACAD_DSTYLE_DIMINSPECT
 70
     0
  0
APPID
  5
6B
330
30
100
AcDbSymbolTableRecord
100
AcDbRegAppTableRecord
  2
AcAecLayerStandard
 70
     0
  0
APPID
  5
2F1
330
30
100
AcDbSymbolTableRecord
100
AcDbRegAppTableRecord
  2
ACATTRIBSERVICES
 70
     0
  0
APPID
  5
31D
330
30
100
AcDbSymbolTableRecord
100
AcDbRegAppTableRecord
  2
ACAD_DSTYLE_DIMJOGGED_JOGANGLE_SYMBOL
 70
     0
  0
APPID
  5
31E
330
30
100
AcDbSymbolTableRecord
100
AcDbRegAppTableRecord
  2
ACAD_DSTYLE_DIM_LINETYPE
 70
     0
  0
APPID
  5
31F
330
30
100
AcDbSymbolTableRecord
100
AcDbRegAppTableRecord
  2
ACAD_DSTYLE_DIM_EXT1_LINETYPE
 70
     0
  0
APPID
  5
320
330
30
100
AcDbSymbolTableRecord
100
AcDbRegAppTableRecord
  2
ACAD_DSTYLE_DIM_EXT2_LINETYPE
 70
     0
  0
ENDTAB
  0
TABLE
  2
DIMSTYLE
  5
32
330
0
100
AcDbSymbolTable
 70
    11
100
AcDbDimStyleTable
 71
     2
340
33
340
35
  0
DIMSTYLE
105
33
102
{ACAD_REACTORS
330
A8
330
8A
102
}
330
32
100
AcDbSymbolTableRecord
100
AcDbDimStyleTableRecord
  2
NORMAL
 70
     0
 41
3.5
 42
0.0
 43
8.0
 44
0.5
 73
     0
 74
     0
 77
     1
 78
     8
140
3.5
141
1.5
146
0.5
147
1.0
172
     1
174
     1
176
   256
177
   256
178
     3
271
     2
272
     2
284
     8
340
34
  0
DIMSTYLE
105
2C2
102
{ACAD_REACTORS
330
28E
102
}
330
32
100
AcDbSymbolTableRecord
100
AcDbDimStyleTableRecord
  2
AM_DIN
 70
     0
  4
"
 41
2.5
 42
1.0
 43
10.0
 44
1.0
 47
0.1
 48
0.1
 73
     0
 74
     0
 77
     1
 78
     8
 79
     2
140
3.5
141
0.0
143
0.0393701
146
0.71
147
1.5
172
     1
176
   256
177
   256
178
     2
271
     2
272
     3
274
     4
283
     0
284
     8
340
24
371
    -1
372
    -1
  0
DIMSTYLE
105
2C4
330
32
100
AcDbSymbolTableRecord
100
AcDbDimStyleTableRecord
  2
AM_DIN$3
 70
     0
  4
"
 41
2.5
 42
1.0
 43
10.0
 44
1.0
 47
0.1
 48
0.1
 73
     0
 77
     1
 78
     8
 79
     2
140
3.5
141
0.0
143
0.0393701
146
0.71
147
1.5
176
   256
177
   256
178
     2
271
     2
272
     3
274
     4
283
     0
284
     8
288
     1
289
     0
340
24
371
    -1
372
    -1
  0
DIMSTYLE
105
2C5
330
32
100
AcDbSymbolTableRecord
100
AcDbDimStyleTableRecord
  2
AM_DIN$4
 70
     0
  4
"
 41
2.5
 42
1.0
 43
10.0
 44
1.0
 47
0.1
 48
0.1
 73
     0
 77
     1
 78
     8
 79
     2
140
3.5
141
0.0
143
0.0393701
146
0.71
147
1.5
176
   256
177
   256
178
     2
271
     2
272
     3
274
     4
283
     0
284
     8
288
     1
289
     0
340
24
371
    -1
372
    -1
  0
DIMSTYLE
105
2C6
330
32
100
AcDbSymbolTableRecord
100
AcDbDimStyleTableRecord
  2
AM_DIN$6
 70
     0
  4
"
 41
2.5
 42
1.0
 43
10.0
 44
1.0
 47
0.1
 48
0.1
 73
     0
 74
     0
 78
     8
 79
     2
140
3.5
141
0.0
143
0.0393701
146
0.71
147
1.5
172
     1
176
   256
177
   256
178
     2
271
     2
272
     3
274
     4
283
     0
284
     8
340
24
371
    -1
372
    -1
  0
DIMSTYLE
105
2C7
330
32
100
AcDbSymbolTableRecord
100
AcDbDimStyleTableRecord
  2
AM_DIN$7
 70
     0
  4
"
 41
2.5
 42
1.0
 43
10.0
 44
1.0
 47
0.1
 48
0.1
 73
     0
 74
     0
 77
     1
 78
     8
 79
     2
140
5.0
141
0.0
143
0.0393701
146
0.71
147
1.5
172
     1
176
   256
177
   256
178
     2
271
     2
272
     3
274
     4
283
     0
284
     8
340
24
371
    -1
372
    -1
  0
DIMSTYLE
105
2C8
330
32
100
AcDbSymbolTableRecord
100
AcDbDimStyleTableRecord
  2
AM_DIN$SF
 70
     0
  4
"
 41
2.5
 42
1.0
 43
10.0
 44
1.0
 47
0.1
 48
0.1
 73
     0
 74
     0
 75
     1
 76
     1
 77
     1
 78
     8
 79
     2
140
3.5
141
0.0
143
0.0393701
146
0.71
147
1.5
172
     1
176
   256
177
   256
178
     2
271
     2
272
     3
274
     4
283
     0
284
     8
340
24
371
    -1
372
    -1
  0
DIMSTYLE
105
2C9
330
32
100
AcDbSymbolTableRecord
100
AcDbDimStyleTableRecord
  2
AM_DIN$SH
 70
     0
  4
"
 41
2.5
 42
1.0
 43
10.0
 44
1.0
 47
0.1
 48
0.1
 73
     0
 74
     0
 75
     1
 76
     1
 77
     1
 78
     8
 79
     2
140
3.5
141
0.0
143
0.0393701
144
2.0
146
0.71
147
1.5
172
     1
173
     1
176
   256
177
   256
178
     2
271
     2
272
     3
274
     4
283
     0
284
     8
340
24
343
2CA
371
    -1
372
    -1
  0
DIMSTYLE
105
35
102
{ACAD_REACTORS
330
1B6
330
180
330
1D1
330
172
330
165
330
158
330
14B
330
1C3
330
129
330
18D
330
136
330
1A9
330
1DE
330
11B
330
1EB
330
19C
330
B7
330
9B
102
}
330
32
100
AcDbSymbolTableRecord
100
AcDbDimStyleTableRecord
  2
Katalog 09
 70
     0
 41
4.0
 42
0.0
 43
8.0
 44
1.0
 73
     0
 74
     0
 77
     1
 78
     8
140
4.349999999999998
141
1.5
143
25.39999999999999
146
0.4285714285714287
147
1.0
172
     1
174
     1
176
     2
177
     2
178
     3
271
     2
272
     2
279
     2
284
     8
285
     8
286
     8
340
34
1001
ACAD_DSTYLE_DIMBREAK
1070
   391
1040
3.75
1001
ACAD_DSTYLE_DIMJAG
1070
   388
1040
1.5
1001
ACAD_DSTYLE_DIMTALN
1070
   392
1070
     0
  0
DIMSTYLE
105
2C3
330
32
100
AcDbSymbolTableRecord
100
AcDbDimStyleTableRecord
  2
AM_DIN$0
 70
     0
  4
"
 41
3.5
 42
1.0
 43
10.0
 44
1.0
 47
0.1
 48
0.1
 73
     0
 74
     0
 77
     1
 78
     8
 79
     2
140
3.5
141
0.0
143
0.0393701
146
0.71
147
1.5
172
     1
176
   256
177
   256
178
     2
271
     2
272
     3
274
     4
283
     0
284
     8
340
24
371
    -1
372
    -1
1001
ACAD_DSTYLE_DIMJOGGED_JOGANGLE_SYMBOL
1070
   384
1040
1.570796326794896
1001
ACAD_DSTYLE_DIM_LINETYPE
1070
   380
1005
27
1001
ACAD_DSTYLE_DIM_EXT1_LINETYPE
1070
   381
1005
27
1001
ACAD_DSTYLE_DIM_EXT2_LINETYPE
1070
   382
1005
27
  0
DIMSTYLE
105
7B
102
{ACAD_REACTORS
330
69
102
}
330
32
100
AcDbSymbolTableRecord
100
AcDbDimStyleTableRecord
  2
Katalog 09$0
 70
     0
 41
4.0
 42
0.0
 43
8.0
 44
1.0
 73
     0
 74
     0
 77
     1
 78
     8
140
4.349999999999998
141
1.5
143
25.39999999999999
146
0.4285714285714287
147
1.0
172
     1
174
     1
176
     2
177
     2
178
     3
271
     2
272
     2
284
     8
285
     8
286
     8
340
34
1001
ACAD_DSTYLE_DIMBREAK
1070
   391
1040
3.75
1001
ACAD_DSTYLE_DIMJAG
1070
   388
1040
1.5
  0
ENDTAB
  0
TABLE
  2
BLOCK_RECORD
  5
1
330
0
100
AcDbSymbolTable
 70
    24
  0
BLOCK_RECORD
  5
2
102
{ACAD_XDICTIONARY
360
3
102
}
330
1
100
AcDbSymbolTableRecord
100
AcDbBlockTableRecord
  2
*MODEL_SPACE
340
8
  0
BLOCK_RECORD
  5
C
330
1
100
AcDbSymbolTableRecord
100
AcDbBlockTableRecord
  2
*PAPER_SPACE
340
F
  0
BLOCK_RECORD
  5
2CA
330
1
100
AcDbSymbolTableRecord
100
AcDbBlockTableRecord
  2
GENAXEH
340
0
  0
BLOCK_RECORD
  5
1EC
330
1
100
AcDbSymbolTableRecord
100
AcDbBlockTableRecord
  2
*D1
340
0
  0
BLOCK_RECORD
  5
1DF
330
1
100
AcDbSymbolTableRecord
100
AcDbBlockTableRecord
  2
*D2
340
0
  0
BLOCK_RECORD
  5
1D2
330
1
100
AcDbSymbolTableRecord
100
AcDbBlockTableRecord
  2
*D3
340
0
  0
BLOCK_RECORD
  5
1C4
330
1
100
AcDbSymbolTableRecord
100
AcDbBlockTableRecord
  2
*D4
340
0
  0
BLOCK_RECORD
  5
1B7
330
1
100
AcDbSymbolTableRecord
100
AcDbBlockTableRecord
  2
*D5
340
0
  0
BLOCK_RECORD
  5
1AA
330
1
100
AcDbSymbolTableRecord
100
AcDbBlockTableRecord
  2
*D6
340
0
  0
BLOCK_RECORD
  5
19D
330
1
100
AcDbSymbolTableRecord
100
AcDbBlockTableRecord
  2
*D7
340
0
  0
BLOCK_RECORD
  5
18E
330
1
100
AcDbSymbolTableRecord
100
AcDbBlockTableRecord
  2
*D8
340
0
  0
BLOCK_RECORD
  5
181
330
1
100
AcDbSymbolTableRecord
100
AcDbBlockTableRecord
  2
*D9
340
0
  0
BLOCK_RECORD
  5
173
330
1
100
AcDbSymbolTableRecord
100
AcDbBlockTableRecord
  2
*D10
340
0
  0
BLOCK_RECORD
  5
166
330
1
100
AcDbSymbolTableRecord
100
AcDbBlockTableRecord
  2
*D11
340
0
  0
BLOCK_RECORD
  5
159
330
1
100
AcDbSymbolTableRecord
100
AcDbBlockTableRecord
  2
*D12
340
0
  0
BLOCK_RECORD
  5
14C
330
1
100
AcDbSymbolTableRecord
100
AcDbBlockTableRecord
  2
*D13
340
0
  0
BLOCK_RECORD
  5
137
330
1
100
AcDbSymbolTableRecord
100
AcDbBlockTableRecord
  2
*D14
340
0
  0
BLOCK_RECORD
  5
12A
330
1
100
AcDbSymbolTableRecord
100
AcDbBlockTableRecord
  2
*D15
340
0
  0
BLOCK_RECORD
  5
11C
330
1
100
AcDbSymbolTableRecord
100
AcDbBlockTableRecord
  2
*D16
340
0
  0
BLOCK_RECORD
  5
B8
330
1
100
AcDbSymbolTableRecord
100
AcDbBlockTableRecord
  2
*D17
340
0
  0
BLOCK_RECORD
  5
A9
330
1
100
AcDbSymbolTableRecord
100
AcDbBlockTableRecord
  2
*D18
340
0
  0
BLOCK_RECORD
  5
9C
330
1
100
AcDbSymbolTableRecord
100
AcDbBlockTableRecord
  2
*D19
340
0
  0
BLOCK_RECORD
  5
8E
330
1
100
AcDbSymbolTableRecord
100
AcDbBlockTableRecord
  2
*D20
340
0
  0
BLOCK_RECORD
  5
2AD
330
1
100
AcDbSymbolTableRecord
100
AcDbBlockTableRecord
  2
_ACMFILLED30
340
0
  0
BLOCK_RECORD
  5
6C
330
1
100
AcDbSymbolTableRecord
100
AcDbBlockTableRecord
  2
*D22
340
0
  0
ENDTAB
  0
ENDSEC
  0
SECTION
  2
BLOCKS
  0
BLOCK
  5
6
330
2
100
AcDbEntity
  8
0
100
AcDbBlockBegin
  2
*MODEL_SPACE
 70
     0
 10
0.0
 20
0.0
 30
0.0
  3
*MODEL_SPACE
  1

  0
ENDBLK
  5
7
330
2
100
AcDbEntity
  8
0
100
AcDbBlockEnd
  0
BLOCK
  5
D
330
C
100
AcDbEntity
 67
     1
  8
0
100
AcDbBlockBegin
  2
*PAPER_SPACE
 70
     0
 10
0.0
 20
0.0
 30
0.0
  3
*PAPER_SPACE
  1

  0
ENDBLK
  5
E
330
C
100
AcDbEntity
 67
     1
  8
0
100
AcDbBlockEnd
  0
BLOCK
  5
2CB
330
2CA
100
AcDbEntity
  8
0
100
AcDbBlockBegin
  2
GENAXEH
 70
     0
 10
0.0
 20
0.0
 30
0.0
  3
GENAXEH
  1

  0
LINE
  5
2CC
330
2CA
100
AcDbEntity
  8
0
100
AcDbLine
 10
-1.0
 20
0.0
 30
0.0
 11
1.0
 21
0.0
 31
0.0
  0
ENDBLK
  5
2CD
330
2CA
100
AcDbEntity
  8
0
100
AcDbBlockEnd
  0
BLOCK
  5
1ED
330
1EC
100
AcDbEntity
  8
0
100
AcDbBlockBegin
  2
*D1
 70
     1
 10
0.0
 20
0.0
 30
0.0
  3
*D1
  1

  0
LINE
  5
1EE
330
1EC
100
AcDbEntity
  8
BEMASSUNG
  6
Continuous
 62
     2
370
    -2
100
AcDbLine
 10
-233.5581550453716
 20
422.2658889910595
 30
0.0
 11
-243.3081550453715
 21
422.2658889910595
 31
0.0
  0
LINE
  5
1EF
330
1EC
100
AcDbEntity
  8
BEMASSUNG
  6
Continuous
 62
     2
370
    -2
100
AcDbLine
 10
-220.3081550453716
 20
410.2658889910596
 30
0.0
 11
-243.3081550453715
 21
410.2658889910596
 31
0.0
  0
LINE
  5
1F0
330
1EC
100
AcDbEntity
  8
BEMASSUNG
  6
Continuous
 62
     2
370
    -2
100
AcDbLine
 10
-242.3081550453715
 20
418.2658889910596
 30
0.0
 11
-242.3081550453715
 21
414.2658889910596
 31
0.0
  0
MTEXT
  5
1F1
330
1EC
100
AcDbEntity
  8
BEMASSUNG
  6
Continuous
 62
     3
100
AcDbMText
 10
-246.1924181074031
 20
416.0829812214585
 30
0.0
 40
4.349999999999998
 41
0.0
 71
     5
 72
     1
  1
\A1;12
  7
ARIAL-STANDARD
 11
0.0000000000000001
 21
1.0
 31
0.0
 73
     1
 44
1.0
1001
ACAD
1000
MTEXTBEGIN
1070
    73
1070
     1
1070
    44
1040
1.0
1070
    74
1070
     0
1000
MTEXTEND
  0
SOLID
  5
1F2
330
1EC
100
AcDbEntity
  8
BEMASSUNG
  6
Continuous
 62
     2
100
AcDbTrace
 10
-242.9748217120382
 20
418.2658889910596
 30
0.0
 11
-241.6414883787048
 21
418.2658889910596
 31
0.0
 12
-242.3081550453715
 22
422.2658889910595
 32
0.0
 13
-242.3081550453715
 23
422.2658889910595
 33
0.0
  0
SOLID
  5
1F3
330
1EC
100
AcDbEntity
  8
BEMASSUNG
  6
Continuous
 62
     2
100
AcDbTrace
 10
-242.9748217120382
 20
414.2658889910596
 30
0.0
 11
-241.6414883787048
 21
414.2658889910596
 31
0.0
 12
-242.3081550453715
 22
410.2658889910596
 32
0.0
 13
-242.3081550453715
 23
410.2658889910596
 33
0.0
  0
POINT
  5
1F4
330
1EC
100
AcDbEntity
  8
DEFPOINTS
  6
Continuous
 62
     0
100
AcDbPoint
 10
-233.5581550453716
 20
422.2658889910595
 30
0.0
  0
POINT
  5
1F5
330
1EC
100
AcDbEntity
  8
DEFPOINTS
  6
Continuous
 62
     0
100
AcDbPoint
 10
-220.3081550453716
 20
410.2658889910596
 30
0.0
  0
POINT
  5
1F6
330
1EC
100
AcDbEntity
  8
DEFPOINTS
  6
Continuous
 62
     0
100
AcDbPoint
 10
-242.3081550453715
 20
410.2658889910596
 30
0.0
  0
ENDBLK
  5
1F7
330
1EC
100
AcDbEntity
  8
0
100
AcDbBlockEnd
  0
BLOCK
  5
1E0
330
1DF
100
AcDbEntity
  8
0
100
AcDbBlockBegin
  2
*D2
 70
     1
 10
0.0
 20
0.0
 30
0.0
  3
*D2
  1

  0
LINE
  5
1E1
330
1DF
100
AcDbEntity
  8
BEMASSUNG
  6
Continuous
 62
     2
370
    -2
100
AcDbLine
 10
-225.9081550453717
 20
542.2658889910596
 30
0.0
 11
-244.2477456891666
 21
542.2658889910596
 31
0.0
  0
LINE
  5
1E2
330
1DF
100
AcDbEntity
  8
BEMASSUNG
  6
Continuous
 62
     2
370
    -2
100
AcDbLine
 10
-225.9081550453717
 20
586.2658889910597
 30
0.0
 11
-244.2477456891666
 21
586.2658889910597
 31
0.0
  0
LINE
  5
1E3
330
1DF
100
AcDbEntity
  8
BEMASSUNG
  6
Continuous
 62
     2
370
    -2
100
AcDbLine
 10
-243.2477456891666
 20
546.2658889910597
 30
0.0
 11
-243.2477456891665
 21
582.2658889910597
 31
0.0
  0
MTEXT
  5
1E4
330
1DF
100
AcDbEntity
  8
BEMASSUNG
  6
Continuous
 62
     3
100
AcDbMText
 10
-246.653838344464
 20
563.9382076244885
 30
0.0
 40
4.349999999999998
 41
0.0
 71
     5
 72
     1
  1
\A1;44
  7
ARIAL-STANDARD
 11
0.0000000000000001
 21
1.0
 31
0.0
 73
     1
 44
1.0
1001
ACAD
1000
MTEXTBEGIN
1070
    73
1070
     1
1070
    44
1040
1.0
1070
    74
1070
     0
1000
MTEXTEND
  0
SOLID
  5
1E5
330
1DF
100
AcDbEntity
  8
BEMASSUNG
  6
Continuous
 62
     2
100
AcDbTrace
 10
-243.9144123558332
 20
546.2658889910597
 30
0.0
 11
-242.5810790224999
 21
546.2658889910597
 31
0.0
 12
-243.2477456891666
 22
542.2658889910596
 32
0.0
 13
-243.2477456891666
 23
542.2658889910596
 33
0.0
  0
SOLID
  5
1E6
330
1DF
100
AcDbEntity
  8
BEMASSUNG
  6
Continuous
 62
     2
100
AcDbTrace
 10
-243.9144123558332
 20
582.2658889910597
 30
0.0
 11
-242.5810790224999
 21
582.2658889910597
 31
0.0
 12
-243.2477456891665
 22
586.2658889910597
 32
0.0
 13
-243.2477456891665
 23
586.2658889910597
 33
0.0
  0
POINT
  5
1E7
330
1DF
100
AcDbEntity
  8
DEFPOINTS
  6
Continuous
 62
     0
100
AcDbPoint
 10
-225.9081550453717
 20
542.2658889910596
 30
0.0
  0
POINT
  5
1E8
330
1DF
100
AcDbEntity
  8
DEFPOINTS
  6
Continuous
 62
     0
100
AcDbPoint
 10
-225.9081550453717
 20
586.2658889910597
 30
0.0
  0
POINT
  5
1E9
330
1DF
100
AcDbEntity
  8
DEFPOINTS
  6
Continuous
 62
     0
100
AcDbPoint
 10
-243.2477456891665
 20
586.2658889910597
 30
0.0
  0
ENDBLK
  5
1EA
330
1DF
100
AcDbEntity
  8
0
100
AcDbBlockEnd
  0
BLOCK
  5
1D3
330
1D2
100
AcDbEntity
  8
0
100
AcDbBlockBegin
  2
*D3
 70
     1
 10
0.0
 20
0.0
 30
0.0
  3
*D3
  1

  0
LINE
  5
1D4
330
1D2
100
AcDbEntity
  8
BEMASSUNG
  6
Continuous
 62
     2
370
    -2
100
AcDbLine
 10
-220.3081550453716
 20
410.2658889910596
 30
0.0
 11
-273.9821349290742
 21
410.2658889910596
 31
0.0
  0
LINE
  5
1D5
330
1D2
100
AcDbEntity
  8
BEMASSUNG
  6
Continuous
 62
     2
370
    -2
100
AcDbLine
 10
-220.3081550453717
 20
640.2658889910597
 30
0.0
 11
-273.9821349290742
 21
640.2658889910597
 31
0.0
  0
LINE
  5
1D6
330
1D2
100
AcDbEntity
  8
BEMASSUNG
  6
Continuous
 62
     2
370
    -2
100
AcDbLine
 10
-272.9821349290741
 20
414.2658889910596
 30
0.0
 11
-272.9821349290741
 21
636.2658889910597
 31
0.0
  0
MTEXT
  5
1D7
330
1D2
100
AcDbEntity
  8
BEMASSUNG
  6
Continuous
 62
     3
100
AcDbMText
 10
-277.9429724988504
 20
524.6079240932023
 30
0.0
 40
4.349999999999998
 41
0.0
 71
     5
 72
     1
  1
\A1;230
  7
ARIAL-STANDARD
 11
0.0000000000000001
 21
1.0
 31
0.0
 73
     1
 44
1.0
1001
ACAD
1000
MTEXTBEGIN
1070
    73
1070
     1
1070
    44
1040
1.0
1070
    74
1070
     0
1000
MTEXTEND
  0
SOLID
  5
1D8
330
1D2
100
AcDbEntity
  8
BEMASSUNG
  6
Continuous
 62
     2
100
AcDbTrace
 10
-273.6488015957409
 20
414.2658889910596
 30
0.0
 11
-272.3154682624076
 21
414.2658889910596
 31
0.0
 12
-272.9821349290741
 22
410.2658889910596
 32
0.0
 13
-272.9821349290741
 23
410.2658889910596
 33
0.0
  0
SOLID
  5
1D9
330
1D2
100
AcDbEntity
  8
BEMASSUNG
  6
Continuous
 62
     2
100
AcDbTrace
 10
-273.6488015957409
 20
636.2658889910597
 30
0.0
 11
-272.3154682624076
 21
636.2658889910597
 31
0.0
 12
-272.9821349290741
 22
640.2658889910597
 32
0.0
 13
-272.9821349290741
 23
640.2658889910597
 33
0.0
  0
POINT
  5
1DA
330
1D2
100
AcDbEntity
  8
DEFPOINTS
  6
Continuous
 62
     0
100
AcDbPoint
 10
-220.3081550453716
 20
410.2658889910596
 30
0.0
  0
POINT
  5
1DB
330
1D2
100
AcDbEntity
  8
DEFPOINTS
  6
Continuous
 62
     0
100
AcDbPoint
 10
-220.3081550453717
 20
640.2658889910597
 30
0.0
  0
POINT
  5
1DC
330
1D2
100
AcDbEntity
  8
DEFPOINTS
  6
Continuous
 62
     0
100
AcDbPoint
 10
-272.9821349290741
 20
640.2658889910597
 30
0.0
  0
ENDBLK
  5
1DD
330
1D2
100
AcDbEntity
  8
0
100
AcDbBlockEnd
  0
BLOCK
  5
1C5
330
1C4
100
AcDbEntity
  8
0
100
AcDbBlockBegin
  2
*D4
 70
     1
 10
0.0
 20
0.0
 30
0.0
  3
*D4
  1

  0
LINE
  5
1C6
330
1C4
100
AcDbEntity
  8
BEMASSUNG
  6
Continuous
 62
     2
370
    -2
100
AcDbLine
 10
-181.3081550453716
 20
610.2658889910596
 30
0.0
 11
-150.3081550453716
 21
610.2658889910596
 31
0.0
  0
LINE
  5
1C7
330
1C4
100
AcDbEntity
  8
BEMASSUNG
  6
Continuous
 62
     2
370
    -2
100
AcDbLine
 10
-181.3081550453716
 20
440.2658889910596
 30
0.0
 11
-150.3081550453716
 21
440.2658889910596
 31
0.0
  0
LINE
  5
1C8
330
1C4
100
AcDbEntity
  8
BEMASSUNG
  6
Continuous
 62
     2
370
    -2
100
AcDbLine
 10
-151.3081550453716
 20
606.2658889910596
 30
0.0
 11
-151.3081550453716
 21
444.2658889910596
 31
0.0
  0
MTEXT
  5
1C9
330
1C4
100
AcDbEntity
  8
BEMASSUNG
  6
Continuous
 62
     3
100
AcDbMText
 10
-155.9261435596713
 20
529.7140013245718
 30
0.0
 40
4.349999999999998
 41
0.0
 71
     5
 72
     1
  1
\A1;170
  7
ARIAL-STANDARD
 11
0.0000000000000001
 21
1.0
 31
0.0
 73
     1
 44
1.0
1001
ACAD
1000
MTEXTBEGIN
1070
    73
1070
     1
1070
    44
1040
1.0
1070
    74
1070
     0
1000
MTEXTEND
  0
SOLID
  5
1CA
330
1C4
100
AcDbEntity
  8
BEMASSUNG
  6
Continuous
 62
     2
100
AcDbTrace
 10
-151.9748217120383
 20
606.2658889910596
 30
0.0
 11
-150.6414883787049
 21
606.2658889910596
 31
0.0
 12
-151.3081550453716
 22
610.2658889910596
 32
0.0
 13
-151.3081550453716
 23
610.2658889910596
 33
0.0
  0
SOLID
  5
1CB
330
1C4
100
AcDbEntity
  8
BEMASSUNG
  6
Continuous
 62
     2
100
AcDbTrace
 10
-151.9748217120383
 20
444.2658889910596
 30
0.0
 11
-150.641488378705
 21
444.2658889910596
 31
0.0
 12
-151.3081550453716
 22
440.2658889910596
 32
0.0
 13
-151.3081550453716
 23
440.2658889910596
 33
0.0
  0
POINT
  5
1CC
330
1C4
100
AcDbEntity
  8
DEFPOINTS
  6
Continuous
 62
     0
100
AcDbPoint
 10
-181.3081550453716
 20
610.2658889910596
 30
0.0
  0
POINT
  5
1CD
330
1C4
100
AcDbEntity
  8
DEFPOINTS
  6
Continuous
 62
     0
100
AcDbPoint
 10
-181.3081550453716
 20
440.2658889910596
 30
0.0
  0
POINT
  5
1CE
330
1C4
100
AcDbEntity
  8
DEFPOINTS
  6
Continuous
 62
     0
100
AcDbPoint
 10
-151.3081550453716
 20
440.2658889910596
 30
0.0
  0
ENDBLK
  5
1CF
330
1C4
100
AcDbEntity
  8
0
100
AcDbBlockEnd
  0
BLOCK
  5
1B8
330
1B7
100
AcDbEntity
  8
0
100
AcDbBlockBegin
  2
*D5
 70
     1
 10
0.0
 20
0.0
 30
0.0
  3
*D5
  1

  0
LINE
  5
1B9
330
1B7
100
AcDbEntity
  8
BEMASSUNG
  6
Continuous
 62
     2
370
    -2
100
AcDbLine
 10
-220.3081550453717
 20
640.2658889910597
 30
0.0
 11
-242.4081550453716
 21
640.2658889910597
 31
0.0
  0
LINE
  5
1BA
330
1B7
100
AcDbEntity
  8
BEMASSUNG
  6
Continuous
 62
     2
370
    -2
100
AcDbLine
 10
-225.0581550453717
 20
628.2658889910597
 30
0.0
 11
-242.4081550453716
 21
628.2658889910597
 31
0.0
  0
LINE
  5
1BB
330
1B7
100
AcDbEntity
  8
BEMASSUNG
  6
Continuous
 62
     2
370
    -2
100
AcDbLine
 10
-241.4081550453716
 20
636.2658889910597
 30
0.0
 11
-241.4081550453716
 21
632.2658889910597
 31
0.0
  0
MTEXT
  5
1BC
330
1B7
100
AcDbEntity
  8
BEMASSUNG
  6
Continuous
 62
     3
100
AcDbMText
 10
-245.5862295829366
 20
634.4502086853355
 30
0.0
 40
4.349999999999998
 41
0.0
 71
     5
 72
     1
  1
\A1;12
  7
ARIAL-STANDARD
 11
0.0000000000000001
 21
1.0
 31
0.0
 73
     1
 44
1.0
1001
ACAD
1000
MTEXTBEGIN
1070
    73
1070
     1
1070
    44
1040
1.0
1070
    74
1070
     0
1000
MTEXTEND
  0
SOLID
  5
1BD
330
1B7
100
AcDbEntity
  8
BEMASSUNG
  6
Continuous
 62
     2
100
AcDbTrace
 10
-242.0748217120383
 20
636.2658889910597
 30
0.0
 11
-240.7414883787049
 21
636.2658889910597
 31
0.0
 12
-241.4081550453716
 22
640.2658889910597
 32
0.0
 13
-241.4081550453716
 23
640.2658889910597
 33
0.0
  0
SOLID
  5
1BE
330
1B7
100
AcDbEntity
  8
BEMASSUNG
  6
Continuous
 62
     2
100
AcDbTrace
 10
-242.0748217120383
 20
632.2658889910597
 30
0.0
 11
-240.7414883787049
 21
632.2658889910597
 31
0.0
 12
-241.4081550453716
 22
628.2658889910597
 32
0.0
 13
-241.4081550453716
 23
628.2658889910597
 33
0.0
  0
POINT
  5
1BF
330
1B7
100
AcDbEntity
  8
DEFPOINTS
  6
Continuous
 62
     0
100
AcDbPoint
 10
-220.3081550453717
 20
640.2658889910597
 30
0.0
  0
POINT
  5
1C0
330
1B7
100
AcDbEntity
  8
DEFPOINTS
  6
Continuous
 62
     0
100
AcDbPoint
 10
-225.0581550453717
 20
628.2658889910597
 30
0.0
  0
POINT
  5
1C1
330
1B7
100
AcDbEntity
  8
DEFPOINTS
  6
Continuous
 62
     0
100
AcDbPoint
 10
-241.4081550453716
 20
628.2658889910597
 30
0.0
  0
ENDBLK
  5
1C2
330
1B7
100
AcDbEntity
  8
0
100
AcDbBlockEnd
  0
BLOCK
  5
1AB
330
1AA
100
AcDbEntity
  8
0
100
AcDbBlockBegin
  2
*D6
 70
     1
 10
0.0
 20
0.0
 30
0.0
  3
*D6
  1

  0
LINE
  5
1AC
330
1AA
100
AcDbEntity
  8
BEMASSUNG
  6
Continuous
 62
     2
370
    -2
100
AcDbLine
 10
-214.3939414829987
 20
588.2658889910596
 30
0.0
 11
-252.567953100414
 21
588.2658889910596
 31
0.0
  0
LINE
  5
1AD
330
1AA
100
AcDbEntity
  8
BEMASSUNG
  6
Continuous
 62
     2
370
    -2
100
AcDbLine
 10
-214.3939414829987
 20
540.2658889910598
 30
0.0
 11
-252.567953100414
 21
540.2658889910598
 31
0.0
  0
LINE
  5
1AE
330
1AA
100
AcDbEntity
  8
BEMASSUNG
  6
Continuous
 62
     2
370
    -2
100
AcDbLine
 10
-251.567953100414
 20
584.2658889910596
 30
0.0
 11
-251.567953100414
 21
544.2658889910598
 31
0.0
  0
MTEXT
  5
1AF
330
1AA
100
AcDbEntity
  8
BEMASSUNG
  6
Continuous
 62
     3
100
AcDbMText
 10
-256.2469946465094
 20
564.2658889910596
 30
0.0
 40
4.349999999999998
 41
0.0
 71
     5
 72
     1
  1
\A1;48
  7
ARIAL-STANDARD
 11
0.0000000000000001
 21
1.0
 31
0.0
 73
     1
 44
1.0
1001
ACAD
1000
MTEXTBEGIN
1070
    73
1070
     1
1070
    44
1040
1.0
1070
    74
1070
     0
1000
MTEXTEND
  0
SOLID
  5
1B0
330
1AA
100
AcDbEntity
  8
BEMASSUNG
  6
Continuous
 62
     2
100
AcDbTrace
 10
-252.2346197670807
 20
584.2658889910596
 30
0.0
 11
-250.9012864337473
 21
584.2658889910596
 31
0.0
 12
-251.567953100414
 22
588.2658889910596
 32
0.0
 13
-251.567953100414
 23
588.2658889910596
 33
0.0
  0
SOLID
  5
1B1
330
1AA
100
AcDbEntity
  8
BEMASSUNG
  6
Continuous
 62
     2
100
AcDbTrace
 10
-252.2346197670807
 20
544.2658889910598
 30
0.0
 11
-250.9012864337474
 21
544.2658889910598
 31
0.0
 12
-251.567953100414
 22
540.2658889910598
 32
0.0
 13
-251.567953100414
 23
540.2658889910598
 33
0.0
  0
POINT
  5
1B2
330
1AA
100
AcDbEntity
  8
DEFPOINTS
  6
Continuous
 62
     0
100
AcDbPoint
 10
-214.3939414829987
 20
588.2658889910596
 30
0.0
  0
POINT
  5
1B3
330
1AA
100
AcDbEntity
  8
DEFPOINTS
  6
Continuous
 62
     0
100
AcDbPoint
 10
-214.3939414829987
 20
540.2658889910598
 30
0.0
  0
POINT
  5
1B4
330
1AA
100
AcDbEntity
  8
DEFPOINTS
  6
Continuous
 62
     0
100
AcDbPoint
 10
-251.567953100414
 20
540.2658889910598
 30
0.0
  0
ENDBLK
  5
1B5
330
1AA
100
AcDbEntity
  8
0
100
AcDbBlockEnd
  0
BLOCK
  5
19E
330
19D
100
AcDbEntity
  8
0
100
AcDbBlockBegin
  2
*D7
 70
     1
 10
0.0
 20
0.0
 30
0.0
  3
*D7
  1

  0
LINE
  5
19F
330
19D
100
AcDbEntity
  8
BEMASSUNG
  6
Continuous
 62
     2
370
    -2
100
AcDbLine
 10
-232.3081550453716
 20
422.2658889910595
 30
0.0
 11
-232.3081550453716
 21
395.698908026042
 31
0.0
  0
LINE
  5
1A0
330
19D
100
AcDbEntity
  8
BEMASSUNG
  6
Continuous
 62
     2
370
    -2
100
AcDbLine
 10
-208.3081550453716
 20
422.2658889910595
 30
0.0
 11
-208.3081550453716
 21
395.698908026042
 31
0.0
  0
LINE
  5
1A1
330
19D
100
AcDbEntity
  8
BEMASSUNG
  6
Continuous
 62
     2
370
    -2
100
AcDbLine
 10
-228.3081550453716
 20
396.698908026042
 30
0.0
 11
-212.3081550453716
 21
396.698908026042
 31
0.0
  0
MTEXT
  5
1A2
330
19D
100
AcDbEntity
  8
BEMASSUNG
  6
Continuous
 62
     3
100
AcDbMText
 10
-219.9978259058021
 20
400.3722359072368
 30
0.0
 40
4.349999999999998
 41
0.0
 71
     5
 72
     1
  1
\A1;24
  7
ARIAL-STANDARD
 73
     1
 44
1.0
1001
ACAD
1000
MTEXTBEGIN
1070
    73
1070
     1
1070
    44
1040
1.0
1070
    74
1070
     0
1000
MTEXTEND
  0
SOLID
  5
1A3
330
19D
100
AcDbEntity
  8
BEMASSUNG
  6
Continuous
 62
     2
100
AcDbTrace
 10
-228.3081550453716
 20
397.3655746927087
 30
0.0
 11
-228.3081550453716
 21
396.0322413593753
 31
0.0
 12
-232.3081550453716
 22
396.698908026042
 32
0.0
 13
-232.3081550453716
 23
396.698908026042
 33
0.0
  0
SOLID
  5
1A4
330
19D
100
AcDbEntity
  8
BEMASSUNG
  6
Continuous
 62
     2
100
AcDbTrace
 10
-212.3081550453716
 20
397.3655746927087
 30
0.0
 11
-212.3081550453716
 21
396.0322413593753
 31
0.0
 12
-208.3081550453716
 22
396.698908026042
 32
0.0
 13
-208.3081550453716
 23
396.698908026042
 33
0.0
  0
POINT
  5
1A5
330
19D
100
AcDbEntity
  8
DEFPOINTS
  6
Continuous
 62
     0
100
AcDbPoint
 10
-232.3081550453716
 20
422.2658889910595
 30
0.0
  0
POINT
  5
1A6
330
19D
100
AcDbEntity
  8
DEFPOINTS
  6
Continuous
 62
     0
100
AcDbPoint
 10
-208.3081550453716
 20
422.2658889910595
 30
0.0
  0
POINT
  5
1A7
330
19D
100
AcDbEntity
  8
DEFPOINTS
  6
Continuous
 62
     0
100
AcDbPoint
 10
-208.3081550453716
 20
396.698908026042
 30
0.0
  0
ENDBLK
  5
1A8
330
19D
100
AcDbEntity
  8
0
100
AcDbBlockEnd
  0
BLOCK
  5
18F
330
18E
100
AcDbEntity
  8
0
100
AcDbBlockBegin
  2
*D8
 70
     1
 10
0.0
 20
0.0
 30
0.0
  3
*D8
  1

  0
LINE
  5
190
330
18E
100
AcDbEntity
  8
BEMASSUNG
  6
Continuous
 62
     2
370
    -2
100
AcDbLine
 10
-203.8081550453717
 20
567.3658889910597
 30
0.0
 11
-167.9556842926825
 21
567.3658889910597
 31
0.0
  0
LINE
  5
191
330
18E
100
AcDbEntity
  8
BEMASSUNG
  6
Continuous
 62
     2
370
    -2
100
AcDbLine
 10
-203.8081550453717
 20
561.1658889910597
 30
0.0
 11
-167.9556842926825
 21
561.1658889910597
 31
0.0
  0
LINE
  5
192
330
18E
100
AcDbEntity
  8
BEMASSUNG
  6
Continuous
 62
     2
370
    -2
100
AcDbLine
 10
-168.9556842926825
 20
571.3658889910597
 30
0.0
 11
-168.9556842926825
 21
575.3658889910597
 31
0.0
  0
LINE
  5
193
330
18E
100
AcDbEntity
  8
BEMASSUNG
  6
Continuous
 62
     2
370
    -2
100
AcDbLine
 10
-168.9556842926825
 20
557.1658889910596
 30
0.0
 11
-168.9556842926825
 21
553.1658889910596
 31
0.0
  0
MTEXT
  5
194
330
18E
100
AcDbEntity
  8
BEMASSUNG
  6
Continuous
 62
     3
100
AcDbMText
 10
-173.0424080192201
 20
552.767603674509
 30
0.0
 40
4.349999999999998
 41
0.0
 71
     5
 72
     1
  1
\A1;6.2
  7
ARIAL-STANDARD
 11
0.0000000000000001
 21
1.0
 31
0.0
 73
     1
 44
1.0
1001
ACAD
1000
MTEXTBEGIN
1070
    73
1070
     1
1070
    44
1040
1.0
1070
    74
1070
     0
1000
MTEXTEND
  0
LINE
  5
195
330
18E
100
AcDbEntity
  8
BEMASSUNG
  6
Continuous
 62
     2
370
    -2
100
AcDbLine
 10
-168.9556842926825
 20
567.3658889910597
 30
0.0
 11
-168.9556842926825
 21
561.1658889910597
 31
0.0
  0
SOLID
  5
196
330
18E
100
AcDbEntity
  8
BEMASSUNG
  6
Continuous
 62
     2
100
AcDbTrace
 10
-169.6223509593492
 20
571.3658889910597
 30
0.0
 11
-168.2890176260159
 21
571.3658889910597
 31
0.0
 12
-168.9556842926825
 22
567.3658889910597
 32
0.0
 13
-168.9556842926825
 23
567.3658889910597
 33
0.0
  0
SOLID
  5
197
330
18E
100
AcDbEntity
  8
BEMASSUNG
  6
Continuous
 62
     2
100
AcDbTrace
 10
-169.6223509593492
 20
557.1658889910596
 30
0.0
 11
-168.2890176260159
 21
557.1658889910596
 31
0.0
 12
-168.9556842926825
 22
561.1658889910597
 32
0.0
 13
-168.9556842926825
 23
561.1658889910597
 33
0.0
  0
POINT
  5
198
330
18E
100
AcDbEntity
  8
DEFPOINTS
  6
Continuous
 62
     0
100
AcDbPoint
 10
-203.8081550453717
 20
567.3658889910597
 30
0.0
  0
POINT
  5
199
330
18E
100
AcDbEntity
  8
DEFPOINTS
  6
Continuous
 62
     0
100
AcDbPoint
 10
-203.8081550453717
 20
561.1658889910597
 30
0.0
  0
POINT
  5
19A
330
18E
100
AcDbEntity
  8
DEFPOINTS
  6
Continuous
 62
     0
100
AcDbPoint
 10
-168.9556842926825
 20
561.1658889910597
 30
0.0
  0
ENDBLK
  5
19B
330
18E
100
AcDbEntity
  8
0
100
AcDbBlockEnd
  0
BLOCK
  5
182
330
181
100
AcDbEntity
  8
0
100
AcDbBlockBegin
  2
*D9
 70
     1
 10
0.0
 20
0.0
 30
0.0
  3
*D9
  1

  0
LINE
  5
183
330
181
100
AcDbEntity
  8
BEMASSUNG
  6
Continuous
 62
     2
370
    -2
100
AcDbLine
 10
-234.9466123625686
 20
564.2658889910596
 30
0.0
 11
-262.1517826858418
 21
564.2658889910596
 31
0.0
  0
LINE
  5
184
330
181
100
AcDbEntity
  8
BEMASSUNG
  6
Continuous
 62
     2
370
    -2
100
AcDbLine
 10
-220.3081550453717
 20
640.2658889910597
 30
0.0
 11
-262.1517826858417
 21
640.2658889910597
 31
0.0
  0
LINE
  5
185
330
181
100
AcDbEntity
  8
BEMASSUNG
  6
Continuous
 62
     2
370
    -2
100
AcDbLine
 10
-261.1517826858417
 20
568.2658889910596
 30
0.0
 11
-261.1517826858417
 21
636.2658889910597
 31
0.0
  0
MTEXT
  5
186
330
181
100
AcDbEntity
  8
BEMASSUNG
  6
Continuous
 62
     3
100
AcDbMText
 10
-265.549103649917
 20
597.0626491206201
 30
0.0
 40
4.349999999999998
 41
0.0
 71
     5
 72
     1
  1
\A1;76
  7
ARIAL-STANDARD
 11
0.0000000000000001
 21
1.0
 31
0.0
 73
     1
 44
1.0
1001
ACAD
1000
MTEXTBEGIN
1070
    73
1070
     1
1070
    44
1040
1.0
1070
    74
1070
     0
1000
MTEXTEND
  0
SOLID
  5
187
330
181
100
AcDbEntity
  8
BEMASSUNG
  6
Continuous
 62
     2
100
AcDbTrace
 10
-261.8184493525084
 20
568.2658889910596
 30
0.0
 11
-260.4851160191751
 21
568.2658889910596
 31
0.0
 12
-261.1517826858417
 22
564.2658889910596
 32
0.0
 13
-261.1517826858417
 23
564.2658889910596
 33
0.0
  0
SOLID
  5
188
330
181
100
AcDbEntity
  8
BEMASSUNG
  6
Continuous
 62
     2
100
AcDbTrace
 10
-261.8184493525084
 20
636.2658889910597
 30
0.0
 11
-260.4851160191751
 21
636.2658889910597
 31
0.0
 12
-261.1517826858417
 22
640.2658889910597
 32
0.0
 13
-261.1517826858417
 23
640.2658889910597
 33
0.0
  0
POINT
  5
189
330
181
100
AcDbEntity
  8
DEFPOINTS
  6
Continuous
 62
     0
100
AcDbPoint
 10
-234.9466123625686
 20
564.2658889910596
 30
0.0
  0
POINT
  5
18A
330
181
100
AcDbEntity
  8
DEFPOINTS
  6
Continuous
 62
     0
100
AcDbPoint
 10
-220.3081550453717
 20
640.2658889910597
 30
0.0
  0
POINT
  5
18B
330
181
100
AcDbEntity
  8
DEFPOINTS
  6
Continuous
 62
     0
100
AcDbPoint
 10
-261.1517826858417
 20
640.2658889910597
 30
0.0
  0
ENDBLK
  5
18C
330
181
100
AcDbEntity
  8
0
100
AcDbBlockEnd
  0
BLOCK
  5
174
330
173
100
AcDbEntity
  8
0
100
AcDbBlockBegin
  2
*D10
 70
     1
 10
0.0
 20
0.0
 30
0.0
  3
*D10
  1

  0
LINE
  5
175
330
173
100
AcDbEntity
  8
BEMASSUNG
  6
Continuous
 62
     2
370
    -2
100
AcDbLine
 10
-234.9466123625686
 20
564.2658889910596
 30
0.0
 11
-262.1517826858418
 21
564.2658889910596
 31
0.0
  0
LINE
  5
176
330
173
100
AcDbEntity
  8
BEMASSUNG
  6
Continuous
 62
     2
370
    -2
100
AcDbLine
 10
-241.2375691234688
 20
486.2658889910597
 30
0.0
 11
-262.1517826858418
 21
486.2658889910597
 31
0.0
  0
LINE
  5
177
330
173
100
AcDbEntity
  8
BEMASSUNG
  6
Continuous
 62
     2
370
    -2
100
AcDbLine
 10
-261.1517826858417
 20
560.2658889910598
 30
0.0
 11
-261.1517826858417
 21
490.2658889910596
 31
0.0
  0
MTEXT
  5
178
330
173
100
AcDbEntity
  8
BEMASSUNG
  6
Continuous
 62
     3
100
AcDbMText
 10
-264.5732184149051
 20
525.2904414178658
 30
0.0
 40
4.349999999999998
 41
0.0
 71
     5
 72
     1
  1
\A1;78
  7
ARIAL-STANDARD
 11
0.0000000000000001
 21
1.0
 31
0.0
 73
     1
 44
1.0
1001
ACAD
1000
MTEXTBEGIN
1070
    73
1070
     1
1070
    44
1040
1.0
1070
    74
1070
     0
1000
MTEXTEND
  0
SOLID
  5
179
330
173
100
AcDbEntity
  8
BEMASSUNG
  6
Continuous
 62
     2
100
AcDbTrace
 10
-261.8184493525084
 20
560.2658889910598
 30
0.0
 11
-260.4851160191751
 21
560.2658889910598
 31
0.0
 12
-261.1517826858417
 22
564.2658889910596
 32
0.0
 13
-261.1517826858417
 23
564.2658889910596
 33
0.0
  0
SOLID
  5
17A
330
173
100
AcDbEntity
  8
BEMASSUNG
  6
Continuous
 62
     2
100
AcDbTrace
 10
-261.8184493525084
 20
490.2658889910596
 30
0.0
 11
-260.4851160191751
 21
490.2658889910596
 31
0.0
 12
-261.1517826858417
 22
486.2658889910597
 32
0.0
 13
-261.1517826858417
 23
486.2658889910597
 33
0.0
  0
POINT
  5
17B
330
173
100
AcDbEntity
  8
DEFPOINTS
  6
Continuous
 62
     0
100
AcDbPoint
 10
-234.9466123625686
 20
564.2658889910596
 30
0.0
  0
POINT
  5
17C
330
173
100
AcDbEntity
  8
DEFPOINTS
  6
Continuous
 62
     0
100
AcDbPoint
 10
-241.2375691234688
 20
486.2658889910597
 30
0.0
  0
POINT
  5
17D
330
173
100
AcDbEntity
  8
DEFPOINTS
  6
Continuous
 62
     0
100
AcDbPoint
 10
-261.1517826858417
 20
486.2658889910597
 30
0.0
  0
ENDBLK
  5
17E
330
173
100
AcDbEntity
  8
0
100
AcDbBlockEnd
  0
BLOCK
  5
167
330
166
100
AcDbEntity
  8
0
100
AcDbBlockBegin
  2
*D11
 70
     1
 10
0.0
 20
0.0
 30
0.0
  3
*D11
  1

  0
LINE
  5
168
330
166
100
AcDbEntity
  8
BEMASSUNG
  6
Continuous
 62
     2
370
    -2
100
AcDbLine
 10
-241.2375691234688
 20
486.2658889910597
 30
0.0
 11
-262.1517826858417
 21
486.2658889910597
 31
0.0
  0
LINE
  5
169
330
166
100
AcDbEntity
  8
BEMASSUNG
  6
Continuous
 62
     2
370
    -2
100
AcDbLine
 10
-220.3081550453716
 20
410.2658889910596
 30
0.0
 11
-262.1517826858417
 21
410.2658889910596
 31
0.0
  0
LINE
  5
16A
330
166
100
AcDbEntity
  8
BEMASSUNG
  6
Continuous
 62
     2
370
    -2
100
AcDbLine
 10
-261.1517826858417
 20
482.2658889910597
 30
0.0
 11
-261.1517826858417
 21
414.2658889910596
 31
0.0
  0
MTEXT
  5
16B
330
166
100
AcDbEntity
  8
BEMASSUNG
  6
Continuous
 62
     3
100
AcDbMText
 10
-265.8405533376113
 20
447.6336511406231
 30
0.0
 40
4.349999999999998
 41
0.0
 71
     5
 72
     1
  1
\A1;76
  7
ARIAL-STANDARD
 11
0.0000000000000001
 21
1.0
 31
0.0
 73
     1
 44
1.0
1001
ACAD
1000
MTEXTBEGIN
1070
    73
1070
     1
1070
    44
1040
1.0
1070
    74
1070
     0
1000
MTEXTEND
  0
SOLID
  5
16C
330
166
100
AcDbEntity
  8
BEMASSUNG
  6
Continuous
 62
     2
100
AcDbTrace
 10
-261.8184493525084
 20
482.2658889910597
 30
0.0
 11
-260.485116019175
 21
482.2658889910597
 31
0.0
 12
-261.1517826858417
 22
486.2658889910597
 32
0.0
 13
-261.1517826858417
 23
486.2658889910597
 33
0.0
  0
SOLID
  5
16D
330
166
100
AcDbEntity
  8
BEMASSUNG
  6
Continuous
 62
     2
100
AcDbTrace
 10
-261.8184493525084
 20
414.2658889910596
 30
0.0
 11
-260.485116019175
 21
414.2658889910596
 31
0.0
 12
-261.1517826858417
 22
410.2658889910596
 32
0.0
 13
-261.1517826858417
 23
410.2658889910596
 33
0.0
  0
POINT
  5
16E
330
166
100
AcDbEntity
  8
DEFPOINTS
  6
Continuous
 62
     0
100
AcDbPoint
 10
-241.2375691234688
 20
486.2658889910597
 30
0.0
  0
POINT
  5
16F
330
166
100
AcDbEntity
  8
DEFPOINTS
  6
Continuous
 62
     0
100
AcDbPoint
 10
-220.3081550453716
 20
410.2658889910596
 30
0.0
  0
POINT
  5
170
330
166
100
AcDbEntity
  8
DEFPOINTS
  6
Continuous
 62
     0
100
AcDbPoint
 10
-261.1517826858417
 20
410.2658889910596
 30
0.0
  0
ENDBLK
  5
171
330
166
100
AcDbEntity
  8
0
100
AcDbBlockEnd
  0
BLOCK
  5
15A
330
159
100
AcDbEntity
  8
0
100
AcDbBlockBegin
  2
*D12
 70
     1
 10
0.0
 20
0.0
 30
0.0
  3
*D12
  1

  0
LINE
  5
15B
330
159
100
AcDbEntity
  8
BEMASSUNG
  6
Continuous
 62
     2
370
    -2
100
AcDbLine
 10
-181.3081550453716
 20
440.2658889910596
 30
0.0
 11
-150.3081550453716
 21
440.2658889910596
 31
0.0
  0
LINE
  5
15C
330
159
100
AcDbEntity
  8
BEMASSUNG
  6
Continuous
 62
     2
370
    -2
100
AcDbLine
 10
-220.3081550453716
 20
410.2658889910596
 30
0.0
 11
-150.3081550453716
 21
410.2658889910596
 31
0.0
  0
LINE
  5
15D
330
159
100
AcDbEntity
  8
BEMASSUNG
  6
Continuous
 62
     2
370
    -2
100
AcDbLine
 10
-151.3081550453716
 20
436.2658889910597
 30
0.0
 11
-151.3081550453716
 21
414.2658889910596
 31
0.0
  0
MTEXT
  5
15E
330
159
100
AcDbEntity
  8
BEMASSUNG
  6
Continuous
 62
     3
100
AcDbMText
 10
-155.649335186069
 20
425.1616589429834
 30
0.0
 40
4.349999999999998
 41
0.0
 71
     5
 72
     1
  1
\A1;30
  7
ARIAL-STANDARD
 11
0.0000000000000001
 21
1.0
 31
0.0
 73
     1
 44
1.0
1001
ACAD
1000
MTEXTBEGIN
1070
    73
1070
     1
1070
    44
1040
1.0
1070
    74
1070
     0
1000
MTEXTEND
  0
SOLID
  5
15F
330
159
100
AcDbEntity
  8
BEMASSUNG
  6
Continuous
 62
     2
100
AcDbTrace
 10
-151.9748217120383
 20
436.2658889910597
 30
0.0
 11
-150.641488378705
 21
436.2658889910597
 31
0.0
 12
-151.3081550453716
 22
440.2658889910596
 32
0.0
 13
-151.3081550453716
 23
440.2658889910596
 33
0.0
  0
SOLID
  5
160
330
159
100
AcDbEntity
  8
BEMASSUNG
  6
Continuous
 62
     2
100
AcDbTrace
 10
-151.9748217120383
 20
414.2658889910596
 30
0.0
 11
-150.641488378705
 21
414.2658889910596
 31
0.0
 12
-151.3081550453716
 22
410.2658889910596
 32
0.0
 13
-151.3081550453716
 23
410.2658889910596
 33
0.0
  0
POINT
  5
161
330
159
100
AcDbEntity
  8
DEFPOINTS
  6
Continuous
 62
     0
100
AcDbPoint
 10
-181.3081550453716
 20
440.2658889910596
 30
0.0
  0
POINT
  5
162
330
159
100
AcDbEntity
  8
DEFPOINTS
  6
Continuous
 62
     0
100
AcDbPoint
 10
-220.3081550453716
 20
410.2658889910596
 30
0.0
  0
POINT
  5
163
330
159
100
AcDbEntity
  8
DEFPOINTS
  6
Continuous
 62
     0
100
AcDbPoint
 10
-151.3081550453716
 20
410.2658889910596
 30
0.0
  0
ENDBLK
  5
164
330
159
100
AcDbEntity
  8
0
100
AcDbBlockEnd
  0
BLOCK
  5
14D
330
14C
100
AcDbEntity
  8
0
100
AcDbBlockBegin
  2
*D13
 70
     1
 10
0.0
 20
0.0
 30
0.0
  3
*D13
  1

  0
LINE
  5
14E
330
14C
100
AcDbEntity
  8
BEMASSUNG
  6
Continuous
 62
     2
370
    -2
100
AcDbLine
 10
-181.3081550453716
 20
610.2658889910596
 30
0.0
 11
-150.3081550453716
 21
610.2658889910596
 31
0.0
  0
LINE
  5
14F
330
14C
100
AcDbEntity
  8
BEMASSUNG
  6
Continuous
 62
     2
370
    -2
100
AcDbLine
 10
-220.3081550453717
 20
640.2658889910597
 30
0.0
 11
-150.3081550453716
 21
640.2658889910597
 31
0.0
  0
LINE
  5
150
330
14C
100
AcDbEntity
  8
BEMASSUNG
  6
Continuous
 62
     2
370
    -2
100
AcDbLine
 10
-151.3081550453716
 20
614.2658889910596
 30
0.0
 11
-151.3081550453716
 21
636.2658889910597
 31
0.0
  0
MTEXT
  5
151
330
14C
100
AcDbEntity
  8
BEMASSUNG
  6
Continuous
 62
     3
100
AcDbMText
 10
-155.3855373919609
 20
625.5787738088081
 30
0.0
 40
4.349999999999998
 41
0.0
 71
     5
 72
     1
  1
\A1;30
  7
ARIAL-STANDARD
 11
0.0000000000000001
 21
1.0
 31
0.0
 73
     1
 44
1.0
1001
ACAD
1000
MTEXTBEGIN
1070
    73
1070
     1
1070
    44
1040
1.0
1070
    74
1070
     0
1000
MTEXTEND
  0
SOLID
  5
152
330
14C
100
AcDbEntity
  8
BEMASSUNG
  6
Continuous
 62
     2
100
AcDbTrace
 10
-151.9748217120383
 20
614.2658889910596
 30
0.0
 11
-150.6414883787049
 21
614.2658889910596
 31
0.0
 12
-151.3081550453716
 22
610.2658889910596
 32
0.0
 13
-151.3081550453716
 23
610.2658889910596
 33
0.0
  0
SOLID
  5
153
330
14C
100
AcDbEntity
  8
BEMASSUNG
  6
Continuous
 62
     2
100
AcDbTrace
 10
-151.9748217120383
 20
636.2658889910597
 30
0.0
 11
-150.6414883787049
 21
636.2658889910597
 31
0.0
 12
-151.3081550453716
 22
640.2658889910597
 32
0.0
 13
-151.3081550453716
 23
640.2658889910597
 33
0.0
  0
POINT
  5
154
330
14C
100
AcDbEntity
  8
DEFPOINTS
  6
Continuous
 62
     0
100
AcDbPoint
 10
-181.3081550453716
 20
610.2658889910596
 30
0.0
  0
POINT
  5
155
330
14C
100
AcDbEntity
  8
DEFPOINTS
  6
Continuous
 62
     0
100
AcDbPoint
 10
-220.3081550453717
 20
640.2658889910597
 30
0.0
  0
POINT
  5
156
330
14C
100
AcDbEntity
  8
DEFPOINTS
  6
Continuous
 62
     0
100
AcDbPoint
 10
-151.3081550453716
 20
640.2658889910597
 30
0.0
  0
ENDBLK
  5
157
330
14C
100
AcDbEntity
  8
0
100
AcDbBlockEnd
  0
BLOCK
  5
138
330
137
100
AcDbEntity
  8
0
100
AcDbBlockBegin
  2
*D14
 70
     1
 10
0.0
 20
0.0
 30
0.0
  3
*D14
  1

  0
LINE
  5
139
330
137
100
AcDbEntity
  8
BEMASSUNG
  6
Continuous
 62
     2
370
    -2
100
AcDbLine
 10
-226.6081550453717
 20
575.7658889910596
 30
0.0
 11
-237.6081550453716
 21
575.7658889910596
 31
0.0
  0
LINE
  5
13A
330
137
100
AcDbEntity
  8
BEMASSUNG
  6
Continuous
 62
     2
370
    -2
100
AcDbLine
 10
-226.6081550453717
 20
552.7658889910596
 30
0.0
 11
-237.6081550453716
 21
552.7658889910596
 31
0.0
  0
LINE
  5
13B
330
137
100
AcDbEntity
  8
BEMASSUNG
  6
Continuous
 62
     2
370
    -2
100
AcDbLine
 10
-236.6081550453715
 20
571.7658889910596
 30
0.0
 11
-236.6081550453715
 21
556.7658889910596
 31
0.0
  0
MTEXT
  5
13C
330
137
100
AcDbEntity
  8
BEMASSUNG
  6
Continuous
 62
     3
100
AcDbMText
 10
-239.9407040604565
 20
564.2658889910596
 30
0.0
 40
4.349999999999998
 41
0.0
 71
     5
 72
     1
  1
\A1;23
  7
ARIAL-STANDARD
 11
0.0000000000000001
 21
1.0
 31
0.0
 73
     1
 44
1.0
1001
ACAD
1000
MTEXTBEGIN
1070
    73
1070
     1
1070
    44
1040
1.0
1070
    74
1070
     0
1000
MTEXTEND
  0
SOLID
  5
13D
330
137
100
AcDbEntity
  8
BEMASSUNG
  6
Continuous
 62
     2
100
AcDbTrace
 10
-237.2748217120382
 20
571.7658889910596
 30
0.0
 11
-235.9414883787049
 21
571.7658889910596
 31
0.0
 12
-236.6081550453715
 22
575.7658889910596
 32
0.0
 13
-236.6081550453715
 23
575.7658889910596
 33
0.0
  0
SOLID
  5
13E
330
137
100
AcDbEntity
  8
BEMASSUNG
  6
Continuous
 62
     2
100
AcDbTrace
 10
-237.2748217120382
 20
556.7658889910596
 30
0.0
 11
-235.9414883787049
 21
556.7658889910596
 31
0.0
 12
-236.6081550453715
 22
552.7658889910596
 32
0.0
 13
-236.6081550453715
 23
552.7658889910596
 33
0.0
  0
POINT
  5
13F
330
137
100
AcDbEntity
  8
DEFPOINTS
  6
Continuous
 62
     0
100
AcDbPoint
 10
-226.6081550453717
 20
575.7658889910596
 30
0.0
  0
POINT
  5
140
330
137
100
AcDbEntity
  8
DEFPOINTS
  6
Continuous
 62
     0
100
AcDbPoint
 10
-226.6081550453717
 20
552.7658889910596
 30
0.0
  0
POINT
  5
141
330
137
100
AcDbEntity
  8
DEFPOINTS
  6
Continuous
 62
     0
100
AcDbPoint
 10
-236.6081550453715
 20
552.7658889910596
 30
0.0
  0
ENDBLK
  5
142
330
137
100
AcDbEntity
  8
0
100
AcDbBlockEnd
  0
BLOCK
  5
12B
330
12A
100
AcDbEntity
  8
0
100
AcDbBlockBegin
  2
*D15
 70
     1
 10
0.0
 20
0.0
 30
0.0
  3
*D15
  1

  0
LINE
  5
12C
330
12A
100
AcDbEntity
  8
BEMASSUNG
  6
Continuous
 62
     2
370
    -2
100
AcDbLine
 10
-215.8081550453717
 20
590.5158889910596
 30
0.0
 11
-158.8081550453716
 21
590.5158889910596
 31
0.0
  0
LINE
  5
12D
330
12A
100
AcDbEntity
  8
BEMASSUNG
  6
Continuous
 62
     2
370
    -2
100
AcDbLine
 10
-215.8081550453716
 20
538.0158889910596
 30
0.0
 11
-158.8081550453716
 21
538.0158889910596
 31
0.0
  0
LINE
  5
12E
330
12A
100
AcDbEntity
  8
BEMASSUNG
  6
Continuous
 62
     2
370
    -2
100
AcDbLine
 10
-159.8081550453716
 20
586.5158889910596
 30
0.0
 11
-159.8081550453716
 21
542.0158889910596
 31
0.0
  0
MTEXT
  5
12F
330
12A
100
AcDbEntity
  8
BEMASSUNG
  6
Continuous
 62
     3
100
AcDbMText
 10
-164.0213360042371
 20
564.2658889910596
 30
0.0
 40
4.349999999999998
 41
0.0
 71
     5
 72
     1
  1
\A1;52.5
  7
ARIAL-STANDARD
 11
0.0000000000000001
 21
1.0
 31
0.0
 73
     1
 44
1.0
1001
ACAD
1000
MTEXTBEGIN
1070
    73
1070
     1
1070
    44
1040
1.0
1070
    74
1070
     0
1000
MTEXTEND
  0
SOLID
  5
130
330
12A
100
AcDbEntity
  8
BEMASSUNG
  6
Continuous
 62
     2
100
AcDbTrace
 10
-160.4748217120383
 20
586.5158889910596
 30
0.0
 11
-159.1414883787049
 21
586.5158889910596
 31
0.0
 12
-159.8081550453716
 22
590.5158889910596
 32
0.0
 13
-159.8081550453716
 23
590.5158889910596
 33
0.0
  0
SOLID
  5
131
330
12A
100
AcDbEntity
  8
BEMASSUNG
  6
Continuous
 62
     2
100
AcDbTrace
 10
-160.4748217120383
 20
542.0158889910596
 30
0.0
 11
-159.141488378705
 21
542.0158889910596
 31
0.0
 12
-159.8081550453716
 22
538.0158889910596
 32
0.0
 13
-159.8081550453716
 23
538.0158889910596
 33
0.0
  0
POINT
  5
132
330
12A
100
AcDbEntity
  8
DEFPOINTS
  6
Continuous
 62
     0
100
AcDbPoint
 10
-215.8081550453717
 20
590.5158889910596
 30
0.0
  0
POINT
  5
133
330
12A
100
AcDbEntity
  8
DEFPOINTS
  6
Continuous
 62
     0
100
AcDbPoint
 10
-215.8081550453716
 20
538.0158889910596
 30
0.0
  0
POINT
  5
134
330
12A
100
AcDbEntity
  8
DEFPOINTS
  6
Continuous
 62
     0
100
AcDbPoint
 10
-159.8081550453716
 20
538.0158889910596
 30
0.0
  0
ENDBLK
  5
135
330
12A
100
AcDbEntity
  8
0
100
AcDbBlockEnd
  0
BLOCK
  5
11D
330
11C
100
AcDbEntity
  8
0
100
AcDbBlockBegin
  2
*D16
 70
     1
 10
0.0
 20
0.0
 30
0.0
  3
*D16
  1

  0
LINE
  5
11E
330
11C
100
AcDbEntity
  8
BEMASSUNG
  6
Continuous
 62
     2
370
    -2
100
AcDbLine
 10
-203.8081550453717
 20
567.3658889910597
 30
0.0
 11
-203.8081550453717
 21
571.5375298455581
 31
0.0
  0
LINE
  5
11F
330
11C
100
AcDbEntity
  8
BEMASSUNG
  6
Continuous
 62
     2
370
    -2
100
AcDbLine
 10
-219.8081550453717
 20
586.0158889910596
 30
0.0
 11
-219.8081550453717
 21
569.5375298455582
 31
0.0
  0
LINE
  5
120
330
11C
100
AcDbEntity
  8
BEMASSUNG
  6
Continuous
 62
     2
370
    -2
100
AcDbLine
 10
-207.8081550453717
 20
570.5375298455582
 30
0.0
 11
-207.8987587288642
 21
570.5375298455582
 31
0.0
  0
LINE
  5
121
330
11C
100
AcDbEntity
  8
BEMASSUNG
  6
Continuous
 62
     2
370
    -2
100
AcDbLine
 10
-215.8081550453717
 20
570.5375298455582
 30
0.0
 11
-215.7175513618792
 21
570.5375298455582
 31
0.0
  0
MTEXT
  5
122
330
11C
100
AcDbEntity
  8
BEMASSUNG
  6
Continuous
 62
     3
100
AcDbMText
 10
-211.8081550453717
 20
570.5375298455582
 30
0.0
 40
4.349999999999998
 41
0.0
 71
     5
 72
     1
  1
\A1;16
  7
ARIAL-STANDARD
 73
     1
 44
1.0
1001
ACAD
1000
MTEXTBEGIN
1070
    73
1070
     1
1070
    44
1040
1.0
1070
    74
1070
     0
1000
MTEXTEND
  0
SOLID
  5
123
330
11C
100
AcDbEntity
  8
BEMASSUNG
  6
Continuous
 62
     2
100
AcDbTrace
 10
-207.8081550453717
 20
571.2041965122249
 30
0.0
 11
-207.8081550453717
 21
569.8708631788917
 31
0.0
 12
-203.8081550453717
 22
570.5375298455582
 32
0.0
 13
-203.8081550453717
 23
570.5375298455582
 33
0.0
  0
SOLID
  5
124
330
11C
100
AcDbEntity
  8
BEMASSUNG
  6
Continuous
 62
     2
100
AcDbTrace
 10
-215.8081550453717
 20
571.2041965122249
 30
0.0
 11
-215.8081550453717
 21
569.8708631788917
 31
0.0
 12
-219.8081550453717
 22
570.5375298455582
 32
0.0
 13
-219.8081550453717
 23
570.5375298455582
 33
0.0
  0
POINT
  5
125
330
11C
100
AcDbEntity
  8
DEFPOINTS
  6
Continuous
 62
     0
100
AcDbPoint
 10
-203.8081550453717
 20
567.3658889910597
 30
0.0
  0
POINT
  5
126
330
11C
100
AcDbEntity
  8
DEFPOINTS
  6
Continuous
 62
     0
100
AcDbPoint
 10
-219.8081550453717
 20
586.0158889910596
 30
0.0
  0
POINT
  5
127
330
11C
100
AcDbEntity
  8
DEFPOINTS
  6
Continuous
 62
     0
100
AcDbPoint
 10
-219.8081550453717
 20
570.5375298455582
 30
0.0
  0
ENDBLK
  5
128
330
11C
100
AcDbEntity
  8
0
100
AcDbBlockEnd
  0
BLOCK
  5
B9
330
B8
100
AcDbEntity
  8
0
100
AcDbBlockBegin
  2
*D17
 70
     1
 10
0.0
 20
0.0
 30
0.0
  3
*D17
  1

  0
LINE
  5
BA
330
B8
100
AcDbEntity
  8
BEMASSUNG
  6
Continuous
 62
     2
370
    -2
100
AcDbLine
 10
-219.8081550453717
 20
586.5158889910596
 30
0.0
 11
-219.8081550453717
 21
554.2412974468637
 31
0.0
  0
LINE
  5
BB
330
B8
100
AcDbEntity
  8
BEMASSUNG
  6
Continuous
 62
     2
370
    -2
100
AcDbLine
 10
-206.8081550453717
 20
555.3785968503673
 30
0.0
 11
-206.8081550453717
 21
554.2412974468637
 31
0.0
  0
LINE
  5
BC
330
B8
100
AcDbEntity
  8
BEMASSUNG
  6
Continuous
 62
     2
370
    -2
100
AcDbLine
 10
-215.8081550453717
 20
555.2412974468636
 30
0.0
 11
-210.8081550453718
 21
555.2412974468636
 31
0.0
  0
SOLID
  5
BD
330
B8
100
AcDbEntity
  8
BEMASSUNG
  6
Continuous
 62
     2
100
AcDbTrace
 10
-215.8081550453717
 20
555.9079641135301
 30
0.0
 11
-215.8081550453717
 21
554.5746307801968
 31
0.0
 12
-219.8081550453717
 22
555.2412974468636
 32
0.0
 13
-219.8081550453717
 23
555.2412974468636
 33
0.0
  0
SOLID
  5
BE
330
B8
100
AcDbEntity
  8
BEMASSUNG
  6
Continuous
 62
     2
100
AcDbTrace
 10
-210.8081550453718
 20
555.9079641135301
 30
0.0
 11
-210.8081550453718
 21
554.5746307801968
 31
0.0
 12
-206.8081550453717
 22
555.2412974468636
 32
0.0
 13
-206.8081550453717
 23
555.2412974468636
 33
0.0
  0
MTEXT
  5
BF
330
B8
100
AcDbEntity
  8
BEMASSUNG
  6
Continuous
 62
     3
100
AcDbMText
 10
-213.3081550453717
 20
558.4637735723751
 30
0.0
 40
4.349999999999998
 41
0.0
 71
     5
 72
     1
  1
\A1;13
  7
ARIAL-STANDARD
 73
     1
 44
1.0
1001
ACAD
1000
MTEXTBEGIN
1070
    73
1070
     1
1070
    44
1040
1.0
1070
    74
1070
     0
1000
MTEXTEND
  0
POINT
  5
C0
330
B8
100
AcDbEntity
  8
DEFPOINTS
  6
Continuous
 62
     0
100
AcDbPoint
 10
-219.8081550453717
 20
586.5158889910596
 30
0.0
  0
POINT
  5
C1
330
B8
100
AcDbEntity
  8
DEFPOINTS
  6
Continuous
 62
     0
100
AcDbPoint
 10
-206.8081550453717
 20
555.3785968503673
 30
0.0
  0
POINT
  5
C2
330
B8
100
AcDbEntity
  8
DEFPOINTS
  6
Continuous
 62
     0
100
AcDbPoint
 10
-206.8081550453717
 20
555.2412974468636
 30
0.0
  0
ENDBLK
  5
C3
330
B8
100
AcDbEntity
  8
0
100
AcDbBlockEnd
  0
BLOCK
  5
AA
330
A9
100
AcDbEntity
  8
0
100
AcDbBlockBegin
  2
*D18
 70
     1
 10
0.0
 20
0.0
 30
0.0
  3
*D18
  1

  0
LINE
  5
AB
330
A9
100
AcDbEntity
  8
BEMASSUNG
370
    -2
100
AcDbLine
 10
-232.3081550454148
 20
352.586209582965
 30
0.0
 11
-242.7795445650272
 21
352.586209582965
 31
0.0
  0
LINE
  5
AC
330
A9
100
AcDbEntity
  8
BEMASSUNG
370
    -2
100
AcDbLine
 10
-232.3081550454148
 20
349.586209582965
 30
0.0
 11
-242.7795445650272
 21
349.586209582965
 31
0.0
  0
LINE
  5
AD
330
A9
100
AcDbEntity
  8
BEMASSUNG
370
    -2
100
AcDbLine
 10
-242.2795445650272
 20
356.086209582965
 30
0.0
 11
-242.2795445650272
 21
359.5862095829648
 31
0.0
  0
LINE
  5
AE
330
A9
100
AcDbEntity
  8
BEMASSUNG
370
    -2
100
AcDbLine
 10
-242.2795445650272
 20
346.086209582965
 30
0.0
 11
-242.2795445650272
 21
342.5862095829649
 31
0.0
  0
LINE
  5
AF
330
A9
100
AcDbEntity
  8
BEMASSUNG
370
    -2
100
AcDbLine
 10
-242.2795445650272
 20
352.586209582965
 30
0.0
 11
-242.2795445650272
 21
349.586209582965
 31
0.0
  0
SOLID
  5
B0
330
A9
100
AcDbEntity
  8
BEMASSUNG
100
AcDbTrace
 10
-242.8628778983605
 20
356.086209582965
 30
0.0
 11
-241.6962112316939
 21
356.086209582965
 31
0.0
 12
-242.2795445650272
 22
352.586209582965
 32
0.0
 13
-242.2795445650272
 23
352.586209582965
 33
0.0
  0
SOLID
  5
B1
330
A9
100
AcDbEntity
  8
BEMASSUNG
100
AcDbTrace
 10
-242.8628778983605
 20
346.086209582965
 30
0.0
 11
-241.6962112316939
 21
346.086209582965
 31
0.0
 12
-242.2795445650272
 22
349.586209582965
 32
0.0
 13
-242.2795445650272
 23
349.586209582965
 33
0.0
  0
MTEXT
  5
B2
330
A9
100
AcDbEntity
  8
BEMASSUNG
 62
     3
100
AcDbMText
 10
-245.0677437464734
 20
351.0862095829649
 30
0.0
 40
3.5
 41
0.0
 71
     5
 72
     1
  1
\A1;3
  7
ARIAL-STANDARD
 11
0.0000000000000001
 21
1.0
 31
0.0
 73
     1
 44
1.0
1001
ACAD
1000
MTEXTBEGIN
1070
    73
1070
     1
1070
    44
1040
1.0
1070
    74
1070
     0
1000
MTEXTEND
  0
POINT
  5
B3
330
A9
100
AcDbEntity
  8
DEFPOINTS
 62
     0
100
AcDbPoint
 10
-232.3081550454148
 20
352.586209582965
 30
0.0
  0
POINT
  5
B4
330
A9
100
AcDbEntity
  8
DEFPOINTS
 62
     0
100
AcDbPoint
 10
-232.3081550454148
 20
349.586209582965
 30
0.0
  0
POINT
  5
B5
330
A9
100
AcDbEntity
  8
DEFPOINTS
 62
     0
100
AcDbPoint
 10
-242.2795445650272
 20
349.586209582965
 30
0.0
  0
ENDBLK
  5
B6
330
A9
100
AcDbEntity
  8
0
100
AcDbBlockEnd
  0
BLOCK
  5
9D
330
9C
100
AcDbEntity
  8
0
100
AcDbBlockBegin
  2
*D19
 70
     1
 10
0.0
 20
0.0
 30
0.0
  3
*D19
  1

  0
LINE
  5
9E
330
9C
100
AcDbEntity
  8
BEMASSUNG
  6
Continuous
 62
     2
370
    -2
100
AcDbLine
 10
-208.3081550453717
 20
611.2658889910597
 30
0.0
 11
-208.3081550453717
 21
608.0068558375493
 31
0.0
  0
LINE
  5
9F
330
9C
100
AcDbEntity
  8
BEMASSUNG
  6
Continuous
 62
     2
370
    -2
100
AcDbLine
 10
-219.8081550453717
 20
594.5158889910596
 30
0.0
 11
-219.8081550453717
 21
610.0068558375491
 31
0.0
  0
LINE
  5
A0
330
9C
100
AcDbEntity
  8
BEMASSUNG
  6
Continuous
 62
     2
370
    -2
100
AcDbLine
 10
-212.3081550453717
 20
609.0068558375492
 30
0.0
 11
-215.8081550453717
 21
609.0068558375492
 31
0.0
  0
MTEXT
  5
A1
330
9C
100
AcDbEntity
  8
BEMASSUNG
  6
Continuous
 62
     3
100
AcDbMText
 10
-214.0581550453717
 20
614.5378270650462
 30
0.0
 40
4.349999999999998
 41
0.0
 71
     5
 72
     1
  1
\A1;11.5
  7
ARIAL-STANDARD
 73
     1
 44
1.0
1001
ACAD
1000
MTEXTBEGIN
1070
    73
1070
     1
1070
    44
1040
1.0
1070
    74
1070
     0
1000
MTEXTEND
  0
SOLID
  5
A2
330
9C
100
AcDbEntity
  8
BEMASSUNG
  6
Continuous
 62
     2
100
AcDbTrace
 10
-212.3081550453717
 20
609.6735225042157
 30
0.0
 11
-212.3081550453717
 21
608.3401891708827
 31
0.0
 12
-208.3081550453717
 22
609.0068558375492
 32
0.0
 13
-208.3081550453717
 23
609.0068558375492
 33
0.0
  0
SOLID
  5
A3
330
9C
100
AcDbEntity
  8
BEMASSUNG
  6
Continuous
 62
     2
100
AcDbTrace
 10
-215.8081550453717
 20
609.6735225042157
 30
0.0
 11
-215.8081550453717
 21
608.3401891708827
 31
0.0
 12
-219.8081550453717
 22
609.0068558375492
 32
0.0
 13
-219.8081550453717
 23
609.0068558375492
 33
0.0
  0
POINT
  5
A4
330
9C
100
AcDbEntity
  8
DEFPOINTS
  6
Continuous
 62
     0
100
AcDbPoint
 10
-208.3081550453717
 20
611.2658889910597
 30
0.0
  0
POINT
  5
A5
330
9C
100
AcDbEntity
  8
DEFPOINTS
  6
Continuous
 62
     0
100
AcDbPoint
 10
-219.8081550453717
 20
594.5158889910596
 30
0.0
  0
POINT
  5
A6
330
9C
100
AcDbEntity
  8
DEFPOINTS
  6
Continuous
 62
     0
100
AcDbPoint
 10
-219.8081550453717
 20
609.0068558375492
 30
0.0
  0
ENDBLK
  5
A7
330
9C
100
AcDbEntity
  8
0
100
AcDbBlockEnd
  0
BLOCK
  5
8F
330
8E
100
AcDbEntity
  8
0
100
AcDbBlockBegin
  2
*D20
 70
     1
 10
0.0
 20
0.0
 30
0.0
  3
*D20
  1

  0
LINE
  5
90
330
8E
100
AcDbEntity
  8
BEMASSUNG
370
    -2
100
AcDbLine
 10
-232.3081550454148
 20
349.586209582965
 30
0.0
 11
-232.3081550454148
 21
333.6843477069476
 31
0.0
  0
LINE
  5
91
330
8E
100
AcDbEntity
  8
BEMASSUNG
370
    -2
100
AcDbLine
 10
-180.3081550454148
 20
349.586209582965
 30
0.0
 11
-180.3081550454148
 21
333.6843477069476
 31
0.0
  0
LINE
  5
92
330
8E
100
AcDbEntity
  8
BEMASSUNG
370
    -2
100
AcDbLine
 10
-228.8081550454148
 20
334.1843477069476
 30
0.0
 11
-183.8081550454148
 21
334.1843477069476
 31
0.0
  0
SOLID
  5
93
330
8E
100
AcDbEntity
  8
BEMASSUNG
100
AcDbTrace
 10
-228.8081550454148
 20
334.767681040281
 30
0.0
 11
-228.8081550454148
 21
333.6010143736143
 31
0.0
 12
-232.3081550454148
 22
334.1843477069476
 32
0.0
 13
-232.3081550454148
 23
334.1843477069476
 33
0.0
  0
SOLID
  5
94
330
8E
100
AcDbEntity
  8
BEMASSUNG
100
AcDbTrace
 10
-183.8081550454148
 20
334.767681040281
 30
0.0
 11
-183.8081550454148
 21
333.6010143736143
 31
0.0
 12
-180.3081550454148
 22
334.1843477069476
 32
0.0
 13
-180.3081550454148
 23
334.1843477069476
 33
0.0
  0
MTEXT
  5
95
330
8E
100
AcDbEntity
  8
BEMASSUNG
 62
     3
100
AcDbMText
 10
-206.3081550454148
 20
336.9713531639736
 30
0.0
 40
3.5
 41
0.0
 71
     5
 72
     1
  1
\A1;52
  7
ARIAL-STANDARD
 73
     1
 44
1.0
1001
ACAD
1000
MTEXTBEGIN
1070
    73
1070
     1
1070
    44
1040
1.0
1070
    74
1070
     0
1000
MTEXTEND
  0
POINT
  5
96
330
8E
100
AcDbEntity
  8
DEFPOINTS
 62
     0
100
AcDbPoint
 10
-232.3081550454148
 20
349.586209582965
 30
0.0
  0
POINT
  5
97
330
8E
100
AcDbEntity
  8
DEFPOINTS
 62
     0
100
AcDbPoint
 10
-180.3081550454148
 20
349.586209582965
 30
0.0
  0
POINT
  5
98
330
8E
100
AcDbEntity
  8
DEFPOINTS
 62
     0
100
AcDbPoint
 10
-180.3081550454148
 20
334.1843477069476
 30
0.0
  0
ENDBLK
  5
99
330
8E
100
AcDbEntity
  8
0
100
AcDbBlockEnd
  0
BLOCK
  5
2AE
330
2AD
100
AcDbEntity
  8
0
100
AcDbBlockBegin
  2
_ACMFILLED30
 70
     0
 10
0.0
 20
0.0
 30
0.0
  3
_ACMFILLED30
  1

  0
TRACE
  5
2AF
330
2AD
100
AcDbEntity
  8
0
 62
     0
100
AcDbTrace
 10
-1.0
 20
-0.26794919
 30
0.0
 11
-1.0
 21
0.26794919
 31
0.0
 12
0.0
 22
0.0
 32
0.0
 13
0.0
 23
0.0
 33
0.0
  0
ENDBLK
  5
2B0
330
2AD
100
AcDbEntity
  8
0
100
AcDbBlockEnd
  0
BLOCK
  5
6D
330
6C
100
AcDbEntity
  8
0
100
AcDbBlockBegin
  2
*D22
 70
     1
 10
0.0
 20
0.0
 30
0.0
  3
*D22
  1

  0
LINE
  5
6E
330
6C
100
AcDbEntity
  8
AM_5
 62
     2
370
    -2
100
AcDbLine
 10
-213.3081550453717
 20
584.2658889910596
 30
0.0
 11
-213.3081550453717
 21
597.5221230813692
 31
0.0
  0
LINE
  5
6F
330
6C
100
AcDbEntity
  8
AM_5
 62
     2
370
    -2
100
AcDbLine
 10
-208.3081550453717
 20
611.2658889910597
 30
0.0
 11
-208.3081550453717
 21
595.5221230813694
 31
0.0
  0
LINE
  5
70
330
6C
100
AcDbEntity
  8
AM_5
 62
     2
370
    -2
100
AcDbLine
 10
-204.3081550453717
 20
596.5221230813694
 30
0.0
 11
-200.3081550453717
 21
596.5221230813694
 31
0.0
  0
LINE
  5
71
330
6C
100
AcDbEntity
  8
AM_5
 62
     2
370
    -2
100
AcDbLine
 10
-217.3081550453717
 20
596.5221230813694
 30
0.0
 11
-227.1784921044157
 21
596.5221230813694
 31
0.0
  0
LINE
  5
72
330
6C
100
AcDbEntity
  8
AM_5
 62
     2
370
    -2
100
AcDbLine
 10
-208.3081550453717
 20
596.5221230813694
 30
0.0
 11
-213.3081550453717
 21
596.5221230813694
 31
0.0
  0
SOLID
  5
73
330
6C
100
AcDbEntity
  8
AM_5
 62
     2
100
AcDbTrace
 10
-204.3081550453717
 20
597.1887897480359
 30
0.0
 11
-204.3081550453717
 21
595.8554564147028
 31
0.0
 12
-208.3081550453717
 22
596.5221230813694
 32
0.0
 13
-208.3081550453717
 23
596.5221230813694
 33
0.0
  0
SOLID
  5
74
330
6C
100
AcDbEntity
  8
AM_5
 62
     2
100
AcDbTrace
 10
-217.3081550453717
 20
597.1887897480359
 30
0.0
 11
-217.3081550453717
 21
595.8554564147028
 31
0.0
 12
-213.3081550453717
 22
596.5221230813694
 32
0.0
 13
-213.3081550453717
 23
596.5221230813694
 33
0.0
  0
MTEXT
  5
75
330
6C
100
AcDbEntity
  8
AM_5
 62
     3
100
AcDbMText
 10
-224.7364047920009
 20
599.7342138044253
 30
0.0
 40
4.349999999999998
 41
0.0
 71
     5
 72
     1
  1
\A1;5
  7
ARIAL-STANDARD
 73
     1
 44
1.0
1001
ACAD
1000
MTEXTBEGIN
1070
    73
1070
     1
1070
    44
1040
1.0
1070
    74
1070
     0
1000
MTEXTEND
  0
POINT
  5
76
330
6C
100
AcDbEntity
  8
DEFPOINTS
 62
     0
100
AcDbPoint
 10
-213.3081550453717
 20
584.2658889910596
 30
0.0
  0
POINT
  5
78
330
6C
100
AcDbEntity
  8
DEFPOINTS
 62
     0
100
AcDbPoint
 10
-208.3081550453717
 20
611.2658889910597
 30
0.0
  0
POINT
  5
79
330
6C
100
AcDbEntity
  8
DEFPOINTS
 62
     0
100
AcDbPoint
 10
-208.3081550453717
 20
596.5221230813694
 30
0.0
  0
ENDBLK
  5
7A
330
6C
100
AcDbEntity
  8
0
100
AcDbBlockEnd
  0
ENDSEC
  0
SECTION
  2
ENTITIES
  0
LINE
  5
68
330
2
100
AcDbEntity
  8
0
100
AcDbLine
 10
-225.8081550453717
 20
564.2658889910596
 30
0.0
 11
-203.8081550453717
 21
564.2658889910596
 31
0.0
  0
DIMENSION
  5
69
330
2
100
AcDbEntity
  8
AM_5
100
AcDbDimension
  2
*D22
 10
-208.3081550453717
 20
596.5221230813694
 30
0.0
 11
-224.7364047920009
 21
596.5221230813694
 31
0.0
 70
   128
 71
     5
 42
5.0
  3
Katalog 09$0
100
AcDbAlignedDimension
 13
-213.3081550453717
 23
584.2658889910596
 33
0.0
 14
-208.3081550453717
 24
611.2658889910597
 34
0.0
100
AcDbRotatedDimension
1001
ACAD_DSTYLE_DIMINSPECT
1070
   396
1000
100%
1070
   395
1000

1070
   394
1070
    33
1070
   393
1070
     0
  0
LINE
  5
7D
330
2
100
AcDbEntity
  8
Verdeckte Kanten(MSL)
100
AcDbLine
 10
-209.3081550453717
 20
544.2658889910593
 30
0.0
 11
-213.3081550453717
 21
544.2658889910596
 31
0.0
  0
LINE
  5
7F
330
2
100
AcDbEntity
  8
Verdeckte Kanten(MSL)
100
AcDbLine
 10
-213.3081550453717
 20
584.2658889910596
 30
0.0
 11
-209.3081550453717
 21
584.2658889910593
 31
0.0
  0
LINE
  5
80
330
2
100
AcDbEntity
  8
Verdeckte Kanten(MSL)
100
AcDbLine
 10
-209.3081550453717
 20
584.2658889910593
 30
0.0
 11
-209.3081550453717
 21
544.2658889910593
 31
0.0
  0
LINE
  5
81
330
2
100
AcDbEntity
  8
Verdeckte Kanten(MSL)
100
AcDbLine
 10
-213.3081550453717
 20
584.2658889910596
 30
0.0
 11
-213.3081550453717
 21
544.2658889910596
 31
0.0
  0
LINE
  5
82
102
{ACAD_REACTORS
330
2DB
102
}
330
2
100
AcDbEntity
  8
ACHSEN
100
AcDbLine
 10
-220.3081550453724
 20
635.5158889910597
 30
0.0
 11
-220.3081550453724
 21
621.0158889910596
 31
0.0
  0
LINE
  5
87
102
{ACAD_REACTORS
330
2E7
102
}
330
2
100
AcDbEntity
  8
ACHSEN
100
AcDbLine
 10
-213.0581550453723
 20
628.2658889910597
 30
0.0
 11
-227.5581550453723
 21
628.2658889910597
 31
0.0
  0
LINE
  5
88
102
{ACAD_REACTORS
330
2D5
102
}
330
2
100
AcDbEntity
  8
ACHSEN
100
AcDbLine
 10
-220.3081550453722
 20
429.5158889910596
 30
0.0
 11
-220.3081550453722
 21
415.0158889910597
 31
0.0
  0
LINE
  5
89
102
{ACAD_REACTORS
330
2D6
102
}
330
2
100
AcDbEntity
  8
ACHSEN
100
AcDbLine
 10
-213.0581550453722
 20
422.2658889910595
 30
0.0
 11
-227.5581550453722
 21
422.2658889910595
 31
0.0
  0
DIMENSION
  5
8A
330
2
100
AcDbEntity
  8
BEMASSUNG
100
AcDbDimension
  2
*D20
 10
-180.3081550454148
 20
334.1843477069476
 30
0.0
 11
-206.3081550454148
 21
336.9713531639736
 31
0.0
 71
     5
 42
51.99999999999988
  3
NORMAL
100
AcDbAlignedDimension
 13
-232.3081550454148
 23
349.586209582965
 33
0.0
 14
-180.3081550454148
 24
349.586209582965
 34
0.0
100
AcDbRotatedDimension
  0
LINE
  5
9A
102
{ACAD_REACTORS
330
2DC
102
}
330
2
100
AcDbEntity
  8
ACHSEN
100
AcDbLine
 10
-220.3081550454148
 20
356.9633915001964
 30
0.0
 11
-220.3081550454148
 21
346.8734150110056
 31
0.0
  0
DIMENSION
  5
9B
330
2
100
AcDbEntity
  8
BEMASSUNG
  6
Continuous
100
AcDbDimension
  2
*D19
 10
-219.8081550453717
 20
609.0068558375492
 30
0.0
 11
-214.0581550453717
 21
614.5378270650462
 31
0.0
 70
   128
 71
     5
 42
11.5
  3
Katalog 09
100
AcDbAlignedDimension
 13
-208.3081550453717
 23
611.2658889910597
 33
0.0
 14
-219.8081550453717
 24
594.5158889910596
 34
0.0
100
AcDbRotatedDimension
1001
ACAD_DSTYLE_DIMINSPECT
1070
   396
1000
100%
1070
   395
1000

1070
   394
1070
    33
1070
   393
1070
     0
  0
DIMENSION
  5
A8
330
2
100
AcDbEntity
  8
BEMASSUNG
100
AcDbDimension
  2
*D18
 10
-242.2795445650272
 20
349.586209582965
 30
0.0
 11
-245.0677437464734
 21
351.0862095829649
 31
0.0
 71
     5
 42
3.0
  3
NORMAL
100
AcDbAlignedDimension
 13
-232.3081550454148
 23
352.586209582965
 33
0.0
 14
-232.3081550454148
 24
349.586209582965
 34
0.0
 50
90.0
100
AcDbRotatedDimension
  0
DIMENSION
  5
B7
330
2
100
AcDbEntity
  8
BEMASSUNG
  6
Continuous
100
AcDbDimension
  2
*D17
 10
-206.8081550453717
 20
555.2412974468636
 30
0.0
 11
-213.3081550453717
 21
558.4637735723751
 31
0.0
 71
     5
 42
13.0
  3
Katalog 09
100
AcDbAlignedDimension
 13
-219.8081550453717
 23
586.5158889910596
 33
0.0
 14
-206.8081550453717
 24
555.3785968503673
 34
0.0
100
AcDbRotatedDimension
1001
ACAD_DSTYLE_DIMINSPECT
1070
   396
1000
100%
1070
   395
1000

1070
   394
1070
    33
1070
   393
1070
     0
  0
LINE
  5
C4
330
2
100
AcDbEntity
  8
AVERDECKTE
100
AcDbLine
 10
-221.8081550454148
 20
352.5862095829538
 30
0.0
 11
-221.8081550454148
 21
351.5862095829537
 31
0.0
  0
LINE
  5
C9
330
2
100
AcDbEntity
  8
AVERDECKTE
100
AcDbLine
 10
-217.8081550454148
 20
352.5862095829538
 30
0.0
 11
-217.8081550454148
 21
351.5862095829537
 31
0.0
  0
LINE
  5
CA
330
2
100
AcDbEntity
  8
AVERDECKTE
100
AcDbLine
 10
-221.8081550454148
 20
351.5862095829537
 30
0.0
 11
-223.8081550454148
 21
349.5862095829537
 31
0.0
  0
LINE
  5
CB
330
2
100
AcDbEntity
  8
AVERDECKTE
100
AcDbLine
 10
-217.8081550454148
 20
351.5862095829537
 30
0.0
 11
-215.8081550454148
 21
349.5862095829537
 31
0.0
  0
LINE
  5
CC
330
2
100
AcDbEntity
  8
AVERDECKTE
100
AcDbLine
 10
-223.0581550454147
 20
352.586209582965
 30
0.0
 11
-223.0581550454147
 21
351.586209582965
 31
0.0
  0
LINE
  5
CD
330
2
100
AcDbEntity
  8
AVERDECKTE
100
AcDbLine
 10
-217.5581550454148
 20
352.586209582965
 30
0.0
 11
-217.5581550454148
 21
351.586209582965
 31
0.0
  0
LINE
  5
CE
330
2
100
AcDbEntity
  8
AVERDECKTE
100
AcDbLine
 10
-223.0581550454147
 20
351.586209582965
 30
0.0
 11
-225.0581550454147
 21
349.586209582965
 31
0.0
  0
LINE
  5
CF
330
2
100
AcDbEntity
  8
AVERDECKTE
100
AcDbLine
 10
-217.5581550454148
 20
351.586209582965
 30
0.0
 11
-215.5581550454148
 21
349.586209582965
 31
0.0
  0
LINE
  5
D0
330
2
100
AcDbEntity
  8
AVERDECKTE
100
AcDbLine
 10
-223.0581550454147
 20
351.586209582965
 30
0.0
 11
-217.5581550454148
 21
351.586209582965
 31
0.0
  0
LINE
  5
D1
330
2
100
AcDbEntity
  8
UMRISS05
100
AcDbLine
 10
-201.4081550454147
 20
349.5862095829579
 30
0.0
 11
-201.4081550454147
 21
352.5862095829578
 31
0.0
  0
LINE
  5
D5
330
2
100
AcDbEntity
  8
UMRISS05
100
AcDbLine
 10
-184.8081550454147
 20
349.5862095829597
 30
0.0
 11
-184.8081550454147
 21
352.5862095829597
 31
0.0
  0
LINE
  5
D6
330
2
100
AcDbEntity
  8
UMRISS05
100
AcDbLine
 10
-181.8081550454147
 20
352.5862095829597
 30
0.0
 11
-181.8081550454147
 21
349.5862095829597
 31
0.0
  0
LINE
  5
D7
330
2
100
AcDbEntity
  8
UMRISS05
100
AcDbLine
 10
-183.3081550454148
 20
349.5862095829592
 30
0.0
 11
-183.3081550454148
 21
352.5862095829591
 31
0.0
  0
LINE
  5
D8
330
2
100
AcDbEntity
  8
UMRISS05
100
AcDbLine
 10
-188.8081550454147
 20
349.5862095829597
 30
0.0
 11
-188.8081550454147
 21
352.5862095829597
 31
0.0
  0
LINE
  5
D9
330
2
100
AcDbEntity
  8
UMRISS05
100
AcDbLine
 10
-185.8081550454148
 20
352.5862095829597
 30
0.0
 11
-185.8081550454148
 21
349.5862095829597
 31
0.0
  0
LINE
  5
DA
330
2
100
AcDbEntity
  8
UMRISS05
100
AcDbLine
 10
-187.3081550454147
 20
349.5862095829592
 30
0.0
 11
-187.3081550454147
 21
352.5862095829591
 31
0.0
  0
LINE
  5
DB
102
{ACAD_REACTORS
330
2E0
102
}
330
2
100
AcDbEntity
  8
UMRISS05
100
AcDbLine
 10
-192.8081550454147
 20
349.5862095829597
 30
0.0
 11
-192.8081550454147
 21
352.5862095829597
 31
0.0
  0
LINE
  5
DC
330
2
100
AcDbEntity
  8
UMRISS05
100
AcDbLine
 10
-189.8081550454147
 20
352.5862095829597
 30
0.0
 11
-189.8081550454147
 21
349.5862095829597
 31
0.0
  0
LINE
  5
DD
330
2
100
AcDbEntity
  8
UMRISS05
100
AcDbLine
 10
-191.3081550454147
 20
349.5862095829592
 30
0.0
 11
-191.3081550454147
 21
352.5862095829591
 31
0.0
  0
LINE
  5
DE
330
2
100
AcDbEntity
  8
UMRISS05
100
AcDbLine
 10
-196.8081550454147
 20
349.5862095829597
 30
0.0
 11
-196.8081550454147
 21
352.5862095829597
 31
0.0
  0
LINE
  5
DF
330
2
100
AcDbEntity
  8
UMRISS05
100
AcDbLine
 10
-193.8081550454148
 20
352.5862095829597
 30
0.0
 11
-193.8081550454148
 21
349.5862095829597
 31
0.0
  0
LINE
  5
E0
330
2
100
AcDbEntity
  8
UMRISS05
100
AcDbLine
 10
-195.3081550454147
 20
349.5862095829592
 30
0.0
 11
-195.3081550454147
 21
352.5862095829591
 31
0.0
  0
LINE
  5
E1
330
2
100
AcDbEntity
  8
UMRISS05
100
AcDbLine
 10
-200.8081550454148
 20
349.5862095829597
 30
0.0
 11
-200.8081550454148
 21
352.5862095829597
 31
0.0
  0
LINE
  5
E2
330
2
100
AcDbEntity
  8
UMRISS05
100
AcDbLine
 10
-197.8081550454147
 20
352.5862095829597
 30
0.0
 11
-197.8081550454147
 21
349.5862095829597
 31
0.0
  0
LINE
  5
E3
330
2
100
AcDbEntity
  8
UMRISS05
100
AcDbLine
 10
-199.3081550454147
 20
349.5862095829592
 30
0.0
 11
-199.3081550454147
 21
352.5862095829591
 31
0.0
  0
LINE
  5
E4
330
2
100
AcDbEntity
  8
UMRISS05
100
AcDbLine
 10
-204.8081550454148
 20
349.5862095829597
 30
0.0
 11
-204.8081550454148
 21
352.5862095829597
 31
0.0
  0
LINE
  5
E5
330
2
100
AcDbEntity
  8
UMRISS05
100
AcDbLine
 10
-201.8081550454148
 20
352.5862095829597
 30
0.0
 11
-201.8081550454148
 21
349.5862095829597
 31
0.0
  0
LINE
  5
E6
330
2
100
AcDbEntity
  8
UMRISS05
100
AcDbLine
 10
-203.3081550454148
 20
349.5862095829592
 30
0.0
 11
-203.3081550454148
 21
352.5862095829591
 31
0.0
  0
LINE
  5
E7
330
2
100
AcDbEntity
  8
UMRISS05
100
AcDbLine
 10
-203.3081550454148
 20
349.5862095829592
 30
0.0
 11
-204.8081550454148
 21
349.5862095829597
 31
0.0
  0
LINE
  5
E8
330
2
100
AcDbEntity
  8
UMRISS05
100
AcDbLine
 10
-201.8081550454148
 20
349.5862095829597
 30
0.0
 11
-203.3081550454148
 21
349.5862095829592
 31
0.0
  0
LINE
  5
E9
330
2
100
AcDbEntity
  8
UMRISS05
100
AcDbLine
 10
-199.3081550454147
 20
349.5862095829592
 30
0.0
 11
-200.8081550454148
 21
349.5862095829597
 31
0.0
  0
LINE
  5
EA
330
2
100
AcDbEntity
  8
UMRISS05
100
AcDbLine
 10
-197.8081550454147
 20
349.5862095829597
 30
0.0
 11
-199.3081550454147
 21
349.5862095829592
 31
0.0
  0
LINE
  5
EB
330
2
100
AcDbEntity
  8
UMRISS05
100
AcDbLine
 10
-195.3081550454147
 20
349.5862095829592
 30
0.0
 11
-196.8081550454147
 21
349.5862095829597
 31
0.0
  0
LINE
  5
EC
330
2
100
AcDbEntity
  8
UMRISS05
100
AcDbLine
 10
-193.8081550454148
 20
349.5862095829597
 30
0.0
 11
-195.3081550454147
 21
349.5862095829592
 31
0.0
  0
LINE
  5
ED
330
2
100
AcDbEntity
  8
UMRISS05
100
AcDbLine
 10
-191.3081550454147
 20
349.5862095829592
 30
0.0
 11
-192.8081550454147
 21
349.5862095829597
 31
0.0
  0
LINE
  5
EE
330
2
100
AcDbEntity
  8
UMRISS05
100
AcDbLine
 10
-189.8081550454147
 20
349.5862095829597
 30
0.0
 11
-191.3081550454147
 21
349.5862095829592
 31
0.0
  0
LINE
  5
EF
330
2
100
AcDbEntity
  8
UMRISS05
100
AcDbLine
 10
-187.3081550454147
 20
349.5862095829592
 30
0.0
 11
-188.8081550454147
 21
349.5862095829597
 31
0.0
  0
LINE
  5
F0
330
2
100
AcDbEntity
  8
UMRISS05
100
AcDbLine
 10
-185.8081550454148
 20
349.5862095829597
 30
0.0
 11
-187.3081550454147
 21
349.5862095829592
 31
0.0
  0
LINE
  5
F1
330
2
100
AcDbEntity
  8
UMRISS05
100
AcDbLine
 10
-183.3081550454148
 20
349.5862095829592
 30
0.0
 11
-184.8081550454147
 21
349.5862095829597
 31
0.0
  0
LINE
  5
F2
330
2
100
AcDbEntity
  8
UMRISS05
100
AcDbLine
 10
-181.8081550454147
 20
349.5862095829597
 30
0.0
 11
-183.3081550454148
 21
349.5862095829592
 31
0.0
  0
LINE
  5
F3
330
2
100
AcDbEntity
  8
UMRISS05
100
AcDbLine
 10
-183.3081550454148
 20
352.5862095829591
 30
0.0
 11
-181.8081550454147
 21
352.5862095829597
 31
0.0
  0
LINE
  5
F4
330
2
100
AcDbEntity
  8
UMRISS05
100
AcDbLine
 10
-184.8081550454147
 20
352.5862095829597
 30
0.0
 11
-183.3081550454148
 21
352.5862095829591
 31
0.0
  0
LINE
  5
F5
330
2
100
AcDbEntity
  8
UMRISS05
100
AcDbLine
 10
-187.3081550454147
 20
352.5862095829591
 30
0.0
 11
-185.8081550454148
 21
352.5862095829597
 31
0.0
  0
LINE
  5
F6
330
2
100
AcDbEntity
  8
UMRISS05
100
AcDbLine
 10
-188.8081550454147
 20
352.5862095829597
 30
0.0
 11
-187.3081550454147
 21
352.5862095829591
 31
0.0
  0
LINE
  5
F7
330
2
100
AcDbEntity
  8
UMRISS05
100
AcDbLine
 10
-191.3081550454147
 20
352.5862095829591
 30
0.0
 11
-189.8081550454147
 21
352.5862095829597
 31
0.0
  0
LINE
  5
F8
102
{ACAD_REACTORS
330
2E6
102
}
330
2
100
AcDbEntity
  8
UMRISS05
100
AcDbLine
 10
-192.8081550454147
 20
352.5862095829597
 30
0.0
 11
-191.3081550454147
 21
352.5862095829591
 31
0.0
  0
LINE
  5
F9
330
2
100
AcDbEntity
  8
UMRISS05
100
AcDbLine
 10
-195.3081550454147
 20
352.5862095829591
 30
0.0
 11
-193.8081550454148
 21
352.5862095829597
 31
0.0
  0
LINE
  5
FA
330
2
100
AcDbEntity
  8
UMRISS05
100
AcDbLine
 10
-196.8081550454147
 20
352.5862095829597
 30
0.0
 11
-195.3081550454147
 21
352.5862095829591
 31
0.0
  0
LINE
  5
FB
330
2
100
AcDbEntity
  8
UMRISS05
100
AcDbLine
 10
-199.3081550454147
 20
352.5862095829591
 30
0.0
 11
-197.8081550454147
 21
352.5862095829597
 31
0.0
  0
LINE
  5
FC
330
2
100
AcDbEntity
  8
UMRISS05
100
AcDbLine
 10
-200.8081550454148
 20
352.5862095829597
 30
0.0
 11
-199.3081550454147
 21
352.5862095829591
 31
0.0
  0
LINE
  5
FD
330
2
100
AcDbEntity
  8
UMRISS05
100
AcDbLine
 10
-203.3081550454148
 20
352.5862095829591
 30
0.0
 11
-201.8081550454148
 21
352.5862095829597
 31
0.0
  0
LINE
  5
FE
330
2
100
AcDbEntity
  8
UMRISS05
100
AcDbLine
 10
-204.8081550454148
 20
352.5862095829597
 30
0.0
 11
-203.3081550454148
 21
352.5862095829591
 31
0.0
  0
LINE
  5
FF
330
2
100
AcDbEntity
  8
UMRISS05
100
AcDbLine
 10
-207.3081550454148
 20
349.5862095829597
 30
0.0
 11
-204.8081550454148
 21
349.5862095829597
 31
0.0
  0
LINE
  5
100
330
2
100
AcDbEntity
  8
UMRISS05
100
AcDbLine
 10
-201.8081550454148
 20
349.5862095829597
 30
0.0
 11
-200.8081550454148
 21
349.5862095829597
 31
0.0
  0
LINE
  5
101
330
2
100
AcDbEntity
  8
UMRISS05
100
AcDbLine
 10
-197.8081550454147
 20
349.5862095829597
 30
0.0
 11
-196.8081550454147
 21
349.5862095829597
 31
0.0
  0
LINE
  5
102
330
2
100
AcDbEntity
  8
UMRISS05
100
AcDbLine
 10
-193.8081550454148
 20
349.5862095829597
 30
0.0
 11
-192.8081550454147
 21
349.5862095829597
 31
0.0
  0
LINE
  5
103
330
2
100
AcDbEntity
  8
UMRISS05
100
AcDbLine
 10
-189.8081550454147
 20
349.5862095829597
 30
0.0
 11
-188.8081550454147
 21
349.5862095829597
 31
0.0
  0
LINE
  5
104
330
2
100
AcDbEntity
  8
UMRISS05
100
AcDbLine
 10
-185.8081550454148
 20
349.5862095829597
 30
0.0
 11
-184.8081550454147
 21
349.5862095829597
 31
0.0
  0
LINE
  5
105
330
2
100
AcDbEntity
  8
UMRISS05
100
AcDbLine
 10
-181.8081550454147
 20
349.5862095829597
 30
0.0
 11
-181.3081550454148
 21
349.5862095829597
 31
0.0
  0
LINE
  5
106
330
2
100
AcDbEntity
  8
UMRISS05
100
AcDbLine
 10
-181.3081550454148
 20
352.5862095829597
 30
0.0
 11
-181.8081550454147
 21
352.5862095829597
 31
0.0
  0
LINE
  5
107
330
2
100
AcDbEntity
  8
UMRISS05
100
AcDbLine
 10
-184.8081550454147
 20
352.5862095829597
 30
0.0
 11
-185.8081550454148
 21
352.5862095829597
 31
0.0
  0
LINE
  5
108
330
2
100
AcDbEntity
  8
UMRISS05
100
AcDbLine
 10
-188.8081550454147
 20
352.5862095829597
 30
0.0
 11
-189.8081550454147
 21
352.5862095829597
 31
0.0
  0
LINE
  5
109
102
{ACAD_REACTORS
330
2DF
102
}
330
2
100
AcDbEntity
  8
UMRISS05
100
AcDbLine
 10
-192.8081550454147
 20
352.5862095829597
 30
0.0
 11
-193.8081550454148
 21
352.5862095829597
 31
0.0
  0
LINE
  5
10A
330
2
100
AcDbEntity
  8
UMRISS05
100
AcDbLine
 10
-196.8081550454147
 20
352.5862095829597
 30
0.0
 11
-197.8081550454147
 21
352.5862095829597
 31
0.0
  0
LINE
  5
10B
330
2
100
AcDbEntity
  8
UMRISS05
100
AcDbLine
 10
-200.8081550454148
 20
352.5862095829597
 30
0.0
 11
-201.8081550454148
 21
352.5862095829597
 31
0.0
  0
LINE
  5
10C
330
2
100
AcDbEntity
  8
UMRISS05
100
AcDbLine
 10
-204.8081550454148
 20
352.5862095829597
 30
0.0
 11
-207.3081550454148
 21
352.5862095829597
 31
0.0
  0
LINE
  5
10D
330
2
100
AcDbEntity
  8
AVERDECKTE
100
AcDbLine
 10
-225.9081550454147
 20
352.5862095829523
 30
0.0
 11
-225.9081550454147
 21
349.5862095829527
 31
0.0
  0
LINE
  5
10E
330
2
100
AcDbEntity
  8
AVERDECKTE
100
AcDbLine
 10
-226.9081550454147
 20
349.5862095829522
 30
0.0
 11
-226.9081550454147
 21
352.5862095829522
 31
0.0
  0
LINE
  5
10F
330
2
100
AcDbEntity
  8
AVERDECKTE
100
AcDbLine
 10
-225.8081550454148
 20
349.5862095829493
 30
0.0
 11
-225.8081550454148
 21
352.5862095829494
 31
0.0
  0
LINE
  5
110
330
2
100
AcDbEntity
  8
UMRISS05
100
AcDbLine
 10
-181.3081550454148
 20
352.5862095829597
 30
0.0
 11
-181.3081550454148
 21
349.5862095829597
 31
0.0
  0
LINE
  5
111
330
2
100
AcDbEntity
  8
UMRISS05
100
AcDbLine
 10
-180.3081550454148
 20
349.5862095829594
 30
0.0
 11
-180.3081550454148
 21
352.5862095829594
 31
0.0
  0
LINE
  5
112
330
2
100
AcDbEntity
  8
UMRISS05
100
AcDbLine
 10
-232.3081550454148
 20
352.586209582965
 30
0.0
 11
-232.3081550454148
 21
349.586209582965
 31
0.0
  0
LINE
  5
113
102
{ACAD_REACTORS
330
2DA
102
}
330
2
100
AcDbEntity
  8
UMRISS05
100
AcDbLine
 10
-208.3081550454148
 20
349.586209582965
 30
0.0
 11
-208.3081550454148
 21
352.586209582965
 31
0.0
  0
LINE
  5
114
330
2
100
AcDbEntity
  8
UMRISS05
100
AcDbLine
 10
-207.3081550454148
 20
349.5862095829597
 30
0.0
 11
-207.3081550454148
 21
352.5862095829597
 31
0.0
  0
LINE
  5
115
102
{ACAD_REACTORS
330
2DD
102
}
330
2
100
AcDbEntity
  8
UMRISS05
100
AcDbLine
 10
-208.3081550454148
 20
349.5862095829599
 30
0.0
 11
-207.3081550454148
 21
349.5862095829599
 31
0.0
  0
LINE
  5
116
330
2
100
AcDbEntity
  8
UMRISS05
100
AcDbLine
 10
-180.3081550454148
 20
349.5862095829594
 30
0.0
 11
-181.3081550454148
 21
349.5862095829597
 31
0.0
  0
LINE
  5
117
102
{ACAD_REACTORS
330
2D7
102
}
330
2
100
AcDbEntity
  8
UMRISS05
100
AcDbLine
 10
-208.3081550454148
 20
349.586209582965
 30
0.0
 11
-232.3081550454148
 21
349.586209582965
 31
0.0
  0
LINE
  5
118
330
2
100
AcDbEntity
  8
UMRISS05
100
AcDbLine
 10
-181.3081550454148
 20
352.5862095829597
 30
0.0
 11
-180.3081550454148
 21
352.5862095829594
 31
0.0
  0
LINE
  5
119
330
2
100
AcDbEntity
  8
UMRISS05
100
AcDbLine
 10
-207.3081550454148
 20
352.5862095829597
 30
0.0
 11
-208.3081550454148
 21
352.5862095829599
 31
0.0
  0
LINE
  5
11A
102
{ACAD_REACTORS
330
2D4
102
}
330
2
100
AcDbEntity
  8
UMRISS05
100
AcDbLine
 10
-232.3081550454148
 20
352.586209582965
 30
0.0
 11
-208.3081550454148
 21
352.586209582965
 31
0.0
  0
DIMENSION
  5
11B
330
2
100
AcDbEntity
  8
BEMASSUNG
  6
Continuous
100
AcDbDimension
  2
*D16
 10
-219.8081550453717
 20
570.5375298455582
 30
0.0
 11
-211.8081550453717
 21
570.5375298455582
 31
0.0
 70
   128
  1
<>
 71
     5
 42
16.0
  3
Katalog 09
100
AcDbAlignedDimension
 13
-203.8081550453717
 23
567.3658889910597
 33
0.0
 14
-219.8081550453717
 24
586.0158889910596
 34
0.0
 50
180.0
100
AcDbRotatedDimension
1001
ACAD_DSTYLE_DIMINSPECT
1070
   396
1000
100%
1070
   395
1000

1070
   394
1070
    33
1070
   393
1070
     0
  0
DIMENSION
  5
129
330
2
100
AcDbEntity
  8
BEMASSUNG
  6
Continuous
100
AcDbDimension
  2
*D15
 10
-159.8081550453716
 20
538.0158889910596
 30
0.0
 11
-164.0213360042371
 21
564.2658889910596
 31
0.0
 70
   128
  1
<>
 71
     5
 42
52.5000000000001
  3
Katalog 09
100
AcDbAlignedDimension
 13
-215.8081550453717
 23
590.5158889910596
 33
0.0
 14
-215.8081550453716
 24
538.0158889910596
 34
0.0
 50
90.0
100
AcDbRotatedDimension
1001
ACAD_DSTYLE_DIMINSPECT
1070
   396
1000
100%
1070
   395
1000

1070
   394
1070
    33
1070
   393
1070
     0
  0
DIMENSION
  5
136
330
2
100
AcDbEntity
  8
BEMASSUNG
  6
Continuous
100
AcDbDimension
  2
*D14
 10
-236.6081550453715
 20
552.7658889910596
 30
0.0
 11
-239.9407040604565
 21
564.2658889910596
 31
0.0
 70
   128
  1
<>
 71
     5
 42
23.0
  3
Katalog 09
100
AcDbAlignedDimension
 13
-226.6081550453717
 23
575.7658889910596
 33
0.0
 14
-226.6081550453717
 24
552.7658889910596
 34
0.0
 50
90.0
100
AcDbRotatedDimension
1001
ACAD_DSTYLE_DIMINSPECT
1070
   396
1000
100%
1070
   395
1000

1070
   394
1070
    33
1070
   393
1070
     0
  0
LINE
  5
143
330
2
100
AcDbEntity
  8
ACHSEN
100
AcDbLine
 10
-219.8081550453717
 20
464.5158889910597
 30
0.0
 11
-219.8081550453717
 21
455.5158889910597
 31
0.0
  0
LINE
  5
144
330
2
100
AcDbEntity
  8
ACHSEN
100
AcDbLine
 10
-215.3081550453717
 20
460.0158889910597
 30
0.0
 11
-224.3081550453717
 21
460.0158889910597
 31
0.0
  0
LINE
  5
145
330
2
100
AcDbEntity
  8
ACHSEN
100
AcDbLine
 10
-219.8081550453716
 20
542.5158889910597
 30
0.0
 11
-219.8081550453716
 21
533.5158889910596
 31
0.0
  0
LINE
  5
146
330
2
100
AcDbEntity
  8
ACHSEN
100
AcDbLine
 10
-215.3081550453716
 20
538.0158889910596
 30
0.0
 11
-224.3081550453716
 21
538.0158889910596
 31
0.0
  0
LINE
  5
147
330
2
100
AcDbEntity
  8
ACHSEN
100
AcDbLine
 10
-219.8081550453716
 20
517.0158889910596
 30
0.0
 11
-219.8081550453716
 21
508.0158889910596
 31
0.0
  0
LINE
  5
148
330
2
100
AcDbEntity
  8
ACHSEN
100
AcDbLine
 10
-215.3081550453716
 20
512.5158889910596
 30
0.0
 11
-224.3081550453716
 21
512.5158889910596
 31
0.0
  0
LINE
  5
149
330
2
100
AcDbEntity
  8
ACHSEN
100
AcDbLine
 10
-219.8081550453717
 20
595.0158889910596
 30
0.0
 11
-219.8081550453717
 21
586.0158889910596
 31
0.0
  0
LINE
  5
14A
330
2
100
AcDbEntity
  8
ACHSEN
100
AcDbLine
 10
-215.3081550453717
 20
590.5158889910596
 30
0.0
 11
-224.3081550453717
 21
590.5158889910596
 31
0.0
  0
DIMENSION
  5
14B
330
2
100
AcDbEntity
  8
BEMASSUNG
  6
Continuous
100
AcDbDimension
  2
*D13
 10
-151.3081550453716
 20
640.2658889910597
 30
0.0
 11
-155.3855373919609
 21
625.5787738088081
 31
0.0
 70
   128
  1
<>
 71
     5
 42
30.0
  3
Katalog 09
100
AcDbAlignedDimension
 13
-181.3081550453716
 23
610.2658889910596
 33
0.0
 14
-220.3081550453717
 24
640.2658889910597
 34
0.0
 50
90.0
100
AcDbRotatedDimension
1001
ACAD_DSTYLE_DIMINSPECT
1070
   396
1000
100%
1070
   395
1000

1070
   394
1070
    33
1070
   393
1070
     0
  0
DIMENSION
  5
158
330
2
100
AcDbEntity
  8
BEMASSUNG
  6
Continuous
100
AcDbDimension
  2
*D12
 10
-151.3081550453716
 20
410.2658889910596
 30
0.0
 11
-155.649335186069
 21
425.1616589429834
 31
0.0
 70
   128
  1
<>
 71
     5
 42
30.0
  3
Katalog 09
100
AcDbAlignedDimension
 13
-181.3081550453716
 23
440.2658889910596
 33
0.0
 14
-220.3081550453716
 24
410.2658889910596
 34
0.0
 50
90.0
100
AcDbRotatedDimension
1001
ACAD_DSTYLE_DIMINSPECT
1070
   396
1000
100%
1070
   395
1000

1070
   394
1070
    33
1070
   393
1070
     0
  0
DIMENSION
  5
165
330
2
100
AcDbEntity
  8
BEMASSUNG
  6
Continuous
100
AcDbDimension
  2
*D11
 10
-261.1517826858417
 20
410.2658889910596
 30
0.0
 11
-265.8405533376113
 21
447.6336511406231
 31
0.0
 70
   128
  1
<>
 71
     5
 42
76.0
  3
Katalog 09
100
AcDbAlignedDimension
 13
-241.2375691234688
 23
486.2658889910597
 33
0.0
 14
-220.3081550453716
 24
410.2658889910596
 34
0.0
 50
270.0
100
AcDbRotatedDimension
1001
ACAD_DSTYLE_DIMINSPECT
1070
   396
1000
100%
1070
   395
1000

1070
   394
1070
    33
1070
   393
1070
     0
  0
DIMENSION
  5
172
330
2
100
AcDbEntity
  8
BEMASSUNG
  6
Continuous
100
AcDbDimension
  2
*D10
 10
-261.1517826858417
 20
486.2658889910597
 30
0.0
 11
-264.5732184149051
 21
525.2904414178658
 31
0.0
 70
   128
  1
<>
 71
     5
 42
78.00000000000007
  3
Katalog 09
100
AcDbAlignedDimension
 13
-234.9466123625686
 23
564.2658889910596
 33
0.0
 14
-241.2375691234688
 24
486.2658889910597
 34
0.0
 50
270.0
100
AcDbRotatedDimension
1001
ACAD_DSTYLE_DIMINSPECT
1070
   396
1000
100%
1070
   395
1000

1070
   394
1070
    33
1070
   393
1070
     0
  0
LINE
  5
17F
330
2
100
AcDbEntity
  8
ACHSEN
100
AcDbLine
 10
-241.2375691234688
 20
486.2658889910597
 30
0.0
 11
-198.3315667556665
 21
486.2658889910597
 31
0.0
  0
DIMENSION
  5
180
330
2
100
AcDbEntity
  8
BEMASSUNG
  6
Continuous
100
AcDbDimension
  2
*D9
 10
-261.1517826858417
 20
640.2658889910597
 30
0.0
 11
-265.549103649917
 21
597.0626491206201
 31
0.0
 70
   128
  1
<>
 71
     5
 42
76.0
  3
Katalog 09
100
AcDbAlignedDimension
 13
-234.9466123625686
 23
564.2658889910596
 33
0.0
 14
-220.3081550453717
 24
640.2658889910597
 34
0.0
 50
270.0
100
AcDbRotatedDimension
1001
ACAD_DSTYLE_DIMINSPECT
1070
   396
1000
100%
1070
   395
1000

1070
   394
1070
    33
1070
   393
1070
     0
  0
DIMENSION
  5
18D
330
2
100
AcDbEntity
  8
BEMASSUNG
  6
Continuous
100
AcDbDimension
  2
*D8
 10
-168.9556842926825
 20
561.1658889910597
 30
0.0
 11
-173.0424080192201
 21
552.767603674509
 31
0.0
 70
   128
  1
<>
 71
     5
 42
6.20000000000016
  3
Katalog 09
100
AcDbAlignedDimension
 13
-203.8081550453717
 23
567.3658889910597
 33
0.0
 14
-203.8081550453717
 24
561.1658889910597
 34
0.0
 50
270.0
100
AcDbRotatedDimension
1001
ACAD_DSTYLE_DIMINSPECT
1070
   396
1000
100%
1070
   395
1000

1070
   394
1070
    33
1070
   393
1070
     0
  0
DIMENSION
  5
19C
330
2
100
AcDbEntity
  8
BEMASSUNG
  6
Continuous
100
AcDbDimension
  2
*D7
 10
-208.3081550453716
 20
396.698908026042
 30
0.0
 11
-219.9978259058021
 21
400.3722359072368
 31
0.0
 70
   128
  1
<>
 71
     5
 42
24.0
  3
Katalog 09
100
AcDbAlignedDimension
 13
-232.3081550453716
 23
422.2658889910595
 33
0.0
 14
-208.3081550453716
 24
422.2658889910595
 34
0.0
100
AcDbRotatedDimension
1001
ACAD_DSTYLE_DIMINSPECT
1070
   396
1000
100%
1070
   395
1000

1070
   394
1070
    33
1070
   393
1070
     0
  0
DIMENSION
  5
1A9
330
2
100
AcDbEntity
  8
BEMASSUNG
  6
Continuous
100
AcDbDimension
  2
*D6
 10
-251.567953100414
 20
540.2658889910598
 30
0.0
 11
-256.2469946465094
 21
564.2658889910596
 31
0.0
 70
   128
  1
<>
 71
     5
 42
47.99999999999989
  3
Katalog 09
100
AcDbAlignedDimension
 13
-214.3939414829987
 23
588.2658889910596
 33
0.0
 14
-214.3939414829987
 24
540.2658889910598
 34
0.0
 50
90.0
100
AcDbRotatedDimension
1001
ACAD_DSTYLE_DIMINSPECT
1070
   396
1000
100%
1070
   395
1000

1070
   394
1070
    33
1070
   393
1070
     0
  0
DIMENSION
  5
1B6
330
2
100
AcDbEntity
  8
BEMASSUNG
  6
Continuous
100
AcDbDimension
  2
*D5
 10
-241.4081550453716
 20
628.2658889910597
 30
0.0
 11
-245.5862295829366
 21
634.4502086853355
 31
0.0
 70
   128
  1
<>
 71
     5
 42
12.0
  3
Katalog 09
100
AcDbAlignedDimension
 13
-220.3081550453717
 23
640.2658889910597
 33
0.0
 14
-225.0581550453717
 24
628.2658889910597
 34
0.0
 50
90.0
100
AcDbRotatedDimension
1001
ACAD_DSTYLE_DIMINSPECT
1070
   396
1000
100%
1070
   395
1000

1070
   394
1070
    33
1070
   393
1070
     0
  0
DIMENSION
  5
1C3
330
2
100
AcDbEntity
  8
BEMASSUNG
  6
Continuous
100
AcDbDimension
  2
*D4
 10
-151.3081550453716
 20
440.2658889910596
 30
0.0
 11
-155.9261435596713
 21
529.7140013245718
 31
0.0
 70
   128
  1
<>
 71
     5
 42
170.0
  3
Katalog 09
100
AcDbAlignedDimension
 13
-181.3081550453716
 23
610.2658889910596
 33
0.0
 14
-181.3081550453716
 24
440.2658889910596
 34
0.0
 50
90.0
100
AcDbRotatedDimension
1001
ACAD_DSTYLE_DIMINSPECT
1070
   396
1000
100%
1070
   395
1000

1070
   394
1070
    33
1070
   393
1070
     0
  0
LINE
  5
1D0
102
{ACAD_REACTORS
330
2E2
102
}
330
2
100
AcDbEntity
  8
ACHSEN
100
AcDbLine
 10
-234.9466123625686
 20
564.2658889910596
 30
0.0
 11
-175.9006340861489
 21
564.2658889910596
 31
0.0
  0
DIMENSION
  5
1D1
330
2
100
AcDbEntity
  8
BEMASSUNG
  6
Continuous
100
AcDbDimension
  2
*D3
 10
-272.9821349290741
 20
640.2658889910597
 30
0.0
 11
-277.9429724988504
 21
524.6079240932023
 31
0.0
 70
   128
  1
<>
 71
     5
 42
230.0000000000001
  3
Katalog 09
100
AcDbAlignedDimension
 13
-220.3081550453716
 23
410.2658889910596
 33
0.0
 14
-220.3081550453717
 24
640.2658889910597
 34
0.0
 50
90.0
100
AcDbRotatedDimension
1001
ACAD_DSTYLE_DIMINSPECT
1070
   396
1000
100%
1070
   395
1000

1070
   394
1070
    33
1070
   393
1070
     0
  0
DIMENSION
  5
1DE
330
2
100
AcDbEntity
  8
BEMASSUNG
  6
Continuous
100
AcDbDimension
  2
*D2
 10
-243.2477456891665
 20
586.2658889910597
 30
0.0
 11
-246.653838344464
 21
563.9382076244885
 31
0.0
 70
   128
  1
<>
 71
     5
 42
44.0
  3
Katalog 09
100
AcDbAlignedDimension
 13
-225.9081550453717
 23
542.2658889910596
 33
0.0
 14
-225.9081550453717
 24
586.2658889910597
 34
0.0
 50
90.0
100
AcDbRotatedDimension
1001
ACAD_DSTYLE_DIMINSPECT
1070
   396
1000
100%
1070
   395
1000

1070
   394
1070
    33
1070
   393
1070
     0
  0
DIMENSION
  5
1EB
330
2
100
AcDbEntity
  8
BEMASSUNG
  6
Continuous
100
AcDbDimension
  2
*D1
 10
-242.3081550453715
 20
410.2658889910596
 30
0.0
 11
-246.1924181074031
 21
416.0829812214585
 31
0.0
 70
   128
  1
<>
 71
     5
 42
12.0
  3
Katalog 09
100
AcDbAlignedDimension
 13
-233.5581550453716
 23
422.2658889910595
 33
0.0
 14
-220.3081550453716
 24
410.2658889910596
 34
0.0
 50
90.0
100
AcDbRotatedDimension
1001
ACAD_DSTYLE_DIMINSPECT
1070
   396
1000
100%
1070
   395
1000

1070
   394
1070
    33
1070
   393
1070
     0
  0
LINE
  5
1F8
330
2
100
AcDbEntity
  8
UMRISS05
100
AcDbLine
 10
-208.3081550453717
 20
628.2658889910597
 30
0.0
 11
-208.3081550453717
 21
611.2658889910597
 31
0.0
  0
LINE
  5
1F9
330
2
100
AcDbEntity
  8
UMRISS05
100
AcDbLine
 10
-207.3081550453717
 20
610.2658889910596
 30
0.0
 11
-200.8081550453716
 21
610.2658889910596
 31
0.0
  0
LINE
  5
1FA
330
2
100
AcDbEntity
  8
UMRISS05
100
AcDbLine
 10
-197.8081550453717
 20
610.2658889910596
 30
0.0
 11
-196.8081550453716
 21
610.2658889910596
 31
0.0
  0
LINE
  5
1FB
330
2
100
AcDbEntity
  8
UMRISS05
100
AcDbLine
 10
-193.8081550453716
 20
610.2658889910596
 30
0.0
 11
-192.8081550453716
 21
610.2658889910596
 31
0.0
  0
LINE
  5
1FC
330
2
100
AcDbEntity
  8
UMRISS05
100
AcDbLine
 10
-189.8081550453716
 20
610.2658889910596
 30
0.0
 11
-188.8081550453716
 21
610.2658889910596
 31
0.0
  0
LINE
  5
1FD
330
2
100
AcDbEntity
  8
UMRISS05
100
AcDbLine
 10
-185.8081550453716
 20
610.2658889910596
 30
0.0
 11
-184.8081550453716
 21
610.2658889910596
 31
0.0
  0
LINE
  5
1FE
330
2
100
AcDbEntity
  8
UMRISS05
100
AcDbLine
 10
-181.8081550453717
 20
610.2658889910596
 30
0.0
 11
-181.3081550453716
 21
610.2658889910596
 31
0.0
  0
LINE
  5
1FF
330
2
100
AcDbEntity
  8
UMRISS05
100
AcDbLine
 10
-180.3081550453716
 20
609.2658889910596
 30
0.0
 11
-180.3081550453716
 21
441.2658889910597
 31
0.0
  0
LINE
  5
200
330
2
100
AcDbEntity
  8
UMRISS05
100
AcDbLine
 10
-181.3081550453716
 20
440.2658889910596
 30
0.0
 11
-181.8081550453716
 21
440.2658889910596
 31
0.0
  0
LINE
  5
201
330
2
100
AcDbEntity
  8
UMRISS05
100
AcDbLine
 10
-184.8081550453716
 20
440.2658889910596
 30
0.0
 11
-185.8081550453716
 21
440.2658889910596
 31
0.0
  0
LINE
  5
202
330
2
100
AcDbEntity
  8
UMRISS05
100
AcDbLine
 10
-188.8081550453716
 20
440.2658889910596
 30
0.0
 11
-189.8081550453716
 21
440.2658889910596
 31
0.0
  0
LINE
  5
203
330
2
100
AcDbEntity
  8
UMRISS05
100
AcDbLine
 10
-192.8081550453716
 20
440.2658889910596
 30
0.0
 11
-193.8081550453716
 21
440.2658889910596
 31
0.0
  0
LINE
  5
204
330
2
100
AcDbEntity
  8
UMRISS05
100
AcDbLine
 10
-196.8081550453716
 20
440.2658889910596
 30
0.0
 11
-197.8081550453716
 21
440.2658889910596
 31
0.0
  0
LINE
  5
205
330
2
100
AcDbEntity
  8
UMRISS05
100
AcDbLine
 10
-200.8081550453716
 20
440.2658889910596
 30
0.0
 11
-207.3081550453717
 21
440.2658889910596
 31
0.0
  0
LINE
  5
206
330
2
100
AcDbEntity
  8
UMRISS05
100
AcDbLine
 10
-208.3081550453717
 20
439.2658889910596
 30
0.0
 11
-208.3081550453716
 21
422.2658889910595
 31
0.0
  0
LINE
  5
207
330
2
100
AcDbEntity
  8
UMRISS05
100
AcDbLine
 10
-232.3081550453716
 20
422.2658889910595
 30
0.0
 11
-232.3081550453717
 21
628.2658889910597
 31
0.0
  0
CIRCLE
  5
208
102
{ACAD_REACTORS
330
2E1
102
}
330
2
100
AcDbEntity
  8
UMRISS05
100
AcDbCircle
 10
-220.3081550453716
 20
422.2658889910595
 30
0.0
 40
2.75
  0
CIRCLE
  5
209
102
{ACAD_REACTORS
330
2E9
102
}
330
2
100
AcDbEntity
  8
UMRISS05
100
AcDbCircle
 10
-220.3081550453717
 20
628.2658889910597
 30
0.0
 40
2.75
  0
CIRCLE
  5
20A
102
{ACAD_REACTORS
330
2D9
102
}
330
2
100
AcDbEntity
  8
UMRISS05
100
AcDbCircle
 10
-220.3081550453717
 20
628.2658889910597
 30
0.0
 40
4.75
  0
CIRCLE
  5
20B
102
{ACAD_REACTORS
330
2D8
102
}
330
2
100
AcDbEntity
  8
UMRISS05
100
AcDbCircle
 10
-220.3081550453716
 20
422.2658889910595
 30
0.0
 40
4.75
  0
LINE
  5
20C
330
2
100
AcDbEntity
  8
UMRISS05
100
AcDbLine
 10
-199.3081550453717
 20
608.7658889910597
 30
0.0
 11
-200.8081550453716
 21
610.2658889910596
 31
0.0
  0
LINE
  5
20D
330
2
100
AcDbEntity
  8
UMRISS05
100
AcDbLine
 10
-197.8081550453717
 20
610.2658889910596
 30
0.0
 11
-199.3081550453717
 21
608.7658889910597
 31
0.0
  0
LINE
  5
20E
330
2
100
AcDbEntity
  8
UMRISS05
100
AcDbLine
 10
-195.3081550453717
 20
608.7658889910597
 30
0.0
 11
-196.8081550453716
 21
610.2658889910596
 31
0.0
  0
LINE
  5
20F
330
2
100
AcDbEntity
  8
UMRISS05
100
AcDbLine
 10
-193.8081550453716
 20
610.2658889910596
 30
0.0
 11
-195.3081550453717
 21
608.7658889910597
 31
0.0
  0
LINE
  5
210
330
2
100
AcDbEntity
  8
UMRISS05
100
AcDbLine
 10
-191.3081550453716
 20
608.7658889910597
 30
0.0
 11
-192.8081550453716
 21
610.2658889910596
 31
0.0
  0
LINE
  5
211
330
2
100
AcDbEntity
  8
UMRISS05
100
AcDbLine
 10
-189.8081550453716
 20
610.2658889910596
 30
0.0
 11
-191.3081550453716
 21
608.7658889910597
 31
0.0
  0
LINE
  5
212
330
2
100
AcDbEntity
  8
UMRISS05
100
AcDbLine
 10
-187.3081550453717
 20
608.7658889910597
 30
0.0
 11
-188.8081550453716
 21
610.2658889910596
 31
0.0
  0
LINE
  5
213
330
2
100
AcDbEntity
  8
UMRISS05
100
AcDbLine
 10
-185.8081550453716
 20
610.2658889910596
 30
0.0
 11
-187.3081550453717
 21
608.7658889910597
 31
0.0
  0
LINE
  5
214
330
2
100
AcDbEntity
  8
UMRISS05
100
AcDbLine
 10
-183.3081550453717
 20
608.7658889910597
 30
0.0
 11
-184.8081550453716
 21
610.2658889910596
 31
0.0
  0
LINE
  5
215
330
2
100
AcDbEntity
  8
UMRISS05
100
AcDbLine
 10
-181.8081550453717
 20
610.2658889910596
 30
0.0
 11
-183.3081550453717
 21
608.7658889910597
 31
0.0
  0
LINE
  5
216
330
2
100
AcDbEntity
  8
UMRISS05
100
AcDbLine
 10
-183.3081550453716
 20
441.7658889910597
 30
0.0
 11
-181.8081550453716
 21
440.2658889910596
 31
0.0
  0
LINE
  5
217
330
2
100
AcDbEntity
  8
UMRISS05
100
AcDbLine
 10
-184.8081550453716
 20
440.2658889910596
 30
0.0
 11
-183.3081550453716
 21
441.7658889910597
 31
0.0
  0
LINE
  5
218
330
2
100
AcDbEntity
  8
UMRISS05
100
AcDbLine
 10
-187.3081550453716
 20
441.7658889910597
 30
0.0
 11
-185.8081550453716
 21
440.2658889910596
 31
0.0
  0
LINE
  5
219
330
2
100
AcDbEntity
  8
UMRISS05
100
AcDbLine
 10
-188.8081550453716
 20
440.2658889910596
 30
0.0
 11
-187.3081550453716
 21
441.7658889910597
 31
0.0
  0
LINE
  5
21A
330
2
100
AcDbEntity
  8
UMRISS05
100
AcDbLine
 10
-191.3081550453716
 20
441.7658889910597
 30
0.0
 11
-189.8081550453716
 21
440.2658889910596
 31
0.0
  0
LINE
  5
21B
330
2
100
AcDbEntity
  8
UMRISS05
100
AcDbLine
 10
-192.8081550453716
 20
440.2658889910596
 30
0.0
 11
-191.3081550453716
 21
441.7658889910597
 31
0.0
  0
LINE
  5
21C
330
2
100
AcDbEntity
  8
UMRISS05
100
AcDbLine
 10
-195.3081550453716
 20
441.7658889910597
 30
0.0
 11
-193.8081550453716
 21
440.2658889910596
 31
0.0
  0
LINE
  5
21D
330
2
100
AcDbEntity
  8
UMRISS05
100
AcDbLine
 10
-196.8081550453716
 20
440.2658889910596
 30
0.0
 11
-195.3081550453716
 21
441.7658889910597
 31
0.0
  0
LINE
  5
21E
330
2
100
AcDbEntity
  8
UMRISS05
100
AcDbLine
 10
-199.3081550453716
 20
441.7658889910597
 30
0.0
 11
-197.8081550453716
 21
440.2658889910596
 31
0.0
  0
LINE
  5
21F
330
2
100
AcDbEntity
  8
UMRISS05
100
AcDbLine
 10
-200.8081550453716
 20
440.2658889910596
 30
0.0
 11
-199.3081550453716
 21
441.7658889910597
 31
0.0
  0
ARC
  5
220
330
2
100
AcDbEntity
  8
UMRISS05
100
AcDbCircle
 10
-200.4081550453717
 20
604.2658889910597
 30
0.0
 40
0.9999999999999964
100
AcDbArc
 50
275.7391704772681
 51
264.2608295227319
  0
LINE
  5
221
330
2
100
AcDbEntity
  8
UMRISS05
100
AcDbLine
 10
-200.5081550453716
 20
447.2608764281662
 30
0.0
 11
-200.5081550453717
 21
603.270901553953
 31
0.0
  0
ARC
  5
222
330
2
100
AcDbEntity
  8
UMRISS05
100
AcDbCircle
 10
-200.4081550453716
 20
446.2658889910597
 30
0.0
 40
1.0
100
AcDbArc
 50
95.73917047726808
 51
84.26082952273189
  0
LINE
  5
223
330
2
100
AcDbEntity
  8
UMRISS05
100
AcDbLine
 10
-200.3081550453717
 20
603.270901553953
 30
0.0
 11
-200.3081550453716
 21
447.2608764281662
 31
0.0
  0
ARC
  5
224
330
2
100
AcDbEntity
  8
UMRISS05
100
AcDbCircle
 10
-196.4081550453717
 20
604.2658889910597
 30
0.0
 40
0.9999999999999964
100
AcDbArc
 50
275.7391704772681
 51
264.2608295227319
  0
LINE
  5
225
330
2
100
AcDbEntity
  8
UMRISS05
100
AcDbLine
 10
-196.5081550453716
 20
447.2608764281662
 30
0.0
 11
-196.5081550453717
 21
603.270901553953
 31
0.0
  0
ARC
  5
226
330
2
100
AcDbEntity
  8
UMRISS05
100
AcDbCircle
 10
-196.4081550453716
 20
446.2658889910597
 30
0.0
 40
1.0
100
AcDbArc
 50
95.73917047726808
 51
84.26082952273189
  0
LINE
  5
227
330
2
100
AcDbEntity
  8
UMRISS05
100
AcDbLine
 10
-196.3081550453717
 20
603.270901553953
 30
0.0
 11
-196.3081550453716
 21
447.2608764281662
 31
0.0
  0
ARC
  5
228
330
2
100
AcDbEntity
  8
UMRISS05
100
AcDbCircle
 10
-192.4081550453717
 20
604.2658889910597
 30
0.0
 40
0.9999999999999964
100
AcDbArc
 50
275.7391704772681
 51
264.2608295227319
  0
LINE
  5
229
330
2
100
AcDbEntity
  8
UMRISS05
100
AcDbLine
 10
-192.5081550453715
 20
447.2608764281662
 30
0.0
 11
-192.5081550453717
 21
603.270901553953
 31
0.0
  0
ARC
  5
22A
330
2
100
AcDbEntity
  8
UMRISS05
100
AcDbCircle
 10
-192.4081550453716
 20
446.2658889910597
 30
0.0
 40
1.0
100
AcDbArc
 50
95.73917047726808
 51
84.26082952273189
  0
LINE
  5
22B
330
2
100
AcDbEntity
  8
UMRISS05
100
AcDbLine
 10
-192.3081550453717
 20
603.270901553953
 30
0.0
 11
-192.3081550453716
 21
447.2608764281662
 31
0.0
  0
ARC
  5
22C
330
2
100
AcDbEntity
  8
UMRISS05
100
AcDbCircle
 10
-188.4081550453717
 20
604.2658889910597
 30
0.0
 40
0.9999999999999964
100
AcDbArc
 50
275.7391704772681
 51
264.2608295227319
  0
LINE
  5
22D
330
2
100
AcDbEntity
  8
UMRISS05
100
AcDbLine
 10
-188.5081550453716
 20
447.2608764281662
 30
0.0
 11
-188.5081550453717
 21
603.270901553953
 31
0.0
  0
ARC
  5
22E
330
2
100
AcDbEntity
  8
UMRISS05
100
AcDbCircle
 10
-188.4081550453716
 20
446.2658889910597
 30
0.0
 40
1.0
100
AcDbArc
 50
95.73917047726808
 51
84.26082952273189
  0
LINE
  5
22F
330
2
100
AcDbEntity
  8
UMRISS05
100
AcDbLine
 10
-188.3081550453717
 20
603.270901553953
 30
0.0
 11
-188.3081550453716
 21
447.2608764281662
 31
0.0
  0
ARC
  5
230
330
2
100
AcDbEntity
  8
UMRISS05
100
AcDbCircle
 10
-184.4081550453717
 20
604.2658889910597
 30
0.0
 40
0.9999999999999964
100
AcDbArc
 50
275.7391704772681
 51
264.2608295227319
  0
LINE
  5
231
330
2
100
AcDbEntity
  8
UMRISS05
100
AcDbLine
 10
-184.5081550453716
 20
447.2608764281662
 30
0.0
 11
-184.5081550453717
 21
603.270901553953
 31
0.0
  0
ARC
  5
232
330
2
100
AcDbEntity
  8
UMRISS05
100
AcDbCircle
 10
-184.4081550453715
 20
446.2658889910597
 30
0.0
 40
1.0
100
AcDbArc
 50
95.73917047726808
 51
84.26082952273189
  0
LINE
  5
233
330
2
100
AcDbEntity
  8
UMRISS05
100
AcDbLine
 10
-184.3081550453717
 20
603.270901553953
 30
0.0
 11
-184.3081550453716
 21
447.2608764281662
 31
0.0
  0
ARC
  5
234
330
2
100
AcDbEntity
  8
UMRISS05
100
AcDbCircle
 10
-207.8081550453716
 20
509.2658889910597
 30
0.0
 40
0.9999999999999783
100
AcDbArc
 50
0.0
 51
90.0
  0
ARC
  5
235
330
2
100
AcDbEntity
  8
UMRISS05
100
AcDbCircle
 10
-214.3939414829986
 20
509.2658889910596
 30
0.0
 40
1.000000000000085
100
AcDbArc
 50
90.0
 51
134.9999999999968
  0
ARC
  5
236
330
2
100
AcDbEntity
  8
UMRISS05
100
AcDbCircle
 10
-217.2223686077448
 20
509.2658889910597
 30
0.0
 40
1.00000000000021
100
AcDbArc
 50
270.0000000000065
 51
314.9999999999919
  0
ARC
  5
237
330
2
100
AcDbEntity
  8
UMRISS05
100
AcDbCircle
 10
-225.9081550453716
 20
507.2658889910598
 30
0.0
 40
0.9999999999999964
100
AcDbArc
 50
90.0
 51
180.0
  0
ARC
  5
238
330
2
100
AcDbEntity
  8
UMRISS05
100
AcDbCircle
 10
-226.6081550453716
 20
498.0658889910596
 30
0.0
 40
0.3000000000000114
100
AcDbArc
 50
180.0
 51
269.9999999999935
  0
ARC
  5
239
330
2
100
AcDbEntity
  8
UMRISS05
100
AcDbCircle
 10
-226.1081550453716
 20
497.4658889910596
 30
0.0
 40
0.3000000000000114
100
AcDbArc
 50
0.0
 51
89.99999999999348
  0
ARC
  5
23A
330
2
100
AcDbEntity
  8
UMRISS05
100
AcDbCircle
 10
-226.1081550453716
 20
475.0658889910596
 30
0.0
 40
0.3000000000000158
100
AcDbArc
 50
270.0000000000065
 51
0.0
  0
ARC
  5
23B
330
2
100
AcDbEntity
  8
UMRISS05
100
AcDbCircle
 10
-226.6081550453716
 20
474.4658889910597
 30
0.0
 40
0.3000000000000025
100
AcDbArc
 50
90.0
 51
180.0
  0
ARC
  5
23C
330
2
100
AcDbEntity
  8
UMRISS05
100
AcDbCircle
 10
-225.9081550453716
 20
465.2658889910596
 30
0.0
 40
0.9999999999999964
100
AcDbArc
 50
180.0
 51
270.0
  0
ARC
  5
23D
330
2
100
AcDbEntity
  8
UMRISS05
100
AcDbCircle
 10
-217.2223686077447
 20
463.2658889910596
 30
0.0
 40
1.000000000000021
100
AcDbArc
 50
44.99999999999971
 51
90.0
  0
ARC
  5
23E
330
2
100
AcDbEntity
  8
UMRISS05
100
AcDbCircle
 10
-214.3939414829986
 20
463.2658889910596
 30
0.0
 40
0.9999999999999069
100
AcDbArc
 50
224.9999999999989
 51
270.0
  0
ARC
  5
23F
330
2
100
AcDbEntity
  8
UMRISS05
100
AcDbCircle
 10
-207.8081550453716
 20
463.2658889910596
 30
0.0
 40
1.000000000000005
100
AcDbArc
 50
270.0
 51
0.0
  0
ARC
  5
240
330
2
100
AcDbEntity
  8
UMRISS05
100
AcDbCircle
 10
-207.3081550453717
 20
611.2658889910597
 30
0.0
 40
0.9999999999999964
100
AcDbArc
 50
180.0
 51
270.0
  0
ARC
  5
241
330
2
100
AcDbEntity
  8
UMRISS05
100
AcDbCircle
 10
-181.3081550453716
 20
609.2658889910596
 30
0.0
 40
0.9999999999999431
100
AcDbArc
 50
0.0
 51
90.0
  0
ARC
  5
242
330
2
100
AcDbEntity
  8
UMRISS05
100
AcDbCircle
 10
-181.3081550453716
 20
441.2658889910597
 30
0.0
 40
1.000000000000005
100
AcDbArc
 50
270.0
 51
0.0
  0
ARC
  5
243
330
2
100
AcDbEntity
  8
UMRISS05
100
AcDbCircle
 10
-207.3081550453717
 20
439.2658889910596
 30
0.0
 40
0.999999999999992
100
AcDbArc
 50
90.0
 51
180.0
  0
ARC
  5
244
330
2
100
AcDbEntity
  8
UMRISS05
100
AcDbCircle
 10
-220.3081550453716
 20
422.2658889910595
 30
0.0
 40
12.0
100
AcDbArc
 50
180.0
 51
0.0
  0
ARC
  5
245
330
2
100
AcDbEntity
  8
UMRISS05
100
AcDbCircle
 10
-220.3081550453717
 20
628.2658889910597
 30
0.0
 40
12.0
100
AcDbArc
 50
0.0
 51
180.0
  0
ARC
  5
246
330
2
100
AcDbEntity
  8
UMRISS05
100
AcDbCircle
 10
-207.8081550453717
 20
587.2658889910597
 30
0.0
 40
1.000000000000005
100
AcDbArc
 50
0.0
 51
90.0
  0
ARC
  5
247
330
2
100
AcDbEntity
  8
UMRISS05
100
AcDbCircle
 10
-214.3939414829988
 20
587.2658889910598
 30
0.0
 40
0.9999999999997299
100
AcDbArc
 50
89.99999999999348
 51
135.0000000000014
  0
ARC
  5
248
330
2
100
AcDbEntity
  8
UMRISS05
100
AcDbCircle
 10
-217.2223686077447
 20
587.2658889910593
 30
0.0
 40
0.9999999999996964
100
AcDbArc
 50
269.9999999999935
 51
315.0000000000058
  0
ARC
  5
249
330
2
100
AcDbEntity
  8
UMRISS05
100
AcDbCircle
 10
-225.9081550453717
 20
585.2658889910596
 30
0.0
 40
1.000000000000012
100
AcDbArc
 50
90.0
 51
180.0
  0
ARC
  5
24A
330
2
100
AcDbEntity
  8
UMRISS05
100
AcDbCircle
 10
-226.6081550453717
 20
576.0658889910597
 30
0.0
 40
0.3000000000000125
100
AcDbArc
 50
180.0
 51
269.9999999999935
  0
ARC
  5
24B
330
2
100
AcDbEntity
  8
UMRISS05
100
AcDbCircle
 10
-226.1081550453718
 20
575.4658889910595
 30
0.0
 40
0.3000000000000114
100
AcDbArc
 50
0.0
 51
89.99999999999348
  0
ARC
  5
24C
330
2
100
AcDbEntity
  8
UMRISS05
100
AcDbCircle
 10
-226.1081550453718
 20
553.0658889910597
 30
0.0
 40
0.3000000000000091
100
AcDbArc
 50
270.0000000000065
 51
0.0
  0
ARC
  5
24D
330
2
100
AcDbEntity
  8
UMRISS05
100
AcDbCircle
 10
-226.6081550453717
 20
552.4658889910596
 30
0.0
 40
0.2999999999999758
100
AcDbArc
 50
89.99999999999348
 51
180.0
  0
ARC
  5
24E
330
2
100
AcDbEntity
  8
UMRISS05
100
AcDbCircle
 10
-225.9081550453717
 20
543.2658889910596
 30
0.0
 40
1.0
100
AcDbArc
 50
180.0
 51
270.0
  0
ARC
  5
24F
330
2
100
AcDbEntity
  8
UMRISS05
100
AcDbCircle
 10
-217.2223686077448
 20
541.2658889910597
 30
0.0
 40
0.9999999999999964
100
AcDbArc
 50
44.99999999999971
 51
90.0
  0
ARC
  5
250
330
2
100
AcDbEntity
  8
UMRISS05
100
AcDbCircle
 10
-214.3939414829986
 20
541.2658889910598
 30
0.0
 40
1.000000000000082
100
AcDbArc
 50
225.0000000000035
 51
270.0
  0
ARC
  5
251
330
2
100
AcDbEntity
  8
UMRISS05
100
AcDbCircle
 10
-207.8081550453717
 20
541.2658889910597
 30
0.0
 40
0.9999999999999783
100
AcDbArc
 50
270.0
 51
0.0
  0
LINE
  5
252
330
2
100
AcDbEntity
  8
UMRISS05
100
AcDbLine
 10
-214.3939414829986
 20
510.2658889910596
 30
0.0
 11
-207.8081550453716
 21
510.2658889910596
 31
0.0
  0
LINE
  5
253
330
2
100
AcDbEntity
  8
UMRISS05
100
AcDbLine
 10
-216.5152618265582
 20
508.5587822098731
 30
0.0
 11
-215.1010482641851
 21
509.9729957722462
 31
0.0
  0
LINE
  5
254
330
2
100
AcDbEntity
  8
UMRISS05
100
AcDbLine
 10
-225.9081550453716
 20
508.2658889910597
 30
0.0
 11
-217.2223686077447
 21
508.2658889910597
 31
0.0
  0
LINE
  5
255
330
2
100
AcDbEntity
  8
UMRISS05
100
AcDbLine
 10
-226.9081550453716
 20
498.0658889910596
 30
0.0
 11
-226.9081550453716
 21
507.2658889910598
 31
0.0
  0
LINE
  5
256
330
2
100
AcDbEntity
  8
UMRISS05
100
AcDbLine
 10
-226.1081550453716
 20
497.7658889910596
 30
0.0
 11
-226.6081550453716
 21
497.7658889910596
 31
0.0
  0
LINE
  5
257
330
2
100
AcDbEntity
  8
UMRISS05
100
AcDbLine
 10
-225.8081550453716
 20
475.0658889910596
 30
0.0
 11
-225.8081550453716
 21
497.4658889910596
 31
0.0
  0
LINE
  5
258
330
2
100
AcDbEntity
  8
UMRISS05
100
AcDbLine
 10
-226.6081550453716
 20
474.7658889910597
 30
0.0
 11
-226.1081550453716
 21
474.7658889910597
 31
0.0
  0
LINE
  5
259
330
2
100
AcDbEntity
  8
UMRISS05
100
AcDbLine
 10
-226.9081550453716
 20
465.2658889910596
 30
0.0
 11
-226.9081550453716
 21
474.4658889910597
 31
0.0
  0
LINE
  5
25A
330
2
100
AcDbEntity
  8
UMRISS05
100
AcDbLine
 10
-217.2223686077447
 20
464.2658889910596
 30
0.0
 11
-225.9081550453716
 21
464.2658889910596
 31
0.0
  0
LINE
  5
25B
330
2
100
AcDbEntity
  8
UMRISS05
100
AcDbLine
 10
-215.1010482641851
 20
462.5587822098731
 30
0.0
 11
-216.5152618265582
 21
463.9729957722462
 31
0.0
  0
LINE
  5
25C
330
2
100
AcDbEntity
  8
UMRISS05
100
AcDbLine
 10
-207.8081550453716
 20
462.2658889910597
 30
0.0
 11
-214.3939414829986
 21
462.2658889910597
 31
0.0
  0
LINE
  5
25D
330
2
100
AcDbEntity
  8
UMRISS05
100
AcDbLine
 10
-206.8081550453717
 20
483.1658889910596
 30
0.0
 11
-206.8081550453716
 21
463.2658889910596
 31
0.0
  0
LINE
  5
25E
330
2
100
AcDbEntity
  8
UMRISS05
100
AcDbLine
 10
-214.3939414829987
 20
588.2658889910596
 30
0.0
 11
-207.8081550453717
 21
588.2658889910596
 31
0.0
  0
LINE
  5
25F
330
2
100
AcDbEntity
  8
UMRISS05
100
AcDbLine
 10
-216.5152618265582
 20
586.558782209873
 30
0.0
 11
-215.1010482641853
 21
587.9729957722462
 31
0.0
  0
LINE
  5
260
330
2
100
AcDbEntity
  8
UMRISS05
100
AcDbLine
 10
-225.9081550453717
 20
586.2658889910597
 30
0.0
 11
-217.2223686077448
 21
586.2658889910597
 31
0.0
  0
LINE
  5
261
330
2
100
AcDbEntity
  8
UMRISS05
100
AcDbLine
 10
-226.9081550453717
 20
576.0658889910597
 30
0.0
 11
-226.9081550453717
 21
585.2658889910596
 31
0.0
  0
LINE
  5
262
330
2
100
AcDbEntity
  8
UMRISS05
100
AcDbLine
 10
-226.1081550453718
 20
575.7658889910596
 30
0.0
 11
-226.6081550453717
 21
575.7658889910596
 31
0.0
  0
LINE
  5
263
330
2
100
AcDbEntity
  8
UMRISS05
100
AcDbLine
 10
-225.8081550453717
 20
553.0658889910597
 30
0.0
 11
-225.8081550453717
 21
575.4658889910595
 31
0.0
  0
LINE
  5
264
330
2
100
AcDbEntity
  8
UMRISS05
100
AcDbLine
 10
-226.6081550453717
 20
552.7658889910596
 30
0.0
 11
-226.1081550453718
 21
552.7658889910596
 31
0.0
  0
LINE
  5
265
330
2
100
AcDbEntity
  8
UMRISS05
100
AcDbLine
 10
-226.9081550453717
 20
543.2658889910596
 30
0.0
 11
-226.9081550453717
 21
552.4658889910596
 31
0.0
  0
LINE
  5
266
330
2
100
AcDbEntity
  8
UMRISS05
100
AcDbLine
 10
-217.2223686077448
 20
542.2658889910596
 30
0.0
 11
-225.9081550453717
 21
542.2658889910596
 31
0.0
  0
LINE
  5
267
330
2
100
AcDbEntity
  8
UMRISS05
100
AcDbLine
 10
-215.1010482641853
 20
540.5587822098731
 30
0.0
 11
-216.5152618265584
 21
541.9729957722461
 31
0.0
  0
LINE
  5
268
330
2
100
AcDbEntity
  8
UMRISS05
100
AcDbLine
 10
-207.8081550453717
 20
540.2658889910598
 30
0.0
 11
-214.3939414829987
 21
540.2658889910598
 31
0.0
  0
LINE
  5
269
330
2
100
AcDbEntity
  8
UMRISS05
100
AcDbLine
 10
-206.8081550453717
 20
587.2658889910597
 30
0.0
 11
-206.8081550453717
 21
567.3658889910597
 31
0.0
  0
LINE
  5
26A
330
2
100
AcDbEntity
  8
UMRISS05
100
AcDbLine
 10
-206.8081550453717
 20
561.1658889910597
 30
0.0
 11
-206.8081550453717
 21
541.2658889910598
 31
0.0
  0
LINE
  5
26B
330
2
100
AcDbEntity
  8
UMRISS05
100
AcDbLine
 10
-206.8081550453716
 20
509.2658889910597
 30
0.0
 11
-206.8081550453717
 21
489.3658889910597
 31
0.0
  0
LINE
  5
26C
330
2
100
AcDbEntity
  8
UMRISS05
100
AcDbLine
 10
-206.8081550453717
 20
567.3658889910597
 30
0.0
 11
-203.8081550453717
 21
567.3658889910597
 31
0.0
  0
LINE
  5
26D
330
2
100
AcDbEntity
  8
UMRISS05
100
AcDbLine
 10
-203.8081550453717
 20
567.3658889910597
 30
0.0
 11
-203.8081550453717
 21
561.1658889910597
 31
0.0
  0
LINE
  5
26E
330
2
100
AcDbEntity
  8
UMRISS05
100
AcDbLine
 10
-203.8081550453717
 20
561.1658889910597
 30
0.0
 11
-206.8081550453717
 21
561.1658889910597
 31
0.0
  0
LINE
  5
26F
330
2
100
AcDbEntity
  8
UMRISS05
100
AcDbLine
 10
-203.8081550453717
 20
483.1658889910596
 30
0.0
 11
-206.8081550453717
 21
483.1658889910596
 31
0.0
  0
LINE
  5
270
330
2
100
AcDbEntity
  8
UMRISS05
100
AcDbLine
 10
-206.8081550453717
 20
489.3658889910597
 30
0.0
 11
-203.8081550453717
 21
489.3658889910597
 31
0.0
  0
LINE
  5
271
330
2
100
AcDbEntity
  8
UMRISS05
100
AcDbLine
 10
-203.8081550453717
 20
489.3658889910597
 30
0.0
 11
-203.8081550453717
 21
483.1658889910596
 31
0.0
  0
CIRCLE
  5
272
330
2
100
AcDbEntity
  8
UMRISS05
100
AcDbCircle
 10
-219.8081550453717
 20
590.5158889910596
 30
0.0
 40
2.0
  0
CIRCLE
  5
273
330
2
100
AcDbEntity
  8
UMRISS05
100
AcDbCircle
 10
-219.8081550453717
 20
590.5158889910596
 30
0.0
 40
4.0
  0
CIRCLE
  5
274
330
2
100
AcDbEntity
  8
UMRISS05
100
AcDbCircle
 10
-219.8081550453716
 20
538.0158889910596
 30
0.0
 40
2.0
  0
CIRCLE
  5
275
330
2
100
AcDbEntity
  8
UMRISS05
100
AcDbCircle
 10
-219.8081550453716
 20
538.0158889910596
 30
0.0
 40
4.0
  0
CIRCLE
  5
276
330
2
100
AcDbEntity
  8
UMRISS05
100
AcDbCircle
 10
-219.8081550453716
 20
512.5158889910596
 30
0.0
 40
2.0
  0
CIRCLE
  5
277
330
2
100
AcDbEntity
  8
UMRISS05
100
AcDbCircle
 10
-219.8081550453716
 20
512.5158889910596
 30
0.0
 40
4.0
  0
CIRCLE
  5
278
330
2
100
AcDbEntity
  8
UMRISS05
100
AcDbCircle
 10
-219.8081550453717
 20
460.0158889910597
 30
0.0
 40
2.0
  0
CIRCLE
  5
279
330
2
100
AcDbEntity
  8
UMRISS05
100
AcDbCircle
 10
-219.8081550453717
 20
460.0158889910597
 30
0.0
 40
4.0
  0
LINE
  5
27A
102
{ACAD_REACTORS
330
2EA
102
}
330
2
100
AcDbEntity
  8
ACHSEN
100
AcDbLine
 10
-234.9466123625686
 20
564.2658889910596
 30
0.0
 11
-175.9006340861489
 21
564.2658889910596
 31
0.0
  0
ENDSEC
  0
SECTION
  2
OBJECTS
  0
DICTIONARY
  5
A
330
0
100
AcDbDictionary
281
     1
  3
ACAD_ASSOCNETWORK
350
2ED
  3
ACAD_COLOR
350
4D
  3
ACAD_DETAILVIEWSTYLE
350
29C
  3
ACAD_FIELDLIST
350
2EB
  3
ACAD_GROUP
350
3A
  3
ACAD_LAYOUT
350
9
  3
ACAD_MATERIAL
350
17
  3
ACAD_MLEADERSTYLE
350
50
  3
ACAD_MLINESTYLE
350
3B
  3
ACAD_PLOTSETTINGS
350
3C
  3
ACAD_PLOTSTYLENAME
350
15
  3
ACAD_SCALELIST
350
4E
  3
ACAD_SECTIONVIEWSTYLE
350
2A7
  3
ACAD_TABLESTYLE
350
4F
  3
ACAD_VISUALSTYLE
350
2E
  3
ACDB_RECOMPOSE_DATA
350
305
  3
AcDbVariableDictionary
350
2F4
  3
AcDsDecomposeData
350
30B
  3
AcmDictionary
350
28C
  3
AMG
350
27D
  0
DICTIONARY
  5
20
330
10
100
AcDbDictionary
280
     1
281
     1
  3
ACAD_LAYERSTATES
360
21
  3
AMLAYER_GROUPCOLORS
360
22
  0
DICTIONARY
  5
12
330
11
100
AcDbDictionary
280
     1
281
     1
  3
ADSK_XREC_LAYER_RECONCILED
360
13
  0
DICTIONARY
  5
D3
330
D2
100
AcDbDictionary
280
     1
281
     1
  3
ADSK_XREC_LAYER_RECONCILED
360
D4
  0
DICTIONARY
  5
8C
330
8B
100
AcDbDictionary
280
     1
281
     1
  3
ADSK_XREC_LAYER_RECONCILED
360
8D
  0
DICTIONARY
  5
84
330
83
100
AcDbDictionary
280
     1
281
     1
  3
ADSK_XREC_LAYER_RECONCILED
360
85
  0
DICTIONARY
  5
C6
330
C5
100
AcDbDictionary
280
     1
281
     1
  3
ADSK_XREC_LAYER_RECONCILED
360
C7
  0
DICTIONARY
  5
3
330
2
100
AcDbDictionary
280
     1
281
     1
  3
ACAD_ASSOCNETWORK
360
4
  3
ACAD_SORTENTS
360
27B
  0
DICTIONARY
  5
2ED
102
{ACAD_REACTORS
330
A
102
}
330
A
100
AcDbDictionary
281
     1
  3
ACAD_ASSOCNETWORK
350
2EE
  0
DICTIONARY
  5
4D
102
{ACAD_REACTORS
330
A
102
}
330
A
100
AcDbDictionary
281
     1
  0
DICTIONARY
  5
29C
102
{ACAD_REACTORS
330
A
102
}
330
A
100
AcDbDictionary
281
     1
  3
Metric50
350
2A3
  0
FIELDLIST
  5
2EB
102
{ACAD_REACTORS
330
A
102
}
330
A
100
AcDbIdSet
 90
        6
330
29F
330
2A0
330
2A1
330
2AA
330
2AB
330
2AC
100
AcDbFieldList
  0
DICTIONARY
  5
3A
102
{ACAD_REACTORS
330
A
102
}
330
A
100
AcDbDictionary
281
     1
  0
DICTIONARY
  5
9
102
{ACAD_REACTORS
330
A
102
}
330
A
100
AcDbDictionary
281
     1
  3
Layout1
350
F
  3
Model
350
8
  0
DICTIONARY
  5
17
102
{ACAD_REACTORS
330
A
102
}
330
A
100
AcDbDictionary
281
     1
  3
ByBlock
350
45
  3
ByLayer
350
3D
  3
Global
350
16
  0
DICTIONARY
  5
50
102
{ACAD_REACTORS
330
A
102
}
330
A
100
AcDbDictionary
281
     1
  0
DICTIONARY
  5
3B
102
{ACAD_REACTORS
330
A
102
}
330
A
100
AcDbDictionary
281
     1
  3
STANDARD
350
52
  0
DICTIONARY
  5
3C
102
{ACAD_REACTORS
330
A
102
}
330
A
100
AcDbDictionary
281
     1
  0
ACDBDICTIONARYWDFLT
  5
15
102
{ACAD_REACTORS
330
A
102
}
330
A
100
AcDbDictionary
281
     1
  3
Normal
350
14
100
AcDbDictionaryWithDefault
340
14
  0
DICTIONARY
  5
4E
102
{ACAD_REACTORS
330
A
102
}
330
A
100
AcDbDictionary
281
     1
  3
A0
350
57
  3
A1
350
58
  3
A2
350
59
  3
A3
350
5A
  3
A4
350
5B
  3
A5
350
5C
  3
A6
350
5D
  3
A7
350
5E
  3
A8
350
5F
  3
A9
350
60
  3
B0
350
61
  3
B1
350
62
  3
B2
350
63
  3
B3
350
64
  3
B4
350
65
  3
B5
350
66
  3
B6
350
67
  0
DICTIONARY
  5
2A7
102
{ACAD_REACTORS
330
A
102
}
330
A
100
AcDbDictionary
281
     1
  3
Metric50
350
2B2
  0
DICTIONARY
  5
4F
102
{ACAD_REACTORS
330
A
102
}
330
A
100
AcDbDictionary
281
     1
  3
Standard
350
53
  0
DICTIONARY
  5
2E
102
{ACAD_REACTORS
330
A
102
}
330
A
100
AcDbDictionary
281
     1
  3
2dWireframe
350
2D
  3
Realistic
350
55
  3
Wireframe
350
56
  0
XRECORD
  5
305
102
{ACAD_REACTORS
330
A
102
}
330
A
100
AcDbXrecord
280
     1
 90
        1
330
53
  0
DICTIONARY
  5
2F4
102
{ACAD_REACTORS
330
A
102
}
330
A
100
AcDbDictionary
281
     1
  3
CANNOSCALE
350
2F9
  3
CMLEADERSTYLE
350
2F6
  3
CTABLESTYLE
350
2F5
  3
CVIEWDETAILSTYLE
350
2F7
  3
CVIEWSECTIONSTYLE
350
2F8
  3
DIMASSOC
350
2FE
  3
HIDETEXT
350
2FC
  3
INDEXCTL
350
2FB
  3
LOFTANG1
350
300
  3
LOFTANG2
350
301
  3
LONGITUDE
350
302
  3
SOLIDHIST
350
2FF
  3
SORTENTS
350
2FA
  3
XCLIPFRAME
350
2FD
  0
DICTIONARY
  5
30B
102
{ACAD_REACTORS
330
A
102
}
330
A
100
AcDbDictionary
281
     1
  3
AcDsRecords
350
30D
  3
AcDsSchemas
350
30C
1001
ACAD
1070
     2
  0
DICTIONARY
  5
28C
102
{ACAD_REACTORS
330
A
102
}
330
A
100
AcDbDictionary
281
     1
  3
AcmStdDictionary
350
28D
  0
DICTIONARY
  5
27D
102
{ACAD_REACTORS
330
A
102
}
330
A
100
AcDbDictionary
281
     1
  3
AcMgSettings
350
287
  0
DICTIONARY
  5
21
102
{ACAD_REACTORS
330
20
102
}
330
20
100
AcDbDictionary
281
     1
  0
DICTIONARY
  5
22
102
{ACAD_REACTORS
330
20
102
}
330
20
100
AcDbDictionary
280
     1
281
     1
  0
XRECORD
  5
13
102
{ACAD_REACTORS
330
12
102
}
330
12
100
AcDbXrecord
280
     1
290
     1
  0
XRECORD
  5
D4
102
{ACAD_REACTORS
330
D3
102
}
330
D3
100
AcDbXrecord
280
     1
290
     1
  0
XRECORD
  5
8D
102
{ACAD_REACTORS
330
8C
102
}
330
8C
100
AcDbXrecord
280
     1
290
     1
  0
XRECORD
  5
85
102
{ACAD_REACTORS
330
84
102
}
330
84
100
AcDbXrecord
280
     1
290
     1
  0
XRECORD
  5
C7
102
{ACAD_REACTORS
330
C6
102
}
330
C6
100
AcDbXrecord
280
     1
290
     1
  0
DICTIONARY
  5
4
102
{ACAD_REACTORS
330
3
102
}
330
3
100
AcDbDictionary
281
     1
  3
ACAD_ASSOCNETWORK
350
2EC
  0
SORTENTSTABLE
  5
27B
102
{ACAD_REACTORS
330
3
102
}
330
3
100
AcDbSortentsTable
330
2
331
B7
  5
26C
331
129
  5
21A
331
EE
  5
248
331
EA
  5
24C
331
21C
  5
11A
331
218
  5
143
331
257
  5
DF
331
214
  5
147
331
253
  5
E3
331
210
  5
14B
331
E6
  5
250
331
E2
  5
254
331
119
  5
21D
331
158
  5
20F
331
DE
  5
258
331
DA
  5
25C
331
115
  5
221
331
9B
  5
26E
331
111
  5
225
331
24F
  5
E7
331
24B
  5
EB
331
1D1
  5
204
331
20C
  5
17F
331
278
  5
7D
331
208
  5
1A9
331
247
  5
EF
331
204
  5
1D1
331
243
  5
F3
331
200
  5
1F9
331
D6
  5
260
331
10D
  5
229
331
148
  5
213
331
CE
  5
265
331
109
  5
22D
331
CA
  5
269
331
105
  5
231
331
144
  5
217
331
101
  5
235
331
274
  5
82
331
270
  5
8A
331
23F
  5
F7
331
23B
  5
FB
331
26C
  5
B7
331
1FC
  5
1FD
331
268
  5
CB
331
1F8
  5
201
331
237
  5
FF
331
233
  5
103
331
87
  5
273
331
FD
  5
239
331
7F
  5
277
331
F9
  5
23D
331
F5
  5
241
331
F1
  5
245
331
264
  5
CF
331
260
  5
D6
331
22F
  5
107
331
22B
  5
10B
331
172
  5
20D
331
25C
  5
DA
331
258
  5
DE
331
227
  5
10F
331
1A9
  5
208
331
223
  5
113
331
ED
  5
249
331
E9
  5
24D
331
21F
  5
117
331
21B
  5
11B
331
217
  5
144
331
256
  5
E0
331
213
  5
148
331
252
  5
E4
331
69
  5
279
331
E5
  5
251
331
E1
  5
255
331
118
  5
21E
331
DD
  5
259
331
D9
  5
25D
331
114
  5
222
331
9A
  5
26F
331
110
  5
226
331
24E
  5
E8
331
20F
  5
158
331
20B
  5
180
331
24A
  5
EC
331
1D0
  5
205
331
207
  5
1B6
331
246
  5
F0
331
18D
  5
20A
331
203
  5
1DE
331
242
  5
F4
331
D5
  5
261
331
14B
  5
210
331
D1
  5
262
331
10C
  5
22A
331
108
  5
22E
331
147
  5
214
331
CD
  5
266
331
C9
  5
26A
331
104
  5
232
331
143
  5
218
331
8A
  5
270
331
277
  5
7F
331
100
  5
236
331
273
  5
87
331
23E
  5
F8
331
26F
  5
9A
331
1FF
  5
1FA
331
23A
  5
FC
331
26B
  5
C4
331
1FB
  5
1FE
331
236
  5
100
331
232
  5
104
331
82
  5
274
331
FC
  5
23A
331
F8
  5
23E
331
F4
  5
242
331
267
  5
CC
331
F0
  5
246
331
263
  5
D0
331
25F
  5
D7
331
22E
  5
108
331
22A
  5
10C
331
1EB
  5
202
331
25B
  5
DB
331
226
  5
110
331
222
  5
114
331
EC
  5
24A
331
E8
  5
24E
331
21E
  5
118
331
21A
  5
129
331
216
  5
145
331
255
  5
E1
331
19C
  5
209
331
212
  5
149
331
251
  5
E5
331
68
  5
27A
331
E4
  5
252
331
E0
  5
256
331
11B
  5
21B
331
DC
  5
25A
331
117
  5
21F
331
D8
  5
25E
331
113
  5
223
331
24D
  5
E9
331
20E
  5
165
331
27A
  5
68
331
20A
  5
18D
331
249
  5
ED
331
206
  5
1C3
331
245
  5
F1
331
202
  5
1EB
331
241
  5
F5
331
10F
  5
227
331
14A
  5
211
331
D0
  5
263
331
10B
  5
22B
331
107
  5
22F
331
146
  5
215
331
CC
  5
267
331
103
  5
233
331
89
  5
271
331
276
  5
80
331
272
  5
88
331
23D
  5
F9
331
1C3
  5
206
331
26E
  5
9B
331
1FE
  5
1FB
331
26A
  5
C9
331
1FA
  5
1FF
331
239
  5
FD
331
180
  5
20B
331
235
  5
101
331
231
  5
105
331
C4
  5
26B
331
FF
  5
237
331
81
  5
275
331
FB
  5
23B
331
F7
  5
23F
331
136
  5
219
331
7D
  5
278
331
F3
  5
243
331
266
  5
CD
331
262
  5
D1
331
22D
  5
109
331
25E
  5
D8
331
229
  5
10D
331
25A
  5
DC
331
225
  5
111
331
221
  5
115
331
EF
  5
247
331
EB
  5
24B
331
165
  5
20E
331
A8
  5
26D
331
21D
  5
119
331
1DE
  5
203
331
219
  5
136
331
215
  5
146
331
254
  5
E2
331
211
  5
14A
331
250
  5
E6
331
E7
  5
24F
331
E3
  5
253
331
DF
  5
257
331
11A
  5
21C
331
DB
  5
25B
331
116
  5
220
331
112
  5
224
331
24C
  5
EA
331
20D
  5
172
331
279
  5
69
331
209
  5
19C
331
248
  5
EE
331
205
  5
1D0
331
244
  5
F2
331
201
  5
1F8
331
240
  5
F6
331
D7
  5
25F
331
10E
  5
228
331
149
  5
212
331
CF
  5
264
331
10A
  5
22C
331
CB
  5
268
331
106
  5
230
331
145
  5
216
331
102
  5
234
331
88
  5
272
331
275
  5
81
331
271
  5
89
331
23C
  5
FA
331
26D
  5
A8
331
1FD
  5
1FC
331
269
  5
CA
331
1F9
  5
200
331
238
  5
FE
331
17F
  5
20C
331
234
  5
102
331
230
  5
106
331
FE
  5
238
331
80
  5
276
331
FA
  5
23C
331
F6
  5
240
331
F2
  5
244
331
265
  5
CE
331
1B6
  5
207
331
261
  5
D5
331
22C
  5
10A
331
25D
  5
D9
331
259
  5
DD
331
228
  5
10E
331
224
  5
112
331
220
  5
116
  0
ACDBASSOCNETWORK
  5
2EE
102
{ACAD_REACTORS
330
2ED
102
}
330
2ED
100
AcDbAssocAction
 90
        1
 90
        1
330
0
360
0
 90
        0
 90
        0
 90
        0
100
AcDbAssocNetwork
 90
        0
 90
        1
 90
        1
330
2EC
 90
        1
330
2EC
  0
ACDBDETAILVIEWSTYLE
  5
2A3
102
{ACAD_XDICTIONARY
360
2A4
102
}
102
{ACAD_REACTORS
330
29C
330
2A2
102
}
330
29C
100
AcDbModelDocViewStyle
 70
     0
  3
Metric50
290
     0
100
AcDbDetailViewStyle
 70
     0
 71
     0
 90
        3
 71
     1
340
24
 40
5.0
340
0
 40
5.0
300

 40
0.0
280
     1
 71
     2
340
1F
 90
       25
 71
     3
340
24
 40
5.0
 90
        0
 40
15.0
 90
        1
300
%<\AcVar ViewDetailId>% (%<\AcVar ViewScale \f "%sn">%)
 71
     4
340
1F
 90
       25
340
1F
 90
       25
280
     0
  0
LAYOUT
  5
F
102
{ACAD_XDICTIONARY
360
30F
102
}
102
{ACAD_REACTORS
330
9
102
}
330
9
100
AcDbPlotSettings
  1

  2
none_device
  4
Letter_(8.50_x_11.00_Inches)
  6

 40
6.349999904632567
 41
6.349999904632567
 42
6.350006103515625
 43
6.350006103515625
 44
215.8999938964844
 45
279.3999938964844
 46
0.0
 47
0.0
 48
0.0
 49
0.0
140
0.0
141
0.0
142
1.0
143
1.0
 70
   688
 72
     1
 73
     1
 74
     5
  7
Datenblatt.ctb
 75
    16
147
1.0
148
0.0
149
0.0
100
AcDbLayout
  1
Layout1
 70
     1
 71
     1
 10
-6.350006103515625
 20
-6.349999904632567
 11
273.0499877929688
 21
209.5499939918518
 12
0.0
 22
0.0
 32
0.0
 14
26.66999878883363
 24
20.31999878883363
 34
0.0
 15
240.0299890995026
 25
182.8799890995025
 35
0.0
146
0.0
 13
0.0
 23
0.0
 33
0.0
 16
1.0
 26
0.0
 36
0.0
 17
0.0
 27
1.0
 37
0.0
 76
     0
330
C
  0
LAYOUT
  5
8
102
{ACAD_XDICTIONARY
360
B
102
}
102
{ACAD_REACTORS
330
9
102
}
330
9
100
AcDbPlotSettings
  1

  2
A3quer-MSL.pc3
  4
A3
  6

 40
6.085416793823242
 41
6.12772798538208
 42
5.662078857421875
 43
5.53509521484375
 44
296.9683227539062
 45
419.9889831542968
 46
4.5
 47
2.5
 48
0.0
 49
0.0
140
0.0
141
0.0
142
1.0
143
1.0
 70
 11952
 72
     1
 73
     1
 74
     1
  7
Datenblatt.ctb
 75
    16
147
1.0
148
0.0160923307578855
149
0.4351688123455233
100
AcDbLayout
  1
Model
 70
     1
 71
     0
 10
0.0
 20
0.0
 11
12.0
 21
9.0
 12
0.0
 22
0.0
 32
0.0
 14
0.0
 24
0.0
 34
0.0
 15
0.0
 25
0.0
 35
0.0
146
0.0
 13
0.0
 23
0.0
 33
0.0
 16
1.0
 26
0.0
 36
0.0
 17
0.0
 27
1.0
 37
0.0
 76
     0
330
2
331
2C
  0
MATERIAL
  5
45
102
{ACAD_XDICTIONARY
360
46
102
}
102
{ACAD_REACTORS
330
17
102
}
330
17
100
AcDbMaterial
  1
ByBlock
 72
     0
 43
0.0208333333333333
 43
0.0
 43
0.0
 43
0.0
 43
0.0
 43
0.0208333333333333
 43
0.0
 43
0.0
 43
0.0
 43
0.0
 43
1.0
 43
0.0
 43
0.0
 43
0.0
 43
0.0
 43
1.0
 77
     0
 47
0.0208333333333333
 47
0.0
 47
0.0
 47
0.0
 47
0.0
 47
0.0208333333333333
 47
0.0
 47
0.0
 47
0.0
 47
0.0
 47
1.0
 47
0.0
 47
0.0
 47
0.0
 47
0.0
 47
1.0
171
     0
 49
0.0208333333333333
 49
0.0
 49
0.0
 49
0.0
 49
0.0
 49
0.0208333333333333
 49
0.0
 49
0.0
 49
0.0
 49
0.0
 49
1.0
 49
0.0
 49
0.0
 49
0.0
 49
0.0
 49
1.0
175
     0
142
0.0208333333333333
142
0.0
142
0.0
142
0.0
142
0.0
142
0.0208333333333333
142
0.0
142
0.0
142
0.0
142
0.0
142
1.0
142
0.0
142
0.0
142
0.0
142
0.0
142
1.0
179
     0
144
0.0208333333333333
144
0.0
144
0.0
144
0.0
144
0.0
144
0.0208333333333333
144
0.0
144
0.0
144
0.0
144
0.0
144
1.0
144
0.0
144
0.0
144
0.0
144
0.0
144
1.0
147
0.0208333333333333
147
0.0
147
0.0
147
0.0
147
0.0
147
0.0208333333333333
147
0.0
147
0.0
147
0.0
147
0.0
147
1.0
147
0.0
147
0.0
147
0.0
147
0.0
147
1.0
  0
MATERIAL
  5
3D
102
{ACAD_XDICTIONARY
360
3E
102
}
102
{ACAD_REACTORS
330
17
102
}
330
17
100
AcDbMaterial
  1
ByLayer
 72
     0
 43
0.0208333333333333
 43
0.0
 43
0.0
 43
0.0
 43
0.0
 43
0.0208333333333333
 43
0.0
 43
0.0
 43
0.0
 43
0.0
 43
1.0
 43
0.0
 43
0.0
 43
0.0
 43
0.0
 43
1.0
 77
     0
 47
0.0208333333333333
 47
0.0
 47
0.0
 47
0.0
 47
0.0
 47
0.0208333333333333
 47
0.0
 47
0.0
 47
0.0
 47
0.0
 47
1.0
 47
0.0
 47
0.0
 47
0.0
 47
0.0
 47
1.0
171
     0
 49
0.0208333333333333
 49
0.0
 49
0.0
 49
0.0
 49
0.0
 49
0.0208333333333333
 49
0.0
 49
0.0
 49
0.0
 49
0.0
 49
1.0
 49
0.0
 49
0.0
 49
0.0
 49
0.0
 49
1.0
175
     0
142
0.0208333333333333
142
0.0
142
0.0
142
0.0
142
0.0
142
0.0208333333333333
142
0.0
142
0.0
142
0.0
142
0.0
142
1.0
142
0.0
142
0.0
142
0.0
142
0.0
142
1.0
179
     0
144
0.0208333333333333
144
0.0
144
0.0
144
0.0
144
0.0
144
0.0208333333333333
144
0.0
144
0.0
144
0.0
144
0.0
144
1.0
144
0.0
144
0.0
144
0.0
144
0.0
144
1.0
147
0.0208333333333333
147
0.0
147
0.0
147
0.0
147
0.0
147
0.0208333333333333
147
0.0
147
0.0
147
0.0
147
0.0
147
1.0
147
0.0
147
0.0
147
0.0
147
0.0
147
1.0
  0
MATERIAL
  5
16
102
{ACAD_XDICTIONARY
360
18
102
}
102
{ACAD_REACTORS
330
17
102
}
330
17
100
AcDbMaterial
  1
Global
 72
     0
 43
0.0208333333333333
 43
0.0
 43
0.0
 43
0.0
 43
0.0
 43
0.0208333333333333
 43
0.0
 43
0.0
 43
0.0
 43
0.0
 43
1.0
 43
0.0
 43
0.0
 43
0.0
 43
0.0
 43
1.0
 77
     0
 47
0.0208333333333333
 47
0.0
 47
0.0
 47
0.0
 47
0.0
 47
0.0208333333333333
 47
0.0
 47
0.0
 47
0.0
 47
0.0
 47
1.0
 47
0.0
 47
0.0
 47
0.0
 47
0.0
 47
1.0
171
     0
 49
0.0208333333333333
 49
0.0
 49
0.0
 49
0.0
 49
0.0
 49
0.0208333333333333
 49
0.0
 49
0.0
 49
0.0
 49
0.0
 49
1.0
 49
0.0
 49
0.0
 49
0.0
 49
0.0
 49
1.0
175
     0
142
0.0208333333333333
142
0.0
142
0.0
142
0.0
142
0.0
142
0.0208333333333333
142
0.0
142
0.0
142
0.0
142
0.0
142
1.0
142
0.0
142
0.0
142
0.0
142
0.0
142
1.0
179
     0
144
0.0208333333333333
144
0.0
144
0.0
144
0.0
144
0.0
144
0.0208333333333333
144
0.0
144
0.0
144
0.0
144
0.0
144
1.0
144
0.0
144
0.0
144
0.0
144
0.0
144
1.0
147
0.0208333333333333
147
0.0
147
0.0
147
0.0
147
0.0
147
0.0208333333333333
147
0.0
147
0.0
147
0.0
147
0.0
147
1.0
147
0.0
147
0.0
147
0.0
147
0.0
147
1.0
  0
MLINESTYLE
  5
52
102
{ACAD_REACTORS
330
3B
102
}
330
3B
100
AcDbMlineStyle
  2
STANDARD
 70
     0
  3

 62
     0
 51
90.0
 52
90.0
 71
     2
 49
0.5
 62
   256
  6
BYLAYER
 49
-0.5
 62
   256
  6
BYLAYER
  0
ACDBPLACEHOLDER
  5
14
102
{ACAD_REACTORS
330
15
102
}
330
15
  0
SCALE
  5
57
102
{ACAD_REACTORS
330
4E
102
}
330
4E
100
AcDbScale
 70
     0
300
1:1
140
1.0
141
1.0
290
     1
  0
SCALE
  5
58
102
{ACAD_REACTORS
330
4E
102
}
330
4E
100
AcDbScale
 70
     0
300
1:2
140
1.0
141
2.0
290
     0
  0
SCALE
  5
59
102
{ACAD_REACTORS
330
4E
102
}
330
4E
100
AcDbScale
 70
     0
300
1:4
140
1.0
141
4.0
290
     0
  0
SCALE
  5
5A
102
{ACAD_REACTORS
330
4E
102
}
330
4E
100
AcDbScale
 70
     0
300
1:5
140
1.0
141
5.0
290
     0
  0
SCALE
  5
5B
102
{ACAD_REACTORS
330
4E
102
}
330
4E
100
AcDbScale
 70
     0
300
1:8
140
1.0
141
8.0
290
     0
  0
SCALE
  5
5C
102
{ACAD_REACTORS
330
4E
102
}
330
4E
100
AcDbScale
 70
     0
300
1:10
140
1.0
141
10.0
290
     0
  0
SCALE
  5
5D
102
{ACAD_REACTORS
330
4E
102
}
330
4E
100
AcDbScale
 70
     0
300
1:16
140
1.0
141
16.0
290
     0
  0
SCALE
  5
5E
102
{ACAD_REACTORS
330
4E
102
}
330
4E
100
AcDbScale
 70
     0
300
1:20
140
1.0
141
20.0
290
     0
  0
SCALE
  5
5F
102
{ACAD_REACTORS
330
4E
102
}
330
4E
100
AcDbScale
 70
     0
300
1:30
140
1.0
141
30.0
290
     0
  0
SCALE
  5
60
102
{ACAD_REACTORS
330
4E
102
}
330
4E
100
AcDbScale
 70
     0
300
1:40
140
1.0
141
40.0
290
     0
  0
SCALE
  5
61
102
{ACAD_REACTORS
330
4E
102
}
330
4E
100
AcDbScale
 70
     0
300
1:50
140
1.0
141
50.0
290
     0
  0
SCALE
  5
62
102
{ACAD_REACTORS
330
4E
102
}
330
4E
100
AcDbScale
 70
     0
300
1:100
140
1.0
141
100.0
290
     0
  0
SCALE
  5
63
102
{ACAD_REACTORS
330
4E
102
}
330
4E
100
AcDbScale
 70
     0
300
2:1
140
2.0
141
1.0
290
     0
  0
SCALE
  5
64
102
{ACAD_REACTORS
330
4E
102
}
330
4E
100
AcDbScale
 70
     0
300
4:1
140
4.0
141
1.0
290
     0
  0
SCALE
  5
65
102
{ACAD_REACTORS
330
4E
102
}
330
4E
100
AcDbScale
 70
     0
300
8:1
140
8.0
141
1.0
290
     0
  0
SCALE
  5
66
102
{ACAD_REACTORS
330
4E
102
}
330
4E
100
AcDbScale
 70
     0
300
10:1
140
10.0
141
1.0
290
     0
  0
SCALE
  5
67
102
{ACAD_REACTORS
330
4E
102
}
330
4E
100
AcDbScale
 70
     0
300
100:1
140
100.0
141
1.0
290
     0
  0
ACDBSECTIONVIEWSTYLE
  5
2B2
102
{ACAD_XDICTIONARY
360
2B3
102
}
102
{ACAD_REACTORS
330
2A7
330
2B1
102
}
330
2A7
100
AcDbModelDocViewStyle
 70
     0
  3
Metric50
290
     0
100
AcDbSectionViewStyle
 70
     0
 71
     0
 90
      102
 71
     1
340
24
 40
5.0
340
0
340
0
 40
5.0
300
I, O, Q, S, X, Z
 40
10.0
 90
        0
 40
2.5
 90
        0
 71
     2
340
1F
 90
       25
340
1F
 90
       50
 40
5.0
 40
2.5
 40
5.0
 71
     3
340
24
 40
5.0
 90
        0
 40
15.0
 90
        1
300
%<\AcVar ViewSectionStartId>%-%<\AcVar ViewSectionEndId>% (%<\AcVar ViewScale \f "%sn">%)
 71
     4
300
ANSI31
 40
1.0
 90
        0
290
     0
290
     0
 90
        6
 40
0.0
 40
1.570796326794896
 40
0.2617993877991494
 40
1.308996938995747
 40
-0.2617993877991494
 40
1.832595714594045
  0
TABLESTYLE
  5
53
102
{ACAD_XDICTIONARY
360
54
102
}
102
{ACAD_REACTORS
330
4F
102
}
330
4F
100
AcDbTableStyle
  3
Standard
 70
     0
 71
     0
 40
1.5
 41
1.5
280
     0
281
     0
  7
STANDARD
140
4.5
170
     2
 62
     0
 63
     7
283
     0
274
    -2
284
     1
 64
     0
275
    -2
285
     1
 65
     0
276
    -2
286
     1
 66
     0
277
    -2
287
     1
 67
     0
278
    -2
288
     1
 68
     0
279
    -2
289
     1
 69
     0
  7
STANDARD
140
6.0
170
     5
 62
     0
 63
     7
283
     0
274
    -2
284
     1
 64
     0
275
    -2
285
     1
 65
     0
276
    -2
286
     1
 66
     0
277
    -2
287
     1
 67
     0
278
    -2
288
     1
 68
     0
279
    -2
289
     1
 69
     0
  7
STANDARD
140
4.5
170
     5
 62
     0
 63
     7
283
     0
274
    -2
284
     1
 64
     0
275
    -2
285
     1
 65
     0
276
    -2
286
     1
 66
     0
277
    -2
287
     1
 67
     0
278
    -2
288
     1
 68
     0
279
    -2
289
     1
 69
     0
  0
VISUALSTYLE
  5
2D
102
{ACAD_XDICTIONARY
360
312
102
}
102
{ACAD_REACTORS
330
2E
102
}
330
2E
100
AcDbVisualStyle
  2
2dWireframe
 70
     4
 71
     0
 72
     2
 73
     0
 90
        0
 40
-0.6
 41
-30.0
 62
     5
 63
     7
 74
     1
 91
        4
 64
     7
 65
   257
 75
     1
175
     1
 42
1.0
 92
        0
 66
   257
 43
1.0
 76
     1
 77
     6
 78
     2
 67
     7
 79
     5
170
     0
171
     0
290
     0
174
     0
 93
        1
 44
0.0
173
     0
291
     0
 45
0.0
1001
ACAD
1000
AcDbSavedByObjectVersion
1070
     0
  0
VISUALSTYLE
  5
55
102
{ACAD_XDICTIONARY
360
317
102
}
102
{ACAD_REACTORS
330
2E
102
}
330
2E
100
AcDbVisualStyle
  2
Realistic
 70
     8
 71
     2
 72
     2
 73
     0
 90
        0
 40
-0.6
 41
-30.0
 62
     5
 63
     7
 74
     1
 91
        0
 64
     7
 65
   257
 75
     1
175
     1
 42
1.0
 92
        8
 66
     8
 43
1.0
 76
     1
 77
     6
 78
     2
 67
     7
 79
     5
170
     0
171
     0
290
     0
174
     0
 93
       13
 44
0.0
173
     0
291
     0
 45
0.0
1001
ACAD
1000
AcDbSavedByObjectVersion
1070
     0
  0
VISUALSTYLE
  5
56
102
{ACAD_XDICTIONARY
360
319
102
}
102
{ACAD_REACTORS
330
2E
102
}
330
2E
100
AcDbVisualStyle
  2
Wireframe
 70
     5
 71
     0
 72
     2
 73
     0
 90
        0
 40
-0.6
 41
-30.0
 62
     5
 63
     7
 74
     1
 91
        4
 64
     7
 65
   257
 75
     1
175
     1
 42
1.0
 92
        0
 66
   257
 43
1.0
 76
     1
 77
     6
 78
     2
 67
     7
 79
     3
170
     0
171
     0
290
     0
174
     0
 93
        1
 44
0.0
173
     0
291
     0
 45
0.0
1001
ACAD
1000
AcDbSavedByObjectVersion
1070
     0
  0
DICTIONARYVAR
  5
2F9
102
{ACAD_REACTORS
330
2F4
102
}
330
2F4
100
DictionaryVariables
280
     0
  1
1:1
  0
DICTIONARYVAR
  5
2F6
102
{ACAD_REACTORS
330
2F4
102
}
330
2F4
100
DictionaryVariables
280
     0
  1
STANDARD
  0
DICTIONARYVAR
  5
2F5
102
{ACAD_REACTORS
330
2F4
102
}
330
2F4
100
DictionaryVariables
280
     0
  1
STANDARD
  0
DICTIONARYVAR
  5
2F7
102
{ACAD_REACTORS
330
2F4
102
}
330
2F4
100
DictionaryVariables
280
     0
  1

  0
DICTIONARYVAR
  5
2F8
102
{ACAD_REACTORS
330
2F4
102
}
330
2F4
100
DictionaryVariables
280
     0
  1

  0
DICTIONARYVAR
  5
2FE
102
{ACAD_REACTORS
330
2F4
102
}
330
2F4
100
DictionaryVariables
280
     0
  1
1
  0
DICTIONARYVAR
  5
2FC
102
{ACAD_REACTORS
330
2F4
102
}
330
2F4
100
DictionaryVariables
280
     0
  1
1
  0
DICTIONARYVAR
  5
2FB
102
{ACAD_REACTORS
330
2F4
102
}
330
2F4
100
DictionaryVariables
280
     0
  1
0
  0
DICTIONARYVAR
  5
300
102
{ACAD_REACTORS
330
2F4
102
}
330
2F4
100
DictionaryVariables
280
     0
  1
1.570796
  0
DICTIONARYVAR
  5
301
102
{ACAD_REACTORS
330
2F4
102
}
330
2F4
100
DictionaryVariables
280
     0
  1
1.570796
  0
DICTIONARYVAR
  5
302
102
{ACAD_REACTORS
330
2F4
102
}
330
2F4
100
DictionaryVariables
280
     0
  1
-122.394000
  0
DICTIONARYVAR
  5
2FF
102
{ACAD_REACTORS
330
2F4
102
}
330
2F4
100
DictionaryVariables
280
     0
  1
1
  0
DICTIONARYVAR
  5
2FA
102
{ACAD_REACTORS
330
2F4
102
}
330
2F4
100
DictionaryVariables
280
     0
  1
127
  0
DICTIONARYVAR
  5
2FD
102
{ACAD_REACTORS
330
2F4
102
}
330
2F4
100
DictionaryVariables
280
     0
  1
0
  0
DICTIONARY
  5
30D
102
{ACAD_REACTORS
330
30B
102
}
330
30B
100
AcDbDictionary
281
     1
  0
DICTIONARY
  5
30C
102
{ACAD_REACTORS
330
30B
102
}
330
30B
100
AcDbDictionary
281
     1
  3
8796079557472
350
306
  3
8796079557488
350
307
  3
8796079557504
350
308
  3
8796079557520
350
309
  3
8796079557536
350
30A
  0
DICTIONARY
  5
28D
102
{ACAD_REACTORS
330
28C
102
}
330
28C
100
AcDbDictionary
281
     1
  0
DICTIONARY
  5
287
102
{ACAD_REACTORS
330
27D
102
}
330
27D
100
AcDbDictionary
281
     1
  3
DWGSETTINGS
350
286
  3
TRANSSETTINGS
350
288
  0
ACDBASSOCNETWORK
  5
2EC
102
{ACAD_REACTORS
330
4
102
}
330
4
100
AcDbAssocAction
 90
        1
 90
        1
330
2EE
360
0
 90
        1
 90
        0
 90
        0
100
AcDbAssocNetwork
 90
        0
 90
        1
 90
        1
360
2D2
 90
        1
330
2D2
  0
DICTIONARY
  5
2A4
330
2A3
100
AcDbDictionary
280
     1
281
     1
  3
ACAD_XREC_ROUNDTRIP
360
31B
  0
DICTIONARY
  5
30F
330
F
100
AcDbDictionary
280
     1
281
     1
  3
ACAD_XREC_ROUNDTRIP
360
310
  0
DICTIONARY
  5
B
330
8
100
AcDbDictionary
280
     1
281
     1
  3
ACAD_XREC_ROUNDTRIP
360
30E
  0
DICTIONARY
  5
46
330
45
100
AcDbDictionary
280
     1
281
     1
  3
ACAD_XREC_ROUNDTRIP
360
315
  3
BUMPTILE
360
47
  3
DIFFUSETILE
360
48
  3
OPACITYTILE
360
49
  3
REFLECTIONTILE
360
4A
  3
REFRACTIONTILE
360
4B
  3
SPECULARTILE
360
4C
  0
DICTIONARY
  5
3E
330
3D
100
AcDbDictionary
280
     1
281
     1
  3
ACAD_XREC_ROUNDTRIP
360
314
  3
BUMPTILE
360
3F
  3
DIFFUSETILE
360
40
  3
OPACITYTILE
360
41
  3
REFLECTIONTILE
360
42
  3
REFRACTIONTILE
360
43
  3
SPECULARTILE
360
44
  0
DICTIONARY
  5
18
330
16
100
AcDbDictionary
280
     1
281
     1
  3
ACAD_XREC_ROUNDTRIP
360
311
  3
BUMPTILE
360
19
  3
DIFFUSETILE
360
1A
  3
OPACITYTILE
360
1B
  3
REFLECTIONTILE
360
1C
  3
REFRACTIONTILE
360
1D
  3
SPECULARTILE
360
1E
  0
DICTIONARY
  5
2B3
330
2B2
100
AcDbDictionary
280
     1
281
     1
  3
ACAD_XREC_ROUNDTRIP
360
31C
  0
DICTIONARY
  5
54
330
53
100
AcDbDictionary
280
     1
281
     1
  3
ACAD_ROUNDTRIP_2008_TABLESTYLE_CELLSTYLEMAP
360
303
  3
ACAD_XREC_ROUNDTRIP
360
316
  0
DICTIONARY
  5
312
330
2D
100
AcDbDictionary
280
     1
281
     1
  3
ACAD_XREC_ROUNDTRIP
360
313
  0
DICTIONARY
  5
317
330
55
100
AcDbDictionary
280
     1
281
     1
  3
ACAD_XREC_ROUNDTRIP
360
318
  0
DICTIONARY
  5
319
330
56
100
AcDbDictionary
280
     1
281
     1
  3
ACAD_XREC_ROUNDTRIP
360
31A
  0
XRECORD
  5
306
102
{ACAD_REACTORS
330
30C
102
}
330
30C
100
AcDbXrecord
280
     1
  1
AcDb_Thumbnail_Schema
102
{ATTRRECORD
341
307
  2
AcDbDs::TreatedAsObjectData
280
     1
291
     1
102
ATTRRECORD}
102
{ATTRRECORD
341
308
  2
AcDbDs::Legacy
280
     1
291
     1
102
ATTRRECORD}
  2
AcDbDs::ID
280
    10
 91
        8
102
{ATTRRECORD
341
309
  2
AcDs:Indexable
280
     1
291
     1
102
ATTRRECORD}
102
{ATTRRECORD
341
30A
  2
AcDbDs::HandleAttribute
280
     7
282
     1
102
ATTRRECORD}
  2
Thumbnail_Data
280
    15
 91
        0
  0
XRECORD
  5
307
102
{ACAD_REACTORS
330
30C
102
}
330
30C
100
AcDbXrecord
280
     1
  1
AcDbDs::TreatedAsObjectDataSchema
  2
AcDbDs::TreatedAsObjectData
280
     1
 91
        0
  0
XRECORD
  5
308
102
{ACAD_REACTORS
330
30C
102
}
330
30C
100
AcDbXrecord
280
     1
  1
AcDbDs::LegacySchema
  2
AcDbDs::Legacy
280
     1
 91
        0
  0
XRECORD
  5
309
102
{ACAD_REACTORS
330
30C
102
}
330
30C
100
AcDbXrecord
280
     1
  1
AcDbDs::IndexedPropertySchema
  2
AcDs:Indexable
280
     1
 91
        0
  0
XRECORD
  5
30A
102
{ACAD_REACTORS
330
30C
102
}
330
30C
100
AcDbXrecord
280
     1
  1
AcDbDs::HandleAttributeSchema
  2
AcDbDs::HandleAttribute
280
     7
 91
        1
284
     1
  0
ACDBASSOC2DCONSTRAINTGROUP
  5
2D2
330
2EC
100
AcDbAssocAction
 90
        1
 90
        1
330
2EC
360
0
 90
        1
 90
       61
 90
        0
 90
        2
 70
     0
 10
0.0
 20
0.0
 30
0.0
 10
1.0
 20
0.0
 30
0.0
 10
0.0
 20
1.0
 30
0.0
360
0
 90
       18
360
2D7
360
2DB
360
2DF
360
2E7
360
2D4
360
2D8
360
2DC
360
2E0
360
2D5
360
2D9
360
2DD
360
2E1
360
2E9
360
2D6
360
2DA
360
2E2
360
2E6
360
2EA
 90
      398
 90
      117
  1
AcConstrainedDatumLine
330
2D2
 90
        6
 70
     0
 90
        0
330
0
 90
        0
 10
0.0
 20
0.0
 30
0.0
 10
1.0
 20
0.0
 30
0.0
  1
AcConstrainedDatumLine
330
2D2
 90
       21
 70
     0
 90
        0
330
0
 90
        0
 10
0.0
 20
0.0
 30
0.0
 10
0.0
 20
1.0
 30
0.0
  1
AcConstrainedBoundedLine
330
2D2
 90
       23
 70
     1
 90
        4
 90
       25
 90
       27
 90
       28
 90
       72
330
2EA
 90
        0
 10
-234.9466123625686
 20
564.2658889910596
 30
0.0
 10
1.0
 20
0.0
 30
0.0
290
     0
 10
-234.9466123625686
 20
564.2658889910596
 30
0.0
 11
-175.9006340861489
 21
564.2658889910596
 31
0.0
  1
AcConstrainedImplicitPoint
330
2D2
 90
       24
 70
     1
 90
        2
 90
       25
 90
       73
330
0
 90
        0
280
     0
 90
       -1
 90
       23
  1
AcPointCurveConstraint
330
2D2
 90
       25
 70
     0
 90
        2
 90
       24
 90
       23
 90
        0
290
     1
290
     1
  1
AcConstrainedImplicitPoint
330
2D2
 90
       26
 70
     1
 90
        2
 90
       27
 90
       74
330
0
 90
        0
280
     1
 90
       -1
 90
       23
  1
AcPointCurveConstraint
330
2D2
 90
       27
 70
     0
 90
        2
 90
       26
 90
       23
 90
        0
290
     1
290
     1
  1
AcHorizontalConstraint
330
2D2
 90
       28
 70
     0
 90
        1
 90
       23
 90
        0
290
     0
290
     1
 90
        6
  1
AcConstrainedBoundedLine
330
2D2
 90
       29
 70
     1
 90
        3
 90
       31
 90
       33
 90
       34
330
2D7
 90
        0
 10
-208.3081550454148
 20
349.586209582965
 30
0.0
 10
-1.0
 20
0.0
 30
0.0
290
     0
 10
-208.3081550454148
 20
349.586209582965
 30
0.0
 11
-232.3081550454148
 21
349.586209582965
 31
0.0
  1
AcConstrainedImplicitPoint
330
2D2
 90
       30
 70
     1
 90
        1
 90
       31
330
0
 90
        0
280
     0
 90
       -1
 90
       29
  1
AcPointCurveConstraint
330
2D2
 90
       31
 70
     0
 90
        2
 90
       30
 90
       29
 90
        0
290
     1
290
     1
  1
AcConstrainedImplicitPoint
330
2D2
 90
       32
 70
     1
 90
        1
 90
       33
330
0
 90
        0
280
     1
 90
       -1
 90
       29
  1
AcPointCurveConstraint
330
2D2
 90
       33
 70
     0
 90
        2
 90
       32
 90
       29
 90
        0
290
     1
290
     1
  1
AcHorizontalConstraint
330
2D2
 90
       34
 70
     0
 90
        1
 90
       29
 90
        0
290
     0
290
     1
 90
        6
  1
AcConstrainedBoundedLine
330
2D2
 90
       35
 70
     1
 90
        3
 90
       37
 90
       39
 90
       40
330
2DD
 90
        0
 10
-208.3081550454148
 20
349.5862095829599
 30
0.0
 10
1.0
 20
0.0
 30
0.0
290
     0
 10
-208.3081550454148
 20
349.5862095829599
 30
0.0
 11
-207.3081550454148
 21
349.5862095829599
 31
0.0
  1
AcConstrainedImplicitPoint
330
2D2
 90
       36
 70
     1
 90
        1
 90
       37
330
0
 90
        0
280
     0
 90
       -1
 90
       35
  1
AcPointCurveConstraint
330
2D2
 90
       37
 70
     0
 90
        2
 90
       36
 90
       35
 90
        0
290
     1
290
     1
  1
AcConstrainedImplicitPoint
330
2D2
 90
       38
 70
     1
 90
        1
 90
       39
330
0
 90
        0
280
     1
 90
       -1
 90
       35
  1
AcPointCurveConstraint
330
2D2
 90
       39
 70
     0
 90
        2
 90
       38
 90
       35
 90
        0
290
     1
290
     1
  1
AcHorizontalConstraint
330
2D2
 90
       40
 70
     0
 90
        1
 90
       35
 90
        0
290
     0
290
     1
 90
        6
  1
AcConstrainedBoundedLine
330
2D2
 90
       41
 70
     1
 90
        3
 90
       43
 90
       45
 90
       46
330
2DA
 90
        0
 10
-208.3081550454148
 20
349.586209582965
 30
0.0
 10
0.0
 20
1.0
 30
0.0
290
     0
 10
-208.3081550454148
 20
349.586209582965
 30
0.0
 11
-208.3081550454148
 21
352.586209582965
 31
0.0
  1
AcConstrainedImplicitPoint
330
2D2
 90
       42
 70
     1
 90
        1
 90
       43
330
0
 90
        0
280
     0
 90
       -1
 90
       41
  1
AcPointCurveConstraint
330
2D2
 90
       43
 70
     0
 90
        2
 90
       42
 90
       41
 90
        0
290
     1
290
     1
  1
AcConstrainedImplicitPoint
330
2D2
 90
       44
 70
     1
 90
        1
 90
       45
330
0
 90
        0
280
     1
 90
       -1
 90
       41
  1
AcPointCurveConstraint
330
2D2
 90
       45
 70
     0
 90
        2
 90
       44
 90
       41
 90
        0
290
     1
290
     1
  1
AcVerticalConstraint
330
2D2
 90
       46
 70
     0
 90
        1
 90
       41
 90
        0
290
     0
290
     1
 90
       21
  1
AcConstrainedImplicitPoint
330
2D2
 90
       47
 70
     1
 90
        1
 90
       49
330
0
 90
        0
280
     0
 90
       -1
 90
       51
  1
AcPointCurveConstraint
330
2D2
 90
       48
 70
     0
 90
        2
 90
       52
 90
       51
 90
        0
290
     1
290
     1
  1
AcPointCurveConstraint
330
2D2
 90
       49
 70
     0
 90
        2
 90
       47
 90
       51
 90
        0
290
     1
290
     1
  1
AcConstrainedDatumLine
330
2D2
 90
       50
 70
     0
 90
        0
330
0
 90
        0
 10
-152.7625757739198
 20
2.877181917225641
 30
0.0
 10
0.0
 20
1.0
 30
0.0
  1
AcConstrainedBoundedLine
330
2D2
 90
       51
 70
     1
 90
        4
 90
       49
 90
       48
 90
       53
 90
       66
330
2DC
 90
        0
 10
-220.3081550454148
 20
356.9633915001964
 30
0.0
 10
0.0
 20
-1.0
 30
0.0
290
     0
 10
-220.3081550454148
 20
356.9633915001964
 30
0.0
 11
-220.3081550454148
 21
346.8734150110056
 31
0.0
  1
AcConstrainedImplicitPoint
330
2D2
 90
       52
 70
     1
 90
        1
 90
       48
330
0
 90
        0
280
     1
 90
       -1
 90
       51
  1
AcVerticalConstraint
330
2D2
 90
       53
 70
     0
 90
        1
 90
       51
 90
        0
290
     0
290
     1
 90
       50
  1
AcConstrainedBoundedLine
330
2D2
 90
       58
 70
     1
 90
        4
 90
       60
 90
       62
 90
       64
 90
       65
330
2D4
 90
        0
 10
-232.3081550454148
 20
352.586209582965
 30
0.0
 10
1.0
 20
0.0
 30
0.0
290
     0
 10
-232.3081550454148
 20
352.586209582965
 30
0.0
 11
-208.3081550454148
 21
352.586209582965
 31
0.0
  1
AcConstrainedImplicitPoint
330
2D2
 90
       59
 70
     1
 90
        1
 90
       60
330
0
 90
        0
280
     0
 90
       -1
 90
       58
  1
AcPointCurveConstraint
330
2D2
 90
       60
 70
     0
 90
        2
 90
       59
 90
       58
 90
        0
290
     1
290
     1
  1
AcConstrainedImplicitPoint
330
2D2
 90
       61
 70
     1
 90
        1
 90
       62
330
0
 90
        0
280
     1
 90
       -1
 90
       58
  1
AcPointCurveConstraint
330
2D2
 90
       62
 70
     0
 90
        2
 90
       61
 90
       58
 90
        0
290
     1
290
     1
  1
AcConstrainedImplicitPoint
330
2D2
 90
       63
 70
     1
 90
        3
 90
       64
 90
       65
 90
       66
330
0
 90
        0
280
     2
 90
       -1
 90
       58
  1
AcPointCurveConstraint
330
2D2
 90
       64
 70
     0
 90
        2
 90
       63
 90
       58
 90
        0
290
     1
290
     1
  1
AcMidPointConstraint
330
2D2
 90
       65
 70
     0
 90
        2
 90
       63
 90
       58
 90
        0
290
     1
290
     1
  1
AcPointCurveConstraint
330
2D2
 90
       66
 70
     0
 90
        2
 90
       51
 90
       63
 90
        0
290
     0
290
     1
  1
AcConstrainedBoundedLine
330
2D2
 90
       67
 70
     1
 90
        2
 90
       69
 90
       71
330
2E2
 90
        0
 10
-234.9466123625686
 20
564.2658889910596
 30
0.0
 10
1.0
 20
0.0
 30
0.0
290
     0
 10
-234.9466123625686
 20
564.2658889910596
 30
0.0
 11
-175.9006340861489
 21
564.2658889910596
 31
0.0
  1
AcConstrainedImplicitPoint
330
2D2
 90
       68
 70
     1
 90
        3
 90
       69
 90
       72
 90
       73
330
0
 90
        0
280
     0
 90
       -1
 90
       67
  1
AcPointCurveConstraint
330
2D2
 90
       69
 70
     0
 90
        2
 90
       68
 90
       67
 90
        0
290
     1
290
     1
  1
AcConstrainedImplicitPoint
330
2D2
 90
       70
 70
     1
 90
        2
 90
       71
 90
       74
330
0
 90
        0
280
     1
 90
       -1
 90
       67
  1
AcPointCurveConstraint
330
2D2
 90
       71
 70
     0
 90
        2
 90
       70
 90
       67
 90
        0
290
     1
290
     1
  1
AcPointCurveConstraint
330
2D2
 90
       72
 70
     0
 90
        2
 90
       23
 90
       68
 90
        0
290
     0
290
     1
  1
AcPointCoincidenceConstraint
330
2D2
 90
       73
 70
     0
 90
        2
 90
       68
 90
       24
 90
        0
290
     0
290
     1
  1
AcPointCoincidenceConstraint
330
2D2
 90
       74
 70
     0
 90
        2
 90
       26
 90
       70
 90
        0
290
     0
290
     1
  1
AcConstrainedBoundedLine
330
2D2
 90
      239
 70
     1
 90
        2
 90
      241
 90
      243
330
2E0
 90
        0
 10
-192.8081550454147
 20
349.5862095829597
 30
0.0
 10
0.0
 20
1.0
 30
0.0
290
     0
 10
-192.8081550454147
 20
349.5862095829597
 30
0.0
 11
-192.8081550454147
 21
352.5862095829597
 31
0.0
  1
AcConstrainedImplicitPoint
330
2D2
 90
      240
 70
     1
 90
        1
 90
      241
330
0
 90
        0
280
     0
 90
       -1
 90
      239
  1
AcPointCurveConstraint
330
2D2
 90
      241
 70
     0
 90
        2
 90
      240
 90
      239
 90
        0
290
     1
290
     1
  1
AcConstrainedImplicitPoint
330
2D2
 90
      242
 70
     1
 90
        3
 90
      243
 90
      249
 90
      255
330
0
 90
        0
280
     1
 90
       -1
 90
      239
  1
AcPointCurveConstraint
330
2D2
 90
      243
 70
     0
 90
        2
 90
      242
 90
      239
 90
        0
290
     1
290
     1
  1
AcConstrainedBoundedLine
330
2D2
 90
      244
 70
     1
 90
        2
 90
      246
 90
      248
330
2E6
 90
        0
 10
-192.8081550454147
 20
352.5862095829597
 30
0.0
 10
1.0
 20
-0.0000000000003411
 30
0.0
290
     0
 10
-192.8081550454147
 20
352.5862095829597
 30
0.0
 11
-191.3081550454147
 21
352.5862095829591
 31
0.0
  1
AcConstrainedImplicitPoint
330
2D2
 90
      245
 70
     1
 90
        2
 90
      246
 90
      249
330
0
 90
        0
280
     0
 90
       -1
 90
      244
  1
AcPointCurveConstraint
330
2D2
 90
      246
 70
     0
 90
        2
 90
      245
 90
      244
 90
        0
290
     1
290
     1
  1
AcConstrainedImplicitPoint
330
2D2
 90
      247
 70
     1
 90
        1
 90
      248
330
0
 90
        0
280
     1
 90
       -1
 90
      244
  1
AcPointCurveConstraint
330
2D2
 90
      248
 70
     0
 90
        2
 90
      247
 90
      244
 90
        0
290
     1
290
     1
  1
AcPointCoincidenceConstraint
330
2D2
 90
      249
 70
     0
 90
        2
 90
      242
 90
      245
 90
        0
290
     0
290
     1
  1
AcConstrainedBoundedLine
330
2D2
 90
      250
 70
     1
 90
        2
 90
      252
 90
      254
330
2DF
 90
        0
 10
-192.8081550454147
 20
352.5862095829597
 30
0.0
 10
-1.0
 20
0.0
 30
0.0
290
     0
 10
-192.8081550454147
 20
352.5862095829597
 30
0.0
 11
-193.8081550454148
 21
352.5862095829597
 31
0.0
  1
AcConstrainedImplicitPoint
330
2D2
 90
      251
 70
     1
 90
        2
 90
      252
 90
      255
330
0
 90
        0
280
     0
 90
       -1
 90
      250
  1
AcPointCurveConstraint
330
2D2
 90
      252
 70
     0
 90
        2
 90
      251
 90
      250
 90
        0
290
     1
290
     1
  1
AcConstrainedImplicitPoint
330
2D2
 90
      253
 70
     1
 90
        1
 90
      254
330
0
 90
        0
280
     1
 90
       -1
 90
      250
  1
AcPointCurveConstraint
330
2D2
 90
      254
 70
     0
 90
        2
 90
      253
 90
      250
 90
        0
290
     1
290
     1
  1
AcPointCoincidenceConstraint
330
2D2
 90
      255
 70
     0
 90
        2
 90
      242
 90
      251
 90
        0
290
     0
290
     1
  1
AcConstrainedBoundedLine
330
2D2
 90
      348
 70
     1
 90
        4
 90
      350
 90
      352
 90
      357
 90
      358
330
2D6
 90
        0
 10
-213.0581550453722
 20
422.2658889910595
 30
0.0
 10
-1.0
 20
0.0
 30
0.0
290
     0
 10
-213.0581550453722
 20
422.2658889910595
 30
0.0
 11
-227.5581550453722
 21
422.2658889910595
 31
0.0
  1
AcConstrainedImplicitPoint
330
2D2
 90
      349
 70
     1
 90
        1
 90
      350
330
0
 90
        0
280
     0
 90
       -1
 90
      348
  1
AcPointCurveConstraint
330
2D2
 90
      350
 70
     0
 90
        2
 90
      349
 90
      348
 90
        0
290
     1
290
     1
  1
AcConstrainedImplicitPoint
330
2D2
 90
      351
 70
     1
 90
        1
 90
      352
330
0
 90
        0
280
     1
 90
       -1
 90
      348
  1
AcPointCurveConstraint
330
2D2
 90
      352
 70
     0
 90
        2
 90
      351
 90
      348
 90
        0
290
     1
290
     1
  1
AcConstrainedCircle
330
2D2
 90
      353
 70
     1
 90
        1
 90
      355
330
2E1
 90
        0
 10
-220.3081550453716
 20
422.2658889910595
 30
0.0
 10
0.0
 20
0.0
 30
1.0
 10
1.0
 20
0.0
 30
0.0
 40
2.75
 40
0.0
 40
6.283185307179585
  1
AcConstrainedImplicitPoint
330
2D2
 90
      354
 70
     1
 90
        3
 90
      355
 90
      359
 90
      372
330
0
 90
        0
280
     3
 90
       -1
 90
      353
  1
AcCenterPointConstraint
330
2D2
 90
      355
 70
     0
 90
        2
 90
      354
 90
      353
 90
        0
290
     1
290
     1
  1
AcConstrainedImplicitPoint
330
2D2
 90
      356
 70
     1
 90
        4
 90
      357
 90
      358
 90
      359
 90
      363
330
0
 90
        0
280
     2
 90
       -1
 90
      348
  1
AcPointCurveConstraint
330
2D2
 90
      357
 70
     0
 90
        2
 90
      356
 90
      348
 90
        0
290
     1
290
     1
  1
AcMidPointConstraint
330
2D2
 90
      358
 70
     0
 90
        2
 90
      356
 90
      348
 90
        0
290
     1
290
     1
  1
AcPointCoincidenceConstraint
330
2D2
 90
      359
 70
     0
 90
        2
 90
      356
 90
      354
 90
        0
290
     0
290
     1
  1
AcConstrainedCircle
330
2D2
 90
      360
 70
     1
 90
        1
 90
      362
330
2D8
 90
        0
 10
-220.3081550453716
 20
422.2658889910595
 30
0.0
 10
0.0
 20
0.0
 30
1.0
 10
1.0
 20
0.0
 30
0.0
 40
4.75
 40
0.0
 40
6.283185307179585
  1
AcConstrainedImplicitPoint
330
2D2
 90
      361
 70
     1
 90
        2
 90
      362
 90
      363
330
0
 90
        0
280
     3
 90
       -1
 90
      360
  1
AcCenterPointConstraint
330
2D2
 90
      362
 70
     0
 90
        2
 90
      361
 90
      360
 90
        0
290
     1
290
     1
  1
AcPointCoincidenceConstraint
330
2D2
 90
      363
 70
     0
 90
        2
 90
      356
 90
      361
 90
        0
290
     0
290
     1
  1
AcConstrainedBoundedLine
330
2D2
 90
      364
 70
     1
 90
        4
 90
      366
 90
      368
 90
      370
 90
      371
330
2D5
 90
        0
 10
-220.3081550453722
 20
429.5158889910596
 30
0.0
 10
0.0
 20
-1.0
 30
0.0
290
     0
 10
-220.3081550453722
 20
429.5158889910596
 30
0.0
 11
-220.3081550453722
 21
415.0158889910597
 31
0.0
  1
AcConstrainedImplicitPoint
330
2D2
 90
      365
 70
     1
 90
        1
 90
      366
330
0
 90
        0
280
     0
 90
       -1
 90
      364
  1
AcPointCurveConstraint
330
2D2
 90
      366
 70
     0
 90
        2
 90
      365
 90
      364
 90
        0
290
     1
290
     1
  1
AcConstrainedImplicitPoint
330
2D2
 90
      367
 70
     1
 90
        1
 90
      368
330
0
 90
        0
280
     1
 90
       -1
 90
      364
  1
AcPointCurveConstraint
330
2D2
 90
      368
 70
     0
 90
        2
 90
      367
 90
      364
 90
        0
290
     1
290
     1
  1
AcConstrainedImplicitPoint
330
2D2
 90
      369
 70
     1
 90
        3
 90
      370
 90
      371
 90
      372
330
0
 90
        0
280
     2
 90
       -1
 90
      364
  1
AcPointCurveConstraint
330
2D2
 90
      370
 70
     0
 90
        2
 90
      369
 90
      364
 90
        0
290
     1
290
     1
  1
AcMidPointConstraint
330
2D2
 90
      371
 70
     0
 90
        2
 90
      369
 90
      364
 90
        0
290
     1
290
     1
  1
AcPointCoincidenceConstraint
330
2D2
 90
      372
 70
     0
 90
        2
 90
      369
 90
      354
 90
        0
290
     0
290
     1
  1
AcConstrainedImplicitPoint
330
2D2
 90
      373
 70
     1
 90
        1
 90
      379
330
0
 90
        0
280
     0
 90
       -1
 90
      383
  1
AcPointCurveConstraint
330
2D2
 90
      374
 70
     0
 90
        2
 90
      385
 90
      383
 90
        0
290
     1
290
     1
  1
AcConstrainedBoundedLine
330
2D2
 90
      375
 70
     1
 90
        4
 90
      388
 90
      384
 90
      389
 90
      378
330
2DB
 90
        0
 10
-220.3081550453724
 20
635.5158889910597
 30
0.0
 10
0.0
 20
-1.0
 30
0.0
290
     0
 10
-220.3081550453724
 20
635.5158889910597
 30
0.0
 11
-220.3081550453724
 21
621.0158889910596
 31
0.0
  1
AcPointCurveConstraint
330
2D2
 90
      376
 70
     0
 90
        2
 90
      386
 90
      383
 90
        0
290
     1
290
     1
  1
AcConstrainedImplicitPoint
330
2D2
 90
      377
 70
     1
 90
        1
 90
      384
330
0
 90
        0
280
     1
 90
       -1
 90
      375
  1
AcMidPointConstraint
330
2D2
 90
      378
 70
     0
 90
        2
 90
      382
 90
      375
 90
        0
290
     1
290
     1
  1
AcPointCurveConstraint
330
2D2
 90
      379
 70
     0
 90
        2
 90
      373
 90
      383
 90
        0
290
     1
290
     1
  1
AcMidPointConstraint
330
2D2
 90
      380
 70
     0
 90
        2
 90
      385
 90
      383
 90
        0
290
     1
290
     1
  1
AcConstrainedImplicitPoint
330
2D2
 90
      381
 70
     1
 90
        1
 90
      388
330
0
 90
        0
280
     0
 90
       -1
 90
      375
  1
AcConstrainedImplicitPoint
330
2D2
 90
      382
 70
     1
 90
        3
 90
      389
 90
      378
 90
      387
330
0
 90
        0
280
     2
 90
       -1
 90
      375
  1
AcConstrainedBoundedLine
330
2D2
 90
      383
 70
     1
 90
        4
 90
      379
 90
      376
 90
      374
 90
      380
330
2E7
 90
        0
 10
-213.0581550453723
 20
628.2658889910597
 30
0.0
 10
-1.0
 20
0.0
 30
0.0
290
     0
 10
-213.0581550453723
 20
628.2658889910597
 30
0.0
 11
-227.5581550453723
 21
628.2658889910597
 31
0.0
  1
AcPointCurveConstraint
330
2D2
 90
      384
 70
     0
 90
        2
 90
      377
 90
      375
 90
        0
290
     1
290
     1
  1
AcConstrainedImplicitPoint
330
2D2
 90
      385
 70
     1
 90
        5
 90
      374
 90
      380
 90
      387
 90
      393
 90
      397
330
0
 90
        0
280
     2
 90
       -1
 90
      383
  1
AcConstrainedImplicitPoint
330
2D2
 90
      386
 70
     1
 90
        1
 90
      376
330
0
 90
        0
280
     1
 90
       -1
 90
      383
  1
AcPointCoincidenceConstraint
330
2D2
 90
      387
 70
     0
 90
        2
 90
      382
 90
      385
 90
        0
290
     0
290
     1
  1
AcPointCurveConstraint
330
2D2
 90
      388
 70
     0
 90
        2
 90
      381
 90
      375
 90
        0
290
     1
290
     1
  1
AcPointCurveConstraint
330
2D2
 90
      389
 70
     0
 90
        2
 90
      382
 90
      375
 90
        0
290
     1
290
     1
  1
AcConstrainedCircle
330
2D2
 90
      390
 70
     1
 90
        1
 90
      392
330
2E9
 90
        0
 10
-220.3081550453717
 20
628.2658889910597
 30
0.0
 10
0.0
 20
0.0
 30
1.0
 10
1.0
 20
0.0
 30
0.0
 40
2.75
 40
0.0
 40
6.283185307179585
  1
AcConstrainedImplicitPoint
330
2D2
 90
      391
 70
     1
 90
        2
 90
      392
 90
      393
330
0
 90
        0
280
     3
 90
       -1
 90
      390
  1
AcCenterPointConstraint
330
2D2
 90
      392
 70
     0
 90
        2
 90
      391
 90
      390
 90
        0
290
     1
290
     1
  1
AcPointCoincidenceConstraint
330
2D2
 90
      393
 70
     0
 90
        2
 90
      385
 90
      391
 90
        0
290
     0
290
     1
  1
AcConstrainedCircle
330
2D2
 90
      394
 70
     1
 90
        1
 90
      396
330
2D9
 90
        0
 10
-220.3081550453717
 20
628.2658889910597
 30
0.0
 10
0.0
 20
0.0
 30
1.0
 10
1.0
 20
0.0
 30
0.0
 40
4.75
 40
0.0
 40
6.283185307179585
  1
AcConstrainedImplicitPoint
330
2D2
 90
      395
 70
     1
 90
        2
 90
      396
 90
      397
330
0
 90
        0
280
     3
 90
       -1
 90
      394
  1
AcCenterPointConstraint
330
2D2
 90
      396
 70
     0
 90
        2
 90
      395
 90
      394
 90
        0
290
     1
290
     1
  1
AcPointCoincidenceConstraint
330
2D2
 90
      397
 70
     0
 90
        2
 90
      385
 90
      395
 90
        0
290
     0
290
     1
  0
XRECORD
  5
31B
102
{ACAD_REACTORS
330
2A4
102
}
330
2A4
100
AcDbXrecord
280
     1
102
DISPLAYNAME
  1
Metric50
102
FLAGS
 90
        0
  0
XRECORD
  5
310
102
{ACAD_REACTORS
330
30F
102
}
330
30F
100
AcDbXrecord
280
     1
102
SHADEPLOT
 70
     0
102
SHADEPLOTRESLEVEL
 70
     2
102
SHADEPLOTCUSTOMDPI
 70
   300
  0
XRECORD
  5
30E
102
{ACAD_REACTORS
330
B
102
}
330
B
100
AcDbXrecord
280
     1
102
SHADEPLOT
 70
     0
102
SHADEPLOTRESLEVEL
 70
     2
102
SHADEPLOTCUSTOMDPI
 70
   300
  0
XRECORD
  5
315
102
{ACAD_REACTORS
330
46
102
}
330
46
100
AcDbXrecord
280
     1
102
MATERIAL
148
0.0
149
0.0
149
0.0
 93
        0
 94
      127
282
     0
 72
     0
 77
     0
171
     0
175
     0
179
     0
273
     0
  0
XRECORD
  5
47
102
{ACAD_REACTORS
330
46
102
}
330
46
100
AcDbXrecord
280
     1
270
     1
271
     1
  0
XRECORD
  5
48
102
{ACAD_REACTORS
330
46
102
}
330
46
100
AcDbXrecord
280
     1
270
     1
271
     1
  0
XRECORD
  5
49
102
{ACAD_REACTORS
330
46
102
}
330
46
100
AcDbXrecord
280
     1
270
     1
271
     1
  0
XRECORD
  5
4A
102
{ACAD_REACTORS
330
46
102
}
330
46
100
AcDbXrecord
280
     1
270
     1
271
     1
  0
XRECORD
  5
4B
102
{ACAD_REACTORS
330
46
102
}
330
46
100
AcDbXrecord
280
     1
270
     1
271
     1
  0
XRECORD
  5
4C
102
{ACAD_REACTORS
330
46
102
}
330
46
100
AcDbXrecord
280
     1
270
     1
271
     1
  0
XRECORD
  5
314
102
{ACAD_REACTORS
330
3E
102
}
330
3E
100
AcDbXrecord
280
     1
102
MATERIAL
148
0.0
149
0.0
149
0.0
 93
        0
 94
      127
282
     0
 72
     0
 77
     0
171
     0
175
     0
179
     0
273
     0
  0
XRECORD
  5
3F
102
{ACAD_REACTORS
330
3E
102
}
330
3E
100
AcDbXrecord
280
     1
270
     1
271
     1
  0
XRECORD
  5
40
102
{ACAD_REACTORS
330
3E
102
}
330
3E
100
AcDbXrecord
280
     1
270
     1
271
     1
  0
XRECORD
  5
41
102
{ACAD_REACTORS
330
3E
102
}
330
3E
100
AcDbXrecord
280
     1
270
     1
271
     1
  0
XRECORD
  5
42
102
{ACAD_REACTORS
330
3E
102
}
330
3E
100
AcDbXrecord
280
     1
270
     1
271
     1
  0
XRECORD
  5
43
102
{ACAD_REACTORS
330
3E
102
}
330
3E
100
AcDbXrecord
280
     1
270
     1
271
     1
  0
XRECORD
  5
44
102
{ACAD_REACTORS
330
3E
102
}
330
3E
100
AcDbXrecord
280
     1
270
     1
271
     1
  0
XRECORD
  5
311
102
{ACAD_REACTORS
330
18
102
}
330
18
100
AcDbXrecord
280
     1
102
MATERIAL
148
0.0
149
0.0
149
0.0
 93
        0
 94
      127
282
     0
 72
     0
 77
     0
171
     0
175
     0
179
     0
273
     0
  0
XRECORD
  5
19
102
{ACAD_REACTORS
330
18
102
}
330
18
100
AcDbXrecord
280
     1
270
     1
271
     1
  0
XRECORD
  5
1A
102
{ACAD_REACTORS
330
18
102
}
330
18
100
AcDbXrecord
280
     1
270
     1
271
     1
  0
XRECORD
  5
1B
102
{ACAD_REACTORS
330
18
102
}
330
18
100
AcDbXrecord
280
     1
270
     1
271
     1
  0
XRECORD
  5
1C
102
{ACAD_REACTORS
330
18
102
}
330
18
100
AcDbXrecord
280
     1
270
     1
271
     1
  0
XRECORD
  5
1D
102
{ACAD_REACTORS
330
18
102
}
330
18
100
AcDbXrecord
280
     1
270
     1
271
     1
  0
XRECORD
  5
1E
102
{ACAD_REACTORS
330
18
102
}
330
18
100
AcDbXrecord
280
     1
270
     1
271
     1
  0
XRECORD
  5
31C
102
{ACAD_REACTORS
330
2B3
102
}
330
2B3
100
AcDbXrecord
280
     1
102
DISPLAYNAME
  1
Metric50
102
FLAGS
 90
        0
  0
CELLSTYLEMAP
  5
303
102
{ACAD_REACTORS
330
54
102
}
330
54
100
AcDbCellStyleMap
 90
        3
300
CELLSTYLE
  1
TABLEFORMAT_BEGIN
 90
        5
170
     1
 91
        0
 92
    32768
 62
   257
 93
        1
300
CONTENTFORMAT
  1
CONTENTFORMAT_BEGIN
 90
        0
 91
        0
 92
        4
 93
        0
300

 40
0.0
140
1.0
 94
        5
 62
     0
340
24
144
6.0
309
CONTENTFORMAT_END
171
     1
301
MARGIN
  1
CELLMARGIN_BEGIN
 40
1.5
 40
1.5
 40
1.5
 40
1.5
 40
0.18
 40
0.18
309
CELLMARGIN_END
 94
        6
 95
        1
302
GRIDFORMAT
  1
GRIDFORMAT_BEGIN
 90
        0
 91
        1
 62
     0
 92
       -2
340
0
 93
        0
 40
0.045
309
GRIDFORMAT_END
 95
        2
302
GRIDFORMAT
  1
GRIDFORMAT_BEGIN
 90
        0
 91
        1
 62
     0
 92
       -2
340
0
 93
        0
 40
0.045
309
GRIDFORMAT_END
 95
        4
302
GRIDFORMAT
  1
GRIDFORMAT_BEGIN
 90
        0
 91
        1
 62
     0
 92
       -2
340
0
 93
        0
 40
0.045
309
GRIDFORMAT_END
 95
        8
302
GRIDFORMAT
  1
GRIDFORMAT_BEGIN
 90
        0
 91
        1
 62
     0
 92
       -2
340
0
 93
        0
 40
0.045
309
GRIDFORMAT_END
 95
       16
302
GRIDFORMAT
  1
GRIDFORMAT_BEGIN
 90
        0
 91
        1
 62
     0
 92
       -2
340
0
 93
        0
 40
0.045
309
GRIDFORMAT_END
 95
       32
302
GRIDFORMAT
  1
GRIDFORMAT_BEGIN
 90
        0
 91
        1
 62
     0
 92
       -2
340
0
 93
        0
 40
0.045
309
GRIDFORMAT_END
309
TABLEFORMAT_END
  1
CELLSTYLE_BEGIN
 90
        1
 91
        1
300
_TITLE
309
CELLSTYLE_END
300
CELLSTYLE
  1
TABLEFORMAT_BEGIN
 90
        5
170
     1
 91
        0
 92
        0
 62
   257
 93
        1
300
CONTENTFORMAT
  1
CONTENTFORMAT_BEGIN
 90
        0
 91
        0
 92
        4
 93
        0
300

 40
0.0
140
1.0
 94
        5
 62
     0
340
24
144
4.5
309
CONTENTFORMAT_END
171
     1
301
MARGIN
  1
CELLMARGIN_BEGIN
 40
1.5
 40
1.5
 40
1.5
 40
1.5
 40
0.18
 40
0.18
309
CELLMARGIN_END
 94
        6
 95
        1
302
GRIDFORMAT
  1
GRIDFORMAT_BEGIN
 90
        0
 91
        1
 62
     0
 92
       -2
340
0
 93
        0
 40
0.045
309
GRIDFORMAT_END
 95
        2
302
GRIDFORMAT
  1
GRIDFORMAT_BEGIN
 90
        0
 91
        1
 62
     0
 92
       -2
340
0
 93
        0
 40
0.045
309
GRIDFORMAT_END
 95
        4
302
GRIDFORMAT
  1
GRIDFORMAT_BEGIN
 90
        0
 91
        1
 62
     0
 92
       -2
340
0
 93
        0
 40
0.045
309
GRIDFORMAT_END
 95
        8
302
GRIDFORMAT
  1
GRIDFORMAT_BEGIN
 90
        0
 91
        1
 62
     0
 92
       -2
340
0
 93
        0
 40
0.045
309
GRIDFORMAT_END
 95
       16
302
GRIDFORMAT
  1
GRIDFORMAT_BEGIN
 90
        0
 91
        1
 62
     0
 92
       -2
340
0
 93
        0
 40
0.045
309
GRIDFORMAT_END
 95
       32
302
GRIDFORMAT
  1
GRIDFORMAT_BEGIN
 90
        0
 91
        1
 62
     0
 92
       -2
340
0
 93
        0
 40
0.045
309
GRIDFORMAT_END
309
TABLEFORMAT_END
  1
CELLSTYLE_BEGIN
 90
        2
 91
        1
300
_HEADER
309
CELLSTYLE_END
300
CELLSTYLE
  1
TABLEFORMAT_BEGIN
 90
        5
170
     1
 91
        0
 92
        0
 62
   257
 93
        1
300
CONTENTFORMAT
  1
CONTENTFORMAT_BEGIN
 90
        0
 91
        0
 92
        4
 93
        0
300

 40
0.0
140
1.0
 94
        2
 62
     0
340
24
144
4.5
309
CONTENTFORMAT_END
171
     1
301
MARGIN
  1
CELLMARGIN_BEGIN
 40
1.5
 40
1.5
 40
1.5
 40
1.5
 40
0.18
 40
0.18
309
CELLMARGIN_END
 94
        6
 95
        1
302
GRIDFORMAT
  1
GRIDFORMAT_BEGIN
 90
        0
 91
        1
 62
     0
 92
       -2
340
0
 93
        0
 40
0.045
309
GRIDFORMAT_END
 95
        2
302
GRIDFORMAT
  1
GRIDFORMAT_BEGIN
 90
        0
 91
        1
 62
     0
 92
       -2
340
0
 93
        0
 40
0.045
309
GRIDFORMAT_END
 95
        4
302
GRIDFORMAT
  1
GRIDFORMAT_BEGIN
 90
        0
 91
        1
 62
     0
 92
       -2
340
0
 93
        0
 40
0.045
309
GRIDFORMAT_END
 95
        8
302
GRIDFORMAT
  1
GRIDFORMAT_BEGIN
 90
        0
 91
        1
 62
     0
 92
       -2
340
0
 93
        0
 40
0.045
309
GRIDFORMAT_END
 95
       16
302
GRIDFORMAT
  1
GRIDFORMAT_BEGIN
 90
        0
 91
        1
 62
     0
 92
       -2
340
0
 93
        0
 40
0.045
309
GRIDFORMAT_END
 95
       32
302
GRIDFORMAT
  1
GRIDFORMAT_BEGIN
 90
        0
 91
        1
 62
     0
 92
       -2
340
0
 93
        0
 40
0.045
309
GRIDFORMAT_END
309
TABLEFORMAT_END
  1
CELLSTYLE_BEGIN
 90
        3
 91
        2
300
_DATA
309
CELLSTYLE_END
  0
XRECORD
  5
316
102
{ACAD_REACTORS
330
54
102
}
330
54
100
AcDbXrecord
280
     1
102
ACAD_ROUNDTRIP_PRE2007_TABLESTYLE
 90
        4
 91
        0
  1

 92
        4
 93
        0
  2

 94
        4
 95
        0
  3

  0
XRECORD
  5
313
102
{ACAD_REACTORS
330
312
102
}
330
312
100
AcDbXrecord
280
     1
102
RTVSPost2010Prop28
280
     1
102
RTVSPost2010PropOp28
 70
     1
102
RTVSPost2010Prop29
280
     1
102
RTVSPost2010PropOp29
 70
     1
102
RTVSPost2010Prop30
280
     0
102
RTVSPost2010PropOp30
 70
     1
102
RTVSPost2010Prop31
280
     0
102
RTVSPost2010PropOp31
 70
     1
102
RTVSPost2010Prop32
280
     0
102
RTVSPost2010PropOp32
 70
     1
102
RTVSPost2010Prop33
280
     0
102
RTVSPost2010PropOp33
 70
     1
102
RTVSPost2010Prop34
280
     0
102
RTVSPost2010PropOp34
 70
     1
102
RTVSPost2010Prop35
280
     0
102
RTVSPost2010PropOp35
 70
     1
102
RTVSPost2010Prop36
280
     0
102
RTVSPost2010PropOp36
 70
     1
102
RTVSPost2010Prop37
 90
       50
102
RTVSPost2010PropOp37
 70
     1
102
RTVSPost2010Prop38
140
0.0
102
RTVSPost2010PropOp38
 70
     1
102
RTVSPost2010Prop39
140
1.0
102
RTVSPost2010PropOp39
 70
     1
102
RTVSPost2010Prop40
 90
        0
102
RTVSPost2010PropOp40
 70
     1
102
RTVSPost2010Prop41ColorIndex
 90
       18
102
RTVSPost2010Prop41ColorRGB
 90
-16777216
102
RTVSPost2010PropOp41
 70
     1
102
RTVSPost2010Prop42
 90
       50
102
RTVSPost2010PropOp42
 70
     1
102
RTVSPost2010Prop43
 90
        3
102
RTVSPost2010PropOp43
 70
     1
102
RTVSPost2010Prop44ColorIndex
 90
        5
102
RTVSPost2010Prop44ColorRGB
 90
      255
102
RTVSPost2010PropOp44
 70
     1
102
RTVSPost2010Prop45
280
     0
102
RTVSPost2010PropOp45
 70
     1
102
RTVSPost2010Prop46
 90
       50
102
RTVSPost2010PropOp46
 70
     1
102
RTVSPost2010Prop47
 90
       50
102
RTVSPost2010PropOp47
 70
     1
102
RTVSPost2010Prop48
 90
       50
102
RTVSPost2010PropOp48
 70
     1
102
RTVSPost2010Prop49
280
     0
102
RTVSPost2010PropOp49
 70
     1
102
RTVSPost2010Prop50
 90
       50
102
RTVSPost2010PropOp50
 70
     1
102
RTVSPost2010Prop51ColorIndex
 90
      256
102
RTVSPost2010Prop51ColorRGB
 90
-16777216
102
RTVSPost2010PropOp51
 70
     0
102
RTVSPost2010Prop52
140
1.0
102
RTVSPost2010PropOp52
 70
     0
102
RTVSPost2010Prop53
 90
        2
102
RTVSPost2010PropOp53
 70
     1
102
RTVSPost2010Prop54
  1
strokes_ogs.tif
102
RTVSPost2010PropOp54
 70
     1
102
RTVSPost2010Prop55
280
     0
102
RTVSPost2010PropOp55
 70
     1
102
RTVSPost2010Prop56
140
1.0
102
RTVSPost2010PropOp56
 70
     1
102
RTVSPost2010Prop57
140
1.0
102
RTVSPost2010PropOp57
 70
     1
102
RTVSPropertyOp0
 70
     1
102
RTVSPropertyOp1
 70
     1
102
RTVSPropertyOp2
 70
     1
102
RTVSPropertyOp3
 70
     1
102
RTVSPropertyOp4
 70
     1
102
RTVSPropertyOp5
 70
     1
102
RTVSPropertyOp6
 70
     1
102
RTVSPropertyOp7
 70
     1
102
RTVSPropertyOp8
 70
     1
102
RTVSPropertyOp9
 70
     1
102
RTVSPropertyOp10
 70
     1
102
RTVSPropertyOp11
 70
     1
102
RTVSPropertyOp12
 70
     1
102
RTVSPropertyOp13
 70
     1
102
RTVSPropertyOp14
 70
     1
102
RTVSPropertyOp15
 70
     1
102
RTVSPropertyOp16
 70
     1
102
RTVSPropertyOp17
 70
     1
102
RTVSPropertyOp18
 70
     1
102
RTVSPropertyOp19
 70
     1
102
RTVSPropertyOp20
 70
     1
102
RTVSPropertyOp21
 70
     1
102
RTVSPropertyOp22
 70
     1
102
RTVSPropertyOp23
 70
     1
102
RTVSPropertyOp24
 70
     1
102
RTVSPropertyOp25
 70
     1
102
RTVSPropertyOp26
 70
     1
102
RTVSPropertyOp27
 70
     1
102
RTVSPropertyOp28
 70
     1
102
RTVSPropertyOp29
 70
     1
102
RTVSPropertyOp30
 70
     1
102
RTVSPropertyOp31
 70
     1
102
RTVSPropertyOp32
 70
     1
102
RTVSPropertyOp33
 70
     1
102
RTVSPropertyOp34
 70
     1
102
RTVSPropertyOp35
 70
     1
102
RTVSPropertyOp36
 70
     1
102
RTVSPropertyOp37
 70
     1
102
RTVSPropertyOp38
 70
     1
102
RTVSPropertyOp39
 70
     1
102
RTVSPropertyOp40
 70
     1
102
RTVSPropertyOp41
 70
     1
102
RTVSPropertyOp42
 70
     1
102
RTVSPropertyOp43
 70
     1
102
RTVSPropertyOp44
 70
     1
102
RTVSPropertyOp45
 70
     1
102
RTVSPropertyOp46
 70
     1
102
RTVSPropertyOp47
 70
     1
102
RTVSPropertyOp48
 70
     1
102
RTVSPropertyOp49
 70
     1
102
RTVSPropertyOp50
 70
     1
102
RTVSPropertyOp51
 70
     0
102
RTVSPropertyOp52
 70
     0
102
RTVSPropertyOp53
 70
     1
102
RTVSPropertyOp54
 70
     1
102
RTVSPropertyOp55
 70
     1
102
RTVSPropertyOp56
 70
     1
102
RTVSPropertyOp57
 70
     1
102
RTVSPropertyOp58
 70
     1
102
RTVSPropertyOp59
 70
     1
102
RTVSPropertyOp60
 70
     1
102
RTVSPropertyOp61
 70
     1
102
RTVSPropertyOp62
 70
     1
  0
XRECORD
  5
318
102
{ACAD_REACTORS
330
317
102
}
330
317
100
AcDbXrecord
280
     1
102
RTVSPost2010Prop28
280
     0
102
RTVSPost2010PropOp28
 70
     1
102
RTVSPost2010Prop29
280
     1
102
RTVSPost2010PropOp29
 70
     1
102
RTVSPost2010Prop30
280
     1
102
RTVSPost2010PropOp30
 70
     1
102
RTVSPost2010Prop31
280
     0
102
RTVSPost2010PropOp31
 70
     1
102
RTVSPost2010Prop32
280
     0
102
RTVSPost2010PropOp32
 70
     1
102
RTVSPost2010Prop33
280
     0
102
RTVSPost2010PropOp33
 70
     1
102
RTVSPost2010Prop34
280
     0
102
RTVSPost2010PropOp34
 70
     1
102
RTVSPost2010Prop35
280
     0
102
RTVSPost2010PropOp35
 70
     1
102
RTVSPost2010Prop36
280
     0
102
RTVSPost2010PropOp36
 70
     1
102
RTVSPost2010Prop37
 90
       50
102
RTVSPost2010PropOp37
 70
     1
102
RTVSPost2010Prop38
140
0.0
102
RTVSPost2010PropOp38
 70
     1
102
RTVSPost2010Prop39
140
1.0
102
RTVSPost2010PropOp39
 70
     1
102
RTVSPost2010Prop40
 90
        0
102
RTVSPost2010PropOp40
 70
     1
102
RTVSPost2010Prop41ColorIndex
 90
       18
102
RTVSPost2010Prop41ColorRGB
 90
-16777216
102
RTVSPost2010PropOp41
 70
     1
102
RTVSPost2010Prop42
 90
       50
102
RTVSPost2010PropOp42
 70
     1
102
RTVSPost2010Prop43
 90
        3
102
RTVSPost2010PropOp43
 70
     1
102
RTVSPost2010Prop44ColorIndex
 90
        5
102
RTVSPost2010Prop44ColorRGB
 90
      255
102
RTVSPost2010PropOp44
 70
     1
102
RTVSPost2010Prop45
280
     0
102
RTVSPost2010PropOp45
 70
     1
102
RTVSPost2010Prop46
 90
       50
102
RTVSPost2010PropOp46
 70
     1
102
RTVSPost2010Prop47
 90
       50
102
RTVSPost2010PropOp47
 70
     1
102
RTVSPost2010Prop48
 90
       50
102
RTVSPost2010PropOp48
 70
     1
102
RTVSPost2010Prop49
280
     0
102
RTVSPost2010PropOp49
 70
     1
102
RTVSPost2010Prop50
 90
       50
102
RTVSPost2010PropOp50
 70
     1
102
RTVSPost2010Prop51ColorIndex
 90
      256
102
RTVSPost2010Prop51ColorRGB
 90
-16777216
102
RTVSPost2010PropOp51
 70
     0
102
RTVSPost2010Prop52
140
1.0
102
RTVSPost2010PropOp52
 70
     0
102
RTVSPost2010Prop53
 90
        2
102
RTVSPost2010PropOp53
 70
     1
102
RTVSPost2010Prop54
  1
strokes_ogs.tif
102
RTVSPost2010PropOp54
 70
     1
102
RTVSPost2010Prop55
280
     0
102
RTVSPost2010PropOp55
 70
     1
102
RTVSPost2010Prop56
140
1.0
102
RTVSPost2010PropOp56
 70
     1
102
RTVSPost2010Prop57
140
1.0
102
RTVSPost2010PropOp57
 70
     1
102
RTVSPropertyOp0
 70
     1
102
RTVSPropertyOp1
 70
     1
102
RTVSPropertyOp2
 70
     1
102
RTVSPropertyOp3
 70
     1
102
RTVSPropertyOp4
 70
     1
102
RTVSPropertyOp5
 70
     1
102
RTVSPropertyOp6
 70
     1
102
RTVSPropertyOp7
 70
     1
102
RTVSPropertyOp8
 70
     1
102
RTVSPropertyOp9
 70
     1
102
RTVSPropertyOp10
 70
     1
102
RTVSPropertyOp11
 70
     1
102
RTVSPropertyOp12
 70
     1
102
RTVSPropertyOp13
 70
     1
102
RTVSPropertyOp14
 70
     1
102
RTVSPropertyOp15
 70
     1
102
RTVSPropertyOp16
 70
     1
102
RTVSPropertyOp17
 70
     1
102
RTVSPropertyOp18
 70
     1
102
RTVSPropertyOp19
 70
     1
102
RTVSPropertyOp20
 70
     1
102
RTVSPropertyOp21
 70
     1
102
RTVSPropertyOp22
 70
     1
102
RTVSPropertyOp23
 70
     1
102
RTVSPropertyOp24
 70
     1
102
RTVSPropertyOp25
 70
     1
102
RTVSPropertyOp26
 70
     1
102
RTVSPropertyOp27
 70
     1
102
RTVSPropertyOp28
 70
     1
102
RTVSPropertyOp29
 70
     1
102
RTVSPropertyOp30
 70
     1
102
RTVSPropertyOp31
 70
     1
102
RTVSPropertyOp32
 70
     1
102
RTVSPropertyOp33
 70
     1
102
RTVSPropertyOp34
 70
     1
102
RTVSPropertyOp35
 70
     1
102
RTVSPropertyOp36
 70
     1
102
RTVSPropertyOp37
 70
     1
102
RTVSPropertyOp38
 70
     1
102
RTVSPropertyOp39
 70
     1
102
RTVSPropertyOp40
 70
     1
102
RTVSPropertyOp41
 70
     1
102
RTVSPropertyOp42
 70
     1
102
RTVSPropertyOp43
 70
     1
102
RTVSPropertyOp44
 70
     1
102
RTVSPropertyOp45
 70
     1
102
RTVSPropertyOp46
 70
     1
102
RTVSPropertyOp47
 70
     1
102
RTVSPropertyOp48
 70
     1
102
RTVSPropertyOp49
 70
     1
102
RTVSPropertyOp50
 70
     1
102
RTVSPropertyOp51
 70
     0
102
RTVSPropertyOp52
 70
     0
102
RTVSPropertyOp53
 70
     1
102
RTVSPropertyOp54
 70
     1
102
RTVSPropertyOp55
 70
     1
102
RTVSPropertyOp56
 70
     1
102
RTVSPropertyOp57
 70
     1
102
RTVSPropertyOp58
 70
     1
102
RTVSPropertyOp59
 70
     1
102
RTVSPropertyOp60
 70
     1
102
RTVSPropertyOp61
 70
     1
102
RTVSPropertyOp62
 70
     1
  0
XRECORD
  5
31A
102
{ACAD_REACTORS
330
319
102
}
330
319
100
AcDbXrecord
280
     1
102
RTVSPost2010Prop28
280
     0
102
RTVSPost2010PropOp28
 70
     1
102
RTVSPost2010Prop29
280
     1
102
RTVSPost2010PropOp29
 70
     1
102
RTVSPost2010Prop30
280
     1
102
RTVSPost2010PropOp30
 70
     1
102
RTVSPost2010Prop31
280
     0
102
RTVSPost2010PropOp31
 70
     1
102
RTVSPost2010Prop32
280
     0
102
RTVSPost2010PropOp32
 70
     1
102
RTVSPost2010Prop33
280
     0
102
RTVSPost2010PropOp33
 70
     1
102
RTVSPost2010Prop34
280
     0
102
RTVSPost2010PropOp34
 70
     1
102
RTVSPost2010Prop35
280
     0
102
RTVSPost2010PropOp35
 70
     1
102
RTVSPost2010Prop36
280
     0
102
RTVSPost2010PropOp36
 70
     1
102
RTVSPost2010Prop37
 90
       50
102
RTVSPost2010PropOp37
 70
     1
102
RTVSPost2010Prop38
140
0.0
102
RTVSPost2010PropOp38
 70
     1
102
RTVSPost2010Prop39
140
1.0
102
RTVSPost2010PropOp39
 70
     1
102
RTVSPost2010Prop40
 90
        0
102
RTVSPost2010PropOp40
 70
     1
102
RTVSPost2010Prop41ColorIndex
 90
       18
102
RTVSPost2010Prop41ColorRGB
 90
-16777216
102
RTVSPost2010PropOp41
 70
     1
102
RTVSPost2010Prop42
 90
       50
102
RTVSPost2010PropOp42
 70
     1
102
RTVSPost2010Prop43
 90
        3
102
RTVSPost2010PropOp43
 70
     1
102
RTVSPost2010Prop44ColorIndex
 90
        5
102
RTVSPost2010Prop44ColorRGB
 90
      255
102
RTVSPost2010PropOp44
 70
     1
102
RTVSPost2010Prop45
280
     0
102
RTVSPost2010PropOp45
 70
     1
102
RTVSPost2010Prop46
 90
       50
102
RTVSPost2010PropOp46
 70
     1
102
RTVSPost2010Prop47
 90
       50
102
RTVSPost2010PropOp47
 70
     1
102
RTVSPost2010Prop48
 90
       50
102
RTVSPost2010PropOp48
 70
     1
102
RTVSPost2010Prop49
280
     0
102
RTVSPost2010PropOp49
 70
     1
102
RTVSPost2010Prop50
 90
       50
102
RTVSPost2010PropOp50
 70
     1
102
RTVSPost2010Prop51ColorIndex
 90
      256
102
RTVSPost2010Prop51ColorRGB
 90
-16777216
102
RTVSPost2010PropOp51
 70
     0
102
RTVSPost2010Prop52
140
1.0
102
RTVSPost2010PropOp52
 70
     0
102
RTVSPost2010Prop53
 90
        2
102
RTVSPost2010PropOp53
 70
     1
102
RTVSPost2010Prop54
  1
strokes_ogs.tif
102
RTVSPost2010PropOp54
 70
     1
102
RTVSPost2010Prop55
280
     0
102
RTVSPost2010PropOp55
 70
     1
102
RTVSPost2010Prop56
140
1.0
102
RTVSPost2010PropOp56
 70
     1
102
RTVSPost2010Prop57
140
1.0
102
RTVSPost2010PropOp57
 70
     1
102
RTVSPropertyOp0
 70
     1
102
RTVSPropertyOp1
 70
     1
102
RTVSPropertyOp2
 70
     1
102
RTVSPropertyOp3
 70
     1
102
RTVSPropertyOp4
 70
     1
102
RTVSPropertyOp5
 70
     1
102
RTVSPropertyOp6
 70
     1
102
RTVSPropertyOp7
 70
     1
102
RTVSPropertyOp8
 70
     1
102
RTVSPropertyOp9
 70
     1
102
RTVSPropertyOp10
 70
     1
102
RTVSPropertyOp11
 70
     1
102
RTVSPropertyOp12
 70
     1
102
RTVSPropertyOp13
 70
     1
102
RTVSPropertyOp14
 70
     1
102
RTVSPropertyOp15
 70
     1
102
RTVSPropertyOp16
 70
     1
102
RTVSPropertyOp17
 70
     1
102
RTVSPropertyOp18
 70
     1
102
RTVSPropertyOp19
 70
     1
102
RTVSPropertyOp20
 70
     1
102
RTVSPropertyOp21
 70
     1
102
RTVSPropertyOp22
 70
     1
102
RTVSPropertyOp23
 70
     1
102
RTVSPropertyOp24
 70
     1
102
RTVSPropertyOp25
 70
     1
102
RTVSPropertyOp26
 70
     1
102
RTVSPropertyOp27
 70
     1
102
RTVSPropertyOp28
 70
     1
102
RTVSPropertyOp29
 70
     1
102
RTVSPropertyOp30
 70
     1
102
RTVSPropertyOp31
 70
     1
102
RTVSPropertyOp32
 70
     1
102
RTVSPropertyOp33
 70
     1
102
RTVSPropertyOp34
 70
     1
102
RTVSPropertyOp35
 70
     1
102
RTVSPropertyOp36
 70
     1
102
RTVSPropertyOp37
 70
     1
102
RTVSPropertyOp38
 70
     1
102
RTVSPropertyOp39
 70
     1
102
RTVSPropertyOp40
 70
     1
102
RTVSPropertyOp41
 70
     1
102
RTVSPropertyOp42
 70
     1
102
RTVSPropertyOp43
 70
     1
102
RTVSPropertyOp44
 70
     1
102
RTVSPropertyOp45
 70
     1
102
RTVSPropertyOp46
 70
     1
102
RTVSPropertyOp47
 70
     1
102
RTVSPropertyOp48
 70
     1
102
RTVSPropertyOp49
 70
     1
102
RTVSPropertyOp50
 70
     1
102
RTVSPropertyOp51
 70
     0
102
RTVSPropertyOp52
 70
     0
102
RTVSPropertyOp53
 70
     1
102
RTVSPropertyOp54
 70
     1
102
RTVSPropertyOp55
 70
     1
102
RTVSPropertyOp56
 70
     1
102
RTVSPropertyOp57
 70
     1
102
RTVSPropertyOp58
 70
     1
102
RTVSPropertyOp59
 70
     1
102
RTVSPropertyOp60
 70
     1
102
RTVSPropertyOp61
 70
     1
102
RTVSPropertyOp62
 70
     1
  0
ACDBASSOCGEOMDEPENDENCY
  5
2D7
330
2D2
100
AcDbAssocDependency
 90
        2
 90
        1
290
     1
290
     1
290
     1
290
     1
 90
   -10000
330
117
290
     0
330
0
330
0
360
0
 90
        5
100
AcDbAssocGeomDependency
 90
        0
290
     1
  1
AcDbAssocSingleEdgePersSubentId
290
     0
  0
ACDBASSOCGEOMDEPENDENCY
  5
2DB
330
2D2
100
AcDbAssocDependency
 90
        2
 90
        1
290
     1
290
     1
290
     1
290
     1
 90
   -10000
330
82
290
     0
330
0
330
0
360
0
 90
       58
100
AcDbAssocGeomDependency
 90
        0
290
     1
  1
AcDbAssocSingleEdgePersSubentId
290
     0
  0
ACDBASSOCGEOMDEPENDENCY
  5
2DF
330
2D2
100
AcDbAssocDependency
 90
        2
 90
        1
290
     1
290
     1
290
     1
290
     1
 90
   -10000
330
109
290
     0
330
0
330
0
360
0
 90
       39
100
AcDbAssocGeomDependency
 90
        0
290
     1
  1
AcDbAssocSingleEdgePersSubentId
290
     0
  0
ACDBASSOCGEOMDEPENDENCY
  5
2E7
330
2D2
100
AcDbAssocDependency
 90
        2
 90
        1
290
     1
290
     1
290
     1
290
     1
 90
   -10000
330
87
290
     0
330
0
330
0
360
0
 90
       59
100
AcDbAssocGeomDependency
 90
        0
290
     1
  1
AcDbAssocSingleEdgePersSubentId
290
     0
  0
ACDBASSOCGEOMDEPENDENCY
  5
2D4
330
2D2
100
AcDbAssocDependency
 90
        2
 90
        1
290
     1
290
     1
290
     1
290
     1
 90
   -10000
330
11A
290
     0
330
0
330
0
360
0
 90
        9
100
AcDbAssocGeomDependency
 90
        0
290
     1
  1
AcDbAssocSingleEdgePersSubentId
290
     0
  0
ACDBASSOCGEOMDEPENDENCY
  5
2D8
330
2D2
100
AcDbAssocDependency
 90
        2
 90
        1
290
     1
290
     1
290
     1
290
     1
 90
   -10000
330
20B
290
     0
330
0
330
0
360
0
 90
       56
100
AcDbAssocGeomDependency
 90
        0
290
     1
  1
AcDbAssocSingleEdgePersSubentId
290
     0
  0
ACDBASSOCGEOMDEPENDENCY
  5
2DC
330
2D2
100
AcDbAssocDependency
 90
        2
 90
        1
290
     1
290
     1
290
     1
290
     1
 90
   -10000
330
9A
290
     0
330
0
330
0
360
0
 90
        8
100
AcDbAssocGeomDependency
 90
        0
290
     1
  1
AcDbAssocSingleEdgePersSubentId
290
     0
  0
ACDBASSOCGEOMDEPENDENCY
  5
2E0
330
2D2
100
AcDbAssocDependency
 90
        2
 90
        1
290
     1
290
     1
290
     1
290
     1
 90
   -10000
330
DB
290
     0
330
0
330
0
360
0
 90
       37
100
AcDbAssocGeomDependency
 90
        0
290
     1
  1
AcDbAssocSingleEdgePersSubentId
290
     0
  0
ACDBASSOCGEOMDEPENDENCY
  5
2D5
330
2D2
100
AcDbAssocDependency
 90
        2
 90
        1
290
     1
290
     1
290
     1
290
     1
 90
   -10000
330
88
290
     0
330
0
330
0
360
0
 90
       57
100
AcDbAssocGeomDependency
 90
        0
290
     1
  1
AcDbAssocSingleEdgePersSubentId
290
     0
  0
ACDBASSOCGEOMDEPENDENCY
  5
2D9
330
2D2
100
AcDbAssocDependency
 90
        2
 90
        1
290
     1
290
     1
290
     1
290
     1
 90
   -10000
330
20A
290
     0
330
0
330
0
360
0
 90
       61
100
AcDbAssocGeomDependency
 90
        0
290
     1
  1
AcDbAssocSingleEdgePersSubentId
290
     0
  0
ACDBASSOCGEOMDEPENDENCY
  5
2DD
330
2D2
100
AcDbAssocDependency
 90
        2
 90
        1
290
     1
290
     1
290
     1
290
     1
 90
   -10000
330
115
290
     0
330
0
330
0
360
0
 90
        6
100
AcDbAssocGeomDependency
 90
        0
290
     1
  1
AcDbAssocSingleEdgePersSubentId
290
     0
  0
ACDBASSOCGEOMDEPENDENCY
  5
2E1
330
2D2
100
AcDbAssocDependency
 90
        2
 90
        1
290
     1
290
     1
290
     1
290
     1
 90
   -10000
330
208
290
     0
330
0
330
0
360
0
 90
       55
100
AcDbAssocGeomDependency
 90
        0
290
     1
  1
AcDbAssocSingleEdgePersSubentId
290
     0
  0
ACDBASSOCGEOMDEPENDENCY
  5
2E9
330
2D2
100
AcDbAssocDependency
 90
        2
 90
        1
290
     1
290
     1
290
     1
290
     1
 90
   -10000
330
209
290
     0
330
0
330
0
360
0
 90
       60
100
AcDbAssocGeomDependency
 90
        0
290
     1
  1
AcDbAssocSingleEdgePersSubentId
290
     0
  0
ACDBASSOCGEOMDEPENDENCY
  5
2D6
330
2D2
100
AcDbAssocDependency
 90
        2
 90
        1
290
     1
290
     1
290
     1
290
     1
 90
   -10000
330
89
290
     0
330
0
330
0
360
0
 90
       54
100
AcDbAssocGeomDependency
 90
        0
290
     1
  1
AcDbAssocSingleEdgePersSubentId
290
     0
  0
ACDBASSOCGEOMDEPENDENCY
  5
2DA
330
2D2
100
AcDbAssocDependency
 90
        2
 90
        1
290
     1
290
     1
290
     1
290
     1
 90
   -10000
330
113
290
     0
330
0
330
0
360
0
 90
        7
100
AcDbAssocGeomDependency
 90
        0
290
     1
  1
AcDbAssocSingleEdgePersSubentId
290
     0
  0
ACDBASSOCGEOMDEPENDENCY
  5
2E2
330
2D2
100
AcDbAssocDependency
 90
        2
 90
        1
290
     1
290
     1
290
     1
290
     1
 90
   -10000
330
1D0
290
     0
330
0
330
0
360
0
 90
       10
100
AcDbAssocGeomDependency
 90
        0
290
     1
  1
AcDbAssocSingleEdgePersSubentId
290
     0
  0
ACDBASSOCGEOMDEPENDENCY
  5
2E6
330
2D2
100
AcDbAssocDependency
 90
        2
 90
        1
290
     1
290
     1
290
     1
290
     1
 90
   -10000
330
F8
290
     0
330
0
330
0
360
0
 90
       38
100
AcDbAssocGeomDependency
 90
        0
290
     1
  1
AcDbAssocSingleEdgePersSubentId
290
     0
  0
ACDBASSOCGEOMDEPENDENCY
  5
2EA
330
2D2
100
AcDbAssocDependency
 90
        2
 90
        1
290
     1
290
     1
290
     1
290
     1
 90
   -10000
330
27A
290
     0
330
0
330
0
360
0
 90
        4
100
AcDbAssocGeomDependency
 90
        0
290
     1
  1
AcDbAssocSingleEdgePersSubentId
290
     0
  0
ENDSEC
  0
EOF
