  0
SECTION
  2
HEADER
  9
$ACADVER
  1
AC1024
  9
$ACADMAINTVER
 70
   157
  9
$DWGCODEPAGE
  3
ANSI_1252
  9
$LASTSAVEDBY
  1
phiose
  9
$INSBASE
 10
0.0
 20
0.0
 30
0.0
  9
$EXTMIN
 10
251.525880363218
 20
113.8146666065272
 30
-0.0000000000112498
  9
$EXTMAX
 10
366.9967661460357
 20
1483.416135452978
 30
0.0000000000002956
  9
$LIMMIN
 10
0.0
 20
0.0
  9
$LIMMAX
 10
500.0
 20
600.0
  9
$ORTHOMODE
 70
     1
  9
$REGENMODE
 70
     1
  9
$FILLMODE
 70
     1
  9
$QTEXTMODE
 70
     0
  9
$MIRRTEXT
 70
     1
  9
$LTSCALE
 40
1.0
  9
$ATTMODE
 70
     1
  9
$TEXTSIZE
 40
2.399999999999999
  9
$TRACEWID
 40
0.05
  9
$TEXTSTYLE
  7
NORM
  9
$CLAYER
  8
SCHRAFFUR
  9
$CELTYPE
  6
BYLAYER
  9
$CECOLOR
 62
   256
  9
$CELTSCALE
 40
1.0
  9
$DISPSILH
 70
     0
  9
$DIMSCALE
 40
1.0
  9
$DIMASZ
 40
12.0
  9
$DIMEXO
 40
0.0
  9
$DIMDLI
 40
8.0
  9
$DIMRND
 40
0.0
  9
$DIMDLE
 40
0.0
  9
$DIMEXE
 40
1.0
  9
$DIMTP
 40
0.0
  9
$DIMTM
 40
0.0
  9
$DIMTXT
 40
9.0
  9
$DIMCEN
 40
1.5
  9
$DIMTSZ
 40
0.0
  9
$DIMTOL
 70
     0
  9
$DIMLIM
 70
     0
  9
$DIMTIH
 70
     0
  9
$DIMTOH
 70
     0
  9
$DIMSE1
 70
     0
  9
$DIMSE2
 70
     0
  9
$DIMTAD
 70
     1
  9
$DIMZIN
 70
     8
  9
$DIMBLK
  1

  9
$DIMASO
 70
     1
  9
$DIMSHO
 70
     1
  9
$DIMPOST
  1

  9
$DIMAPOST
  1

  9
$DIMALT
 70
     0
  9
$DIMALTD
 70
     2
  9
$DIMALTF
 40
25.39999999999999
  9
$DIMLFAC
 40
1.0
  9
$DIMTOFL
 70
     1
  9
$DIMTVP
 40
0.0
  9
$DIMTIX
 70
     1
  9
$DIMSOXD
 70
     0
  9
$DIMSAH
 70
     0
  9
$DIMBLK1
  1

  9
$DIMBLK2
  1

  9
$DIMSTYLE
  2
Katalog 09
  9
$DIMCLRD
 70
     2
  9
$DIMCLRE
 70
     2
  9
$DIMCLRT
 70
     3
  9
$DIMTFAC
 40
0.4285714285714289
  9
$DIMGAP
 40
2.5
  9
$DIMJUST
 70
     0
  9
$DIMSD1
 70
     0
  9
$DIMSD2
 70
     0
  9
$DIMTOLJ
 70
     1
  9
$DIMTZIN
 70
     8
  9
$DIMALTZ
 70
     8
  9
$DIMALTTZ
 70
     8
  9
$DIMUPT
 70
     0
  9
$DIMDEC
 70
     2
  9
$DIMTDEC
 70
     2
  9
$DIMALTU
 70
     2
  9
$DIMALTTD
 70
     2
  9
$DIMTXSTY
  7
ARIAL-STANDARD
  9
$DIMAUNIT
 70
     0
  9
$DIMADEC
 70
     0
  9
$DIMALTRND
 40
0.0
  9
$DIMAZIN
 70
     0
  9
$DIMDSEP
 70
    46
  9
$DIMATFIT
 70
     3
  9
$DIMFRAC
 70
     0
  9
$DIMLDRBLK
  1

  9
$DIMLUNIT
 70
     2
  9
$DIMLWD
 70
    -2
  9
$DIMLWE
 70
    -2
  9
$DIMTMOVE
 70
     0
  9
$DIMFXL
 40
1.0
  9
$DIMFXLON
 70
     0
  9
$DIMJOGANG
 40
0.7853981633974483
  9
$DIMTFILL
 70
     0
  9
$DIMTFILLCLR
 70
     0
  9
$DIMARCSYM
 70
     0
  9
$DIMLTYPE
  6

  9
$DIMLTEX1
  6

  9
$DIMLTEX2
  6

  9
$DIMTXTDIRECTION
 70
     0
  9
$LUNITS
 70
     2
  9
$LUPREC
 70
     2
  9
$SKETCHINC
 40
0.1
  9
$FILLETRAD
 40
0.3
  9
$AUNITS
 70
     0
  9
$AUPREC
 70
     0
  9
$MENU
  1
.
  9
$ELEVATION
 40
0.0
  9
$PELEVATION
 40
0.0
  9
$THICKNESS
 40
0.0
  9
$LIMCHECK
 70
     0
  9
$CHAMFERA
 40
0.5
  9
$CHAMFERB
 40
0.5
  9
$CHAMFERC
 40
1.0
  9
$CHAMFERD
 40
0.0
  9
$SKPOLY
 70
     0
  9
$TDCREATE
 40
2451305.426412037
  9
$TDUCREATE
 40
2451305.343078704
  9
$TDUPDATE
 40
2457906.599973576
  9
$TDUUPDATE
 40
2457906.516640243
  9
$TDINDWG
 40
9.2489604282
  9
$TDUSRTIMER
 40
9.2489603241
  9
$USRTIMER
 70
     1
  9
$ANGBASE
 50
0.0
  9
$ANGDIR
 70
     0
  9
$PDMODE
 70
     0
  9
$PDSIZE
 40
0.0
  9
$PLINEWID
 40
0.0
  9
$SPLFRAME
 70
     0
  9
$SPLINETYPE
 70
     6
  9
$SPLINESEGS
 70
     8
  9
$HANDSEED
  5
4C2
  9
$SURFTAB1
 70
     6
  9
$SURFTAB2
 70
     6
  9
$SURFTYPE
 70
     6
  9
$SURFU
 70
     6
  9
$SURFV
 70
     6
  9
$UCSBASE
  2

  9
$UCSNAME
  2

  9
$UCSORG
 10
0.0
 20
0.0
 30
0.0
  9
$UCSXDIR
 10
1.0
 20
0.0
 30
0.0
  9
$UCSYDIR
 10
0.0
 20
1.0
 30
0.0
  9
$UCSORTHOREF
  2

  9
$UCSORTHOVIEW
 70
     0
  9
$UCSORGTOP
 10
0.0
 20
0.0
 30
0.0
  9
$UCSORGBOTTOM
 10
0.0
 20
0.0
 30
0.0
  9
$UCSORGLEFT
 10
0.0
 20
0.0
 30
0.0
  9
$UCSORGRIGHT
 10
0.0
 20
0.0
 30
0.0
  9
$UCSORGFRONT
 10
0.0
 20
0.0
 30
0.0
  9
$UCSORGBACK
 10
0.0
 20
0.0
 30
0.0
  9
$PUCSBASE
  2

  9
$PUCSNAME
  2

  9
$PUCSORG
 10
0.0
 20
0.0
 30
0.0
  9
$PUCSXDIR
 10
1.0
 20
0.0
 30
0.0
  9
$PUCSYDIR
 10
0.0
 20
1.0
 30
0.0
  9
$PUCSORTHOREF
  2

  9
$PUCSORTHOVIEW
 70
     0
  9
$PUCSORGTOP
 10
0.0
 20
0.0
 30
0.0
  9
$PUCSORGBOTTOM
 10
0.0
 20
0.0
 30
0.0
  9
$PUCSORGLEFT
 10
0.0
 20
0.0
 30
0.0
  9
$PUCSORGRIGHT
 10
0.0
 20
0.0
 30
0.0
  9
$PUCSORGFRONT
 10
0.0
 20
0.0
 30
0.0
  9
$PUCSORGBACK
 10
0.0
 20
0.0
 30
0.0
  9
$USERI1
 70
     0
  9
$USERI2
 70
     0
  9
$USERI3
 70
     0
  9
$USERI4
 70
     0
  9
$USERI5
 70
     0
  9
$USERR1
 40
0.0
  9
$USERR2
 40
0.0
  9
$USERR3
 40
0.0
  9
$USERR4
 40
0.0
  9
$USERR5
 40
0.0
  9
$WORLDVIEW
 70
     1
  9
$SHADEDGE
 70
     3
  9
$SHADEDIF
 70
    70
  9
$TILEMODE
 70
     1
  9
$MAXACTVP
 70
    48
  9
$PINSBASE
 10
0.0
 20
0.0
 30
0.0
  9
$PLIMCHECK
 70
     0
  9
$PEXTMIN
 10
1.000000000000000E+20
 20
1.000000000000000E+20
 30
1.000000000000000E+20
  9
$PEXTMAX
 10
-1.000000000000000E+20
 20
-1.000000000000000E+20
 30
-1.000000000000000E+20
  9
$PLIMMIN
 10
0.0
 20
0.0
  9
$PLIMMAX
 10
12.0
 20
9.0
  9
$UNITMODE
 70
     0
  9
$VISRETAIN
 70
     1
  9
$PLINEGEN
 70
     0
  9
$PSLTSCALE
 70
     1
  9
$TREEDEPTH
 70
  3020
  9
$CMLSTYLE
  2
STANDARD
  9
$CMLJUST
 70
     0
  9
$CMLSCALE
 40
1.0
  9
$PROXYGRAPHICS
 70
     1
  9
$MEASUREMENT
 70
     1
  9
$CELWEIGHT
370
    -1
  9
$ENDCAPS
280
     0
  9
$JOINSTYLE
280
     0
  9
$LWDISPLAY
290
     0
  9
$INSUNITS
 70
     4
  9
$HYPERLINKBASE
  1

  9
$STYLESHEET
  1

  9
$XEDIT
290
     1
  9
$CEPSNTYPE
380
     0
  9
$PSTYLEMODE
290
     1
  9
$FINGERPRINTGUID
  2
{60CE4608-F67E-4DBD-A7AD-A1163B2C8305}
  9
$VERSIONGUID
  2
{9EFDC5A0-62FA-4DBE-8FE9-AA241F6CD652}
  9
$EXTNAMES
290
     1
  9
$PSVPSCALE
 40
0.0
  9
$OLESTARTUP
290
     0
  9
$SORTENTS
280
   127
  9
$INDEXCTL
280
     0
  9
$HIDETEXT
280
     1
  9
$XCLIPFRAME
280
     0
  9
$HALOGAP
280
     0
  9
$OBSCOLOR
 70
   257
  9
$OBSLTYPE
280
     0
  9
$INTERSECTIONDISPLAY
280
     0
  9
$INTERSECTIONCOLOR
 70
   257
  9
$DIMASSOC
280
     1
  9
$PROJECTNAME
  1

  9
$CAMERADISPLAY
290
     0
  9
$LENSLENGTH
 40
50.0
  9
$CAMERAHEIGHT
 40
0.0
  9
$STEPSPERSEC
 40
2.0
  9
$STEPSIZE
 40
6.0
  9
$3DDWFPREC
 40
2.0
  9
$PSOLWIDTH
 40
0.25
  9
$PSOLHEIGHT
 40
4.0
  9
$LOFTANG1
 40
1.570796326794896
  9
$LOFTANG2
 40
1.570796326794896
  9
$LOFTMAG1
 40
0.0
  9
$LOFTMAG2
 40
0.0
  9
$LOFTPARAM
 70
     7
  9
$LOFTNORMALS
280
     1
  9
$LATITUDE
 40
37.795
  9
$LONGITUDE
 40
-122.394
  9
$NORTHDIRECTION
 40
0.0
  9
$TIMEZONE
 70
 -8000
  9
$LIGHTGLYPHDISPLAY
280
     1
  9
$TILEMODELIGHTSYNCH
280
     1
  9
$CMATERIAL
347
4F
  9
$SOLIDHIST
280
     1
  9
$SHOWHIST
280
     1
  9
$DWFFRAME
280
     2
  9
$DGNFRAME
280
     0
  9
$REALWORLDSCALE
290
     1
  9
$INTERFERECOLOR
 62
     1
  9
$INTERFEREOBJVS
345
69
  9
$INTERFEREVPVS
346
6A
  9
$CSHADOW
280
     0
  9
$SHADOWPLANELOCATION
 40
0.0
  0
ENDSEC
  0
SECTION
  2
CLASSES
  0
CLASS
  1
ACDBDICTIONARYWDFLT
  2
AcDbDictionaryWithDefault
  3
ObjectDBX Classes
 90
        0
 91
        1
280
     0
281
     0
  0
CLASS
  1
TABLESTYLE
  2
AcDbTableStyle
  3
ObjectDBX Classes
 90
     4095
 91
        1
280
     0
281
     0
  0
CLASS
  1
ACME_DOCUMENT
  2
AcMeDbDoc
  3
AcMeServices
 90
     1024
 91
        1
280
     0
281
     0
  0
CLASS
  1
AMGSETTINGSOBJ
  2
AmgSettingsObj
  3
"AcadM|Product Description: AutoCAD Mechanical|Company: Autodesk, Inc."
 90
     1024
 91
        2
280
     0
281
     0
  0
CLASS
  1
ACMESCOPE
  2
AcMeScope
  3
AcMeServices
 90
     1024
 91
        1
280
     0
281
     0
  0
CLASS
  1
ACMECOMMANDHISTORY
  2
AcMeCommandHistory
  3
AcMeServices
 90
     1024
 91
        1
280
     0
281
     0
  0
CLASS
  1
ACIMSYSVARMAN
  2
AcImSysVarManager
  3
AcMeServices
 90
     1024
 91
        3
280
     0
281
     0
  0
CLASS
  1
ACIMINTSYSVAR
  2
AcImIntSysVar
  3
AcMeServices
 90
     1024
 91
        2
280
     0
281
     0
  0
CLASS
  1
ACMEDRAWINGMAN
  2
AcMeDrawingMan
  3
AcMeServices
 90
     1024
 91
        0
280
     0
281
     0
  0
CLASS
  1
ACMEVIEW
  2
AcMeView
  3
AcMeServices
 90
     1024
 91
        0
280
     0
281
     0
  0
CLASS
  1
ACDBENTITYCACHE
  2
AcMeEntityCache
  3
AcMeServices
 90
     1024
 91
        1
280
     0
281
     0
  0
CLASS
  1
GSMANAGER
  2
AcMeGSManager
  3
AcMeServices
 90
     1024
 91
        0
280
     1
281
     0
  0
CLASS
  1
AMDTINTERNALREACTOR
  2
AmdtInternalReactor
  3
AcMeServices
 90
     1024
 91
        0
280
     0
281
     0
  0
CLASS
  1
ACMESTATEMGR
  2
AcMeStateMgr
  3
AcMeServices
 90
     1024
 91
        1
280
     0
281
     0
  0
CLASS
  1
ACGREFMASTER
  2
AcGrefMaster
  3
AcAttribServices
 90
     1024
 91
        1
280
     0
281
     0
  0
CLASS
  1
AM_DRAWING_MGR
  2
AcDmDwgMgr
  3
AcMechDwgViewMgmt
 90
     1024
 91
        0
280
     0
281
     0
  0
CLASS
  1
AM_DWG_DOCUMENT
  2
AcDmDwgDocument
  3
AcMechDwgViewMgmt
 90
     1024
 91
        0
280
     0
281
     0
  0
CLASS
  1
AM_DWG_SHEET
  2
AcDmSheet
  3
AcMechDwgViewMgmt
 90
     1024
 91
        0
280
     0
281
     0
  0
CLASS
  1
AM_VIEWDIMPARMAP
  2
AcDmViewDimParMap
  3
AcMechDwgViewMgmt
 90
     1024
 91
        0
280
     0
281
     0
  0
CLASS
  1
ACIMREALSYSVAR
  2
AcImRealSysVar
  3
AcMeServices
 90
     1024
 91
        0
280
     0
281
     0
  0
CLASS
  1
AM_DWGMGR_NAME
  2
AcDmDwgMgrName
  3
AcMechDwgViewMgmt
 90
     1024
 91
        0
280
     0
281
     0
  0
CLASS
  1
ACME_DATABASE
  2
AcMeDbDatabase
  3
AcMeServices
 90
     1024
 91
        1
280
     0
281
     0
  0
CLASS
  1
ACRFINSADJUSTERMGR
  2
AcRfInsAdjusterMgr
  3
AcMeServices
 90
     1024
 91
        1
280
     0
281
     0
  0
CLASS
  1
ACGREFACADMASTER
  2
AcGrefacadMaster
  3
AcGrefServices
 90
     1024
 91
        1
280
     0
281
     0
  0
CLASS
  1
AMDTMENUSTATEMGR
  2
AmdtMenuStateMgr
  3
McadcomServices
 90
     1024
 91
        1
280
     0
281
     0
  0
CLASS
  1
AMDTMCOMMENUSTATE
  2
AmdtMcomMenuState
  3
McadcomServices
 90
     1024
 91
        1
280
     0
281
     0
  0
CLASS
  1
AMIMASTER
  2
AmiMaster
  3
AmiServices
 90
     1024
 91
        1
280
     0
281
     0
  0
CLASS
  1
MAPIAMMOUDLE
  2
MApiAmModule
  3
MApiAmServices
 90
     1024
 91
        1
280
     0
281
     0
  0
CLASS
  1
ACIMSTRSYSVAR
  2
AcImStrSysVar
  3
AcMeServices
 90
     1024
 91
        5
280
     0
281
     0
  0
CLASS
  1
AMDTADMENUSTATE
  2
AmdtAdMenuState
  3
DesignerServices
 90
     1024
 91
        0
280
     1
281
     0
  0
CLASS
  1
ADAPPL
  2
AcAdAppl
  3
DesignerAssemblies
 90
     1024
 91
        0
280
     0
281
     0
  0
CLASS
  1
DEPMGR
  2
AcAdDepMgr
  3
DesignerAssemblies
 90
     1024
 91
        0
280
     0
281
     0
  0
CLASS
  1
PARAMMGR
  2
AcAdParamMgr
  3
DesignerAssemblies
 90
     1024
 91
        0
280
     0
281
     0
  0
CLASS
  1
PARAMSCOPE
  2
AcAdParamScope
  3
DesignerAssemblies
 90
     1024
 91
        0
280
     0
281
     0
  0
CLASS
  1
NAMEDAPPL
  2
AcAdNamedAppl
  3
DesignerAssemblies
 90
     1024
 91
        0
280
     0
281
     0
  0
CLASS
  1
AMDTDMMENUSTATE
  2
AmdtDmMenuState
  3
AcMechDwgViewMgmt
 90
     1024
 91
        0
280
     1
281
     0
  0
CLASS
  1
AMDTAMMENUSTATE
  2
AmdtAmMenuState
  3
DesignerAssemblies
 90
     1024
 91
        1
280
     0
281
     0
  0
CLASS
  1
ACAMPROJECT
  2
AcAmProject
  3
DesignerAssemblies
 90
     1024
 91
        1
280
     0
281
     0
  0
CLASS
  1
ACAMGRCOMPDEF
  2
AcAmGrCompDef
  3
DesignerAssemblies
 90
     1024
 91
        1
280
     0
281
     0
  0
CLASS
  1
ACCMCONTEXT
  2
AcCmContext
  3
DesignerAssemblies
 90
     1024
 91
        0
280
     0
281
     0
  0
CLASS
  1
ACAMCOMPDEF
  2
AcAmCompDef
  3
DesignerAssemblies
 90
     1024
 91
        1
280
     0
281
     0
  0
CLASS
  1
ACAMCOMPDEFMGR
  2
AcAmCompDefMgr
  3
DesignerAssemblies
 90
     1024
 91
        1
280
     0
281
     0
  0
CLASS
  1
AMCONTEXTMGR
  2
AcAmContextMgr
  3
DesignerAssemblies
 90
     1024
 91
        1
280
     0
281
     0
  0
CLASS
  1
ACAMCONTEXTMODELER
  2
AcAmContextModeler
  3
DesignerAssemblies
 90
     1024
 91
        1
280
     0
281
     0
  0
CLASS
  1
ACMDATADICTIONARY
  2
AcmDataDictionary
  3
"AcmSymBB|Product Description: AutoCAD Mechanical|Company: Autodesk, Inc."
 90
     1024
 91
        1
280
     0
281
     0
  0
CLASS
  1
CATALOGSTATE
  2
AcAmCatalogState
  3
DesignerAssemblies
 90
     1024
 91
        0
280
     0
281
     0
  0
CLASS
  1
ACAMGRCOMPDEFSET
  2
AcAmGrCompDefSet
  3
DesignerAssemblies
 90
     1024
 91
        1
280
     0
281
     0
  0
CLASS
  1
AMDTBROWSERDBTAB
  2
AmdtBrowserDbTab
  3
McadcomServices
 90
     1024
 91
        1
280
     0
281
     0
  0
CLASS
  1
CBROWSERAPPOBJECT
  2
CBrowserAppObject
  3
McadcomServices
 90
     1024
 91
        2
280
     0
281
     0
  0
CLASS
  1
DM_PLACEHOLDER
  2
AcDmSelsetPlaceholder
  3
McadcomServices
 90
     1024
 91
        1
280
     0
281
     0
  0
CLASS
  1
ACMSTANDARDANSI
  2
AcmStandardANSI
  3
"Amdt_StdImp|Product Description: AutoCAD Mechanical|Company: Autodesk, Inc."
 90
     1024
 91
        0
280
     0
281
     0
  0
CLASS
  1
AMGOBJPROPCFG
  2
AmgObjPropCfg
  3
"AmgLay|Product Description: AutoCAD Mechanical|Company: Autodesk, Inc."
 90
     1024
 91
        1
280
     0
281
     0
  0
CLASS
  1
ACMSURFSTANDARDANSI
  2
AcmSurfTextStdANSI
  3
"Amdt_StdImp|Product Description: AutoCAD Mechanical|Company: Autodesk, Inc."
 90
     1024
 91
        0
280
     0
281
     0
  0
CLASS
  1
ACMFCFSTANDARDANSI
  2
AcmFCFStdANSI
  3
"Amdt_StdImp|Product Description: AutoCAD Mechanical|Company: Autodesk, Inc."
 90
     1024
 91
        0
280
     0
281
     0
  0
CLASS
  1
ACMWELDSTANDARDANSI
  2
AcmWeldingStdANSI
  3
"Amdt_StdImp|Product Description: AutoCAD Mechanical|Company: Autodesk, Inc."
 90
     1024
 91
        0
280
     0
281
     0
  0
CLASS
  1
ACMIDSTANDARDANSI
  2
AcmIdStdANSI
  3
"Amdt_StdImp|Product Description: AutoCAD Mechanical|Company: Autodesk, Inc."
 90
     1024
 91
        0
280
     0
281
     0
  0
CLASS
  1
ACMDATUMSTANDARDANSI
  2
AcmDatumStdANSI
  3
"Amdt_StdImp|Product Description: AutoCAD Mechanical|Company: Autodesk, Inc."
 90
     1024
 91
        0
280
     0
281
     0
  0
CLASS
  1
ACMBOMSTANDARDANSI
  2
AcmBOMStdANSI
  3
"Amdt_StdImp|Product Description: AutoCAD Mechanical|Company: Autodesk, Inc."
 90
     1024
 91
        0
280
     0
281
     0
  0
CLASS
  1
ACMDETAILSTANDARDANSI
  2
AmdtDetailSymStdANSI
  3
"Amdt_StdImp|Product Description: AutoCAD Mechanical|Company: Autodesk, Inc."
 90
     1024
 91
        0
280
     0
281
     0
  0
CLASS
  1
ACMSECTIONSTANDARDANSI
  2
AmdtSectionSymStdANSI
  3
"Amdt_StdImp|Product Description: AutoCAD Mechanical|Company: Autodesk, Inc."
 90
     1024
 91
        0
280
     0
281
     0
  0
CLASS
  1
ACMCENTERLINESTANDARDANSI
  2
AmdtCenterLineStdANSI
  3
"Amdt_StdImp|Product Description: AutoCAD Mechanical|Company: Autodesk, Inc."
 90
     1024
 91
        0
280
     0
281
     0
  0
CLASS
  1
ACMTHREADLINESTANDARDANSI
  2
AmdtThreadLineStdANSI
  3
"Amdt_StdImp|Product Description: AutoCAD Mechanical|Company: Autodesk, Inc."
 90
     1024
 91
        0
280
     0
281
     0
  0
CLASS
  1
ACMNOTESTANDARDANSI
  2
AmdtNoteStdANSI
  3
"Amdt_StdImp|Product Description: AutoCAD Mechanical|Company: Autodesk, Inc."
 90
     1024
 91
        0
280
     0
281
     0
  0
CLASS
  1
AMDTNOTETEMPLATEDB
  2
AmdtNoteTemplateDB
  3
AcmSymBB|Product Description: AutoCAD Mechanical|Company: Autodesk, Inc.
 90
     1024
 91
        7
280
     0
281
     0
  0
CLASS
  1
ACAMGLAYSTD
  2
AcAmgLayStd
  3
"AmgLay|Product Description: AutoCAD Mechanical|Company: Autodesk, Inc."
 90
     1024
 91
        1
280
     0
281
     0
  0
CLASS
  1
ACAMGDIMSTD
  2
AcAmgDimStd
  3
"AmgDim|Product Description: AutoCAD Mechanical|Company: Autodesk, Inc."
 90
     1024
 91
        1
280
     0
281
     0
  0
CLASS
  1
ACAMGHOLECHARTSTDANSI
  2
AcAmgHoleChartStdANSI
  3
AmgDim|Product Description: AutoCAD Mechanical|Company: Autodesk, Inc.
 90
     1024
 91
        0
280
     0
281
     0
  0
CLASS
  1
ACAMGTITLESTD
  2
AcAmgTitleStd
  3
"AmgTitle|Product Description: AutoCAD Mechanical|Company: Autodesk, Inc."
 90
     1024
 91
        1
280
     0
281
     0
  0
CLASS
  1
ACAMGFILTERDAT
  2
AcAmgFilterDat
  3
"AcadM|Product Description: AutoCAD Mechanical|Company: Autodesk, Inc."
 90
     1024
 91
        0
280
     0
281
     0
  0
CLASS
  1
PLOTSETTINGS
  2
AcDbPlotSettings
  3
ObjectDBX Classes
 90
        0
 91
        0
280
     0
281
     0
  0
CLASS
  1
ACMSTANDARDDIN
  2
AcmStandardDIN
  3
"Amdt_StdImp|Product Description: AutoCAD Mechanical|Company: Autodesk, Inc."
 90
     1024
 91
        1
280
     0
281
     0
  0
CLASS
  1
AMDTEDGESTANDARDDIN
  2
AmdtEdgeStdDIN
  3
"Amdt_StdImp|Product Description: AutoCAD Mechanical|Company: Autodesk, Inc."
 90
     1024
 91
        0
280
     0
281
     0
  0
CLASS
  1
ACMSURFSTANDARDDIN
  2
AcmSurfTextStdDIN
  3
"Amdt_StdImp|Product Description: AutoCAD Mechanical|Company: Autodesk, Inc."
 90
     1024
 91
        0
280
     0
281
     0
  0
CLASS
  1
ACMFCFSTANDARDDIN
  2
AcmFCFStdDIN
  3
"Amdt_StdImp|Product Description: AutoCAD Mechanical|Company: Autodesk, Inc."
 90
     1024
 91
        0
280
     0
281
     0
  0
CLASS
  1
ACMWELDSTANDARDDIN
  2
AcmWeldingStdDIN
  3
"Amdt_StdImp|Product Description: AutoCAD Mechanical|Company: Autodesk, Inc."
 90
     1024
 91
        1
280
     0
281
     0
  0
CLASS
  1
ACMIDSTANDARDDIN
  2
AcmIdStdDIN
  3
"Amdt_StdImp|Product Description: AutoCAD Mechanical|Company: Autodesk, Inc."
 90
     1024
 91
        0
280
     0
281
     0
  0
CLASS
  1
ACMDATUMSTANDARDDIN
  2
AcmDatumStdDIN
  3
"Amdt_StdImp|Product Description: AutoCAD Mechanical|Company: Autodesk, Inc."
 90
     1024
 91
        1
280
     0
281
     0
  0
CLASS
  1
ACMBOMSTANDARDDIN
  2
AcmBOMStdDIN
  3
"Amdt_StdImp|Product Description: AutoCAD Mechanical|Company: Autodesk, Inc."
 90
     1024
 91
        1
280
     0
281
     0
  0
CLASS
  1
ACMDETAILSTANDARDDIN
  2
AmdtDetailSymStdDIN
  3
"Amdt_StdImp|Product Description: AutoCAD Mechanical|Company: Autodesk, Inc."
 90
     1024
 91
        1
280
     0
281
     0
  0
CLASS
  1
ACMSECTIONSTANDARDDIN
  2
AmdtSectionSymStdDIN
  3
"Amdt_StdImp|Product Description: AutoCAD Mechanical|Company: Autodesk, Inc."
 90
     1024
 91
        1
280
     0
281
     0
  0
CLASS
  1
ACMCENTERLINESTANDARDDIN
  2
AmdtCenterLineStdDIN
  3
"Amdt_StdImp|Product Description: AutoCAD Mechanical|Company: Autodesk, Inc."
 90
     1024
 91
        1
280
     0
281
     0
  0
CLASS
  1
ACMNOTESTANDARDDIN
  2
AmdtNoteStdDIN
  3
"Amdt_StdImp|Product Description: AutoCAD Mechanical|Company: Autodesk, Inc."
 90
     1024
 91
        1
280
     0
281
     0
  0
CLASS
  1
ACAMGHOLECHARTSTDDIN
  2
AcAmgHoleChartStdDIN
  3
AmgDim|Product Description: AutoCAD Mechanical|Company: Autodesk, Inc.
 90
     1024
 91
        1
280
     0
281
     0
  0
CLASS
  1
ACMTHREADLINESTANDARDDIN
  2
AmdtThreadLineStdDIN
  3
"Amdt_StdImp|Product Description: AutoCAD Mechanical|Company: Autodesk, Inc."
 90
     1024
 91
        1
280
     0
281
     0
  0
CLASS
  1
ACMDATAENTRYBLOCK
  2
AcmDataEntryBlock
  3
AcmSymBB|Product Description: AutoCAD Mechanical|Company: Autodesk, Inc.
 90
     1024
 91
        0
280
     0
281
     0
  0
CLASS
  1
DICTIONARYVAR
  2
AcDbDictionaryVar
  3
ObjectDBX Classes
 90
        0
 91
        9
280
     0
281
     0
  0
CLASS
  1
SORTENTSTABLE
  2
AcDbSortentsTable
  3
ObjectDBX Classes
 90
        0
 91
        1
280
     0
281
     0
  0
CLASS
  1
MATERIAL
  2
AcDbMaterial
  3
ObjectDBX Classes
 90
     1153
 91
        3
280
     0
281
     0
  0
CLASS
  1
VISUALSTYLE
  2
AcDbVisualStyle
  3
ObjectDBX Classes
 90
     4095
 91
       24
280
     0
281
     0
  0
CLASS
  1
SCALE
  2
AcDbScale
  3
ObjectDBX Classes
 90
     1153
 91
       17
280
     0
281
     0
  0
CLASS
  1
MLEADERSTYLE
  2
AcDbMLeaderStyle
  3
ACDB_MLEADERSTYLE_CLASS
 90
     4095
 91
        1
280
     0
281
     0
  0
CLASS
  1
ACMTAPERSTANDARDANSI
  2
AcmTaperStdANSI
  3
"Amdt_StdImp|Product Description: AutoCAD Mechanical|Company: Autodesk, Inc."
 90
     1024
 91
        0
280
     0
281
     0
  0
CLASS
  1
ACMANOOTATIONVIEWSTANDARDANSI
  2
AmdtAnViewStdANSI
  3
"Amdt_StdImp|Product Description: AutoCAD Mechanical|Company: Autodesk, Inc."
 90
     1024
 91
        0
280
     0
281
     0
  0
CLASS
  1
ACMTAPERSTANDARDDIN
  2
AcmTaperStdDIN
  3
"Amdt_StdImp|Product Description: AutoCAD Mechanical|Company: Autodesk, Inc."
 90
     1024
 91
        1
280
     0
281
     0
  0
CLASS
  1
ACMANOOTATIONVIEWSTANDARDDIN
  2
AmdtAnViewStdDIN
  3
"Amdt_StdImp|Product Description: AutoCAD Mechanical|Company: Autodesk, Inc."
 90
     1024
 91
        1
280
     0
281
     0
  0
CLASS
  1
ACRFATTGENMGR
  2
AcRfAttGeneralMgr
  3
AcAttribServices
 90
     1024
 91
        0
280
     0
281
     0
  0
CLASS
  1
ACRFMCADAPIATTHOLDER
  2
AcRfMCADAPIAttHolder
  3
AcAttribServices
 90
     1024
 91
        0
280
     0
281
     0
  0
CLASS
  1
AMDTSYSATTR
  2
AmdtSystemAttribute
  3
AcAttribServices
 90
     1024
 91
        0
280
     0
281
     0
  0
CLASS
  1
CAMSSTRUCTBTNSTATE
  2
StructBtnState
  3
DesignerAssemblies
 90
     1024
 91
        1
280
     0
281
     0
  0
CLASS
  1
CELLSTYLEMAP
  2
AcDbCellStyleMap
  3
ObjectDBX Classes
 90
     1152
 91
        2
280
     0
281
     0
  0
CLASS
  1
AEC_REFEDIT_STATUS_TRACKER
  2
AecDbRefEditStatusTracker
  3
AecArchBase70|Product Desc: Autodesk Architectural Desktop 2007 |Company: Autodesk,Inc. |WEB Address: www.autodesk.com
 90
      129
 91
        0
280
     1
281
     0
  0
CLASS
  1
NPOCOLLECTION
  2
AcDbImpNonPersistentObjectsCollection
  3
ObjectDBX Classes
 90
     1153
 91
        0
280
     0
281
     0
  0
CLASS
  1
ACDBLINERES
  2
AcDbLineRes
  3
AcGrefServices
 90
     1024
 91
        0
280
     0
281
     0
  0
CLASS
  1
AMDTNOTE
  2
AmdtNote
  3
"AcmSymBB|Product Description: AutoCAD Mechanical|Company: Autodesk, Inc."
 90
     1024
 91
        0
280
     0
281
     1
  0
CLASS
  1
AMDTFORMULAUPDATEDISPATCHER
  2
AmdtFormulaUpdateDispatcher
  3
AcMeServices
 90
     1024
 91
        0
280
     0
281
     0
  0
CLASS
  1
AMDTEDGESTANDARDDIN13715
  2
AmdtEdgeStdDIN13715
  3
"Amdt_StdImp|Product Description: AutoCAD Mechanical|Company: Autodesk, Inc."
 90
     1024
 91
        1
280
     0
281
     0
  0
CLASS
  1
ACMSURFSTANDARDDIN2002
  2
AcmSurfTextStdDIN2002
  3
"Amdt_StdImp|Product Description: AutoCAD Mechanical|Company: Autodesk, Inc."
 90
     1024
 91
        1
280
     0
281
     0
  0
CLASS
  1
ACMDIMBREAKPERSREACTOR
  2
AcmDimBreakPersReactor
  3
AmgDim|Product Description: AutoCAD Mechanical|Company: Autodesk, Inc.
 90
     1024
 91
        0
280
     0
281
     0
  0
CLASS
  1
ACDBASSOCNETWORK
  2
AcDbAssocNetwork
  3
ObjectDBX Classes
 90
     1025
 91
        2
280
     0
281
     0
  0
CLASS
  1
ACDBASSOC2DCONSTRAINTGROUP
  2
AcDbAssoc2dConstraintGroup
  3
ObjectDBX Classes
 90
     1025
 91
        1
280
     0
281
     0
  0
CLASS
  1
ACDBASSOCGEOMDEPENDENCY
  2
AcDbAssocGeomDependency
  3
ObjectDBX Classes
 90
     1025
 91
        2
280
     0
281
     0
  0
CLASS
  1
ACMFCFSTANDARDDIN2008
  2
AcmFCFStdDIN2008
  3
"Amdt_StdImp|Product Description: AutoCAD Mechanical|Company: Autodesk, Inc."
 90
     1024
 91
        1
280
     0
281
     0
  0
CLASS
  1
ACMIDSTANDARDDIN2008
  2
AcmIdStdDIN2008
  3
"Amdt_StdImp|Product Description: AutoCAD Mechanical|Company: Autodesk, Inc."
 90
     1024
 91
        1
280
     0
281
     0
  0
CLASS
  1
ACDB_DYNAMICBLOCKPURGEPREVENTER_VERSION
  2
AcDbDynamicBlockPurgePreventer
  3
ObjectDBX Classes
 90
     1153
 91
        0
280
     0
281
     0
  0
CLASS
  1
ACDBSECTIONVIEWSTYLE
  2
AcDbSectionViewStyle
  3
ObjectDBX Classes
 90
     1025
 91
        3
280
     0
281
     0
  0
CLASS
  1
ACDBDETAILVIEWSTYLE
  2
AcDbDetailViewStyle
  3
ObjectDBX Classes
 90
     1025
 91
        3
280
     0
281
     0
  0
CLASS
  1
ACMSECTIONSTANDARDCUSTOM
  2
AmdtSectionSymStdCustom
  3
"Amdt_StdImp|Product Description: AutoCAD Mechanical|Company: Autodesk, Inc."
 90
     1024
 91
        2
280
     0
281
     0
  0
CLASS
  1
ACMDETAILTANDARDCUSTOM
  2
AmdtDetailSymStdCustom
  3
"Amdt_StdImp|Product Description: AutoCAD Mechanical|Company: Autodesk, Inc."
 90
     1024
 91
        2
280
     0
281
     0
  0
CLASS
  1
FIELD
  2
AcDbField
  3
ObjectDBX Classes
 90
     1152
 91
        6
280
     0
281
     0
  0
CLASS
  1
FIELDLIST
  2
AcDbFieldList
  3
ObjectDBX Classes
 90
     1152
 91
        1
280
     0
281
     0
  0
ENDSEC
  0
SECTION
  2
TABLES
  0
TABLE
  2
VPORT
  5
2F
330
0
100
AcDbSymbolTable
 70
     1
  0
VPORT
  5
30
330
2F
100
AcDbSymbolTableRecord
100
AcDbViewportTableRecord
  2
*Active
 70
     0
 10
0.0
 20
0.0
 11
1.0
 21
1.0
 12
311.6004508855576
 22
872.297961348476
 13
0.0
 23
0.0
 14
10.0
 24
10.0
 15
10.0
 25
10.0
 16
0.0
 26
0.0
 36
1.0
 17
0.0
 27
0.0
 37
0.0
 40
1376.577367611509
 41
2.056924384027187
 42
50.0
 43
0.0
 44
0.0
 50
0.0
 51
0.0
 71
     0
 72
  5000
 73
     1
 74
     0
 75
     0
 76
     0
 77
     0
 78
     0
281
     0
 65
     0
110
0.0
120
0.0
130
0.0
111
1.0
121
0.0
131
0.0
112
0.0
122
1.0
132
0.0
 79
     0
146
0.0
348
31
 60
     3
 61
     5
292
     1
282
     1
141
0.0
142
0.0
 63
   250
421
  3355443
1001
ACAD_NAV_VCDISPLAY
1070
     3
  0
ENDTAB
  0
TABLE
  2
LTYPE
  5
2A
330
0
100
AcDbSymbolTable
 70
    22
  0
LTYPE
  5
2B
330
2A
100
AcDbSymbolTableRecord
100
AcDbLinetypeTableRecord
  2
BYBLOCK
 70
     0
  3

 72
    65
 73
     0
 40
0.0
  0
LTYPE
  5
2C
330
2A
100
AcDbSymbolTableRecord
100
AcDbLinetypeTableRecord
  2
BYLAYER
 70
     0
  3

 72
    65
 73
     0
 40
0.0
  0
LTYPE
  5
20
330
2A
100
AcDbSymbolTableRecord
100
AcDbLinetypeTableRecord
  2
CONTINUOUS
 70
     0
  3
Solid line
 72
    65
 73
     0
 40
0.0
  0
LTYPE
  5
86
330
2A
100
AcDbSymbolTableRecord
100
AcDbLinetypeTableRecord
  2
STRICHPUNKT2
 70
     0
  3
Strichpunkt (.5x) _._._._._._._._._._._._._._._
 72
    65
 73
     4
 40
12.7
 49
6.349999999999997
 74
     0
 49
-3.174999999999998
 74
     0
 49
0.0
 74
     0
 49
-3.174999999999998
 74
     0
  0
LTYPE
  5
2D1
330
2A
100
AcDbSymbolTableRecord
100
AcDbLinetypeTableRecord
  2
ACDINWELD
 70
     0
  3
_ _ _ _ _
 72
    65
 73
     2
 40
2.0
 49
2.0
 74
     0
 49
-1.0
 74
     0
  0
LTYPE
  5
2D5
330
2A
100
AcDbSymbolTableRecord
100
AcDbLinetypeTableRecord
  2
ACDINTGB
 70
     0
  3
__ . . __ . .
 72
    65
 73
     6
 40
9.0
 49
4.0
 74
     0
 49
-1.0
 74
     0
 49
1.0
 74
     0
 49
-1.0
 74
     0
 49
1.0
 74
     0
 49
-1.0
 74
     0
  0
LTYPE
  5
2D3
330
2A
100
AcDbSymbolTableRecord
100
AcDbLinetypeTableRecord
  2
ACDINTGL
 70
     0
  3
_ _ _ _ _
 72
    65
 73
     2
 40
3.0
 49
2.0
 74
     0
 49
-1.0
 74
     0
  0
LTYPE
  5
EC
330
2A
100
AcDbSymbolTableRecord
100
AcDbLinetypeTableRecord
  2
DASHED
 70
     0
  3
Dashed __ __ __ __ __ __ __ __ __ __ __ __ __ _
 72
    65
 73
     2
 40
19.05
 49
12.7
 74
     0
 49
-6.349999999999997
 74
     0
  0
LTYPE
  5
2BE
330
2A
100
AcDbSymbolTableRecord
100
AcDbLinetypeTableRecord
  2
Amconstr
 70
     0
  3
_______________________
 72
    65
 73
     2
 40
9999.0
 49
9999.0
 74
     0
 49
0.0
 74
     0
  0
LTYPE
  5
2C1
330
2A
100
AcDbSymbolTableRecord
100
AcDbLinetypeTableRecord
  2
Amzigzag
 70
     0
  3
/\/-/\/-/\/-/\/-/\/-/\/
 72
    65
 73
     2
 40
11.0001
 49
0.0001
 74
     4
 75
   135
340
2C2
 46
0.04
 50
0.0
 44
0.0
 45
0.0
 49
-11.0
 74
     0
  0
LTYPE
  5
2BB
330
2A
100
AcDbSymbolTableRecord
100
AcDbLinetypeTableRecord
  2
AM_DIN_F_W050
 70
     0
  3
__ __ __ __ __ __ __ __ __ __ __ __ __ __ __
 72
    65
 73
     2
 40
6.25
 49
4.75
 74
     0
 49
-1.5
 74
     0
  0
LTYPE
  5
2BC
330
2A
100
AcDbSymbolTableRecord
100
AcDbLinetypeTableRecord
  2
AM_DIN_G_W050
 70
     0
  3
____ . ____ . ____ . ____ . ____ . ____ . ____
 72
    65
 73
     4
 40
13.75
 49
9.75
 74
     0
 49
-1.5
 74
     0
 49
1.0
 74
     0
 49
-1.5
 74
     0
  0
LTYPE
  5
2BD
330
2A
100
AcDbSymbolTableRecord
100
AcDbLinetypeTableRecord
  2
AM_DIN_K_W050
 70
     0
  3
_____ . . _____ . . _____ . . ____ .. ____
 72
    65
 73
     6
 40
16.25
 49
9.75
 74
     0
 49
-1.5
 74
     0
 49
1.0
 74
     0
 49
-1.5
 74
     0
 49
1.0
 74
     0
 49
-1.5
 74
     0
  0
LTYPE
  5
2BF
330
2A
100
AcDbSymbolTableRecord
100
AcDbLinetypeTableRecord
  2
AM_DIN_G_W050x2
 70
     0
  3
__ . __ . __ . __ . __ . __
 72
    65
 73
     4
 40
6.875
 49
4.75
 74
     0
 49
-0.875
 74
     0
 49
0.375
 74
     0
 49
-0.875
 74
     0
  0
LTYPE
  5
2C0
330
2A
100
AcDbSymbolTableRecord
100
AcDbLinetypeTableRecord
  2
AM_DIN_F_W050x2
 70
     0
  3
 _ _ _ _ _ _ _ _ _ _ _ _
 72
    65
 73
     2
 40
3.125
 49
2.25
 74
     0
 49
-0.875
 74
     0
  0
LTYPE
  5
372
330
2A
100
AcDbSymbolTableRecord
100
AcDbLinetypeTableRecord
  2
HIDDEN
 70
     0
  3
Hidden __ __ __ __ __ __ __ __ __ __ __ __ __ __
 72
    65
 73
     2
 40
9.525
 49
6.349999999999998
 74
     0
 49
-3.174999999999998
 74
     0
  0
LTYPE
  5
373
330
2A
100
AcDbSymbolTableRecord
100
AcDbLinetypeTableRecord
  2
PHANTOM2
 70
     0
  3
Phantom (.5x) ___ _ _ ___ _ _ ___ _ _ ___ _ _
 72
    65
 73
     6
 40
31.75
 49
15.875
 74
     0
 49
-3.174999999999998
 74
     0
 49
3.174999999999998
 74
     0
 49
-3.174999999999998
 74
     0
 49
3.174999999999998
 74
     0
 49
-3.174999999999998
 74
     0
  0
LTYPE
  5
374
330
2A
100
AcDbSymbolTableRecord
100
AcDbLinetypeTableRecord
  2
CENTER
 70
     0
  3
Center ____ _ ____ _ ____ _ ____ _ ____ _ ____
 72
    65
 73
     4
 40
50.8
 49
31.75
 74
     0
 49
-6.349999999999998
 74
     0
 49
6.349999999999998
 74
     0
 49
-6.349999999999998
 74
     0
  0
LTYPE
  5
3AA
330
2A
100
AcDbSymbolTableRecord
100
AcDbLinetypeTableRecord
  2
AM_ISO02W050
 70
     0
  3
__ __ __ __ __ __ __ __ __ __ __ __ __ __ __
 72
    65
 73
     2
 40
7.5
 49
6.0
 74
     0
 49
-1.5
 74
     0
  0
LTYPE
  5
3AB
330
2A
100
AcDbSymbolTableRecord
100
AcDbLinetypeTableRecord
  2
AM_ISO08W050
 70
     0
  3
____ . ____ . ____ . ____ . ____ . ____ . ____
 72
    65
 73
     4
 40
18.0
 49
12.0
 74
     0
 49
-1.5
 74
     0
 49
3.0
 74
     0
 49
-1.5
 74
     0
  0
LTYPE
  5
3AC
330
2A
100
AcDbSymbolTableRecord
100
AcDbLinetypeTableRecord
  2
AM_ISO09W050
 70
     0
  3
_____ . . _____ . . _____ . . ____ .. ____
 72
    65
 73
     6
 40
22.5
 49
12.0
 74
     0
 49
-1.5
 74
     0
 49
3.0
 74
     0
 49
-1.5
 74
     0
 49
3.0
 74
     0
 49
-1.5
 74
     0
  0
LTYPE
  5
3AD
330
2A
100
AcDbSymbolTableRecord
100
AcDbLinetypeTableRecord
  2
AM_ISO08W050x2
 70
     0
  3
__ . __ . __ . __ . __ . __
 72
    65
 73
     4
 40
9.0
 49
6.0
 74
     0
 49
-0.75
 74
     0
 49
1.5
 74
     0
 49
-0.75
 74
     0
  0
LTYPE
  5
3AE
330
2A
100
AcDbSymbolTableRecord
100
AcDbLinetypeTableRecord
  2
AM_ISO02W050x2
 70
     0
  3
 _ _ _ _ _ _ _ _ _ _ _ _
 72
    65
 73
     2
 40
3.75
 49
3.0
 74
     0
 49
-0.75
 74
     0
  0
ENDTAB
  0
TABLE
  2
LAYER
  5
11
102
{ACAD_XDICTIONARY
360
21
102
}
330
0
100
AcDbSymbolTable
 70
     9
  0
LAYER
  5
12
102
{ACAD_XDICTIONARY
360
13
102
}
330
11
100
AcDbSymbolTableRecord
100
AcDbLayerTableRecord
  2
0
 70
     0
 62
     7
  6
CONTINUOUS
370
    -3
390
15
347
17
  0
LAYER
  5
7D
102
{ACAD_XDICTIONARY
360
7E
102
}
330
11
100
AcDbSymbolTableRecord
100
AcDbLayerTableRecord
  2
UMRISS05
 70
     0
 62
     4
  6
CONTINUOUS
370
    -3
390
15
347
17
  0
LAYER
  5
8B
102
{ACAD_XDICTIONARY
360
8C
102
}
330
11
100
AcDbSymbolTableRecord
100
AcDbLayerTableRecord
  2
BEMASSUNG
 70
     0
 62
     2
  6
CONTINUOUS
370
    -3
390
15
347
17
  0
LAYER
  5
83
102
{ACAD_XDICTIONARY
360
84
102
}
330
11
100
AcDbSymbolTableRecord
100
AcDbLayerTableRecord
  2
ACHSEN
 70
     0
 62
     1
  6
STRICHPUNKT2
370
    -3
390
15
347
17
  0
LAYER
  5
99
330
11
100
AcDbSymbolTableRecord
100
AcDbLayerTableRecord
  2
DEFPOINTS
 70
     0
 62
     7
  6
CONTINUOUS
290
     0
370
    -3
390
15
347
17
  0
LAYER
  5
EB
330
11
100
AcDbSymbolTableRecord
100
AcDbLayerTableRecord
  2
Verdeckte Kanten(MSL)
 70
     0
 62
    11
  6
DASHED
370
    35
390
15
347
17
  0
LAYER
  5
63
102
{ACAD_XDICTIONARY
360
64
102
}
330
11
100
AcDbSymbolTableRecord
100
AcDbLayerTableRecord
  2
SCHRAFFUR
 70
     0
 62
     8
  6
CONTINUOUS
370
    -3
390
15
347
17
  0
LAYER
  5
AD
330
11
100
AcDbSymbolTableRecord
100
AcDbLayerTableRecord
  2
AM_0
 70
     0
 62
     7
  6
CONTINUOUS
370
    50
390
15
347
17
1001
AcAecLayerStandard
1000

1000

  0
LAYER
  5
47A
330
11
100
AcDbSymbolTableRecord
100
AcDbLayerTableRecord
  2
AM_CL
 70
     0
 62
     1
  6
Amconstr
370
    25
390
15
347
17
1001
AcAecLayerStandard
1000

1000

  0
ENDTAB
  0
TABLE
  2
STYLE
  5
27
330
0
100
AcDbSymbolTable
 70
     7
  0
STYLE
  5
28
330
27
100
AcDbSymbolTableRecord
100
AcDbTextStyleTableRecord
  2
STANDARD
 70
     0
 40
0.0
 41
1.0
 50
0.0
 71
     0
 42
10.0
  3
txt
  4

  0
STYLE
  5
65
330
27
100
AcDbSymbolTableRecord
100
AcDbTextStyleTableRecord
  2
NORM
 70
     0
 40
0.0
 41
0.8
 50
0.0
 71
     0
 42
2.399999999999999
  3
SIMPLEX.shx
  4

  0
STYLE
  5
2CF
330
27
100
AcDbSymbolTableRecord
100
AcDbTextStyleTableRecord
  2
ACDINGDT
 70
     0
 40
0.0
 41
1.0
 50
0.0
 71
     0
 42
2.5
  3
amgdt.shx
  4

  0
STYLE
  5
37
330
27
100
AcDbSymbolTableRecord
100
AcDbTextStyleTableRecord
  2
ARIAL-STANDARD
 70
     0
 40
0.0
 41
1.0
 50
0.0
 71
     0
 42
3.5
  3
arial.ttf
  4

1001
ACAD
1000
Arial
1071
       34
  0
STYLE
  5
2C2
330
27
100
AcDbSymbolTableRecord
100
AcDbTextStyleTableRecord
  2

 70
     1
 40
0.0
 41
1.0
 50
0.0
 71
     0
 42
2.5
  3
ltypeshp.shx
  4

  0
STYLE
  5
3C
330
27
100
AcDbSymbolTableRecord
100
AcDbTextStyleTableRecord
  2
NORMAL-MSL
 70
     0
 40
0.0
 41
1.0
 50
0.0
 71
     0
 42
0.2
  3
arial.ttf
  4

1001
ACAD
1000
Arial
1071
      256
  0
STYLE
  5
3B4
330
27
100
AcDbSymbolTableRecord
100
AcDbTextStyleTableRecord
  2
ACDINTS
 70
     0
 40
0.0
 41
1.0
 50
0.0
 71
     0
 42
2.399999999999999
  3
isocp.shx
  4

  0
ENDTAB
  0
TABLE
  2
VIEW
  5
2D
330
0
100
AcDbSymbolTable
 70
     0
  0
ENDTAB
  0
TABLE
  2
UCS
  5
2E
330
0
100
AcDbSymbolTable
 70
     0
  0
ENDTAB
  0
TABLE
  2
APPID
  5
34
330
0
100
AcDbSymbolTable
 70
    13
  0
APPID
  5
25
330
34
100
AcDbSymbolTableRecord
100
AcDbRegAppTableRecord
  2
ACAD
 70
     0
  0
APPID
  5
306
330
34
100
AcDbSymbolTableRecord
100
AcDbRegAppTableRecord
  2
ACAD_DSTYLE_DIMJOGGED_JOGANGLE_SYMBOL
 70
     0
  0
APPID
  5
39
330
34
100
AcDbSymbolTableRecord
100
AcDbRegAppTableRecord
  2
ACAD_DSTYLE_DIMJAG
 70
     0
  0
APPID
  5
38
330
34
100
AcDbSymbolTableRecord
100
AcDbRegAppTableRecord
  2
ACAD_DSTYLE_DIMBREAK
 70
     0
  0
APPID
  5
3A
330
34
100
AcDbSymbolTableRecord
100
AcDbRegAppTableRecord
  2
ACAD_DSTYLE_DIMTALN
 70
     0
  0
APPID
  5
C
330
34
100
AcDbSymbolTableRecord
100
AcDbRegAppTableRecord
  2
ACAD_PSEXT
 70
     0
  0
APPID
  5
BB
330
34
100
AcDbSymbolTableRecord
100
AcDbRegAppTableRecord
  2
ACAD_DSTYLE_DIMINSPECT
 70
     0
  0
APPID
  5
AE
330
34
100
AcDbSymbolTableRecord
100
AcDbRegAppTableRecord
  2
AcAecLayerStandard
 70
     0
  0
APPID
  5
33
330
34
100
AcDbSymbolTableRecord
100
AcDbRegAppTableRecord
  2
ACAD_NAV_VCDISPLAY
 70
     0
  0
APPID
  5
326
330
34
100
AcDbSymbolTableRecord
100
AcDbRegAppTableRecord
  2
ACATTRIBSERVICES
 70
     0
  0
APPID
  5
36B
330
34
100
AcDbSymbolTableRecord
100
AcDbRegAppTableRecord
  2
MCAD_NO_VIS
 70
     0
  0
APPID
  5
36C
330
34
100
AcDbSymbolTableRecord
100
AcDbRegAppTableRecord
  2
ACAD_TEMP_GRAPHIC
 70
     0
  0
APPID
  5
390
330
34
100
AcDbSymbolTableRecord
100
AcDbRegAppTableRecord
  2
DESIGNERASSEMBLIES
 70
     0
  0
ENDTAB
  0
TABLE
  2
DIMSTYLE
  5
35
330
0
100
AcDbSymbolTable
 70
    12
100
AcDbDimStyleTable
 71
     2
340
36
340
3B
  0
DIMSTYLE
105
305
102
{ACAD_REACTORS
330
43D
102
}
330
35
100
AcDbSymbolTableRecord
100
AcDbDimStyleTableRecord
  2
AM_DIN
 70
     0
  4
"
 41
3.5
 42
1.0
 43
10.0
 44
1.0
 47
0.1
 48
0.1
 50
90.0
 73
     0
 74
     0
 77
     1
 78
     8
 79
     2
140
3.5
141
0.0
143
0.0393701
146
0.71
147
1.5
172
     1
176
   256
177
   256
178
     2
271
     2
272
     3
274
     4
283
     0
284
     8
340
28
345
2B
346
2B
347
2B
371
    -1
372
    -1
1001
ACAD_DSTYLE_DIMJOGGED_JOGANGLE_SYMBOL
1070
   384
1040
1.570796326794896
  0
DIMSTYLE
105
308
330
35
100
AcDbSymbolTableRecord
100
AcDbDimStyleTableRecord
  2
AM_DIN$3
 70
     0
  4
"
 41
3.5
 42
1.0
 43
10.0
 44
1.0
 47
0.1
 48
0.1
 50
90.0
 73
     0
 77
     1
 78
     8
 79
     2
140
3.5
141
0.0
143
0.0393701
146
0.71
147
1.5
176
   256
177
   256
178
     2
271
     2
272
     3
274
     4
283
     0
284
     8
288
     1
289
     0
340
28
345
2B
346
2B
347
2B
371
    -1
372
    -1
1001
ACAD_DSTYLE_DIMJOGGED_JOGANGLE_SYMBOL
1070
   384
1040
1.570796326794896
  0
DIMSTYLE
105
309
330
35
100
AcDbSymbolTableRecord
100
AcDbDimStyleTableRecord
  2
AM_DIN$4
 70
     0
  4
"
 41
3.5
 42
1.0
 43
10.0
 44
1.0
 47
0.1
 48
0.1
 50
90.0
 73
     0
 74
     0
 77
     1
 78
     8
 79
     2
140
3.5
141
0.0
143
0.0393701
146
0.71
147
1.5
172
     1
176
   256
177
   256
178
     2
271
     2
272
     3
274
     4
283
     0
284
     8
340
28
345
2B
346
2B
347
2B
371
    -1
372
    -1
1001
ACAD_DSTYLE_DIMJOGGED_JOGANGLE_SYMBOL
1070
   384
1040
1.570796326794896
  0
DIMSTYLE
105
30A
330
35
100
AcDbSymbolTableRecord
100
AcDbDimStyleTableRecord
  2
AM_DIN$6
 70
     0
  4
"
 41
3.5
 42
1.0
 43
10.0
 44
1.0
 47
0.1
 48
0.1
 50
90.0
 73
     0
 74
     0
 78
     8
 79
     2
140
3.5
141
0.0
143
0.0393701
146
0.71
147
1.5
172
     1
176
   256
177
   256
178
     2
271
     2
272
     3
274
     4
283
     0
284
     8
340
28
345
2B
346
2B
347
2B
371
    -1
372
    -1
1001
ACAD_DSTYLE_DIMJOGGED_JOGANGLE_SYMBOL
1070
   384
1040
1.570796326794896
  0
DIMSTYLE
105
30B
330
35
100
AcDbSymbolTableRecord
100
AcDbDimStyleTableRecord
  2
AM_DIN$7
 70
     0
  4
"
 41
3.5
 42
1.0
 43
10.0
 44
1.0
 47
0.1
 48
0.1
 50
90.0
 73
     0
 74
     0
 77
     1
 78
     8
 79
     2
140
3.5
141
0.0
143
0.0393701
146
0.71
147
1.5
172
     1
176
   256
177
   256
178
     2
271
     2
272
     3
274
     4
283
     0
284
     8
340
28
345
2B
346
2B
347
2B
371
    -1
372
    -1
1001
ACAD_DSTYLE_DIMJOGGED_JOGANGLE_SYMBOL
1070
   384
1040
1.570796326794896
  0
DIMSTYLE
105
30C
330
35
100
AcDbSymbolTableRecord
100
AcDbDimStyleTableRecord
  2
AM_DIN$SF
 70
     0
  4
"
 41
3.5
 42
1.0
 43
10.0
 44
1.0
 47
0.1
 48
0.1
 50
90.0
 73
     0
 74
     0
 75
     1
 76
     1
 77
     1
 78
     8
 79
     2
140
3.5
141
0.0
143
0.0393701
146
0.71
147
1.5
172
     1
176
   256
177
   256
178
     2
271
     2
272
     3
274
     4
283
     0
284
     8
340
28
345
2B
346
2B
347
2B
371
    -1
372
    -1
1001
ACAD_DSTYLE_DIMJOGGED_JOGANGLE_SYMBOL
1070
   384
1040
1.570796326794896
  0
DIMSTYLE
105
30D
330
35
100
AcDbSymbolTableRecord
100
AcDbDimStyleTableRecord
  2
AM_DIN$SH
 70
     0
  4
"
 41
3.5
 42
1.0
 43
10.0
 44
1.0
 47
0.1
 48
0.1
 50
90.0
 73
     0
 74
     0
 75
     1
 76
     1
 77
     1
 78
     8
 79
     2
140
3.5
141
0.0
143
0.0393701
144
2.0
146
0.71
147
1.5
172
     1
173
     1
176
   256
177
   256
178
     2
271
     2
272
     3
274
     4
283
     0
284
     8
340
28
343
30E
345
2B
346
2B
347
2B
371
    -1
372
    -1
1001
ACAD_DSTYLE_DIMJOGGED_JOGANGLE_SYMBOL
1070
   384
1040
1.570796326794896
  0
DIMSTYLE
105
36
102
{ACAD_REACTORS
330
BC
330
AC
330
115
330
183
330
176
330
13D
330
167
330
14D
330
15A
330
130
330
123
330
266
330
259
330
24C
330
9D
330
8A
330
229
330
23D
330
293
330
283
330
F2
102
}
330
35
100
AcDbSymbolTableRecord
100
AcDbDimStyleTableRecord
  2
Katalog 09
 70
     0
 41
12.0
 42
0.0
 43
8.0
 44
1.0
 73
     0
 74
     0
 77
     1
 78
     8
140
9.0
141
1.5
143
25.39999999999999
146
0.4285714285714289
147
2.5
172
     1
174
     1
176
     2
177
     2
178
     3
271
     2
272
     2
284
     8
285
     8
286
     8
340
37
1001
ACAD_DSTYLE_DIMBREAK
1070
   391
1040
3.75
1001
ACAD_DSTYLE_DIMJAG
1070
   388
1040
1.5
1001
ACAD_DSTYLE_DIMTALN
1070
   392
1070
     0
  0
DIMSTYLE
105
3B
330
35
100
AcDbSymbolTableRecord
100
AcDbDimStyleTableRecord
  2
NORMAL-MSL
 70
     0
 41
3.5
 42
0.0
 43
6.099999999999997
 44
1.0
 45
0.00000001
 46
7.0
 73
     0
 74
     0
 77
     1
 78
     8
 79
     2
140
3.5
143
1.0
146
0.5
147
1.0
172
     1
176
     5
177
     5
178
     7
179
     1
271
     2
272
     2
284
     8
286
     8
340
3C
342
3D
371
     0
372
     0
  0
DIMSTYLE
105
307
330
35
100
AcDbSymbolTableRecord
100
AcDbDimStyleTableRecord
  2
AM_DIN$0
 70
     0
  4
"
 41
3.5
 42
1.0
 43
10.0
 44
1.0
 47
0.1
 48
0.1
 50
90.0
 73
     0
 74
     0
 77
     1
 78
     8
 79
     2
140
3.5
141
0.0
143
0.0393701
146
0.71
147
1.5
172
     1
176
   256
177
   256
178
     2
271
     2
272
     3
274
     4
283
     0
284
     8
340
28
345
2B
346
2B
347
2B
371
    -1
372
    -1
  0
DIMSTYLE
105
E9
102
{ACAD_REACTORS
330
DA
102
}
330
35
100
AcDbSymbolTableRecord
100
AcDbDimStyleTableRecord
  2
Katalog 09$0
 70
     0
 41
4.0
 42
0.0
 43
8.0
 44
1.0
 73
     0
 74
     0
 77
     1
 78
     8
140
4.349999999999996
141
1.5
143
25.39999999999999
146
0.4285714285714289
147
1.0
172
     1
174
     1
176
     2
177
     2
178
     3
271
     2
272
     2
284
     8
285
     8
286
     8
340
37
1001
ACAD_DSTYLE_DIMBREAK
1070
   391
1040
3.75
1001
ACAD_DSTYLE_DIMJAG
1070
   388
1040
1.5
  0
ENDTAB
  0
TABLE
  2
BLOCK_RECORD
  5
1
330
0
100
AcDbSymbolTable
 70
    27
  0
BLOCK_RECORD
  5
2
102
{ACAD_XDICTIONARY
360
3
102
}
330
1
100
AcDbSymbolTableRecord
100
AcDbBlockTableRecord
  2
*MODEL_SPACE
340
8
 70
     0
280
     1
281
     0
  0
BLOCK_RECORD
  5
D
330
1
100
AcDbSymbolTableRecord
100
AcDbBlockTableRecord
  2
*PAPER_SPACE
340
10
 70
     0
280
     1
281
     0
  0
BLOCK_RECORD
  5
30E
330
1
100
AcDbSymbolTableRecord
100
AcDbBlockTableRecord
  2
GENAXEH
340
0
 70
     0
280
     1
281
     0
  0
BLOCK_RECORD
  5
3D
330
1
100
AcDbSymbolTableRecord
100
AcDbBlockTableRecord
  2
Filled-1
340
0
 70
     0
280
     1
281
     0
  0
BLOCK_RECORD
  5
BD
330
1
100
AcDbSymbolTableRecord
100
AcDbBlockTableRecord
  2
*D2
340
0
 70
     0
280
     1
281
     0
  0
BLOCK_RECORD
  5
AF
330
1
100
AcDbSymbolTableRecord
100
AcDbBlockTableRecord
  2
*D3
340
0
 70
     0
280
     1
281
     0
  0
BLOCK_RECORD
  5
184
330
1
100
AcDbSymbolTableRecord
100
AcDbBlockTableRecord
  2
*D4
340
0
 70
     0
280
     1
281
     0
  0
BLOCK_RECORD
  5
177
330
1
100
AcDbSymbolTableRecord
100
AcDbBlockTableRecord
  2
*D5
340
0
 70
     0
280
     1
281
     0
  0
BLOCK_RECORD
  5
168
330
1
100
AcDbSymbolTableRecord
100
AcDbBlockTableRecord
  2
*D6
340
0
 70
     0
280
     1
281
     0
  0
BLOCK_RECORD
  5
15B
330
1
100
AcDbSymbolTableRecord
100
AcDbBlockTableRecord
  2
*D7
340
0
 70
     0
280
     1
281
     0
  0
BLOCK_RECORD
  5
14E
330
1
100
AcDbSymbolTableRecord
100
AcDbBlockTableRecord
  2
*D8
340
0
 70
     0
280
     1
281
     0
  0
BLOCK_RECORD
  5
13E
330
1
100
AcDbSymbolTableRecord
100
AcDbBlockTableRecord
  2
*D9
340
0
 70
     0
280
     1
281
     0
  0
BLOCK_RECORD
  5
131
330
1
100
AcDbSymbolTableRecord
100
AcDbBlockTableRecord
  2
*D10
340
0
 70
     0
280
     1
281
     0
  0
BLOCK_RECORD
  5
124
330
1
100
AcDbSymbolTableRecord
100
AcDbBlockTableRecord
  2
*D11
340
0
 70
     0
280
     1
281
     0
  0
BLOCK_RECORD
  5
116
330
1
100
AcDbSymbolTableRecord
100
AcDbBlockTableRecord
  2
*D12
340
0
 70
     0
280
     1
281
     0
  0
BLOCK_RECORD
  5
267
330
1
100
AcDbSymbolTableRecord
100
AcDbBlockTableRecord
  2
*D13
340
0
 70
     0
280
     1
281
     0
  0
BLOCK_RECORD
  5
25A
330
1
100
AcDbSymbolTableRecord
100
AcDbBlockTableRecord
  2
*D14
340
0
 70
     0
280
     1
281
     0
  0
BLOCK_RECORD
  5
24D
330
1
100
AcDbSymbolTableRecord
100
AcDbBlockTableRecord
  2
*D15
340
0
 70
     0
280
     1
281
     0
  0
BLOCK_RECORD
  5
9E
330
1
100
AcDbSymbolTableRecord
100
AcDbBlockTableRecord
  2
*D16
340
0
 70
     0
280
     1
281
     0
  0
BLOCK_RECORD
  5
8E
330
1
100
AcDbSymbolTableRecord
100
AcDbBlockTableRecord
  2
*D17
340
0
 70
     0
280
     1
281
     0
  0
BLOCK_RECORD
  5
22A
330
1
100
AcDbSymbolTableRecord
100
AcDbBlockTableRecord
  2
*D18
340
0
 70
     0
280
     1
281
     0
  0
BLOCK_RECORD
  5
23E
330
1
100
AcDbSymbolTableRecord
100
AcDbBlockTableRecord
  2
*D19
340
0
 70
     0
280
     1
281
     0
  0
BLOCK_RECORD
  5
294
330
1
100
AcDbSymbolTableRecord
100
AcDbBlockTableRecord
  2
*D20
340
0
 70
     0
280
     1
281
     0
  0
BLOCK_RECORD
  5
284
330
1
100
AcDbSymbolTableRecord
100
AcDbBlockTableRecord
  2
*D21
340
0
 70
     0
280
     1
281
     0
  0
BLOCK_RECORD
  5
F3
330
1
100
AcDbSymbolTableRecord
100
AcDbBlockTableRecord
  2
*D22
340
0
 70
     0
280
     1
281
     0
  0
BLOCK_RECORD
  5
2ED
330
1
100
AcDbSymbolTableRecord
100
AcDbBlockTableRecord
  2
_ACMFILLED30
340
0
 70
     0
280
     1
281
     0
  0
BLOCK_RECORD
  5
DB
330
1
100
AcDbSymbolTableRecord
100
AcDbBlockTableRecord
  2
*D24
340
0
 70
     0
280
     1
281
     0
  0
ENDTAB
  0
ENDSEC
  0
SECTION
  2
BLOCKS
  0
BLOCK
  5
6
330
2
100
AcDbEntity
  8
0
100
AcDbBlockBegin
  2
*MODEL_SPACE
 70
     0
 10
0.0
 20
0.0
 30
0.0
  3
*MODEL_SPACE
  1

  0
ENDBLK
  5
7
330
2
100
AcDbEntity
  8
0
100
AcDbBlockEnd
  0
BLOCK
  5
E
330
D
100
AcDbEntity
 67
     1
  8
0
100
AcDbBlockBegin
  2
*PAPER_SPACE
 70
     0
 10
0.0
 20
0.0
 30
0.0
  3
*PAPER_SPACE
  1

  0
ENDBLK
  5
F
330
D
100
AcDbEntity
 67
     1
  8
0
100
AcDbBlockEnd
  0
BLOCK
  5
30F
330
30E
100
AcDbEntity
  8
0
100
AcDbBlockBegin
  2
GENAXEH
 70
     0
 10
0.0
 20
0.0
 30
0.0
  3
GENAXEH
  1

  0
LINE
  5
310
330
30E
100
AcDbEntity
  8
0
100
AcDbLine
 10
-1.0
 20
0.0
 30
0.0
 11
1.0
 21
0.0
 31
0.0
  0
ENDBLK
  5
311
330
30E
100
AcDbEntity
  8
0
100
AcDbBlockEnd
  0
BLOCK
  5
3E
330
3D
100
AcDbEntity
  8
0
100
AcDbBlockBegin
  2
Filled-1
 70
     0
 10
0.0
 20
0.0
 30
0.0
  3
Filled-1
  1

  0
LINE
  5
3F
330
3D
100
AcDbEntity
  8
0
 62
     0
100
AcDbLine
 10
-1.0
 20
0.0
 30
0.0
 11
0.0
 21
0.0
 31
0.0
  0
POLYLINE
  5
40
330
3D
100
AcDbEntity
  8
0
 62
     0
100
AcDb2dPolyline
 66
     1
 10
0.0
 20
0.0
 30
0.0
 70
   128
  0
VERTEX
  5
41
330
40
100
AcDbEntity
  8
0
 62
     0
100
AcDbVertex
100
AcDb2dVertex
 10
-1.0
 20
-0.1428571428571428
 30
0.0
  0
VERTEX
  5
42
330
40
100
AcDbEntity
  8
0
 62
     0
100
AcDbVertex
100
AcDb2dVertex
 10
0.0
 20
0.0
 30
0.0
  0
VERTEX
  5
43
330
40
100
AcDbEntity
  8
0
 62
     0
100
AcDbVertex
100
AcDb2dVertex
 10
-1.0
 20
0.1428571428571428
 30
0.0
  0
VERTEX
  5
44
330
40
100
AcDbEntity
  8
0
 62
     0
100
AcDbVertex
100
AcDb2dVertex
 10
-1.0
 20
-0.1428571428571428
 30
0.0
  0
SEQEND
  5
45
330
40
100
AcDbEntity
  8
0
 62
     0
  0
SOLID
  5
46
330
3D
100
AcDbEntity
  8
0
 62
     0
100
AcDbTrace
 10
-1.0
 20
-0.1428571428571428
 30
0.0
 11
0.0
 21
0.0
 31
0.0
 12
-1.0
 22
0.1428571428571428
 32
0.0
 13
-1.0
 23
-0.1428571428571428
 33
0.0
  0
LINE
  5
47
330
3D
100
AcDbEntity
  8
0
 62
     0
100
AcDbLine
 10
-1.0
 20
-0.1428571428571428
 30
0.0
 11
0.0
 21
0.0
 31
0.0
  0
LINE
  5
48
330
3D
100
AcDbEntity
  8
0
 62
     0
100
AcDbLine
 10
0.0
 20
0.0
 30
0.0
 11
-1.0
 21
0.1428571428571428
 31
0.0
  0
LINE
  5
49
330
3D
100
AcDbEntity
  8
0
 62
     0
100
AcDbLine
 10
-1.0
 20
0.1428571428571428
 30
0.0
 11
-1.0
 21
-0.1428571428571428
 31
0.0
  0
ENDBLK
  5
4A
330
3D
100
AcDbEntity
  8
0
100
AcDbBlockEnd
  0
BLOCK
  5
BE
330
BD
100
AcDbEntity
  8
0
100
AcDbBlockBegin
  2
*D2
 70
     1
 10
0.0
 20
0.0
 30
0.0
  3
*D2
  1

  0
LINE
  5
BF
330
BD
100
AcDbEntity
  8
AM_0
 62
     2
440
 16777216
370
    -2
100
AcDbLine
 10
310.8285181720384
 20
1293.472929449996
 30
0.0
 11
269.8559939747156
 21
1293.472929449996
 31
0.0
  0
LINE
  5
C0
330
BD
100
AcDbEntity
  8
AM_0
 62
     2
440
 16777216
370
    -2
100
AcDbLine
 10
310.8285181720384
 20
1183.472929449996
 30
0.0
 11
269.8559939747156
 21
1183.472929449996
 31
0.0
  0
LINE
  5
C1
330
BD
100
AcDbEntity
  8
AM_0
 62
     2
440
 16777216
370
    -2
100
AcDbLine
 10
270.8559939747157
 20
1281.472929449996
 30
0.0
 11
270.8559939747157
 21
1195.472929449995
 31
0.0
  0
SOLID
  5
C2
330
BD
100
AcDbEntity
  8
AM_0
 62
     2
440
 16777216
100
AcDbTrace
 10
268.8559939747157
 20
1281.472929449996
 30
0.0
 11
272.8559939747157
 21
1281.472929449996
 31
0.0
 12
270.8559939747157
 22
1293.472929449996
 32
0.0
 13
270.8559939747157
 23
1293.472929449996
 33
0.0
  0
SOLID
  5
C3
330
BD
100
AcDbEntity
  8
AM_0
 62
     2
440
 16777216
100
AcDbTrace
 10
268.8559939747157
 20
1195.472929449995
 30
0.0
 11
272.8559939747157
 21
1195.472929449995
 31
0.0
 12
270.8559939747157
 22
1183.472929449996
 32
0.0
 13
270.8559939747157
 23
1183.472929449996
 33
0.0
  0
MTEXT
  5
C4
330
BD
100
AcDbEntity
  8
AM_0
 62
     3
440
 16777216
100
AcDbMText
 10
259.165680195725
 20
1229.157361832315
 30
0.0
 40
9.0
 41
0.0
 46
0.0
 71
     1
 72
     1
  1
\A1;110
  7
ARIAL-STANDARD
 11
0.0000000000000001
 21
1.0
 31
0.0
 73
     1
 44
1.0
  0
POINT
  5
C5
330
BD
100
AcDbEntity
  8
DEFPOINTS
 62
     0
440
 16777216
100
AcDbPoint
 10
310.8285181720384
 20
1293.472929449996
 30
0.0
  0
POINT
  5
C6
330
BD
100
AcDbEntity
  8
DEFPOINTS
 62
     0
440
 16777216
100
AcDbPoint
 10
310.8285181720384
 20
1183.472929449996
 30
0.0
  0
POINT
  5
C7
330
BD
100
AcDbEntity
  8
DEFPOINTS
 62
     0
440
 16777216
100
AcDbPoint
 10
270.8559939747157
 20
1183.472929449996
 30
0.0
  0
ENDBLK
  5
C8
330
BD
100
AcDbEntity
  8
0
100
AcDbBlockEnd
  0
BLOCK
  5
B0
330
AF
100
AcDbEntity
  8
0
100
AcDbBlockBegin
  2
*D3
 70
     1
 10
0.0
 20
0.0
 30
0.0
  3
*D3
  1

  0
LINE
  5
B1
330
AF
100
AcDbEntity
  8
AM_0
 62
     2
440
 16777216
370
    -2
100
AcDbLine
 10
305.3285181720383
 20
1261.972929449996
 30
0.0
 11
289.5177745462752
 21
1261.972929449996
 31
0.0
  0
LINE
  5
B2
330
AF
100
AcDbEntity
  8
AM_0
 62
     2
440
 16777216
370
    -2
100
AcDbLine
 10
305.3285181720383
 20
1214.972929449996
 30
0.0
 11
289.5177745462752
 21
1214.972929449996
 31
0.0
  0
LINE
  5
B3
330
AF
100
AcDbEntity
  8
AM_0
 62
     2
440
 16777216
370
    -2
100
AcDbLine
 10
290.5177745462752
 20
1249.972929449995
 30
0.0
 11
290.5177745462752
 21
1226.972929449996
 31
0.0
  0
SOLID
  5
B4
330
AF
100
AcDbEntity
  8
AM_0
 62
     2
440
 16777216
100
AcDbTrace
 10
288.5177745462751
 20
1249.972929449995
 30
0.0
 11
292.5177745462752
 21
1249.972929449995
 31
0.0
 12
290.5177745462752
 22
1261.972929449996
 32
0.0
 13
290.5177745462752
 23
1261.972929449996
 33
0.0
  0
SOLID
  5
B5
330
AF
100
AcDbEntity
  8
AM_0
 62
     2
440
 16777216
100
AcDbTrace
 10
288.5177745462751
 20
1226.972929449996
 30
0.0
 11
292.5177745462752
 21
1226.972929449996
 31
0.0
 12
290.5177745462752
 22
1214.972929449996
 32
0.0
 13
290.5177745462752
 23
1214.972929449996
 33
0.0
  0
MTEXT
  5
B6
330
AF
100
AcDbEntity
  8
AM_0
 62
     3
440
 16777216
100
AcDbMText
 10
279.017774546275
 20
1232.783898703733
 30
0.0
 40
9.0
 41
0.0
 46
0.0
 71
     1
 72
     1
  1
\A1;47
  7
ARIAL-STANDARD
 11
0.0000000000000001
 21
1.0
 31
0.0
 73
     1
 44
1.0
  0
POINT
  5
B7
330
AF
100
AcDbEntity
  8
DEFPOINTS
 62
     0
440
 16777216
100
AcDbPoint
 10
305.3285181720383
 20
1261.972929449996
 30
0.0
  0
POINT
  5
B8
330
AF
100
AcDbEntity
  8
DEFPOINTS
 62
     0
440
 16777216
100
AcDbPoint
 10
305.3285181720383
 20
1214.972929449996
 30
0.0
  0
POINT
  5
B9
330
AF
100
AcDbEntity
  8
DEFPOINTS
 62
     0
440
 16777216
100
AcDbPoint
 10
290.5177745462752
 20
1214.972929449996
 30
0.0
  0
ENDBLK
  5
BA
330
AF
100
AcDbEntity
  8
0
100
AcDbBlockEnd
  0
BLOCK
  5
185
330
184
100
AcDbEntity
  8
0
100
AcDbBlockBegin
  2
*D4
 70
     1
 10
0.0
 20
0.0
 30
0.0
  3
*D4
  1

  0
LINE
  5
186
330
184
100
AcDbEntity
  8
BEMASSUNG
 62
     2
440
 16777216
370
    -2
100
AcDbLine
 10
304.7285181720385
 20
886.480117358349
 30
0.0
 11
294.0618591871145
 21
886.480117358349
 31
0.0
  0
LINE
  5
187
330
184
100
AcDbEntity
  8
BEMASSUNG
 62
     2
440
 16777216
370
    -2
100
AcDbLine
 10
304.7285181720385
 20
930.480117358349
 30
0.0
 11
294.0618591871146
 21
930.480117358349
 31
0.0
  0
LINE
  5
188
330
184
100
AcDbEntity
  8
BEMASSUNG
 62
     2
440
 16777216
370
    -2
100
AcDbLine
 10
295.0618591871146
 20
898.4801173583488
 30
0.0
 11
295.0618591871146
 21
918.480117358349
 31
0.0
  0
SOLID
  5
189
330
184
100
AcDbEntity
  8
BEMASSUNG
 62
     2
440
 16777216
100
AcDbTrace
 10
293.0618591871146
 20
898.4801173583488
 30
0.0
 11
297.0618591871146
 21
898.4801173583488
 31
0.0
 12
295.0618591871144
 22
886.480117358349
 32
0.0
 13
295.0618591871144
 23
886.480117358349
 33
0.0
  0
SOLID
  5
18A
330
184
100
AcDbEntity
  8
BEMASSUNG
 62
     2
440
 16777216
100
AcDbTrace
 10
293.0618591871146
 20
918.480117358349
 30
0.0
 11
297.0618591871146
 21
918.480117358349
 31
0.0
 12
295.0618591871146
 22
930.480117358349
 32
0.0
 13
295.0618591871146
 23
930.480117358349
 33
0.0
  0
MTEXT
  5
18B
330
184
100
AcDbEntity
  8
BEMASSUNG
 62
     3
440
 16777216
100
AcDbMText
 10
283.5618591871143
 20
901.3582744271719
 30
0.0
 40
9.0
 41
0.0
 46
0.0
 71
     1
 72
     1
  1
\A1;44
  7
ARIAL-STANDARD
 11
0.0000000000000001
 21
1.0
 31
0.0
 73
     1
 44
1.0
  0
POINT
  5
18C
330
184
100
AcDbEntity
  8
DEFPOINTS
 62
     0
440
 16777216
100
AcDbPoint
 10
304.7285181720385
 20
886.480117358349
 30
0.0
  0
POINT
  5
18D
330
184
100
AcDbEntity
  8
DEFPOINTS
 62
     0
440
 16777216
100
AcDbPoint
 10
304.7285181720385
 20
930.480117358349
 30
0.0
  0
POINT
  5
18E
330
184
100
AcDbEntity
  8
DEFPOINTS
 62
     0
440
 16777216
100
AcDbPoint
 10
295.0618591871146
 20
930.480117358349
 30
0.0
  0
ENDBLK
  5
18F
330
184
100
AcDbEntity
  8
0
100
AcDbBlockEnd
  0
BLOCK
  5
178
330
177
100
AcDbEntity
  8
0
100
AcDbBlockBegin
  2
*D5
 70
     1
 10
0.0
 20
0.0
 30
0.0
  3
*D5
  1

  0
LINE
  5
179
330
177
100
AcDbEntity
  8
BEMASSUNG
 62
     2
440
 16777216
370
    -2
100
AcDbLine
 10
305.3285181720387
 20
784.9801173583492
 30
0.0
 11
283.4179692919864
 21
784.9801173583492
 31
0.0
  0
LINE
  5
17A
330
177
100
AcDbEntity
  8
BEMASSUNG
 62
     2
440
 16777216
370
    -2
100
AcDbLine
 10
305.3285181720387
 20
831.9801173583492
 30
0.0
 11
283.4179692919864
 21
831.9801173583492
 31
0.0
  0
LINE
  5
17B
330
177
100
AcDbEntity
  8
BEMASSUNG
 62
     2
440
 16777216
370
    -2
100
AcDbLine
 10
284.4179692919864
 20
796.9801173583492
 30
0.0
 11
284.4179692919864
 21
819.9801173583493
 31
0.0
  0
SOLID
  5
17C
330
177
100
AcDbEntity
  8
BEMASSUNG
 62
     2
440
 16777216
100
AcDbTrace
 10
282.4179692919864
 20
796.9801173583492
 30
0.0
 11
286.4179692919864
 21
796.9801173583492
 31
0.0
 12
284.4179692919864
 22
784.9801173583492
 32
0.0
 13
284.4179692919864
 23
784.9801173583492
 33
0.0
  0
SOLID
  5
17D
330
177
100
AcDbEntity
  8
BEMASSUNG
 62
     2
440
 16777216
100
AcDbTrace
 10
282.4179692919864
 20
819.9801173583493
 30
0.0
 11
286.4179692919864
 21
819.9801173583493
 31
0.0
 12
284.4179692919864
 22
831.9801173583492
 32
0.0
 13
284.4179692919864
 23
831.9801173583492
 33
0.0
  0
MTEXT
  5
17E
330
177
100
AcDbEntity
  8
BEMASSUNG
 62
     3
440
 16777216
100
AcDbMText
 10
272.9179692919863
 20
801.8529004415691
 30
0.0
 40
9.0
 41
0.0
 46
0.0
 71
     1
 72
     1
  1
\A1;47
  7
ARIAL-STANDARD
 11
0.0000000000000001
 21
1.0
 31
0.0
 73
     1
 44
1.0
  0
POINT
  5
17F
330
177
100
AcDbEntity
  8
DEFPOINTS
 62
     0
440
 16777216
100
AcDbPoint
 10
305.3285181720387
 20
784.9801173583492
 30
0.0
  0
POINT
  5
180
330
177
100
AcDbEntity
  8
DEFPOINTS
 62
     0
440
 16777216
100
AcDbPoint
 10
305.3285181720387
 20
831.9801173583492
 30
0.0
  0
POINT
  5
181
330
177
100
AcDbEntity
  8
DEFPOINTS
 62
     0
440
 16777216
100
AcDbPoint
 10
284.4179692919864
 20
831.9801173583492
 30
0.0
  0
ENDBLK
  5
182
330
177
100
AcDbEntity
  8
0
100
AcDbBlockEnd
  0
BLOCK
  5
169
330
168
100
AcDbEntity
  8
0
100
AcDbBlockBegin
  2
*D6
 70
     1
 10
0.0
 20
0.0
 30
0.0
  3
*D6
  1

  0
LINE
  5
16A
330
168
100
AcDbEntity
  8
BEMASSUNG
 62
     2
440
 16777216
370
    -2
100
AcDbLine
 10
298.8285181720386
 20
735.4801173583492
 30
0.0
 11
298.8285181720386
 21
694.4112067034446
 31
0.0
  0
LINE
  5
16B
330
168
100
AcDbEntity
  8
BEMASSUNG
 62
     2
440
 16777216
370
    -2
100
AcDbLine
 10
322.8285181720386
 20
735.4801173583492
 30
0.0
 11
322.8285181720386
 21
694.4112067034446
 31
0.0
  0
LINE
  5
16C
330
168
100
AcDbEntity
  8
BEMASSUNG
 62
     2
440
 16777216
370
    -2
100
AcDbLine
 10
286.8285181720386
 20
695.4112067034446
 30
0.0
 11
274.8285181720386
 21
695.4112067034446
 31
0.0
  0
LINE
  5
16D
330
168
100
AcDbEntity
  8
BEMASSUNG
 62
     2
440
 16777216
370
    -2
100
AcDbLine
 10
334.8285181720386
 20
695.4112067034446
 30
0.0
 11
346.8285181720386
 21
695.4112067034446
 31
0.0
  0
LINE
  5
16E
330
168
100
AcDbEntity
  8
BEMASSUNG
 62
     2
440
 16777216
370
    -2
100
AcDbLine
 10
298.8285181720386
 20
695.4112067034446
 30
0.0
 11
322.8285181720386
 21
695.4112067034446
 31
0.0
  0
SOLID
  5
16F
330
168
100
AcDbEntity
  8
BEMASSUNG
 62
     2
440
 16777216
100
AcDbTrace
 10
286.8285181720386
 20
697.4112067034448
 30
0.0
 11
286.8285181720386
 21
693.4112067034448
 31
0.0
 12
298.8285181720386
 22
695.4112067034446
 32
0.0
 13
298.8285181720386
 23
695.4112067034446
 33
0.0
  0
SOLID
  5
170
330
168
100
AcDbEntity
  8
BEMASSUNG
 62
     2
440
 16777216
100
AcDbTrace
 10
334.8285181720386
 20
697.4112067034448
 30
0.0
 11
334.8285181720386
 21
693.4112067034448
 31
0.0
 12
322.8285181720386
 22
695.4112067034446
 32
0.0
 13
322.8285181720386
 23
695.4112067034446
 33
0.0
  0
MTEXT
  5
171
330
168
100
AcDbEntity
  8
BEMASSUNG
 62
     3
440
 16777216
100
AcDbMText
 10
304.3240843384779
 20
706.9480416284108
 30
0.0
 40
9.0
 41
0.0
 46
0.0
 71
     1
 72
     1
  1
\A1;24
  7
ARIAL-STANDARD
 73
     1
 44
1.0
  0
POINT
  5
172
330
168
100
AcDbEntity
  8
DEFPOINTS
 62
     0
440
 16777216
100
AcDbPoint
 10
298.8285181720386
 20
735.4801173583492
 30
0.0
  0
POINT
  5
173
330
168
100
AcDbEntity
  8
DEFPOINTS
 62
     0
440
 16777216
100
AcDbPoint
 10
322.8285181720386
 20
735.4801173583492
 30
0.0
  0
POINT
  5
174
330
168
100
AcDbEntity
  8
DEFPOINTS
 62
     0
440
 16777216
100
AcDbPoint
 10
322.8285181720386
 20
695.4112067034446
 30
0.0
  0
ENDBLK
  5
175
330
168
100
AcDbEntity
  8
0
100
AcDbBlockEnd
  0
BLOCK
  5
15C
330
15B
100
AcDbEntity
  8
0
100
AcDbBlockBegin
  2
*D7
 70
     1
 10
0.0
 20
0.0
 30
0.0
  3
*D7
  1

  0
LINE
  5
15D
330
15B
100
AcDbEntity
  8
BEMASSUNG
 62
     2
440
 16777216
370
    -2
100
AcDbLine
 10
349.8285181720385
 20
963.4801173583493
 30
0.0
 11
365.9735164246015
 21
963.4801173583493
 31
0.0
  0
LINE
  5
15E
330
15B
100
AcDbEntity
  8
BEMASSUNG
 62
     2
440
 16777216
370
    -2
100
AcDbLine
 10
349.8285181720386
 20
873.4801173583493
 30
0.0
 11
365.9735164246015
 21
873.4801173583493
 31
0.0
  0
LINE
  5
15F
330
15B
100
AcDbEntity
  8
BEMASSUNG
 62
     2
440
 16777216
370
    -2
100
AcDbLine
 10
364.9735164246016
 20
951.4801173583492
 30
0.0
 11
364.9735164246016
 21
885.4801173583492
 31
0.0
  0
SOLID
  5
160
330
15B
100
AcDbEntity
  8
BEMASSUNG
 62
     2
440
 16777216
100
AcDbTrace
 10
362.9735164246016
 20
951.4801173583492
 30
0.0
 11
366.9735164246016
 21
951.4801173583492
 31
0.0
 12
364.9735164246016
 22
963.4801173583493
 32
0.0
 13
364.9735164246016
 23
963.4801173583493
 33
0.0
  0
SOLID
  5
161
330
15B
100
AcDbEntity
  8
BEMASSUNG
 62
     2
440
 16777216
100
AcDbTrace
 10
362.9735164246016
 20
885.4801173583492
 30
0.0
 11
366.9735164246016
 21
885.4801173583492
 31
0.0
 12
364.9735164246016
 22
873.4801173583493
 32
0.0
 13
364.9735164246016
 23
873.4801173583493
 33
0.0
  0
MTEXT
  5
162
330
15B
100
AcDbEntity
  8
BEMASSUNG
 62
     3
440
 16777216
100
AcDbMText
 10
353.2832026456109
 20
902.0493533747202
 30
0.0
 40
9.0
 41
0.0
 46
0.0
 71
     1
 72
     1
  1
\A1;90
  7
ARIAL-STANDARD
 11
0.0000000000000001
 21
1.0
 31
0.0
 73
     1
 44
1.0
  0
POINT
  5
163
330
15B
100
AcDbEntity
  8
DEFPOINTS
 62
     0
440
 16777216
100
AcDbPoint
 10
349.8285181720385
 20
963.4801173583493
 30
0.0
  0
POINT
  5
164
330
15B
100
AcDbEntity
  8
DEFPOINTS
 62
     0
440
 16777216
100
AcDbPoint
 10
349.8285181720386
 20
873.4801173583493
 30
0.0
  0
POINT
  5
165
330
15B
100
AcDbEntity
  8
DEFPOINTS
 62
     0
440
 16777216
100
AcDbPoint
 10
364.9735164246016
 20
873.4801173583493
 30
0.0
  0
ENDBLK
  5
166
330
15B
100
AcDbEntity
  8
0
100
AcDbBlockEnd
  0
BLOCK
  5
14F
330
14E
100
AcDbEntity
  8
0
100
AcDbBlockBegin
  2
*D8
 70
     1
 10
0.0
 20
0.0
 30
0.0
  3
*D8
  1

  0
LINE
  5
150
330
14E
100
AcDbEntity
  8
BEMASSUNG
 62
     2
440
 16777216
370
    -2
100
AcDbLine
 10
349.8285181720386
 20
873.4801173583493
 30
0.0
 11
365.9735164246015
 21
873.4801173583493
 31
0.0
  0
LINE
  5
151
330
14E
100
AcDbEntity
  8
BEMASSUNG
 62
     2
440
 16777216
370
    -2
100
AcDbLine
 10
310.8285181720386
 20
723.4801173583492
 30
0.0
 11
365.9735164246015
 21
723.4801173583492
 31
0.0
  0
LINE
  5
152
330
14E
100
AcDbEntity
  8
BEMASSUNG
 62
     2
440
 16777216
370
    -2
100
AcDbLine
 10
364.9735164246016
 20
861.4801173583492
 30
0.0
 11
364.9735164246016
 21
735.4801173583492
 31
0.0
  0
SOLID
  5
153
330
14E
100
AcDbEntity
  8
BEMASSUNG
 62
     2
440
 16777216
100
AcDbTrace
 10
362.9735164246016
 20
861.4801173583492
 30
0.0
 11
366.9735164246016
 21
861.4801173583492
 31
0.0
 12
364.9735164246016
 22
873.4801173583493
 32
0.0
 13
364.9735164246016
 23
873.4801173583493
 33
0.0
  0
SOLID
  5
154
330
14E
100
AcDbEntity
  8
BEMASSUNG
 62
     2
440
 16777216
100
AcDbTrace
 10
362.9735164246016
 20
735.4801173583492
 30
0.0
 11
366.9735164246016
 21
735.4801173583492
 31
0.0
 12
364.9735164246016
 22
723.4801173583492
 32
0.0
 13
364.9735164246016
 23
723.4801173583492
 33
0.0
  0
MTEXT
  5
155
330
14E
100
AcDbEntity
  8
BEMASSUNG
 62
     3
440
 16777216
100
AcDbMText
 10
353.2832026456109
 20
802.7267067171488
 30
0.0
 40
9.0
 41
0.0
 46
0.0
 71
     1
 72
     1
  1
\A1;150
  7
ARIAL-STANDARD
 11
0.0000000000000001
 21
1.0
 31
0.0
 73
     1
 44
1.0
  0
POINT
  5
156
330
14E
100
AcDbEntity
  8
DEFPOINTS
 62
     0
440
 16777216
100
AcDbPoint
 10
349.8285181720386
 20
873.4801173583493
 30
0.0
  0
POINT
  5
157
330
14E
100
AcDbEntity
  8
DEFPOINTS
 62
     0
440
 16777216
100
AcDbPoint
 10
310.8285181720386
 20
723.4801173583492
 30
0.0
  0
POINT
  5
158
330
14E
100
AcDbEntity
  8
DEFPOINTS
 62
     0
440
 16777216
100
AcDbPoint
 10
364.9735164246016
 20
723.4801173583492
 30
0.0
  0
ENDBLK
  5
159
330
14E
100
AcDbEntity
  8
0
100
AcDbBlockEnd
  0
BLOCK
  5
13F
330
13E
100
AcDbEntity
  8
0
100
AcDbBlockBegin
  2
*D9
 70
     1
 10
0.0
 20
0.0
 30
0.0
  3
*D9
  1

  0
LINE
  5
140
330
13E
100
AcDbEntity
  8
BEMASSUNG
 62
     2
440
 16777216
370
    -2
100
AcDbLine
 10
303.3285181720386
 20
829.9801173583492
 30
0.0
 11
303.3285181720386
 21
839.7810986170416
 31
0.0
  0
LINE
  5
141
330
13E
100
AcDbEntity
  8
BEMASSUNG
 62
     2
440
 16777216
370
    -2
100
AcDbLine
 10
318.3285181720387
 20
829.9801173583492
 30
0.0
 11
318.3285181720387
 21
839.7810986170416
 31
0.0
  0
LINE
  5
142
330
13E
100
AcDbEntity
  8
BEMASSUNG
 62
     2
440
 16777216
370
    -2
100
AcDbLine
 10
291.3285181720386
 20
838.7810986170416
 30
0.0
 11
279.3285181720386
 21
838.7810986170416
 31
0.0
  0
LINE
  5
143
330
13E
100
AcDbEntity
  8
BEMASSUNG
 62
     2
440
 16777216
370
    -2
100
AcDbLine
 10
330.3285181720387
 20
838.7810986170416
 30
0.0
 11
342.3285181720387
 21
838.7810986170416
 31
0.0
  0
LINE
  5
144
330
13E
100
AcDbEntity
  8
BEMASSUNG
 62
     2
440
 16777216
370
    -2
100
AcDbLine
 10
303.3285181720386
 20
838.7810986170416
 30
0.0
 11
318.3285181720387
 21
838.7810986170416
 31
0.0
  0
SOLID
  5
145
330
13E
100
AcDbEntity
  8
BEMASSUNG
 62
     2
440
 16777216
100
AcDbTrace
 10
291.3285181720386
 20
840.7810986170416
 30
0.0
 11
291.3285181720386
 21
836.7810986170416
 31
0.0
 12
303.3285181720386
 22
838.7810986170416
 32
0.0
 13
303.3285181720386
 23
838.7810986170416
 33
0.0
  0
SOLID
  5
146
330
13E
100
AcDbEntity
  8
BEMASSUNG
 62
     2
440
 16777216
100
AcDbTrace
 10
330.3285181720387
 20
840.7810986170416
 30
0.0
 11
330.3285181720387
 21
836.7810986170416
 31
0.0
 12
318.3285181720387
 22
838.7810986170416
 32
0.0
 13
318.3285181720387
 23
838.7810986170416
 33
0.0
  0
MTEXT
  5
147
330
13E
100
AcDbEntity
  8
BEMASSUNG
 62
     3
440
 16777216
100
AcDbMText
 10
304.7722425922297
 20
850.4714123960321
 30
0.0
 40
9.0
 41
0.0
 46
0.0
 71
     1
 72
     1
  1
\A1;15
  7
ARIAL-STANDARD
 73
     1
 44
1.0
  0
POINT
  5
148
330
13E
100
AcDbEntity
  8
DEFPOINTS
 62
     0
440
 16777216
100
AcDbPoint
 10
303.3285181720386
 20
829.9801173583492
 30
0.0
  0
POINT
  5
149
330
13E
100
AcDbEntity
  8
DEFPOINTS
 62
     0
440
 16777216
100
AcDbPoint
 10
318.3285181720387
 20
829.9801173583492
 30
0.0
  0
POINT
  5
14A
330
13E
100
AcDbEntity
  8
DEFPOINTS
 62
     0
440
 16777216
100
AcDbPoint
 10
318.3285181720387
 20
838.7810986170416
 30
0.0
  0
ENDBLK
  5
14B
330
13E
100
AcDbEntity
  8
0
100
AcDbBlockEnd
  0
BLOCK
  5
132
330
131
100
AcDbEntity
  8
0
100
AcDbBlockBegin
  2
*D10
 70
     1
 10
0.0
 20
0.0
 30
0.0
  3
*D10
  1

  0
LINE
  5
133
330
131
100
AcDbEntity
  8
BEMASSUNG
 62
     2
440
 16777216
370
    -2
100
AcDbLine
 10
310.8285181720386
 20
993.4801173583492
 30
0.0
 11
365.9735164246015
 21
993.4801173583492
 31
0.0
  0
LINE
  5
134
330
131
100
AcDbEntity
  8
BEMASSUNG
 62
     2
440
 16777216
370
    -2
100
AcDbLine
 10
349.8285181720385
 20
963.4801173583493
 30
0.0
 11
365.9735164246015
 21
963.4801173583493
 31
0.0
  0
LINE
  5
135
330
131
100
AcDbEntity
  8
BEMASSUNG
 62
     2
440
 16777216
370
    -2
100
AcDbLine
 10
364.9735164246016
 20
981.4801173583493
 30
0.0
 11
364.9735164246016
 21
975.4801173583492
 31
0.0
  0
SOLID
  5
136
330
131
100
AcDbEntity
  8
BEMASSUNG
 62
     2
440
 16777216
100
AcDbTrace
 10
362.9735164246016
 20
981.4801173583493
 30
0.0
 11
366.9735164246016
 21
981.4801173583493
 31
0.0
 12
364.9735164246016
 22
993.4801173583492
 32
0.0
 13
364.9735164246016
 23
993.4801173583492
 33
0.0
  0
SOLID
  5
137
330
131
100
AcDbEntity
  8
BEMASSUNG
 62
     2
440
 16777216
100
AcDbTrace
 10
362.9735164246016
 20
975.4801173583492
 30
0.0
 11
366.9735164246016
 21
975.4801173583492
 31
0.0
 12
364.9735164246016
 22
963.4801173583493
 32
0.0
 13
364.9735164246016
 23
963.4801173583493
 33
0.0
  0
MTEXT
  5
138
330
131
100
AcDbEntity
  8
BEMASSUNG
 62
     3
440
 16777216
100
AcDbMText
 10
353.2770634914498
 20
971.1159674222479
 30
0.0
 40
9.0
 41
0.0
 46
0.0
 71
     1
 72
     1
  1
\A1;30
  7
ARIAL-STANDARD
 11
0.0000000000000001
 21
1.0
 31
0.0
 73
     1
 44
1.0
  0
POINT
  5
139
330
131
100
AcDbEntity
  8
DEFPOINTS
 62
     0
440
 16777216
100
AcDbPoint
 10
310.8285181720386
 20
993.4801173583492
 30
0.0
  0
POINT
  5
13A
330
131
100
AcDbEntity
  8
DEFPOINTS
 62
     0
440
 16777216
100
AcDbPoint
 10
349.8285181720385
 20
963.4801173583493
 30
0.0
  0
POINT
  5
13B
330
131
100
AcDbEntity
  8
DEFPOINTS
 62
     0
440
 16777216
100
AcDbPoint
 10
364.9735164246016
 20
963.4801173583493
 30
0.0
  0
ENDBLK
  5
13C
330
131
100
AcDbEntity
  8
0
100
AcDbBlockEnd
  0
BLOCK
  5
125
330
124
100
AcDbEntity
  8
0
100
AcDbBlockBegin
  2
*D11
 70
     1
 10
0.0
 20
0.0
 30
0.0
  3
*D11
  1

  0
LINE
  5
126
330
124
100
AcDbEntity
  8
BEMASSUNG
 62
     2
440
 16777216
370
    -2
100
AcDbLine
 10
310.8285181720385
 20
987.230117358349
 30
0.0
 11
310.8285181720385
 21
1001.981411841997
 31
0.0
  0
LINE
  5
127
330
124
100
AcDbEntity
  8
BEMASSUNG
 62
     2
440
 16777216
370
    -2
100
AcDbLine
 10
350.8285181720385
 20
962.4801173583492
 30
0.0
 11
350.8285181720385
 21
1001.981411841997
 31
0.0
  0
LINE
  5
128
330
124
100
AcDbEntity
  8
BEMASSUNG
 62
     2
440
 16777216
370
    -2
100
AcDbLine
 10
322.8285181720385
 20
1000.981411841997
 30
0.0
 11
338.8285181720385
 21
1000.981411841997
 31
0.0
  0
SOLID
  5
129
330
124
100
AcDbEntity
  8
BEMASSUNG
 62
     2
440
 16777216
100
AcDbTrace
 10
322.8285181720385
 20
1002.981411841997
 30
0.0
 11
322.8285181720385
 21
998.9814118419968
 31
0.0
 12
310.8285181720385
 22
1000.981411841997
 32
0.0
 13
310.8285181720385
 23
1000.981411841997
 33
0.0
  0
SOLID
  5
12A
330
124
100
AcDbEntity
  8
BEMASSUNG
 62
     2
440
 16777216
100
AcDbTrace
 10
338.8285181720385
 20
1002.981411841997
 30
0.0
 11
338.8285181720385
 21
998.9814118419968
 31
0.0
 12
350.8285181720385
 22
1000.981411841997
 32
0.0
 13
350.8285181720385
 23
1000.981411841997
 33
0.0
  0
MTEXT
  5
12B
330
124
100
AcDbEntity
  8
BEMASSUNG
 62
     3
440
 16777216
100
AcDbMText
 10
322.4957206472938
 20
1012.671725620987
 30
0.0
 40
9.0
 41
0.0
 46
0.0
 71
     1
 72
     1
  1
\A1;40
  7
ARIAL-STANDARD
 73
     1
 44
1.0
  0
POINT
  5
12C
330
124
100
AcDbEntity
  8
DEFPOINTS
 62
     0
440
 16777216
100
AcDbPoint
 10
310.8285181720385
 20
987.230117358349
 30
0.0
  0
POINT
  5
12D
330
124
100
AcDbEntity
  8
DEFPOINTS
 62
     0
440
 16777216
100
AcDbPoint
 10
350.8285181720385
 20
962.4801173583492
 30
0.0
  0
POINT
  5
12E
330
124
100
AcDbEntity
  8
DEFPOINTS
 62
     0
440
 16777216
100
AcDbPoint
 10
350.8285181720385
 20
1000.981411841997
 30
0.0
  0
ENDBLK
  5
12F
330
124
100
AcDbEntity
  8
0
100
AcDbBlockEnd
  0
BLOCK
  5
117
330
116
100
AcDbEntity
  8
0
100
AcDbBlockBegin
  2
*D12
 70
     1
 10
0.0
 20
0.0
 30
0.0
  3
*D12
  1

  0
LINE
  5
118
330
116
100
AcDbEntity
  8
BEMASSUNG
 62
     2
440
 16777216
370
    -2
100
AcDbLine
 10
316.2469452967847
 20
932.4801173583487
 30
0.0
 11
280.4152044079531
 21
932.4801173583487
 31
0.0
  0
LINE
  5
119
330
116
100
AcDbEntity
  8
BEMASSUNG
 62
     2
440
 16777216
370
    -2
100
AcDbLine
 10
316.2469452967847
 20
884.4801173583491
 30
0.0
 11
280.4152044079531
 21
884.4801173583491
 31
0.0
  0
LINE
  5
11A
330
116
100
AcDbEntity
  8
BEMASSUNG
 62
     2
440
 16777216
370
    -2
100
AcDbLine
 10
281.4152044079531
 20
920.4801173583486
 30
0.0
 11
281.4152044079531
 21
896.480117358349
 31
0.0
  0
SOLID
  5
11B
330
116
100
AcDbEntity
  8
BEMASSUNG
 62
     2
440
 16777216
100
AcDbTrace
 10
279.4152044079531
 20
920.4801173583486
 30
0.0
 11
283.4152044079531
 21
920.4801173583486
 31
0.0
 12
281.4152044079531
 22
932.4801173583487
 32
0.0
 13
281.4152044079531
 23
932.4801173583487
 33
0.0
  0
SOLID
  5
11C
330
116
100
AcDbEntity
  8
BEMASSUNG
 62
     2
440
 16777216
100
AcDbTrace
 10
279.4152044079531
 20
896.480117358349
 30
0.0
 11
283.4152044079531
 21
896.480117358349
 31
0.0
 12
281.4152044079531
 22
884.4801173583491
 32
0.0
 13
281.4152044079531
 23
884.4801173583491
 33
0.0
  0
MTEXT
  5
11D
330
116
100
AcDbEntity
  8
BEMASSUNG
 62
     3
440
 16777216
100
AcDbMText
 10
269.7248906289625
 20
901.3306482334476
 30
0.0
 40
9.0
 41
0.0
 46
0.0
 71
     1
 72
     1
  1
\A1;48
  7
ARIAL-STANDARD
 11
0.0000000000000001
 21
1.0
 31
0.0
 73
     1
 44
1.0
  0
POINT
  5
11E
330
116
100
AcDbEntity
  8
DEFPOINTS
 62
     0
440
 16777216
100
AcDbPoint
 10
316.2469452967847
 20
932.4801173583487
 30
0.0
  0
POINT
  5
11F
330
116
100
AcDbEntity
  8
DEFPOINTS
 62
     0
440
 16777216
100
AcDbPoint
 10
316.2469452967847
 20
884.4801173583491
 30
0.0
  0
POINT
  5
120
330
116
100
AcDbEntity
  8
DEFPOINTS
 62
     0
440
 16777216
100
AcDbPoint
 10
281.4152044079531
 20
884.4801173583491
 30
0.0
  0
ENDBLK
  5
121
330
116
100
AcDbEntity
  8
0
100
AcDbBlockEnd
  0
BLOCK
  5
268
330
267
100
AcDbEntity
  8
0
100
AcDbBlockBegin
  2
*D13
 70
     1
 10
0.0
 20
0.0
 30
0.0
  3
*D13
  1

  0
LINE
  5
269
330
267
100
AcDbEntity
  8
AM_0
 62
     2
440
 16777216
370
    -2
100
AcDbLine
 10
298.8285181720387
 20
365.4729294499952
 30
0.0
 11
298.8285181720387
 21
302.5647517981678
 31
0.0
  0
LINE
  5
26A
330
267
100
AcDbEntity
  8
AM_0
 62
     2
440
 16777216
370
    -2
100
AcDbLine
 10
322.8285181720387
 20
365.4729294499952
 30
0.0
 11
322.8285181720387
 21
302.5647517981678
 31
0.0
  0
LINE
  5
26B
330
267
100
AcDbEntity
  8
AM_0
 62
     2
440
 16777216
370
    -2
100
AcDbLine
 10
286.8285181720387
 20
303.5647517981678
 30
0.0
 11
274.8285181720387
 21
303.5647517981678
 31
0.0
  0
LINE
  5
26C
330
267
100
AcDbEntity
  8
AM_0
 62
     2
440
 16777216
370
    -2
100
AcDbLine
 10
334.8285181720387
 20
303.5647517981678
 30
0.0
 11
346.8285181720386
 21
303.5647517981678
 31
0.0
  0
LINE
  5
26D
330
267
100
AcDbEntity
  8
AM_0
 62
     2
440
 16777216
370
    -2
100
AcDbLine
 10
298.8285181720387
 20
303.5647517981678
 30
0.0
 11
322.8285181720387
 21
303.5647517981678
 31
0.0
  0
SOLID
  5
26E
330
267
100
AcDbEntity
  8
AM_0
 62
     2
440
 16777216
100
AcDbTrace
 10
286.8285181720387
 20
305.5647517981678
 30
0.0
 11
286.8285181720387
 21
301.5647517981678
 31
0.0
 12
298.8285181720387
 22
303.5647517981678
 32
0.0
 13
298.8285181720387
 23
303.5647517981678
 33
0.0
  0
SOLID
  5
26F
330
267
100
AcDbEntity
  8
AM_0
 62
     2
440
 16777216
100
AcDbTrace
 10
334.8285181720387
 20
305.5647517981678
 30
0.0
 11
334.8285181720387
 21
301.5647517981678
 31
0.0
 12
322.8285181720387
 22
303.5647517981678
 32
0.0
 13
322.8285181720387
 23
303.5647517981678
 33
0.0
  0
MTEXT
  5
270
330
267
100
AcDbEntity
  8
AM_0
 62
     3
440
 16777216
100
AcDbMText
 10
304.324084338478
 20
315.1015867231337
 30
0.0
 40
9.0
 41
0.0
 46
0.0
 71
     1
 72
     1
  1
\A1;24
  7
ARIAL-STANDARD
 73
     1
 44
1.0
  0
POINT
  5
271
330
267
100
AcDbEntity
  8
DEFPOINTS
 62
     0
440
 16777216
100
AcDbPoint
 10
298.8285181720387
 20
365.4729294499952
 30
0.0
  0
POINT
  5
272
330
267
100
AcDbEntity
  8
DEFPOINTS
 62
     0
440
 16777216
100
AcDbPoint
 10
322.8285181720387
 20
365.4729294499952
 30
0.0
  0
POINT
  5
273
330
267
100
AcDbEntity
  8
DEFPOINTS
 62
     0
440
 16777216
100
AcDbPoint
 10
322.8285181720387
 20
303.5647517981678
 30
0.0
  0
ENDBLK
  5
274
330
267
100
AcDbEntity
  8
0
100
AcDbBlockEnd
  0
BLOCK
  5
25B
330
25A
100
AcDbEntity
  8
0
100
AcDbBlockBegin
  2
*D14
 70
     1
 10
0.0
 20
0.0
 30
0.0
  3
*D14
  1

  0
LINE
  5
25C
330
25A
100
AcDbEntity
  8
AM_0
 62
     2
440
 16777216
370
    -2
100
AcDbLine
 10
310.8285181720387
 20
463.4729294499948
 30
0.0
 11
269.8559939747158
 21
463.4729294499948
 31
0.0
  0
LINE
  5
25D
330
25A
100
AcDbEntity
  8
AM_0
 62
     2
440
 16777216
370
    -2
100
AcDbLine
 10
310.8285181720387
 20
353.4729294499951
 30
0.0
 11
269.8559939747157
 21
353.4729294499951
 31
0.0
  0
LINE
  5
25E
330
25A
100
AcDbEntity
  8
AM_0
 62
     2
440
 16777216
370
    -2
100
AcDbLine
 10
270.8559939747158
 20
451.4729294499948
 30
0.0
 11
270.8559939747157
 21
365.4729294499952
 31
0.0
  0
SOLID
  5
25F
330
25A
100
AcDbEntity
  8
AM_0
 62
     2
440
 16777216
100
AcDbTrace
 10
268.8559939747158
 20
451.4729294499948
 30
0.0
 11
272.8559939747158
 21
451.4729294499948
 31
0.0
 12
270.8559939747158
 22
463.4729294499948
 32
0.0
 13
270.8559939747158
 23
463.4729294499948
 33
0.0
  0
SOLID
  5
260
330
25A
100
AcDbEntity
  8
AM_0
 62
     2
440
 16777216
100
AcDbTrace
 10
268.8559939747157
 20
365.4729294499952
 30
0.0
 11
272.8559939747157
 21
365.4729294499952
 31
0.0
 12
270.8559939747157
 22
353.4729294499951
 32
0.0
 13
270.8559939747157
 23
353.4729294499951
 33
0.0
  0
MTEXT
  5
261
330
25A
100
AcDbEntity
  8
AM_0
 62
     3
440
 16777216
100
AcDbMText
 10
259.1656801957252
 20
399.1573618323143
 30
0.0
 40
9.0
 41
0.0
 46
0.0
 71
     1
 72
     1
  1
\A1;110
  7
ARIAL-STANDARD
 11
0.0000000000000001
 21
1.0
 31
0.0
 73
     1
 44
1.0
  0
POINT
  5
262
330
25A
100
AcDbEntity
  8
DEFPOINTS
 62
     0
440
 16777216
100
AcDbPoint
 10
310.8285181720387
 20
463.4729294499948
 30
0.0
  0
POINT
  5
263
330
25A
100
AcDbEntity
  8
DEFPOINTS
 62
     0
440
 16777216
100
AcDbPoint
 10
310.8285181720387
 20
353.4729294499951
 30
0.0
  0
POINT
  5
264
330
25A
100
AcDbEntity
  8
DEFPOINTS
 62
     0
440
 16777216
100
AcDbPoint
 10
270.8559939747157
 20
353.4729294499951
 30
0.0
  0
ENDBLK
  5
265
330
25A
100
AcDbEntity
  8
0
100
AcDbBlockEnd
  0
BLOCK
  5
24E
330
24D
100
AcDbEntity
  8
0
100
AcDbBlockBegin
  2
*D15
 70
     1
 10
0.0
 20
0.0
 30
0.0
  3
*D15
  1

  0
LINE
  5
24F
330
24D
100
AcDbEntity
  8
AM_0
 62
     2
440
 16777216
370
    -2
100
AcDbLine
 10
305.3285181720386
 20
431.9729294499951
 30
0.0
 11
288.133817819724
 21
431.9729294499951
 31
0.0
  0
LINE
  5
250
330
24D
100
AcDbEntity
  8
AM_0
 62
     2
440
 16777216
370
    -2
100
AcDbLine
 10
305.3285181720386
 20
384.9729294499951
 30
0.0
 11
288.133817819724
 21
384.9729294499951
 31
0.0
  0
LINE
  5
251
330
24D
100
AcDbEntity
  8
AM_0
 62
     2
440
 16777216
370
    -2
100
AcDbLine
 10
289.133817819724
 20
419.9729294499951
 30
0.0
 11
289.133817819724
 21
396.9729294499952
 31
0.0
  0
SOLID
  5
252
330
24D
100
AcDbEntity
  8
AM_0
 62
     2
440
 16777216
100
AcDbTrace
 10
287.133817819724
 20
419.9729294499951
 30
0.0
 11
291.133817819724
 21
419.9729294499951
 31
0.0
 12
289.133817819724
 22
431.9729294499951
 32
0.0
 13
289.133817819724
 23
431.9729294499951
 33
0.0
  0
SOLID
  5
253
330
24D
100
AcDbEntity
  8
AM_0
 62
     2
440
 16777216
100
AcDbTrace
 10
287.133817819724
 20
396.9729294499952
 30
0.0
 11
291.133817819724
 21
396.9729294499952
 31
0.0
 12
289.133817819724
 22
384.9729294499951
 32
0.0
 13
289.133817819724
 23
384.9729294499951
 33
0.0
  0
MTEXT
  5
254
330
24D
100
AcDbEntity
  8
AM_0
 62
     3
440
 16777216
100
AcDbMText
 10
277.6338178197239
 20
402.7838987037326
 30
0.0
 40
9.0
 41
0.0
 46
0.0
 71
     1
 72
     1
  1
\A1;47
  7
ARIAL-STANDARD
 11
0.0000000000000001
 21
1.0
 31
0.0
 73
     1
 44
1.0
  0
POINT
  5
255
330
24D
100
AcDbEntity
  8
DEFPOINTS
 62
     0
440
 16777216
100
AcDbPoint
 10
305.3285181720386
 20
431.9729294499951
 30
0.0
  0
POINT
  5
256
330
24D
100
AcDbEntity
  8
DEFPOINTS
 62
     0
440
 16777216
100
AcDbPoint
 10
305.3285181720386
 20
384.9729294499951
 30
0.0
  0
POINT
  5
257
330
24D
100
AcDbEntity
  8
DEFPOINTS
 62
     0
440
 16777216
100
AcDbPoint
 10
289.133817819724
 20
384.9729294499951
 30
0.0
  0
ENDBLK
  5
258
330
24D
100
AcDbEntity
  8
0
100
AcDbBlockEnd
  0
BLOCK
  5
9F
330
9E
100
AcDbEntity
  8
0
100
AcDbBlockBegin
  2
*D16
 70
     1
 10
0.0
 20
0.0
 30
0.0
  3
*D16
  1

  0
LINE
  5
A0
330
9E
100
AcDbEntity
  8
BEMASSUNG
 62
     2
440
 16777216
370
    -2
100
AcDbLine
 10
298.8285181720385
 20
1195.472929449995
 30
0.0
 11
298.8285181720385
 21
1157.501188961193
 31
0.0
  0
LINE
  5
A1
330
9E
100
AcDbEntity
  8
BEMASSUNG
 62
     2
440
 16777216
370
    -2
100
AcDbLine
 10
322.8285181720385
 20
1195.472929449995
 30
0.0
 11
322.8285181720385
 21
1157.501188961193
 31
0.0
  0
LINE
  5
A2
330
9E
100
AcDbEntity
  8
BEMASSUNG
 62
     2
440
 16777216
370
    -2
100
AcDbLine
 10
286.8285181720385
 20
1158.501188961193
 30
0.0
 11
274.8285181720385
 21
1158.501188961193
 31
0.0
  0
LINE
  5
A3
330
9E
100
AcDbEntity
  8
BEMASSUNG
 62
     2
440
 16777216
370
    -2
100
AcDbLine
 10
334.8285181720385
 20
1158.501188961193
 30
0.0
 11
346.8285181720385
 21
1158.501188961193
 31
0.0
  0
LINE
  5
A4
330
9E
100
AcDbEntity
  8
BEMASSUNG
 62
     2
440
 16777216
370
    -2
100
AcDbLine
 10
298.8285181720385
 20
1158.501188961193
 30
0.0
 11
322.8285181720385
 21
1158.501188961193
 31
0.0
  0
SOLID
  5
A5
330
9E
100
AcDbEntity
  8
BEMASSUNG
 62
     2
440
 16777216
100
AcDbTrace
 10
286.8285181720385
 20
1160.501188961193
 30
0.0
 11
286.8285181720385
 21
1156.501188961193
 31
0.0
 12
298.8285181720385
 22
1158.501188961193
 32
0.0
 13
298.8285181720385
 23
1158.501188961193
 33
0.0
  0
SOLID
  5
A6
330
9E
100
AcDbEntity
  8
BEMASSUNG
 62
     2
440
 16777216
100
AcDbTrace
 10
334.8285181720385
 20
1160.501188961193
 30
0.0
 11
334.8285181720385
 21
1156.501188961193
 31
0.0
 12
322.8285181720385
 22
1158.501188961193
 32
0.0
 13
322.8285181720385
 23
1158.501188961193
 33
0.0
  0
MTEXT
  5
A7
330
9E
100
AcDbEntity
  8
BEMASSUNG
 62
     3
440
 16777216
100
AcDbMText
 10
310.8285181720384
 20
1165.519606423676
 30
0.0
 40
9.0
 41
0.0
 46
0.0
 71
     5
 72
     1
  1
\A1;24
  7
ARIAL-STANDARD
 73
     1
 44
1.0
  0
POINT
  5
A8
330
9E
100
AcDbEntity
  8
DEFPOINTS
 62
     0
440
 16777216
100
AcDbPoint
 10
298.8285181720385
 20
1195.472929449995
 30
0.0
  0
POINT
  5
A9
330
9E
100
AcDbEntity
  8
DEFPOINTS
 62
     0
440
 16777216
100
AcDbPoint
 10
322.8285181720385
 20
1195.472929449995
 30
0.0
  0
POINT
  5
AA
330
9E
100
AcDbEntity
  8
DEFPOINTS
 62
     0
440
 16777216
100
AcDbPoint
 10
322.8285181720385
 20
1158.501188961193
 30
0.0
  0
ENDBLK
  5
AB
330
9E
100
AcDbEntity
  8
0
100
AcDbBlockEnd
  0
BLOCK
  5
8F
330
8E
100
AcDbEntity
  8
0
100
AcDbBlockBegin
  2
*D17
 70
     1
 10
0.0
 20
0.0
 30
0.0
  3
*D17
  1

  0
LINE
  5
90
330
8E
100
AcDbEntity
  8
BEMASSUNG
 62
     2
440
 16777216
370
    -2
100
AcDbLine
 10
303.3285181720383
 20
1218.791938310281
 30
0.0
 11
303.3285181720383
 21
1202.031519650623
 31
0.0
  0
LINE
  5
91
330
8E
100
AcDbEntity
  8
BEMASSUNG
 62
     2
440
 16777216
370
    -2
100
AcDbLine
 10
318.3285181720385
 20
1218.791938310281
 30
0.0
 11
318.3285181720385
 21
1202.031519650623
 31
0.0
  0
LINE
  5
92
330
8E
100
AcDbEntity
  8
BEMASSUNG
 62
     2
440
 16777216
370
    -2
100
AcDbLine
 10
291.3285181720383
 20
1203.031519650623
 30
0.0
 11
279.3285181720383
 21
1203.031519650623
 31
0.0
  0
LINE
  5
93
330
8E
100
AcDbEntity
  8
BEMASSUNG
 62
     2
440
 16777216
370
    -2
100
AcDbLine
 10
330.3285181720385
 20
1203.031519650623
 30
0.0
 11
359.7764467123786
 21
1203.031519650623
 31
0.0
  0
LINE
  5
94
330
8E
100
AcDbEntity
  8
BEMASSUNG
 62
     2
440
 16777216
370
    -2
100
AcDbLine
 10
303.3285181720383
 20
1203.031519650623
 30
0.0
 11
318.3285181720385
 21
1203.031519650623
 31
0.0
  0
SOLID
  5
95
330
8E
100
AcDbEntity
  8
BEMASSUNG
 62
     2
440
 16777216
100
AcDbTrace
 10
291.3285181720383
 20
1205.031519650623
 30
0.0
 11
291.3285181720383
 21
1201.031519650623
 31
0.0
 12
303.3285181720383
 22
1203.031519650623
 32
0.0
 13
303.3285181720383
 23
1203.031519650623
 33
0.0
  0
SOLID
  5
96
330
8E
100
AcDbEntity
  8
BEMASSUNG
 62
     2
440
 16777216
100
AcDbTrace
 10
330.3285181720385
 20
1205.031519650623
 30
0.0
 11
330.3285181720385
 21
1201.031519650623
 31
0.0
 12
318.3285181720385
 22
1203.031519650623
 32
0.0
 13
318.3285181720385
 23
1203.031519650623
 33
0.0
  0
MTEXT
  5
97
330
8E
100
AcDbEntity
  8
BEMASSUNG
 62
     3
440
 16777216
100
AcDbMText
 10
351.2201711325695
 20
1210.126676540119
 30
0.0
 40
9.0
 41
0.0
 46
0.0
 71
     5
 72
     1
  1
\A1;15
  7
ARIAL-STANDARD
 73
     1
 44
1.0
  0
POINT
  5
98
330
8E
100
AcDbEntity
  8
DEFPOINTS
 62
     0
440
 16777216
100
AcDbPoint
 10
303.3285181720383
 20
1218.791938310281
 30
0.0
  0
POINT
  5
9A
330
8E
100
AcDbEntity
  8
DEFPOINTS
 62
     0
440
 16777216
100
AcDbPoint
 10
318.3285181720385
 20
1218.791938310281
 30
0.0
  0
POINT
  5
9B
330
8E
100
AcDbEntity
  8
DEFPOINTS
 62
     0
440
 16777216
100
AcDbPoint
 10
318.3285181720385
 20
1203.031519650623
 30
0.0
  0
ENDBLK
  5
9C
330
8E
100
AcDbEntity
  8
0
100
AcDbBlockEnd
  0
BLOCK
  5
22B
330
22A
100
AcDbEntity
  8
0
100
AcDbBlockBegin
  2
*D18
 70
     1
 10
0.0
 20
0.0
 30
0.0
  3
*D18
  1

  0
LINE
  5
22C
330
22A
100
AcDbEntity
  8
BEMASSUNG
 62
     2
440
 16777216
370
    -2
100
AcDbLine
 10
310.8285181720386
 20
993.4801173583492
 30
0.0
 11
264.6050483570164
 21
993.4801173583492
 31
0.0
  0
LINE
  5
22D
330
22A
100
AcDbEntity
  8
BEMASSUNG
 62
     2
440
 16777216
370
    -2
100
AcDbLine
 10
310.8285181720386
 20
723.4801173583492
 30
0.0
 11
264.6050483570164
 21
723.4801173583492
 31
0.0
  0
LINE
  5
22E
330
22A
100
AcDbEntity
  8
BEMASSUNG
 62
     2
440
 16777216
370
    -2
100
AcDbLine
 10
265.6050483570164
 20
981.4801173583493
 30
0.0
 11
265.6050483570163
 21
735.4801173583492
 31
0.0
  0
SOLID
  5
22F
330
22A
100
AcDbEntity
  8
BEMASSUNG
 62
     2
440
 16777216
100
AcDbTrace
 10
263.6050483570164
 20
981.4801173583493
 30
0.0
 11
267.6050483570164
 21
981.4801173583493
 31
0.0
 12
265.6050483570164
 22
993.4801173583492
 32
0.0
 13
265.6050483570164
 23
993.4801173583492
 33
0.0
  0
SOLID
  5
230
330
22A
100
AcDbEntity
  8
BEMASSUNG
 62
     2
440
 16777216
100
AcDbTrace
 10
263.6050483570163
 20
735.4801173583492
 30
0.0
 11
267.6050483570163
 21
735.4801173583492
 31
0.0
 12
265.6050483570163
 22
723.4801173583492
 32
0.0
 13
265.6050483570163
 23
723.4801173583492
 33
0.0
  0
MTEXT
  5
231
330
22A
100
AcDbEntity
  8
BEMASSUNG
 62
     3
440
 16777216
100
AcDbMText
 10
258.509891467521
 20
858.4801173583493
 30
0.0
 40
9.0
 41
0.0
 46
0.0
 71
     5
 72
     1
  1
\A1;270
  7
ARIAL-STANDARD
 11
0.0000000000000001
 21
1.0
 31
0.0
 73
     1
 44
1.0
  0
POINT
  5
232
330
22A
100
AcDbEntity
  8
DEFPOINTS
 62
     0
440
 16777216
100
AcDbPoint
 10
310.8285181720386
 20
993.4801173583492
 30
0.0
  0
POINT
  5
233
330
22A
100
AcDbEntity
  8
DEFPOINTS
 62
     0
440
 16777216
100
AcDbPoint
 10
310.8285181720386
 20
723.4801173583492
 30
0.0
  0
POINT
  5
234
330
22A
100
AcDbEntity
  8
DEFPOINTS
 62
     0
440
 16777216
100
AcDbPoint
 10
265.6050483570163
 20
723.4801173583492
 30
0.0
  0
ENDBLK
  5
235
330
22A
100
AcDbEntity
  8
0
100
AcDbBlockEnd
  0
BLOCK
  5
23F
330
23E
100
AcDbEntity
  8
0
100
AcDbBlockBegin
  2
*D19
 70
     1
 10
0.0
 20
0.0
 30
0.0
  3
*D19
  1

  0
LINE
  5
240
330
23E
100
AcDbEntity
  8
BEMASSUNG
 62
     2
440
 16777216
370
    -2
100
AcDbLine
 10
303.3285181720386
 20
386.9729294499951
 30
0.0
 11
303.3285181720386
 21
371.0376080721371
 31
0.0
  0
LINE
  5
241
330
23E
100
AcDbEntity
  8
BEMASSUNG
 62
     2
440
 16777216
370
    -2
100
AcDbLine
 10
318.3285181720387
 20
386.9729294499951
 30
0.0
 11
318.3285181720387
 21
371.0376080721371
 31
0.0
  0
LINE
  5
242
330
23E
100
AcDbEntity
  8
BEMASSUNG
 62
     2
440
 16777216
370
    -2
100
AcDbLine
 10
291.3285181720386
 20
372.0376080721371
 30
0.0
 11
279.3285181720386
 21
372.0376080721371
 31
0.0
  0
LINE
  5
243
330
23E
100
AcDbEntity
  8
BEMASSUNG
 62
     2
440
 16777216
370
    -2
100
AcDbLine
 10
330.3285181720387
 20
372.0376080721371
 30
0.0
 11
342.3285181720387
 21
372.0376080721371
 31
0.0
  0
LINE
  5
244
330
23E
100
AcDbEntity
  8
BEMASSUNG
 62
     2
440
 16777216
370
    -2
100
AcDbLine
 10
303.3285181720386
 20
372.0376080721371
 30
0.0
 11
318.3285181720387
 21
372.0376080721371
 31
0.0
  0
SOLID
  5
245
330
23E
100
AcDbEntity
  8
BEMASSUNG
 62
     2
440
 16777216
100
AcDbTrace
 10
291.3285181720386
 20
374.0376080721371
 30
0.0
 11
291.3285181720386
 21
370.0376080721371
 31
0.0
 12
303.3285181720386
 22
372.0376080721371
 32
0.0
 13
303.3285181720386
 23
372.0376080721371
 33
0.0
  0
SOLID
  5
246
330
23E
100
AcDbEntity
  8
BEMASSUNG
 62
     2
440
 16777216
100
AcDbTrace
 10
330.3285181720387
 20
374.0376080721371
 30
0.0
 11
330.3285181720387
 21
370.0376080721371
 31
0.0
 12
318.3285181720387
 22
372.0376080721371
 32
0.0
 13
318.3285181720387
 23
372.0376080721371
 33
0.0
  0
MTEXT
  5
247
330
23E
100
AcDbEntity
  8
BEMASSUNG
 62
     3
440
 16777216
100
AcDbMText
 10
310.8285181720386
 20
379.1327649616323
 30
0.0
 40
9.0
 41
0.0
 46
0.0
 71
     5
 72
     1
  1
\A1;15
  7
ARIAL-STANDARD
 73
     1
 44
1.0
  0
POINT
  5
248
330
23E
100
AcDbEntity
  8
DEFPOINTS
 62
     0
440
 16777216
100
AcDbPoint
 10
303.3285181720386
 20
386.9729294499951
 30
0.0
  0
POINT
  5
249
330
23E
100
AcDbEntity
  8
DEFPOINTS
 62
     0
440
 16777216
100
AcDbPoint
 10
318.3285181720387
 20
386.9729294499951
 30
0.0
  0
POINT
  5
24A
330
23E
100
AcDbEntity
  8
DEFPOINTS
 62
     0
440
 16777216
100
AcDbPoint
 10
318.3285181720387
 20
372.0376080721371
 30
0.0
  0
ENDBLK
  5
24B
330
23E
100
AcDbEntity
  8
0
100
AcDbBlockEnd
  0
BLOCK
  5
295
330
294
100
AcDbEntity
  8
0
100
AcDbBlockBegin
  2
*D20
 70
     1
 10
0.0
 20
0.0
 30
0.0
  3
*D20
  1

  0
LINE
  5
296
330
294
100
AcDbEntity
  8
BEMASSUNG
 62
     2
440
 16777216
370
    -2
100
AcDbLine
 10
298.8285181720403
 20
145.5972726480934
 30
0.0
 11
282.3999123214422
 21
145.5972726480934
 31
0.0
  0
LINE
  5
297
330
294
100
AcDbEntity
  8
BEMASSUNG
 62
     2
440
 16777216
370
    -2
100
AcDbLine
 10
298.8285181720396
 20
142.5972726480934
 30
0.0
 11
282.3999123214422
 21
142.5972726480934
 31
0.0
  0
LINE
  5
298
330
294
100
AcDbEntity
  8
BEMASSUNG
 62
     2
440
 16777216
370
    -2
100
AcDbLine
 10
283.3999123214422
 20
157.5972726480934
 30
0.0
 11
283.3999123214422
 21
169.5972726480934
 31
0.0
  0
LINE
  5
299
330
294
100
AcDbEntity
  8
BEMASSUNG
 62
     2
440
 16777216
370
    -2
100
AcDbLine
 10
283.3999123214422
 20
130.5972726480934
 30
0.0
 11
283.3999123214421
 21
118.5972726480934
 31
0.0
  0
LINE
  5
29A
330
294
100
AcDbEntity
  8
BEMASSUNG
 62
     2
440
 16777216
370
    -2
100
AcDbLine
 10
283.3999123214422
 20
145.5972726480934
 30
0.0
 11
283.3999123214422
 21
142.5972726480934
 31
0.0
  0
SOLID
  5
29B
330
294
100
AcDbEntity
  8
BEMASSUNG
 62
     2
440
 16777216
100
AcDbTrace
 10
281.3999123214422
 20
157.5972726480934
 30
0.0
 11
285.3999123214422
 21
157.5972726480934
 31
0.0
 12
283.3999123214422
 22
145.5972726480934
 32
0.0
 13
283.3999123214422
 23
145.5972726480934
 33
0.0
  0
SOLID
  5
29C
330
294
100
AcDbEntity
  8
BEMASSUNG
 62
     2
440
 16777216
100
AcDbTrace
 10
281.3999123214422
 20
130.5972726480934
 30
0.0
 11
285.3999123214422
 21
130.5972726480934
 31
0.0
 12
283.3999123214422
 22
142.5972726480934
 32
0.0
 13
283.3999123214422
 23
142.5972726480934
 33
0.0
  0
MTEXT
  5
29D
330
294
100
AcDbEntity
  8
BEMASSUNG
 62
     3
440
 16777216
100
AcDbMText
 10
271.7034593882906
 20
141.1504786508219
 30
0.0
 40
9.0
 41
0.0
 46
0.0
 71
     1
 72
     1
  1
\A1;3
  7
ARIAL-STANDARD
 11
0.0000000000000001
 21
1.0
 31
0.0
 73
     1
 44
1.0
  0
POINT
  5
29E
330
294
100
AcDbEntity
  8
DEFPOINTS
 62
     0
440
 16777216
100
AcDbPoint
 10
298.8285181720403
 20
145.5972726480934
 30
0.0
  0
POINT
  5
29F
330
294
100
AcDbEntity
  8
DEFPOINTS
 62
     0
440
 16777216
100
AcDbPoint
 10
298.8285181720396
 20
142.5972726480934
 30
0.0
  0
POINT
  5
2A0
330
294
100
AcDbEntity
  8
DEFPOINTS
 62
     0
440
 16777216
100
AcDbPoint
 10
283.3999123214422
 20
142.5972726480934
 30
0.0
  0
ENDBLK
  5
2A1
330
294
100
AcDbEntity
  8
0
100
AcDbBlockEnd
  0
BLOCK
  5
285
330
284
100
AcDbEntity
  8
0
100
AcDbBlockBegin
  2
*D21
 70
     1
 10
0.0
 20
0.0
 30
0.0
  3
*D21
  1

  0
LINE
  5
286
330
284
100
AcDbEntity
  8
UMRISS05
 62
     2
440
 16777216
370
    -2
100
AcDbLine
 10
322.8285181720397
 20
142.5972726480861
 30
0.0
 11
322.8285181720397
 21
114.8436893072456
 31
0.0
  0
LINE
  5
287
330
284
100
AcDbEntity
  8
UMRISS05
 62
     2
440
 16777216
370
    -2
100
AcDbLine
 10
298.8285181720396
 20
142.5972726480917
 30
0.0
 11
298.8285181720396
 21
114.8436893072456
 31
0.0
  0
LINE
  5
288
330
284
100
AcDbEntity
  8
UMRISS05
 62
     2
440
 16777216
370
    -2
100
AcDbLine
 10
334.8285181720397
 20
115.8436893072456
 30
0.0
 11
346.8285181720397
 21
115.8436893072456
 31
0.0
  0
LINE
  5
289
330
284
100
AcDbEntity
  8
UMRISS05
 62
     2
440
 16777216
370
    -2
100
AcDbLine
 10
286.8285181720397
 20
115.8436893072456
 30
0.0
 11
274.8285181720396
 21
115.8436893072456
 31
0.0
  0
LINE
  5
28A
330
284
100
AcDbEntity
  8
UMRISS05
 62
     2
440
 16777216
370
    -2
100
AcDbLine
 10
322.8285181720397
 20
115.8436893072456
 30
0.0
 11
298.8285181720396
 21
115.8436893072456
 31
0.0
  0
SOLID
  5
28B
330
284
100
AcDbEntity
  8
UMRISS05
 62
     2
440
 16777216
100
AcDbTrace
 10
334.8285181720397
 20
117.8436893072456
 30
0.0
 11
334.8285181720397
 21
113.8436893072456
 31
0.0
 12
322.8285181720397
 22
115.8436893072456
 32
0.0
 13
322.8285181720397
 23
115.8436893072456
 33
0.0
  0
SOLID
  5
28C
330
284
100
AcDbEntity
  8
UMRISS05
 62
     2
440
 16777216
100
AcDbTrace
 10
286.8285181720397
 20
117.8436893072456
 30
0.0
 11
286.8285181720397
 21
113.8436893072456
 31
0.0
 12
298.8285181720396
 22
115.8436893072456
 32
0.0
 13
298.8285181720396
 23
115.8436893072456
 33
0.0
  0
MTEXT
  5
28D
330
284
100
AcDbEntity
  8
UMRISS05
 62
     3
440
 16777216
100
AcDbMText
 10
310.8285181720396
 20
122.8621067697285
 30
0.0
 40
9.0
 41
0.0
 46
0.0
 71
     5
 72
     1
  1
\A1;24
  7
ARIAL-STANDARD
 73
     1
 44
1.0
  0
POINT
  5
28E
330
284
100
AcDbEntity
  8
DEFPOINTS
 62
     0
440
 16777216
100
AcDbPoint
 10
322.8285181720397
 20
142.5972726480861
 30
0.0
  0
POINT
  5
28F
330
284
100
AcDbEntity
  8
DEFPOINTS
 62
     0
440
 16777216
100
AcDbPoint
 10
298.8285181720396
 20
142.5972726480917
 30
0.0
  0
POINT
  5
290
330
284
100
AcDbEntity
  8
DEFPOINTS
 62
     0
440
 16777216
100
AcDbPoint
 10
298.8285181720396
 20
115.8436893072456
 30
0.0
  0
ENDBLK
  5
291
330
284
100
AcDbEntity
  8
0
100
AcDbBlockEnd
  0
BLOCK
  5
F4
330
F3
100
AcDbEntity
  8
0
100
AcDbBlockBegin
  2
*D22
 70
     1
 10
0.0
 20
0.0
 30
0.0
  3
*D22
  1

  0
LINE
  5
F5
330
F3
100
AcDbEntity
  8
BEMASSUNG
 62
     2
440
 16777216
370
    -2
100
AcDbLine
 10
322.8285181720386
 20
964.4801173583493
 30
0.0
 11
322.8285181720386
 21
949.3245993331893
 31
0.0
  0
LINE
  5
F6
330
F3
100
AcDbEntity
  8
BEMASSUNG
 62
     2
440
 16777216
370
    -2
100
AcDbLine
 10
310.8285181720388
 20
941.2301173583493
 30
0.0
 11
310.8285181720388
 21
951.3245993331892
 31
0.0
  0
LINE
  5
F7
330
F3
100
AcDbEntity
  8
BEMASSUNG
 62
     2
440
 16777216
370
    -2
100
AcDbLine
 10
334.8285181720386
 20
950.3245993331892
 30
0.0
 11
346.8285181720386
 21
950.3245993331892
 31
0.0
  0
LINE
  5
F8
330
F3
100
AcDbEntity
  8
BEMASSUNG
 62
     2
440
 16777216
370
    -2
100
AcDbLine
 10
298.8285181720387
 20
950.3245993331892
 30
0.0
 11
286.8285181720387
 21
950.3245993331892
 31
0.0
  0
LINE
  5
F9
330
F3
100
AcDbEntity
  8
BEMASSUNG
 62
     2
440
 16777216
370
    -2
100
AcDbLine
 10
322.8285181720386
 20
950.3245993331892
 30
0.0
 11
310.8285181720388
 21
950.3245993331892
 31
0.0
  0
SOLID
  5
FA
330
F3
100
AcDbEntity
  8
BEMASSUNG
 62
     2
440
 16777216
100
AcDbTrace
 10
334.8285181720386
 20
952.3245993331894
 30
0.0
 11
334.8285181720386
 21
948.3245993331891
 31
0.0
 12
322.8285181720386
 22
950.3245993331892
 32
0.0
 13
322.8285181720386
 23
950.3245993331892
 33
0.0
  0
SOLID
  5
FB
330
F3
100
AcDbEntity
  8
BEMASSUNG
 62
     2
440
 16777216
100
AcDbTrace
 10
298.8285181720387
 20
952.3245993331894
 30
0.0
 11
298.8285181720387
 21
948.3245993331891
 31
0.0
 12
310.8285181720388
 22
950.3245993331892
 32
0.0
 13
310.8285181720388
 23
950.3245993331892
 33
0.0
  0
MTEXT
  5
FC
330
F3
100
AcDbEntity
  8
BEMASSUNG
 62
     3
440
 16777216
100
AcDbMText
 10
316.8285181720387
 20
957.3430167956722
 30
0.0
 40
9.0
 41
0.0
 46
0.0
 71
     5
 72
     1
  1
\A1;12
  7
ARIAL-STANDARD
 73
     1
 44
1.0
  0
POINT
  5
FD
330
F3
100
AcDbEntity
  8
DEFPOINTS
 62
     0
440
 16777216
100
AcDbPoint
 10
322.8285181720386
 20
964.4801173583493
 30
0.0
  0
POINT
  5
FE
330
F3
100
AcDbEntity
  8
DEFPOINTS
 62
     0
440
 16777216
100
AcDbPoint
 10
310.8285181720388
 20
941.2301173583493
 30
0.0
  0
POINT
  5
FF
330
F3
100
AcDbEntity
  8
DEFPOINTS
 62
     0
440
 16777216
100
AcDbPoint
 10
310.8285181720388
 20
950.3245993331892
 30
0.0
  0
ENDBLK
  5
100
330
F3
100
AcDbEntity
  8
0
100
AcDbBlockEnd
  0
BLOCK
  5
2EE
330
2ED
100
AcDbEntity
  8
0
100
AcDbBlockBegin
  2
_ACMFILLED30
 70
     0
 10
0.0
 20
0.0
 30
0.0
  3
_ACMFILLED30
  1

  0
TRACE
  5
2EF
330
2ED
100
AcDbEntity
  8
BEMASSUNG
 62
     0
100
AcDbTrace
 10
-1.0
 20
-0.26794919
 30
0.0
 11
-1.0
 21
0.26794919
 31
0.0
 12
0.0
 22
0.0
 32
0.0
 13
0.0
 23
0.0
 33
0.0
  0
ENDBLK
  5
2F0
330
2ED
100
AcDbEntity
  8
0
100
AcDbBlockEnd
  0
BLOCK
  5
DC
330
DB
100
AcDbEntity
  8
0
100
AcDbBlockBegin
  2
*D24
 70
     1
 10
0.0
 20
0.0
 30
0.0
  3
*D24
  1

  0
LINE
  5
DD
330
DB
100
AcDbEntity
  8
BEMASSUNG
 62
     2
440
 16777216
370
    -2
100
AcDbLine
 10
316.8664619614842
 20
888.4801173583495
 30
0.0
 11
316.8664619614842
 21
869.2838496613298
 31
0.0
  0
LINE
  5
DE
330
DB
100
AcDbEntity
  8
BEMASSUNG
 62
     2
440
 16777216
370
    -2
100
AcDbLine
 10
322.8285181720385
 20
868.5099499550785
 30
0.0
 11
322.8285181720385
 21
871.2838496613297
 31
0.0
  0
LINE
  5
DF
330
DB
100
AcDbEntity
  8
BEMASSUNG
 62
     2
440
 16777216
370
    -2
100
AcDbLine
 10
334.8285181720385
 20
870.2838496613297
 30
0.0
 11
346.8285181720385
 21
870.2838496613297
 31
0.0
  0
LINE
  5
E0
330
DB
100
AcDbEntity
  8
BEMASSUNG
 62
     2
440
 16777216
370
    -2
100
AcDbLine
 10
304.8664619614842
 20
870.2838496613297
 30
0.0
 11
267.9295588236943
 21
870.2838496613297
 31
0.0
  0
LINE
  5
E1
330
DB
100
AcDbEntity
  8
BEMASSUNG
 62
     2
440
 16777216
370
    -2
100
AcDbLine
 10
322.8285181720385
 20
870.2838496613297
 30
0.0
 11
316.8664619614842
 21
870.2838496613297
 31
0.0
  0
SOLID
  5
E2
330
DB
100
AcDbEntity
  8
BEMASSUNG
 62
     2
440
 16777216
100
AcDbTrace
 10
334.8285181720385
 20
872.2838496613297
 30
0.0
 11
334.8285181720385
 21
868.2838496613298
 31
0.0
 12
322.8285181720385
 22
870.2838496613297
 32
0.0
 13
322.8285181720385
 23
870.2838496613297
 33
0.0
  0
SOLID
  5
E3
330
DB
100
AcDbEntity
  8
BEMASSUNG
 62
     2
440
 16777216
100
AcDbTrace
 10
304.8664619614842
 20
872.2838496613297
 30
0.0
 11
304.8664619614842
 21
868.2838496613298
 31
0.0
 12
316.8664619614842
 22
870.2838496613297
 32
0.0
 13
316.8664619614842
 23
870.2838496613297
 33
0.0
  0
MTEXT
  5
E4
330
DB
100
AcDbEntity
  8
BEMASSUNG
 62
     3
440
 16777216
100
AcDbMText
 10
278.6805820160545
 20
877.3790065508253
 30
0.0
 40
9.0
 41
0.0
 46
0.0
 71
     5
 72
     1
  1
\A1;6.5
  7
ARIAL-STANDARD
 73
     1
 44
1.0
  0
POINT
  5
E5
330
DB
100
AcDbEntity
  8
DEFPOINTS
 62
     0
440
 16777216
100
AcDbPoint
 10
316.8664619614842
 20
888.4801173583495
 30
0.0
  0
POINT
  5
E6
330
DB
100
AcDbEntity
  8
DEFPOINTS
 62
     0
440
 16777216
100
AcDbPoint
 10
322.8285181720385
 20
868.5099499550785
 30
0.0
  0
POINT
  5
E7
330
DB
100
AcDbEntity
  8
DEFPOINTS
 62
     0
440
 16777216
100
AcDbPoint
 10
322.8285181720385
 20
870.2838496613297
 30
0.0
  0
ENDBLK
  5
E8
330
DB
100
AcDbEntity
  8
0
100
AcDbBlockEnd
  0
ENDSEC
  0
SECTION
  2
ENTITIES
  0
MTEXT
  5
7C
330
2
100
AcDbEntity
  8
UMRISS05
 62
     3
100
AcDbMText
 10
310.0
 20
1467.281785893487
 30
0.0
 40
10.0
 41
0.0
 46
0.0
 71
     5
 72
     1
  1
\A1;B-23421.\PRE3243 
  7
ARIAL-STANDARD
 73
     1
 44
1.0
  0
MTEXT
  5
80
330
2
100
AcDbEntity
  8
UMRISS05
 62
     3
100
AcDbMText
 10
312.4425943869733
 20
1420.800363801728
 30
0.0
 40
8.0
 41
0.0
 46
0.0
 71
     5
 72
     1
  1
\A1;rechts / links\Pverwendbar
  7
ARIAL-STANDARD
 73
     1
 44
1.0
  0
MTEXT
  5
81
330
2
100
AcDbEntity
  8
UMRISS05
 62
     3
100
AcDbMText
 10
310.0
 20
1360.0
 30
0.0
 40
8.0
 41
0.0
 46
0.0
 71
     5
 72
     1
  1
\A1;B-23421Z.\P4343
  7
ARIAL-STANDARD
 73
     1
 44
1.0
  0
LINE
  5
82
330
2
100
AcDbEntity
  8
ACHSEN
 48
0.5
100
AcDbLine
 10
310.8285181720384
 20
1202.972929449996
 30
0.0
 11
310.8285181720384
 21
1187.972929449996
 31
0.0
  0
LINE
  5
87
330
2
100
AcDbEntity
  8
ACHSEN
 48
0.5
100
AcDbLine
 10
319.2538108891601
 20
1195.472929449996
 30
0.0
 11
301.0464277204932
 21
1195.472929449996
 31
0.0
  0
LINE
  5
88
330
2
100
AcDbEntity
  8
ACHSEN
 48
0.5
100
AcDbLine
 10
310.8285181720384
 20
1288.972929449996
 30
0.0
 11
310.8285181720384
 21
1273.972929449995
 31
0.0
  0
LINE
  5
89
330
2
100
AcDbEntity
  8
ACHSEN
 48
0.5
100
AcDbLine
 10
318.5001001096452
 20
1281.472929449994
 30
0.0
 11
303.2726833394199
 21
1281.472929449994
 31
0.0
  0
DIMENSION
  5
8A
330
2
100
AcDbEntity
  8
BEMASSUNG
100
AcDbDimension
280
     0
  2
*D17
 10
318.3285181720385
 20
1203.031519650623
 30
0.0
 11
351.2201711325695
 21
1203.031519650623
 31
0.0
 70
   128
 71
     5
 42
15.00000000000017
 73
     0
 74
     0
 75
     0
  3
Katalog 09
100
AcDbAlignedDimension
 13
303.3285181720383
 23
1218.791938310281
 33
0.0
 14
318.3285181720385
 24
1218.791938310281
 34
0.0
100
AcDbRotatedDimension
  0
DIMENSION
  5
9D
330
2
100
AcDbEntity
  8
BEMASSUNG
100
AcDbDimension
280
     0
  2
*D16
 10
322.8285181720385
 20
1158.501188961193
 30
0.0
 11
310.8285181720384
 21
1165.519606423676
 31
0.0
 71
     5
 42
24.0
 73
     0
 74
     0
 75
     0
  3
Katalog 09
100
AcDbAlignedDimension
 13
298.8285181720385
 23
1195.472929449995
 33
0.0
 14
322.8285181720385
 24
1195.472929449995
 34
0.0
100
AcDbRotatedDimension
  0
DIMENSION
  5
AC
330
2
100
AcDbEntity
  8
AM_0
100
AcDbDimension
280
     0
  2
*D3
 10
290.5177745462752
 20
1214.972929449996
 30
0.0
 11
290.5177745462749
 21
1239.411115620513
 31
0.0
 70
   128
  1
<>
 71
     5
 42
47.0
 73
     0
 74
     0
 75
     0
  3
Katalog 09
100
AcDbAlignedDimension
 13
305.3285181720383
 23
1261.972929449996
 33
0.0
 14
305.3285181720383
 24
1214.972929449996
 34
0.0
 50
90.0
100
AcDbRotatedDimension
1001
ACAD_DSTYLE_DIMINSPECT
1070
   396
1000
100%
1070
   395
1000

1070
   394
1070
    33
1070
   393
1070
     0
  0
DIMENSION
  5
BC
330
2
100
AcDbEntity
  8
AM_0
100
AcDbDimension
280
     0
  2
*D2
 10
270.8559939747157
 20
1183.472929449996
 30
0.0
 11
270.8559939747154
 21
1238.660772473515
 31
0.0
 70
   128
  1
<>
 71
     5
 42
110.0
 73
     0
 74
     0
 75
     0
  3
Katalog 09
100
AcDbAlignedDimension
 13
310.8285181720384
 23
1293.472929449996
 33
0.0
 14
310.8285181720384
 24
1183.472929449996
 34
0.0
 50
90.0
100
AcDbRotatedDimension
1001
ACAD_DSTYLE_DIMINSPECT
1070
   396
1000
100%
1070
   395
1000

1070
   394
1070
    33
1070
   393
1070
     0
  0
LINE
  5
C9
330
2
100
AcDbEntity
  8
UMRISS05
100
AcDbLine
 10
298.8285181720385
 20
1195.472929449995
 30
0.0
 11
298.8285181720383
 21
1281.472929449996
 31
0.0
  0
ARC
  5
CA
330
2
100
AcDbEntity
  8
UMRISS05
100
AcDbCircle
 10
310.8285181720384
 20
1195.472929449995
 30
0.0
 40
12.0
100
AcDbArc
 50
180.0
 51
0.0
  0
LINE
  5
CB
330
2
100
AcDbEntity
  8
UMRISS05
100
AcDbLine
 10
322.8285181720385
 20
1281.472929449996
 30
0.0
 11
322.8285181720385
 21
1195.472929449995
 31
0.0
  0
ARC
  5
CC
330
2
100
AcDbEntity
  8
UMRISS05
100
AcDbCircle
 10
310.8285181720384
 20
1281.472929449996
 30
0.0
 40
12.0
100
AcDbArc
 50
0.0
 51
180.0
  0
CIRCLE
  5
CD
330
2
100
AcDbEntity
  8
UMRISS05
100
AcDbCircle
 10
310.8285181720384
 20
1281.472929449996
 30
0.0
 40
2.75
  0
CIRCLE
  5
CE
330
2
100
AcDbEntity
  8
UMRISS05
100
AcDbCircle
 10
310.8285181720384
 20
1281.472929449996
 30
0.0
 40
4.75
  0
CIRCLE
  5
CF
330
2
100
AcDbEntity
  8
UMRISS05
100
AcDbCircle
 10
310.8285181720384
 20
1195.472929449996
 30
0.0
 40
2.75
  0
CIRCLE
  5
D0
330
2
100
AcDbEntity
  8
UMRISS05
100
AcDbCircle
 10
310.8285181720384
 20
1195.472929449995
 30
0.0
 40
4.75
  0
LINE
  5
D1
330
2
100
AcDbEntity
  8
UMRISS05
100
AcDbLine
 10
303.3285181720383
 20
1216.972929449996
 30
0.0
 11
303.3285181720383
 21
1259.972929449995
 31
0.0
  0
ARC
  5
D2
330
2
100
AcDbEntity
  8
UMRISS05
100
AcDbCircle
 10
305.3285181720383
 20
1259.972929449995
 30
0.0
 40
1.999999999999992
100
AcDbArc
 50
90.0
 51
180.0
  0
LINE
  5
D3
330
2
100
AcDbEntity
  8
UMRISS05
100
AcDbLine
 10
305.3285181720383
 20
1261.972929449996
 30
0.0
 11
316.3285181720385
 21
1261.972929449996
 31
0.0
  0
ARC
  5
D4
330
2
100
AcDbEntity
  8
UMRISS05
100
AcDbCircle
 10
316.3285181720385
 20
1259.972929449995
 30
0.0
 40
2.0
100
AcDbArc
 50
0.0
 51
90.0
  0
LINE
  5
D5
330
2
100
AcDbEntity
  8
UMRISS05
100
AcDbLine
 10
318.3285181720385
 20
1259.972929449995
 30
0.0
 11
318.3285181720385
 21
1216.972929449996
 31
0.0
  0
ARC
  5
D6
330
2
100
AcDbEntity
  8
UMRISS05
100
AcDbCircle
 10
316.3285181720385
 20
1216.972929449996
 30
0.0
 40
2.0
100
AcDbArc
 50
270.0
 51
0.0
  0
LINE
  5
D7
330
2
100
AcDbEntity
  8
UMRISS05
100
AcDbLine
 10
316.3285181720385
 20
1214.972929449996
 30
0.0
 11
305.3285181720383
 21
1214.972929449996
 31
0.0
  0
ARC
  5
D8
330
2
100
AcDbEntity
  8
UMRISS05
100
AcDbCircle
 10
305.3285181720383
 20
1216.972929449996
 30
0.0
 40
1.999999999999999
100
AcDbArc
 50
180.0
 51
270.0
  0
MTEXT
  5
D9
330
2
100
AcDbEntity
  8
UMRISS05
 62
     3
100
AcDbMText
 10
311.6899954017599
 20
1070.0
 30
0.0
 40
8.0
 41
0.0
 46
0.0
 71
     5
 72
     1
  1
\A1;B-23421.\PHRE1243
  7
ARIAL-STANDARD
 73
     1
 44
1.0
  0
DIMENSION
  5
DA
330
2
100
AcDbEntity
  8
BEMASSUNG
100
AcDbDimension
280
     0
  2
*D24
 10
322.8285181720385
 20
870.2838496613297
 30
0.0
 11
278.6805820160545
 21
870.2838496613297
 31
0.0
 70
   128
  1
6.5
 71
     5
 42
5.962056210554237
 73
     0
 74
     0
 75
     0
  3
Katalog 09$0
100
AcDbAlignedDimension
 13
316.8664619614842
 23
888.4801173583495
 33
0.0
 14
322.8285181720385
 24
868.5099499550785
 34
0.0
100
AcDbRotatedDimension
1001
ACAD
1000
DSTYLE
1002
{
1070
    41
1040
12.0
1070
   140
1040
9.0
1070
   147
1040
2.5
1002
}
1001
ACAD_DSTYLE_DIMINSPECT
1070
   396
1000
100%
1070
   395
1000

1070
   394
1070
    33
1070
   393
1070
     0
  0
LINE
  5
EA
330
2
100
AcDbEntity
  8
Verdeckte Kanten(MSL)
100
AcDbLine
 10
320.8664619614865
 20
888.4801173583493
 30
0.0
 11
316.8664619614865
 21
888.4801173583495
 31
0.0
  0
LINE
  5
ED
330
2
100
AcDbEntity
  8
Verdeckte Kanten(MSL)
100
AcDbLine
 10
316.8664619614865
 20
928.4801173583495
 30
0.0
 11
320.8664619614865
 21
928.4801173583492
 31
0.0
  0
LINE
  5
EE
330
2
100
AcDbEntity
  8
Verdeckte Kanten(MSL)
100
AcDbLine
 10
320.8664619614865
 20
928.4801173583492
 30
0.0
 11
320.8664619614865
 21
888.4801173583493
 31
0.0
  0
LINE
  5
EF
330
2
100
AcDbEntity
  8
Verdeckte Kanten(MSL)
100
AcDbLine
 10
316.8664619614865
 20
928.4801173583495
 30
0.0
 11
316.8664619614865
 21
888.4801173583495
 31
0.0
  0
LINE
  5
F0
330
2
100
AcDbEntity
  8
ACHSEN
 48
0.5
100
AcDbLine
 10
304.0785181720388
 20
934.7301173583492
 30
0.0
 11
317.5785181720387
 21
934.7301173583492
 31
0.0
  0
LINE
  5
F1
330
2
100
AcDbEntity
  8
ACHSEN
 48
0.5
100
AcDbLine
 10
310.8285181720388
 20
941.4801173583493
 30
0.0
 11
310.8285181720388
 21
927.9801173583493
 31
0.0
  0
DIMENSION
  5
F2
330
2
100
AcDbEntity
  8
BEMASSUNG
100
AcDbDimension
280
     0
  2
*D22
 10
310.8285181720388
 20
950.3245993331892
 30
0.0
 11
316.8285181720387
 21
957.3430167956722
 31
0.0
 71
     5
 42
11.99999999999983
 73
     0
 74
     0
 75
     0
  3
Katalog 09
100
AcDbAlignedDimension
 13
322.8285181720386
 23
964.4801173583493
 33
0.0
 14
310.8285181720388
 24
941.2301173583493
 34
0.0
100
AcDbRotatedDimension
  0
LINE
  5
101
330
2
100
AcDbEntity
  8
ACHSEN
 48
0.5
100
AcDbLine
 10
304.0785181720388
 20
736.4801173583493
 30
0.0
 11
317.5785181720388
 21
736.4801173583493
 31
0.0
  0
LINE
  5
102
330
2
100
AcDbEntity
  8
ACHSEN
 48
0.5
100
AcDbLine
 10
310.8285181720388
 20
743.2301173583493
 30
0.0
 11
310.8285181720388
 21
729.7301173583492
 31
0.0
  0
CIRCLE
  5
103
330
2
100
AcDbEntity
  8
UMRISS05
100
AcDbCircle
 10
310.8285181720388
 20
736.4801173583493
 30
0.0
 40
3.5
  0
LINE
  5
104
330
2
100
AcDbEntity
  8
ACHSEN
 48
0.5
100
AcDbLine
 10
304.0785181720386
 20
858.4801173583493
 30
0.0
 11
317.5785181720386
 21
858.4801173583493
 31
0.0
  0
LINE
  5
105
330
2
100
AcDbEntity
  8
ACHSEN
 48
0.5
100
AcDbLine
 10
310.8285181720386
 20
865.2301173583493
 30
0.0
 11
310.8285181720386
 21
851.7301173583492
 31
0.0
  0
CIRCLE
  5
106
330
2
100
AcDbEntity
  8
UMRISS05
100
AcDbCircle
 10
310.8285181720386
 20
858.4801173583493
 30
0.0
 40
3.5
  0
LINE
  5
107
330
2
100
AcDbEntity
  8
ACHSEN
 48
0.5
100
AcDbLine
 10
304.0785181720388
 20
778.2980052377742
 30
0.0
 11
317.5785181720388
 21
778.2980052377742
 31
0.0
  0
LINE
  5
108
330
2
100
AcDbEntity
  8
ACHSEN
 48
0.5
100
AcDbLine
 10
310.8285181720388
 20
785.0480052377742
 30
0.0
 11
310.8285181720388
 21
771.5480052377742
 31
0.0
  0
CIRCLE
  5
109
330
2
100
AcDbEntity
  8
UMRISS05
100
AcDbCircle
 10
310.8285181720388
 20
778.2980052377742
 30
0.0
 40
1.75
  0
LINE
  5
10A
330
2
100
AcDbEntity
  8
ACHSEN
 48
0.5
100
AcDbLine
 10
310.6351870579339
 20
787.2677825537267
 30
0.0
 11
310.6351870579339
 21
835.2677825537266
 31
0.0
  0
LINE
  5
10B
102
{ACAD_REACTORS
330
31E
102
}
330
2
100
AcDbEntity
  8
ACHSEN
 48
0.5
100
AcDbLine
 10
304.0785181720385
 20
980.480117358349
 30
0.0
 11
317.5785181720385
 21
980.480117358349
 31
0.0
  0
LINE
  5
10C
102
{ACAD_REACTORS
330
31F
102
}
330
2
100
AcDbEntity
  8
ACHSEN
 48
0.5
100
AcDbLine
 10
310.8285181720385
 20
987.230117358349
 30
0.0
 11
310.8285181720385
 21
973.7301173583492
 31
0.0
  0
LINE
  5
10D
330
2
100
AcDbEntity
  8
ACHSEN
 48
0.5
100
AcDbLine
 10
304.0785181720384
 20
882.230117358349
 30
0.0
 11
317.5785181720384
 21
882.230117358349
 31
0.0
  0
LINE
  5
10E
330
2
100
AcDbEntity
  8
ACHSEN
 48
0.5
100
AcDbLine
 10
310.8285181720384
 20
888.980117358349
 30
0.0
 11
310.8285181720384
 21
875.4801173583491
 31
0.0
  0
LINE
  5
10F
330
2
100
AcDbEntity
  8
ACHSEN
 48
0.5
100
AcDbLine
 10
304.0785181720388
 20
767.480117358349
 30
0.0
 11
317.5785181720388
 21
767.480117358349
 31
0.0
  0
LINE
  5
110
330
2
100
AcDbEntity
  8
ACHSEN
 48
0.5
100
AcDbLine
 10
310.8285181720388
 20
774.2301173583491
 30
0.0
 11
310.8285181720388
 21
760.730117358349
 31
0.0
  0
LINE
  5
111
330
2
100
AcDbEntity
  8
UMRISS05
100
AcDbLine
 10
298.8285181720387
 20
768.2677825537271
 30
0.0
 11
298.8285181720387
 21
854.2677825537271
 31
0.0
  0
LINE
  5
112
330
2
100
AcDbEntity
  8
UMRISS05
100
AcDbLine
 10
322.8285181720388
 20
854.2677825537271
 30
0.0
 11
322.8285181720388
 21
768.2677825537271
 31
0.0
  0
LINE
  5
113
330
2
100
AcDbEntity
  8
UMRISS05
100
AcDbLine
 10
303.3285181720386
 20
789.7677825537271
 30
0.0
 11
303.3285181720386
 21
829.9801173583492
 31
0.0
  0
LINE
  5
114
330
2
100
AcDbEntity
  8
UMRISS05
100
AcDbLine
 10
318.3285181720387
 20
829.9801173583492
 30
0.0
 11
318.3285181720387
 21
789.7677825537271
 31
0.0
  0
DIMENSION
  5
115
330
2
100
AcDbEntity
  8
BEMASSUNG
100
AcDbDimension
280
     0
  2
*D12
 10
281.4152044079531
 20
884.4801173583491
 30
0.0
 11
281.415204407953
 21
907.9670738814694
 31
0.0
 70
   128
  1
<>
 71
     5
 42
47.99999999999977
 73
     0
 74
     0
 75
     0
  3
Katalog 09
100
AcDbAlignedDimension
 13
316.2469452967847
 23
932.4801173583487
 33
0.0
 14
316.2469452967847
 24
884.4801173583491
 34
0.0
 50
90.0
100
AcDbRotatedDimension
1001
ACAD_DSTYLE_DIMINSPECT
1070
   396
1000
100%
1070
   395
1000

1070
   394
1070
    33
1070
   393
1070
     0
  0
LINE
  5
122
330
2
100
AcDbEntity
  8
ACHSEN
 48
0.8
100
AcDbLine
 10
301.9666454262944
 20
908.4801173583493
 30
0.0
 11
325.3285181720387
 21
908.4801173583493
 31
0.0
  0
DIMENSION
  5
123
330
2
100
AcDbEntity
  8
BEMASSUNG
100
AcDbDimension
280
     0
  2
*D11
 10
350.8285181720385
 20
1000.981411841997
 30
0.0
 11
329.1075896786717
 21
1000.981411841997
 31
0.0
 70
   128
  1
<>
 71
     5
 42
39.99999999999995
 73
     0
 74
     0
 75
     0
  3
Katalog 09
100
AcDbAlignedDimension
 13
310.8285181720385
 23
987.230117358349
 33
0.0
 14
350.8285181720385
 24
962.4801173583492
 34
0.0
100
AcDbRotatedDimension
1001
ACAD_DSTYLE_DIMINSPECT
1070
   396
1000
100%
1070
   395
1000

1070
   394
1070
    33
1070
   393
1070
     0
  0
DIMENSION
  5
130
330
2
100
AcDbEntity
  8
BEMASSUNG
100
AcDbDimension
280
     0
  2
*D10
 10
364.9735164246016
 20
963.4801173583493
 30
0.0
 11
364.9735164246013
 21
977.5436618287963
 31
0.0
 70
   128
  1
<>
 71
     5
 42
30.0
 73
     0
 74
     0
 75
     0
  3
Katalog 09
100
AcDbAlignedDimension
 13
310.8285181720386
 23
993.4801173583492
 33
0.0
 14
349.8285181720385
 24
963.4801173583493
 34
0.0
 50
90.0
100
AcDbRotatedDimension
1001
ACAD_DSTYLE_DIMINSPECT
1070
   396
1000
100%
1070
   395
1000

1070
   394
1070
    33
1070
   393
1070
     0
  0
DIMENSION
  5
13D
330
2
100
AcDbEntity
  8
BEMASSUNG
100
AcDbDimension
280
     0
  2
*D9
 10
318.3285181720387
 20
838.7810986170416
 30
0.0
 11
310.8285181720387
 21
838.7810986170416
 31
0.0
 70
   128
  1
<>
 71
     5
 42
15.00000000000006
 73
     0
 74
     0
 75
     0
  3
Katalog 09
100
AcDbAlignedDimension
 13
303.3285181720386
 23
829.9801173583492
 33
0.0
 14
318.3285181720387
 24
829.9801173583492
 34
0.0
100
AcDbRotatedDimension
1001
ACAD_DSTYLE_DIMINSPECT
1070
   396
1000
100%
1070
   395
1000

1070
   394
1070
    33
1070
   393
1070
     0
  0
LINE
  5
14C
330
2
100
AcDbEntity
  8
ACHSEN
 48
0.8
100
AcDbLine
 10
296.7170972421686
 20
808.4801173583493
 30
0.0
 11
326.9585500710246
 21
808.4801173583493
 31
0.0
  0
DIMENSION
  5
14D
330
2
100
AcDbEntity
  8
BEMASSUNG
100
AcDbDimension
280
     0
  2
*D8
 10
364.9735164246016
 20
723.4801173583492
 30
0.0
 11
364.9735164246014
 21
812.2301173583492
 31
0.0
 70
   128
  1
<>
 71
     5
 42
150.0
 73
     0
 74
     0
 75
     0
  3
Katalog 09
100
AcDbAlignedDimension
 13
349.8285181720386
 23
873.4801173583493
 33
0.0
 14
310.8285181720386
 24
723.4801173583492
 34
0.0
 50
90.0
100
AcDbRotatedDimension
1001
ACAD_DSTYLE_DIMINSPECT
1070
   396
1000
100%
1070
   395
1000

1070
   394
1070
    33
1070
   393
1070
     0
  0
DIMENSION
  5
15A
330
2
100
AcDbEntity
  8
BEMASSUNG
100
AcDbDimension
280
     0
  2
*D7
 10
364.9735164246016
 20
873.4801173583493
 30
0.0
 11
364.9735164246014
 21
908.4801173583493
 31
0.0
 70
   128
  1
<>
 71
     5
 42
90.0
 73
     0
 74
     0
 75
     0
  3
Katalog 09
100
AcDbAlignedDimension
 13
349.8285181720385
 23
963.4801173583493
 33
0.0
 14
349.8285181720386
 24
873.4801173583493
 34
0.0
 50
90.0
100
AcDbRotatedDimension
1001
ACAD_DSTYLE_DIMINSPECT
1070
   396
1000
100%
1070
   395
1000

1070
   394
1070
    33
1070
   393
1070
     0
  0
DIMENSION
  5
167
330
2
100
AcDbEntity
  8
BEMASSUNG
100
AcDbDimension
280
     0
  2
*D6
 10
322.8285181720386
 20
695.4112067034446
 30
0.0
 11
310.8285181720386
 21
695.4112067034446
 31
0.0
 70
   128
  1
<>
 71
     5
 42
24.0
 73
     0
 74
     0
 75
     0
  3
Katalog 09
100
AcDbAlignedDimension
 13
298.8285181720386
 23
735.4801173583492
 33
0.0
 14
322.8285181720386
 24
735.4801173583492
 34
0.0
 50
180.0
100
AcDbRotatedDimension
1001
ACAD_DSTYLE_DIMINSPECT
1070
   396
1000
100%
1070
   395
1000

1070
   394
1070
    33
1070
   393
1070
     0
  0
DIMENSION
  5
176
330
2
100
AcDbEntity
  8
BEMASSUNG
100
AcDbDimension
280
     0
  2
*D5
 10
284.4179692919864
 20
831.9801173583492
 30
0.0
 11
284.4179692919863
 21
808.4801173583493
 31
0.0
 70
   128
  1
<>
 71
     5
 42
47.0
 73
     0
 74
     0
 75
     0
  3
Katalog 09
100
AcDbAlignedDimension
 13
305.3285181720387
 23
784.9801173583492
 33
0.0
 14
305.3285181720387
 24
831.9801173583492
 34
0.0
 50
90.0
100
AcDbRotatedDimension
1001
ACAD_DSTYLE_DIMINSPECT
1070
   396
1000
100%
1070
   395
1000

1070
   394
1070
    33
1070
   393
1070
     0
  0
DIMENSION
  5
183
330
2
100
AcDbEntity
  8
BEMASSUNG
100
AcDbDimension
280
     0
  2
*D4
 10
295.0618591871146
 20
930.480117358349
 30
0.0
 11
295.0618591871144
 21
907.9670738814694
 31
0.0
 70
   128
  1
<>
 71
     5
 42
44.0
 73
     0
 74
     0
 75
     0
  3
Katalog 09
100
AcDbAlignedDimension
 13
304.7285181720385
 23
886.480117358349
 33
0.0
 14
304.7285181720385
 24
930.480117358349
 34
0.0
 50
90.0
100
AcDbRotatedDimension
1001
ACAD_DSTYLE_DIMINSPECT
1070
   396
1000
100%
1070
   395
1000

1070
   394
1070
    33
1070
   393
1070
     0
  0
ARC
  5
190
330
2
100
AcDbEntity
  8
UMRISS05
100
AcDbCircle
 10
330.7285181720386
 20
958.4801173583493
 30
0.0
 40
0.1
100
AcDbArc
 50
0.0
 51
180.0
  0
LINE
  5
191
330
2
100
AcDbEntity
  8
UMRISS05
100
AcDbLine
 10
330.6285181720386
 20
878.4801173583492
 30
0.0
 11
330.6285181720386
 21
958.4801173583493
 31
0.0
  0
ARC
  5
192
330
2
100
AcDbEntity
  8
UMRISS05
100
AcDbCircle
 10
330.7285181720386
 20
878.4801173583492
 30
0.0
 40
0.1
100
AcDbArc
 50
180.0
 51
0.0
  0
LINE
  5
193
330
2
100
AcDbEntity
  8
UMRISS05
100
AcDbLine
 10
330.8285181720386
 20
958.4801173583493
 30
0.0
 11
330.8285181720386
 21
878.4801173583492
 31
0.0
  0
ARC
  5
194
330
2
100
AcDbEntity
  8
UMRISS05
100
AcDbCircle
 10
342.7285181720387
 20
958.4801173583493
 30
0.0
 40
0.1
100
AcDbArc
 50
0.0
 51
180.0
  0
LINE
  5
195
330
2
100
AcDbEntity
  8
UMRISS05
100
AcDbLine
 10
342.6285181720386
 20
878.4801173583492
 30
0.0
 11
342.6285181720386
 21
958.4801173583493
 31
0.0
  0
ARC
  5
196
330
2
100
AcDbEntity
  8
UMRISS05
100
AcDbCircle
 10
342.7285181720386
 20
878.4801173583492
 30
0.0
 40
0.1
100
AcDbArc
 50
180.0
 51
0.0
  0
LINE
  5
197
330
2
100
AcDbEntity
  8
UMRISS05
100
AcDbLine
 10
342.8285181720387
 20
958.4801173583493
 30
0.0
 11
342.8285181720386
 21
878.4801173583492
 31
0.0
  0
ARC
  5
198
330
2
100
AcDbEntity
  8
UMRISS05
100
AcDbCircle
 10
346.7285181720385
 20
878.4801173583492
 30
0.0
 40
0.1
100
AcDbArc
 50
180.0
 51
0.0
  0
LINE
  5
199
330
2
100
AcDbEntity
  8
UMRISS05
100
AcDbLine
 10
346.8285181720387
 20
958.4801173583493
 30
0.0
 11
346.8285181720385
 21
878.4801173583492
 31
0.0
  0
ARC
  5
19A
330
2
100
AcDbEntity
  8
UMRISS05
100
AcDbCircle
 10
346.7285181720387
 20
958.4801173583493
 30
0.0
 40
0.1
100
AcDbArc
 50
0.0
 51
180.0
  0
LINE
  5
19B
330
2
100
AcDbEntity
  8
UMRISS05
100
AcDbLine
 10
346.6285181720385
 20
878.4801173583492
 30
0.0
 11
346.6285181720386
 21
958.4801173583493
 31
0.0
  0
ARC
  5
19C
330
2
100
AcDbEntity
  8
UMRISS05
100
AcDbCircle
 10
334.7285181720386
 20
958.4801173583493
 30
0.0
 40
0.1
100
AcDbArc
 50
0.0
 51
180.0
  0
LINE
  5
19D
330
2
100
AcDbEntity
  8
UMRISS05
100
AcDbLine
 10
334.6285181720386
 20
878.4801173583492
 30
0.0
 11
334.6285181720386
 21
958.4801173583493
 31
0.0
  0
ARC
  5
19E
330
2
100
AcDbEntity
  8
UMRISS05
100
AcDbCircle
 10
334.7285181720386
 20
878.4801173583492
 30
0.0
 40
0.1
100
AcDbArc
 50
180.0
 51
0.0
  0
LINE
  5
19F
330
2
100
AcDbEntity
  8
UMRISS05
100
AcDbLine
 10
334.8285181720386
 20
958.4801173583493
 30
0.0
 11
334.8285181720386
 21
878.4801173583492
 31
0.0
  0
ARC
  5
1A0
330
2
100
AcDbEntity
  8
UMRISS05
100
AcDbCircle
 10
338.7285181720387
 20
958.4801173583493
 30
0.0
 40
0.1
100
AcDbArc
 50
0.0
 51
180.0
  0
LINE
  5
1A1
330
2
100
AcDbEntity
  8
UMRISS05
100
AcDbLine
 10
338.6285181720386
 20
878.4801173583492
 30
0.0
 11
338.6285181720386
 21
958.4801173583493
 31
0.0
  0
ARC
  5
1A2
330
2
100
AcDbEntity
  8
UMRISS05
100
AcDbCircle
 10
338.7285181720386
 20
878.4801173583492
 30
0.0
 40
0.1
100
AcDbArc
 50
180.0
 51
0.0
  0
LINE
  5
1A3
330
2
100
AcDbEntity
  8
UMRISS05
100
AcDbLine
 10
338.8285181720387
 20
958.4801173583493
 30
0.0
 11
338.8285181720386
 21
878.4801173583492
 31
0.0
  0
ARC
  5
1A4
330
2
100
AcDbEntity
  8
UMRISS05
100
AcDbCircle
 10
349.8285181720385
 20
962.4801173583492
 30
0.0
 40
0.9999999999999964
100
AcDbArc
 50
0.0
 51
90.0
  0
ARC
  5
1A5
330
2
100
AcDbEntity
  8
UMRISS05
100
AcDbCircle
 10
349.8285181720386
 20
874.4801173583493
 30
0.0
 40
1.000000000000009
100
AcDbArc
 50
270.0
 51
0.0
  0
ARC
  5
1A6
330
2
100
AcDbEntity
  8
UMRISS05
100
AcDbCircle
 10
310.8285181720386
 20
735.4801173583492
 30
0.0
 40
12.0
100
AcDbArc
 50
180.0
 51
0.0
  0
ARC
  5
1A7
330
2
100
AcDbEntity
  8
UMRISS05
100
AcDbCircle
 10
310.8285181720386
 20
981.4801173583493
 30
0.0
 40
11.99999999999999
100
AcDbArc
 50
0.0
 51
180.0
  0
ARC
  5
1A8
330
2
100
AcDbEntity
  8
UMRISS05
100
AcDbCircle
 10
323.8285181720384
 20
872.4801173583493
 30
0.0
 40
0.9999999999999964
100
AcDbArc
 50
90.0
 51
180.0
  0
ARC
  5
1A9
330
2
100
AcDbEntity
  8
UMRISS05
100
AcDbCircle
 10
323.8285181720386
 20
964.4801173583493
 30
0.0
 40
0.9999999999999998
100
AcDbArc
 50
180.0
 51
270.0
  0
LINE
  5
1AA
330
2
100
AcDbEntity
  8
UMRISS05
100
AcDbLine
 10
343.5789030837371
 20
962.3545399908012
 30
0.0
 11
342.9175781327935
 21
963.3465274172166
 31
0.0
  0
LINE
  5
1AB
330
2
100
AcDbEntity
  8
UMRISS05
100
AcDbLine
 10
344.7394582112837
 20
963.3465274172166
 30
0.0
 11
344.0781332603399
 21
962.3545399908012
 31
0.0
  0
LINE
  5
1AC
330
2
100
AcDbEntity
  8
UMRISS05
100
AcDbLine
 10
347.5789030837372
 20
962.3545399908012
 30
0.0
 11
346.9175781327933
 21
963.3465274172166
 31
0.0
  0
LINE
  5
1AD
330
2
100
AcDbEntity
  8
UMRISS05
100
AcDbLine
 10
348.7394582112835
 20
963.3465274172166
 30
0.0
 11
348.0781332603399
 21
962.3545399908012
 31
0.0
  0
LINE
  5
1AE
330
2
100
AcDbEntity
  8
UMRISS05
100
AcDbLine
 10
348.0781332603398
 20
874.6056947258972
 30
0.0
 11
348.7394582112835
 21
873.6137072994816
 31
0.0
  0
LINE
  5
1AF
330
2
100
AcDbEntity
  8
UMRISS05
100
AcDbLine
 10
346.9175781327933
 20
873.6137072994816
 30
0.0
 11
347.5789030837372
 21
874.6056947258972
 31
0.0
  0
LINE
  5
1B0
330
2
100
AcDbEntity
  8
UMRISS05
100
AcDbLine
 10
344.0781332603398
 20
874.6056947258972
 30
0.0
 11
344.7394582112835
 21
873.6137072994816
 31
0.0
  0
LINE
  5
1B1
330
2
100
AcDbEntity
  8
UMRISS05
100
AcDbLine
 10
342.9175781327935
 20
873.6137072994816
 30
0.0
 11
343.5789030837371
 21
874.6056947258972
 31
0.0
  0
LINE
  5
1B2
330
2
100
AcDbEntity
  8
UMRISS05
100
AcDbLine
 10
340.0781332603398
 20
874.6056947258972
 30
0.0
 11
340.7394582112835
 21
873.6137072994816
 31
0.0
  0
LINE
  5
1B3
330
2
100
AcDbEntity
  8
UMRISS05
100
AcDbLine
 10
338.9175781327935
 20
873.6137072994816
 30
0.0
 11
339.5789030837371
 21
874.6056947258972
 31
0.0
  0
LINE
  5
1B4
330
2
100
AcDbEntity
  8
UMRISS05
100
AcDbLine
 10
336.0781332603398
 20
874.6056947258972
 30
0.0
 11
336.7394582112835
 21
873.6137072994816
 31
0.0
  0
LINE
  5
1B5
330
2
100
AcDbEntity
  8
UMRISS05
100
AcDbLine
 10
334.9175781327935
 20
873.6137072994816
 30
0.0
 11
335.5789030837371
 21
874.6056947258972
 31
0.0
  0
LINE
  5
1B6
330
2
100
AcDbEntity
  8
UMRISS05
100
AcDbLine
 10
332.0781332603398
 20
874.6056947258972
 30
0.0
 11
332.7394582112835
 21
873.6137072994816
 31
0.0
  0
LINE
  5
1B7
330
2
100
AcDbEntity
  8
UMRISS05
100
AcDbLine
 10
330.9175781327934
 20
873.6137072994816
 30
0.0
 11
331.5789030837371
 21
874.6056947258972
 31
0.0
  0
LINE
  5
1B8
330
2
100
AcDbEntity
  8
UMRISS05
100
AcDbLine
 10
328.0781332603398
 20
874.6056947258972
 30
0.0
 11
328.7394582112835
 21
873.6137072994816
 31
0.0
  0
LINE
  5
1B9
330
2
100
AcDbEntity
  8
UMRISS05
100
AcDbLine
 10
326.9175781327934
 20
873.6137072994816
 30
0.0
 11
327.5789030837371
 21
874.6056947258972
 31
0.0
  0
LINE
  5
1BA
330
2
100
AcDbEntity
  8
UMRISS05
100
AcDbLine
 10
327.5789030837371
 20
962.3545399908012
 30
0.0
 11
326.9175781327934
 21
963.3465274172166
 31
0.0
  0
LINE
  5
1BB
330
2
100
AcDbEntity
  8
UMRISS05
100
AcDbLine
 10
328.7394582112835
 20
963.3465274172166
 30
0.0
 11
328.0781332603399
 21
962.3545399908012
 31
0.0
  0
LINE
  5
1BC
330
2
100
AcDbEntity
  8
UMRISS05
100
AcDbLine
 10
331.5789030837371
 20
962.3545399908012
 30
0.0
 11
330.9175781327934
 21
963.3465274172166
 31
0.0
  0
LINE
  5
1BD
330
2
100
AcDbEntity
  8
UMRISS05
100
AcDbLine
 10
332.7394582112835
 20
963.3465274172166
 30
0.0
 11
332.0781332603399
 21
962.3545399908012
 31
0.0
  0
LINE
  5
1BE
330
2
100
AcDbEntity
  8
UMRISS05
100
AcDbLine
 10
335.5789030837371
 20
962.3545399908012
 30
0.0
 11
334.9175781327935
 21
963.3465274172166
 31
0.0
  0
LINE
  5
1BF
330
2
100
AcDbEntity
  8
UMRISS05
100
AcDbLine
 10
336.7394582112835
 20
963.3465274172166
 30
0.0
 11
336.0781332603399
 21
962.3545399908012
 31
0.0
  0
LINE
  5
1C0
330
2
100
AcDbEntity
  8
UMRISS05
100
AcDbLine
 10
339.5789030837371
 20
962.3545399908012
 30
0.0
 11
338.9175781327935
 21
963.3465274172166
 31
0.0
  0
LINE
  5
1C1
330
2
100
AcDbEntity
  8
UMRISS05
100
AcDbLine
 10
340.7394582112835
 20
963.3465274172166
 30
0.0
 11
340.0781332603399
 21
962.3545399908012
 31
0.0
  0
LINE
  5
1C2
330
2
100
AcDbEntity
  8
UMRISS05
100
AcDbLine
 10
344.9890732995849
 20
963.4801173583493
 30
0.0
 11
346.6679630444921
 21
963.4801173583493
 31
0.0
  0
LINE
  5
1C3
330
2
100
AcDbEntity
  8
UMRISS05
100
AcDbLine
 10
348.9890732995849
 20
963.4801173583493
 30
0.0
 11
349.8285181720385
 21
963.4801173583493
 31
0.0
  0
LINE
  5
1C4
330
2
100
AcDbEntity
  8
UMRISS05
100
AcDbLine
 10
350.8285181720385
 20
962.4801173583492
 30
0.0
 11
350.8285181720386
 21
874.4801173583493
 31
0.0
  0
LINE
  5
1C5
330
2
100
AcDbEntity
  8
UMRISS05
100
AcDbLine
 10
349.8285181720386
 20
873.4801173583493
 30
0.0
 11
348.9890732995848
 21
873.4801173583493
 31
0.0
  0
LINE
  5
1C6
330
2
100
AcDbEntity
  8
UMRISS05
100
AcDbLine
 10
346.6679630444921
 20
873.4801173583493
 30
0.0
 11
344.9890732995849
 21
873.4801173583493
 31
0.0
  0
LINE
  5
1C7
330
2
100
AcDbEntity
  8
UMRISS05
100
AcDbLine
 10
342.6679630444921
 20
873.4801173583493
 30
0.0
 11
340.9890732995849
 21
873.4801173583493
 31
0.0
  0
LINE
  5
1C8
330
2
100
AcDbEntity
  8
UMRISS05
100
AcDbLine
 10
338.6679630444921
 20
873.4801173583493
 30
0.0
 11
336.9890732995849
 21
873.4801173583493
 31
0.0
  0
LINE
  5
1C9
330
2
100
AcDbEntity
  8
UMRISS05
100
AcDbLine
 10
334.6679630444921
 20
873.4801173583493
 30
0.0
 11
332.9890732995849
 21
873.4801173583493
 31
0.0
  0
LINE
  5
1CA
330
2
100
AcDbEntity
  8
UMRISS05
100
AcDbLine
 10
330.6679630444921
 20
873.4801173583493
 30
0.0
 11
328.9890732995849
 21
873.4801173583493
 31
0.0
  0
LINE
  5
1CB
330
2
100
AcDbEntity
  8
UMRISS05
100
AcDbLine
 10
326.6679630444921
 20
873.4801173583493
 30
0.0
 11
323.8285181720384
 21
873.4801173583493
 31
0.0
  0
LINE
  5
1CC
330
2
100
AcDbEntity
  8
UMRISS05
100
AcDbLine
 10
322.8285181720385
 20
872.4801173583493
 30
0.0
 11
322.8285181720386
 21
735.4801173583492
 31
0.0
  0
LINE
  5
1CD
330
2
100
AcDbEntity
  8
UMRISS05
100
AcDbLine
 10
298.8285181720386
 20
735.480117358349
 30
0.0
 11
298.8285181720386
 21
981.4801173583488
 31
0.0
  0
LINE
  5
1CE
330
2
100
AcDbEntity
  8
UMRISS05
100
AcDbLine
 10
322.8285181720386
 20
981.4801173583493
 30
0.0
 11
322.8285181720386
 21
964.4801173583493
 31
0.0
  0
LINE
  5
1CF
330
2
100
AcDbEntity
  8
UMRISS05
100
AcDbLine
 10
323.8285181720386
 20
963.4801173583493
 30
0.0
 11
326.6679630444921
 21
963.4801173583493
 31
0.0
  0
LINE
  5
1D0
330
2
100
AcDbEntity
  8
UMRISS05
100
AcDbLine
 10
328.9890732995849
 20
963.4801173583493
 30
0.0
 11
330.6679630444921
 21
963.4801173583493
 31
0.0
  0
LINE
  5
1D1
330
2
100
AcDbEntity
  8
UMRISS05
100
AcDbLine
 10
332.9890732995849
 20
963.4801173583493
 30
0.0
 11
334.6679630444921
 21
963.4801173583493
 31
0.0
  0
LINE
  5
1D2
330
2
100
AcDbEntity
  8
UMRISS05
100
AcDbLine
 10
336.9890732995849
 20
963.4801173583493
 30
0.0
 11
338.6679630444921
 21
963.4801173583493
 31
0.0
  0
LINE
  5
1D3
330
2
100
AcDbEntity
  8
UMRISS05
100
AcDbLine
 10
340.9890732995849
 20
963.4801173583493
 30
0.0
 11
342.6679630444921
 21
963.4801173583493
 31
0.0
  0
ARC
  5
1D4
330
2
100
AcDbEntity
  8
UMRISS05
100
AcDbCircle
 10
343.8285181720384
 20
962.5209500496687
 30
0.0
 40
0.2999999999999968
100
AcDbArc
 50
213.6900675259805
 51
326.309932474006
  0
ARC
  5
1D5
330
2
100
AcDbEntity
  8
UMRISS05
100
AcDbCircle
 10
344.9890732995849
 20
963.1801173583493
 30
0.0
 40
0.3000000000000005
100
AcDbArc
 50
90.00000000000651
 51
146.3099324740195
  0
ARC
  5
1D6
330
2
100
AcDbEntity
  8
UMRISS05
100
AcDbCircle
 10
346.6679630444921
 20
963.1801173583493
 30
0.0
 40
0.2999999999999847
100
AcDbArc
 50
33.69006752598049
 51
90.0
  0
ARC
  5
1D7
330
2
100
AcDbEntity
  8
UMRISS05
100
AcDbCircle
 10
347.8285181720385
 20
962.5209500496687
 30
0.0
 40
0.2999999999999993
100
AcDbArc
 50
213.6900675259805
 51
326.309932474006
  0
ARC
  5
1D8
330
2
100
AcDbEntity
  8
UMRISS05
100
AcDbCircle
 10
348.9890732995849
 20
963.1801173583493
 30
0.0
 40
0.2999999999999968
100
AcDbArc
 50
90.0
 51
146.3099324740195
  0
ARC
  5
1D9
330
2
100
AcDbEntity
  8
UMRISS05
100
AcDbCircle
 10
348.9890732995848
 20
873.7801173583491
 30
0.0
 40
0.3000000000000025
100
AcDbArc
 50
213.6900675259806
 51
270.0
  0
ARC
  5
1DA
330
2
100
AcDbEntity
  8
UMRISS05
100
AcDbCircle
 10
347.8285181720385
 20
874.4392846670297
 30
0.0
 40
0.3000000000000018
100
AcDbArc
 50
33.69006752598064
 51
146.3099324740195
  0
ARC
  5
1DB
330
2
100
AcDbEntity
  8
UMRISS05
100
AcDbCircle
 10
346.6679630444921
 20
873.7801173583491
 30
0.0
 40
0.3000000000000018
100
AcDbArc
 50
270.0
 51
326.3099324740192
  0
ARC
  5
1DC
330
2
100
AcDbEntity
  8
UMRISS05
100
AcDbCircle
 10
344.9890732995848
 20
873.7801173583491
 30
0.0
 40
0.2999999999999669
100
AcDbArc
 50
213.6900675259805
 51
270.0
  0
ARC
  5
1DD
330
2
100
AcDbEntity
  8
UMRISS05
100
AcDbCircle
 10
343.8285181720384
 20
874.4392846670297
 30
0.0
 40
0.2999999999999882
100
AcDbArc
 50
33.69006752598049
 51
146.3099324740195
  0
ARC
  5
1DE
330
2
100
AcDbEntity
  8
UMRISS05
100
AcDbCircle
 10
342.6679630444921
 20
873.7801173583491
 30
0.0
 40
0.2999999999999771
100
AcDbArc
 50
269.9999999999935
 51
326.3099324740196
  0
ARC
  5
1DF
330
2
100
AcDbEntity
  8
UMRISS05
100
AcDbCircle
 10
340.9890732995848
 20
873.7801173583491
 30
0.0
 40
0.2999999999999758
100
AcDbArc
 50
213.6900675259805
 51
270.0
  0
ARC
  5
1E0
330
2
100
AcDbEntity
  8
UMRISS05
100
AcDbCircle
 10
339.8285181720384
 20
874.4392846670297
 30
0.0
 40
0.3000000000000018
100
AcDbArc
 50
33.69006752598064
 51
146.3099324740195
  0
ARC
  5
1E1
330
2
100
AcDbEntity
  8
UMRISS05
100
AcDbCircle
 10
338.6679630444921
 20
873.7801173583491
 30
0.0
 40
0.3000000000000018
100
AcDbArc
 50
270.0
 51
326.3099324740192
  0
ARC
  5
1E2
330
2
100
AcDbEntity
  8
UMRISS05
100
AcDbCircle
 10
336.9890732995849
 20
873.7801173583491
 30
0.0
 40
0.3000000000000114
100
AcDbArc
 50
213.6900675259806
 51
270.0
  0
ARC
  5
1E3
330
2
100
AcDbEntity
  8
UMRISS05
100
AcDbCircle
 10
335.8285181720384
 20
874.4392846670297
 30
0.0
 40
0.2999999999999998
100
AcDbArc
 50
33.69006752598064
 51
146.3099324740195
  0
ARC
  5
1E4
330
2
100
AcDbEntity
  8
UMRISS05
100
AcDbCircle
 10
334.6679630444921
 20
873.7801173583491
 30
0.0
 40
0.300000000000014
100
AcDbArc
 50
270.0
 51
326.3099324740192
  0
ARC
  5
1E5
330
2
100
AcDbEntity
  8
UMRISS05
100
AcDbCircle
 10
332.9890732995849
 20
873.7801173583491
 30
0.0
 40
0.3000000000000025
100
AcDbArc
 50
213.6900675259806
 51
270.0
  0
ARC
  5
1E6
330
2
100
AcDbEntity
  8
UMRISS05
100
AcDbCircle
 10
331.8285181720384
 20
874.4392846670297
 30
0.0
 40
0.2999999999999998
100
AcDbArc
 50
33.69006752598064
 51
146.3099324740195
  0
ARC
  5
1E7
330
2
100
AcDbEntity
  8
UMRISS05
100
AcDbCircle
 10
330.6679630444921
 20
873.7801173583491
 30
0.0
 40
0.3000000000000054
100
AcDbArc
 50
270.0
 51
326.3099324740192
  0
ARC
  5
1E8
330
2
100
AcDbEntity
  8
UMRISS05
100
AcDbCircle
 10
328.9890732995849
 20
873.7801173583491
 30
0.0
 40
0.3000000000000025
100
AcDbArc
 50
213.6900675259806
 51
270.0
  0
ARC
  5
1E9
330
2
100
AcDbEntity
  8
UMRISS05
100
AcDbCircle
 10
327.8285181720385
 20
874.4392846670297
 30
0.0
 40
0.2999999999999931
100
AcDbArc
 50
33.69006752598064
 51
146.3099324740195
  0
ARC
  5
1EA
330
2
100
AcDbEntity
  8
UMRISS05
100
AcDbCircle
 10
326.6679630444921
 20
873.7801173583491
 30
0.0
 40
0.3000000000000131
100
AcDbArc
 50
270.0
 51
326.3099324740192
  0
ARC
  5
1EB
330
2
100
AcDbEntity
  8
UMRISS05
100
AcDbCircle
 10
326.6679630444921
 20
963.1801173583493
 30
0.0
 40
0.3000000000000047
100
AcDbArc
 50
33.690067525994
 51
90.0
  0
ARC
  5
1EC
330
2
100
AcDbEntity
  8
UMRISS05
100
AcDbCircle
 10
327.8285181720385
 20
962.5209500496687
 30
0.0
 40
0.299999999999998
100
AcDbArc
 50
213.6900675259805
 51
326.309932474006
  0
ARC
  5
1ED
330
2
100
AcDbEntity
  8
UMRISS05
100
AcDbCircle
 10
328.9890732995849
 20
963.1801173583493
 30
0.0
 40
0.3000000000000042
100
AcDbArc
 50
90.00000000000651
 51
146.3099324740197
  0
ARC
  5
1EE
330
2
100
AcDbEntity
  8
UMRISS05
100
AcDbCircle
 10
330.6679630444921
 20
963.1801173583493
 30
0.0
 40
0.299999999999998
100
AcDbArc
 50
33.69006752598049
 51
90.0
  0
ARC
  5
1EF
330
2
100
AcDbEntity
  8
UMRISS05
100
AcDbCircle
 10
331.8285181720384
 20
962.5209500496687
 30
0.0
 40
0.2999999999999998
100
AcDbArc
 50
213.6900675259805
 51
326.309932474006
  0
ARC
  5
1F0
330
2
100
AcDbEntity
  8
UMRISS05
100
AcDbCircle
 10
332.9890732995849
 20
963.1801173583493
 30
0.0
 40
0.3000000000000005
100
AcDbArc
 50
90.00000000000651
 51
146.3099324740195
  0
ARC
  5
1F1
330
2
100
AcDbEntity
  8
UMRISS05
100
AcDbCircle
 10
334.6679630444921
 20
963.1801173583493
 30
0.0
 40
0.3000000000000025
100
AcDbArc
 50
33.690067525994
 51
90.0
  0
ARC
  5
1F2
330
2
100
AcDbEntity
  8
UMRISS05
100
AcDbCircle
 10
335.8285181720384
 20
962.5209500496687
 30
0.0
 40
0.2999999999999987
100
AcDbArc
 50
213.6900675259805
 51
326.309932474006
  0
ARC
  5
1F3
330
2
100
AcDbEntity
  8
UMRISS05
100
AcDbCircle
 10
336.9890732995849
 20
963.1801173583493
 30
0.0
 40
0.2999999999999882
100
AcDbArc
 50
90.0
 51
146.3099324740195
  0
ARC
  5
1F4
330
2
100
AcDbEntity
  8
UMRISS05
100
AcDbCircle
 10
338.6679630444921
 20
963.1801173583493
 30
0.0
 40
0.299999999999998
100
AcDbArc
 50
33.69006752598049
 51
90.0
  0
ARC
  5
1F5
330
2
100
AcDbEntity
  8
UMRISS05
100
AcDbCircle
 10
339.8285181720385
 20
962.5209500496687
 30
0.0
 40
0.300000000000003
100
AcDbArc
 50
213.6900675259802
 51
326.309932474006
  0
ARC
  5
1F6
330
2
100
AcDbEntity
  8
UMRISS05
100
AcDbCircle
 10
340.9890732995849
 20
963.1801173583493
 30
0.0
 40
0.3000000000000018
100
AcDbArc
 50
90.00000000000651
 51
146.3099324740197
  0
ARC
  5
1F7
330
2
100
AcDbEntity
  8
UMRISS05
100
AcDbCircle
 10
342.6679630444921
 20
963.1801173583493
 30
0.0
 40
0.3000000000000025
100
AcDbArc
 50
33.69006752598049
 51
90.0
  0
CIRCLE
  5
1F8
330
2
100
AcDbEntity
  8
UMRISS05
100
AcDbCircle
 10
310.8285181720388
 20
934.7301173583492
 30
0.0
 40
4.0
  0
CIRCLE
  5
1F9
330
2
100
AcDbEntity
  8
UMRISS05
100
AcDbCircle
 10
310.8285181720384
 20
882.2301173583493
 30
0.0
 40
4.0
  0
LINE
  5
1FA
330
2
100
AcDbEntity
  8
UMRISS05
100
AcDbLine
 10
315.5398385155982
 20
884.7730105771626
 30
0.0
 11
314.1256249532252
 21
886.1872241395355
 31
0.0
  0
ARC
  5
1FB
330
2
100
AcDbEntity
  8
UMRISS05
100
AcDbCircle
 10
316.2469452967846
 20
885.480117358349
 30
0.0
 40
0.9999999999999076
100
AcDbArc
 50
224.9999999999909
 51
270.0
  0
LINE
  5
1FC
330
2
100
AcDbEntity
  8
UMRISS05
100
AcDbLine
 10
322.8285181720386
 20
884.4801173583491
 30
0.0
 11
316.2469452967847
 21
884.4801173583491
 31
0.0
  0
ARC
  5
1FD
330
2
100
AcDbEntity
  8
UMRISS05
100
AcDbCircle
 10
322.8285181720386
 20
885.480117358349
 30
0.0
 40
0.9999999999999975
100
AcDbArc
 50
270.0
 51
0.0
  0
LINE
  5
1FE
330
2
100
AcDbEntity
  8
UMRISS05
100
AcDbLine
 10
323.8285181720386
 20
905.080117358349
 30
0.0
 11
323.8285181720386
 21
885.480117358349
 31
0.0
  0
ARC
  5
1FF
330
2
100
AcDbEntity
  8
UMRISS05
100
AcDbCircle
 10
324.1285181720385
 20
905.080117358349
 30
0.0
 40
0.3000000000000291
100
AcDbArc
 50
90.0
 51
180.0
  0
LINE
  5
200
330
2
100
AcDbEntity
  8
UMRISS05
100
AcDbLine
 10
325.5285181720386
 20
905.3801173583487
 30
0.0
 11
324.1285181720385
 21
905.3801173583487
 31
0.0
  0
ARC
  5
201
330
2
100
AcDbEntity
  8
UMRISS05
100
AcDbCircle
 10
325.5285181720386
 20
905.6801173583487
 30
0.0
 40
0.3000000000000524
100
AcDbArc
 50
270.0
 51
0.0
  0
LINE
  5
202
330
2
100
AcDbEntity
  8
UMRISS05
100
AcDbLine
 10
325.8285181720386
 20
911.2801173583486
 30
0.0
 11
325.8285181720386
 21
905.6801173583487
 31
0.0
  0
ARC
  5
203
330
2
100
AcDbEntity
  8
UMRISS05
100
AcDbCircle
 10
325.5285181720386
 20
911.2801173583486
 30
0.0
 40
0.3000000000000158
100
AcDbArc
 50
0.0
 51
90.0
  0
LINE
  5
204
330
2
100
AcDbEntity
  8
UMRISS05
100
AcDbLine
 10
324.1285181720385
 20
911.580117358349
 30
0.0
 11
325.5285181720386
 21
911.580117358349
 31
0.0
  0
ARC
  5
205
330
2
100
AcDbEntity
  8
UMRISS05
100
AcDbCircle
 10
324.1285181720385
 20
911.880117358349
 30
0.0
 40
0.3000000000000125
100
AcDbArc
 50
180.0
 51
269.9999999999935
  0
LINE
  5
206
330
2
100
AcDbEntity
  8
UMRISS05
100
AcDbLine
 10
323.8285181720386
 20
931.4801173583488
 30
0.0
 11
323.8285181720386
 21
911.880117358349
 31
0.0
  0
ARC
  5
207
330
2
100
AcDbEntity
  8
UMRISS05
100
AcDbCircle
 10
322.8285181720386
 20
931.4801173583488
 30
0.0
 40
1.000000000000001
100
AcDbArc
 50
0.0
 51
90.0
  0
LINE
  5
208
330
2
100
AcDbEntity
  8
UMRISS05
100
AcDbLine
 10
316.2469452967847
 20
932.4801173583493
 30
0.0
 11
322.8285181720386
 21
932.4801173583493
 31
0.0
  0
ARC
  5
209
330
2
100
AcDbEntity
  8
UMRISS05
100
AcDbCircle
 10
316.2469452967847
 20
931.4801173583488
 30
0.0
 40
1.000000000000005
100
AcDbArc
 50
90.0
 51
134.9999999999915
  0
LINE
  5
20A
330
2
100
AcDbEntity
  8
UMRISS05
100
AcDbLine
 10
314.1256249532252
 20
930.7730105771623
 30
0.0
 11
315.5398385155982
 21
932.1872241395354
 31
0.0
  0
ARC
  5
20B
330
2
100
AcDbEntity
  8
UMRISS05
100
AcDbCircle
 10
313.4185181720385
 20
931.4801173583488
 30
0.0
 40
1.000000000000007
100
AcDbArc
 50
270.0
 51
314.9999999999997
  0
LINE
  5
20C
330
2
100
AcDbEntity
  8
UMRISS05
100
AcDbLine
 10
304.7285181720385
 20
930.480117358349
 30
0.0
 11
313.4185181720385
 21
930.480117358349
 31
0.0
  0
ARC
  5
20D
330
2
100
AcDbEntity
  8
UMRISS05
100
AcDbCircle
 10
304.7285181720385
 20
929.480117358349
 30
0.0
 40
1.000000000000005
100
AcDbArc
 50
90.0
 51
180.0
  0
LINE
  5
20E
330
2
100
AcDbEntity
  8
UMRISS05
100
AcDbLine
 10
303.7285181720386
 20
920.2801173583486
 30
0.0
 11
303.7285181720386
 21
929.480117358349
 31
0.0
  0
ARC
  5
20F
330
2
100
AcDbEntity
  8
UMRISS05
100
AcDbCircle
 10
304.0285181720385
 20
920.2801173583486
 30
0.0
 40
0.3000000000000158
100
AcDbArc
 50
180.0
 51
270.000000000026
  0
LINE
  5
210
330
2
100
AcDbEntity
  8
UMRISS05
100
AcDbLine
 10
304.5285181720384
 20
919.9801173583487
 30
0.0
 11
304.0285181720387
 21
919.9801173583487
 31
0.0
  0
ARC
  5
211
330
2
100
AcDbEntity
  8
UMRISS05
100
AcDbCircle
 10
304.5285181720386
 20
919.6801173583486
 30
0.0
 40
0.3000000000000136
100
AcDbArc
 50
0.0
 51
90.00000000002605
  0
LINE
  5
212
330
2
100
AcDbEntity
  8
UMRISS05
100
AcDbLine
 10
304.8285181720386
 20
897.2801173583489
 30
0.0
 11
304.8285181720386
 21
919.6801173583486
 31
0.0
  0
ARC
  5
213
330
2
100
AcDbEntity
  8
UMRISS05
100
AcDbCircle
 10
304.5285181720385
 20
897.2801173583489
 30
0.0
 40
0.3000000000000468
100
AcDbArc
 50
270.0
 51
0.0
  0
LINE
  5
214
330
2
100
AcDbEntity
  8
UMRISS05
100
AcDbLine
 10
304.0285181720385
 20
896.9801173583489
 30
0.0
 11
304.5285181720386
 21
896.9801173583491
 31
0.0
  0
ARC
  5
215
330
2
100
AcDbEntity
  8
UMRISS05
100
AcDbCircle
 10
304.0285181720386
 20
896.6801173583489
 30
0.0
 40
0.3000000000000513
100
AcDbArc
 50
90.0
 51
180.0
  0
LINE
  5
216
330
2
100
AcDbEntity
  8
UMRISS05
100
AcDbLine
 10
303.7285181720386
 20
887.480117358349
 30
0.0
 11
303.7285181720386
 21
896.6801173583489
 31
0.0
  0
ARC
  5
217
330
2
100
AcDbEntity
  8
UMRISS05
100
AcDbCircle
 10
304.7285181720385
 20
887.480117358349
 30
0.0
 40
0.9999999999999964
100
AcDbArc
 50
180.0
 51
270.0
  0
LINE
  5
218
330
2
100
AcDbEntity
  8
UMRISS05
100
AcDbLine
 10
313.4185181720385
 20
886.480117358349
 30
0.0
 11
304.7285181720385
 21
886.480117358349
 31
0.0
  0
ARC
  5
219
330
2
100
AcDbEntity
  8
UMRISS05
100
AcDbCircle
 10
313.4185181720385
 20
885.480117358349
 30
0.0
 40
0.9999999999999875
100
AcDbArc
 50
45.00000000000015
 51
90.0
  0
LINE
  5
21A
330
2
100
AcDbEntity
  8
UMRISS05
100
AcDbLine
 10
303.3285181720387
 20
786.9801173583493
 30
0.0
 11
303.3285181720387
 21
829.9801173583492
 31
0.0
  0
LINE
  5
21B
330
2
100
AcDbEntity
  8
UMRISS05
100
AcDbLine
 10
318.3285181720387
 20
829.9801173583492
 30
0.0
 11
318.3285181720387
 21
786.9801173583493
 31
0.0
  0
LINE
  5
21C
330
2
100
AcDbEntity
  8
UMRISS05
100
AcDbLine
 10
305.3285181720387
 20
831.980117358349
 30
0.0
 11
316.3285181720387
 21
831.980117358349
 31
0.0
  0
LINE
  5
21D
330
2
100
AcDbEntity
  8
UMRISS05
100
AcDbLine
 10
316.3285181720387
 20
784.9801173583492
 30
0.0
 11
305.3285181720387
 21
784.9801173583492
 31
0.0
  0
ARC
  5
21E
330
2
100
AcDbEntity
  8
UMRISS05
100
AcDbCircle
 10
305.3285181720387
 20
829.9801173583492
 30
0.0
 40
1.999999999999992
100
AcDbArc
 50
90.0
 51
180.0
  0
ARC
  5
21F
330
2
100
AcDbEntity
  8
UMRISS05
100
AcDbCircle
 10
316.3285181720387
 20
786.9801173583493
 30
0.0
 40
1.999999999999992
100
AcDbArc
 50
270.0
 51
0.0
  0
ARC
  5
220
330
2
100
AcDbEntity
  8
UMRISS05
100
AcDbCircle
 10
316.3285181720387
 20
829.9801173583492
 30
0.0
 40
1.999999999999992
100
AcDbArc
 50
0.0
 51
90.0
  0
ARC
  5
221
330
2
100
AcDbEntity
  8
UMRISS05
100
AcDbCircle
 10
305.3285181720387
 20
786.9801173583493
 30
0.0
 40
1.999999999999985
100
AcDbArc
 50
180.0
 51
270.0
  0
CIRCLE
  5
222
330
2
100
AcDbEntity
  8
UMRISS05
100
AcDbCircle
 10
310.8285181720388
 20
767.480117358349
 30
0.0
 40
1.75
  0
CIRCLE
  5
223
330
2
100
AcDbEntity
  8
UMRISS05
100
AcDbCircle
 10
310.8285181720386
 20
858.4801173583493
 30
0.0
 40
4.75
  0
CIRCLE
  5
224
330
2
100
AcDbEntity
  8
UMRISS05
100
AcDbCircle
 10
310.8285181720385
 20
980.480117358349
 30
0.0
 40
4.75
  0
CIRCLE
  5
225
330
2
100
AcDbEntity
  8
UMRISS05
100
AcDbCircle
 10
310.8285181720388
 20
736.4801173583493
 30
0.0
 40
4.75
  0
CIRCLE
  5
226
330
2
100
AcDbEntity
  8
UMRISS05
100
AcDbCircle
 10
310.8285181720385
 20
980.480117358349
 30
0.0
 40
3.5
  0
CIRCLE
  5
227
330
2
100
AcDbEntity
  8
UMRISS05
100
AcDbCircle
 10
310.8285181720388
 20
934.7301173583492
 30
0.0
 40
2.5
  0
CIRCLE
  5
228
330
2
100
AcDbEntity
  8
UMRISS05
100
AcDbCircle
 10
310.8285181720384
 20
882.230117358349
 30
0.0
 40
2.5
  0
DIMENSION
  5
229
330
2
100
AcDbEntity
  8
BEMASSUNG
100
AcDbDimension
280
     0
  2
*D18
 10
265.6050483570163
 20
723.4801173583492
 30
0.0
 11
258.509891467521
 21
858.4801173583493
 31
0.0
 71
     5
 42
270.0
 73
     0
 74
     0
 75
     0
  3
Katalog 09
100
AcDbAlignedDimension
 13
310.8285181720386
 23
993.4801173583492
 33
0.0
 14
310.8285181720386
 24
723.4801173583492
 34
0.0
 50
90.0
100
AcDbRotatedDimension
  0
MTEXT
  5
236
330
2
100
AcDbEntity
  8
UMRISS05
 62
     3
100
AcDbMText
 10
310.0
 20
531.7171160727091
 30
0.0
 40
8.0
 41
0.0
 46
0.0
 71
     5
 72
     1
  1
\A1;B-23421Z.\P4343
  7
ARIAL-STANDARD
 73
     1
 44
1.0
  0
LINE
  5
237
330
2
100
AcDbEntity
  8
ACHSEN
 48
0.5
100
AcDbLine
 10
310.8285181720388
 20
456.7229294499949
 30
0.0
 11
310.8285181720388
 21
444.7764491576719
 31
0.0
  0
LINE
  5
238
330
2
100
AcDbEntity
  8
ACHSEN
 48
0.5
100
AcDbLine
 10
316.0785181720387
 20
451.4729294499952
 30
0.0
 11
305.5785181720387
 21
451.4729294499952
 31
0.0
  0
LINE
  5
239
330
2
100
AcDbEntity
  8
UMRISS05
100
AcDbLine
 10
318.3285181720387
 20
429.9729294499952
 30
0.0
 11
318.3285181720387
 21
386.9729294499952
 31
0.0
  0
LINE
  5
23A
330
2
100
AcDbEntity
  8
UMRISS05
100
AcDbLine
 10
303.3285181720386
 20
429.9729294499952
 30
0.0
 11
303.3285181720386
 21
386.9729294499952
 31
0.0
  0
LINE
  5
23B
330
2
100
AcDbEntity
  8
UMRISS05
100
AcDbLine
 10
298.8285181720387
 20
451.4729294499952
 30
0.0
 11
298.8285181720387
 21
365.4729294499952
 31
0.0
  0
LINE
  5
23C
330
2
100
AcDbEntity
  8
UMRISS05
100
AcDbLine
 10
322.8285181720388
 20
451.4729294499952
 30
0.0
 11
322.8285181720388
 21
365.4729294499952
 31
0.0
  0
DIMENSION
  5
23D
330
2
100
AcDbEntity
  8
BEMASSUNG
100
AcDbDimension
280
     0
  2
*D19
 10
318.3285181720387
 20
372.0376080721371
 30
0.0
 11
310.8285181720386
 21
379.1327649616323
 31
0.0
 71
     5
 42
15.00000000000011
 73
     0
 74
     0
 75
     0
  3
Katalog 09
100
AcDbAlignedDimension
 13
303.3285181720386
 23
386.9729294499951
 33
0.0
 14
318.3285181720387
 24
386.9729294499951
 34
0.0
100
AcDbRotatedDimension
  0
DIMENSION
  5
24C
330
2
100
AcDbEntity
  8
AM_0
100
AcDbDimension
280
     0
  2
*D15
 10
289.133817819724
 20
384.9729294499951
 30
0.0
 11
289.1338178197239
 21
409.4111156205128
 31
0.0
 70
   128
  1
<>
 71
     5
 42
47.0
 73
     0
 74
     0
 75
     0
  3
Katalog 09
100
AcDbAlignedDimension
 13
305.3285181720386
 23
431.9729294499951
 33
0.0
 14
305.3285181720386
 24
384.9729294499951
 34
0.0
 50
90.0
100
AcDbRotatedDimension
1001
ACAD_DSTYLE_DIMINSPECT
1070
   396
1000
100%
1070
   395
1000

1070
   394
1070
    33
1070
   393
1070
     0
  0
DIMENSION
  5
259
330
2
100
AcDbEntity
  8
AM_0
100
AcDbDimension
280
     0
  2
*D14
 10
270.8559939747157
 20
353.4729294499951
 30
0.0
 11
270.8559939747157
 21
408.6607724735148
 31
0.0
 70
   128
  1
<>
 71
     5
 42
110.0
 73
     0
 74
     0
 75
     0
  3
Katalog 09
100
AcDbAlignedDimension
 13
310.8285181720387
 23
463.4729294499948
 33
0.0
 14
310.8285181720387
 24
353.4729294499951
 34
0.0
 50
90.0
100
AcDbRotatedDimension
1001
ACAD_DSTYLE_DIMINSPECT
1070
   396
1000
100%
1070
   395
1000

1070
   394
1070
    33
1070
   393
1070
     0
  0
DIMENSION
  5
266
330
2
100
AcDbEntity
  8
AM_0
100
AcDbDimension
280
     0
  2
*D13
 10
322.8285181720387
 20
303.5647517981678
 30
0.0
 11
310.8285181720387
 21
303.5647517981678
 31
0.0
 70
   128
  1
<>
 71
     5
 42
24.0
 73
     0
 74
     0
 75
     0
  3
Katalog 09
100
AcDbAlignedDimension
 13
298.8285181720387
 23
365.4729294499952
 33
0.0
 14
322.8285181720387
 24
365.4729294499952
 34
0.0
100
AcDbRotatedDimension
1001
ACAD_DSTYLE_DIMINSPECT
1070
   396
1000
100%
1070
   395
1000

1070
   394
1070
    33
1070
   393
1070
     0
  0
LINE
  5
275
330
2
100
AcDbEntity
  8
ACHSEN
 48
0.5
100
AcDbLine
 10
310.8285181720388
 20
370.7229294499953
 30
0.0
 11
310.8285181720388
 21
358.7764491576722
 31
0.0
  0
LINE
  5
276
330
2
100
AcDbEntity
  8
ACHSEN
 48
0.5
100
AcDbLine
 10
316.0785181720387
 20
365.4729294499952
 30
0.0
 11
305.5785181720387
 21
365.4729294499952
 31
0.0
  0
ARC
  5
277
330
2
100
AcDbEntity
  8
UMRISS05
100
AcDbCircle
 10
310.8285181720388
 20
365.4729294499952
 30
0.0
 40
12.0
100
AcDbArc
 50
180.0
 51
360.0
  0
ARC
  5
278
330
2
100
AcDbEntity
  8
UMRISS05
100
AcDbCircle
 10
310.8285181720388
 20
451.4729294499952
 30
0.0
 40
12.0
100
AcDbArc
 50
0.0
 51
180.0
  0
CIRCLE
  5
279
330
2
100
AcDbEntity
  8
UMRISS05
100
AcDbCircle
 10
310.8285181720388
 20
451.4729294499952
 30
0.0
 40
2.75
  0
CIRCLE
  5
27A
330
2
100
AcDbEntity
  8
UMRISS05
100
AcDbCircle
 10
310.8285181720387
 20
451.4729294499948
 30
0.0
 40
4.75
  0
CIRCLE
  5
27B
330
2
100
AcDbEntity
  8
UMRISS05
100
AcDbCircle
 10
310.8285181720387
 20
365.4729294499952
 30
0.0
 40
2.75
  0
CIRCLE
  5
27C
330
2
100
AcDbEntity
  8
UMRISS05
100
AcDbCircle
 10
310.8285181720387
 20
365.4729294499952
 30
0.0
 40
4.75
  0
ARC
  5
27D
330
2
100
AcDbEntity
  8
UMRISS05
100
AcDbCircle
 10
305.3285181720386
 20
429.9729294499952
 30
0.0
 40
1.999999999999992
100
AcDbArc
 50
90.0
 51
180.0
  0
LINE
  5
27E
330
2
100
AcDbEntity
  8
UMRISS05
100
AcDbLine
 10
304.9731774431511
 20
431.9411095653285
 30
0.0
 11
316.297196672717
 21
431.9411095653285
 31
0.0
  0
ARC
  5
27F
330
2
100
AcDbEntity
  8
UMRISS05
100
AcDbCircle
 10
316.3287673647112
 20
429.9413587580009
 30
0.0
 40
2.0
100
AcDbArc
 50
0.904471268701819
 51
90.90447126870021
  0
ARC
  5
280
330
2
100
AcDbEntity
  8
UMRISS05
100
AcDbCircle
 10
316.3285181720387
 20
386.9729294499952
 30
0.0
 40
2.0
100
AcDbArc
 50
270.0
 51
360.0
  0
LINE
  5
281
330
2
100
AcDbEntity
  8
UMRISS05
100
AcDbLine
 10
316.3285181720387
 20
384.9729294499951
 30
0.0
 11
305.3285181720386
 21
384.9729294499951
 31
0.0
  0
ARC
  5
282
330
2
100
AcDbEntity
  8
UMRISS05
100
AcDbCircle
 10
305.3285181720386
 20
386.9729294499952
 30
0.0
 40
1.999999999999999
100
AcDbArc
 50
180.0
 51
270.0
  0
DIMENSION
  5
283
330
2
100
AcDbEntity
  8
UMRISS05
100
AcDbDimension
280
     0
  2
*D21
 10
298.8285181720396
 20
115.8436893072456
 30
0.0
 11
310.8285181720396
 21
122.8621067697285
 31
0.0
 71
     5
 42
24.0
 73
     0
 74
     0
 75
     0
  3
Katalog 09
100
AcDbAlignedDimension
 13
322.8285181720397
 23
142.5972726480861
 33
0.0
 14
298.8285181720396
 24
142.5972726480917
 34
0.0
100
AcDbRotatedDimension
  0
LINE
  5
292
330
2
100
AcDbEntity
  8
ACHSEN
 48
0.5
100
AcDbLine
 10
310.8285181720412
 20
140.0972726480897
 30
0.0
 11
310.8285181720412
 21
150.8442383143403
 31
0.0
  0
DIMENSION
  5
293
330
2
100
AcDbEntity
  8
BEMASSUNG
100
AcDbDimension
280
     0
  2
*D20
 10
283.3999123214422
 20
142.5972726480934
 30
0.0
 11
283.3999123214421
 21
144.0972726480934
 31
0.0
 70
   128
  1
<>
 71
     5
 42
3.0
 73
     0
 74
     0
 75
     0
  3
Katalog 09
100
AcDbAlignedDimension
 13
298.8285181720403
 23
145.5972726480934
 33
0.0
 14
298.8285181720396
 24
142.5972726480934
 34
0.0
 50
90.0
100
AcDbRotatedDimension
1001
ACAD_DSTYLE_DIMINSPECT
1070
   396
1000
100%
1070
   395
1000

1070
   394
1070
    33
1070
   393
1070
     0
  0
LINE
  5
2A2
330
2
100
AcDbEntity
  8
Verdeckte Kanten(MSL)
100
AcDbLine
 10
313.328518172093
 20
144.097272648089
 30
0.0
 11
314.8285181720935
 21
145.5972726480886
 31
0.0
  0
LINE
  5
2A3
330
2
100
AcDbEntity
  8
Verdeckte Kanten(MSL)
100
AcDbLine
 10
308.328518172093
 20
144.0972726480905
 30
0.0
 11
306.8285181720935
 21
145.597272648091
 31
0.0
  0
LINE
  5
2A4
330
2
100
AcDbEntity
  8
Verdeckte Kanten(MSL)
100
AcDbLine
 10
312.5785181723527
 20
142.5972726480893
 30
0.0
 11
312.5785181723537
 21
145.5972726480893
 31
0.0
  0
LINE
  5
2A5
330
2
100
AcDbEntity
  8
Verdeckte Kanten(MSL)
100
AcDbLine
 10
309.0785181723527
 20
142.5972726480904
 30
0.0
 11
309.0785181723537
 21
145.5972726480903
 31
0.0
  0
LINE
  5
2A6
330
2
100
AcDbEntity
  8
Verdeckte Kanten(MSL)
100
AcDbLine
 10
316.8285181720944
 20
145.597272648088
 30
0.0
 11
316.8285181720935
 21
142.597272648088
 31
0.0
  0
LINE
  5
2A7
330
2
100
AcDbEntity
  8
Verdeckte Kanten(MSL)
100
AcDbLine
 10
318.3285181721128
 20
145.5972726480876
 30
0.0
 11
318.3285181721119
 21
142.5972726480876
 31
0.0
  0
LINE
  5
2A8
330
2
100
AcDbEntity
  8
Verdeckte Kanten(MSL)
100
AcDbLine
 10
303.3285181721128
 20
145.597272648092
 30
0.0
 11
303.3285181721119
 21
142.5972726480921
 31
0.0
  0
LINE
  5
2A9
330
2
100
AcDbEntity
  8
Verdeckte Kanten(MSL)
100
AcDbLine
 10
314.3285181720742
 20
144.3472726480888
 30
0.0
 11
315.5785181720744
 21
145.5972726480884
 31
0.0
  0
LINE
  5
2AA
330
2
100
AcDbEntity
  8
Verdeckte Kanten(MSL)
100
AcDbLine
 10
307.3285181720742
 20
144.3472726480909
 30
0.0
 11
306.0785181720744
 21
145.5972726480911
 31
0.0
  0
LINE
  5
2AB
330
2
100
AcDbEntity
  8
Verdeckte Kanten(MSL)
100
AcDbLine
 10
314.3285181720739
 20
143.8472726480888
 30
0.0
 11
314.3285181720742
 21
144.3472726480889
 31
0.0
  0
LINE
  5
2AC
330
2
100
AcDbEntity
  8
Verdeckte Kanten(MSL)
100
AcDbLine
 10
307.3285181720739
 20
143.8472726480909
 30
0.0
 11
307.3285181720742
 21
144.3472726480909
 31
0.0
  0
LINE
  5
2AD
330
2
100
AcDbEntity
  8
Verdeckte Kanten(MSL)
100
AcDbLine
 10
314.3285181720742
 20
144.3472726480888
 30
0.0
 11
307.3285181720742
 21
144.3472726480909
 31
0.0
  0
LINE
  5
2AE
330
2
100
AcDbEntity
  8
Verdeckte Kanten(MSL)
100
AcDbLine
 10
307.3285181720739
 20
143.8472726480909
 30
0.0
 11
306.0785181720735
 21
142.5972726480912
 31
0.0
  0
LINE
  5
2AF
330
2
100
AcDbEntity
  8
Verdeckte Kanten(MSL)
100
AcDbLine
 10
314.3285181720739
 20
143.8472726480888
 30
0.0
 11
315.5785181720735
 21
142.5972726480884
 31
0.0
  0
LINE
  5
2B0
330
2
100
AcDbEntity
  8
Verdeckte Kanten(MSL)
100
AcDbLine
 10
314.3285181720739
 20
143.8472726480888
 30
0.0
 11
307.3285181720739
 21
143.8472726480909
 31
0.0
  0
LINE
  5
2B1
330
2
100
AcDbEntity
  8
Verdeckte Kanten(MSL)
100
AcDbLine
 10
308.328518172093
 20
144.0972726480906
 30
0.0
 11
306.8285181720926
 21
142.597272648091
 31
0.0
  0
LINE
  5
2B2
330
2
100
AcDbEntity
  8
Verdeckte Kanten(MSL)
100
AcDbLine
 10
313.328518172093
 20
144.097272648089
 30
0.0
 11
314.8285181720926
 21
142.5972726480886
 31
0.0
  0
LINE
  5
2B3
330
2
100
AcDbEntity
  8
Verdeckte Kanten(MSL)
100
AcDbLine
 10
313.328518172093
 20
144.097272648089
 30
0.0
 11
308.328518172093
 21
144.0972726480905
 31
0.0
  0
LINE
  5
2B4
330
2
100
AcDbEntity
  8
UMRISS05
100
AcDbLine
 10
322.8285181720397
 20
142.5972726480861
 30
0.0
 11
322.8285181720403
 21
145.5972726480863
 31
0.0
  0
LINE
  5
2B5
330
2
100
AcDbEntity
  8
UMRISS05
100
AcDbLine
 10
322.8285181720427
 20
145.5972726480863
 30
0.0
 11
298.8285181720426
 21
145.5972726480863
 31
0.0
  0
LINE
  5
2B6
330
2
100
AcDbEntity
  8
UMRISS05
100
AcDbLine
 10
298.8285181720396
 20
142.5972726480934
 30
0.0
 11
298.8285181720403
 21
145.5972726480934
 31
0.0
  0
LINE
  5
2B7
330
2
100
AcDbEntity
  8
UMRISS05
100
AcDbLine
 10
298.828518172042
 20
142.5972726480934
 30
0.0
 11
322.8285181720421
 21
142.5972726480934
 31
0.0
  0
ENDSEC
  0
SECTION
  2
OBJECTS
  0
DICTIONARY
  5
A
330
0
100
AcDbDictionary
281
     1
  3
ACAD_ASSOCNETWORK
350
322
  3
ACAD_CIP_PREVIOUS_PRODUCT_INFO
350
366
  3
ACAD_COLOR
350
5F
  3
ACAD_DETAILVIEWSTYLE
350
2D9
  3
ACAD_FIELDLIST
350
320
  3
ACAD_GROUP
350
4C
  3
ACAD_LAYOUT
350
9
  3
ACAD_MATERIAL
350
18
  3
ACAD_MLEADERSTYLE
350
62
  3
ACAD_MLINESTYLE
350
4D
  3
ACAD_PLOTSETTINGS
350
4E
  3
ACAD_PLOTSTYLENAME
350
16
  3
ACAD_SCALELIST
350
60
  3
ACAD_SECTIONVIEWSTYLE
350
2E7
  3
ACAD_TABLESTYLE
350
61
  3
ACAD_VISUALSTYLE
350
32
  3
ACDB_RECOMPOSE_DATA
350
489
  3
AcDbVariableDictionary
350
329
  3
AcmDictionary
350
2C9
  3
AMG
350
2BA
  3
AMGSNAPSETTINGS
350
3C8
  0
DICTIONARY
  5
21
330
11
100
AcDbDictionary
280
     1
281
     1
  3
ACAD_LAYERFILTERS
360
22
  3
ACAD_LAYERSTATES
360
23
  3
ACLYDICTIONARY
360
24
  3
AMLAYER_GROUPCOLORS
360
26
  0
DICTIONARY
  5
13
330
12
100
AcDbDictionary
280
     1
281
     1
  3
ADSK_XREC_LAYER_RECONCILED
360
14
  0
DICTIONARY
  5
7E
330
7D
100
AcDbDictionary
280
     1
281
     1
  3
ADSK_XREC_LAYER_RECONCILED
360
7F
  0
DICTIONARY
  5
8C
330
8B
100
AcDbDictionary
280
     1
281
     1
  3
ADSK_XREC_LAYER_RECONCILED
360
8D
  0
DICTIONARY
  5
84
330
83
100
AcDbDictionary
280
     1
281
     1
  3
ADSK_XREC_LAYER_RECONCILED
360
85
  0
DICTIONARY
  5
64
330
63
100
AcDbDictionary
280
     1
281
     1
  0
DICTIONARY
  5
3
330
2
100
AcDbDictionary
280
     1
281
     1
  3
ACAD_ASSOCNETWORK
360
4
  3
ACAD_SORTENTS
360
2B8
  0
DICTIONARY
  5
322
102
{ACAD_REACTORS
330
A
102
}
330
A
100
AcDbDictionary
281
     1
  3
ACAD_ASSOCNETWORK
350
323
  0
XRECORD
  5
366
102
{ACAD_REACTORS
330
A
102
}
330
A
100
AcDbXrecord
280
     1
300
AMECH_PP
300
2014
300
PDSU_F_S
  0
DICTIONARY
  5
5F
102
{ACAD_REACTORS
330
A
102
}
330
A
100
AcDbDictionary
281
     1
  0
DICTIONARY
  5
2D9
102
{ACAD_REACTORS
330
A
102
}
330
A
100
AcDbDictionary
281
     1
  3
Imperial24
350
2E0
  3
Metric50
350
2E3
  0
FIELDLIST
  5
320
102
{ACAD_REACTORS
330
A
102
}
330
A
100
AcDbIdSet
 90
        6
330
458
330
459
330
45A
330
45E
330
45F
330
460
100
AcDbFieldList
  0
DICTIONARY
  5
4C
102
{ACAD_REACTORS
330
A
102
}
330
A
100
AcDbDictionary
281
     1
  0
DICTIONARY
  5
9
102
{ACAD_REACTORS
330
A
102
}
330
A
100
AcDbDictionary
281
     1
  3
Layout1
350
10
  3
Model
350
8
  0
DICTIONARY
  5
18
102
{ACAD_REACTORS
330
A
102
}
330
A
100
AcDbDictionary
281
     1
  3
ByBlock
350
57
  3
ByLayer
350
4F
  3
Global
350
17
  0
DICTIONARY
  5
62
102
{ACAD_REACTORS
330
A
102
}
330
A
100
AcDbDictionary
281
     1
  3
Standard
350
35F
  0
DICTIONARY
  5
4D
102
{ACAD_REACTORS
330
A
102
}
330
A
100
AcDbDictionary
281
     1
  3
STANDARD
350
66
  0
DICTIONARY
  5
4E
102
{ACAD_REACTORS
330
A
102
}
330
A
100
AcDbDictionary
281
     1
  0
ACDBDICTIONARYWDFLT
  5
16
102
{ACAD_REACTORS
330
A
102
}
330
A
100
AcDbDictionary
281
     1
  3
Normal
350
15
100
AcDbDictionaryWithDefault
340
15
  0
DICTIONARY
  5
60
102
{ACAD_REACTORS
330
A
102
}
330
A
100
AcDbDictionary
281
     1
  3
A0
350
6B
  3
A1
350
6C
  3
A2
350
6D
  3
A3
350
6E
  3
A4
350
6F
  3
A5
350
70
  3
A6
350
71
  3
A7
350
72
  3
A8
350
73
  3
A9
350
74
  3
B0
350
75
  3
B1
350
76
  3
B2
350
77
  3
B3
350
78
  3
B4
350
79
  3
B5
350
7A
  3
B6
350
7B
  0
DICTIONARY
  5
2E7
102
{ACAD_REACTORS
330
A
102
}
330
A
100
AcDbDictionary
281
     1
  3
Imperial24
350
2F2
  3
Metric50
350
2F5
  0
DICTIONARY
  5
61
102
{ACAD_REACTORS
330
A
102
}
330
A
100
AcDbDictionary
281
     1
  3
Standard
350
67
  0
DICTIONARY
  5
32
102
{ACAD_REACTORS
330
A
102
}
330
A
100
AcDbDictionary
281
     1
  3
2dWireframe
350
31
  3
Basic
350
34E
  3
Brighten
350
352
  3
ColorChange
350
356
  3
Conceptual
350
350
  3
Dim
350
351
  3
EdgeColorOff
350
35E
  3
Facepattern
350
355
  3
Flat
350
34A
  3
FlatWithEdges
350
34B
  3
Gouraud
350
34C
  3
GouraudWithEdges
350
34D
  3
Hidden
350
34F
  3
JitterOff
350
35C
  3
Linepattern
350
354
  3
OverhangOff
350
35D
  3
Realistic
350
69
  3
Shaded
350
35B
  3
Shaded with edges
350
35A
  3
Shades of Gray
350
357
  3
Sketchy
350
358
  3
Thicken
350
353
  3
Wireframe
350
6A
  3
X-Ray
350
359
  0
XRECORD
  5
489
102
{ACAD_REACTORS
330
A
102
}
330
A
100
AcDbXrecord
280
     1
 90
        1
330
67
  0
DICTIONARY
  5
329
102
{ACAD_REACTORS
330
A
102
}
330
A
100
AcDbDictionary
281
     1
  3
CANNOSCALE
350
32F
  3
CMLEADERSTYLE
350
32B
  3
CTABLESTYLE
350
32A
  3
CVIEWDETAILSTYLE
350
32C
  3
CVIEWSECTIONSTYLE
350
32D
  3
LAYEREVAL
350
331
  3
LAYERNOTIFY
350
332
  3
LIGHTINGUNITS
350
330
  3
MSLTSCALE
350
32E
  0
DICTIONARY
  5
2C9
102
{ACAD_REACTORS
330
A
102
}
330
A
100
AcDbDictionary
281
     1
  3
AcmStdDictionary
350
2CA
  0
DICTIONARY
  5
2BA
102
{ACAD_REACTORS
330
A
102
}
330
A
100
AcDbDictionary
281
     1
  0
DICTIONARY
  5
3C8
102
{ACAD_REACTORS
330
A
102
}
330
A
100
AcDbDictionary
281
     1
  0
DICTIONARY
  5
22
102
{ACAD_REACTORS
330
21
102
}
330
21
100
AcDbDictionary
281
     1
  0
DICTIONARY
  5
23
102
{ACAD_REACTORS
330
21
102
}
330
21
100
AcDbDictionary
281
     1
  0
DICTIONARY
  5
24
102
{ACAD_REACTORS
330
21
102
}
330
21
100
AcDbDictionary
281
     1
1001
ACAD
1000
<All
  0
DICTIONARY
  5
26
102
{ACAD_REACTORS
330
21
102
}
330
21
100
AcDbDictionary
280
     1
281
     1
  0
XRECORD
  5
14
102
{ACAD_REACTORS
330
13
102
}
330
13
100
AcDbXrecord
280
     1
290
     1
  0
XRECORD
  5
7F
102
{ACAD_REACTORS
330
7E
102
}
330
7E
100
AcDbXrecord
280
     1
290
     1
  0
XRECORD
  5
8D
102
{ACAD_REACTORS
330
8C
102
}
330
8C
100
AcDbXrecord
280
     1
290
     1
  0
XRECORD
  5
85
102
{ACAD_REACTORS
330
84
102
}
330
84
100
AcDbXrecord
280
     1
290
     1
  0
DICTIONARY
  5
4
102
{ACAD_REACTORS
330
3
102
}
330
3
100
AcDbDictionary
281
     1
  3
ACAD_ASSOCNETWORK
350
321
  0
SORTENTSTABLE
  5
2B8
102
{ACAD_REACTORS
330
3
102
}
330
3
100
AcDbSortentsTable
330
2
331
2AF
  5
281
331
2AB
  5
293
331
27F
  5
209
331
27B
  5
20E
331
EF
  5
2B5
331
CD
  5
CB
331
C9
  5
CF
331
1BF
  5
1CA
331
1BB
  5
1CE
331
1B7
  5
1D2
331
1F6
  5
193
331
2A5
  5
2A7
331
1B3
  5
1D6
331
1F2
  5
197
331
293
  5
2AB
331
115
  5
204
331
111
  5
214
331
23B
  5
227
331
130
  5
201
331
227
  5
D3
331
223
  5
D7
331
21F
  5
EA
331
21B
  5
F0
331
1AF
  5
1DA
331
1EE
  5
19B
331
10C
  5
21E
331
1AB
  5
1DE
331
1EA
  5
19F
331
108
  5
239
331
1A7
  5
1E2
331
1E6
  5
1A3
331
1A3
  5
1E6
331
1E2
  5
1A7
331
D4
  5
89
331
D0
  5
BC
331
14C
  5
1FF
331
217
  5
102
331
213
  5
106
331
20F
  5
10A
331
20B
  5
10E
331
19F
  5
1EA
331
1DE
  5
1AB
331
19B
  5
1EE
331
1DA
  5
1AF
331
197
  5
1F2
331
1D6
  5
1B3
331
193
  5
1F6
331
1D2
  5
1B7
331
276
  5
215
331
81
  5
225
331
DA
  5
47C
331
89
  5
275
331
207
  5
112
331
203
  5
122
331
2B6
  5
27A
331
1FF
  5
14C
331
2B2
  5
27E
331
1FB
  5
176
331
1CE
  5
1BB
331
104
  5
23D
331
1CA
  5
1BF
331
1C6
  5
1C3
331
1C2
  5
1C7
331
F2
  5
2AE
331
123
  5
202
331
282
  5
205
331
2AE
  5
282
331
2AA
  5
2A2
331
27E
  5
20A
331
27A
  5
20F
331
EE
  5
2B6
331
EA
  5
47B
331
1BE
  5
1CB
331
1BA
  5
1CF
331
1B6
  5
1D3
331
1F5
  5
194
331
2A4
  5
2A8
331
1B2
  5
1D7
331
1F1
  5
198
331
292
  5
2AC
331
114
  5
208
331
110
  5
21A
331
23A
  5
228
331
226
  5
D4
331
222
  5
D8
331
21E
  5
ED
331
21A
  5
F1
331
10F
  5
21B
331
1AE
  5
1DB
331
1ED
  5
19C
331
10B
  5
21F
331
1AA
  5
1DF
331
1E9
  5
1A0
331
1A6
  5
1E3
331
1E5
  5
1A4
331
D7
  5
82
331
1A2
  5
1E7
331
1E1
  5
1A8
331
D3
  5
8A
331
216
  5
103
331
212
  5
107
331
20E
  5
10B
331
20A
  5
10F
331
9D
  5
221
331
19E
  5
1EB
331
1DD
  5
1AC
331
19A
  5
1EF
331
1D9
  5
1B0
331
196
  5
1F3
331
1D5
  5
1B4
331
192
  5
1F7
331
1D1
  5
1B8
331
275
  5
216
331
167
  5
1FC
331
80
  5
2B3
331
266
  5
217
331
D9
  5
2B1
331
88
  5
276
331
206
  5
113
331
202
  5
123
331
2B5
  5
27B
331
1FE
  5
14D
331
2B1
  5
27F
331
1FA
  5
183
331
107
  5
23A
331
1CD
  5
1BC
331
103
  5
24C
331
1C9
  5
1C0
331
1C5
  5
1C4
331
1C1
  5
1C8
331
F1
  5
2AF
331
7C
  5
2B2
331
122
  5
203
331
281
  5
206
331
183
  5
1FA
331
2AD
  5
283
331
2A9
  5
2A3
331
27D
  5
20B
331
279
  5
210
331
ED
  5
2B7
331
CF
  5
C9
331
CB
  5
CD
331
1BD
  5
1CC
331
1B9
  5
1D0
331
2A7
  5
2A5
331
1B5
  5
1D4
331
1F4
  5
195
331
2A3
  5
2A9
331
1B1
  5
1D8
331
1F0
  5
199
331
113
  5
20C
331
23D
  5
224
331
239
  5
229
331
225
  5
D5
331
221
  5
D9
331
21D
  5
EE
331
219
  5
F2
331
10E
  5
21C
331
1AD
  5
1DC
331
1EC
  5
19D
331
10A
  5
220
331
1A9
  5
1E0
331
1E8
  5
1A1
331
1A5
  5
1E4
331
1E4
  5
1A5
331
D6
  5
87
331
1A1
  5
1E8
331
1E0
  5
1A9
331
D2
  5
9D
331
229
  5
223
331
15A
  5
1FD
331
215
  5
104
331
211
  5
108
331
20D
  5
10C
331
209
  5
110
331
19D
  5
1EC
331
1DC
  5
1AD
331
199
  5
1F0
331
1D8
  5
1B1
331
195
  5
1F4
331
1D4
  5
1B5
331
191
  5
1F8
331
1D0
  5
1B9
331
87
  5
277
331
259
  5
218
331
D8
  5
81
331
205
  5
114
331
201
  5
130
331
2B4
  5
27C
331
1FD
  5
15A
331
2B0
  5
280
331
1F9
  5
190
331
106
  5
23B
331
1CC
  5
1BD
331
102
  5
259
331
1C8
  5
1C1
331
1C4
  5
1C5
331
1C0
  5
1C9
331
176
  5
1FB
331
F0
  5
2B0
331
280
  5
207
331
2AC
  5
292
331
2A8
  5
2A4
331
27C
  5
20D
331
278
  5
211
331
CE
  5
CA
331
CA
  5
CE
331
1BC
  5
1CD
331
1B8
  5
1D1
331
1F7
  5
192
331
1B4
  5
1D5
331
1F3
  5
196
331
2A2
  5
2AA
331
1B0
  5
1D9
331
112
  5
212
331
23C
  5
226
331
238
  5
236
331
224
  5
D6
331
220
  5
DA
331
21C
  5
EF
331
218
  5
101
331
1EF
  5
19A
331
10D
  5
21D
331
1AC
  5
1DD
331
1EB
  5
19E
331
109
  5
238
331
1A8
  5
1E1
331
1E7
  5
1A2
331
1A4
  5
1E5
331
1E3
  5
1A6
331
D5
  5
88
331
1A0
  5
1E9
331
D1
  5
AC
331
228
  5
D2
331
24C
  5
219
331
14D
  5
1FE
331
214
  5
105
331
210
  5
109
331
20C
  5
10D
331
208
  5
111
331
AC
  5
D1
331
1DF
  5
1AA
331
236
  5
2B4
331
19C
  5
1ED
331
1DB
  5
1AE
331
198
  5
1F1
331
1D7
  5
1B2
331
194
  5
1F5
331
1D3
  5
1B6
331
190
  5
1F9
331
277
  5
213
331
82
  5
278
331
13D
  5
200
331
8A
  5
222
331
204
  5
115
331
2B7
  5
279
331
200
  5
13D
331
2B3
  5
27D
331
1FC
  5
167
331
1F8
  5
191
331
BC
  5
D0
331
1CF
  5
1BA
331
105
  5
23C
331
1CB
  5
1BE
331
101
  5
266
331
1C7
  5
1C2
331
1C3
  5
1C6
331
283
  5
2AD
  0
ACDBASSOCNETWORK
  5
323
102
{ACAD_REACTORS
330
322
102
}
330
322
100
AcDbAssocAction
 90
        1
 90
        0
330
0
360
0
 90
        0
 90
        0
 90
        0
100
AcDbAssocNetwork
 90
        0
 90
        1
 90
        1
330
321
 90
        0
  0
ACDBDETAILVIEWSTYLE
  5
2E0
102
{ACAD_XDICTIONARY
360
490
102
}
102
{ACAD_REACTORS
330
2D9
330
453
102
}
330
2D9
100
AcDbModelDocViewStyle
 70
     0
  3
Imperial24
290
     0
100
AcDbDetailViewStyle
 70
     0
 71
     0
 90
        3
 71
     1
340
28
 62
   256
 40
0.24
340
0
 62
   256
 40
0.24
300

 40
0.36
280
     3
 71
     2
340
20
 90
       25
 62
   256
 71
     3
340
28
 62
   256
 40
0.24
 90
        1
 40
0.75
 90
        1
300
%<\AcVar ViewType \f "%tc1">% %<\AcVar ViewDetailId>%\PVARIA %<\AcVar ViewScale \f "%sn">%
 71
     4
340
20
 90
       25
 62
   256
340
20
 90
       25
 62
   256
280
     0
  0
ACDBDETAILVIEWSTYLE
  5
2E3
102
{ACAD_XDICTIONARY
360
492
102
}
102
{ACAD_REACTORS
330
2D9
330
454
102
}
330
2D9
100
AcDbModelDocViewStyle
 70
     0
  3
Metric50
290
     0
100
AcDbDetailViewStyle
 70
     0
 71
     0
 90
        3
 71
     1
340
28
 62
   256
 40
5.0
340
0
 62
   256
 40
5.0
300

 40
0.0
280
     1
 71
     2
340
20
 90
       25
 62
   256
 71
     3
340
28
 62
   256
 40
5.0
 90
        0
 40
15.0
 90
        1
300
%<\AcVar ViewDetailId>% (%<\AcVar ViewScale \f "%sn">%)
 71
     4
340
20
 90
       25
 62
   256
340
20
 90
       25
 62
   256
280
     0
  0
LAYOUT
  5
10
102
{ACAD_REACTORS
330
9
102
}
330
9
100
AcDbPlotSettings
  1

  2
\\mslklsv1\MSLKLP05
  4

  6

 40
0.0
 41
0.0
 42
0.0
 43
0.0
 44
0.0
 45
0.0
 46
0.0
 47
0.0
 48
0.0
 49
0.0
140
0.0
141
0.0
142
1.0
143
1.0
 70
   688
 72
     0
 73
     0
 74
     5
  7
monochrome.ctb
 75
    16
147
1.0
 76
     0
 77
     2
 78
   300
148
0.0
149
0.0
100
AcDbLayout
  1
Layout1
 70
     1
 71
     1
 10
0.0
 20
0.0
 11
12.0
 21
9.0
 12
0.0
 22
0.0
 32
0.0
 14
1.000000000000000E+20
 24
1.000000000000000E+20
 34
1.000000000000000E+20
 15
-1.000000000000000E+20
 25
-1.000000000000000E+20
 35
-1.000000000000000E+20
146
0.0
 13
0.0
 23
0.0
 33
0.0
 16
1.0
 26
0.0
 36
0.0
 17
0.0
 27
1.0
 37
0.0
 76
     0
330
D
  0
LAYOUT
  5
8
102
{ACAD_XDICTIONARY
360
B
102
}
102
{ACAD_REACTORS
330
9
102
}
330
9
100
AcDbPlotSettings
  1

  2
\\mslklsv1\MSLKLP05
  4
A4
  6

 40
6.720416545867919
 41
6.720392704010007
 42
7.694076538085937
 43
4.011077880859375
 44
209.9733276367186
 45
296.9683227539062
 46
0.0
 47
0.0
 48
0.0
 49
0.0
140
0.0
141
0.0
142
1.0
143
2.49309260033622
 70
 11952
 72
     1
 73
     1
 74
     0
  7
monochrome.ctb
 75
     0
147
0.4011082459853835
 76
     0
 77
     2
 78
   300
148
235.6679059730945
149
-4.095299769500028
100
AcDbLayout
  1
Model
 70
     1
 71
     0
 10
0.0
 20
0.0
 11
12.0
 21
9.0
 12
0.0
 22
0.0
 32
0.0
 14
0.0
 24
0.0
 34
0.0
 15
0.0
 25
0.0
 35
0.0
146
0.0
 13
0.0
 23
0.0
 33
0.0
 16
1.0
 26
0.0
 36
0.0
 17
0.0
 27
1.0
 37
0.0
 76
     0
330
2
331
30
1001
ACAD_PSEXT
1000
\\mslklsv1\MSLKLP05
1000
HP LaserJet 5000 Series PCL
1000
CAD
1000
HP LaserJet 5000N
1070
     0
  0
MATERIAL
  5
57
102
{ACAD_XDICTIONARY
360
58
102
}
102
{ACAD_REACTORS
330
18
102
}
330
18
100
AcDbMaterial
  1
ByBlock
 72
     0
 43
0.0008202099737533
 43
0.0
 43
0.0
 43
0.0
 43
0.0
 43
0.0008202099737533
 43
0.0
 43
0.0
 43
0.0
 43
0.0
 43
1.0
 43
0.0
 43
0.0
 43
0.0
 43
0.0
 43
1.0
 77
     0
 47
0.0008202099737533
 47
0.0
 47
0.0
 47
0.0
 47
0.0
 47
0.0008202099737533
 47
0.0
 47
0.0
 47
0.0
 47
0.0
 47
1.0
 47
0.0
 47
0.0
 47
0.0
 47
0.0
 47
1.0
171
     0
 49
0.0008202099737533
 49
0.0
 49
0.0
 49
0.0
 49
0.0
 49
0.0008202099737533
 49
0.0
 49
0.0
 49
0.0
 49
0.0
 49
1.0
 49
0.0
 49
0.0
 49
0.0
 49
0.0
 49
1.0
175
     0
142
0.0008202099737533
142
0.0
142
0.0
142
0.0
142
0.0
142
0.0008202099737533
142
0.0
142
0.0
142
0.0
142
0.0
142
1.0
142
0.0
142
0.0
142
0.0
142
0.0
142
1.0
179
     0
144
0.0008202099737533
144
0.0
144
0.0
144
0.0
144
0.0
144
0.0008202099737533
144
0.0
144
0.0
144
0.0
144
0.0
144
1.0
144
0.0
144
0.0
144
0.0
144
0.0
144
1.0
147
0.0008202099737533
147
0.0
147
0.0
147
0.0
147
0.0
147
0.0008202099737533
147
0.0
147
0.0
147
0.0
147
0.0
147
1.0
147
0.0
147
0.0
147
0.0
147
0.0
147
1.0
  0
MATERIAL
  5
4F
102
{ACAD_XDICTIONARY
360
50
102
}
102
{ACAD_REACTORS
330
18
102
}
330
18
100
AcDbMaterial
  1
ByLayer
 72
     0
 43
0.0008202099737533
 43
0.0
 43
0.0
 43
0.0
 43
0.0
 43
0.0008202099737533
 43
0.0
 43
0.0
 43
0.0
 43
0.0
 43
1.0
 43
0.0
 43
0.0
 43
0.0
 43
0.0
 43
1.0
 77
     0
 47
0.0008202099737533
 47
0.0
 47
0.0
 47
0.0
 47
0.0
 47
0.0008202099737533
 47
0.0
 47
0.0
 47
0.0
 47
0.0
 47
1.0
 47
0.0
 47
0.0
 47
0.0
 47
0.0
 47
1.0
171
     0
 49
0.0008202099737533
 49
0.0
 49
0.0
 49
0.0
 49
0.0
 49
0.0008202099737533
 49
0.0
 49
0.0
 49
0.0
 49
0.0
 49
1.0
 49
0.0
 49
0.0
 49
0.0
 49
0.0
 49
1.0
175
     0
142
0.0008202099737533
142
0.0
142
0.0
142
0.0
142
0.0
142
0.0008202099737533
142
0.0
142
0.0
142
0.0
142
0.0
142
1.0
142
0.0
142
0.0
142
0.0
142
0.0
142
1.0
179
     0
144
0.0008202099737533
144
0.0
144
0.0
144
0.0
144
0.0
144
0.0008202099737533
144
0.0
144
0.0
144
0.0
144
0.0
144
1.0
144
0.0
144
0.0
144
0.0
144
0.0
144
1.0
147
0.0008202099737533
147
0.0
147
0.0
147
0.0
147
0.0
147
0.0008202099737533
147
0.0
147
0.0
147
0.0
147
0.0
147
1.0
147
0.0
147
0.0
147
0.0
147
0.0
147
1.0
  0
MATERIAL
  5
17
102
{ACAD_XDICTIONARY
360
19
102
}
102
{ACAD_REACTORS
330
18
102
}
330
18
100
AcDbMaterial
  1
Global
 72
     0
 43
0.0008202099737533
 43
0.0
 43
0.0
 43
0.0
 43
0.0
 43
0.0008202099737533
 43
0.0
 43
0.0
 43
0.0
 43
0.0
 43
1.0
 43
0.0
 43
0.0
 43
0.0
 43
0.0
 43
1.0
 77
     0
 47
0.0008202099737533
 47
0.0
 47
0.0
 47
0.0
 47
0.0
 47
0.0008202099737533
 47
0.0
 47
0.0
 47
0.0
 47
0.0
 47
1.0
 47
0.0
 47
0.0
 47
0.0
 47
0.0
 47
1.0
171
     0
 49
0.0008202099737533
 49
0.0
 49
0.0
 49
0.0
 49
0.0
 49
0.0008202099737533
 49
0.0
 49
0.0
 49
0.0
 49
0.0
 49
1.0
 49
0.0
 49
0.0
 49
0.0
 49
0.0
 49
1.0
175
     0
142
0.0008202099737533
142
0.0
142
0.0
142
0.0
142
0.0
142
0.0008202099737533
142
0.0
142
0.0
142
0.0
142
0.0
142
1.0
142
0.0
142
0.0
142
0.0
142
0.0
142
1.0
179
     0
144
0.0008202099737533
144
0.0
144
0.0
144
0.0
144
0.0
144
0.0008202099737533
144
0.0
144
0.0
144
0.0
144
0.0
144
1.0
144
0.0
144
0.0
144
0.0
144
0.0
144
1.0
147
0.0008202099737533
147
0.0
147
0.0
147
0.0
147
0.0
147
0.0008202099737533
147
0.0
147
0.0
147
0.0
147
0.0
147
1.0
147
0.0
147
0.0
147
0.0
147
0.0
147
1.0
  0
MLEADERSTYLE
  5
35F
102
{ACAD_REACTORS
330
62
102
}
330
62
100
AcDbMLeaderStyle
179
     2
170
     2
171
     1
172
     0
 90
        2
 40
0.0
 41
0.0
173
     1
 91
-1056964608
340
2B
 92
       -2
290
     1
 42
2.0
291
     1
 43
0.36
  3
Standard
 44
4.0
300

342
28
174
     1
178
     6
175
     1
176
     0
 93
-1056964608
 45
4.0
292
     0
297
     0
 46
4.0
 94
-1056964608
 47
1.0
 49
1.0
140
1.0
293
     1
141
0.0
294
     1
177
     0
142
1.0
295
     0
296
     0
143
0.125
271
     0
272
     9
273
     9
  0
MLINESTYLE
  5
66
102
{ACAD_REACTORS
330
4D
102
}
330
4D
100
AcDbMlineStyle
  2
STANDARD
 70
     0
  3

 62
     0
 51
90.0
 52
90.0
 71
     2
 49
0.5
 62
   256
  6
BYLAYER
 49
-0.5
 62
   256
  6
BYLAYER
  0
ACDBPLACEHOLDER
  5
15
102
{ACAD_REACTORS
330
16
102
}
330
16
  0
SCALE
  5
6B
102
{ACAD_REACTORS
330
60
102
}
330
60
100
AcDbScale
 70
     0
300
1:1
140
1.0
141
1.0
290
     1
  0
SCALE
  5
6C
102
{ACAD_REACTORS
330
60
102
}
330
60
100
AcDbScale
 70
     0
300
1:2
140
1.0
141
2.0
290
     0
  0
SCALE
  5
6D
102
{ACAD_REACTORS
330
60
102
}
330
60
100
AcDbScale
 70
     0
300
1:4
140
1.0
141
4.0
290
     0
  0
SCALE
  5
6E
102
{ACAD_REACTORS
330
60
102
}
330
60
100
AcDbScale
 70
     0
300
1:5
140
1.0
141
5.0
290
     0
  0
SCALE
  5
6F
102
{ACAD_REACTORS
330
60
102
}
330
60
100
AcDbScale
 70
     0
300
1:8
140
1.0
141
8.0
290
     0
  0
SCALE
  5
70
102
{ACAD_REACTORS
330
60
102
}
330
60
100
AcDbScale
 70
     0
300
1:10
140
1.0
141
10.0
290
     0
  0
SCALE
  5
71
102
{ACAD_REACTORS
330
60
102
}
330
60
100
AcDbScale
 70
     0
300
1:16
140
1.0
141
16.0
290
     0
  0
SCALE
  5
72
102
{ACAD_REACTORS
330
60
102
}
330
60
100
AcDbScale
 70
     0
300
1:20
140
1.0
141
20.0
290
     0
  0
SCALE
  5
73
102
{ACAD_REACTORS
330
60
102
}
330
60
100
AcDbScale
 70
     0
300
1:30
140
1.0
141
30.0
290
     0
  0
SCALE
  5
74
102
{ACAD_REACTORS
330
60
102
}
330
60
100
AcDbScale
 70
     0
300
1:40
140
1.0
141
40.0
290
     0
  0
SCALE
  5
75
102
{ACAD_REACTORS
330
60
102
}
330
60
100
AcDbScale
 70
     0
300
1:50
140
1.0
141
50.0
290
     0
  0
SCALE
  5
76
102
{ACAD_REACTORS
330
60
102
}
330
60
100
AcDbScale
 70
     0
300
1:100
140
1.0
141
100.0
290
     0
  0
SCALE
  5
77
102
{ACAD_REACTORS
330
60
102
}
330
60
100
AcDbScale
 70
     0
300
2:1
140
2.0
141
1.0
290
     0
  0
SCALE
  5
78
102
{ACAD_REACTORS
330
60
102
}
330
60
100
AcDbScale
 70
     0
300
4:1
140
4.0
141
1.0
290
     0
  0
SCALE
  5
79
102
{ACAD_REACTORS
330
60
102
}
330
60
100
AcDbScale
 70
     0
300
8:1
140
8.0
141
1.0
290
     0
  0
SCALE
  5
7A
102
{ACAD_REACTORS
330
60
102
}
330
60
100
AcDbScale
 70
     0
300
10:1
140
10.0
141
1.0
290
     0
  0
SCALE
  5
7B
102
{ACAD_REACTORS
330
60
102
}
330
60
100
AcDbScale
 70
     0
300
100:1
140
100.0
141
1.0
290
     0
  0
ACDBSECTIONVIEWSTYLE
  5
2F2
102
{ACAD_XDICTIONARY
360
494
102
}
102
{ACAD_REACTORS
330
2E7
330
451
102
}
330
2E7
100
AcDbModelDocViewStyle
 70
     0
  3
Imperial24
290
     0
100
AcDbSectionViewStyle
 70
     0
 71
     0
 90
       78
 71
     1
340
28
 62
   256
 40
0.24
340
0
340
0
 62
   256
 40
0.24
300
I, O, Q, S, X, Z
 40
0.48
 90
        3
 40
0.18
 90
        1
 71
     2
340
20
 90
       25
 62
   256
340
20
 90
       50
 62
   256
 40
0.24
 40
0.0
 40
0.24
 71
     3
340
28
 62
   256
 40
0.24
 90
        1
 40
0.75
 90
        1
300
%<\AcVar ViewType \f "%tc1">% %<\AcVar ViewSectionStartId>%-%<\AcVar ViewSectionEndId>%\PVARIA %<\AcVar ViewScale \f "%sn">%
 71
     4
 62
   256
 62
   257
300
ANSI31
 40
1.0
 90
        0
290
     0
290
     0
 90
        6
 40
0.0
 40
1.570796326794896
 40
0.2617993877991494
 40
1.308996938995747
 40
-0.2617993877991494
 40
1.832595714594044
  0
ACDBSECTIONVIEWSTYLE
  5
2F5
102
{ACAD_XDICTIONARY
360
496
102
}
102
{ACAD_REACTORS
330
2E7
330
452
102
}
330
2E7
100
AcDbModelDocViewStyle
 70
     0
  3
Metric50
290
     0
100
AcDbSectionViewStyle
 70
     0
 71
     0
 90
      102
 71
     1
340
28
 62
   256
 40
5.0
340
0
340
0
 62
   256
 40
5.0
300
I, O, Q, S, X, Z
 40
10.0
 90
        0
 40
2.5
 90
        0
 71
     2
340
20
 90
       25
 62
   256
340
20
 90
       50
 62
   256
 40
5.0
 40
2.5
 40
5.0
 71
     3
340
28
 62
   256
 40
5.0
 90
        0
 40
15.0
 90
        1
300
%<\AcVar ViewSectionStartId>%-%<\AcVar ViewSectionEndId>% (%<\AcVar ViewScale \f "%sn">%)
 71
     4
 62
   256
 62
   257
300
ANSI31
 40
1.0
 90
        0
290
     0
290
     0
 90
        6
 40
0.0
 40
1.570796326794896
 40
0.2617993877991494
 40
1.308996938995747
 40
-0.2617993877991494
 40
1.832595714594044
  0
TABLESTYLE
  5
67
102
{ACAD_XDICTIONARY
360
68
102
}
102
{ACAD_REACTORS
330
61
102
}
330
61
100
AcDbTableStyle
280
     0
  3
Standard
 70
     0
 71
     0
 40
0.06
 41
0.06
280
     0
281
     0
  7
STANDARD
140
0.18
170
     2
 62
     0
 63
     7
283
     0
 90
        4
 91
        0
  1

274
    -2
284
     1
 64
     0
275
    -2
285
     1
 65
     0
276
    -2
286
     1
 66
     0
277
    -2
287
     1
 67
     0
278
    -2
288
     1
 68
     0
279
    -2
289
     1
 69
     0
  7
STANDARD
140
0.25
170
     5
 62
     0
 63
     7
283
     0
 90
        4
 91
        0
  1

274
    -2
284
     1
 64
     0
275
    -2
285
     1
 65
     0
276
    -2
286
     1
 66
     0
277
    -2
287
     1
 67
     0
278
    -2
288
     1
 68
     0
279
    -2
289
     1
 69
     0
  7
STANDARD
140
0.18
170
     5
 62
     0
 63
     7
283
     0
 90
        4
 91
        0
  1

274
    -2
284
     1
 64
     0
275
    -2
285
     1
 65
     0
276
    -2
286
     1
 66
     0
277
    -2
287
     1
 67
     0
278
    -2
288
     1
 68
     0
279
    -2
289
     1
 69
     0
  0
VISUALSTYLE
  5
31
102
{ACAD_XDICTIONARY
360
48A
102
}
102
{ACAD_REACTORS
330
32
102
}
330
32
100
AcDbVisualStyle
  2
2dWireframe
 70
     4
177
     2
291
     0
 71
     0
176
     1
 72
     2
176
     1
 73
     0
176
     1
 90
        0
176
     1
 40
0.6
176
     1
 41
30.0
176
     1
 63
     7
421
 16777215
176
     1
 74
     1
176
     1
 91
        4
176
     1
 64
     7
176
     1
 65
   257
176
     1
 75
     1
176
     1
175
     1
176
     1
 42
1.0
176
     1
 92
        0
176
     1
 66
   257
176
     1
 43
1.0
176
     1
 76
     1
176
     1
 77
     6
176
     1
 78
     2
176
     1
 67
     7
176
     1
 79
     5
176
     1
170
     0
176
     1
171
     0
176
     1
290
     0
176
     1
 93
        1
176
     1
 44
0.0
176
     1
173
     0
176
     1
1001
ACAD
1000
AcDbSavedByObjectVersion
1070
     0
  0
VISUALSTYLE
  5
34E
102
{ACAD_XDICTIONARY
360
4A0
102
}
102
{ACAD_REACTORS
330
32
102
}
330
32
100
AcDbVisualStyle
  2
Basic
 70
     7
177
     2
291
     1
 71
     1
176
     1
 72
     0
176
     1
 73
     1
176
     1
 90
        0
176
     1
 40
0.6
176
     1
 41
30.0
176
     1
 63
     7
421
 16777215
176
     1
 74
     0
176
     1
 91
        4
176
     1
 64
     7
176
     1
 65
   257
176
     1
 75
     1
176
     1
175
     1
176
     1
 42
1.0
176
     1
 92
        8
176
     1
 66
     7
176
     1
 43
1.0
176
     1
 76
     1
176
     1
 77
     6
176
     1
 78
     2
176
     1
 67
     7
176
     1
 79
     5
176
     1
170
     0
176
     1
171
     0
176
     1
290
     0
176
     1
 93
        1
176
     1
 44
0.0
176
     1
173
     0
176
     1
1001
ACAD
1000
AcDbSavedByObjectVersion
1070
     0
  0
VISUALSTYLE
  5
352
102
{ACAD_XDICTIONARY
360
4A8
102
}
102
{ACAD_REACTORS
330
32
102
}
330
32
100
AcDbVisualStyle
  2
Brighten
 70
    12
177
     2
291
     1
 71
     2
176
     1
 72
     2
176
     1
 73
     0
176
     1
 90
        0
176
     1
 40
0.6
176
     1
 41
30.0
176
     1
 63
     7
421
 16777215
176
     1
 74
     1
176
     1
 91
        4
176
     1
 64
     7
176
     1
 65
   257
176
     1
 75
     1
176
     1
175
     1
176
     1
 42
1.0
176
     1
 92
        8
176
     1
 66
     7
176
     1
 43
1.0
176
     1
 76
     1
176
     1
 77
     6
176
     1
 78
     2
176
     1
 67
     7
176
     1
 79
     5
176
     1
170
     0
176
     1
171
     0
176
     1
290
     0
176
     1
 93
        1
176
     1
 44
50.0
176
     1
173
     0
176
     1
1001
ACAD
1000
AcDbSavedByObjectVersion
1070
     0
  0
VISUALSTYLE
  5
356
102
{ACAD_XDICTIONARY
360
4B0
102
}
102
{ACAD_REACTORS
330
32
102
}
330
32
100
AcDbVisualStyle
  2
ColorChange
 70
    16
177
     2
291
     1
 71
     2
176
     1
 72
     2
176
     1
 73
     3
176
     1
 90
        0
176
     1
 40
0.6
176
     1
 41
30.0
176
     1
 63
     8
421
  8421504
176
     1
 74
     1
176
     1
 91
        4
176
     1
 64
     7
176
     1
 65
   257
176
     1
 75
     1
176
     1
175
     1
176
     1
 42
1.0
176
     1
 92
        8
176
     1
 66
     8
424
  8421504
176
     1
 43
1.0
176
     1
 76
     1
176
     1
 77
     6
176
     1
 78
     2
176
     1
 67
     7
176
     1
 79
     5
176
     1
170
     0
176
     1
171
     0
176
     1
290
     0
176
     1
 93
        1
176
     1
 44
0.0
176
     1
173
     0
176
     1
1001
ACAD
1000
AcDbSavedByObjectVersion
1070
     0
  0
VISUALSTYLE
  5
350
102
{ACAD_XDICTIONARY
360
4A4
102
}
102
{ACAD_REACTORS
330
32
102
}
330
32
100
AcDbVisualStyle
  2
Conceptual
 70
     9
177
     2
291
     0
 71
     3
176
     1
 72
     2
176
     1
 73
     0
176
     1
 90
        0
176
     1
 40
0.6
176
     1
 41
30.0
176
     1
 63
     7
421
 16777215
176
     1
 74
     2
176
     1
 91
        2
176
     1
 64
     7
176
     1
 65
   257
176
     1
 75
     1
176
     1
175
     1
176
     1
 42
179.0
176
     1
 92
        8
176
     1
 66
     7
176
     1
 43
1.0
176
     1
 76
     1
176
     1
 77
     6
176
     1
 78
     2
176
     1
 67
     7
176
     1
 79
     3
176
     1
170
     0
176
     1
171
     0
176
     1
290
     0
176
     1
 93
        1
176
     1
 44
0.0
176
     1
173
     0
176
     1
1001
ACAD
1000
AcDbSavedByObjectVersion
1070
     0
  0
VISUALSTYLE
  5
351
102
{ACAD_XDICTIONARY
360
4A6
102
}
102
{ACAD_REACTORS
330
32
102
}
330
32
100
AcDbVisualStyle
  2
Dim
 70
    11
177
     2
291
     1
 71
     2
176
     1
 72
     2
176
     1
 73
     0
176
     1
 90
        0
176
     1
 40
0.6
176
     1
 41
30.0
176
     1
 63
     7
421
 16777215
176
     1
 74
     1
176
     1
 91
        4
176
     1
 64
     7
176
     1
 65
   257
176
     1
 75
     1
176
     1
175
     1
176
     1
 42
1.0
176
     1
 92
        8
176
     1
 66
     7
176
     1
 43
1.0
176
     1
 76
     1
176
     1
 77
     6
176
     1
 78
     2
176
     1
 67
     7
176
     1
 79
     5
176
     1
170
     0
176
     1
171
     0
176
     1
290
     0
176
     1
 93
        1
176
     1
 44
-50.0
176
     1
173
     0
176
     1
1001
ACAD
1000
AcDbSavedByObjectVersion
1070
     0
  0
VISUALSTYLE
  5
35E
102
{ACAD_XDICTIONARY
360
4C0
102
}
102
{ACAD_REACTORS
330
32
102
}
330
32
100
AcDbVisualStyle
  2
EdgeColorOff
 70
    22
177
     2
291
     1
 71
     2
176
     0
 72
     2
176
     0
 73
     0
176
     0
 90
        0
176
     0
 40
0.6
176
     0
 41
30.0
176
     0
 63
     7
421
 16777215
176
     0
 74
     1
176
     0
 91
        4
176
     0
 64
     7
176
     0
 65
   257
176
     0
 75
     1
176
     0
175
     1
176
     0
 42
1.0
176
     0
 92
        8
176
     2
 66
     7
176
     0
 43
1.0
176
     0
 76
     1
176
     0
 77
     6
176
     0
 78
     2
176
     0
 67
     7
176
     0
 79
     5
176
     0
170
     0
176
     0
171
     0
176
     0
290
     0
176
     0
 93
        1
176
     0
 44
0.0
176
     0
173
     0
176
     0
1001
ACAD
1000
AcDbSavedByObjectVersion
1070
     0
  0
VISUALSTYLE
  5
355
102
{ACAD_XDICTIONARY
360
4AE
102
}
102
{ACAD_REACTORS
330
32
102
}
330
32
100
AcDbVisualStyle
  2
Facepattern
 70
    15
177
     2
291
     1
 71
     2
176
     1
 72
     2
176
     1
 73
     0
176
     1
 90
        0
176
     1
 40
0.6
176
     1
 41
30.0
176
     1
 63
     7
421
 16777215
176
     1
 74
     1
176
     1
 91
        4
176
     1
 64
     7
176
     1
 65
   257
176
     1
 75
     1
176
     1
175
     1
176
     1
 42
1.0
176
     1
 92
        8
176
     1
 66
     7
176
     1
 43
1.0
176
     1
 76
     1
176
     1
 77
     6
176
     1
 78
     2
176
     1
 67
     7
176
     1
 79
     5
176
     1
170
     0
176
     1
171
     0
176
     1
290
     0
176
     1
 93
        1
176
     1
 44
0.0
176
     1
173
     0
176
     1
1001
ACAD
1000
AcDbSavedByObjectVersion
1070
     0
  0
VISUALSTYLE
  5
34A
102
{ACAD_XDICTIONARY
360
498
102
}
102
{ACAD_REACTORS
330
32
102
}
330
32
100
AcDbVisualStyle
  2
Flat
 70
     0
177
     2
291
     1
 71
     2
176
     1
 72
     1
176
     1
 73
     1
176
     1
 90
        2
176
     1
 40
0.6
176
     1
 41
30.0
176
     1
 63
     7
421
 16777215
176
     1
 74
     0
176
     1
 91
        0
176
     1
 64
     7
176
     1
 65
   257
176
     1
 75
     1
176
     1
175
     1
176
     1
 42
1.0
176
     1
 92
        8
176
     1
 66
     7
176
     1
 43
1.0
176
     1
 76
     1
176
     1
 77
     6
176
     1
 78
     2
176
     1
 67
     7
176
     1
 79
     5
176
     1
170
     0
176
     1
171
     0
176
     1
290
     0
176
     1
 93
       13
176
     1
 44
0.0
176
     1
173
     0
176
     1
1001
ACAD
1000
AcDbSavedByObjectVersion
1070
     0
  0
VISUALSTYLE
  5
34B
102
{ACAD_XDICTIONARY
360
49A
102
}
102
{ACAD_REACTORS
330
32
102
}
330
32
100
AcDbVisualStyle
  2
FlatWithEdges
 70
     1
177
     2
291
     1
 71
     2
176
     1
 72
     1
176
     1
 73
     1
176
     1
 90
        2
176
     1
 40
0.6
176
     1
 41
30.0
176
     1
 63
     7
421
 16777215
176
     1
 74
     1
176
     1
 91
        0
176
     1
 64
     7
176
     1
 65
   257
176
     1
 75
     1
176
     1
175
     1
176
     1
 42
1.0
176
     1
 92
        0
176
     1
 66
   257
176
     1
 43
1.0
176
     1
 76
     1
176
     1
 77
     6
176
     1
 78
     2
176
     1
 67
     7
176
     1
 79
     5
176
     1
170
     0
176
     1
171
     0
176
     1
290
     0
176
     1
 93
       13
176
     1
 44
0.0
176
     1
173
     0
176
     1
1001
ACAD
1000
AcDbSavedByObjectVersion
1070
     0
  0
VISUALSTYLE
  5
34C
102
{ACAD_XDICTIONARY
360
49C
102
}
102
{ACAD_REACTORS
330
32
102
}
330
32
100
AcDbVisualStyle
  2
Gouraud
 70
     2
177
     2
291
     1
 71
     2
176
     1
 72
     2
176
     1
 73
     1
176
     1
 90
        2
176
     1
 40
0.6
176
     1
 41
30.0
176
     1
 63
     7
421
 16777215
176
     1
 74
     0
176
     1
 91
        0
176
     1
 64
     7
176
     1
 65
   257
176
     1
 75
     1
176
     1
175
     1
176
     1
 42
1.0
176
     1
 92
        0
176
     1
 66
     7
176
     1
 43
1.0
176
     1
 76
     1
176
     1
 77
     6
176
     1
 78
     2
176
     1
 67
     7
176
     1
 79
     5
176
     1
170
     0
176
     1
171
     0
176
     1
290
     0
176
     1
 93
       13
176
     1
 44
0.0
176
     1
173
     0
176
     1
1001
ACAD
1000
AcDbSavedByObjectVersion
1070
     0
  0
VISUALSTYLE
  5
34D
102
{ACAD_XDICTIONARY
360
49E
102
}
102
{ACAD_REACTORS
330
32
102
}
330
32
100
AcDbVisualStyle
  2
GouraudWithEdges
 70
     3
177
     2
291
     1
 71
     2
176
     1
 72
     2
176
     1
 73
     1
176
     1
 90
        2
176
     1
 40
0.6
176
     1
 41
30.0
176
     1
 63
     7
421
 16777215
176
     1
 74
     1
176
     1
 91
        0
176
     1
 64
     7
176
     1
 65
   257
176
     1
 75
     1
176
     1
175
     1
176
     1
 42
1.0
176
     1
 92
        0
176
     1
 66
   257
176
     1
 43
1.0
176
     1
 76
     1
176
     1
 77
     6
176
     1
 78
     2
176
     1
 67
     7
176
     1
 79
     5
176
     1
170
     0
176
     1
171
     0
176
     1
290
     0
176
     1
 93
       13
176
     1
 44
0.0
176
     1
173
     0
176
     1
1001
ACAD
1000
AcDbSavedByObjectVersion
1070
     0
  0
VISUALSTYLE
  5
34F
102
{ACAD_XDICTIONARY
360
4A2
102
}
102
{ACAD_REACTORS
330
32
102
}
330
32
100
AcDbVisualStyle
  2
Hidden
 70
     6
177
     2
291
     0
 71
     1
176
     1
 72
     2
176
     1
 73
     2
176
     1
 90
        0
176
     1
 40
0.6
176
     1
 41
30.0
176
     1
 63
     7
421
 16777215
176
     1
 74
     2
176
     1
 91
        2
176
     1
 64
     7
176
     1
 65
   257
176
     1
 75
     2
176
     1
175
     1
176
     1
 42
40.0
176
     1
 92
        0
176
     1
 66
   257
176
     1
 43
1.0
176
     1
 76
     1
176
     1
 77
     6
176
     1
 78
     2
176
     1
 67
     7
176
     1
 79
     3
176
     1
170
     0
176
     1
171
     0
176
     1
290
     0
176
     1
 93
        1
176
     1
 44
0.0
176
     1
173
     0
176
     1
1001
ACAD
1000
AcDbSavedByObjectVersion
1070
     0
  0
VISUALSTYLE
  5
35C
102
{ACAD_XDICTIONARY
360
4BC
102
}
102
{ACAD_REACTORS
330
32
102
}
330
32
100
AcDbVisualStyle
  2
JitterOff
 70
    20
177
     2
291
     1
 71
     2
176
     0
 72
     2
176
     0
 73
     0
176
     0
 90
        0
176
     0
 40
0.6
176
     0
 41
30.0
176
     0
 63
     7
421
 16777215
176
     0
 74
     1
176
     0
 91
        4
176
     0
 64
     7
176
     0
 65
   257
176
     0
 75
     1
176
     0
175
     1
176
     0
 42
1.0
176
     0
 92
       10
176
     2
 66
     7
176
     0
 43
1.0
176
     0
 76
     1
176
     0
 77
     6
176
     0
 78
     2
176
     0
 67
     7
176
     0
 79
     5
176
     0
170
     0
176
     0
171
     0
176
     0
290
     0
176
     0
 93
        1
176
     0
 44
0.0
176
     0
173
     0
176
     0
1001
ACAD
1000
AcDbSavedByObjectVersion
1070
     0
  0
VISUALSTYLE
  5
354
102
{ACAD_XDICTIONARY
360
4AC
102
}
102
{ACAD_REACTORS
330
32
102
}
330
32
100
AcDbVisualStyle
  2
Linepattern
 70
    14
177
     2
291
     1
 71
     2
176
     1
 72
     2
176
     1
 73
     0
176
     1
 90
        0
176
     1
 40
0.6
176
     1
 41
30.0
176
     1
 63
     7
421
 16777215
176
     1
 74
     1
176
     1
 91
        4
176
     1
 64
     7
176
     1
 65
   257
176
     1
 75
     7
176
     1
175
     7
176
     1
 42
1.0
176
     1
 92
        8
176
     1
 66
     7
176
     1
 43
1.0
176
     1
 76
     1
176
     1
 77
     6
176
     1
 78
     2
176
     1
 67
     7
176
     1
 79
     5
176
     1
170
     0
176
     1
171
     0
176
     1
290
     0
176
     1
 93
        1
176
     1
 44
0.0
176
     1
173
     0
176
     1
1001
ACAD
1000
AcDbSavedByObjectVersion
1070
     0
  0
VISUALSTYLE
  5
35D
102
{ACAD_XDICTIONARY
360
4BE
102
}
102
{ACAD_REACTORS
330
32
102
}
330
32
100
AcDbVisualStyle
  2
OverhangOff
 70
    21
177
     2
291
     1
 71
     2
176
     0
 72
     2
176
     0
 73
     0
176
     0
 90
        0
176
     0
 40
0.6
176
     0
 41
30.0
176
     0
 63
     7
421
 16777215
176
     0
 74
     1
176
     0
 91
        4
176
     0
 64
     7
176
     0
 65
   257
176
     0
 75
     1
176
     0
175
     1
176
     0
 42
1.0
176
     0
 92
        9
176
     2
 66
     7
176
     0
 43
1.0
176
     0
 76
     1
176
     0
 77
     6
176
     0
 78
     2
176
     0
 67
     7
176
     0
 79
     5
176
     0
170
     0
176
     0
171
     0
176
     0
290
     0
176
     0
 93
        1
176
     0
 44
0.0
176
     0
173
     0
176
     0
1001
ACAD
1000
AcDbSavedByObjectVersion
1070
     0
  0
VISUALSTYLE
  5
69
102
{ACAD_XDICTIONARY
360
48C
102
}
102
{ACAD_REACTORS
330
32
102
}
330
32
100
AcDbVisualStyle
  2
Realistic
 70
     8
177
     2
291
     0
 71
     2
176
     1
 72
     2
176
     1
 73
     0
176
     1
 90
        0
176
     1
 40
0.6
176
     1
 41
30.0
176
     1
 63
     7
421
 16777215
176
     1
 74
     1
176
     1
 91
        0
176
     1
 64
     7
176
     1
 65
   257
176
     1
 75
     1
176
     1
175
     1
176
     1
 42
1.0
176
     1
 92
        8
176
     1
 66
     8
424
  7895160
176
     1
 43
1.0
176
     1
 76
     1
176
     1
 77
     6
176
     1
 78
     2
176
     1
 67
     7
176
     1
 79
     5
176
     1
170
     0
176
     1
171
     0
176
     1
290
     0
176
     1
 93
       13
176
     1
 44
0.0
176
     1
173
     0
176
     1
1001
ACAD
1000
AcDbSavedByObjectVersion
1070
     0
  0
VISUALSTYLE
  5
35B
102
{ACAD_XDICTIONARY
360
4BA
102
}
102
{ACAD_REACTORS
330
32
102
}
330
32
100
AcDbVisualStyle
  2
Shaded
 70
    27
177
     2
291
     0
 71
     2
176
     1
 72
     2
176
     1
 73
     1
176
     1
 90
        2
176
     1
 40
0.6
176
     1
 41
30.0
176
     1
 63
     7
421
 16777215
176
     1
 74
     0
176
     1
 91
        4
176
     1
 64
     7
176
     1
 65
   257
176
     1
 75
     1
176
     1
175
     1
176
     1
 42
1.0
176
     1
 92
        8
176
     1
 66
   257
176
     1
 43
1.0
176
     1
 76
     1
176
     1
 77
     6
176
     1
 78
     2
176
     1
 67
     8
425
  7895160
176
     1
 79
     3
176
     1
170
     0
176
     1
171
     0
176
     1
290
     0
176
     1
 93
        5
176
     1
 44
0.0
176
     1
173
     0
176
     1
1001
ACAD
1000
AcDbSavedByObjectVersion
1070
     0
  0
VISUALSTYLE
  5
35A
102
{ACAD_XDICTIONARY
360
4B8
102
}
102
{ACAD_REACTORS
330
32
102
}
330
32
100
AcDbVisualStyle
  2
Shaded with edges
 70
    26
177
     2
291
     0
 71
     2
176
     1
 72
     2
176
     1
 73
     1
176
     1
 90
        2
176
     1
 40
0.6
176
     1
 41
30.0
176
     1
 63
     7
421
 16777215
176
     1
 74
     1
176
     1
 91
       10
176
     1
 64
     7
176
     1
 65
   257
176
     1
 75
     2
176
     1
175
     1
176
     1
 42
1.0
176
     1
 92
        8
176
     1
 66
   257
176
     1
 43
1.0
176
     1
 76
     1
176
     1
 77
     6
176
     1
 78
     2
176
     1
 67
     7
176
     1
 79
     3
176
     1
170
     0
176
     1
171
     0
176
     1
290
     0
176
     1
 93
        5
176
     1
 44
0.0
176
     1
173
     0
176
     1
1001
ACAD
1000
AcDbSavedByObjectVersion
1070
     0
  0
VISUALSTYLE
  5
357
102
{ACAD_XDICTIONARY
360
4B2
102
}
102
{ACAD_REACTORS
330
32
102
}
330
32
100
AcDbVisualStyle
  2
Shades of Gray
 70
    23
177
     2
291
     0
 71
     2
176
     1
 72
     2
176
     1
 73
     3
176
     1
 90
        0
176
     1
 40
0.6
176
     1
 41
30.0
176
     1
 63
     7
421
 16777215
176
     1
 74
     2
176
     1
 91
        2
176
     1
 64
     7
176
     1
 65
     7
176
     1
 75
     1
176
     1
175
     1
176
     1
 42
40.0
176
     1
 92
        8
176
     1
 66
     7
176
     1
 43
1.0
176
     1
 76
     1
176
     1
 77
     6
176
     1
 78
     2
176
     1
 67
     7
176
     1
 79
     3
176
     1
170
     0
176
     1
171
     0
176
     1
290
     0
176
     1
 93
        1
176
     1
 44
0.0
176
     1
173
     0
176
     1
1001
ACAD
1000
AcDbSavedByObjectVersion
1070
     0
  0
VISUALSTYLE
  5
358
102
{ACAD_XDICTIONARY
360
4B4
102
}
102
{ACAD_REACTORS
330
32
102
}
330
32
100
AcDbVisualStyle
  2
Sketchy
 70
    24
177
     2
291
     0
 71
     1
176
     1
 72
     2
176
     1
 73
     2
176
     1
 90
        0
176
     1
 40
0.6
176
     1
 41
30.0
176
     1
 63
     7
421
 16777215
176
     1
 74
     2
176
     1
 91
        2
176
     1
 64
     7
176
     1
 65
     7
176
     1
 75
     1
176
     1
175
     1
176
     1
 42
40.0
176
     1
 92
       11
176
     1
 66
     7
176
     1
 43
1.0
176
     1
 76
     1
176
     1
 77
     6
176
     1
 78
     2
176
     1
 67
     7
176
     1
 79
     6
176
     1
170
     0
176
     1
171
     0
176
     1
290
     0
176
     1
 93
        1
176
     1
 44
0.0
176
     1
173
     0
176
     1
1001
ACAD
1000
AcDbSavedByObjectVersion
1070
     0
  0
VISUALSTYLE
  5
353
102
{ACAD_XDICTIONARY
360
4AA
102
}
102
{ACAD_REACTORS
330
32
102
}
330
32
100
AcDbVisualStyle
  2
Thicken
 70
    13
177
     2
291
     1
 71
     2
176
     1
 72
     2
176
     1
 73
     0
176
     1
 90
        0
176
     1
 40
0.6
176
     1
 41
30.0
176
     1
 63
     7
421
 16777215
176
     1
 74
     1
176
     1
 91
        4
176
     1
 64
     7
176
     1
 65
   257
176
     1
 75
     1
176
     1
175
     1
176
     1
 42
1.0
176
     1
 92
       12
176
     1
 66
     7
176
     1
 43
1.0
176
     1
 76
     1
176
     1
 77
     6
176
     1
 78
     2
176
     1
 67
     7
176
     1
 79
     5
176
     1
170
     0
176
     1
171
     0
176
     1
290
     0
176
     1
 93
        1
176
     1
 44
0.0
176
     1
173
     0
176
     1
1001
ACAD
1000
AcDbSavedByObjectVersion
1070
     0
  0
VISUALSTYLE
  5
6A
102
{ACAD_XDICTIONARY
360
48E
102
}
102
{ACAD_REACTORS
330
32
102
}
330
32
100
AcDbVisualStyle
  2
Wireframe
 70
     5
177
     2
291
     0
 71
     0
176
     1
 72
     2
176
     1
 73
     0
176
     1
 90
        0
176
     1
 40
0.6
176
     1
 41
30.0
176
     1
 63
     7
421
 16777215
176
     1
 74
     1
176
     1
 91
        4
176
     1
 64
     7
176
     1
 65
   257
176
     1
 75
     1
176
     1
175
     1
176
     1
 42
1.0
176
     1
 92
        0
176
     1
 66
   257
176
     1
 43
1.0
176
     1
 76
     1
176
     1
 77
     6
176
     1
 78
     2
176
     1
 67
     7
176
     1
 79
     3
176
     1
170
     0
176
     1
171
     0
176
     1
290
     0
176
     1
 93
        1
176
     1
 44
0.0
176
     1
173
     0
176
     1
1001
ACAD
1000
AcDbSavedByObjectVersion
1070
     0
  0
VISUALSTYLE
  5
359
102
{ACAD_XDICTIONARY
360
4B6
102
}
102
{ACAD_REACTORS
330
32
102
}
330
32
100
AcDbVisualStyle
  2
X-Ray
 70
    25
177
     2
291
     0
 71
     2
176
     1
 72
     2
176
     1
 73
     1
176
     1
 90
        1
176
     1
 40
0.5
176
     1
 41
30.0
176
     1
 63
     7
421
 16777215
176
     1
 74
     1
176
     1
 91
        0
176
     1
 64
     7
176
     1
 65
   257
176
     1
 75
     1
176
     1
175
     1
176
     1
 42
1.0
176
     1
 92
        8
176
     1
 66
     7
176
     1
 43
1.0
176
     1
 76
     1
176
     1
 77
     6
176
     1
 78
     2
176
     1
 67
     7
176
     1
 79
     3
176
     1
170
     0
176
     1
171
     0
176
     1
290
     0
176
     1
 93
       13
176
     1
 44
0.0
176
     1
173
     0
176
     1
1001
ACAD
1000
AcDbSavedByObjectVersion
1070
     0
  0
DICTIONARYVAR
  5
32F
102
{ACAD_REACTORS
330
329
102
}
330
329
100
DictionaryVariables
280
     0
  1
1:1
  0
DICTIONARYVAR
  5
32B
102
{ACAD_REACTORS
330
329
102
}
330
329
100
DictionaryVariables
280
     0
  1
STANDARD
  0
DICTIONARYVAR
  5
32A
102
{ACAD_REACTORS
330
329
102
}
330
329
100
DictionaryVariables
280
     0
  1
STANDARD
  0
DICTIONARYVAR
  5
32C
102
{ACAD_REACTORS
330
329
102
}
330
329
100
DictionaryVariables
280
     0
  1
Metric50
  0
DICTIONARYVAR
  5
32D
102
{ACAD_REACTORS
330
329
102
}
330
329
100
DictionaryVariables
280
     0
  1
Metric50
  0
DICTIONARYVAR
  5
331
102
{ACAD_REACTORS
330
329
102
}
330
329
100
DictionaryVariables
280
     0
  1
1
  0
DICTIONARYVAR
  5
332
102
{ACAD_REACTORS
330
329
102
}
330
329
100
DictionaryVariables
280
     0
  1
15
  0
DICTIONARYVAR
  5
330
102
{ACAD_REACTORS
330
329
102
}
330
329
100
DictionaryVariables
280
     0
  1
0
  0
DICTIONARYVAR
  5
32E
102
{ACAD_REACTORS
330
329
102
}
330
329
100
DictionaryVariables
280
     0
  1
0
  0
DICTIONARY
  5
2CA
102
{ACAD_REACTORS
330
2C9
102
}
330
2C9
100
AcDbDictionary
281
     1
  0
ACDBASSOCNETWORK
  5
321
102
{ACAD_REACTORS
330
4
102
}
330
4
100
AcDbAssocAction
 90
        1
 90
        0
330
323
360
0
 90
        1
 90
        0
 90
        0
100
AcDbAssocNetwork
 90
        0
 90
        1
 90
        1
360
316
 90
        0
  0
DICTIONARY
  5
490
330
2E0
100
AcDbDictionary
280
     1
281
     1
  3
ACAD_XREC_ROUNDTRIP
360
491
  0
DICTIONARY
  5
492
330
2E3
100
AcDbDictionary
280
     1
281
     1
  3
ACAD_XREC_ROUNDTRIP
360
493
  0
DICTIONARY
  5
B
330
8
100
AcDbDictionary
280
     1
281
     1
  0
DICTIONARY
  5
58
330
57
100
AcDbDictionary
280
     1
281
     1
  3
BUMPTILE
360
59
  3
DIFFUSETILE
360
5A
  3
OPACITYTILE
360
5B
  3
REFLECTIONTILE
360
5C
  3
REFRACTIONTILE
360
5D
  3
SPECULARTILE
360
5E
  0
DICTIONARY
  5
50
330
4F
100
AcDbDictionary
280
     1
281
     1
  3
BUMPTILE
360
51
  3
DIFFUSETILE
360
52
  3
OPACITYTILE
360
53
  3
REFLECTIONTILE
360
54
  3
REFRACTIONTILE
360
55
  3
SPECULARTILE
360
56
  0
DICTIONARY
  5
19
330
17
100
AcDbDictionary
280
     1
281
     1
  3
BUMPTILE
360
1A
  3
DIFFUSETILE
360
1B
  3
OPACITYTILE
360
1C
  3
REFLECTIONTILE
360
1D
  3
REFRACTIONTILE
360
1E
  3
SPECULARTILE
360
1F
  0
DICTIONARY
  5
494
330
2F2
100
AcDbDictionary
280
     1
281
     1
  3
ACAD_XREC_ROUNDTRIP
360
495
  0
DICTIONARY
  5
496
330
2F5
100
AcDbDictionary
280
     1
281
     1
  3
ACAD_XREC_ROUNDTRIP
360
497
  0
DICTIONARY
  5
68
330
67
100
AcDbDictionary
280
     1
281
     1
  3
ACAD_ROUNDTRIP_2008_TABLESTYLE_CELLSTYLEMAP
360
488
  0
DICTIONARY
  5
48A
330
31
100
AcDbDictionary
280
     1
281
     1
  3
ACAD_XREC_ROUNDTRIP
360
48B
  0
DICTIONARY
  5
4A0
330
34E
100
AcDbDictionary
280
     1
281
     1
  3
ACAD_XREC_ROUNDTRIP
360
4A1
  0
DICTIONARY
  5
4A8
330
352
100
AcDbDictionary
280
     1
281
     1
  3
ACAD_XREC_ROUNDTRIP
360
4A9
  0
DICTIONARY
  5
4B0
330
356
100
AcDbDictionary
280
     1
281
     1
  3
ACAD_XREC_ROUNDTRIP
360
4B1
  0
DICTIONARY
  5
4A4
330
350
100
AcDbDictionary
280
     1
281
     1
  3
ACAD_XREC_ROUNDTRIP
360
4A5
  0
DICTIONARY
  5
4A6
330
351
100
AcDbDictionary
280
     1
281
     1
  3
ACAD_XREC_ROUNDTRIP
360
4A7
  0
DICTIONARY
  5
4C0
330
35E
100
AcDbDictionary
280
     1
281
     1
  3
ACAD_XREC_ROUNDTRIP
360
4C1
  0
DICTIONARY
  5
4AE
330
355
100
AcDbDictionary
280
     1
281
     1
  3
ACAD_XREC_ROUNDTRIP
360
4AF
  0
DICTIONARY
  5
498
330
34A
100
AcDbDictionary
280
     1
281
     1
  3
ACAD_XREC_ROUNDTRIP
360
499
  0
DICTIONARY
  5
49A
330
34B
100
AcDbDictionary
280
     1
281
     1
  3
ACAD_XREC_ROUNDTRIP
360
49B
  0
DICTIONARY
  5
49C
330
34C
100
AcDbDictionary
280
     1
281
     1
  3
ACAD_XREC_ROUNDTRIP
360
49D
  0
DICTIONARY
  5
49E
330
34D
100
AcDbDictionary
280
     1
281
     1
  3
ACAD_XREC_ROUNDTRIP
360
49F
  0
DICTIONARY
  5
4A2
330
34F
100
AcDbDictionary
280
     1
281
     1
  3
ACAD_XREC_ROUNDTRIP
360
4A3
  0
DICTIONARY
  5
4BC
330
35C
100
AcDbDictionary
280
     1
281
     1
  3
ACAD_XREC_ROUNDTRIP
360
4BD
  0
DICTIONARY
  5
4AC
330
354
100
AcDbDictionary
280
     1
281
     1
  3
ACAD_XREC_ROUNDTRIP
360
4AD
  0
DICTIONARY
  5
4BE
330
35D
100
AcDbDictionary
280
     1
281
     1
  3
ACAD_XREC_ROUNDTRIP
360
4BF
  0
DICTIONARY
  5
48C
330
69
100
AcDbDictionary
280
     1
281
     1
  3
ACAD_XREC_ROUNDTRIP
360
48D
  0
DICTIONARY
  5
4BA
330
35B
100
AcDbDictionary
280
     1
281
     1
  3
ACAD_XREC_ROUNDTRIP
360
4BB
  0
DICTIONARY
  5
4B8
330
35A
100
AcDbDictionary
280
     1
281
     1
  3
ACAD_XREC_ROUNDTRIP
360
4B9
  0
DICTIONARY
  5
4B2
330
357
100
AcDbDictionary
280
     1
281
     1
  3
ACAD_XREC_ROUNDTRIP
360
4B3
  0
DICTIONARY
  5
4B4
330
358
100
AcDbDictionary
280
     1
281
     1
  3
ACAD_XREC_ROUNDTRIP
360
4B5
  0
DICTIONARY
  5
4AA
330
353
100
AcDbDictionary
280
     1
281
     1
  3
ACAD_XREC_ROUNDTRIP
360
4AB
  0
DICTIONARY
  5
48E
330
6A
100
AcDbDictionary
280
     1
281
     1
  3
ACAD_XREC_ROUNDTRIP
360
48F
  0
DICTIONARY
  5
4B6
330
359
100
AcDbDictionary
280
     1
281
     1
  3
ACAD_XREC_ROUNDTRIP
360
4B7
  0
ACDBASSOC2DCONSTRAINTGROUP
  5
316
330
321
100
AcDbAssocAction
 90
        1
 90
        0
330
321
360
0
 90
        1
 90
     2669
 90
        0
 90
        2
 70
     0
 10
0.0
 20
0.0
 30
0.0
 10
1.0
 20
0.0
 30
0.0
 10
0.0
 20
1.0
 30
0.0
360
0
 90
        2
360
31E
360
31F
 90
    17871
 90
       17
  1
AcConstrainedBoundedLine
330
316
 90
    17812
 70
     1
 90
        4
 90
    17814
 90
    17816
 90
    17823
 90
    17824
330
31E
 90
        0
 10
304.0785181720385
 20
980.480117358349
 30
0.0
 10
1.0
 20
0.0
 30
0.0
290
     0
 10
304.0785181720385
 20
980.480117358349
 30
0.0
 11
317.5785181720385
 21
980.480117358349
 31
0.0
  1
AcConstrainedImplicitPoint
330
316
 90
    17813
 70
     1
 90
        1
 90
    17814
330
0
 90
        0
280
     0
 90
       -1
 90
    17812
  1
AcPointCurveConstraint
330
316
 90
    17814
 70
     0
 90
        2
 90
    17813
 90
    17812
 90
        0
290
     1
290
     1
  1
AcConstrainedImplicitPoint
330
316
 90
    17815
 70
     1
 90
        1
 90
    17816
330
0
 90
        0
280
     1
 90
       -1
 90
    17812
  1
AcPointCurveConstraint
330
316
 90
    17816
 70
     0
 90
        2
 90
    17815
 90
    17812
 90
        0
290
     1
290
     1
  1
AcConstrainedBoundedLine
330
316
 90
    17817
 70
     1
 90
        4
 90
    17819
 90
    17821
 90
    17826
 90
    17827
330
31F
 90
        0
 10
310.8285181720385
 20
987.230117358349
 30
0.0
 10
0.0
 20
-1.0
 30
0.0
290
     0
 10
310.8285181720385
 20
987.230117358349
 30
0.0
 11
310.8285181720385
 21
973.7301173583492
 31
0.0
  1
AcConstrainedImplicitPoint
330
316
 90
    17818
 70
     1
 90
        1
 90
    17819
330
0
 90
        0
280
     0
 90
       -1
 90
    17817
  1
AcPointCurveConstraint
330
316
 90
    17819
 70
     0
 90
        2
 90
    17818
 90
    17817
 90
        0
290
     1
290
     1
  1
AcConstrainedImplicitPoint
330
316
 90
    17820
 70
     1
 90
        1
 90
    17821
330
0
 90
        0
280
     1
 90
       -1
 90
    17817
  1
AcPointCurveConstraint
330
316
 90
    17821
 70
     0
 90
        2
 90
    17820
 90
    17817
 90
        0
290
     1
290
     1
  1
AcConstrainedImplicitPoint
330
316
 90
    17822
 70
     1
 90
        3
 90
    17823
 90
    17824
 90
    17828
330
0
 90
        0
280
     2
 90
       -1
 90
    17812
  1
AcPointCurveConstraint
330
316
 90
    17823
 70
     0
 90
        2
 90
    17822
 90
    17812
 90
        0
290
     1
290
     1
  1
AcMidPointConstraint
330
316
 90
    17824
 70
     0
 90
        2
 90
    17822
 90
    17812
 90
        0
290
     1
290
     1
  1
AcConstrainedImplicitPoint
330
316
 90
    17825
 70
     1
 90
        3
 90
    17826
 90
    17827
 90
    17828
330
0
 90
        0
280
     2
 90
       -1
 90
    17817
  1
AcPointCurveConstraint
330
316
 90
    17826
 70
     0
 90
        2
 90
    17825
 90
    17817
 90
        0
290
     1
290
     1
  1
AcMidPointConstraint
330
316
 90
    17827
 70
     0
 90
        2
 90
    17825
 90
    17817
 90
        0
290
     1
290
     1
  1
AcPointCoincidenceConstraint
330
316
 90
    17828
 70
     0
 90
        2
 90
    17822
 90
    17825
 90
        0
290
     0
290
     1
  0
XRECORD
  5
491
102
{ACAD_REACTORS
330
490
102
}
330
490
100
AcDbXrecord
280
     1
102
DISPLAYNAME
  1
Imperial24
102
FLAGS
 90
        0
  0
XRECORD
  5
493
102
{ACAD_REACTORS
330
492
102
}
330
492
100
AcDbXrecord
280
     1
102
DISPLAYNAME
  1
Metric50
102
FLAGS
 90
        0
  0
XRECORD
  5
59
102
{ACAD_REACTORS
330
58
102
}
330
58
100
AcDbXrecord
280
     1
270
     1
271
     1
  0
XRECORD
  5
5A
102
{ACAD_REACTORS
330
58
102
}
330
58
100
AcDbXrecord
280
     1
270
     1
271
     1
  0
XRECORD
  5
5B
102
{ACAD_REACTORS
330
58
102
}
330
58
100
AcDbXrecord
280
     1
270
     1
271
     1
  0
XRECORD
  5
5C
102
{ACAD_REACTORS
330
58
102
}
330
58
100
AcDbXrecord
280
     1
270
     1
271
     1
  0
XRECORD
  5
5D
102
{ACAD_REACTORS
330
58
102
}
330
58
100
AcDbXrecord
280
     1
270
     1
271
     1
  0
XRECORD
  5
5E
102
{ACAD_REACTORS
330
58
102
}
330
58
100
AcDbXrecord
280
     1
270
     1
271
     1
  0
XRECORD
  5
51
102
{ACAD_REACTORS
330
50
102
}
330
50
100
AcDbXrecord
280
     1
270
     1
271
     1
  0
XRECORD
  5
52
102
{ACAD_REACTORS
330
50
102
}
330
50
100
AcDbXrecord
280
     1
270
     1
271
     1
  0
XRECORD
  5
53
102
{ACAD_REACTORS
330
50
102
}
330
50
100
AcDbXrecord
280
     1
270
     1
271
     1
  0
XRECORD
  5
54
102
{ACAD_REACTORS
330
50
102
}
330
50
100
AcDbXrecord
280
     1
270
     1
271
     1
  0
XRECORD
  5
55
102
{ACAD_REACTORS
330
50
102
}
330
50
100
AcDbXrecord
280
     1
270
     1
271
     1
  0
XRECORD
  5
56
102
{ACAD_REACTORS
330
50
102
}
330
50
100
AcDbXrecord
280
     1
270
     1
271
     1
  0
XRECORD
  5
1A
102
{ACAD_REACTORS
330
19
102
}
330
19
100
AcDbXrecord
280
     1
270
     1
271
     1
  0
XRECORD
  5
1B
102
{ACAD_REACTORS
330
19
102
}
330
19
100
AcDbXrecord
280
     1
270
     1
271
     1
  0
XRECORD
  5
1C
102
{ACAD_REACTORS
330
19
102
}
330
19
100
AcDbXrecord
280
     1
270
     1
271
     1
  0
XRECORD
  5
1D
102
{ACAD_REACTORS
330
19
102
}
330
19
100
AcDbXrecord
280
     1
270
     1
271
     1
  0
XRECORD
  5
1E
102
{ACAD_REACTORS
330
19
102
}
330
19
100
AcDbXrecord
280
     1
270
     1
271
     1
  0
XRECORD
  5
1F
102
{ACAD_REACTORS
330
19
102
}
330
19
100
AcDbXrecord
280
     1
270
     1
271
     1
  0
XRECORD
  5
495
102
{ACAD_REACTORS
330
494
102
}
330
494
100
AcDbXrecord
280
     1
102
DISPLAYNAME
  1
Imperial24
102
FLAGS
 90
        0
  0
XRECORD
  5
497
102
{ACAD_REACTORS
330
496
102
}
330
496
100
AcDbXrecord
280
     1
102
DISPLAYNAME
  1
Metric50
102
FLAGS
 90
        0
  0
CELLSTYLEMAP
  5
488
102
{ACAD_REACTORS
330
68
102
}
330
68
100
AcDbCellStyleMap
 90
        3
300
CELLSTYLE
  1
TABLEFORMAT_BEGIN
 90
        5
170
     1
 91
        0
 92
    32768
 62
   257
 93
        1
300
CONTENTFORMAT
  1
CONTENTFORMAT_BEGIN
 90
        0
 91
        0
 92
        4
 93
        0
300

 40
0.0
140
1.0
 94
        5
 62
     0
340
28
144
0.25
309
CONTENTFORMAT_END
171
     1
301
MARGIN
  1
CELLMARGIN_BEGIN
 40
0.06
 40
0.06
 40
0.06
 40
0.06
 40
0.18
 40
0.18
309
CELLMARGIN_END
 94
        6
 95
        1
302
GRIDFORMAT
  1
GRIDFORMAT_BEGIN
 90
        0
 91
        1
 62
     0
 92
       -2
340
0
 93
        0
 40
0.045
309
GRIDFORMAT_END
 95
        2
302
GRIDFORMAT
  1
GRIDFORMAT_BEGIN
 90
        0
 91
        1
 62
     0
 92
       -2
340
0
 93
        0
 40
0.045
309
GRIDFORMAT_END
 95
        4
302
GRIDFORMAT
  1
GRIDFORMAT_BEGIN
 90
        0
 91
        1
 62
     0
 92
       -2
340
0
 93
        0
 40
0.045
309
GRIDFORMAT_END
 95
        8
302
GRIDFORMAT
  1
GRIDFORMAT_BEGIN
 90
        0
 91
        1
 62
     0
 92
       -2
340
0
 93
        0
 40
0.045
309
GRIDFORMAT_END
 95
       16
302
GRIDFORMAT
  1
GRIDFORMAT_BEGIN
 90
        0
 91
        1
 62
     0
 92
       -2
340
0
 93
        0
 40
0.045
309
GRIDFORMAT_END
 95
       32
302
GRIDFORMAT
  1
GRIDFORMAT_BEGIN
 90
        0
 91
        1
 62
     0
 92
       -2
340
0
 93
        0
 40
0.045
309
GRIDFORMAT_END
309
TABLEFORMAT_END
  1
CELLSTYLE_BEGIN
 90
        1
 91
        1
300
_TITLE
309
CELLSTYLE_END
300
CELLSTYLE
  1
TABLEFORMAT_BEGIN
 90
        5
170
     1
 91
        0
 92
        0
 62
   257
 93
        1
300
CONTENTFORMAT
  1
CONTENTFORMAT_BEGIN
 90
        0
 91
        0
 92
        4
 93
        0
300

 40
0.0
140
1.0
 94
        5
 62
     0
340
28
144
0.18
309
CONTENTFORMAT_END
171
     1
301
MARGIN
  1
CELLMARGIN_BEGIN
 40
0.06
 40
0.06
 40
0.06
 40
0.06
 40
0.18
 40
0.18
309
CELLMARGIN_END
 94
        6
 95
        1
302
GRIDFORMAT
  1
GRIDFORMAT_BEGIN
 90
        0
 91
        1
 62
     0
 92
       -2
340
0
 93
        0
 40
0.045
309
GRIDFORMAT_END
 95
        2
302
GRIDFORMAT
  1
GRIDFORMAT_BEGIN
 90
        0
 91
        1
 62
     0
 92
       -2
340
0
 93
        0
 40
0.045
309
GRIDFORMAT_END
 95
        4
302
GRIDFORMAT
  1
GRIDFORMAT_BEGIN
 90
        0
 91
        1
 62
     0
 92
       -2
340
0
 93
        0
 40
0.045
309
GRIDFORMAT_END
 95
        8
302
GRIDFORMAT
  1
GRIDFORMAT_BEGIN
 90
        0
 91
        1
 62
     0
 92
       -2
340
0
 93
        0
 40
0.045
309
GRIDFORMAT_END
 95
       16
302
GRIDFORMAT
  1
GRIDFORMAT_BEGIN
 90
        0
 91
        1
 62
     0
 92
       -2
340
0
 93
        0
 40
0.045
309
GRIDFORMAT_END
 95
       32
302
GRIDFORMAT
  1
GRIDFORMAT_BEGIN
 90
        0
 91
        1
 62
     0
 92
       -2
340
0
 93
        0
 40
0.045
309
GRIDFORMAT_END
309
TABLEFORMAT_END
  1
CELLSTYLE_BEGIN
 90
        2
 91
        1
300
_HEADER
309
CELLSTYLE_END
300
CELLSTYLE
  1
TABLEFORMAT_BEGIN
 90
        5
170
     1
 91
        0
 92
        0
 62
   257
 93
        1
300
CONTENTFORMAT
  1
CONTENTFORMAT_BEGIN
 90
        0
 91
        0
 92
        4
 93
        0
300

 40
0.0
140
1.0
 94
        2
 62
     0
340
28
144
0.18
309
CONTENTFORMAT_END
171
     1
301
MARGIN
  1
CELLMARGIN_BEGIN
 40
0.06
 40
0.06
 40
0.06
 40
0.06
 40
0.18
 40
0.18
309
CELLMARGIN_END
 94
        6
 95
        1
302
GRIDFORMAT
  1
GRIDFORMAT_BEGIN
 90
        0
 91
        1
 62
     0
 92
       -2
340
0
 93
        0
 40
0.045
309
GRIDFORMAT_END
 95
        2
302
GRIDFORMAT
  1
GRIDFORMAT_BEGIN
 90
        0
 91
        1
 62
     0
 92
       -2
340
0
 93
        0
 40
0.045
309
GRIDFORMAT_END
 95
        4
302
GRIDFORMAT
  1
GRIDFORMAT_BEGIN
 90
        0
 91
        1
 62
     0
 92
       -2
340
0
 93
        0
 40
0.045
309
GRIDFORMAT_END
 95
        8
302
GRIDFORMAT
  1
GRIDFORMAT_BEGIN
 90
        0
 91
        1
 62
     0
 92
       -2
340
0
 93
        0
 40
0.045
309
GRIDFORMAT_END
 95
       16
302
GRIDFORMAT
  1
GRIDFORMAT_BEGIN
 90
        0
 91
        1
 62
     0
 92
       -2
340
0
 93
        0
 40
0.045
309
GRIDFORMAT_END
 95
       32
302
GRIDFORMAT
  1
GRIDFORMAT_BEGIN
 90
        0
 91
        1
 62
     0
 92
       -2
340
0
 93
        0
 40
0.045
309
GRIDFORMAT_END
309
TABLEFORMAT_END
  1
CELLSTYLE_BEGIN
 90
        3
 91
        2
300
_DATA
309
CELLSTYLE_END
  0
XRECORD
  5
48B
102
{ACAD_REACTORS
330
48A
102
}
330
48A
100
AcDbXrecord
280
     1
102
RTVSPost2010Prop28
280
     1
102
RTVSPost2010PropOp28
 70
     1
102
RTVSPost2010Prop29
280
     1
102
RTVSPost2010PropOp29
 70
     1
102
RTVSPost2010Prop30
280
     0
102
RTVSPost2010PropOp30
 70
     1
102
RTVSPost2010Prop31
280
     0
102
RTVSPost2010PropOp31
 70
     1
102
RTVSPost2010Prop32
280
     0
102
RTVSPost2010PropOp32
 70
     1
102
RTVSPost2010Prop33
280
     0
102
RTVSPost2010PropOp33
 70
     1
102
RTVSPost2010Prop34
280
     0
102
RTVSPost2010PropOp34
 70
     1
102
RTVSPost2010Prop35
280
     0
102
RTVSPost2010PropOp35
 70
     1
102
RTVSPost2010Prop36
280
     0
102
RTVSPost2010PropOp36
 70
     1
102
RTVSPost2010Prop37
 90
       50
102
RTVSPost2010PropOp37
 70
     1
102
RTVSPost2010Prop38
140
0.0
102
RTVSPost2010PropOp38
 70
     1
102
RTVSPost2010Prop39
140
1.0
102
RTVSPost2010PropOp39
 70
     1
102
RTVSPost2010Prop40
 90
        0
102
RTVSPost2010PropOp40
 70
     1
102
RTVSPost2010Prop41ColorIndex
 90
       18
102
RTVSPost2010Prop41ColorRGB
 90
-16777216
102
RTVSPost2010PropOp41
 70
     1
102
RTVSPost2010Prop42
 90
       50
102
RTVSPost2010PropOp42
 70
     1
102
RTVSPost2010Prop43
 90
        3
102
RTVSPost2010PropOp43
 70
     1
102
RTVSPost2010Prop44ColorIndex
 90
        5
102
RTVSPost2010Prop44ColorRGB
 90
      255
102
RTVSPost2010PropOp44
 70
     1
102
RTVSPost2010Prop45
280
     0
102
RTVSPost2010PropOp45
 70
     1
102
RTVSPost2010Prop46
 90
       50
102
RTVSPost2010PropOp46
 70
     1
102
RTVSPost2010Prop47
 90
       50
102
RTVSPost2010PropOp47
 70
     1
102
RTVSPost2010Prop48
 90
       50
102
RTVSPost2010PropOp48
 70
     1
102
RTVSPost2010Prop49
280
     0
102
RTVSPost2010PropOp49
 70
     1
102
RTVSPost2010Prop50
 90
       50
102
RTVSPost2010PropOp50
 70
     1
102
RTVSPost2010Prop51ColorIndex
 90
      256
102
RTVSPost2010Prop51ColorRGB
 90
-16777216
102
RTVSPost2010PropOp51
 70
     0
102
RTVSPost2010Prop52
140
1.0
102
RTVSPost2010PropOp52
 70
     0
102
RTVSPost2010Prop53
 90
        2
102
RTVSPost2010PropOp53
 70
     1
102
RTVSPost2010Prop54
  1
strokes_ogs.tif
102
RTVSPost2010PropOp54
 70
     1
102
RTVSPost2010Prop55
280
     0
102
RTVSPost2010PropOp55
 70
     1
102
RTVSPost2010Prop56
140
1.0
102
RTVSPost2010PropOp56
 70
     1
102
RTVSPost2010Prop57
140
1.0
102
RTVSPost2010PropOp57
 70
     1
  0
XRECORD
  5
4A1
102
{ACAD_REACTORS
330
4A0
102
}
330
4A0
100
AcDbXrecord
280
     1
102
RTVSPost2010Prop28
280
     0
102
RTVSPost2010PropOp28
 70
     1
102
RTVSPost2010Prop29
280
     1
102
RTVSPost2010PropOp29
 70
     1
102
RTVSPost2010Prop30
280
     1
102
RTVSPost2010PropOp30
 70
     1
102
RTVSPost2010Prop31
280
     0
102
RTVSPost2010PropOp31
 70
     1
102
RTVSPost2010Prop32
280
     0
102
RTVSPost2010PropOp32
 70
     1
102
RTVSPost2010Prop33
280
     0
102
RTVSPost2010PropOp33
 70
     1
102
RTVSPost2010Prop34
280
     0
102
RTVSPost2010PropOp34
 70
     1
102
RTVSPost2010Prop35
280
     0
102
RTVSPost2010PropOp35
 70
     1
102
RTVSPost2010Prop36
280
     0
102
RTVSPost2010PropOp36
 70
     1
102
RTVSPost2010Prop37
 90
       50
102
RTVSPost2010PropOp37
 70
     1
102
RTVSPost2010Prop38
140
0.0
102
RTVSPost2010PropOp38
 70
     1
102
RTVSPost2010Prop39
140
1.0
102
RTVSPost2010PropOp39
 70
     1
102
RTVSPost2010Prop40
 90
        0
102
RTVSPost2010PropOp40
 70
     1
102
RTVSPost2010Prop41ColorIndex
 90
       18
102
RTVSPost2010Prop41ColorRGB
 90
        0
102
RTVSPost2010PropOp41
 70
     1
102
RTVSPost2010Prop42
 90
       50
102
RTVSPost2010PropOp42
 70
     1
102
RTVSPost2010Prop43
 90
        3
102
RTVSPost2010PropOp43
 70
     1
102
RTVSPost2010Prop44ColorIndex
 90
        5
102
RTVSPost2010Prop44ColorRGB
 90
      255
102
RTVSPost2010PropOp44
 70
     1
102
RTVSPost2010Prop45
280
     0
102
RTVSPost2010PropOp45
 70
     1
102
RTVSPost2010Prop46
 90
       50
102
RTVSPost2010PropOp46
 70
     1
102
RTVSPost2010Prop47
 90
       50
102
RTVSPost2010PropOp47
 70
     1
102
RTVSPost2010Prop48
 90
       50
102
RTVSPost2010PropOp48
 70
     1
102
RTVSPost2010Prop49
280
     0
102
RTVSPost2010PropOp49
 70
     1
102
RTVSPost2010Prop50
 90
       50
102
RTVSPost2010PropOp50
 70
     1
102
RTVSPost2010Prop51ColorIndex
 90
      256
102
RTVSPost2010Prop51ColorRGB
 90
-16777216
102
RTVSPost2010PropOp51
 70
     0
102
RTVSPost2010Prop52
140
1.0
102
RTVSPost2010PropOp52
 70
     0
102
RTVSPost2010Prop53
 90
        2
102
RTVSPost2010PropOp53
 70
     1
102
RTVSPost2010Prop54
  1
strokes_ogs.tif
102
RTVSPost2010PropOp54
 70
     1
102
RTVSPost2010Prop55
280
     0
102
RTVSPost2010PropOp55
 70
     1
102
RTVSPost2010Prop56
140
1.0
102
RTVSPost2010PropOp56
 70
     1
102
RTVSPost2010Prop57
140
1.0
102
RTVSPost2010PropOp57
 70
     1
  0
XRECORD
  5
4A9
102
{ACAD_REACTORS
330
4A8
102
}
330
4A8
100
AcDbXrecord
280
     1
102
RTVSPost2010Prop28
280
     0
102
RTVSPost2010PropOp28
 70
     1
102
RTVSPost2010Prop29
280
     1
102
RTVSPost2010PropOp29
 70
     1
102
RTVSPost2010Prop30
280
     1
102
RTVSPost2010PropOp30
 70
     1
102
RTVSPost2010Prop31
280
     0
102
RTVSPost2010PropOp31
 70
     1
102
RTVSPost2010Prop32
280
     0
102
RTVSPost2010PropOp32
 70
     1
102
RTVSPost2010Prop33
280
     0
102
RTVSPost2010PropOp33
 70
     1
102
RTVSPost2010Prop34
280
     0
102
RTVSPost2010PropOp34
 70
     1
102
RTVSPost2010Prop35
280
     0
102
RTVSPost2010PropOp35
 70
     1
102
RTVSPost2010Prop36
280
     0
102
RTVSPost2010PropOp36
 70
     1
102
RTVSPost2010Prop37
 90
       50
102
RTVSPost2010PropOp37
 70
     1
102
RTVSPost2010Prop38
140
0.0
102
RTVSPost2010PropOp38
 70
     1
102
RTVSPost2010Prop39
140
1.0
102
RTVSPost2010PropOp39
 70
     1
102
RTVSPost2010Prop40
 90
        0
102
RTVSPost2010PropOp40
 70
     1
102
RTVSPost2010Prop41ColorIndex
 90
       18
102
RTVSPost2010Prop41ColorRGB
 90
        0
102
RTVSPost2010PropOp41
 70
     1
102
RTVSPost2010Prop42
 90
       50
102
RTVSPost2010PropOp42
 70
     1
102
RTVSPost2010Prop43
 90
        3
102
RTVSPost2010PropOp43
 70
     1
102
RTVSPost2010Prop44ColorIndex
 90
        5
102
RTVSPost2010Prop44ColorRGB
 90
      255
102
RTVSPost2010PropOp44
 70
     1
102
RTVSPost2010Prop45
280
     0
102
RTVSPost2010PropOp45
 70
     1
102
RTVSPost2010Prop46
 90
       50
102
RTVSPost2010PropOp46
 70
     1
102
RTVSPost2010Prop47
 90
       50
102
RTVSPost2010PropOp47
 70
     1
102
RTVSPost2010Prop48
 90
       50
102
RTVSPost2010PropOp48
 70
     1
102
RTVSPost2010Prop49
280
     0
102
RTVSPost2010PropOp49
 70
     1
102
RTVSPost2010Prop50
 90
       50
102
RTVSPost2010PropOp50
 70
     1
102
RTVSPost2010Prop51ColorIndex
 90
      256
102
RTVSPost2010Prop51ColorRGB
 90
-16777216
102
RTVSPost2010PropOp51
 70
     0
102
RTVSPost2010Prop52
140
1.0
102
RTVSPost2010PropOp52
 70
     0
102
RTVSPost2010Prop53
 90
        2
102
RTVSPost2010PropOp53
 70
     1
102
RTVSPost2010Prop54
  1
strokes_ogs.tif
102
RTVSPost2010PropOp54
 70
     1
102
RTVSPost2010Prop55
280
     0
102
RTVSPost2010PropOp55
 70
     1
102
RTVSPost2010Prop56
140
1.0
102
RTVSPost2010PropOp56
 70
     1
102
RTVSPost2010Prop57
140
1.0
102
RTVSPost2010PropOp57
 70
     1
  0
XRECORD
  5
4B1
102
{ACAD_REACTORS
330
4B0
102
}
330
4B0
100
AcDbXrecord
280
     1
102
RTVSPost2010Prop28
280
     0
102
RTVSPost2010PropOp28
 70
     1
102
RTVSPost2010Prop29
280
     1
102
RTVSPost2010PropOp29
 70
     1
102
RTVSPost2010Prop30
280
     1
102
RTVSPost2010PropOp30
 70
     1
102
RTVSPost2010Prop31
280
     0
102
RTVSPost2010PropOp31
 70
     1
102
RTVSPost2010Prop32
280
     0
102
RTVSPost2010PropOp32
 70
     1
102
RTVSPost2010Prop33
280
     0
102
RTVSPost2010PropOp33
 70
     1
102
RTVSPost2010Prop34
280
     0
102
RTVSPost2010PropOp34
 70
     1
102
RTVSPost2010Prop35
280
     0
102
RTVSPost2010PropOp35
 70
     1
102
RTVSPost2010Prop36
280
     0
102
RTVSPost2010PropOp36
 70
     1
102
RTVSPost2010Prop37
 90
       50
102
RTVSPost2010PropOp37
 70
     1
102
RTVSPost2010Prop38
140
0.0
102
RTVSPost2010PropOp38
 70
     1
102
RTVSPost2010Prop39
140
1.0
102
RTVSPost2010PropOp39
 70
     1
102
RTVSPost2010Prop40
 90
        0
102
RTVSPost2010PropOp40
 70
     1
102
RTVSPost2010Prop41ColorIndex
 90
       18
102
RTVSPost2010Prop41ColorRGB
 90
        0
102
RTVSPost2010PropOp41
 70
     1
102
RTVSPost2010Prop42
 90
       50
102
RTVSPost2010PropOp42
 70
     1
102
RTVSPost2010Prop43
 90
        3
102
RTVSPost2010PropOp43
 70
     1
102
RTVSPost2010Prop44ColorIndex
 90
        5
102
RTVSPost2010Prop44ColorRGB
 90
      255
102
RTVSPost2010PropOp44
 70
     1
102
RTVSPost2010Prop45
280
     0
102
RTVSPost2010PropOp45
 70
     1
102
RTVSPost2010Prop46
 90
       50
102
RTVSPost2010PropOp46
 70
     1
102
RTVSPost2010Prop47
 90
       50
102
RTVSPost2010PropOp47
 70
     1
102
RTVSPost2010Prop48
 90
       50
102
RTVSPost2010PropOp48
 70
     1
102
RTVSPost2010Prop49
280
     0
102
RTVSPost2010PropOp49
 70
     1
102
RTVSPost2010Prop50
 90
       50
102
RTVSPost2010PropOp50
 70
     1
102
RTVSPost2010Prop51ColorIndex
 90
      256
102
RTVSPost2010Prop51ColorRGB
 90
-16777216
102
RTVSPost2010PropOp51
 70
     0
102
RTVSPost2010Prop52
140
1.0
102
RTVSPost2010PropOp52
 70
     0
102
RTVSPost2010Prop53
 90
        2
102
RTVSPost2010PropOp53
 70
     1
102
RTVSPost2010Prop54
  1
strokes_ogs.tif
102
RTVSPost2010PropOp54
 70
     1
102
RTVSPost2010Prop55
280
     0
102
RTVSPost2010PropOp55
 70
     1
102
RTVSPost2010Prop56
140
1.0
102
RTVSPost2010PropOp56
 70
     1
102
RTVSPost2010Prop57
140
1.0
102
RTVSPost2010PropOp57
 70
     1
  0
XRECORD
  5
4A5
102
{ACAD_REACTORS
330
4A4
102
}
330
4A4
100
AcDbXrecord
280
     1
102
RTVSPost2010Prop28
280
     0
102
RTVSPost2010PropOp28
 70
     1
102
RTVSPost2010Prop29
280
     1
102
RTVSPost2010PropOp29
 70
     1
102
RTVSPost2010Prop30
280
     1
102
RTVSPost2010PropOp30
 70
     1
102
RTVSPost2010Prop31
280
     0
102
RTVSPost2010PropOp31
 70
     1
102
RTVSPost2010Prop32
280
     0
102
RTVSPost2010PropOp32
 70
     1
102
RTVSPost2010Prop33
280
     0
102
RTVSPost2010PropOp33
 70
     1
102
RTVSPost2010Prop34
280
     0
102
RTVSPost2010PropOp34
 70
     1
102
RTVSPost2010Prop35
280
     0
102
RTVSPost2010PropOp35
 70
     1
102
RTVSPost2010Prop36
280
     0
102
RTVSPost2010PropOp36
 70
     1
102
RTVSPost2010Prop37
 90
       50
102
RTVSPost2010PropOp37
 70
     1
102
RTVSPost2010Prop38
140
0.0
102
RTVSPost2010PropOp38
 70
     1
102
RTVSPost2010Prop39
140
1.0
102
RTVSPost2010PropOp39
 70
     1
102
RTVSPost2010Prop40
 90
        0
102
RTVSPost2010PropOp40
 70
     1
102
RTVSPost2010Prop41ColorIndex
 90
       18
102
RTVSPost2010Prop41ColorRGB
 90
        0
102
RTVSPost2010PropOp41
 70
     1
102
RTVSPost2010Prop42
 90
       50
102
RTVSPost2010PropOp42
 70
     1
102
RTVSPost2010Prop43
 90
        3
102
RTVSPost2010PropOp43
 70
     1
102
RTVSPost2010Prop44ColorIndex
 90
        5
102
RTVSPost2010Prop44ColorRGB
 90
      255
102
RTVSPost2010PropOp44
 70
     1
102
RTVSPost2010Prop45
280
     0
102
RTVSPost2010PropOp45
 70
     1
102
RTVSPost2010Prop46
 90
       50
102
RTVSPost2010PropOp46
 70
     1
102
RTVSPost2010Prop47
 90
       50
102
RTVSPost2010PropOp47
 70
     1
102
RTVSPost2010Prop48
 90
       50
102
RTVSPost2010PropOp48
 70
     1
102
RTVSPost2010Prop49
280
     0
102
RTVSPost2010PropOp49
 70
     1
102
RTVSPost2010Prop50
 90
       50
102
RTVSPost2010PropOp50
 70
     1
102
RTVSPost2010Prop51ColorIndex
 90
      256
102
RTVSPost2010Prop51ColorRGB
 90
-16777216
102
RTVSPost2010PropOp51
 70
     0
102
RTVSPost2010Prop52
140
1.0
102
RTVSPost2010PropOp52
 70
     0
102
RTVSPost2010Prop53
 90
        2
102
RTVSPost2010PropOp53
 70
     1
102
RTVSPost2010Prop54
  1
strokes_ogs.tif
102
RTVSPost2010PropOp54
 70
     1
102
RTVSPost2010Prop55
280
     0
102
RTVSPost2010PropOp55
 70
     1
102
RTVSPost2010Prop56
140
1.0
102
RTVSPost2010PropOp56
 70
     1
102
RTVSPost2010Prop57
140
1.0
102
RTVSPost2010PropOp57
 70
     1
  0
XRECORD
  5
4A7
102
{ACAD_REACTORS
330
4A6
102
}
330
4A6
100
AcDbXrecord
280
     1
102
RTVSPost2010Prop28
280
     0
102
RTVSPost2010PropOp28
 70
     1
102
RTVSPost2010Prop29
280
     1
102
RTVSPost2010PropOp29
 70
     1
102
RTVSPost2010Prop30
280
     1
102
RTVSPost2010PropOp30
 70
     1
102
RTVSPost2010Prop31
280
     0
102
RTVSPost2010PropOp31
 70
     1
102
RTVSPost2010Prop32
280
     0
102
RTVSPost2010PropOp32
 70
     1
102
RTVSPost2010Prop33
280
     0
102
RTVSPost2010PropOp33
 70
     1
102
RTVSPost2010Prop34
280
     0
102
RTVSPost2010PropOp34
 70
     1
102
RTVSPost2010Prop35
280
     0
102
RTVSPost2010PropOp35
 70
     1
102
RTVSPost2010Prop36
280
     0
102
RTVSPost2010PropOp36
 70
     1
102
RTVSPost2010Prop37
 90
       50
102
RTVSPost2010PropOp37
 70
     1
102
RTVSPost2010Prop38
140
0.0
102
RTVSPost2010PropOp38
 70
     1
102
RTVSPost2010Prop39
140
1.0
102
RTVSPost2010PropOp39
 70
     1
102
RTVSPost2010Prop40
 90
        0
102
RTVSPost2010PropOp40
 70
     1
102
RTVSPost2010Prop41ColorIndex
 90
       18
102
RTVSPost2010Prop41ColorRGB
 90
        0
102
RTVSPost2010PropOp41
 70
     1
102
RTVSPost2010Prop42
 90
       50
102
RTVSPost2010PropOp42
 70
     1
102
RTVSPost2010Prop43
 90
        3
102
RTVSPost2010PropOp43
 70
     1
102
RTVSPost2010Prop44ColorIndex
 90
        5
102
RTVSPost2010Prop44ColorRGB
 90
      255
102
RTVSPost2010PropOp44
 70
     1
102
RTVSPost2010Prop45
280
     0
102
RTVSPost2010PropOp45
 70
     1
102
RTVSPost2010Prop46
 90
       50
102
RTVSPost2010PropOp46
 70
     1
102
RTVSPost2010Prop47
 90
       50
102
RTVSPost2010PropOp47
 70
     1
102
RTVSPost2010Prop48
 90
       50
102
RTVSPost2010PropOp48
 70
     1
102
RTVSPost2010Prop49
280
     0
102
RTVSPost2010PropOp49
 70
     1
102
RTVSPost2010Prop50
 90
       50
102
RTVSPost2010PropOp50
 70
     1
102
RTVSPost2010Prop51ColorIndex
 90
      256
102
RTVSPost2010Prop51ColorRGB
 90
-16777216
102
RTVSPost2010PropOp51
 70
     0
102
RTVSPost2010Prop52
140
1.0
102
RTVSPost2010PropOp52
 70
     0
102
RTVSPost2010Prop53
 90
        2
102
RTVSPost2010PropOp53
 70
     1
102
RTVSPost2010Prop54
  1
strokes_ogs.tif
102
RTVSPost2010PropOp54
 70
     1
102
RTVSPost2010Prop55
280
     0
102
RTVSPost2010PropOp55
 70
     1
102
RTVSPost2010Prop56
140
1.0
102
RTVSPost2010PropOp56
 70
     1
102
RTVSPost2010Prop57
140
1.0
102
RTVSPost2010PropOp57
 70
     1
  0
XRECORD
  5
4C1
102
{ACAD_REACTORS
330
4C0
102
}
330
4C0
100
AcDbXrecord
280
     1
102
RTVSPost2010Prop28
280
     0
102
RTVSPost2010PropOp28
 70
     1
102
RTVSPost2010Prop29
280
     1
102
RTVSPost2010PropOp29
 70
     1
102
RTVSPost2010Prop30
280
     1
102
RTVSPost2010PropOp30
 70
     1
102
RTVSPost2010Prop31
280
     0
102
RTVSPost2010PropOp31
 70
     1
102
RTVSPost2010Prop32
280
     0
102
RTVSPost2010PropOp32
 70
     1
102
RTVSPost2010Prop33
280
     0
102
RTVSPost2010PropOp33
 70
     1
102
RTVSPost2010Prop34
280
     0
102
RTVSPost2010PropOp34
 70
     1
102
RTVSPost2010Prop35
280
     0
102
RTVSPost2010PropOp35
 70
     1
102
RTVSPost2010Prop36
280
     0
102
RTVSPost2010PropOp36
 70
     1
102
RTVSPost2010Prop37
 90
       50
102
RTVSPost2010PropOp37
 70
     0
102
RTVSPost2010Prop38
140
0.0
102
RTVSPost2010PropOp38
 70
     0
102
RTVSPost2010Prop39
140
1.0
102
RTVSPost2010PropOp39
 70
     0
102
RTVSPost2010Prop40
 90
        0
102
RTVSPost2010PropOp40
 70
     0
102
RTVSPost2010Prop41ColorIndex
 90
       18
102
RTVSPost2010Prop41ColorRGB
 90
        0
102
RTVSPost2010PropOp41
 70
     0
102
RTVSPost2010Prop42
 90
       50
102
RTVSPost2010PropOp42
 70
     0
102
RTVSPost2010Prop43
 90
        3
102
RTVSPost2010PropOp43
 70
     0
102
RTVSPost2010Prop44ColorIndex
 90
        5
102
RTVSPost2010Prop44ColorRGB
 90
      255
102
RTVSPost2010PropOp44
 70
     0
102
RTVSPost2010Prop45
280
     0
102
RTVSPost2010PropOp45
 70
     1
102
RTVSPost2010Prop46
 90
       50
102
RTVSPost2010PropOp46
 70
     0
102
RTVSPost2010Prop47
 90
       50
102
RTVSPost2010PropOp47
 70
     0
102
RTVSPost2010Prop48
 90
       50
102
RTVSPost2010PropOp48
 70
     0
102
RTVSPost2010Prop49
280
     0
102
RTVSPost2010PropOp49
 70
     1
102
RTVSPost2010Prop50
 90
       50
102
RTVSPost2010PropOp50
 70
     0
102
RTVSPost2010Prop51ColorIndex
 90
      256
102
RTVSPost2010Prop51ColorRGB
 90
-16777216
102
RTVSPost2010PropOp51
 70
     0
102
RTVSPost2010Prop52
140
1.0
102
RTVSPost2010PropOp52
 70
     0
102
RTVSPost2010Prop53
 90
        2
102
RTVSPost2010PropOp53
 70
     0
102
RTVSPost2010Prop54
  1
strokes_ogs.tif
102
RTVSPost2010PropOp54
 70
     0
102
RTVSPost2010Prop55
280
     0
102
RTVSPost2010PropOp55
 70
     1
102
RTVSPost2010Prop56
140
1.0
102
RTVSPost2010PropOp56
 70
     0
102
RTVSPost2010Prop57
140
1.0
102
RTVSPost2010PropOp57
 70
     0
  0
XRECORD
  5
4AF
102
{ACAD_REACTORS
330
4AE
102
}
330
4AE
100
AcDbXrecord
280
     1
102
RTVSPost2010Prop28
280
     0
102
RTVSPost2010PropOp28
 70
     1
102
RTVSPost2010Prop29
280
     1
102
RTVSPost2010PropOp29
 70
     1
102
RTVSPost2010Prop30
280
     1
102
RTVSPost2010PropOp30
 70
     1
102
RTVSPost2010Prop31
280
     0
102
RTVSPost2010PropOp31
 70
     1
102
RTVSPost2010Prop32
280
     0
102
RTVSPost2010PropOp32
 70
     1
102
RTVSPost2010Prop33
280
     0
102
RTVSPost2010PropOp33
 70
     1
102
RTVSPost2010Prop34
280
     0
102
RTVSPost2010PropOp34
 70
     1
102
RTVSPost2010Prop35
280
     0
102
RTVSPost2010PropOp35
 70
     1
102
RTVSPost2010Prop36
280
     0
102
RTVSPost2010PropOp36
 70
     1
102
RTVSPost2010Prop37
 90
       50
102
RTVSPost2010PropOp37
 70
     1
102
RTVSPost2010Prop38
140
0.0
102
RTVSPost2010PropOp38
 70
     1
102
RTVSPost2010Prop39
140
1.0
102
RTVSPost2010PropOp39
 70
     1
102
RTVSPost2010Prop40
 90
        0
102
RTVSPost2010PropOp40
 70
     1
102
RTVSPost2010Prop41ColorIndex
 90
       18
102
RTVSPost2010Prop41ColorRGB
 90
        0
102
RTVSPost2010PropOp41
 70
     1
102
RTVSPost2010Prop42
 90
       50
102
RTVSPost2010PropOp42
 70
     1
102
RTVSPost2010Prop43
 90
        3
102
RTVSPost2010PropOp43
 70
     1
102
RTVSPost2010Prop44ColorIndex
 90
        5
102
RTVSPost2010Prop44ColorRGB
 90
      255
102
RTVSPost2010PropOp44
 70
     1
102
RTVSPost2010Prop45
280
     0
102
RTVSPost2010PropOp45
 70
     1
102
RTVSPost2010Prop46
 90
       50
102
RTVSPost2010PropOp46
 70
     1
102
RTVSPost2010Prop47
 90
       50
102
RTVSPost2010PropOp47
 70
     1
102
RTVSPost2010Prop48
 90
       50
102
RTVSPost2010PropOp48
 70
     1
102
RTVSPost2010Prop49
280
     0
102
RTVSPost2010PropOp49
 70
     1
102
RTVSPost2010Prop50
 90
       50
102
RTVSPost2010PropOp50
 70
     1
102
RTVSPost2010Prop51ColorIndex
 90
      256
102
RTVSPost2010Prop51ColorRGB
 90
-16777216
102
RTVSPost2010PropOp51
 70
     0
102
RTVSPost2010Prop52
140
1.0
102
RTVSPost2010PropOp52
 70
     0
102
RTVSPost2010Prop53
 90
        2
102
RTVSPost2010PropOp53
 70
     1
102
RTVSPost2010Prop54
  1
strokes_ogs.tif
102
RTVSPost2010PropOp54
 70
     1
102
RTVSPost2010Prop55
280
     0
102
RTVSPost2010PropOp55
 70
     1
102
RTVSPost2010Prop56
140
1.0
102
RTVSPost2010PropOp56
 70
     1
102
RTVSPost2010Prop57
140
1.0
102
RTVSPost2010PropOp57
 70
     1
  0
XRECORD
  5
499
102
{ACAD_REACTORS
330
498
102
}
330
498
100
AcDbXrecord
280
     1
102
RTVSPost2010Prop28
280
     0
102
RTVSPost2010PropOp28
 70
     1
102
RTVSPost2010Prop29
280
     1
102
RTVSPost2010PropOp29
 70
     1
102
RTVSPost2010Prop30
280
     1
102
RTVSPost2010PropOp30
 70
     1
102
RTVSPost2010Prop31
280
     0
102
RTVSPost2010PropOp31
 70
     1
102
RTVSPost2010Prop32
280
     0
102
RTVSPost2010PropOp32
 70
     1
102
RTVSPost2010Prop33
280
     0
102
RTVSPost2010PropOp33
 70
     1
102
RTVSPost2010Prop34
280
     0
102
RTVSPost2010PropOp34
 70
     1
102
RTVSPost2010Prop35
280
     0
102
RTVSPost2010PropOp35
 70
     1
102
RTVSPost2010Prop36
280
     0
102
RTVSPost2010PropOp36
 70
     1
102
RTVSPost2010Prop37
 90
       50
102
RTVSPost2010PropOp37
 70
     1
102
RTVSPost2010Prop38
140
0.0
102
RTVSPost2010PropOp38
 70
     1
102
RTVSPost2010Prop39
140
1.0
102
RTVSPost2010PropOp39
 70
     1
102
RTVSPost2010Prop40
 90
        0
102
RTVSPost2010PropOp40
 70
     1
102
RTVSPost2010Prop41ColorIndex
 90
       18
102
RTVSPost2010Prop41ColorRGB
 90
        0
102
RTVSPost2010PropOp41
 70
     1
102
RTVSPost2010Prop42
 90
       50
102
RTVSPost2010PropOp42
 70
     1
102
RTVSPost2010Prop43
 90
        3
102
RTVSPost2010PropOp43
 70
     1
102
RTVSPost2010Prop44ColorIndex
 90
        5
102
RTVSPost2010Prop44ColorRGB
 90
      255
102
RTVSPost2010PropOp44
 70
     1
102
RTVSPost2010Prop45
280
     0
102
RTVSPost2010PropOp45
 70
     1
102
RTVSPost2010Prop46
 90
       50
102
RTVSPost2010PropOp46
 70
     1
102
RTVSPost2010Prop47
 90
       50
102
RTVSPost2010PropOp47
 70
     1
102
RTVSPost2010Prop48
 90
       50
102
RTVSPost2010PropOp48
 70
     1
102
RTVSPost2010Prop49
280
     0
102
RTVSPost2010PropOp49
 70
     1
102
RTVSPost2010Prop50
 90
       50
102
RTVSPost2010PropOp50
 70
     1
102
RTVSPost2010Prop51ColorIndex
 90
      256
102
RTVSPost2010Prop51ColorRGB
 90
-16777216
102
RTVSPost2010PropOp51
 70
     0
102
RTVSPost2010Prop52
140
1.0
102
RTVSPost2010PropOp52
 70
     0
102
RTVSPost2010Prop53
 90
        2
102
RTVSPost2010PropOp53
 70
     1
102
RTVSPost2010Prop54
  1
strokes_ogs.tif
102
RTVSPost2010PropOp54
 70
     1
102
RTVSPost2010Prop55
280
     0
102
RTVSPost2010PropOp55
 70
     1
102
RTVSPost2010Prop56
140
1.0
102
RTVSPost2010PropOp56
 70
     1
102
RTVSPost2010Prop57
140
1.0
102
RTVSPost2010PropOp57
 70
     1
  0
XRECORD
  5
49B
102
{ACAD_REACTORS
330
49A
102
}
330
49A
100
AcDbXrecord
280
     1
102
RTVSPost2010Prop28
280
     0
102
RTVSPost2010PropOp28
 70
     1
102
RTVSPost2010Prop29
280
     1
102
RTVSPost2010PropOp29
 70
     1
102
RTVSPost2010Prop30
280
     1
102
RTVSPost2010PropOp30
 70
     1
102
RTVSPost2010Prop31
280
     0
102
RTVSPost2010PropOp31
 70
     1
102
RTVSPost2010Prop32
280
     0
102
RTVSPost2010PropOp32
 70
     1
102
RTVSPost2010Prop33
280
     0
102
RTVSPost2010PropOp33
 70
     1
102
RTVSPost2010Prop34
280
     0
102
RTVSPost2010PropOp34
 70
     1
102
RTVSPost2010Prop35
280
     0
102
RTVSPost2010PropOp35
 70
     1
102
RTVSPost2010Prop36
280
     0
102
RTVSPost2010PropOp36
 70
     1
102
RTVSPost2010Prop37
 90
       50
102
RTVSPost2010PropOp37
 70
     1
102
RTVSPost2010Prop38
140
0.0
102
RTVSPost2010PropOp38
 70
     1
102
RTVSPost2010Prop39
140
1.0
102
RTVSPost2010PropOp39
 70
     1
102
RTVSPost2010Prop40
 90
        0
102
RTVSPost2010PropOp40
 70
     1
102
RTVSPost2010Prop41ColorIndex
 90
       18
102
RTVSPost2010Prop41ColorRGB
 90
        0
102
RTVSPost2010PropOp41
 70
     1
102
RTVSPost2010Prop42
 90
       50
102
RTVSPost2010PropOp42
 70
     1
102
RTVSPost2010Prop43
 90
        3
102
RTVSPost2010PropOp43
 70
     1
102
RTVSPost2010Prop44ColorIndex
 90
        5
102
RTVSPost2010Prop44ColorRGB
 90
      255
102
RTVSPost2010PropOp44
 70
     1
102
RTVSPost2010Prop45
280
     0
102
RTVSPost2010PropOp45
 70
     1
102
RTVSPost2010Prop46
 90
       50
102
RTVSPost2010PropOp46
 70
     1
102
RTVSPost2010Prop47
 90
       50
102
RTVSPost2010PropOp47
 70
     1
102
RTVSPost2010Prop48
 90
       50
102
RTVSPost2010PropOp48
 70
     1
102
RTVSPost2010Prop49
280
     0
102
RTVSPost2010PropOp49
 70
     1
102
RTVSPost2010Prop50
 90
       50
102
RTVSPost2010PropOp50
 70
     1
102
RTVSPost2010Prop51ColorIndex
 90
      256
102
RTVSPost2010Prop51ColorRGB
 90
-16777216
102
RTVSPost2010PropOp51
 70
     0
102
RTVSPost2010Prop52
140
1.0
102
RTVSPost2010PropOp52
 70
     0
102
RTVSPost2010Prop53
 90
        2
102
RTVSPost2010PropOp53
 70
     1
102
RTVSPost2010Prop54
  1
strokes_ogs.tif
102
RTVSPost2010PropOp54
 70
     1
102
RTVSPost2010Prop55
280
     0
102
RTVSPost2010PropOp55
 70
     1
102
RTVSPost2010Prop56
140
1.0
102
RTVSPost2010PropOp56
 70
     1
102
RTVSPost2010Prop57
140
1.0
102
RTVSPost2010PropOp57
 70
     1
  0
XRECORD
  5
49D
102
{ACAD_REACTORS
330
49C
102
}
330
49C
100
AcDbXrecord
280
     1
102
RTVSPost2010Prop28
280
     0
102
RTVSPost2010PropOp28
 70
     1
102
RTVSPost2010Prop29
280
     1
102
RTVSPost2010PropOp29
 70
     1
102
RTVSPost2010Prop30
280
     1
102
RTVSPost2010PropOp30
 70
     1
102
RTVSPost2010Prop31
280
     0
102
RTVSPost2010PropOp31
 70
     1
102
RTVSPost2010Prop32
280
     0
102
RTVSPost2010PropOp32
 70
     1
102
RTVSPost2010Prop33
280
     0
102
RTVSPost2010PropOp33
 70
     1
102
RTVSPost2010Prop34
280
     0
102
RTVSPost2010PropOp34
 70
     1
102
RTVSPost2010Prop35
280
     0
102
RTVSPost2010PropOp35
 70
     1
102
RTVSPost2010Prop36
280
     0
102
RTVSPost2010PropOp36
 70
     1
102
RTVSPost2010Prop37
 90
       50
102
RTVSPost2010PropOp37
 70
     1
102
RTVSPost2010Prop38
140
0.0
102
RTVSPost2010PropOp38
 70
     1
102
RTVSPost2010Prop39
140
1.0
102
RTVSPost2010PropOp39
 70
     1
102
RTVSPost2010Prop40
 90
        0
102
RTVSPost2010PropOp40
 70
     1
102
RTVSPost2010Prop41ColorIndex
 90
       18
102
RTVSPost2010Prop41ColorRGB
 90
        0
102
RTVSPost2010PropOp41
 70
     1
102
RTVSPost2010Prop42
 90
       50
102
RTVSPost2010PropOp42
 70
     1
102
RTVSPost2010Prop43
 90
        3
102
RTVSPost2010PropOp43
 70
     1
102
RTVSPost2010Prop44ColorIndex
 90
        5
102
RTVSPost2010Prop44ColorRGB
 90
      255
102
RTVSPost2010PropOp44
 70
     1
102
RTVSPost2010Prop45
280
     0
102
RTVSPost2010PropOp45
 70
     1
102
RTVSPost2010Prop46
 90
       50
102
RTVSPost2010PropOp46
 70
     1
102
RTVSPost2010Prop47
 90
       50
102
RTVSPost2010PropOp47
 70
     1
102
RTVSPost2010Prop48
 90
       50
102
RTVSPost2010PropOp48
 70
     1
102
RTVSPost2010Prop49
280
     0
102
RTVSPost2010PropOp49
 70
     1
102
RTVSPost2010Prop50
 90
       50
102
RTVSPost2010PropOp50
 70
     1
102
RTVSPost2010Prop51ColorIndex
 90
      256
102
RTVSPost2010Prop51ColorRGB
 90
-16777216
102
RTVSPost2010PropOp51
 70
     0
102
RTVSPost2010Prop52
140
1.0
102
RTVSPost2010PropOp52
 70
     0
102
RTVSPost2010Prop53
 90
        2
102
RTVSPost2010PropOp53
 70
     1
102
RTVSPost2010Prop54
  1
strokes_ogs.tif
102
RTVSPost2010PropOp54
 70
     1
102
RTVSPost2010Prop55
280
     0
102
RTVSPost2010PropOp55
 70
     1
102
RTVSPost2010Prop56
140
1.0
102
RTVSPost2010PropOp56
 70
     1
102
RTVSPost2010Prop57
140
1.0
102
RTVSPost2010PropOp57
 70
     1
  0
XRECORD
  5
49F
102
{ACAD_REACTORS
330
49E
102
}
330
49E
100
AcDbXrecord
280
     1
102
RTVSPost2010Prop28
280
     0
102
RTVSPost2010PropOp28
 70
     1
102
RTVSPost2010Prop29
280
     1
102
RTVSPost2010PropOp29
 70
     1
102
RTVSPost2010Prop30
280
     1
102
RTVSPost2010PropOp30
 70
     1
102
RTVSPost2010Prop31
280
     0
102
RTVSPost2010PropOp31
 70
     1
102
RTVSPost2010Prop32
280
     0
102
RTVSPost2010PropOp32
 70
     1
102
RTVSPost2010Prop33
280
     0
102
RTVSPost2010PropOp33
 70
     1
102
RTVSPost2010Prop34
280
     0
102
RTVSPost2010PropOp34
 70
     1
102
RTVSPost2010Prop35
280
     0
102
RTVSPost2010PropOp35
 70
     1
102
RTVSPost2010Prop36
280
     0
102
RTVSPost2010PropOp36
 70
     1
102
RTVSPost2010Prop37
 90
       50
102
RTVSPost2010PropOp37
 70
     1
102
RTVSPost2010Prop38
140
0.0
102
RTVSPost2010PropOp38
 70
     1
102
RTVSPost2010Prop39
140
1.0
102
RTVSPost2010PropOp39
 70
     1
102
RTVSPost2010Prop40
 90
        0
102
RTVSPost2010PropOp40
 70
     1
102
RTVSPost2010Prop41ColorIndex
 90
       18
102
RTVSPost2010Prop41ColorRGB
 90
        0
102
RTVSPost2010PropOp41
 70
     1
102
RTVSPost2010Prop42
 90
       50
102
RTVSPost2010PropOp42
 70
     1
102
RTVSPost2010Prop43
 90
        3
102
RTVSPost2010PropOp43
 70
     1
102
RTVSPost2010Prop44ColorIndex
 90
        5
102
RTVSPost2010Prop44ColorRGB
 90
      255
102
RTVSPost2010PropOp44
 70
     1
102
RTVSPost2010Prop45
280
     0
102
RTVSPost2010PropOp45
 70
     1
102
RTVSPost2010Prop46
 90
       50
102
RTVSPost2010PropOp46
 70
     1
102
RTVSPost2010Prop47
 90
       50
102
RTVSPost2010PropOp47
 70
     1
102
RTVSPost2010Prop48
 90
       50
102
RTVSPost2010PropOp48
 70
     1
102
RTVSPost2010Prop49
280
     0
102
RTVSPost2010PropOp49
 70
     1
102
RTVSPost2010Prop50
 90
       50
102
RTVSPost2010PropOp50
 70
     1
102
RTVSPost2010Prop51ColorIndex
 90
      256
102
RTVSPost2010Prop51ColorRGB
 90
-16777216
102
RTVSPost2010PropOp51
 70
     0
102
RTVSPost2010Prop52
140
1.0
102
RTVSPost2010PropOp52
 70
     0
102
RTVSPost2010Prop53
 90
        2
102
RTVSPost2010PropOp53
 70
     1
102
RTVSPost2010Prop54
  1
strokes_ogs.tif
102
RTVSPost2010PropOp54
 70
     1
102
RTVSPost2010Prop55
280
     0
102
RTVSPost2010PropOp55
 70
     1
102
RTVSPost2010Prop56
140
1.0
102
RTVSPost2010PropOp56
 70
     1
102
RTVSPost2010Prop57
140
1.0
102
RTVSPost2010PropOp57
 70
     1
  0
XRECORD
  5
4A3
102
{ACAD_REACTORS
330
4A2
102
}
330
4A2
100
AcDbXrecord
280
     1
102
RTVSPost2010Prop28
280
     0
102
RTVSPost2010PropOp28
 70
     1
102
RTVSPost2010Prop29
280
     1
102
RTVSPost2010PropOp29
 70
     1
102
RTVSPost2010Prop30
280
     1
102
RTVSPost2010PropOp30
 70
     1
102
RTVSPost2010Prop31
280
     0
102
RTVSPost2010PropOp31
 70
     1
102
RTVSPost2010Prop32
280
     0
102
RTVSPost2010PropOp32
 70
     1
102
RTVSPost2010Prop33
280
     0
102
RTVSPost2010PropOp33
 70
     1
102
RTVSPost2010Prop34
280
     0
102
RTVSPost2010PropOp34
 70
     1
102
RTVSPost2010Prop35
280
     0
102
RTVSPost2010PropOp35
 70
     1
102
RTVSPost2010Prop36
280
     0
102
RTVSPost2010PropOp36
 70
     1
102
RTVSPost2010Prop37
 90
       50
102
RTVSPost2010PropOp37
 70
     1
102
RTVSPost2010Prop38
140
0.0
102
RTVSPost2010PropOp38
 70
     1
102
RTVSPost2010Prop39
140
1.0
102
RTVSPost2010PropOp39
 70
     1
102
RTVSPost2010Prop40
 90
        0
102
RTVSPost2010PropOp40
 70
     1
102
RTVSPost2010Prop41ColorIndex
 90
       18
102
RTVSPost2010Prop41ColorRGB
 90
        0
102
RTVSPost2010PropOp41
 70
     1
102
RTVSPost2010Prop42
 90
       50
102
RTVSPost2010PropOp42
 70
     1
102
RTVSPost2010Prop43
 90
        3
102
RTVSPost2010PropOp43
 70
     1
102
RTVSPost2010Prop44ColorIndex
 90
        5
102
RTVSPost2010Prop44ColorRGB
 90
      255
102
RTVSPost2010PropOp44
 70
     1
102
RTVSPost2010Prop45
280
     0
102
RTVSPost2010PropOp45
 70
     1
102
RTVSPost2010Prop46
 90
       50
102
RTVSPost2010PropOp46
 70
     1
102
RTVSPost2010Prop47
 90
       50
102
RTVSPost2010PropOp47
 70
     1
102
RTVSPost2010Prop48
 90
       50
102
RTVSPost2010PropOp48
 70
     1
102
RTVSPost2010Prop49
280
     0
102
RTVSPost2010PropOp49
 70
     1
102
RTVSPost2010Prop50
 90
       50
102
RTVSPost2010PropOp50
 70
     1
102
RTVSPost2010Prop51ColorIndex
 90
      256
102
RTVSPost2010Prop51ColorRGB
 90
-16777216
102
RTVSPost2010PropOp51
 70
     0
102
RTVSPost2010Prop52
140
1.0
102
RTVSPost2010PropOp52
 70
     0
102
RTVSPost2010Prop53
 90
        2
102
RTVSPost2010PropOp53
 70
     1
102
RTVSPost2010Prop54
  1
strokes_ogs.tif
102
RTVSPost2010PropOp54
 70
     1
102
RTVSPost2010Prop55
280
     0
102
RTVSPost2010PropOp55
 70
     1
102
RTVSPost2010Prop56
140
1.0
102
RTVSPost2010PropOp56
 70
     1
102
RTVSPost2010Prop57
140
1.0
102
RTVSPost2010PropOp57
 70
     1
  0
XRECORD
  5
4BD
102
{ACAD_REACTORS
330
4BC
102
}
330
4BC
100
AcDbXrecord
280
     1
102
RTVSPost2010Prop28
280
     0
102
RTVSPost2010PropOp28
 70
     1
102
RTVSPost2010Prop29
280
     1
102
RTVSPost2010PropOp29
 70
     1
102
RTVSPost2010Prop30
280
     1
102
RTVSPost2010PropOp30
 70
     1
102
RTVSPost2010Prop31
280
     0
102
RTVSPost2010PropOp31
 70
     1
102
RTVSPost2010Prop32
280
     0
102
RTVSPost2010PropOp32
 70
     1
102
RTVSPost2010Prop33
280
     0
102
RTVSPost2010PropOp33
 70
     1
102
RTVSPost2010Prop34
280
     0
102
RTVSPost2010PropOp34
 70
     1
102
RTVSPost2010Prop35
280
     0
102
RTVSPost2010PropOp35
 70
     1
102
RTVSPost2010Prop36
280
     0
102
RTVSPost2010PropOp36
 70
     1
102
RTVSPost2010Prop37
 90
       50
102
RTVSPost2010PropOp37
 70
     0
102
RTVSPost2010Prop38
140
0.0
102
RTVSPost2010PropOp38
 70
     0
102
RTVSPost2010Prop39
140
1.0
102
RTVSPost2010PropOp39
 70
     0
102
RTVSPost2010Prop40
 90
        0
102
RTVSPost2010PropOp40
 70
     0
102
RTVSPost2010Prop41ColorIndex
 90
       18
102
RTVSPost2010Prop41ColorRGB
 90
        0
102
RTVSPost2010PropOp41
 70
     0
102
RTVSPost2010Prop42
 90
       50
102
RTVSPost2010PropOp42
 70
     0
102
RTVSPost2010Prop43
 90
        3
102
RTVSPost2010PropOp43
 70
     0
102
RTVSPost2010Prop44ColorIndex
 90
        5
102
RTVSPost2010Prop44ColorRGB
 90
      255
102
RTVSPost2010PropOp44
 70
     0
102
RTVSPost2010Prop45
280
     0
102
RTVSPost2010PropOp45
 70
     1
102
RTVSPost2010Prop46
 90
       50
102
RTVSPost2010PropOp46
 70
     0
102
RTVSPost2010Prop47
 90
       50
102
RTVSPost2010PropOp47
 70
     0
102
RTVSPost2010Prop48
 90
       50
102
RTVSPost2010PropOp48
 70
     0
102
RTVSPost2010Prop49
280
     0
102
RTVSPost2010PropOp49
 70
     1
102
RTVSPost2010Prop50
 90
       50
102
RTVSPost2010PropOp50
 70
     0
102
RTVSPost2010Prop51ColorIndex
 90
      256
102
RTVSPost2010Prop51ColorRGB
 90
-16777216
102
RTVSPost2010PropOp51
 70
     0
102
RTVSPost2010Prop52
140
1.0
102
RTVSPost2010PropOp52
 70
     0
102
RTVSPost2010Prop53
 90
        2
102
RTVSPost2010PropOp53
 70
     0
102
RTVSPost2010Prop54
  1
strokes_ogs.tif
102
RTVSPost2010PropOp54
 70
     0
102
RTVSPost2010Prop55
280
     0
102
RTVSPost2010PropOp55
 70
     1
102
RTVSPost2010Prop56
140
1.0
102
RTVSPost2010PropOp56
 70
     0
102
RTVSPost2010Prop57
140
1.0
102
RTVSPost2010PropOp57
 70
     0
  0
XRECORD
  5
4AD
102
{ACAD_REACTORS
330
4AC
102
}
330
4AC
100
AcDbXrecord
280
     1
102
RTVSPost2010Prop28
280
     0
102
RTVSPost2010PropOp28
 70
     1
102
RTVSPost2010Prop29
280
     1
102
RTVSPost2010PropOp29
 70
     1
102
RTVSPost2010Prop30
280
     1
102
RTVSPost2010PropOp30
 70
     1
102
RTVSPost2010Prop31
280
     0
102
RTVSPost2010PropOp31
 70
     1
102
RTVSPost2010Prop32
280
     0
102
RTVSPost2010PropOp32
 70
     1
102
RTVSPost2010Prop33
280
     0
102
RTVSPost2010PropOp33
 70
     1
102
RTVSPost2010Prop34
280
     0
102
RTVSPost2010PropOp34
 70
     1
102
RTVSPost2010Prop35
280
     0
102
RTVSPost2010PropOp35
 70
     1
102
RTVSPost2010Prop36
280
     0
102
RTVSPost2010PropOp36
 70
     1
102
RTVSPost2010Prop37
 90
       50
102
RTVSPost2010PropOp37
 70
     1
102
RTVSPost2010Prop38
140
0.0
102
RTVSPost2010PropOp38
 70
     1
102
RTVSPost2010Prop39
140
1.0
102
RTVSPost2010PropOp39
 70
     1
102
RTVSPost2010Prop40
 90
        0
102
RTVSPost2010PropOp40
 70
     1
102
RTVSPost2010Prop41ColorIndex
 90
       18
102
RTVSPost2010Prop41ColorRGB
 90
        0
102
RTVSPost2010PropOp41
 70
     1
102
RTVSPost2010Prop42
 90
       50
102
RTVSPost2010PropOp42
 70
     1
102
RTVSPost2010Prop43
 90
        3
102
RTVSPost2010PropOp43
 70
     1
102
RTVSPost2010Prop44ColorIndex
 90
        5
102
RTVSPost2010Prop44ColorRGB
 90
      255
102
RTVSPost2010PropOp44
 70
     1
102
RTVSPost2010Prop45
280
     0
102
RTVSPost2010PropOp45
 70
     1
102
RTVSPost2010Prop46
 90
       50
102
RTVSPost2010PropOp46
 70
     1
102
RTVSPost2010Prop47
 90
       50
102
RTVSPost2010PropOp47
 70
     1
102
RTVSPost2010Prop48
 90
       50
102
RTVSPost2010PropOp48
 70
     1
102
RTVSPost2010Prop49
280
     0
102
RTVSPost2010PropOp49
 70
     1
102
RTVSPost2010Prop50
 90
       50
102
RTVSPost2010PropOp50
 70
     1
102
RTVSPost2010Prop51ColorIndex
 90
      256
102
RTVSPost2010Prop51ColorRGB
 90
-16777216
102
RTVSPost2010PropOp51
 70
     0
102
RTVSPost2010Prop52
140
1.0
102
RTVSPost2010PropOp52
 70
     0
102
RTVSPost2010Prop53
 90
        2
102
RTVSPost2010PropOp53
 70
     1
102
RTVSPost2010Prop54
  1
strokes_ogs.tif
102
RTVSPost2010PropOp54
 70
     1
102
RTVSPost2010Prop55
280
     0
102
RTVSPost2010PropOp55
 70
     1
102
RTVSPost2010Prop56
140
1.0
102
RTVSPost2010PropOp56
 70
     1
102
RTVSPost2010Prop57
140
1.0
102
RTVSPost2010PropOp57
 70
     1
  0
XRECORD
  5
4BF
102
{ACAD_REACTORS
330
4BE
102
}
330
4BE
100
AcDbXrecord
280
     1
102
RTVSPost2010Prop28
280
     0
102
RTVSPost2010PropOp28
 70
     1
102
RTVSPost2010Prop29
280
     1
102
RTVSPost2010PropOp29
 70
     1
102
RTVSPost2010Prop30
280
     1
102
RTVSPost2010PropOp30
 70
     1
102
RTVSPost2010Prop31
280
     0
102
RTVSPost2010PropOp31
 70
     1
102
RTVSPost2010Prop32
280
     0
102
RTVSPost2010PropOp32
 70
     1
102
RTVSPost2010Prop33
280
     0
102
RTVSPost2010PropOp33
 70
     1
102
RTVSPost2010Prop34
280
     0
102
RTVSPost2010PropOp34
 70
     1
102
RTVSPost2010Prop35
280
     0
102
RTVSPost2010PropOp35
 70
     1
102
RTVSPost2010Prop36
280
     0
102
RTVSPost2010PropOp36
 70
     1
102
RTVSPost2010Prop37
 90
       50
102
RTVSPost2010PropOp37
 70
     0
102
RTVSPost2010Prop38
140
0.0
102
RTVSPost2010PropOp38
 70
     0
102
RTVSPost2010Prop39
140
1.0
102
RTVSPost2010PropOp39
 70
     0
102
RTVSPost2010Prop40
 90
        0
102
RTVSPost2010PropOp40
 70
     0
102
RTVSPost2010Prop41ColorIndex
 90
       18
102
RTVSPost2010Prop41ColorRGB
 90
        0
102
RTVSPost2010PropOp41
 70
     0
102
RTVSPost2010Prop42
 90
       50
102
RTVSPost2010PropOp42
 70
     0
102
RTVSPost2010Prop43
 90
        3
102
RTVSPost2010PropOp43
 70
     0
102
RTVSPost2010Prop44ColorIndex
 90
        5
102
RTVSPost2010Prop44ColorRGB
 90
      255
102
RTVSPost2010PropOp44
 70
     0
102
RTVSPost2010Prop45
280
     0
102
RTVSPost2010PropOp45
 70
     1
102
RTVSPost2010Prop46
 90
       50
102
RTVSPost2010PropOp46
 70
     0
102
RTVSPost2010Prop47
 90
       50
102
RTVSPost2010PropOp47
 70
     0
102
RTVSPost2010Prop48
 90
       50
102
RTVSPost2010PropOp48
 70
     0
102
RTVSPost2010Prop49
280
     0
102
RTVSPost2010PropOp49
 70
     1
102
RTVSPost2010Prop50
 90
       50
102
RTVSPost2010PropOp50
 70
     0
102
RTVSPost2010Prop51ColorIndex
 90
      256
102
RTVSPost2010Prop51ColorRGB
 90
-16777216
102
RTVSPost2010PropOp51
 70
     0
102
RTVSPost2010Prop52
140
1.0
102
RTVSPost2010PropOp52
 70
     0
102
RTVSPost2010Prop53
 90
        2
102
RTVSPost2010PropOp53
 70
     0
102
RTVSPost2010Prop54
  1
strokes_ogs.tif
102
RTVSPost2010PropOp54
 70
     0
102
RTVSPost2010Prop55
280
     0
102
RTVSPost2010PropOp55
 70
     1
102
RTVSPost2010Prop56
140
1.0
102
RTVSPost2010PropOp56
 70
     0
102
RTVSPost2010Prop57
140
1.0
102
RTVSPost2010PropOp57
 70
     0
  0
XRECORD
  5
48D
102
{ACAD_REACTORS
330
48C
102
}
330
48C
100
AcDbXrecord
280
     1
102
RTVSPost2010Prop28
280
     0
102
RTVSPost2010PropOp28
 70
     1
102
RTVSPost2010Prop29
280
     1
102
RTVSPost2010PropOp29
 70
     1
102
RTVSPost2010Prop30
280
     1
102
RTVSPost2010PropOp30
 70
     1
102
RTVSPost2010Prop31
280
     0
102
RTVSPost2010PropOp31
 70
     1
102
RTVSPost2010Prop32
280
     0
102
RTVSPost2010PropOp32
 70
     1
102
RTVSPost2010Prop33
280
     0
102
RTVSPost2010PropOp33
 70
     1
102
RTVSPost2010Prop34
280
     0
102
RTVSPost2010PropOp34
 70
     1
102
RTVSPost2010Prop35
280
     0
102
RTVSPost2010PropOp35
 70
     1
102
RTVSPost2010Prop36
280
     0
102
RTVSPost2010PropOp36
 70
     1
102
RTVSPost2010Prop37
 90
       50
102
RTVSPost2010PropOp37
 70
     1
102
RTVSPost2010Prop38
140
0.0
102
RTVSPost2010PropOp38
 70
     1
102
RTVSPost2010Prop39
140
1.0
102
RTVSPost2010PropOp39
 70
     1
102
RTVSPost2010Prop40
 90
        0
102
RTVSPost2010PropOp40
 70
     1
102
RTVSPost2010Prop41ColorIndex
 90
       18
102
RTVSPost2010Prop41ColorRGB
 90
-16777216
102
RTVSPost2010PropOp41
 70
     1
102
RTVSPost2010Prop42
 90
       50
102
RTVSPost2010PropOp42
 70
     1
102
RTVSPost2010Prop43
 90
        3
102
RTVSPost2010PropOp43
 70
     1
102
RTVSPost2010Prop44ColorIndex
 90
        5
102
RTVSPost2010Prop44ColorRGB
 90
      255
102
RTVSPost2010PropOp44
 70
     1
102
RTVSPost2010Prop45
280
     0
102
RTVSPost2010PropOp45
 70
     1
102
RTVSPost2010Prop46
 90
       50
102
RTVSPost2010PropOp46
 70
     1
102
RTVSPost2010Prop47
 90
       50
102
RTVSPost2010PropOp47
 70
     1
102
RTVSPost2010Prop48
 90
       50
102
RTVSPost2010PropOp48
 70
     1
102
RTVSPost2010Prop49
280
     0
102
RTVSPost2010PropOp49
 70
     1
102
RTVSPost2010Prop50
 90
       50
102
RTVSPost2010PropOp50
 70
     1
102
RTVSPost2010Prop51ColorIndex
 90
      256
102
RTVSPost2010Prop51ColorRGB
 90
-16777216
102
RTVSPost2010PropOp51
 70
     0
102
RTVSPost2010Prop52
140
1.0
102
RTVSPost2010PropOp52
 70
     0
102
RTVSPost2010Prop53
 90
        2
102
RTVSPost2010PropOp53
 70
     1
102
RTVSPost2010Prop54
  1
strokes_ogs.tif
102
RTVSPost2010PropOp54
 70
     1
102
RTVSPost2010Prop55
280
     0
102
RTVSPost2010PropOp55
 70
     1
102
RTVSPost2010Prop56
140
1.0
102
RTVSPost2010PropOp56
 70
     1
102
RTVSPost2010Prop57
140
1.0
102
RTVSPost2010PropOp57
 70
     1
  0
XRECORD
  5
4BB
102
{ACAD_REACTORS
330
4BA
102
}
330
4BA
100
AcDbXrecord
280
     1
102
RTVSPost2010Prop28
280
     0
102
RTVSPost2010PropOp28
 70
     1
102
RTVSPost2010Prop29
280
     1
102
RTVSPost2010PropOp29
 70
     1
102
RTVSPost2010Prop30
280
     1
102
RTVSPost2010PropOp30
 70
     1
102
RTVSPost2010Prop31
280
     0
102
RTVSPost2010PropOp31
 70
     1
102
RTVSPost2010Prop32
280
     0
102
RTVSPost2010PropOp32
 70
     1
102
RTVSPost2010Prop33
280
     0
102
RTVSPost2010PropOp33
 70
     1
102
RTVSPost2010Prop34
280
     0
102
RTVSPost2010PropOp34
 70
     1
102
RTVSPost2010Prop35
280
     0
102
RTVSPost2010PropOp35
 70
     1
102
RTVSPost2010Prop36
280
     0
102
RTVSPost2010PropOp36
 70
     1
102
RTVSPost2010Prop37
 90
       50
102
RTVSPost2010PropOp37
 70
     1
102
RTVSPost2010Prop38
140
0.0
102
RTVSPost2010PropOp38
 70
     1
102
RTVSPost2010Prop39
140
1.0
102
RTVSPost2010PropOp39
 70
     1
102
RTVSPost2010Prop40
 90
        0
102
RTVSPost2010PropOp40
 70
     1
102
RTVSPost2010Prop41ColorIndex
 90
       18
102
RTVSPost2010Prop41ColorRGB
 90
        0
102
RTVSPost2010PropOp41
 70
     1
102
RTVSPost2010Prop42
 90
       50
102
RTVSPost2010PropOp42
 70
     1
102
RTVSPost2010Prop43
 90
        3
102
RTVSPost2010PropOp43
 70
     1
102
RTVSPost2010Prop44ColorIndex
 90
        5
102
RTVSPost2010Prop44ColorRGB
 90
      255
102
RTVSPost2010PropOp44
 70
     1
102
RTVSPost2010Prop45
280
     0
102
RTVSPost2010PropOp45
 70
     1
102
RTVSPost2010Prop46
 90
       50
102
RTVSPost2010PropOp46
 70
     1
102
RTVSPost2010Prop47
 90
       50
102
RTVSPost2010PropOp47
 70
     1
102
RTVSPost2010Prop48
 90
       50
102
RTVSPost2010PropOp48
 70
     1
102
RTVSPost2010Prop49
280
     0
102
RTVSPost2010PropOp49
 70
     1
102
RTVSPost2010Prop50
 90
       50
102
RTVSPost2010PropOp50
 70
     1
102
RTVSPost2010Prop51ColorIndex
 90
      256
102
RTVSPost2010Prop51ColorRGB
 90
-16777216
102
RTVSPost2010PropOp51
 70
     0
102
RTVSPost2010Prop52
140
1.0
102
RTVSPost2010PropOp52
 70
     0
102
RTVSPost2010Prop53
 90
        2
102
RTVSPost2010PropOp53
 70
     1
102
RTVSPost2010Prop54
  1
strokes_ogs.tif
102
RTVSPost2010PropOp54
 70
     1
102
RTVSPost2010Prop55
280
     0
102
RTVSPost2010PropOp55
 70
     1
102
RTVSPost2010Prop56
140
1.0
102
RTVSPost2010PropOp56
 70
     1
102
RTVSPost2010Prop57
140
1.0
102
RTVSPost2010PropOp57
 70
     1
  0
XRECORD
  5
4B9
102
{ACAD_REACTORS
330
4B8
102
}
330
4B8
100
AcDbXrecord
280
     1
102
RTVSPost2010Prop28
280
     0
102
RTVSPost2010PropOp28
 70
     1
102
RTVSPost2010Prop29
280
     1
102
RTVSPost2010PropOp29
 70
     1
102
RTVSPost2010Prop30
280
     1
102
RTVSPost2010PropOp30
 70
     1
102
RTVSPost2010Prop31
280
     0
102
RTVSPost2010PropOp31
 70
     1
102
RTVSPost2010Prop32
280
     0
102
RTVSPost2010PropOp32
 70
     1
102
RTVSPost2010Prop33
280
     0
102
RTVSPost2010PropOp33
 70
     1
102
RTVSPost2010Prop34
280
     0
102
RTVSPost2010PropOp34
 70
     1
102
RTVSPost2010Prop35
280
     0
102
RTVSPost2010PropOp35
 70
     1
102
RTVSPost2010Prop36
280
     0
102
RTVSPost2010PropOp36
 70
     1
102
RTVSPost2010Prop37
 90
       50
102
RTVSPost2010PropOp37
 70
     1
102
RTVSPost2010Prop38
140
0.0
102
RTVSPost2010PropOp38
 70
     1
102
RTVSPost2010Prop39
140
1.0
102
RTVSPost2010PropOp39
 70
     1
102
RTVSPost2010Prop40
 90
        0
102
RTVSPost2010PropOp40
 70
     1
102
RTVSPost2010Prop41ColorIndex
 90
       18
102
RTVSPost2010Prop41ColorRGB
 90
        0
102
RTVSPost2010PropOp41
 70
     1
102
RTVSPost2010Prop42
 90
       50
102
RTVSPost2010PropOp42
 70
     1
102
RTVSPost2010Prop43
 90
        3
102
RTVSPost2010PropOp43
 70
     1
102
RTVSPost2010Prop44ColorIndex
 90
        5
102
RTVSPost2010Prop44ColorRGB
 90
      255
102
RTVSPost2010PropOp44
 70
     1
102
RTVSPost2010Prop45
280
     0
102
RTVSPost2010PropOp45
 70
     1
102
RTVSPost2010Prop46
 90
       50
102
RTVSPost2010PropOp46
 70
     1
102
RTVSPost2010Prop47
 90
       50
102
RTVSPost2010PropOp47
 70
     1
102
RTVSPost2010Prop48
 90
       50
102
RTVSPost2010PropOp48
 70
     1
102
RTVSPost2010Prop49
280
     0
102
RTVSPost2010PropOp49
 70
     1
102
RTVSPost2010Prop50
 90
       50
102
RTVSPost2010PropOp50
 70
     1
102
RTVSPost2010Prop51ColorIndex
 90
      256
102
RTVSPost2010Prop51ColorRGB
 90
-16777216
102
RTVSPost2010PropOp51
 70
     0
102
RTVSPost2010Prop52
140
1.0
102
RTVSPost2010PropOp52
 70
     0
102
RTVSPost2010Prop53
 90
        2
102
RTVSPost2010PropOp53
 70
     1
102
RTVSPost2010Prop54
  1
strokes_ogs.tif
102
RTVSPost2010PropOp54
 70
     1
102
RTVSPost2010Prop55
280
     0
102
RTVSPost2010PropOp55
 70
     1
102
RTVSPost2010Prop56
140
1.0
102
RTVSPost2010PropOp56
 70
     1
102
RTVSPost2010Prop57
140
1.0
102
RTVSPost2010PropOp57
 70
     1
  0
XRECORD
  5
4B3
102
{ACAD_REACTORS
330
4B2
102
}
330
4B2
100
AcDbXrecord
280
     1
102
RTVSPost2010Prop28
280
     0
102
RTVSPost2010PropOp28
 70
     1
102
RTVSPost2010Prop29
280
     1
102
RTVSPost2010PropOp29
 70
     1
102
RTVSPost2010Prop30
280
     1
102
RTVSPost2010PropOp30
 70
     1
102
RTVSPost2010Prop31
280
     0
102
RTVSPost2010PropOp31
 70
     1
102
RTVSPost2010Prop32
280
     0
102
RTVSPost2010PropOp32
 70
     1
102
RTVSPost2010Prop33
280
     0
102
RTVSPost2010PropOp33
 70
     1
102
RTVSPost2010Prop34
280
     0
102
RTVSPost2010PropOp34
 70
     1
102
RTVSPost2010Prop35
280
     0
102
RTVSPost2010PropOp35
 70
     1
102
RTVSPost2010Prop36
280
     0
102
RTVSPost2010PropOp36
 70
     1
102
RTVSPost2010Prop37
 90
       50
102
RTVSPost2010PropOp37
 70
     1
102
RTVSPost2010Prop38
140
0.0
102
RTVSPost2010PropOp38
 70
     1
102
RTVSPost2010Prop39
140
1.0
102
RTVSPost2010PropOp39
 70
     1
102
RTVSPost2010Prop40
 90
        0
102
RTVSPost2010PropOp40
 70
     1
102
RTVSPost2010Prop41ColorIndex
 90
       18
102
RTVSPost2010Prop41ColorRGB
 90
        0
102
RTVSPost2010PropOp41
 70
     1
102
RTVSPost2010Prop42
 90
       50
102
RTVSPost2010PropOp42
 70
     1
102
RTVSPost2010Prop43
 90
        3
102
RTVSPost2010PropOp43
 70
     1
102
RTVSPost2010Prop44ColorIndex
 90
        5
102
RTVSPost2010Prop44ColorRGB
 90
      255
102
RTVSPost2010PropOp44
 70
     1
102
RTVSPost2010Prop45
280
     0
102
RTVSPost2010PropOp45
 70
     1
102
RTVSPost2010Prop46
 90
       50
102
RTVSPost2010PropOp46
 70
     1
102
RTVSPost2010Prop47
 90
       50
102
RTVSPost2010PropOp47
 70
     1
102
RTVSPost2010Prop48
 90
       50
102
RTVSPost2010PropOp48
 70
     1
102
RTVSPost2010Prop49
280
     0
102
RTVSPost2010PropOp49
 70
     1
102
RTVSPost2010Prop50
 90
       50
102
RTVSPost2010PropOp50
 70
     1
102
RTVSPost2010Prop51ColorIndex
 90
      256
102
RTVSPost2010Prop51ColorRGB
 90
-16777216
102
RTVSPost2010PropOp51
 70
     0
102
RTVSPost2010Prop52
140
1.0
102
RTVSPost2010PropOp52
 70
     0
102
RTVSPost2010Prop53
 90
        2
102
RTVSPost2010PropOp53
 70
     1
102
RTVSPost2010Prop54
  1
strokes_ogs.tif
102
RTVSPost2010PropOp54
 70
     1
102
RTVSPost2010Prop55
280
     0
102
RTVSPost2010PropOp55
 70
     1
102
RTVSPost2010Prop56
140
1.0
102
RTVSPost2010PropOp56
 70
     1
102
RTVSPost2010Prop57
140
1.0
102
RTVSPost2010PropOp57
 70
     1
  0
XRECORD
  5
4B5
102
{ACAD_REACTORS
330
4B4
102
}
330
4B4
100
AcDbXrecord
280
     1
102
RTVSPost2010Prop28
280
     0
102
RTVSPost2010PropOp28
 70
     1
102
RTVSPost2010Prop29
280
     1
102
RTVSPost2010PropOp29
 70
     1
102
RTVSPost2010Prop30
280
     1
102
RTVSPost2010PropOp30
 70
     1
102
RTVSPost2010Prop31
280
     0
102
RTVSPost2010PropOp31
 70
     1
102
RTVSPost2010Prop32
280
     0
102
RTVSPost2010PropOp32
 70
     1
102
RTVSPost2010Prop33
280
     0
102
RTVSPost2010PropOp33
 70
     1
102
RTVSPost2010Prop34
280
     0
102
RTVSPost2010PropOp34
 70
     1
102
RTVSPost2010Prop35
280
     0
102
RTVSPost2010PropOp35
 70
     1
102
RTVSPost2010Prop36
280
     0
102
RTVSPost2010PropOp36
 70
     1
102
RTVSPost2010Prop37
 90
       50
102
RTVSPost2010PropOp37
 70
     1
102
RTVSPost2010Prop38
140
0.0
102
RTVSPost2010PropOp38
 70
     1
102
RTVSPost2010Prop39
140
1.0
102
RTVSPost2010PropOp39
 70
     1
102
RTVSPost2010Prop40
 90
        0
102
RTVSPost2010PropOp40
 70
     1
102
RTVSPost2010Prop41ColorIndex
 90
       18
102
RTVSPost2010Prop41ColorRGB
 90
        0
102
RTVSPost2010PropOp41
 70
     1
102
RTVSPost2010Prop42
 90
       50
102
RTVSPost2010PropOp42
 70
     1
102
RTVSPost2010Prop43
 90
        3
102
RTVSPost2010PropOp43
 70
     1
102
RTVSPost2010Prop44ColorIndex
 90
        5
102
RTVSPost2010Prop44ColorRGB
 90
      255
102
RTVSPost2010PropOp44
 70
     1
102
RTVSPost2010Prop45
280
     0
102
RTVSPost2010PropOp45
 70
     1
102
RTVSPost2010Prop46
 90
       50
102
RTVSPost2010PropOp46
 70
     1
102
RTVSPost2010Prop47
 90
       50
102
RTVSPost2010PropOp47
 70
     1
102
RTVSPost2010Prop48
 90
       50
102
RTVSPost2010PropOp48
 70
     1
102
RTVSPost2010Prop49
280
     0
102
RTVSPost2010PropOp49
 70
     1
102
RTVSPost2010Prop50
 90
       50
102
RTVSPost2010PropOp50
 70
     1
102
RTVSPost2010Prop51ColorIndex
 90
      256
102
RTVSPost2010Prop51ColorRGB
 90
-16777216
102
RTVSPost2010PropOp51
 70
     0
102
RTVSPost2010Prop52
140
1.0
102
RTVSPost2010PropOp52
 70
     0
102
RTVSPost2010Prop53
 90
        2
102
RTVSPost2010PropOp53
 70
     1
102
RTVSPost2010Prop54
  1
strokes_ogs.tif
102
RTVSPost2010PropOp54
 70
     1
102
RTVSPost2010Prop55
280
     0
102
RTVSPost2010PropOp55
 70
     1
102
RTVSPost2010Prop56
140
1.0
102
RTVSPost2010PropOp56
 70
     1
102
RTVSPost2010Prop57
140
1.0
102
RTVSPost2010PropOp57
 70
     1
  0
XRECORD
  5
4AB
102
{ACAD_REACTORS
330
4AA
102
}
330
4AA
100
AcDbXrecord
280
     1
102
RTVSPost2010Prop28
280
     0
102
RTVSPost2010PropOp28
 70
     1
102
RTVSPost2010Prop29
280
     1
102
RTVSPost2010PropOp29
 70
     1
102
RTVSPost2010Prop30
280
     1
102
RTVSPost2010PropOp30
 70
     1
102
RTVSPost2010Prop31
280
     0
102
RTVSPost2010PropOp31
 70
     1
102
RTVSPost2010Prop32
280
     0
102
RTVSPost2010PropOp32
 70
     1
102
RTVSPost2010Prop33
280
     0
102
RTVSPost2010PropOp33
 70
     1
102
RTVSPost2010Prop34
280
     0
102
RTVSPost2010PropOp34
 70
     1
102
RTVSPost2010Prop35
280
     0
102
RTVSPost2010PropOp35
 70
     1
102
RTVSPost2010Prop36
280
     0
102
RTVSPost2010PropOp36
 70
     1
102
RTVSPost2010Prop37
 90
       50
102
RTVSPost2010PropOp37
 70
     1
102
RTVSPost2010Prop38
140
0.0
102
RTVSPost2010PropOp38
 70
     1
102
RTVSPost2010Prop39
140
1.0
102
RTVSPost2010PropOp39
 70
     1
102
RTVSPost2010Prop40
 90
        0
102
RTVSPost2010PropOp40
 70
     1
102
RTVSPost2010Prop41ColorIndex
 90
       18
102
RTVSPost2010Prop41ColorRGB
 90
        0
102
RTVSPost2010PropOp41
 70
     1
102
RTVSPost2010Prop42
 90
       50
102
RTVSPost2010PropOp42
 70
     1
102
RTVSPost2010Prop43
 90
        3
102
RTVSPost2010PropOp43
 70
     1
102
RTVSPost2010Prop44ColorIndex
 90
        5
102
RTVSPost2010Prop44ColorRGB
 90
      255
102
RTVSPost2010PropOp44
 70
     1
102
RTVSPost2010Prop45
280
     0
102
RTVSPost2010PropOp45
 70
     1
102
RTVSPost2010Prop46
 90
       50
102
RTVSPost2010PropOp46
 70
     1
102
RTVSPost2010Prop47
 90
       50
102
RTVSPost2010PropOp47
 70
     1
102
RTVSPost2010Prop48
 90
       50
102
RTVSPost2010PropOp48
 70
     1
102
RTVSPost2010Prop49
280
     0
102
RTVSPost2010PropOp49
 70
     1
102
RTVSPost2010Prop50
 90
       50
102
RTVSPost2010PropOp50
 70
     1
102
RTVSPost2010Prop51ColorIndex
 90
      256
102
RTVSPost2010Prop51ColorRGB
 90
-16777216
102
RTVSPost2010PropOp51
 70
     0
102
RTVSPost2010Prop52
140
1.0
102
RTVSPost2010PropOp52
 70
     0
102
RTVSPost2010Prop53
 90
        2
102
RTVSPost2010PropOp53
 70
     1
102
RTVSPost2010Prop54
  1
strokes_ogs.tif
102
RTVSPost2010PropOp54
 70
     1
102
RTVSPost2010Prop55
280
     0
102
RTVSPost2010PropOp55
 70
     1
102
RTVSPost2010Prop56
140
1.0
102
RTVSPost2010PropOp56
 70
     1
102
RTVSPost2010Prop57
140
1.0
102
RTVSPost2010PropOp57
 70
     1
  0
XRECORD
  5
48F
102
{ACAD_REACTORS
330
48E
102
}
330
48E
100
AcDbXrecord
280
     1
102
RTVSPost2010Prop28
280
     0
102
RTVSPost2010PropOp28
 70
     1
102
RTVSPost2010Prop29
280
     1
102
RTVSPost2010PropOp29
 70
     1
102
RTVSPost2010Prop30
280
     1
102
RTVSPost2010PropOp30
 70
     1
102
RTVSPost2010Prop31
280
     0
102
RTVSPost2010PropOp31
 70
     1
102
RTVSPost2010Prop32
280
     0
102
RTVSPost2010PropOp32
 70
     1
102
RTVSPost2010Prop33
280
     0
102
RTVSPost2010PropOp33
 70
     1
102
RTVSPost2010Prop34
280
     0
102
RTVSPost2010PropOp34
 70
     1
102
RTVSPost2010Prop35
280
     0
102
RTVSPost2010PropOp35
 70
     1
102
RTVSPost2010Prop36
280
     0
102
RTVSPost2010PropOp36
 70
     1
102
RTVSPost2010Prop37
 90
       50
102
RTVSPost2010PropOp37
 70
     1
102
RTVSPost2010Prop38
140
0.0
102
RTVSPost2010PropOp38
 70
     1
102
RTVSPost2010Prop39
140
1.0
102
RTVSPost2010PropOp39
 70
     1
102
RTVSPost2010Prop40
 90
        0
102
RTVSPost2010PropOp40
 70
     1
102
RTVSPost2010Prop41ColorIndex
 90
       18
102
RTVSPost2010Prop41ColorRGB
 90
-16777216
102
RTVSPost2010PropOp41
 70
     1
102
RTVSPost2010Prop42
 90
       50
102
RTVSPost2010PropOp42
 70
     1
102
RTVSPost2010Prop43
 90
        3
102
RTVSPost2010PropOp43
 70
     1
102
RTVSPost2010Prop44ColorIndex
 90
        5
102
RTVSPost2010Prop44ColorRGB
 90
      255
102
RTVSPost2010PropOp44
 70
     1
102
RTVSPost2010Prop45
280
     0
102
RTVSPost2010PropOp45
 70
     1
102
RTVSPost2010Prop46
 90
       50
102
RTVSPost2010PropOp46
 70
     1
102
RTVSPost2010Prop47
 90
       50
102
RTVSPost2010PropOp47
 70
     1
102
RTVSPost2010Prop48
 90
       50
102
RTVSPost2010PropOp48
 70
     1
102
RTVSPost2010Prop49
280
     0
102
RTVSPost2010PropOp49
 70
     1
102
RTVSPost2010Prop50
 90
       50
102
RTVSPost2010PropOp50
 70
     1
102
RTVSPost2010Prop51ColorIndex
 90
      256
102
RTVSPost2010Prop51ColorRGB
 90
-16777216
102
RTVSPost2010PropOp51
 70
     0
102
RTVSPost2010Prop52
140
1.0
102
RTVSPost2010PropOp52
 70
     0
102
RTVSPost2010Prop53
 90
        2
102
RTVSPost2010PropOp53
 70
     1
102
RTVSPost2010Prop54
  1
strokes_ogs.tif
102
RTVSPost2010PropOp54
 70
     1
102
RTVSPost2010Prop55
280
     0
102
RTVSPost2010PropOp55
 70
     1
102
RTVSPost2010Prop56
140
1.0
102
RTVSPost2010PropOp56
 70
     1
102
RTVSPost2010Prop57
140
1.0
102
RTVSPost2010PropOp57
 70
     1
  0
XRECORD
  5
4B7
102
{ACAD_REACTORS
330
4B6
102
}
330
4B6
100
AcDbXrecord
280
     1
102
RTVSPost2010Prop28
280
     0
102
RTVSPost2010PropOp28
 70
     1
102
RTVSPost2010Prop29
280
     1
102
RTVSPost2010PropOp29
 70
     1
102
RTVSPost2010Prop30
280
     1
102
RTVSPost2010PropOp30
 70
     1
102
RTVSPost2010Prop31
280
     0
102
RTVSPost2010PropOp31
 70
     1
102
RTVSPost2010Prop32
280
     0
102
RTVSPost2010PropOp32
 70
     1
102
RTVSPost2010Prop33
280
     0
102
RTVSPost2010PropOp33
 70
     1
102
RTVSPost2010Prop34
280
     0
102
RTVSPost2010PropOp34
 70
     1
102
RTVSPost2010Prop35
280
     0
102
RTVSPost2010PropOp35
 70
     1
102
RTVSPost2010Prop36
280
     0
102
RTVSPost2010PropOp36
 70
     1
102
RTVSPost2010Prop37
 90
       50
102
RTVSPost2010PropOp37
 70
     1
102
RTVSPost2010Prop38
140
0.0
102
RTVSPost2010PropOp38
 70
     1
102
RTVSPost2010Prop39
140
1.0
102
RTVSPost2010PropOp39
 70
     1
102
RTVSPost2010Prop40
 90
        0
102
RTVSPost2010PropOp40
 70
     1
102
RTVSPost2010Prop41ColorIndex
 90
       18
102
RTVSPost2010Prop41ColorRGB
 90
        0
102
RTVSPost2010PropOp41
 70
     1
102
RTVSPost2010Prop42
 90
       50
102
RTVSPost2010PropOp42
 70
     1
102
RTVSPost2010Prop43
 90
        3
102
RTVSPost2010PropOp43
 70
     1
102
RTVSPost2010Prop44ColorIndex
 90
        5
102
RTVSPost2010Prop44ColorRGB
 90
      255
102
RTVSPost2010PropOp44
 70
     1
102
RTVSPost2010Prop45
280
     0
102
RTVSPost2010PropOp45
 70
     1
102
RTVSPost2010Prop46
 90
       50
102
RTVSPost2010PropOp46
 70
     1
102
RTVSPost2010Prop47
 90
       50
102
RTVSPost2010PropOp47
 70
     1
102
RTVSPost2010Prop48
 90
       50
102
RTVSPost2010PropOp48
 70
     1
102
RTVSPost2010Prop49
280
     0
102
RTVSPost2010PropOp49
 70
     1
102
RTVSPost2010Prop50
 90
       50
102
RTVSPost2010PropOp50
 70
     1
102
RTVSPost2010Prop51ColorIndex
 90
      256
102
RTVSPost2010Prop51ColorRGB
 90
-16777216
102
RTVSPost2010PropOp51
 70
     0
102
RTVSPost2010Prop52
140
1.0
102
RTVSPost2010PropOp52
 70
     0
102
RTVSPost2010Prop53
 90
        2
102
RTVSPost2010PropOp53
 70
     1
102
RTVSPost2010Prop54
  1
strokes_ogs.tif
102
RTVSPost2010PropOp54
 70
     1
102
RTVSPost2010Prop55
280
     0
102
RTVSPost2010PropOp55
 70
     1
102
RTVSPost2010Prop56
140
1.0
102
RTVSPost2010PropOp56
 70
     1
102
RTVSPost2010Prop57
140
1.0
102
RTVSPost2010PropOp57
 70
     1
  0
ACDBASSOCGEOMDEPENDENCY
  5
31E
330
316
100
AcDbAssocDependency
 90
        2
 90
        0
290
     1
290
     1
290
     1
290
     1
 90
   -10000
330
10B
290
     0
330
0
330
0
360
0
 90
     2661
100
AcDbAssocGeomDependency
 90
        0
290
     1
  1
AcDbAssocSingleEdgePersSubentId
290
     0
  0
ACDBASSOCGEOMDEPENDENCY
  5
31F
330
316
100
AcDbAssocDependency
 90
        2
 90
        0
290
     1
290
     1
290
     1
290
     1
 90
   -10000
330
10C
290
     0
330
0
330
0
360
0
 90
     2662
100
AcDbAssocGeomDependency
 90
        0
290
     1
  1
AcDbAssocSingleEdgePersSubentId
290
     0
  0
ENDSEC
  0
EOF
