  0
SECTION
  2
HEADER
  9
$ACADVER
  1
AC1015
  9
$ACADMAINTVER
 70
    20
  9
$DWGCODEPAGE
  3
ANSI_1252
  9
$INSBASE
 10
0.0
 20
0.0
 30
0.0
  9
$EXTMIN
 10
-281.3078428944848
 20
328.7832241655654
 30
0.0
  9
$EXTMAX
 10
476.7740527756283
 20
710.2244840699071
 30
0.0
  9
$LIMMIN
 10
0.0
 20
0.0
  9
$LIMMAX
 10
420.0
 20
420.0
  9
$ORTHOMODE
 70
     1
  9
$REGENMODE
 70
     1
  9
$FILLMODE
 70
     1
  9
$QTEXTMODE
 70
     0
  9
$MIRRTEXT
 70
     0
  9
$LTSCALE
 40
1.0
  9
$ATTMODE
 70
     1
  9
$TEXTSIZE
 40
2.399999999999999
  9
$TRACEWID
 40
0.05
  9
$TEXTSTYLE
  7
NORM
  9
$CLAYER
  8
0
  9
$CELTYPE
  6
BYLAYER
  9
$CECOLOR
 62
   256
  9
$CELTSCALE
 40
1.0
  9
$DISPSILH
 70
     0
  9
$DIMSCALE
 40
1.0
  9
$DIMASZ
 40
3.5
  9
$DIMEXO
 40
0.0
  9
$DIMDLI
 40
8.0
  9
$DIMRND
 40
0.0
  9
$DIMDLE
 40
0.0
  9
$DIMEXE
 40
0.5
  9
$DIMTP
 40
0.0
  9
$DIMTM
 40
0.0
  9
$DIMTXT
 40
3.5
  9
$DIMCEN
 40
1.5
  9
$DIMTSZ
 40
0.0
  9
$DIMTOL
 70
     0
  9
$DIMLIM
 70
     0
  9
$DIMTIH
 70
     0
  9
$DIMTOH
 70
     0
  9
$DIMSE1
 70
     0
  9
$DIMSE2
 70
     0
  9
$DIMTAD
 70
     1
  9
$DIMZIN
 70
     8
  9
$DIMBLK
  1

  9
$DIMASO
 70
     1
  9
$DIMSHO
 70
     1
  9
$DIMPOST
  1

  9
$DIMAPOST
  1

  9
$DIMALT
 70
     0
  9
$DIMALTD
 70
     2
  9
$DIMALTF
 40
25.4
  9
$DIMLFAC
 40
1.0
  9
$DIMTOFL
 70
     1
  9
$DIMTVP
 40
0.0
  9
$DIMTIX
 70
     1
  9
$DIMSOXD
 70
     0
  9
$DIMSAH
 70
     0
  9
$DIMBLK1
  1

  9
$DIMBLK2
  1

  9
$DIMSTYLE
  2
NORMAL
  9
$DIMCLRD
 70
   256
  9
$DIMCLRE
 70
   256
  9
$DIMCLRT
 70
     3
  9
$DIMTFAC
 40
0.5
  9
$DIMGAP
 40
1.0
  9
$DIMJUST
 70
     0
  9
$DIMSD1
 70
     0
  9
$DIMSD2
 70
     0
  9
$DIMTOLJ
 70
     1
  9
$DIMTZIN
 70
     8
  9
$DIMALTZ
 70
     0
  9
$DIMALTTZ
 70
     0
  9
$DIMUPT
 70
     0
  9
$DIMDEC
 70
     2
  9
$DIMTDEC
 70
     2
  9
$DIMALTU
 70
     2
  9
$DIMALTTD
 70
     2
  9
$DIMTXSTY
  7
ARIAL-STANDARD
  9
$DIMAUNIT
 70
     0
  9
$DIMADEC
 70
     0
  9
$DIMALTRND
 40
0.0
  9
$DIMAZIN
 70
     0
  9
$DIMDSEP
 70
    46
  9
$DIMATFIT
 70
     3
  9
$DIMFRAC
 70
     0
  9
$DIMLDRBLK
  1

  9
$DIMLUNIT
 70
     2
  9
$DIMLWD
 70
    -2
  9
$DIMLWE
 70
    -2
  9
$DIMTMOVE
 70
     0
  9
$LUNITS
 70
     2
  9
$LUPREC
 70
     2
  9
$SKETCHINC
 40
0.1
  9
$FILLETRAD
 40
5.0
  9
$AUNITS
 70
     0
  9
$AUPREC
 70
     0
  9
$MENU
  1
.
  9
$ELEVATION
 40
0.0
  9
$PELEVATION
 40
0.0
  9
$THICKNESS
 40
0.0
  9
$LIMCHECK
 70
     0
  9
$CHAMFERA
 40
2.5
  9
$CHAMFERB
 40
2.5
  9
$CHAMFERC
 40
1.0
  9
$CHAMFERD
 40
0.0
  9
$SKPOLY
 70
     0
  9
$TDCREATE
 40
2456190.417516122
  9
$TDUCREATE
 40
2456190.375849456
  9
$TDUPDATE
 40
2457067.501232257
  9
$TDUUPDATE
 40
2457067.459565590
  9
$TDINDWG
 40
0.6346237731
  9
$TDUSRTIMER
 40
0.6346233333
  9
$USRTIMER
 70
     1
  9
$ANGBASE
 50
0.0
  9
$ANGDIR
 70
     0
  9
$PDMODE
 70
     0
  9
$PDSIZE
 40
0.0
  9
$PLINEWID
 40
0.0
  9
$SPLFRAME
 70
     0
  9
$SPLINETYPE
 70
     6
  9
$SPLINESEGS
 70
     8
  9
$HANDSEED
  5
2D6
  9
$SURFTAB1
 70
     6
  9
$SURFTAB2
 70
     6
  9
$SURFTYPE
 70
     6
  9
$SURFU
 70
     6
  9
$SURFV
 70
     6
  9
$UCSBASE
  2

  9
$UCSNAME
  2

  9
$UCSORG
 10
0.0
 20
0.0
 30
0.0
  9
$UCSXDIR
 10
1.0
 20
0.0
 30
0.0
  9
$UCSYDIR
 10
0.0
 20
1.0
 30
0.0
  9
$UCSORTHOREF
  2

  9
$UCSORTHOVIEW
 70
     0
  9
$UCSORGTOP
 10
0.0
 20
0.0
 30
0.0
  9
$UCSORGBOTTOM
 10
0.0
 20
0.0
 30
0.0
  9
$UCSORGLEFT
 10
0.0
 20
0.0
 30
0.0
  9
$UCSORGRIGHT
 10
0.0
 20
0.0
 30
0.0
  9
$UCSORGFRONT
 10
0.0
 20
0.0
 30
0.0
  9
$UCSORGBACK
 10
0.0
 20
0.0
 30
0.0
  9
$PUCSBASE
  2

  9
$PUCSNAME
  2

  9
$PUCSORG
 10
0.0
 20
0.0
 30
0.0
  9
$PUCSXDIR
 10
1.0
 20
0.0
 30
0.0
  9
$PUCSYDIR
 10
0.0
 20
1.0
 30
0.0
  9
$PUCSORTHOREF
  2

  9
$PUCSORTHOVIEW
 70
     0
  9
$PUCSORGTOP
 10
0.0
 20
0.0
 30
0.0
  9
$PUCSORGBOTTOM
 10
0.0
 20
0.0
 30
0.0
  9
$PUCSORGLEFT
 10
0.0
 20
0.0
 30
0.0
  9
$PUCSORGRIGHT
 10
0.0
 20
0.0
 30
0.0
  9
$PUCSORGFRONT
 10
0.0
 20
0.0
 30
0.0
  9
$PUCSORGBACK
 10
0.0
 20
0.0
 30
0.0
  9
$USERI1
 70
     0
  9
$USERI2
 70
     0
  9
$USERI3
 70
     0
  9
$USERI4
 70
     0
  9
$USERI5
 70
     0
  9
$USERR1
 40
0.0
  9
$USERR2
 40
0.0
  9
$USERR3
 40
0.0
  9
$USERR4
 40
0.0
  9
$USERR5
 40
0.0
  9
$WORLDVIEW
 70
     1
  9
$SHADEDGE
 70
     3
  9
$SHADEDIF
 70
    70
  9
$TILEMODE
 70
     1
  9
$MAXACTVP
 70
    48
  9
$PINSBASE
 10
0.0
 20
0.0
 30
0.0
  9
$PLIMCHECK
 70
     0
  9
$PEXTMIN
 10
26.66999878883363
 20
20.31999878883363
 30
0.0
  9
$PEXTMAX
 10
240.0299890995026
 20
182.8799890995025
 30
0.0
  9
$PLIMMIN
 10
-6.350006103515625
 20
-6.349999904632567
  9
$PLIMMAX
 10
273.0499877929688
 20
209.5499939918518
  9
$UNITMODE
 70
     0
  9
$VISRETAIN
 70
     1
  9
$PLINEGEN
 70
     0
  9
$PSLTSCALE
 70
     1
  9
$TREEDEPTH
 70
  3020
  9
$CMLSTYLE
  2
STANDARD
  9
$CMLJUST
 70
     0
  9
$CMLSCALE
 40
1.0
  9
$PROXYGRAPHICS
 70
     1
  9
$MEASUREMENT
 70
     1
  9
$CELWEIGHT
370
    -1
  9
$ENDCAPS
280
     0
  9
$JOINSTYLE
280
     0
  9
$LWDISPLAY
290
     0
  9
$INSUNITS
 70
     0
  9
$HYPERLINKBASE
  1

  9
$STYLESHEET
  1

  9
$XEDIT
290
     1
  9
$CEPSNTYPE
380
     0
  9
$PSTYLEMODE
290
     1
  9
$FINGERPRINTGUID
  2
{5AECB5E9-17B1-4D54-A96B-2FC96ACF0849}
  9
$VERSIONGUID
  2
{BBD85C5F-669C-4740-BD1A-48B4C017A92A}
  9
$EXTNAMES
290
     1
  9
$PSVPSCALE
 40
0.0
  9
$OLESTARTUP
290
     0
  0
ENDSEC
  0
SECTION
  2
CLASSES
  0
CLASS
  1
ACDBDICTIONARYWDFLT
  2
AcDbDictionaryWithDefault
  3
ObjectDBX Classes
 90
        0
280
     0
281
     0
  0
CLASS
  1
PLOTSETTINGS
  2
AcDbPlotSettings
  3
ObjectDBX Classes
 90
    32768
280
     0
281
     0
  0
CLASS
  1
DICTIONARYVAR
  2
AcDbDictionaryVar
  3
ObjectDBX Classes
 90
        0
280
     0
281
     0
  0
CLASS
  1
ACME_DOCUMENT
  2
AcMeDbDoc
  3
AcMeServices
 90
    33792
280
     0
281
     0
  0
CLASS
  1
AMGSETTINGSOBJ
  2
AmgSettingsObj
  3
"AcadM|Product Description: AutoCAD Mechanical|Company: Autodesk, Inc."
 90
     1024
280
     0
281
     0
  0
CLASS
  1
ACMESCOPE
  2
AcMeScope
  3
AcMeServices
 90
     1024
280
     0
281
     0
  0
CLASS
  1
ACMECOMMANDHISTORY
  2
AcMeCommandHistory
  3
AcMeServices
 90
    33792
280
     0
281
     0
  0
CLASS
  1
ACIMSYSVARMAN
  2
AcImSysVarManager
  3
AcMeServices
 90
     1024
280
     0
281
     0
  0
CLASS
  1
ACIMREALSYSVAR
  2
AcImRealSysVar
  3
AcMeServices
 90
    33792
280
     0
281
     0
  0
CLASS
  1
ACIMINTSYSVAR
  2
AcImIntSysVar
  3
AcMeServices
 90
    33792
280
     0
281
     0
  0
CLASS
  1
ACMEDRAWINGMAN
  2
AcMeDrawingMan
  3
AcMeServices
 90
    33792
280
     0
281
     0
  0
CLASS
  1
ACMEVIEW
  2
AcMeView
  3
AcMeServices
 90
    33792
280
     0
281
     0
  0
CLASS
  1
ACDBENTITYCACHE
  2
AcMeEntityCache
  3
AcMeServices
 90
    33792
280
     0
281
     0
  0
CLASS
  1
GSMANAGER
  2
AcMeGSManager
  3
AcMeServices
 90
    33792
280
     1
281
     0
  0
CLASS
  1
AMDTINTERNALREACTOR
  2
AmdtInternalReactor
  3
AcMeServices
 90
    33792
280
     0
281
     0
  0
CLASS
  1
ACMESTATEMGR
  2
AcMeStateMgr
  3
AcMeServices
 90
     1024
280
     0
281
     0
  0
CLASS
  1
ACGREFMASTER
  2
AcGrefMaster
  3
AcAttribServices
 90
     1024
280
     0
281
     0
  0
CLASS
  1
ACME_DATABASE
  2
AcMeDbDatabase
  3
AcMeServices
 90
    33792
280
     0
281
     0
  0
CLASS
  1
ACRFINSADJUSTERMGR
  2
AcRfInsAdjusterMgr
  3
AcMeServices
 90
    33792
280
     0
281
     0
  0
CLASS
  1
ACGREFACADMASTER
  2
AcGrefacadMaster
  3
AcGrefServices
 90
    33792
280
     0
281
     0
  0
CLASS
  1
AMIMASTER
  2
AmiMaster
  3
AmiServices
 90
    33792
280
     0
281
     0
  0
CLASS
  1
ACMDATADICTIONARY
  2
AcmDataDictionary
  3
"AcmSymBB|Product Description: AutoCAD Mechanical|Company: Autodesk, Inc."
 90
    33792
280
     0
281
     0
  0
CLASS
  1
ACMDATAENTRYBLOCK
  2
AcmDataEntryBlock
  3
AcmSymBB|Product Description: AutoCAD Mechanical|Company: Autodesk, Inc.
 90
    33792
280
     0
281
     0
  0
CLASS
  1
ACIMSTRSYSVAR
  2
AcImStrSysVar
  3
AcMeServices
 90
     1024
280
     0
281
     0
  0
CLASS
  1
ACMSTANDARDDIN
  2
AcmStandardDIN
  3
"Amdt_StdImp|Product Description: AutoCAD Mechanical|Company: Autodesk, Inc."
 90
     1024
280
     0
281
     0
  0
CLASS
  1
AMGOBJPROPCFG
  2
AmgObjPropCfg
  3
"AmgLay|Product Description: AutoCAD Mechanical|Company: Autodesk, Inc."
 90
     1024
280
     0
281
     0
  0
CLASS
  1
AMDTEDGESTANDARDDIN
  2
AmdtEdgeStdDIN
  3
"Amdt_StdImp|Product Description: AutoCAD Mechanical|Company: Autodesk, Inc."
 90
    33792
280
     0
281
     0
  0
CLASS
  1
ACMSURFSTANDARDDIN
  2
AcmSurfTextStdDIN
  3
"Amdt_StdImp|Product Description: AutoCAD Mechanical|Company: Autodesk, Inc."
 90
    33792
280
     0
281
     0
  0
CLASS
  1
ACMFCFSTANDARDDIN
  2
AcmFCFStdDIN
  3
"Amdt_StdImp|Product Description: AutoCAD Mechanical|Company: Autodesk, Inc."
 90
    33792
280
     0
281
     0
  0
CLASS
  1
ACMWELDSTANDARDDIN
  2
AcmWeldingStdDIN
  3
"Amdt_StdImp|Product Description: AutoCAD Mechanical|Company: Autodesk, Inc."
 90
     1024
280
     0
281
     0
  0
CLASS
  1
ACMIDSTANDARDDIN
  2
AcmIdStdDIN
  3
"Amdt_StdImp|Product Description: AutoCAD Mechanical|Company: Autodesk, Inc."
 90
    33792
280
     0
281
     0
  0
CLASS
  1
ACMDATUMSTANDARDDIN
  2
AcmDatumStdDIN
  3
"Amdt_StdImp|Product Description: AutoCAD Mechanical|Company: Autodesk, Inc."
 90
     1024
280
     0
281
     0
  0
CLASS
  1
ACMBOMSTANDARDDIN
  2
AcmBOMStdDIN
  3
"Amdt_StdImp|Product Description: AutoCAD Mechanical|Company: Autodesk, Inc."
 90
     1024
280
     0
281
     0
  0
CLASS
  1
ACMDETAILSTANDARDDIN
  2
AmdtDetailSymStdDIN
  3
"Amdt_StdImp|Product Description: AutoCAD Mechanical|Company: Autodesk, Inc."
 90
     1024
280
     0
281
     0
  0
CLASS
  1
ACMSECTIONSTANDARDDIN
  2
AmdtSectionSymStdDIN
  3
"Amdt_StdImp|Product Description: AutoCAD Mechanical|Company: Autodesk, Inc."
 90
     1024
280
     0
281
     0
  0
CLASS
  1
ACMCENTERLINESTANDARDDIN
  2
AmdtCenterLineStdDIN
  3
"Amdt_StdImp|Product Description: AutoCAD Mechanical|Company: Autodesk, Inc."
 90
     1024
280
     0
281
     0
  0
CLASS
  1
ACMNOTESTANDARDDIN
  2
AmdtNoteStdDIN
  3
"Amdt_StdImp|Product Description: AutoCAD Mechanical|Company: Autodesk, Inc."
 90
     1024
280
     0
281
     0
  0
CLASS
  1
ACAMGLAYSTD
  2
AcAmgLayStd
  3
"AmgLay|Product Description: AutoCAD Mechanical|Company: Autodesk, Inc."
 90
     1024
280
     0
281
     0
  0
CLASS
  1
ACAMGDIMSTD
  2
AcAmgDimStd
  3
"AmgDim|Product Description: AutoCAD Mechanical|Company: Autodesk, Inc."
 90
     1024
280
     0
281
     0
  0
CLASS
  1
ACAMGHOLECHARTSTDDIN
  2
AcAmgHoleChartStdDIN
  3
AmgDim|Product Description: AutoCAD Mechanical|Company: Autodesk, Inc.
 90
     1024
280
     0
281
     0
  0
CLASS
  1
ACAMGTITLESTD
  2
AcAmgTitleStd
  3
"AmgTitle|Product Description: AutoCAD Mechanical|Company: Autodesk, Inc."
 90
     1024
280
     0
281
     0
  0
CLASS
  1
ACAMGFILTERDAT
  2
AcAmgFilterDat
  3
"AcadM|Product Description: AutoCAD Mechanical|Company: Autodesk, Inc."
 90
    33792
280
     0
281
     0
  0
CLASS
  1
LAYER_INDEX
  2
AcDbLayerIndex
  3
ObjectDBX Classes
 90
    32768
280
     0
281
     0
  0
CLASS
  1
IDBUFFER
  2
AcDbIdBuffer
  3
ObjectDBX Classes
 90
    32768
280
     0
281
     0
  0
CLASS
  1
TABLESTYLE
  2
AcDbTableStyle
  3
ObjectDBX Classes
 90
     4095
280
     0
281
     0
  0
CLASS
  1
AM_DRAWING_MGR
  2
AcDmDwgMgr
  3
AcMechDwgViewMgmt
 90
    33792
280
     0
281
     0
  0
CLASS
  1
AM_DWG_DOCUMENT
  2
AcDmDwgDocument
  3
AcMechDwgViewMgmt
 90
    33792
280
     0
281
     0
  0
CLASS
  1
AM_DWG_SHEET
  2
AcDmSheet
  3
AcMechDwgViewMgmt
 90
    33792
280
     0
281
     0
  0
CLASS
  1
AM_VIEWDIMPARMAP
  2
AcDmViewDimParMap
  3
AcMechDwgViewMgmt
 90
    33792
280
     0
281
     0
  0
CLASS
  1
AM_DWGMGR_NAME
  2
AcDmDwgMgrName
  3
AcMechDwgViewMgmt
 90
    33792
280
     0
281
     0
  0
CLASS
  1
AMDTMENUSTATEMGR
  2
AmdtMenuStateMgr
  3
McadcomServices
 90
    33792
280
     0
281
     0
  0
CLASS
  1
AMDTMCOMMENUSTATE
  2
AmdtMcomMenuState
  3
McadcomServices
 90
    33792
280
     0
281
     0
  0
CLASS
  1
MAPIAMMOUDLE
  2
MApiAmModule
  3
MApiAmServices
 90
    33792
280
     0
281
     0
  0
CLASS
  1
AMDTADMENUSTATE
  2
AmdtAdMenuState
  3
DesignerServices
 90
    33792
280
     1
281
     0
  0
CLASS
  1
ADAPPL
  2
AcAdAppl
  3
DesignerAssemblies
 90
    33792
280
     0
281
     0
  0
CLASS
  1
DEPMGR
  2
AcAdDepMgr
  3
DesignerAssemblies
 90
    33792
280
     0
281
     0
  0
CLASS
  1
PARAMMGR
  2
AcAdParamMgr
  3
DesignerAssemblies
 90
    33792
280
     0
281
     0
  0
CLASS
  1
PARAMSCOPE
  2
AcAdParamScope
  3
DesignerAssemblies
 90
    33792
280
     0
281
     0
  0
CLASS
  1
NAMEDAPPL
  2
AcAdNamedAppl
  3
DesignerAssemblies
 90
    33792
280
     0
281
     0
  0
CLASS
  1
AMDTDMMENUSTATE
  2
AmdtDmMenuState
  3
AcMechDwgViewMgmt
 90
    33792
280
     1
281
     0
  0
CLASS
  1
AMDTAMMENUSTATE
  2
AmdtAmMenuState
  3
DesignerAssemblies
 90
    33792
280
     0
281
     0
  0
CLASS
  1
ACAMPROJECT
  2
AcAmProject
  3
DesignerAssemblies
 90
    33792
280
     0
281
     0
  0
CLASS
  1
ACAMGRCOMPDEF
  2
AcAmGrCompDef
  3
DesignerAssemblies
 90
    33792
280
     0
281
     0
  0
CLASS
  1
ACCMCONTEXT
  2
AcCmContext
  3
DesignerAssemblies
 90
    33792
280
     0
281
     0
  0
CLASS
  1
ACAMCOMPDEF
  2
AcAmCompDef
  3
DesignerAssemblies
 90
    33792
280
     0
281
     0
  0
CLASS
  1
ACAMCOMPDEFMGR
  2
AcAmCompDefMgr
  3
DesignerAssemblies
 90
    33792
280
     0
281
     0
  0
CLASS
  1
AMCONTEXTMGR
  2
AcAmContextMgr
  3
DesignerAssemblies
 90
    33792
280
     0
281
     0
  0
CLASS
  1
ACAMCONTEXTMODELER
  2
AcAmContextModeler
  3
DesignerAssemblies
 90
    33792
280
     0
281
     0
  0
CLASS
  1
ACMTHREADLINESTANDARDDIN
  2
AmdtThreadLineStdDIN
  3
"Amdt_StdImp|Product Description: AutoCAD Mechanical|Company: Autodesk, Inc."
 90
     1024
280
     0
281
     0
  0
CLASS
  1
CATALOGSTATE
  2
AcAmCatalogState
  3
DesignerAssemblies
 90
    33792
280
     0
281
     0
  0
CLASS
  1
ACAMGRCOMPDEFSET
  2
AcAmGrCompDefSet
  3
DesignerAssemblies
 90
    33792
280
     0
281
     0
  0
CLASS
  1
AMDTBROWSERDBTAB
  2
AmdtBrowserDbTab
  3
McadcomServices
 90
    33792
280
     0
281
     0
  0
CLASS
  1
CBROWSERAPPOBJECT
  2
CBrowserAppObject
  3
McadcomServices
 90
    33792
280
     0
281
     0
  0
CLASS
  1
DM_PLACEHOLDER
  2
AcDmSelsetPlaceholder
  3
McadcomServices
 90
    33792
280
     0
281
     0
  0
CLASS
  1
SORTENTSTABLE
  2
AcDbSortentsTable
  3
ObjectDBX Classes
 90
        0
280
     0
281
     0
  0
CLASS
  1
MATERIAL
  2
AcDbMaterial
  3
ObjectDBX Classes
 90
     1153
280
     0
281
     0
  0
CLASS
  1
VISUALSTYLE
  2
AcDbVisualStyle
  3
ObjectDBX Classes
 90
     4095
280
     0
281
     0
  0
CLASS
  1
SCALE
  2
AcDbScale
  3
ObjectDBX Classes
 90
     1153
280
     0
281
     0
  0
CLASS
  1
MLEADERSTYLE
  2
AcDbMLeaderStyle
  3
ACDB_MLEADERSTYLE_CLASS
 90
    36863
280
     0
281
     0
  0
CLASS
  1
ACRFATTGENMGR
  2
AcRfAttGeneralMgr
  3
AcAttribServices
 90
    33792
280
     0
281
     0
  0
CLASS
  1
ACRFOBJATTMGR
  2
AcRfObjAttGroupMgr
  3
AcAttribServices
 90
    33792
280
     0
281
     0
  0
CLASS
  1
ACRFMCADAPIATTHOLDER
  2
AcRfMCADAPIAttHolder
  3
AcAttribServices
 90
    33792
280
     0
281
     0
  0
CLASS
  1
AMDTSYSATTR
  2
AmdtSystemAttribute
  3
AcAttribServices
 90
    33792
280
     0
281
     0
  0
CLASS
  1
ACMTAPERSTANDARDDIN
  2
AcmTaperStdDIN
  3
"Amdt_StdImp|Product Description: AutoCAD Mechanical|Company: Autodesk, Inc."
 90
     1024
280
     0
281
     0
  0
CLASS
  1
ACMANOOTATIONVIEWSTANDARDDIN
  2
AmdtAnViewStdDIN
  3
"Amdt_StdImp|Product Description: AutoCAD Mechanical|Company: Autodesk, Inc."
 90
     1024
280
     0
281
     0
  0
CLASS
  1
CAMSSTRUCTBTNSTATE
  2
StructBtnState
  3
DesignerAssemblies
 90
    33792
280
     0
281
     0
  0
CLASS
  1
CELLSTYLEMAP
  2
AcDbCellStyleMap
  3
ObjectDBX Classes
 90
     1152
280
     0
281
     0
  0
CLASS
  1
ACDBASSOCNETWORK
  2
AcDbAssocNetwork
  3
ObjectDBX Classes
 90
     1025
280
     0
281
     0
  0
CLASS
  1
ACDBASSOC2DCONSTRAINTGROUP
  2
AcDbAssoc2dConstraintGroup
  3
ObjectDBX Classes
 90
     1025
280
     0
281
     0
  0
CLASS
  1
ACDBASSOCGEOMDEPENDENCY
  2
AcDbAssocGeomDependency
  3
ObjectDBX Classes
 90
     1025
280
     0
281
     0
  0
CLASS
  1
ACMSTANDARDANSI
  2
AcmStandardANSI
  3
"Amdt_StdImp|Product Description: AutoCAD Mechanical|Company: Autodesk, Inc."
 90
    33792
280
     0
281
     0
  0
CLASS
  1
ACMSURFSTANDARDANSI
  2
AcmSurfTextStdANSI
  3
"Amdt_StdImp|Product Description: AutoCAD Mechanical|Company: Autodesk, Inc."
 90
    33792
280
     0
281
     0
  0
CLASS
  1
ACMFCFSTANDARDANSI
  2
AcmFCFStdANSI
  3
"Amdt_StdImp|Product Description: AutoCAD Mechanical|Company: Autodesk, Inc."
 90
    33792
280
     0
281
     0
  0
CLASS
  1
ACMWELDSTANDARDANSI
  2
AcmWeldingStdANSI
  3
"Amdt_StdImp|Product Description: AutoCAD Mechanical|Company: Autodesk, Inc."
 90
    33792
280
     0
281
     0
  0
CLASS
  1
ACMIDSTANDARDANSI
  2
AcmIdStdANSI
  3
"Amdt_StdImp|Product Description: AutoCAD Mechanical|Company: Autodesk, Inc."
 90
    33792
280
     0
281
     0
  0
CLASS
  1
ACMDATUMSTANDARDANSI
  2
AcmDatumStdANSI
  3
"Amdt_StdImp|Product Description: AutoCAD Mechanical|Company: Autodesk, Inc."
 90
    33792
280
     0
281
     0
  0
CLASS
  1
ACMBOMSTANDARDANSI
  2
AcmBOMStdANSI
  3
"Amdt_StdImp|Product Description: AutoCAD Mechanical|Company: Autodesk, Inc."
 90
    33792
280
     0
281
     0
  0
CLASS
  1
ACMDETAILSTANDARDANSI
  2
AmdtDetailSymStdANSI
  3
"Amdt_StdImp|Product Description: AutoCAD Mechanical|Company: Autodesk, Inc."
 90
    33792
280
     0
281
     0
  0
CLASS
  1
ACMSECTIONSTANDARDANSI
  2
AmdtSectionSymStdANSI
  3
"Amdt_StdImp|Product Description: AutoCAD Mechanical|Company: Autodesk, Inc."
 90
    33792
280
     0
281
     0
  0
CLASS
  1
ACMCENTERLINESTANDARDANSI
  2
AmdtCenterLineStdANSI
  3
"Amdt_StdImp|Product Description: AutoCAD Mechanical|Company: Autodesk, Inc."
 90
    33792
280
     0
281
     0
  0
CLASS
  1
ACMTHREADLINESTANDARDANSI
  2
AmdtThreadLineStdANSI
  3
"Amdt_StdImp|Product Description: AutoCAD Mechanical|Company: Autodesk, Inc."
 90
    33792
280
     0
281
     0
  0
CLASS
  1
ACMNOTESTANDARDANSI
  2
AmdtNoteStdANSI
  3
"Amdt_StdImp|Product Description: AutoCAD Mechanical|Company: Autodesk, Inc."
 90
    33792
280
     0
281
     0
  0
CLASS
  1
AMDTNOTETEMPLATEDB
  2
AmdtNoteTemplateDB
  3
AcmSymBB|Product Description: AutoCAD Mechanical|Company: Autodesk, Inc.
 90
     1024
280
     0
281
     0
  0
CLASS
  1
ACMTAPERSTANDARDANSI
  2
AcmTaperStdANSI
  3
"Amdt_StdImp|Product Description: AutoCAD Mechanical|Company: Autodesk, Inc."
 90
    33792
280
     0
281
     0
  0
CLASS
  1
ACMANOOTATIONVIEWSTANDARDANSI
  2
AmdtAnViewStdANSI
  3
"Amdt_StdImp|Product Description: AutoCAD Mechanical|Company: Autodesk, Inc."
 90
    33792
280
     0
281
     0
  0
CLASS
  1
ACAMGHOLECHARTSTDANSI
  2
AcAmgHoleChartStdANSI
  3
AmgDim|Product Description: AutoCAD Mechanical|Company: Autodesk, Inc.
 90
    33792
280
     0
281
     0
  0
CLASS
  1
AMDTEDGESTANDARDDIN13715
  2
AmdtEdgeStdDIN13715
  3
"Amdt_StdImp|Product Description: AutoCAD Mechanical|Company: Autodesk, Inc."
 90
     1024
280
     0
281
     0
  0
CLASS
  1
ACMSURFSTANDARDDIN2002
  2
AcmSurfTextStdDIN2002
  3
"Amdt_StdImp|Product Description: AutoCAD Mechanical|Company: Autodesk, Inc."
 90
     1024
280
     0
281
     0
  0
CLASS
  1
ACMFCFSTANDARDDIN2008
  2
AcmFCFStdDIN2008
  3
"Amdt_StdImp|Product Description: AutoCAD Mechanical|Company: Autodesk, Inc."
 90
     1024
280
     0
281
     0
  0
CLASS
  1
ACMIDSTANDARDDIN2008
  2
AcmIdStdDIN2008
  3
"Amdt_StdImp|Product Description: AutoCAD Mechanical|Company: Autodesk, Inc."
 90
     1024
280
     0
281
     0
  0
CLASS
  1
ACDBSECTIONVIEWSTYLE
  2
AcDbSectionViewStyle
  3
ObjectDBX Classes
 90
     1025
280
     0
281
     0
  0
CLASS
  1
ACDBDETAILVIEWSTYLE
  2
AcDbDetailViewStyle
  3
ObjectDBX Classes
 90
     1025
280
     0
281
     0
  0
CLASS
  1
ACMSECTIONSTANDARDCUSTOM
  2
AmdtSectionSymStdCustom
  3
"Amdt_StdImp|Product Description: AutoCAD Mechanical|Company: Autodesk, Inc."
 90
     1024
280
     0
281
     0
  0
CLASS
  1
ACMDETAILTANDARDCUSTOM
  2
AmdtDetailSymStdCustom
  3
"Amdt_StdImp|Product Description: AutoCAD Mechanical|Company: Autodesk, Inc."
 90
     1024
280
     0
281
     0
  0
CLASS
  1
FIELD
  2
AcDbField
  3
ObjectDBX Classes
 90
     1152
280
     0
281
     0
  0
CLASS
  1
FIELDLIST
  2
AcDbFieldList
  3
ObjectDBX Classes
 90
     1152
280
     0
281
     0
  0
CLASS
  1
ACDBPLACEHOLDER
  2
AcDbPlaceHolder
  3
ObjectDBX Classes
 90
        0
280
     0
281
     0
  0
CLASS
  1
LAYOUT
  2
AcDbLayout
  3
ObjectDBX Classes
 90
        0
280
     0
281
     0
  0
ENDSEC
  0
SECTION
  2
TABLES
  0
TABLE
  2
VPORT
  5
2B
330
0
100
AcDbSymbolTable
 70
     1
  0
VPORT
  5
2C
330
2B
100
AcDbSymbolTableRecord
100
AcDbViewportTableRecord
  2
*Active
 70
     0
 10
0.0
 20
0.0
 11
1.0
 21
1.0
 12
167.4927029261639
 22
505.6881180255786
 13
0.0
 23
0.0
 14
2.5
 24
2.5
 15
10.0
 25
10.0
 16
0.0
 26
0.0
 36
1.0
 17
0.0
 27
0.0
 37
0.0
 40
574.6331031207784
 41
2.033022861981371
 42
50.0
 43
0.0
 44
0.0
 50
0.0
 51
0.0
 71
     0
 72
  5000
 73
     1
 74
     1
 75
     0
 76
     0
 77
     0
 78
     0
281
     0
 65
     0
110
0.0
120
0.0
130
0.0
111
1.0
121
0.0
131
0.0
112
0.0
122
1.0
132
0.0
 79
     0
146
0.0
1001
ACAD_NAV_VCDISPLAY
1070
     3
  0
ENDTAB
  0
TABLE
  2
LTYPE
  5
26
330
0
100
AcDbSymbolTable
 70
    13
  0
LTYPE
  5
27
330
26
100
AcDbSymbolTableRecord
100
AcDbLinetypeTableRecord
  2
BYBLOCK
 70
     0
  3

 72
    65
 73
     0
 40
0.0
  0
LTYPE
  5
28
330
26
100
AcDbSymbolTableRecord
100
AcDbLinetypeTableRecord
  2
BYLAYER
 70
     0
  3

 72
    65
 73
     0
 40
0.0
  0
LTYPE
  5
16
330
26
100
AcDbSymbolTableRecord
100
AcDbLinetypeTableRecord
  2
CONTINUOUS
 70
     0
  3
Solid line
 72
    65
 73
     0
 40
0.0
  0
LTYPE
  5
98
330
26
100
AcDbSymbolTableRecord
100
AcDbLinetypeTableRecord
  2
STRICHPUNKT
 70
     0
  3
Strichpunkt __ . __ . __ . __ . __ . __ . __ . 
 72
    65
 73
     4
 40
25.4
 49
12.7
 74
     0
 49
-6.349999999999998
 74
     0
 49
0.0
 74
     0
 49
-6.349999999999998
 74
     0
  0
LTYPE
  5
17B
330
26
100
AcDbSymbolTableRecord
100
AcDbLinetypeTableRecord
  2
VERDECKT
 70
     0
  3
Verdeckt __ __ __ __ __ __ __ __ __ __ __ __ __
 72
    65
 73
     2
 40
9.524999999999996
 49
6.349999999999998
 74
     0
 49
-3.174999999999998
 74
     0
  0
LTYPE
  5
236
330
26
100
AcDbSymbolTableRecord
100
AcDbLinetypeTableRecord
  2
Amconstr
 70
     0
  3
_______________________
 72
    65
 73
     2
 40
9999.0
 49
9999.0
 74
     0
 49
0.0
 74
     0
  0
LTYPE
  5
239
330
26
100
AcDbSymbolTableRecord
100
AcDbLinetypeTableRecord
  2
Amzigzag
 70
     0
  3
/\/-/\/-/\/-/\/-/\/-/\/
 72
    65
 73
     2
 40
11.0001
 49
0.0001
 74
     4
 75
   135
340
23A
 46
0.04
 50
0.0
 44
0.0
 45
0.0
 49
-11.0
 74
     0
  0
LTYPE
  5
233
330
26
100
AcDbSymbolTableRecord
100
AcDbLinetypeTableRecord
  2
AM_DIN_F_W050
 70
     0
  3
__ __ __ __ __ __ __ __ __ __ __ __ __ __ __
 72
    65
 73
     2
 40
6.25
 49
4.75
 74
     0
 49
-1.5
 74
     0
  0
LTYPE
  5
234
330
26
100
AcDbSymbolTableRecord
100
AcDbLinetypeTableRecord
  2
AM_DIN_G_W050
 70
     0
  3
____ . ____ . ____ . ____ . ____ . ____ . ____
 72
    65
 73
     4
 40
13.75
 49
9.75
 74
     0
 49
-1.5
 74
     0
 49
1.0
 74
     0
 49
-1.5
 74
     0
  0
LTYPE
  5
235
330
26
100
AcDbSymbolTableRecord
100
AcDbLinetypeTableRecord
  2
AM_DIN_K_W050
 70
     0
  3
_____ . . _____ . . _____ . . ____ .. ____
 72
    65
 73
     6
 40
16.25
 49
9.75
 74
     0
 49
-1.5
 74
     0
 49
1.0
 74
     0
 49
-1.5
 74
     0
 49
1.0
 74
     0
 49
-1.5
 74
     0
  0
LTYPE
  5
237
330
26
100
AcDbSymbolTableRecord
100
AcDbLinetypeTableRecord
  2
AM_DIN_G_W050x2
 70
     0
  3
__ . __ . __ . __ . __ . __
 72
    65
 73
     4
 40
6.875
 49
4.75
 74
     0
 49
-0.875
 74
     0
 49
0.375
 74
     0
 49
-0.875
 74
     0
  0
LTYPE
  5
238
330
26
100
AcDbSymbolTableRecord
100
AcDbLinetypeTableRecord
  2
AM_DIN_F_W050x2
 70
     0
  3
 _ _ _ _ _ _ _ _ _ _ _ _
 72
    65
 73
     2
 40
3.125
 49
2.25
 74
     0
 49
-0.875
 74
     0
  0
LTYPE
  5
249
330
26
100
AcDbSymbolTableRecord
100
AcDbLinetypeTableRecord
  2
ACDINWELD
 70
     0
  3
_ _ _ _ _
 72
    65
 73
     2
 40
2.0
 49
2.0
 74
     0
 49
-1.0
 74
     0
  0
LTYPE
  5
24D
330
26
100
AcDbSymbolTableRecord
100
AcDbLinetypeTableRecord
  2
ACDINTGB
 70
     0
  3
__ . . __ . .
 72
    65
 73
     6
 40
9.0
 49
4.0
 74
     0
 49
-1.0
 74
     0
 49
1.0
 74
     0
 49
-1.0
 74
     0
 49
1.0
 74
     0
 49
-1.0
 74
     0
  0
LTYPE
  5
24B
330
26
100
AcDbSymbolTableRecord
100
AcDbLinetypeTableRecord
  2
ACDINTGL
 70
     0
  3
_ _ _ _ _
 72
    65
 73
     2
 40
3.0
 49
2.0
 74
     0
 49
-1.0
 74
     0
  0
ENDTAB
  0
TABLE
  2
LAYER
  5
1F
102
{ACAD_XDICTIONARY
360
20
102
}
330
0
100
AcDbSymbolTable
 70
     7
  0
LAYER
  5
7
102
{ACAD_XDICTIONARY
360
8
102
}
330
1F
100
AcDbSymbolTableRecord
100
AcDbLayerTableRecord
  2
0
 70
     0
 62
     7
  6
CONTINUOUS
370
    -3
390
A
  0
LAYER
  5
14D
102
{ACAD_XDICTIONARY
360
14E
102
}
330
1F
100
AcDbSymbolTableRecord
100
AcDbLayerTableRecord
  2
UMRISS05
 70
     0
 62
     4
  6
CONTINUOUS
370
    -3
390
A
  0
LAYER
  5
69
102
{ACAD_XDICTIONARY
360
6A
102
}
330
1F
100
AcDbSymbolTableRecord
100
AcDbLayerTableRecord
  2
BEMASSUNG
 70
     0
 62
     2
  6
CONTINUOUS
370
    -3
390
A
  0
LAYER
  5
95
102
{ACAD_XDICTIONARY
360
96
102
}
330
1F
100
AcDbSymbolTableRecord
100
AcDbLayerTableRecord
  2
ACHSEN
 70
     0
 62
     1
  6
STRICHPUNKT
370
    -3
390
A
  0
LAYER
  5
178
102
{ACAD_XDICTIONARY
360
179
102
}
330
1F
100
AcDbSymbolTableRecord
100
AcDbLayerTableRecord
  2
AVERDECKTE
 70
     0
 62
    13
  6
VERDECKT
370
    -3
390
A
  0
LAYER
  5
77
330
1F
100
AcDbSymbolTableRecord
100
AcDbLayerTableRecord
  2
DEFPOINTS
 70
     0
 62
     7
  6
CONTINUOUS
290
     0
370
    -3
390
A
  0
LAYER
  5
20D
330
1F
100
AcDbSymbolTableRecord
100
AcDbLayerTableRecord
  2
Sichtbare Kanten(MSL)
 70
     0
 62
     7
  6
CONTINUOUS
370
    50
390
A
  0
ENDTAB
  0
TABLE
  2
STYLE
  5
23
330
0
100
AcDbSymbolTable
 70
     5
  0
STYLE
  5
24
330
23
100
AcDbSymbolTableRecord
100
AcDbTextStyleTableRecord
  2
STANDARD
 70
     0
 40
0.0
 41
1.0
 50
0.0
 71
     0
 42
3.5
  3
ISOCP.SHX
  4

  0
STYLE
  5
34
330
23
100
AcDbSymbolTableRecord
100
AcDbTextStyleTableRecord
  2
ARIAL-STANDARD
 70
     0
 40
0.0
 41
1.0
 50
0.0
 71
     0
 42
3.5
  3
arial.ttf
  4

1001
ACAD
1000
Arial
1071
       34
  0
STYLE
  5
51
330
23
100
AcDbSymbolTableRecord
100
AcDbTextStyleTableRecord
  2
NORM
 70
     0
 40
0.0
 41
1.0
 50
0.0
 71
     0
 42
2.399999999999999
  3
simplex.shx
  4

  0
STYLE
  5
23A
330
23
100
AcDbSymbolTableRecord
100
AcDbTextStyleTableRecord
  2

 70
     1
 40
0.0
 41
1.0
 50
0.0
 71
     0
 42
2.5
  3
ltypeshp.shx
  4

  0
STYLE
  5
247
330
23
100
AcDbSymbolTableRecord
100
AcDbTextStyleTableRecord
  2
ACDINGDT
 70
     0
 40
0.0
 41
1.0
 50
0.0
 71
     0
 42
3.5
  3
amgdt.shx
  4

  0
ENDTAB
  0
TABLE
  2
VIEW
  5
29
330
0
100
AcDbSymbolTable
 70
     0
  0
ENDTAB
  0
TABLE
  2
UCS
  5
2A
330
0
100
AcDbSymbolTable
 70
     0
  0
ENDTAB
  0
TABLE
  2
APPID
  5
30
330
0
100
AcDbSymbolTable
 70
    12
  0
APPID
  5
31
330
30
100
AcDbSymbolTableRecord
100
AcDbRegAppTableRecord
  2
ACAD
 70
     0
  0
APPID
  5
2F
330
30
100
AcDbSymbolTableRecord
100
AcDbRegAppTableRecord
  2
ACAD_NAV_VCDISPLAY
 70
     0
  0
APPID
  5
37
330
30
100
AcDbSymbolTableRecord
100
AcDbRegAppTableRecord
  2
ACAD_DSTYLE_DIMJAG
 70
     0
  0
APPID
  5
36
330
30
100
AcDbSymbolTableRecord
100
AcDbRegAppTableRecord
  2
ACAD_DSTYLE_DIMBREAK
 70
     0
  0
APPID
  5
38
330
30
100
AcDbSymbolTableRecord
100
AcDbRegAppTableRecord
  2
ACAD_DSTYLE_DIMTALN
 70
     0
  0
APPID
  5
7B
330
30
100
AcDbSymbolTableRecord
100
AcDbRegAppTableRecord
  2
ACAD_DSTYLE_DIMINSPECT
 70
     0
  0
APPID
  5
86
330
30
100
AcDbSymbolTableRecord
100
AcDbRegAppTableRecord
  2
ACAD_DSTYLE_DIMRADIAL_EXTENSION
 70
     0
  0
APPID
  5
2A6
330
30
100
AcDbSymbolTableRecord
100
AcDbRegAppTableRecord
  2
ACATTRIBSERVICES
 70
     0
  0
APPID
  5
2D2
330
30
100
AcDbSymbolTableRecord
100
AcDbRegAppTableRecord
  2
ACAD_DSTYLE_DIMJOGGED_JOGANGLE_SYMBOL
 70
     0
  0
APPID
  5
2D3
330
30
100
AcDbSymbolTableRecord
100
AcDbRegAppTableRecord
  2
ACAD_DSTYLE_DIM_LINETYPE
 70
     0
  0
APPID
  5
2D4
330
30
100
AcDbSymbolTableRecord
100
AcDbRegAppTableRecord
  2
ACAD_DSTYLE_DIM_EXT1_LINETYPE
 70
     0
  0
APPID
  5
2D5
330
30
100
AcDbSymbolTableRecord
100
AcDbRegAppTableRecord
  2
ACAD_DSTYLE_DIM_EXT2_LINETYPE
 70
     0
  0
ENDTAB
  0
TABLE
  2
DIMSTYLE
  5
32
330
0
100
AcDbSymbolTable
 70
    10
100
AcDbDimStyleTable
 71
     2
340
33
340
35
  0
DIMSTYLE
105
33
330
32
100
AcDbSymbolTableRecord
100
AcDbDimStyleTableRecord
  2
NORMAL
 70
     0
 41
3.5
 42
0.0
 43
8.0
 44
0.5
 73
     0
 74
     0
 77
     1
 78
     8
140
3.5
141
1.5
146
0.5
147
1.0
172
     1
174
     1
176
   256
177
   256
178
     3
271
     2
272
     2
284
     8
340
34
  0
DIMSTYLE
105
277
102
{ACAD_REACTORS
330
243
102
}
330
32
100
AcDbSymbolTableRecord
100
AcDbDimStyleTableRecord
  2
AM_DIN
 70
     0
  4
"
 41
2.5
 42
1.0
 43
10.0
 44
1.0
 47
0.1
 48
0.1
 73
     0
 74
     0
 77
     1
 78
     8
 79
     2
140
3.5
141
0.0
143
0.0393701
146
0.71
147
1.5
172
     1
176
   256
177
   256
178
     2
271
     2
272
     3
274
     4
283
     0
284
     8
340
24
371
    -1
372
    -1
  0
DIMSTYLE
105
279
330
32
100
AcDbSymbolTableRecord
100
AcDbDimStyleTableRecord
  2
AM_DIN$3
 70
     0
  4
"
 41
2.5
 42
1.0
 43
10.0
 44
1.0
 47
0.1
 48
0.1
 73
     0
 77
     1
 78
     8
 79
     2
140
3.5
141
0.0
143
0.0393701
146
0.71
147
1.5
176
   256
177
   256
178
     2
271
     2
272
     3
274
     4
283
     0
284
     8
288
     1
289
     0
340
24
371
    -1
372
    -1
  0
DIMSTYLE
105
27A
330
32
100
AcDbSymbolTableRecord
100
AcDbDimStyleTableRecord
  2
AM_DIN$4
 70
     0
  4
"
 41
2.5
 42
1.0
 43
10.0
 44
1.0
 47
0.1
 48
0.1
 73
     0
 77
     1
 78
     8
 79
     2
140
3.5
141
0.0
143
0.0393701
146
0.71
147
1.5
176
   256
177
   256
178
     2
271
     2
272
     3
274
     4
283
     0
284
     8
288
     1
289
     0
340
24
371
    -1
372
    -1
  0
DIMSTYLE
105
27B
330
32
100
AcDbSymbolTableRecord
100
AcDbDimStyleTableRecord
  2
AM_DIN$6
 70
     0
  4
"
 41
2.5
 42
1.0
 43
10.0
 44
1.0
 47
0.1
 48
0.1
 73
     0
 74
     0
 78
     8
 79
     2
140
3.5
141
0.0
143
0.0393701
146
0.71
147
1.5
172
     1
176
   256
177
   256
178
     2
271
     2
272
     3
274
     4
283
     0
284
     8
340
24
371
    -1
372
    -1
  0
DIMSTYLE
105
27C
330
32
100
AcDbSymbolTableRecord
100
AcDbDimStyleTableRecord
  2
AM_DIN$7
 70
     0
  4
"
 41
2.5
 42
1.0
 43
10.0
 44
1.0
 47
0.1
 48
0.1
 73
     0
 74
     0
 77
     1
 78
     8
 79
     2
140
5.0
141
0.0
143
0.0393701
146
0.71
147
1.5
172
     1
176
   256
177
   256
178
     2
271
     2
272
     3
274
     4
283
     0
284
     8
340
24
371
    -1
372
    -1
  0
DIMSTYLE
105
27D
330
32
100
AcDbSymbolTableRecord
100
AcDbDimStyleTableRecord
  2
AM_DIN$SF
 70
     0
  4
"
 41
2.5
 42
1.0
 43
10.0
 44
1.0
 47
0.1
 48
0.1
 73
     0
 74
     0
 75
     1
 76
     1
 77
     1
 78
     8
 79
     2
140
3.5
141
0.0
143
0.0393701
146
0.71
147
1.5
172
     1
176
   256
177
   256
178
     2
271
     2
272
     3
274
     4
283
     0
284
     8
340
24
371
    -1
372
    -1
  0
DIMSTYLE
105
27E
330
32
100
AcDbSymbolTableRecord
100
AcDbDimStyleTableRecord
  2
AM_DIN$SH
 70
     0
  4
"
 41
2.5
 42
1.0
 43
10.0
 44
1.0
 47
0.1
 48
0.1
 73
     0
 74
     0
 75
     1
 76
     1
 77
     1
 78
     8
 79
     2
140
3.5
141
0.0
143
0.0393701
144
2.0
146
0.71
147
1.5
172
     1
173
     1
176
   256
177
   256
178
     2
271
     2
272
     3
274
     4
283
     0
284
     8
340
24
343
27F
371
    -1
372
    -1
  0
DIMSTYLE
105
35
102
{ACAD_REACTORS
330
FF
330
E1
330
EE
330
13F
330
AB
330
16A
330
15D
330
10C
330
1C5
330
B9
330
9E
330
C6
330
D4
330
119
330
126
330
1D2
330
87
330
150
330
7C
330
68
102
}
330
32
100
AcDbSymbolTableRecord
100
AcDbDimStyleTableRecord
  2
Katalog 09
 70
     0
 41
4.0
 42
0.0
 43
8.0
 44
1.0
 73
     0
 74
     0
 77
     1
 78
     8
140
4.349999999999998
141
1.5
143
25.39999999999999
146
0.4285714285714287
147
1.0
172
     1
174
     1
176
     2
177
     2
178
     3
271
     2
272
     2
279
     2
284
     8
285
     8
286
     8
340
34
1001
ACAD_DSTYLE_DIMBREAK
1070
   391
1040
3.75
1001
ACAD_DSTYLE_DIMJAG
1070
   388
1040
1.5
1001
ACAD_DSTYLE_DIMTALN
1070
   392
1070
     0
  0
DIMSTYLE
105
278
330
32
100
AcDbSymbolTableRecord
100
AcDbDimStyleTableRecord
  2
AM_DIN$0
 70
     0
  4
"
 41
3.5
 42
1.0
 43
10.0
 44
1.0
 47
0.1
 48
0.1
 73
     0
 74
     0
 77
     1
 78
     8
 79
     2
140
3.5
141
0.0
143
0.0393701
146
0.71
147
1.5
172
     1
176
   256
177
   256
178
     2
271
     2
272
     3
274
     4
283
     0
284
     8
340
24
371
    -1
372
    -1
1001
ACAD_DSTYLE_DIMJOGGED_JOGANGLE_SYMBOL
1070
   384
1040
1.570796326794896
1001
ACAD_DSTYLE_DIM_LINETYPE
1070
   380
1005
27
1001
ACAD_DSTYLE_DIM_EXT1_LINETYPE
1070
   381
1005
27
1001
ACAD_DSTYLE_DIM_EXT2_LINETYPE
1070
   382
1005
27
  0
ENDTAB
  0
TABLE
  2
BLOCK_RECORD
  5
1
330
0
100
AcDbSymbolTable
 70
    23
  0
BLOCK_RECORD
  5
2
102
{ACAD_XDICTIONARY
360
3
102
}
330
1
100
AcDbSymbolTableRecord
100
AcDbBlockTableRecord
  2
*MODEL_SPACE
340
18
  0
BLOCK_RECORD
  5
1B
330
1
100
AcDbSymbolTableRecord
100
AcDbBlockTableRecord
  2
*PAPER_SPACE
340
1E
  0
BLOCK_RECORD
  5
27F
330
1
100
AcDbSymbolTableRecord
100
AcDbBlockTableRecord
  2
GENAXEH
340
0
  0
BLOCK_RECORD
  5
1D3
330
1
100
AcDbSymbolTableRecord
100
AcDbBlockTableRecord
  2
*D1
340
0
  0
BLOCK_RECORD
  5
1C6
330
1
100
AcDbSymbolTableRecord
100
AcDbBlockTableRecord
  2
*D2
340
0
  0
BLOCK_RECORD
  5
16B
330
1
100
AcDbSymbolTableRecord
100
AcDbBlockTableRecord
  2
*D3
340
0
  0
BLOCK_RECORD
  5
15E
330
1
100
AcDbSymbolTableRecord
100
AcDbBlockTableRecord
  2
*D4
340
0
  0
BLOCK_RECORD
  5
151
330
1
100
AcDbSymbolTableRecord
100
AcDbBlockTableRecord
  2
*D5
340
0
  0
BLOCK_RECORD
  5
140
330
1
100
AcDbSymbolTableRecord
100
AcDbBlockTableRecord
  2
*D6
340
0
  0
BLOCK_RECORD
  5
127
330
1
100
AcDbSymbolTableRecord
100
AcDbBlockTableRecord
  2
*D7
340
0
  0
BLOCK_RECORD
  5
11A
330
1
100
AcDbSymbolTableRecord
100
AcDbBlockTableRecord
  2
*D8
340
0
  0
BLOCK_RECORD
  5
10D
330
1
100
AcDbSymbolTableRecord
100
AcDbBlockTableRecord
  2
*D9
340
0
  0
BLOCK_RECORD
  5
100
330
1
100
AcDbSymbolTableRecord
100
AcDbBlockTableRecord
  2
*D10
340
0
  0
BLOCK_RECORD
  5
EF
330
1
100
AcDbSymbolTableRecord
100
AcDbBlockTableRecord
  2
*D11
340
0
  0
BLOCK_RECORD
  5
E2
330
1
100
AcDbSymbolTableRecord
100
AcDbBlockTableRecord
  2
*D12
340
0
  0
BLOCK_RECORD
  5
D5
330
1
100
AcDbSymbolTableRecord
100
AcDbBlockTableRecord
  2
*D13
340
0
  0
BLOCK_RECORD
  5
C7
330
1
100
AcDbSymbolTableRecord
100
AcDbBlockTableRecord
  2
*D14
340
0
  0
BLOCK_RECORD
  5
BA
330
1
100
AcDbSymbolTableRecord
100
AcDbBlockTableRecord
  2
*D15
340
0
  0
BLOCK_RECORD
  5
AC
330
1
100
AcDbSymbolTableRecord
100
AcDbBlockTableRecord
  2
*D16
340
0
  0
BLOCK_RECORD
  5
9F
330
1
100
AcDbSymbolTableRecord
100
AcDbBlockTableRecord
  2
*D17
340
0
  0
BLOCK_RECORD
  5
88
330
1
100
AcDbSymbolTableRecord
100
AcDbBlockTableRecord
  2
*D18
340
0
  0
BLOCK_RECORD
  5
7D
330
1
100
AcDbSymbolTableRecord
100
AcDbBlockTableRecord
  2
*D19
340
0
  0
BLOCK_RECORD
  5
6C
330
1
100
AcDbSymbolTableRecord
100
AcDbBlockTableRecord
  2
*D20
340
0
  0
BLOCK_RECORD
  5
262
330
1
100
AcDbSymbolTableRecord
100
AcDbBlockTableRecord
  2
_ACMFILLED30
340
0
  0
ENDTAB
  0
ENDSEC
  0
SECTION
  2
BLOCKS
  0
BLOCK
  5
6
330
2
100
AcDbEntity
  8
0
100
AcDbBlockBegin
  2
*MODEL_SPACE
 70
     0
 10
0.0
 20
0.0
 30
0.0
  3
*MODEL_SPACE
  1

  0
ENDBLK
  5
17
330
2
100
AcDbEntity
  8
0
100
AcDbBlockEnd
  0
BLOCK
  5
1C
330
1B
100
AcDbEntity
 67
     1
  8
0
100
AcDbBlockBegin
  2
*PAPER_SPACE
 70
     0
 10
0.0
 20
0.0
 30
0.0
  3
*PAPER_SPACE
  1

  0
ENDBLK
  5
1D
330
1B
100
AcDbEntity
 67
     1
  8
0
100
AcDbBlockEnd
  0
BLOCK
  5
280
330
27F
100
AcDbEntity
  8
0
100
AcDbBlockBegin
  2
GENAXEH
 70
     0
 10
0.0
 20
0.0
 30
0.0
  3
GENAXEH
  1

  0
LINE
  5
281
330
27F
100
AcDbEntity
  8
0
100
AcDbLine
 10
-1.0
 20
0.0
 30
0.0
 11
1.0
 21
0.0
 31
0.0
  0
ENDBLK
  5
282
330
27F
100
AcDbEntity
  8
0
100
AcDbBlockEnd
  0
BLOCK
  5
1D4
330
1D3
100
AcDbEntity
  8
0
100
AcDbBlockBegin
  2
*D1
 70
     1
 10
0.0
 20
0.0
 30
0.0
  3
*D1
  1

  0
LINE
  5
1D5
330
1D3
100
AcDbEntity
  8
BEMASSUNG
  6
Continuous
 62
     2
370
    -2
100
AcDbLine
 10
86.76794149596977
 20
586.2633898150712
 30
0.0
 11
105.6374356911048
 21
586.2633898150712
 31
0.0
  0
LINE
  5
1D6
330
1D3
100
AcDbEntity
  8
BEMASSUNG
  6
Continuous
 62
     2
370
    -2
100
AcDbLine
 10
86.76794149596977
 20
542.2633898150714
 30
0.0
 11
105.6374356911048
 21
542.2633898150714
 31
0.0
  0
LINE
  5
1D7
330
1D3
100
AcDbEntity
  8
BEMASSUNG
  6
Continuous
 62
     2
370
    -2
100
AcDbLine
 10
104.6374356911048
 20
582.2633898150712
 30
0.0
 11
104.6374356911048
 21
546.2633898150714
 31
0.0
  0
MTEXT
  5
1D8
330
1D3
100
AcDbEntity
  8
BEMASSUNG
  6
Continuous
 62
     3
100
AcDbMText
 10
101.0829905386496
 20
564.2633898150712
 30
0.0
 40
4.349999999999998
 41
0.0
 71
     5
 72
     1
  1
\A1;44
  7
ARIAL-STANDARD
 11
0.0000000000000001
 21
1.0
 31
0.0
 73
     1
 44
1.0
1001
ACAD
1000
MTEXTBEGIN
1070
    73
1070
     1
1070
    44
1040
1.0
1070
    74
1070
     0
1000
MTEXTEND
  0
SOLID
  5
1D9
330
1D3
100
AcDbEntity
  8
BEMASSUNG
  6
Continuous
 62
     2
100
AcDbTrace
 10
103.9707690244382
 20
582.2633898150712
 30
0.0
 11
105.3041023577715
 21
582.2633898150712
 31
0.0
 12
104.6374356911048
 22
586.2633898150712
 32
0.0
 13
104.6374356911048
 23
586.2633898150712
 33
0.0
  0
SOLID
  5
1DA
330
1D3
100
AcDbEntity
  8
BEMASSUNG
  6
Continuous
 62
     2
100
AcDbTrace
 10
103.9707690244382
 20
546.2633898150714
 30
0.0
 11
105.3041023577715
 21
546.2633898150714
 31
0.0
 12
104.6374356911048
 22
542.2633898150714
 32
0.0
 13
104.6374356911048
 23
542.2633898150714
 33
0.0
  0
POINT
  5
1DB
330
1D3
100
AcDbEntity
  8
DEFPOINTS
  6
Continuous
 62
     0
100
AcDbPoint
 10
86.76794149596977
 20
586.2633898150712
 30
0.0
  0
POINT
  5
1DC
330
1D3
100
AcDbEntity
  8
DEFPOINTS
  6
Continuous
 62
     0
100
AcDbPoint
 10
86.76794149596977
 20
542.2633898150714
 30
0.0
  0
POINT
  5
1DD
330
1D3
100
AcDbEntity
  8
DEFPOINTS
  6
Continuous
 62
     0
100
AcDbPoint
 10
104.6374356911048
 20
542.2633898150714
 30
0.0
  0
ENDBLK
  5
1DE
330
1D3
100
AcDbEntity
  8
0
100
AcDbBlockEnd
  0
BLOCK
  5
1C7
330
1C6
100
AcDbEntity
  8
0
100
AcDbBlockBegin
  2
*D2
 70
     1
 10
0.0
 20
0.0
 30
0.0
  3
*D2
  1

  0
LINE
  5
1C8
330
1C6
100
AcDbEntity
  8
BEMASSUNG
  6
Continuous
 62
     2
370
    -2
100
AcDbLine
 10
75.68215505834266
 20
652.2633898150712
 30
0.0
 11
45.38680523723765
 21
652.2633898150712
 31
0.0
  0
LINE
  5
1C9
330
1C6
100
AcDbEntity
  8
BEMASSUNG
  6
Continuous
 62
     2
370
    -2
100
AcDbLine
 10
75.68215505834276
 20
398.2633898150714
 30
0.0
 11
45.3868052372376
 21
398.2633898150714
 31
0.0
  0
LINE
  5
1CA
330
1C6
100
AcDbEntity
  8
BEMASSUNG
  6
Continuous
 62
     2
370
    -2
100
AcDbLine
 10
46.38680523723765
 20
648.2633898150712
 30
0.0
 11
46.3868052372376
 21
402.2633898150713
 31
0.0
  0
MTEXT
  5
1CB
330
1C6
100
AcDbEntity
  8
BEMASSUNG
  6
Continuous
 62
     3
100
AcDbMText
 10
41.65743864196102
 20
526.8341829364072
 30
0.0
 40
4.349999999999998
 41
0.0
 71
     5
 72
     1
  1
\A1;254
  7
ARIAL-STANDARD
 11
0.0000000000000001
 21
1.0
 31
0.0
 73
     1
 44
1.0
1001
ACAD
1000
MTEXTBEGIN
1070
    73
1070
     1
1070
    44
1040
1.0
1070
    74
1070
     0
1000
MTEXTEND
  0
SOLID
  5
1CC
330
1C6
100
AcDbEntity
  8
BEMASSUNG
  6
Continuous
 62
     2
100
AcDbTrace
 10
45.720138570571
 20
648.2633898150712
 30
0.0
 11
47.05347190390432
 21
648.2633898150712
 31
0.0
 12
46.38680523723765
 22
652.2633898150712
 32
0.0
 13
46.38680523723765
 23
652.2633898150712
 33
0.0
  0
SOLID
  5
1CD
330
1C6
100
AcDbEntity
  8
BEMASSUNG
  6
Continuous
 62
     2
100
AcDbTrace
 10
45.72013857057093
 20
402.2633898150713
 30
0.0
 11
47.05347190390427
 21
402.2633898150713
 31
0.0
 12
46.3868052372376
 22
398.2633898150714
 32
0.0
 13
46.3868052372376
 23
398.2633898150714
 33
0.0
  0
POINT
  5
1CE
330
1C6
100
AcDbEntity
  8
DEFPOINTS
  6
Continuous
 62
     0
100
AcDbPoint
 10
75.68215505834266
 20
652.2633898150712
 30
0.0
  0
POINT
  5
1CF
330
1C6
100
AcDbEntity
  8
DEFPOINTS
  6
Continuous
 62
     0
100
AcDbPoint
 10
75.68215505834276
 20
398.2633898150714
 30
0.0
  0
POINT
  5
1D0
330
1C6
100
AcDbEntity
  8
DEFPOINTS
  6
Continuous
 62
     0
100
AcDbPoint
 10
46.3868052372376
 20
398.2633898150714
 30
0.0
  0
ENDBLK
  5
1D1
330
1C6
100
AcDbEntity
  8
0
100
AcDbBlockEnd
  0
BLOCK
  5
16C
330
16B
100
AcDbEntity
  8
0
100
AcDbBlockBegin
  2
*D3
 70
     1
 10
0.0
 20
0.0
 30
0.0
  3
*D3
  1

  0
LINE
  5
16D
330
16B
100
AcDbEntity
  8
BEMASSUNG
  6
Continuous
 62
     2
370
    -2
100
AcDbLine
 10
95.68215505822179
 20
381.5862095829682
 30
0.0
 11
106.5454963315393
 21
381.5862095829682
 31
0.0
  0
LINE
  5
16E
330
16B
100
AcDbEntity
  8
BEMASSUNG
  6
Continuous
 62
     2
370
    -2
100
AcDbLine
 10
93.38215505821242
 20
349.5862095829703
 30
0.0
 11
106.5454963315393
 21
349.5862095829703
 31
0.0
  0
LINE
  5
16F
330
16B
100
AcDbEntity
  8
BEMASSUNG
  6
Continuous
 62
     2
370
    -2
100
AcDbLine
 10
105.5454963315393
 20
377.5862095829682
 30
0.0
 11
105.5454963315393
 21
353.5862095829704
 31
0.0
  0
MTEXT
  5
170
330
16B
100
AcDbEntity
  8
BEMASSUNG
  6
Continuous
 62
     3
100
AcDbMText
 10
101.5018080604451
 20
365.4914792352281
 30
0.0
 40
4.349999999999998
 41
0.0
 71
     5
 72
     1
  1
\A1;32
  7
ARIAL-STANDARD
 11
0.0000000000000001
 21
1.0
 31
0.0
 73
     1
 44
1.0
1001
ACAD
1000
MTEXTBEGIN
1070
    73
1070
     1
1070
    44
1040
1.0
1070
    74
1070
     0
1000
MTEXTEND
  0
SOLID
  5
171
330
16B
100
AcDbEntity
  8
BEMASSUNG
  6
Continuous
 62
     2
100
AcDbTrace
 10
104.8788296648726
 20
377.5862095829682
 30
0.0
 11
106.212162998206
 21
377.5862095829682
 31
0.0
 12
105.5454963315393
 22
381.5862095829682
 32
0.0
 13
105.5454963315393
 23
381.5862095829682
 33
0.0
  0
SOLID
  5
172
330
16B
100
AcDbEntity
  8
BEMASSUNG
  6
Continuous
 62
     2
100
AcDbTrace
 10
104.8788296648726
 20
353.5862095829704
 30
0.0
 11
106.212162998206
 21
353.5862095829704
 31
0.0
 12
105.5454963315393
 22
349.5862095829703
 32
0.0
 13
105.5454963315393
 23
349.5862095829703
 33
0.0
  0
POINT
  5
173
330
16B
100
AcDbEntity
  8
DEFPOINTS
  6
Continuous
 62
     0
100
AcDbPoint
 10
95.68215505822179
 20
381.5862095829682
 30
0.0
  0
POINT
  5
174
330
16B
100
AcDbEntity
  8
DEFPOINTS
  6
Continuous
 62
     0
100
AcDbPoint
 10
93.38215505821242
 20
349.5862095829703
 30
0.0
  0
POINT
  5
175
330
16B
100
AcDbEntity
  8
DEFPOINTS
  6
Continuous
 62
     0
100
AcDbPoint
 10
105.5454963315393
 20
349.5862095829703
 30
0.0
  0
ENDBLK
  5
176
330
16B
100
AcDbEntity
  8
0
100
AcDbBlockEnd
  0
BLOCK
  5
15F
330
15E
100
AcDbEntity
  8
0
100
AcDbBlockBegin
  2
*D4
 70
     1
 10
0.0
 20
0.0
 30
0.0
  3
*D4
  1

  0
LINE
  5
160
330
15E
100
AcDbEntity
  8
BEMASSUNG
  6
Continuous
 62
     2
370
    -2
100
AcDbLine
 10
75.68215505834276
 20
398.2633898150713
 30
0.0
 11
55.48215505834278
 21
398.2633898150713
 31
0.0
  0
LINE
  5
161
330
15E
100
AcDbEntity
  8
BEMASSUNG
  6
Continuous
 62
     2
370
    -2
100
AcDbLine
 10
80.38215505834271
 20
408.5133898150713
 30
0.0
 11
55.48215505834278
 21
408.5133898150713
 31
0.0
  0
LINE
  5
162
330
15E
100
AcDbEntity
  8
BEMASSUNG
  6
Continuous
 62
     2
370
    -2
100
AcDbLine
 10
56.48215505834278
 20
402.2633898150711
 30
0.0
 11
56.48215505834278
 21
404.5133898150713
 31
0.0
  0
MTEXT
  5
163
330
15E
100
AcDbEntity
  8
BEMASSUNG
  6
Continuous
 62
     3
100
AcDbMText
 10
51.21572782194895
 20
406.2515463460431
 30
0.0
 40
4.349999999999998
 41
0.0
 71
     5
 72
     1
  1
\A1;10.25
  7
ARIAL-STANDARD
 11
0.0000000000000001
 21
1.0
 31
0.0
 73
     1
 44
1.0
1001
ACAD
1000
MTEXTBEGIN
1070
    73
1070
     1
1070
    44
1040
1.0
1070
    74
1070
     0
1000
MTEXTEND
  0
SOLID
  5
164
330
15E
100
AcDbEntity
  8
BEMASSUNG
  6
Continuous
 62
     2
100
AcDbTrace
 10
55.81548839167612
 20
402.2633898150711
 30
0.0
 11
57.14882172500945
 21
402.2633898150711
 31
0.0
 12
56.48215505834278
 22
398.2633898150713
 32
0.0
 13
56.48215505834278
 23
398.2633898150713
 33
0.0
  0
SOLID
  5
165
330
15E
100
AcDbEntity
  8
BEMASSUNG
  6
Continuous
 62
     2
100
AcDbTrace
 10
55.81548839167612
 20
404.5133898150713
 30
0.0
 11
57.14882172500945
 21
404.5133898150713
 31
0.0
 12
56.48215505834278
 22
408.5133898150713
 32
0.0
 13
56.48215505834278
 23
408.5133898150713
 33
0.0
  0
POINT
  5
166
330
15E
100
AcDbEntity
  8
DEFPOINTS
  6
Continuous
 62
     0
100
AcDbPoint
 10
75.68215505834276
 20
398.2633898150713
 30
0.0
  0
POINT
  5
167
330
15E
100
AcDbEntity
  8
DEFPOINTS
  6
Continuous
 62
     0
100
AcDbPoint
 10
80.38215505834271
 20
408.5133898150713
 30
0.0
  0
POINT
  5
168
330
15E
100
AcDbEntity
  8
DEFPOINTS
  6
Continuous
 62
     0
100
AcDbPoint
 10
56.48215505834278
 20
408.5133898150713
 30
0.0
  0
ENDBLK
  5
169
330
15E
100
AcDbEntity
  8
0
100
AcDbBlockEnd
  0
BLOCK
  5
152
330
151
100
AcDbEntity
  8
0
100
AcDbBlockBegin
  2
*D5
 70
     1
 10
0.0
 20
0.0
 30
0.0
  3
*D5
  1

  0
LINE
  5
153
330
151
100
AcDbEntity
  8
BEMASSUNG
  6
Continuous
 62
     2
370
    -2
100
AcDbLine
 10
84.18215505834275
 20
590.5133898150713
 30
0.0
 11
122.9992975109102
 21
590.5133898150713
 31
0.0
  0
LINE
  5
154
330
151
100
AcDbEntity
  8
BEMASSUNG
  6
Continuous
 62
     2
370
    -2
100
AcDbLine
 10
84.18215505834288
 20
538.0133898150713
 30
0.0
 11
122.9992975109102
 21
538.0133898150713
 31
0.0
  0
LINE
  5
155
330
151
100
AcDbEntity
  8
BEMASSUNG
  6
Continuous
 62
     2
370
    -2
100
AcDbLine
 10
121.9992975109102
 20
586.5133898150713
 30
0.0
 11
121.9992975109102
 21
542.0133898150713
 31
0.0
  0
MTEXT
  5
156
330
151
100
AcDbEntity
  8
BEMASSUNG
  6
Continuous
 62
     3
100
AcDbMText
 10
118.2968649330847
 20
564.2633898150712
 30
0.0
 40
4.349999999999998
 41
0.0
 71
     5
 72
     1
  1
\A1;52.5
  7
ARIAL-STANDARD
 11
0.0000000000000001
 21
1.0
 31
0.0
 73
     1
 44
1.0
1001
ACAD
1000
MTEXTBEGIN
1070
    73
1070
     1
1070
    44
1040
1.0
1070
    74
1070
     0
1000
MTEXTEND
  0
SOLID
  5
157
330
151
100
AcDbEntity
  8
BEMASSUNG
  6
Continuous
 62
     2
100
AcDbTrace
 10
121.3326308442436
 20
586.5133898150713
 30
0.0
 11
122.6659641775769
 21
586.5133898150713
 31
0.0
 12
121.9992975109102
 22
590.5133898150713
 32
0.0
 13
121.9992975109102
 23
590.5133898150713
 33
0.0
  0
SOLID
  5
158
330
151
100
AcDbEntity
  8
BEMASSUNG
  6
Continuous
 62
     2
100
AcDbTrace
 10
121.3326308442436
 20
542.0133898150713
 30
0.0
 11
122.6659641775769
 21
542.0133898150713
 31
0.0
 12
121.9992975109102
 22
538.0133898150713
 32
0.0
 13
121.9992975109102
 23
538.0133898150713
 33
0.0
  0
POINT
  5
159
330
151
100
AcDbEntity
  8
DEFPOINTS
  6
Continuous
 62
     0
100
AcDbPoint
 10
84.18215505834275
 20
590.5133898150713
 30
0.0
  0
POINT
  5
15A
330
151
100
AcDbEntity
  8
DEFPOINTS
  6
Continuous
 62
     0
100
AcDbPoint
 10
84.18215505834288
 20
538.0133898150713
 30
0.0
  0
POINT
  5
15B
330
151
100
AcDbEntity
  8
DEFPOINTS
  6
Continuous
 62
     0
100
AcDbPoint
 10
121.9992975109102
 20
538.0133898150713
 30
0.0
  0
ENDBLK
  5
15C
330
151
100
AcDbEntity
  8
0
100
AcDbBlockEnd
  0
BLOCK
  5
141
330
140
100
AcDbEntity
  8
0
100
AcDbBlockBegin
  2
*D6
 70
     1
 10
0.0
 20
0.0
 30
0.0
  3
*D6
  1

  0
LINE
  5
142
330
140
100
AcDbEntity
  8
BEMASSUNG
  6
Continuous
 62
     2
370
    -2
100
AcDbLine
 10
158.0540498794649
 20
398.2633898150713
 30
0.0
 11
143.9115708803272
 21
398.2633898150713
 31
0.0
  0
LINE
  5
143
330
140
100
AcDbEntity
  8
BEMASSUNG
  6
Continuous
 62
     2
370
    -2
100
AcDbLine
 10
161.8540498794661
 20
413.5133898150711
 30
0.0
 11
143.9115708803272
 21
413.5133898150711
 31
0.0
  0
LINE
  5
144
330
140
100
AcDbEntity
  8
BEMASSUNG
  6
Continuous
 62
     2
370
    -2
100
AcDbLine
 10
144.9115708803272
 20
402.2633898150711
 30
0.0
 11
144.9115708803272
 21
409.5133898150711
 31
0.0
  0
MTEXT
  5
145
330
140
100
AcDbEntity
  8
BEMASSUNG
  6
Continuous
 62
     3
100
AcDbMText
 10
140.3933538107773
 20
405.0128629524385
 30
0.0
 40
4.349999999999998
 41
0.0
 71
     5
 72
     1
  1
\A1;15.25
  7
ARIAL-STANDARD
 11
0.0000000000000001
 21
1.0
 31
0.0
 73
     1
 44
1.0
1001
ACAD
1000
MTEXTBEGIN
1070
    73
1070
     1
1070
    44
1040
1.0
1070
    74
1070
     0
1000
MTEXTEND
  0
SOLID
  5
146
330
140
100
AcDbEntity
  8
BEMASSUNG
  6
Continuous
 62
     2
100
AcDbTrace
 10
144.2449042136605
 20
402.2633898150711
 30
0.0
 11
145.5782375469939
 21
402.2633898150711
 31
0.0
 12
144.9115708803272
 22
398.2633898150713
 32
0.0
 13
144.9115708803272
 23
398.2633898150713
 33
0.0
  0
SOLID
  5
147
330
140
100
AcDbEntity
  8
BEMASSUNG
  6
Continuous
 62
     2
100
AcDbTrace
 10
144.2449042136605
 20
409.5133898150711
 30
0.0
 11
145.5782375469939
 21
409.5133898150711
 31
0.0
 12
144.9115708803272
 22
413.5133898150711
 32
0.0
 13
144.9115708803272
 23
413.5133898150711
 33
0.0
  0
POINT
  5
148
330
140
100
AcDbEntity
  8
DEFPOINTS
  6
Continuous
 62
     0
100
AcDbPoint
 10
158.0540498794649
 20
398.2633898150713
 30
0.0
  0
POINT
  5
149
330
140
100
AcDbEntity
  8
DEFPOINTS
  6
Continuous
 62
     0
100
AcDbPoint
 10
161.8540498794661
 20
413.5133898150711
 30
0.0
  0
POINT
  5
14A
330
140
100
AcDbEntity
  8
DEFPOINTS
  6
Continuous
 62
     0
100
AcDbPoint
 10
144.9115708803272
 20
413.5133898150711
 30
0.0
  0
ENDBLK
  5
14B
330
140
100
AcDbEntity
  8
0
100
AcDbBlockEnd
  0
BLOCK
  5
128
330
127
100
AcDbEntity
  8
0
100
AcDbBlockBegin
  2
*D7
 70
     1
 10
0.0
 20
0.0
 30
0.0
  3
*D7
  1

  0
LINE
  5
129
330
127
100
AcDbEntity
  8
BEMASSUNG
  6
Continuous
 62
     2
370
    -2
100
AcDbLine
 10
84.18215505834275
 20
597.0133898150712
 30
0.0
 11
84.18215505834275
 21
613.0076015661161
 31
0.0
  0
LINE
  5
12A
330
127
100
AcDbEntity
  8
BEMASSUNG
  6
Continuous
 62
     2
370
    -2
100
AcDbLine
 10
95.68215505834343
 20
609.6666229427738
 30
0.0
 11
95.68215505834343
 21
613.0076015661161
 31
0.0
  0
LINE
  5
12B
330
127
100
AcDbEntity
  8
BEMASSUNG
  6
Continuous
 62
     2
370
    -2
100
AcDbLine
 10
88.18215505834276
 20
612.0076015661161
 30
0.0
 11
91.68215505834343
 21
612.0076015661161
 31
0.0
  0
MTEXT
  5
12C
330
127
100
AcDbEntity
  8
BEMASSUNG
  6
Continuous
 62
     3
100
AcDbMText
 10
104.5762546746435
 20
612.0076015661161
 30
0.0
 40
4.349999999999998
 41
0.0
 71
     5
 72
     1
  1
\A1;11.5
  7
ARIAL-STANDARD
 73
     1
 44
1.0
1001
ACAD
1000
MTEXTBEGIN
1070
    73
1070
     1
1070
    44
1040
1.0
1070
    74
1070
     0
1000
MTEXTEND
  0
SOLID
  5
12D
330
127
100
AcDbEntity
  8
BEMASSUNG
  6
Continuous
 62
     2
100
AcDbTrace
 10
88.18215505834276
 20
612.6742682327828
 30
0.0
 11
88.18215505834276
 21
611.3409348994495
 31
0.0
 12
84.18215505834275
 22
612.0076015661161
 32
0.0
 13
84.18215505834275
 23
612.0076015661161
 33
0.0
  0
SOLID
  5
12E
330
127
100
AcDbEntity
  8
BEMASSUNG
  6
Continuous
 62
     2
100
AcDbTrace
 10
91.68215505834343
 20
612.6742682327828
 30
0.0
 11
91.68215505834343
 21
611.3409348994495
 31
0.0
 12
95.68215505834343
 22
612.0076015661161
 32
0.0
 13
95.68215505834343
 23
612.0076015661161
 33
0.0
  0
POINT
  5
12F
330
127
100
AcDbEntity
  8
DEFPOINTS
  6
Continuous
 62
     0
100
AcDbPoint
 10
84.18215505834275
 20
597.0133898150712
 30
0.0
  0
POINT
  5
130
330
127
100
AcDbEntity
  8
DEFPOINTS
  6
Continuous
 62
     0
100
AcDbPoint
 10
95.68215505834343
 20
609.6666229427738
 30
0.0
  0
POINT
  5
131
330
127
100
AcDbEntity
  8
DEFPOINTS
  6
Continuous
 62
     0
100
AcDbPoint
 10
95.68215505834343
 20
612.0076015661161
 30
0.0
  0
ENDBLK
  5
132
330
127
100
AcDbEntity
  8
0
100
AcDbBlockEnd
  0
BLOCK
  5
11B
330
11A
100
AcDbEntity
  8
0
100
AcDbBlockBegin
  2
*D8
 70
     1
 10
0.0
 20
0.0
 30
0.0
  3
*D8
  1

  0
LINE
  5
11C
330
11A
100
AcDbEntity
  8
BEMASSUNG
  6
Continuous
 62
     2
370
    -2
100
AcDbLine
 10
95.68215505834343
 20
652.2633898150711
 30
0.0
 11
95.68215505834343
 21
659.5133898150711
 31
0.0
  0
LINE
  5
11D
330
11A
100
AcDbEntity
  8
BEMASSUNG
  6
Continuous
 62
     2
370
    -2
100
AcDbLine
 10
80.38215505834271
 20
649.2633898150714
 30
0.0
 11
80.38215505834271
 21
659.5133898150711
 31
0.0
  0
LINE
  5
11E
330
11A
100
AcDbEntity
  8
BEMASSUNG
  6
Continuous
 62
     2
370
    -2
100
AcDbLine
 10
91.68215505834343
 20
658.5133898150711
 30
0.0
 11
84.3821550583427
 21
658.5133898150711
 31
0.0
  0
MTEXT
  5
11F
330
11A
100
AcDbEntity
  8
BEMASSUNG
  6
Continuous
 62
     3
100
AcDbMText
 10
89.50694198390706
 20
662.3022106171617
 30
0.0
 40
4.349999999999998
 41
0.0
 71
     5
 72
     1
  1
\A1;15.3
  7
ARIAL-STANDARD
 73
     1
 44
1.0
1001
ACAD
1000
MTEXTBEGIN
1070
    73
1070
     1
1070
    44
1040
1.0
1070
    74
1070
     0
1000
MTEXTEND
  0
SOLID
  5
120
330
11A
100
AcDbEntity
  8
BEMASSUNG
  6
Continuous
 62
     2
100
AcDbTrace
 10
91.68215505834343
 20
659.1800564817377
 30
0.0
 11
91.68215505834343
 21
657.8467231484045
 31
0.0
 12
95.68215505834343
 22
658.5133898150711
 32
0.0
 13
95.68215505834343
 23
658.5133898150711
 33
0.0
  0
SOLID
  5
121
330
11A
100
AcDbEntity
  8
BEMASSUNG
  6
Continuous
 62
     2
100
AcDbTrace
 10
84.3821550583427
 20
659.1800564817377
 30
0.0
 11
84.3821550583427
 21
657.8467231484045
 31
0.0
 12
80.38215505834271
 22
658.5133898150711
 32
0.0
 13
80.38215505834271
 23
658.5133898150711
 33
0.0
  0
POINT
  5
122
330
11A
100
AcDbEntity
  8
DEFPOINTS
  6
Continuous
 62
     0
100
AcDbPoint
 10
95.68215505834343
 20
652.2633898150711
 30
0.0
  0
POINT
  5
123
330
11A
100
AcDbEntity
  8
DEFPOINTS
  6
Continuous
 62
     0
100
AcDbPoint
 10
80.38215505834271
 20
649.2633898150714
 30
0.0
  0
POINT
  5
124
330
11A
100
AcDbEntity
  8
DEFPOINTS
  6
Continuous
 62
     0
100
AcDbPoint
 10
80.38215505834271
 20
658.5133898150711
 30
0.0
  0
ENDBLK
  5
125
330
11A
100
AcDbEntity
  8
0
100
AcDbBlockEnd
  0
BLOCK
  5
10E
330
10D
100
AcDbEntity
  8
0
100
AcDbBlockBegin
  2
*D9
 70
     1
 10
0.0
 20
0.0
 30
0.0
  3
*D9
  1

  0
LINE
  5
10F
330
10D
100
AcDbEntity
  8
BEMASSUNG
  6
Continuous
 62
     2
370
    -2
100
AcDbLine
 10
77.63215505834327
 20
642.0133898150712
 30
0.0
 11
55.45461370105428
 21
642.0133898150712
 31
0.0
  0
LINE
  5
110
330
10D
100
AcDbEntity
  8
BEMASSUNG
  6
Continuous
 62
     2
370
    -2
100
AcDbLine
 10
75.6321550583427
 20
408.5133898150713
 30
0.0
 11
55.45461370105423
 21
408.5133898150713
 31
0.0
  0
LINE
  5
111
330
10D
100
AcDbEntity
  8
BEMASSUNG
  6
Continuous
 62
     2
370
    -2
100
AcDbLine
 10
56.45461370105428
 20
638.0133898150712
 30
0.0
 11
56.45461370105422
 21
412.5133898150712
 31
0.0
  0
MTEXT
  5
112
330
10D
100
AcDbEntity
  8
BEMASSUNG
  6
Continuous
 62
     3
100
AcDbMText
 10
51.65789473655824
 20
526.6104527975502
 30
0.0
 40
4.349999999999998
 41
0.0
 71
     5
 72
     1
  1
\A1;233.5
  7
ARIAL-STANDARD
 11
0.0000000000000001
 21
1.0
 31
0.0
 73
     1
 44
1.0
1001
ACAD
1000
MTEXTBEGIN
1070
    73
1070
     1
1070
    44
1040
1.0
1070
    74
1070
     0
1000
MTEXTEND
  0
SOLID
  5
113
330
10D
100
AcDbEntity
  8
BEMASSUNG
  6
Continuous
 62
     2
100
AcDbTrace
 10
55.7879470343876
 20
638.0133898150712
 30
0.0
 11
57.12128036772093
 21
638.0133898150712
 31
0.0
 12
56.45461370105428
 22
642.0133898150712
 32
0.0
 13
56.45461370105428
 23
642.0133898150712
 33
0.0
  0
SOLID
  5
114
330
10D
100
AcDbEntity
  8
BEMASSUNG
  6
Continuous
 62
     2
100
AcDbTrace
 10
55.78794703438756
 20
412.5133898150712
 30
0.0
 11
57.12128036772089
 21
412.5133898150712
 31
0.0
 12
56.45461370105422
 22
408.5133898150713
 32
0.0
 13
56.45461370105422
 23
408.5133898150713
 33
0.0
  0
POINT
  5
115
330
10D
100
AcDbEntity
  8
DEFPOINTS
  6
Continuous
 62
     0
100
AcDbPoint
 10
77.63215505834327
 20
642.0133898150712
 30
0.0
  0
POINT
  5
116
330
10D
100
AcDbEntity
  8
DEFPOINTS
  6
Continuous
 62
     0
100
AcDbPoint
 10
75.6321550583427
 20
408.5133898150713
 30
0.0
  0
POINT
  5
117
330
10D
100
AcDbEntity
  8
DEFPOINTS
  6
Continuous
 62
     0
100
AcDbPoint
 10
56.45461370105422
 20
408.5133898150713
 30
0.0
  0
ENDBLK
  5
118
330
10D
100
AcDbEntity
  8
0
100
AcDbBlockEnd
  0
BLOCK
  5
101
330
100
100
AcDbEntity
  8
0
100
AcDbBlockBegin
  2
*D10
 70
     1
 10
0.0
 20
0.0
 30
0.0
  3
*D10
  1

  0
LINE
  5
102
330
100
100
AcDbEntity
  8
BEMASSUNG
  6
Continuous
 62
     2
370
    -2
100
AcDbLine
 10
76.47105019369473
 20
642.0133898150712
 30
0.0
 11
55.45461370105428
 21
642.0133898150712
 31
0.0
  0
LINE
  5
103
330
100
100
AcDbEntity
  8
BEMASSUNG
  6
Continuous
 62
     2
370
    -2
100
AcDbLine
 10
75.68215505834266
 20
652.2633898150712
 30
0.0
 11
55.45461370105428
 21
652.2633898150712
 31
0.0
  0
LINE
  5
104
330
100
100
AcDbEntity
  8
BEMASSUNG
  6
Continuous
 62
     2
370
    -2
100
AcDbLine
 10
56.45461370105428
 20
646.0133898150712
 30
0.0
 11
56.45461370105428
 21
648.2633898150712
 31
0.0
  0
MTEXT
  5
105
330
100
100
AcDbEntity
  8
BEMASSUNG
  6
Continuous
 62
     3
100
AcDbMText
 10
52.26023139286795
 20
643.5930310517895
 30
0.0
 40
4.349999999999998
 41
0.0
 71
     5
 72
     1
  1
\A1;10.25
  7
ARIAL-STANDARD
 11
0.0000000000000001
 21
1.0
 31
0.0
 73
     1
 44
1.0
1001
ACAD
1000
MTEXTBEGIN
1070
    73
1070
     1
1070
    44
1040
1.0
1070
    74
1070
     0
1000
MTEXTEND
  0
SOLID
  5
106
330
100
100
AcDbEntity
  8
BEMASSUNG
  6
Continuous
 62
     2
100
AcDbTrace
 10
55.78794703438759
 20
646.0133898150712
 30
0.0
 11
57.12128036772092
 21
646.0133898150712
 31
0.0
 12
56.45461370105428
 22
642.0133898150712
 32
0.0
 13
56.45461370105428
 23
642.0133898150712
 33
0.0
  0
SOLID
  5
107
330
100
100
AcDbEntity
  8
BEMASSUNG
  6
Continuous
 62
     2
100
AcDbTrace
 10
55.78794703438759
 20
648.2633898150712
 30
0.0
 11
57.12128036772092
 21
648.2633898150712
 31
0.0
 12
56.45461370105428
 22
652.2633898150712
 32
0.0
 13
56.45461370105428
 23
652.2633898150712
 33
0.0
  0
POINT
  5
108
330
100
100
AcDbEntity
  8
DEFPOINTS
  6
Continuous
 62
     0
100
AcDbPoint
 10
76.47105019369473
 20
642.0133898150712
 30
0.0
  0
POINT
  5
109
330
100
100
AcDbEntity
  8
DEFPOINTS
  6
Continuous
 62
     0
100
AcDbPoint
 10
75.68215505834266
 20
652.2633898150712
 30
0.0
  0
POINT
  5
10A
330
100
100
AcDbEntity
  8
DEFPOINTS
  6
Continuous
 62
     0
100
AcDbPoint
 10
56.45461370105428
 20
652.2633898150712
 30
0.0
  0
ENDBLK
  5
10B
330
100
100
AcDbEntity
  8
0
100
AcDbBlockEnd
  0
BLOCK
  5
F0
330
EF
100
AcDbEntity
  8
0
100
AcDbBlockBegin
  2
*D11
 70
     1
 10
0.0
 20
0.0
 30
0.0
  3
*D11
  1

  0
LINE
  5
F1
330
EF
100
AcDbEntity
  8
BEMASSUNG
  6
Continuous
 62
     2
370
    -2
100
AcDbLine
 10
157.1040498794661
 20
413.5133898150711
 30
0.0
 11
143.9115708803272
 21
413.5133898150711
 31
0.0
  0
LINE
  5
F2
330
EF
100
AcDbEntity
  8
BEMASSUNG
  6
Continuous
 62
     2
370
    -2
100
AcDbLine
 10
159.1040498794649
 20
637.0133898150712
 30
0.0
 11
143.9115708803273
 21
637.0133898150712
 31
0.0
  0
LINE
  5
F3
330
EF
100
AcDbEntity
  8
BEMASSUNG
  6
Continuous
 62
     2
370
    -2
100
AcDbLine
 10
144.9115708803272
 20
417.5133898150711
 30
0.0
 11
144.9115708803272
 21
633.0133898150712
 31
0.0
  0
MTEXT
  5
F4
330
EF
100
AcDbEntity
  8
BEMASSUNG
  6
Continuous
 62
     3
100
AcDbMText
 10
140.8525124202189
 20
524.9302047583563
 30
0.0
 40
4.349999999999998
 41
0.0
 71
     5
 72
     1
  1
\A1;223.5
  7
ARIAL-STANDARD
 11
0.0000000000000001
 21
1.0
 31
0.0
 73
     1
 44
1.0
1001
ACAD
1000
MTEXTBEGIN
1070
    73
1070
     1
1070
    44
1040
1.0
1070
    74
1070
     0
1000
MTEXTEND
  0
SOLID
  5
F5
330
EF
100
AcDbEntity
  8
BEMASSUNG
  6
Continuous
 62
     2
100
AcDbTrace
 10
144.2449042136605
 20
417.5133898150711
 30
0.0
 11
145.5782375469939
 21
417.5133898150711
 31
0.0
 12
144.9115708803272
 22
413.5133898150711
 32
0.0
 13
144.9115708803272
 23
413.5133898150711
 33
0.0
  0
SOLID
  5
F6
330
EF
100
AcDbEntity
  8
BEMASSUNG
  6
Continuous
 62
     2
100
AcDbTrace
 10
144.2449042136606
 20
633.0133898150712
 30
0.0
 11
145.5782375469939
 21
633.0133898150712
 31
0.0
 12
144.9115708803272
 22
637.0133898150712
 32
0.0
 13
144.9115708803272
 23
637.0133898150712
 33
0.0
  0
POINT
  5
F7
330
EF
100
AcDbEntity
  8
DEFPOINTS
  6
Continuous
 62
     0
100
AcDbPoint
 10
157.1040498794661
 20
413.5133898150711
 30
0.0
  0
POINT
  5
F8
330
EF
100
AcDbEntity
  8
DEFPOINTS
  6
Continuous
 62
     0
100
AcDbPoint
 10
159.1040498794649
 20
637.0133898150712
 30
0.0
  0
POINT
  5
F9
330
EF
100
AcDbEntity
  8
DEFPOINTS
  6
Continuous
 62
     0
100
AcDbPoint
 10
144.9115708803272
 20
637.0133898150712
 30
0.0
  0
ENDBLK
  5
FA
330
EF
100
AcDbEntity
  8
0
100
AcDbBlockEnd
  0
BLOCK
  5
E3
330
E2
100
AcDbEntity
  8
0
100
AcDbBlockBegin
  2
*D12
 70
     1
 10
0.0
 20
0.0
 30
0.0
  3
*D12
  1

  0
LINE
  5
E4
330
E2
100
AcDbEntity
  8
BEMASSUNG
  6
Continuous
 62
     2
370
    -2
100
AcDbLine
 10
158.0540498794649
 20
652.2633898150711
 30
0.0
 11
143.9115708803273
 21
652.2633898150711
 31
0.0
  0
LINE
  5
E5
330
E2
100
AcDbEntity
  8
BEMASSUNG
  6
Continuous
 62
     2
370
    -2
100
AcDbLine
 10
159.1040498794649
 20
637.0133898150712
 30
0.0
 11
143.9115708803273
 21
637.0133898150712
 31
0.0
  0
LINE
  5
E6
330
E2
100
AcDbEntity
  8
BEMASSUNG
  6
Continuous
 62
     2
370
    -2
100
AcDbLine
 10
144.9115708803272
 20
648.2633898150711
 30
0.0
 11
144.9115708803272
 21
641.0133898150711
 31
0.0
  0
MTEXT
  5
E7
330
E2
100
AcDbEntity
  8
BEMASSUNG
  6
Continuous
 62
     3
100
AcDbMText
 10
139.0820340506294
 20
644.7565726002285
 30
0.0
 40
4.349999999999998
 41
0.0
 71
     5
 72
     1
  1
\A1;15.25
  7
ARIAL-STANDARD
 11
0.0000000000000001
 21
1.0
 31
0.0
 73
     1
 44
1.0
1001
ACAD
1000
MTEXTBEGIN
1070
    73
1070
     1
1070
    44
1040
1.0
1070
    74
1070
     0
1000
MTEXTEND
  0
SOLID
  5
E8
330
E2
100
AcDbEntity
  8
BEMASSUNG
  6
Continuous
 62
     2
100
AcDbTrace
 10
144.2449042136606
 20
648.2633898150711
 30
0.0
 11
145.5782375469939
 21
648.2633898150711
 31
0.0
 12
144.9115708803272
 22
652.2633898150711
 32
0.0
 13
144.9115708803272
 23
652.2633898150711
 33
0.0
  0
SOLID
  5
E9
330
E2
100
AcDbEntity
  8
BEMASSUNG
  6
Continuous
 62
     2
100
AcDbTrace
 10
144.2449042136606
 20
641.0133898150711
 30
0.0
 11
145.5782375469939
 21
641.0133898150711
 31
0.0
 12
144.9115708803272
 22
637.0133898150712
 32
0.0
 13
144.9115708803272
 23
637.0133898150712
 33
0.0
  0
POINT
  5
EA
330
E2
100
AcDbEntity
  8
DEFPOINTS
  6
Continuous
 62
     0
100
AcDbPoint
 10
158.0540498794649
 20
652.2633898150711
 30
0.0
  0
POINT
  5
EB
330
E2
100
AcDbEntity
  8
DEFPOINTS
  6
Continuous
 62
     0
100
AcDbPoint
 10
159.1040498794649
 20
637.0133898150712
 30
0.0
  0
POINT
  5
EC
330
E2
100
AcDbEntity
  8
DEFPOINTS
  6
Continuous
 62
     0
100
AcDbPoint
 10
144.9115708803272
 20
637.0133898150712
 30
0.0
  0
ENDBLK
  5
ED
330
E2
100
AcDbEntity
  8
0
100
AcDbBlockEnd
  0
BLOCK
  5
D6
330
D5
100
AcDbEntity
  8
0
100
AcDbBlockBegin
  2
*D13
 70
     1
 10
0.0
 20
0.0
 30
0.0
  3
*D13
  1

  0
LINE
  5
D7
330
D5
100
AcDbEntity
  8
BEMASSUNG
  6
Continuous
 62
     2
370
    -2
100
AcDbLine
 10
93.38215505834282
 20
652.2633898150712
 30
0.0
 11
131.7369786783259
 21
652.2633898150712
 31
0.0
  0
LINE
  5
D8
330
D5
100
AcDbEntity
  8
BEMASSUNG
  6
Continuous
 62
     2
370
    -2
100
AcDbLine
 10
97.64682275820096
 20
564.2633898150712
 30
0.0
 11
131.7369786783259
 21
564.2633898150712
 31
0.0
  0
LINE
  5
D9
330
D5
100
AcDbEntity
  8
BEMASSUNG
  6
Continuous
 62
     2
370
    -2
100
AcDbLine
 10
130.7369786783259
 20
648.2633898150712
 30
0.0
 11
130.7369786783259
 21
568.2633898150712
 31
0.0
  0
MTEXT
  5
DA
330
D5
100
AcDbEntity
  8
BEMASSUNG
  6
Continuous
 62
     3
100
AcDbMText
 10
126.3378417309187
 20
608.2633898150714
 30
0.0
 40
4.349999999999998
 41
0.0
 71
     5
 72
     1
  1
\A1;88
  7
ARIAL-STANDARD
 11
0.0000000000000001
 21
1.0
 31
0.0
 73
     1
 44
1.0
1001
ACAD
1000
MTEXTBEGIN
1070
    73
1070
     1
1070
    44
1040
1.0
1070
    74
1070
     0
1000
MTEXTEND
  0
SOLID
  5
DB
330
D5
100
AcDbEntity
  8
BEMASSUNG
  6
Continuous
 62
     2
100
AcDbTrace
 10
130.0703120116592
 20
648.2633898150712
 30
0.0
 11
131.4036453449926
 21
648.2633898150712
 31
0.0
 12
130.7369786783259
 22
652.2633898150712
 32
0.0
 13
130.7369786783259
 23
652.2633898150712
 33
0.0
  0
SOLID
  5
DC
330
D5
100
AcDbEntity
  8
BEMASSUNG
  6
Continuous
 62
     2
100
AcDbTrace
 10
130.0703120116592
 20
568.2633898150712
 30
0.0
 11
131.4036453449925
 21
568.2633898150712
 31
0.0
 12
130.7369786783259
 22
564.2633898150712
 32
0.0
 13
130.7369786783259
 23
564.2633898150712
 33
0.0
  0
POINT
  5
DD
330
D5
100
AcDbEntity
  8
DEFPOINTS
  6
Continuous
 62
     0
100
AcDbPoint
 10
93.38215505834282
 20
652.2633898150712
 30
0.0
  0
POINT
  5
DE
330
D5
100
AcDbEntity
  8
DEFPOINTS
  6
Continuous
 62
     0
100
AcDbPoint
 10
97.64682275820096
 20
564.2633898150712
 30
0.0
  0
POINT
  5
DF
330
D5
100
AcDbEntity
  8
DEFPOINTS
  6
Continuous
 62
     0
100
AcDbPoint
 10
130.7369786783259
 20
564.2633898150712
 30
0.0
  0
ENDBLK
  5
E0
330
D5
100
AcDbEntity
  8
0
100
AcDbBlockEnd
  0
BLOCK
  5
C8
330
C7
100
AcDbEntity
  8
0
100
AcDbBlockBegin
  2
*D14
 70
     1
 10
0.0
 20
0.0
 30
0.0
  3
*D14
  1

  0
LINE
  5
C9
330
C7
100
AcDbEntity
  8
BEMASSUNG
  6
Continuous
 62
     2
370
    -2
100
AcDbLine
 10
97.64682275820096
 20
564.2633898150712
 30
0.0
 11
131.7369786783259
 21
564.2633898150712
 31
0.0
  0
LINE
  5
CA
330
C7
100
AcDbEntity
  8
BEMASSUNG
  6
Continuous
 62
     2
370
    -2
100
AcDbLine
 10
95.68215505834787
 20
486.2633898150713
 30
0.0
 11
131.7369786783259
 21
486.2633898150713
 31
0.0
  0
LINE
  5
CB
330
C7
100
AcDbEntity
  8
BEMASSUNG
  6
Continuous
 62
     2
370
    -2
100
AcDbLine
 10
130.7369786783259
 20
560.2633898150713
 30
0.0
 11
130.7369786783259
 21
490.2633898150713
 31
0.0
  0
MTEXT
  5
CC
330
C7
100
AcDbEntity
  8
BEMASSUNG
  6
Continuous
 62
     3
100
AcDbMText
 10
126.3674997396332
 20
525.2633898150714
 30
0.0
 40
4.349999999999998
 41
0.0
 71
     5
 72
     1
  1
\A1;78
  7
ARIAL-STANDARD
 11
0.0000000000000001
 21
1.0
 31
0.0
 73
     1
 44
1.0
1001
ACAD
1000
MTEXTBEGIN
1070
    73
1070
     1
1070
    44
1040
1.0
1070
    74
1070
     0
1000
MTEXTEND
  0
SOLID
  5
CD
330
C7
100
AcDbEntity
  8
BEMASSUNG
  6
Continuous
 62
     2
100
AcDbTrace
 10
130.0703120116592
 20
560.2633898150713
 30
0.0
 11
131.4036453449925
 21
560.2633898150713
 31
0.0
 12
130.7369786783259
 22
564.2633898150712
 32
0.0
 13
130.7369786783259
 23
564.2633898150712
 33
0.0
  0
SOLID
  5
CE
330
C7
100
AcDbEntity
  8
BEMASSUNG
  6
Continuous
 62
     2
100
AcDbTrace
 10
130.0703120116592
 20
490.2633898150713
 30
0.0
 11
131.4036453449925
 21
490.2633898150713
 31
0.0
 12
130.7369786783259
 22
486.2633898150713
 32
0.0
 13
130.7369786783259
 23
486.2633898150713
 33
0.0
  0
POINT
  5
CF
330
C7
100
AcDbEntity
  8
DEFPOINTS
  6
Continuous
 62
     0
100
AcDbPoint
 10
97.64682275820096
 20
564.2633898150712
 30
0.0
  0
POINT
  5
D0
330
C7
100
AcDbEntity
  8
DEFPOINTS
  6
Continuous
 62
     0
100
AcDbPoint
 10
95.68215505834787
 20
486.2633898150713
 30
0.0
  0
POINT
  5
D1
330
C7
100
AcDbEntity
  8
DEFPOINTS
  6
Continuous
 62
     0
100
AcDbPoint
 10
130.7369786783259
 20
486.2633898150713
 30
0.0
  0
ENDBLK
  5
D2
330
C7
100
AcDbEntity
  8
0
100
AcDbBlockEnd
  0
BLOCK
  5
BB
330
BA
100
AcDbEntity
  8
0
100
AcDbBlockBegin
  2
*D15
 70
     1
 10
0.0
 20
0.0
 30
0.0
  3
*D15
  1

  0
LINE
  5
BC
330
BA
100
AcDbEntity
  8
BEMASSUNG
  6
Continuous
 62
     2
370
    -2
100
AcDbLine
 10
97.67671648384443
 20
486.2633898150713
 30
0.0
 11
131.7369786783259
 21
486.2633898150713
 31
0.0
  0
LINE
  5
BD
330
BA
100
AcDbEntity
  8
BEMASSUNG
  6
Continuous
 62
     2
370
    -2
100
AcDbLine
 10
93.38215505834291
 20
398.2633898150714
 30
0.0
 11
131.7369786783259
 21
398.2633898150713
 31
0.0
  0
LINE
  5
BE
330
BA
100
AcDbEntity
  8
BEMASSUNG
  6
Continuous
 62
     2
370
    -2
100
AcDbLine
 10
130.7369786783259
 20
482.2633898150713
 30
0.0
 11
130.7369786783258
 21
402.2633898150713
 31
0.0
  0
MTEXT
  5
BF
330
BA
100
AcDbEntity
  8
BEMASSUNG
  6
Continuous
 62
     3
100
AcDbMText
 10
126.5746270275773
 20
444.9948128672057
 30
0.0
 40
4.349999999999998
 41
0.0
 71
     5
 72
     1
  1
\A1;88
  7
ARIAL-STANDARD
 11
0.0000000000000001
 21
1.0
 31
0.0
 73
     1
 44
1.0
1001
ACAD
1000
MTEXTBEGIN
1070
    73
1070
     1
1070
    44
1040
1.0
1070
    74
1070
     0
1000
MTEXTEND
  0
SOLID
  5
C0
330
BA
100
AcDbEntity
  8
BEMASSUNG
  6
Continuous
 62
     2
100
AcDbTrace
 10
130.0703120116592
 20
482.2633898150713
 30
0.0
 11
131.4036453449925
 21
482.2633898150713
 31
0.0
 12
130.7369786783259
 22
486.2633898150713
 32
0.0
 13
130.7369786783259
 23
486.2633898150713
 33
0.0
  0
SOLID
  5
C1
330
BA
100
AcDbEntity
  8
BEMASSUNG
  6
Continuous
 62
     2
100
AcDbTrace
 10
130.0703120116592
 20
402.2633898150713
 30
0.0
 11
131.4036453449925
 21
402.2633898150713
 31
0.0
 12
130.7369786783258
 22
398.2633898150713
 32
0.0
 13
130.7369786783258
 23
398.2633898150713
 33
0.0
  0
POINT
  5
C2
330
BA
100
AcDbEntity
  8
DEFPOINTS
  6
Continuous
 62
     0
100
AcDbPoint
 10
97.67671648384443
 20
486.2633898150713
 30
0.0
  0
POINT
  5
C3
330
BA
100
AcDbEntity
  8
DEFPOINTS
  6
Continuous
 62
     0
100
AcDbPoint
 10
93.38215505834291
 20
398.2633898150714
 30
0.0
  0
POINT
  5
C4
330
BA
100
AcDbEntity
  8
DEFPOINTS
  6
Continuous
 62
     0
100
AcDbPoint
 10
130.7369786783258
 20
398.2633898150713
 30
0.0
  0
ENDBLK
  5
C5
330
BA
100
AcDbEntity
  8
0
100
AcDbBlockEnd
  0
BLOCK
  5
AD
330
AC
100
AcDbEntity
  8
0
100
AcDbBlockBegin
  2
*D16
 70
     1
 10
0.0
 20
0.0
 30
0.0
  3
*D16
  1

  0
LINE
  5
AE
330
AC
100
AcDbEntity
  8
BEMASSUNG
  6
Continuous
 62
     2
370
    -2
100
AcDbLine
 10
168.0540498794649
 20
561.6289289904926
 30
0.0
 11
168.0540498794649
 21
549.8068759362986
 31
0.0
  0
LINE
  5
AF
330
AC
100
AcDbEntity
  8
BEMASSUNG
  6
Continuous
 62
     2
370
    -2
100
AcDbLine
 10
185.0540498794512
 20
561.6289289904926
 30
0.0
 11
185.0540498794512
 21
549.8068759362986
 31
0.0
  0
LINE
  5
B0
330
AC
100
AcDbEntity
  8
BEMASSUNG
  6
Continuous
 62
     2
370
    -2
100
AcDbLine
 10
172.0540498794649
 20
550.8068759362986
 30
0.0
 11
172.6431699340283
 21
550.8068759362986
 31
0.0
  0
LINE
  5
B1
330
AC
100
AcDbEntity
  8
BEMASSUNG
  6
Continuous
 62
     2
370
    -2
100
AcDbLine
 10
181.0540498794512
 20
550.8068759362986
 30
0.0
 11
180.4649298248878
 21
550.8068759362986
 31
0.0
  0
MTEXT
  5
B2
330
AC
100
AcDbEntity
  8
BEMASSUNG
  6
Continuous
 62
     3
100
AcDbMText
 10
176.5540498794581
 20
550.8068759362986
 30
0.0
 40
4.349999999999998
 41
0.0
 71
     5
 72
     1
  1
\A1;17
  7
ARIAL-STANDARD
 73
     1
 44
1.0
1001
ACAD
1000
MTEXTBEGIN
1070
    73
1070
     1
1070
    44
1040
1.0
1070
    74
1070
     0
1000
MTEXTEND
  0
SOLID
  5
B3
330
AC
100
AcDbEntity
  8
BEMASSUNG
  6
Continuous
 62
     2
100
AcDbTrace
 10
172.0540498794649
 20
551.4735426029651
 30
0.0
 11
172.0540498794649
 21
550.140209269632
 31
0.0
 12
168.0540498794649
 22
550.8068759362986
 32
0.0
 13
168.0540498794649
 23
550.8068759362986
 33
0.0
  0
SOLID
  5
B4
330
AC
100
AcDbEntity
  8
BEMASSUNG
  6
Continuous
 62
     2
100
AcDbTrace
 10
181.0540498794512
 20
551.4735426029651
 30
0.0
 11
181.0540498794512
 21
550.140209269632
 31
0.0
 12
185.0540498794512
 22
550.8068759362986
 32
0.0
 13
185.0540498794512
 23
550.8068759362986
 33
0.0
  0
POINT
  5
B5
330
AC
100
AcDbEntity
  8
DEFPOINTS
  6
Continuous
 62
     0
100
AcDbPoint
 10
168.0540498794649
 20
561.6289289904926
 30
0.0
  0
POINT
  5
B6
330
AC
100
AcDbEntity
  8
DEFPOINTS
  6
Continuous
 62
     0
100
AcDbPoint
 10
185.0540498794512
 20
561.6289289904926
 30
0.0
  0
POINT
  5
B7
330
AC
100
AcDbEntity
  8
DEFPOINTS
  6
Continuous
 62
     0
100
AcDbPoint
 10
185.0540498794512
 20
550.8068759362986
 30
0.0
  0
ENDBLK
  5
B8
330
AC
100
AcDbEntity
  8
0
100
AcDbBlockEnd
  0
BLOCK
  5
A0
330
9F
100
AcDbEntity
  8
0
100
AcDbBlockBegin
  2
*D17
 70
     1
 10
0.0
 20
0.0
 30
0.0
  3
*D17
  1

  0
LINE
  5
A1
330
9F
100
AcDbEntity
  8
BEMASSUNG
  6
Continuous
 62
     2
370
    -2
100
AcDbLine
 10
93.38215505834282
 20
588.2633898150714
 30
0.0
 11
113.596795762421
 21
588.2633898150714
 31
0.0
  0
LINE
  5
A2
330
9F
100
AcDbEntity
  8
BEMASSUNG
  6
Continuous
 62
     2
370
    -2
100
AcDbLine
 10
93.38215505834282
 20
540.2633898150713
 30
0.0
 11
113.596795762421
 21
540.2633898150713
 31
0.0
  0
LINE
  5
A3
330
9F
100
AcDbEntity
  8
BEMASSUNG
  6
Continuous
 62
     2
370
    -2
100
AcDbLine
 10
112.596795762421
 20
584.2633898150713
 30
0.0
 11
112.596795762421
 21
544.2633898150713
 31
0.0
  0
MTEXT
  5
A4
330
9F
100
AcDbEntity
  8
BEMASSUNG
  6
Continuous
 62
     3
100
AcDbMText
 10
108.4732397330396
 20
564.2633898150712
 30
0.0
 40
4.349999999999998
 41
0.0
 71
     5
 72
     1
  1
\A1;48
  7
ARIAL-STANDARD
 11
0.0000000000000001
 21
1.0
 31
0.0
 73
     1
 44
1.0
1001
ACAD
1000
MTEXTBEGIN
1070
    73
1070
     1
1070
    44
1040
1.0
1070
    74
1070
     0
1000
MTEXTEND
  0
SOLID
  5
A5
330
9F
100
AcDbEntity
  8
BEMASSUNG
  6
Continuous
 62
     2
100
AcDbTrace
 10
111.9301290957543
 20
584.2633898150713
 30
0.0
 11
113.2634624290876
 21
584.2633898150713
 31
0.0
 12
112.596795762421
 22
588.2633898150714
 32
0.0
 13
112.596795762421
 23
588.2633898150714
 33
0.0
  0
SOLID
  5
A6
330
9F
100
AcDbEntity
  8
BEMASSUNG
  6
Continuous
 62
     2
100
AcDbTrace
 10
111.9301290957543
 20
544.2633898150713
 30
0.0
 11
113.2634624290876
 21
544.2633898150713
 31
0.0
 12
112.596795762421
 22
540.2633898150713
 32
0.0
 13
112.596795762421
 23
540.2633898150713
 33
0.0
  0
POINT
  5
A7
330
9F
100
AcDbEntity
  8
DEFPOINTS
  6
Continuous
 62
     0
100
AcDbPoint
 10
93.38215505834282
 20
588.2633898150714
 30
0.0
  0
POINT
  5
A8
330
9F
100
AcDbEntity
  8
DEFPOINTS
  6
Continuous
 62
     0
100
AcDbPoint
 10
93.38215505834282
 20
540.2633898150713
 30
0.0
  0
POINT
  5
A9
330
9F
100
AcDbEntity
  8
DEFPOINTS
  6
Continuous
 62
     0
100
AcDbPoint
 10
112.596795762421
 20
540.2633898150713
 30
0.0
  0
ENDBLK
  5
AA
330
9F
100
AcDbEntity
  8
0
100
AcDbBlockEnd
  0
BLOCK
  5
89
330
88
100
AcDbEntity
  8
0
100
AcDbBlockBegin
  2
*D18
 70
     1
 10
0.0
 20
0.0
 30
0.0
  3
*D18
  1

  0
LINE
  5
8A
330
88
100
AcDbEntity
  8
BEMASSUNG
  6
Continuous
 62
     2
370
    -2
100
AcDbLine
 10
95.68215505821292
 20
351.8862095829697
 30
0.0
 11
95.68215505821292
 21
337.4157290620879
 31
0.0
  0
LINE
  5
8B
330
88
100
AcDbEntity
  8
BEMASSUNG
  6
Continuous
 62
     2
370
    -2
100
AcDbLine
 10
70.68215505821226
 20
349.5862095829756
 30
0.0
 11
70.68215505821226
 21
337.4157290620879
 31
0.0
  0
LINE
  5
8C
330
88
100
AcDbEntity
  8
BEMASSUNG
  6
Continuous
 62
     2
370
    -2
100
AcDbLine
 10
91.68215505821292
 20
338.4157290620878
 30
0.0
 11
74.68215505821226
 21
338.4157290620878
 31
0.0
  0
SOLID
  5
8D
330
88
100
AcDbEntity
  8
BEMASSUNG
  6
Continuous
 62
     2
100
AcDbTrace
 10
91.68215505821292
 20
339.0823957287545
 30
0.0
 11
91.68215505821292
 21
337.7490623954212
 31
0.0
 12
95.68215505821292
 22
338.4157290620878
 32
0.0
 13
95.68215505821292
 23
338.4157290620878
 33
0.0
  0
SOLID
  5
8E
330
88
100
AcDbEntity
  8
BEMASSUNG
  6
Continuous
 62
     2
100
AcDbTrace
 10
74.68215505821226
 20
339.0823957287545
 30
0.0
 11
74.68215505821226
 21
337.7490623954212
 31
0.0
 12
70.68215505821226
 22
338.4157290620878
 32
0.0
 13
70.68215505821226
 23
338.4157290620878
 33
0.0
  0
MTEXT
  5
8F
330
88
100
AcDbEntity
  8
BEMASSUNG
  6
Continuous
 62
     3
100
AcDbMText
 10
83.1821550582126
 20
341.6367215586772
 30
0.0
 40
4.349999999999998
 41
0.0
 71
     5
 72
     1
  1
\A1;25
  7
ARIAL-STANDARD
 73
     1
 44
1.0
1001
ACAD
1000
MTEXTBEGIN
1070
    73
1070
     1
1070
    44
1040
1.0
1070
    74
1070
     0
1000
MTEXTEND
  0
POINT
  5
90
330
88
100
AcDbEntity
  8
DEFPOINTS
  6
Continuous
 62
     0
100
AcDbPoint
 10
95.68215505821292
 20
351.8862095829697
 30
0.0
  0
POINT
  5
91
330
88
100
AcDbEntity
  8
DEFPOINTS
  6
Continuous
 62
     0
100
AcDbPoint
 10
70.68215505821226
 20
349.5862095829756
 30
0.0
  0
POINT
  5
92
330
88
100
AcDbEntity
  8
DEFPOINTS
  6
Continuous
 62
     0
100
AcDbPoint
 10
70.68215505821226
 20
338.4157290620878
 30
0.0
  0
ENDBLK
  5
93
330
88
100
AcDbEntity
  8
0
100
AcDbBlockEnd
  0
BLOCK
  5
7E
330
7D
100
AcDbEntity
  8
0
100
AcDbBlockBegin
  2
*D19
 70
     1
 10
0.0
 20
0.0
 30
0.0
  3
*D19
  1

  0
LINE
  5
7F
330
7D
100
AcDbEntity
  8
BEMASSUNG
  6
Continuous
 62
     2
370
    -2
100
AcDbLine
 10
63.66055064535458
 20
384.7820017866963
 30
0.0
 11
70.77476290534841
 21
395.7190209046369
 31
0.0
  0
MTEXT
  5
80
330
7D
100
AcDbEntity
  8
BEMASSUNG
  6
Continuous
 62
     3
100
AcDbMText
 10
63.43454769818411
 20
390.3254281221289
 30
0.0
 40
4.349999999999998
 41
0.0
 71
     5
 72
     1
  1
\A1;R5
  7
ARIAL-STANDARD
 11
0.5452657947771362
 21
0.8382632122705004
 31
0.0
 73
     1
 44
1.0
1001
ACAD
1000
MTEXTBEGIN
1070
    73
1070
     1
1070
    44
1040
1.0
1070
    74
1070
     0
1000
MTEXTEND
  0
LINE
  5
81
330
7D
100
AcDbEntity
  8
BEMASSUNG
  6
Continuous
 62
     2
370
    -2
100
AcDbLine
 10
75.68215505834266
 20
403.2633898150713
 30
0.0
 11
72.95582608445695
 21
399.0720737537188
 31
0.0
  0
SOLID
  5
82
330
7D
100
AcDbEntity
  8
BEMASSUNG
  6
Continuous
 62
     2
100
AcDbTrace
 10
70.21592076383476
 20
396.0825314344883
 30
0.0
 11
71.33360504686208
 21
395.3555103747855
 31
0.0
 12
72.95582608445695
 22
399.0720737537188
 32
0.0
 13
72.95582608445695
 23
399.0720737537188
 33
0.0
  0
POINT
  5
83
330
7D
100
AcDbEntity
  8
DEFPOINTS
  6
Continuous
 62
     0
100
AcDbPoint
 10
72.95582608445695
 20
399.0720737537188
 30
0.0
  0
POINT
  5
84
330
7D
100
AcDbEntity
  8
DEFPOINTS
  6
Continuous
 62
     0
100
AcDbPoint
 10
75.68215505834266
 20
403.2633898150713
 30
0.0
  0
ENDBLK
  5
85
330
7D
100
AcDbEntity
  8
0
100
AcDbBlockEnd
  0
BLOCK
  5
6D
330
6C
100
AcDbEntity
  8
0
100
AcDbBlockBegin
  2
*D20
 70
     1
 10
0.0
 20
0.0
 30
0.0
  3
*D20
  1

  0
LINE
  5
6E
330
6C
100
AcDbEntity
  8
BEMASSUNG
  6
Continuous
 62
     2
370
    -2
100
AcDbLine
 10
93.68215505822179
 20
381.5862095829688
 30
0.0
 11
93.68215505822179
 21
389.9195149007381
 31
0.0
  0
LINE
  5
6F
330
6C
100
AcDbEntity
  8
BEMASSUNG
  6
Continuous
 62
     2
370
    -2
100
AcDbLine
 10
95.68215505822179
 20
381.5862095829682
 30
0.0
 11
95.68215505822179
 21
389.9195149007381
 31
0.0
  0
LINE
  5
70
330
6C
100
AcDbEntity
  8
BEMASSUNG
  6
Continuous
 62
     2
370
    -2
100
AcDbLine
 10
89.68215505822183
 20
388.9195149007381
 30
0.0
 11
85.68215505822179
 21
388.9195149007381
 31
0.0
  0
LINE
  5
71
330
6C
100
AcDbEntity
  8
BEMASSUNG
  6
Continuous
 62
     2
370
    -2
100
AcDbLine
 10
99.68215505822179
 20
388.9195149007381
 30
0.0
 11
103.6821550582218
 21
388.9195149007381
 31
0.0
  0
LINE
  5
72
330
6C
100
AcDbEntity
  8
BEMASSUNG
  6
Continuous
 62
     2
370
    -2
100
AcDbLine
 10
93.68215505822179
 20
388.9195149007381
 30
0.0
 11
95.68215505822179
 21
388.9195149007381
 31
0.0
  0
SOLID
  5
73
330
6C
100
AcDbEntity
  8
BEMASSUNG
  6
Continuous
 62
     2
100
AcDbTrace
 10
89.68215505822183
 20
389.5861815674048
 30
0.0
 11
89.68215505822183
 21
388.2528482340715
 31
0.0
 12
93.68215505822179
 22
388.9195149007381
 32
0.0
 13
93.68215505822179
 23
388.9195149007381
 33
0.0
  0
SOLID
  5
74
330
6C
100
AcDbEntity
  8
BEMASSUNG
  6
Continuous
 62
     2
100
AcDbTrace
 10
99.68215505822179
 20
389.5861815674048
 30
0.0
 11
99.68215505822179
 21
388.2528482340715
 31
0.0
 12
95.68215505822179
 22
388.9195149007381
 32
0.0
 13
95.68215505822179
 23
388.9195149007381
 33
0.0
  0
MTEXT
  5
75
330
6C
100
AcDbEntity
  8
BEMASSUNG
  6
Continuous
 62
     3
100
AcDbMText
 10
94.68215505822179
 20
392.1034166742716
 30
0.0
 40
4.349999999999998
 41
0.0
 71
     5
 72
     1
  1
\A1;2
  7
ARIAL-STANDARD
 73
     1
 44
1.0
1001
ACAD
1000
MTEXTBEGIN
1070
    73
1070
     1
1070
    44
1040
1.0
1070
    74
1070
     0
1000
MTEXTEND
  0
POINT
  5
76
330
6C
100
AcDbEntity
  8
DEFPOINTS
  6
Continuous
 62
     0
100
AcDbPoint
 10
93.68215505822179
 20
381.5862095829688
 30
0.0
  0
POINT
  5
78
330
6C
100
AcDbEntity
  8
DEFPOINTS
  6
Continuous
 62
     0
100
AcDbPoint
 10
95.68215505822179
 20
381.5862095829682
 30
0.0
  0
POINT
  5
79
330
6C
100
AcDbEntity
  8
DEFPOINTS
  6
Continuous
 62
     0
100
AcDbPoint
 10
95.68215505822179
 20
388.9195149007381
 30
0.0
  0
ENDBLK
  5
7A
330
6C
100
AcDbEntity
  8
0
100
AcDbBlockEnd
  0
BLOCK
  5
263
330
262
100
AcDbEntity
  8
0
100
AcDbBlockBegin
  2
_ACMFILLED30
 70
     0
 10
0.0
 20
0.0
 30
0.0
  3
_ACMFILLED30
  1

  0
TRACE
  5
264
330
262
100
AcDbEntity
  8
0
 62
     0
100
AcDbTrace
 10
-1.0
 20
-0.26794919
 30
0.0
 11
-1.0
 21
0.26794919
 31
0.0
 12
0.0
 22
0.0
 32
0.0
 13
0.0
 23
0.0
 33
0.0
  0
ENDBLK
  5
265
330
262
100
AcDbEntity
  8
0
100
AcDbBlockEnd
  0
ENDSEC
  0
SECTION
  2
ENTITIES
  0
DIMENSION
  5
68
330
2
100
AcDbEntity
  8
BEMASSUNG
  6
Continuous
100
AcDbDimension
  2
*D20
 10
95.68215505822179
 20
388.9195149007381
 30
0.0
 11
94.68215505822179
 21
392.1034166742716
 31
0.0
 71
     5
 42
2.0
  3
Katalog 09
100
AcDbAlignedDimension
 13
93.68215505822179
 23
381.5862095829688
 33
0.0
 14
95.68215505822179
 24
381.5862095829682
 34
0.0
100
AcDbRotatedDimension
1001
ACAD_DSTYLE_DIMINSPECT
1070
   396
1000
100%
1070
   395
1000

1070
   394
1070
    33
1070
   393
1070
     0
  0
DIMENSION
  5
7C
330
2
100
AcDbEntity
  8
BEMASSUNG
  6
Continuous
100
AcDbDimension
  2
*D19
 10
75.68215505834266
 20
403.2633898150713
 30
0.0
 11
63.43454769818411
 21
390.3254281221289
 31
0.0
 70
     4
 71
     5
 42
5.000000000000056
  3
Katalog 09
100
AcDbRadialDimension
 15
72.95582608445695
 25
399.0720737537188
 35
0.0
 40
0.0
1001
ACAD_DSTYLE_DIMRADIAL_EXTENSION
1070
   387
1070
     1
1070
   388
1040
3.141592653589792
1070
   390
1040
4.712388980384688
1001
ACAD_DSTYLE_DIMINSPECT
1070
   396
1000
100%
1070
   395
1000

1070
   394
1070
    33
1070
   393
1070
     0
  0
DIMENSION
  5
87
330
2
100
AcDbEntity
  8
BEMASSUNG
  6
Continuous
100
AcDbDimension
  2
*D18
 10
70.68215505821226
 20
338.4157290620878
 30
0.0
 11
83.1821550582126
 21
341.6367215586772
 31
0.0
 71
     5
 42
25.00000000000068
  3
Katalog 09
100
AcDbAlignedDimension
 13
95.68215505821292
 23
351.8862095829697
 33
0.0
 14
70.68215505821226
 24
349.5862095829756
 34
0.0
100
AcDbRotatedDimension
1001
ACAD_DSTYLE_DIMINSPECT
1070
   396
1000
100%
1070
   395
1000

1070
   394
1070
    33
1070
   393
1070
     0
  0
LINE
  5
94
330
2
100
AcDbEntity
  8
ACHSEN
100
AcDbLine
 10
165.5540498794649
 20
486.2633898150711
 30
0.0
 11
185.2540498794649
 21
486.2633898150711
 31
0.0
  0
LINE
  5
99
330
2
100
AcDbEntity
  8
ACHSEN
100
AcDbLine
 10
165.5540498794649
 20
564.2633898150712
 30
0.0
 11
185.2540498794649
 21
564.2633898150712
 31
0.0
  0
LINE
  5
9A
330
2
100
AcDbEntity
  8
ACHSEN
100
AcDbLine
 10
84.182155058343
 20
466.5133898150712
 30
0.0
 11
84.182155058343
 21
453.5133898150712
 31
0.0
  0
LINE
  5
9B
330
2
100
AcDbEntity
  8
ACHSEN
100
AcDbLine
 10
90.68215505834299
 20
460.0133898150712
 30
0.0
 11
77.682155058343
 21
460.0133898150712
 31
0.0
  0
LINE
  5
9C
330
2
100
AcDbEntity
  8
ACHSEN
100
AcDbLine
 10
84.18215505834334
 20
517.0133898150713
 30
0.0
 11
84.18215505834334
 21
508.0133898150712
 31
0.0
  0
LINE
  5
9D
330
2
100
AcDbEntity
  8
ACHSEN
100
AcDbLine
 10
88.68215505834333
 20
512.5133898150713
 30
0.0
 11
79.68215505834334
 21
512.5133898150713
 31
0.0
  0
DIMENSION
  5
9E
330
2
100
AcDbEntity
  8
BEMASSUNG
  6
Continuous
100
AcDbDimension
  2
*D17
 10
112.596795762421
 20
540.2633898150713
 30
0.0
 11
108.4732397330396
 21
564.2633898150712
 31
0.0
 70
   128
  1
<>
 71
     5
 42
48.0
  3
Katalog 09
100
AcDbAlignedDimension
 13
93.38215505834282
 23
588.2633898150714
 33
0.0
 14
93.38215505834282
 24
540.2633898150713
 34
0.0
 50
90.0
100
AcDbRotatedDimension
1001
ACAD_DSTYLE_DIMINSPECT
1070
   396
1000
100%
1070
   395
1000

1070
   394
1070
    33
1070
   393
1070
     0
  0
DIMENSION
  5
AB
330
2
100
AcDbEntity
  8
BEMASSUNG
  6
Continuous
100
AcDbDimension
  2
*D16
 10
185.0540498794512
 20
550.8068759362986
 30
0.0
 11
176.5540498794581
 21
550.8068759362986
 31
0.0
 70
   128
  1
<>
 71
     5
 42
16.99999999998624
  3
Katalog 09
100
AcDbAlignedDimension
 13
168.0540498794649
 23
561.6289289904926
 33
0.0
 14
185.0540498794512
 24
561.6289289904926
 34
0.0
100
AcDbRotatedDimension
1001
ACAD_DSTYLE_DIMINSPECT
1070
   396
1000
100%
1070
   395
1000

1070
   394
1070
    33
1070
   393
1070
     0
  0
DIMENSION
  5
B9
330
2
100
AcDbEntity
  8
BEMASSUNG
  6
Continuous
100
AcDbDimension
  2
*D15
 10
130.7369786783258
 20
398.2633898150713
 30
0.0
 11
126.5746270275773
 21
444.9948128672057
 31
0.0
 70
   128
  1
<>
 71
     5
 42
88.0
  3
Katalog 09
100
AcDbAlignedDimension
 13
97.67671648384443
 23
486.2633898150713
 33
0.0
 14
93.38215505834291
 24
398.2633898150714
 34
0.0
 50
90.0
100
AcDbRotatedDimension
1001
ACAD_DSTYLE_DIMINSPECT
1070
   396
1000
100%
1070
   395
1000

1070
   394
1070
    33
1070
   393
1070
     0
  0
DIMENSION
  5
C6
330
2
100
AcDbEntity
  8
BEMASSUNG
  6
Continuous
100
AcDbDimension
  2
*D14
 10
130.7369786783259
 20
486.2633898150713
 30
0.0
 11
126.3674997396332
 21
525.2633898150714
 31
0.0
 70
   128
  1
<>
 71
     5
 42
78.0
  3
Katalog 09
100
AcDbAlignedDimension
 13
97.64682275820096
 23
564.2633898150712
 33
0.0
 14
95.68215505834787
 24
486.2633898150713
 34
0.0
 50
90.0
100
AcDbRotatedDimension
1001
ACAD_DSTYLE_DIMINSPECT
1070
   396
1000
100%
1070
   395
1000

1070
   394
1070
    33
1070
   393
1070
     0
  0
LINE
  5
D3
330
2
100
AcDbEntity
  8
ACHSEN
100
AcDbLine
 10
75.68215505834276
 20
486.2633898150713
 30
0.0
 11
97.67671648384443
 21
486.2633898150713
 31
0.0
  0
DIMENSION
  5
D4
330
2
100
AcDbEntity
  8
BEMASSUNG
  6
Continuous
100
AcDbDimension
  2
*D13
 10
130.7369786783259
 20
564.2633898150712
 30
0.0
 11
126.3378417309187
 21
608.2633898150714
 31
0.0
 70
   128
  1
<>
 71
     5
 42
88.0
  3
Katalog 09
100
AcDbAlignedDimension
 13
93.38215505834282
 23
652.2633898150712
 33
0.0
 14
97.64682275820096
 24
564.2633898150712
 34
0.0
 50
270.0
100
AcDbRotatedDimension
1001
ACAD_DSTYLE_DIMINSPECT
1070
   396
1000
100%
1070
   395
1000

1070
   394
1070
    33
1070
   393
1070
     0
  0
DIMENSION
  5
E1
330
2
100
AcDbEntity
  8
BEMASSUNG
  6
Continuous
100
AcDbDimension
  2
*D12
 10
144.9115708803272
 20
637.0133898150712
 30
0.0
 11
139.0820340506294
 21
644.7565726002285
 31
0.0
 70
   128
  1
<>
 71
     5
 42
15.25
  3
Katalog 09
100
AcDbAlignedDimension
 13
158.0540498794649
 23
652.2633898150711
 33
0.0
 14
159.1040498794649
 24
637.0133898150712
 34
0.0
 50
90.0
100
AcDbRotatedDimension
1001
ACAD_DSTYLE_DIMINSPECT
1070
   396
1000
100%
1070
   395
1000

1070
   394
1070
    33
1070
   393
1070
     0
  0
DIMENSION
  5
EE
330
2
100
AcDbEntity
  8
BEMASSUNG
  6
Continuous
100
AcDbDimension
  2
*D11
 10
144.9115708803272
 20
637.0133898150712
 30
0.0
 11
140.8525124202189
 21
524.9302047583563
 31
0.0
 70
   128
  1
<>
 71
     5
 42
223.4999999999998
  3
Katalog 09
100
AcDbAlignedDimension
 13
157.1040498794661
 23
413.5133898150711
 33
0.0
 14
159.1040498794649
 24
637.0133898150712
 34
0.0
 50
90.0
100
AcDbRotatedDimension
1001
ACAD_DSTYLE_DIMINSPECT
1070
   396
1000
100%
1070
   395
1000

1070
   394
1070
    33
1070
   393
1070
     0
  0
LINE
  5
FB
330
2
100
AcDbEntity
  8
ACHSEN
100
AcDbLine
 10
161.8540498794649
 20
418.7633898150711
 30
0.0
 11
161.8540498794649
 21
408.2633898150712
 31
0.0
  0
LINE
  5
FC
330
2
100
AcDbEntity
  8
ACHSEN
100
AcDbLine
 10
167.1040498794649
 20
413.5133898150711
 30
0.0
 11
156.6040498794649
 21
413.5133898150711
 31
0.0
  0
LINE
  5
FD
330
2
100
AcDbEntity
  8
ACHSEN
100
AcDbLine
 10
161.8540498794649
 20
642.2633898150711
 30
0.0
 11
161.8540498794649
 21
631.7633898150711
 31
0.0
  0
LINE
  5
FE
330
2
100
AcDbEntity
  8
ACHSEN
100
AcDbLine
 10
167.1040498794649
 20
637.0133898150712
 30
0.0
 11
156.6040498794649
 21
637.0133898150712
 31
0.0
  0
DIMENSION
  5
FF
330
2
100
AcDbEntity
  8
BEMASSUNG
  6
Continuous
100
AcDbDimension
  2
*D10
 10
56.45461370105428
 20
652.2633898150712
 30
0.0
 11
52.26023139286795
 21
643.5930310517895
 31
0.0
 70
   128
  1
<>
 71
     5
 42
10.25
  3
Katalog 09
100
AcDbAlignedDimension
 13
76.47105019369473
 23
642.0133898150712
 33
0.0
 14
75.68215505834266
 24
652.2633898150712
 34
0.0
 50
270.0
100
AcDbRotatedDimension
1001
ACAD_DSTYLE_DIMINSPECT
1070
   396
1000
100%
1070
   395
1000

1070
   394
1070
    33
1070
   393
1070
     0
  0
DIMENSION
  5
10C
330
2
100
AcDbEntity
  8
BEMASSUNG
  6
Continuous
100
AcDbDimension
  2
*D9
 10
56.45461370105422
 20
408.5133898150713
 30
0.0
 11
51.65789473655824
 21
526.6104527975502
 31
0.0
 70
   128
  1
<>
 71
     5
 42
233.5
  3
Katalog 09
100
AcDbAlignedDimension
 13
77.63215505834327
 23
642.0133898150712
 33
0.0
 14
75.6321550583427
 24
408.5133898150713
 34
0.0
 50
90.0
100
AcDbRotatedDimension
1001
ACAD_DSTYLE_DIMINSPECT
1070
   396
1000
100%
1070
   395
1000

1070
   394
1070
    33
1070
   393
1070
     0
  0
DIMENSION
  5
119
330
2
100
AcDbEntity
  8
BEMASSUNG
  6
Continuous
100
AcDbDimension
  2
*D8
 10
80.38215505834271
 20
658.5133898150711
 30
0.0
 11
89.50694198390706
 21
662.3022106171617
 31
0.0
 70
   128
  1
<>
 71
     5
 42
15.30000000000075
  3
Katalog 09
100
AcDbAlignedDimension
 13
95.68215505834343
 23
652.2633898150711
 33
0.0
 14
80.38215505834271
 24
649.2633898150714
 34
0.0
100
AcDbRotatedDimension
1001
ACAD_DSTYLE_DIMINSPECT
1070
   396
1000
100%
1070
   395
1000

1070
   394
1070
    33
1070
   393
1070
     0
  0
DIMENSION
  5
126
330
2
100
AcDbEntity
  8
BEMASSUNG
  6
Continuous
100
AcDbDimension
  2
*D7
 10
95.68215505834343
 20
612.0076015661161
 30
0.0
 11
104.5762546746435
 21
612.0076015661161
 31
0.0
 70
   128
  1
<>
 71
     5
 42
11.50000000000068
  3
Katalog 09
100
AcDbAlignedDimension
 13
84.18215505834275
 23
597.0133898150712
 33
0.0
 14
95.68215505834343
 24
609.6666229427738
 34
0.0
 50
180.0
100
AcDbRotatedDimension
1001
ACAD_DSTYLE_DIMINSPECT
1070
   396
1000
100%
1070
   395
1000

1070
   394
1070
    33
1070
   393
1070
     0
  0
LINE
  5
133
330
2
100
AcDbEntity
  8
ACHSEN
100
AcDbLine
 10
80.38215505834271
 20
415.7633898150713
 30
0.0
 11
80.38215505834271
 21
401.2633898150713
 31
0.0
  0
LINE
  5
134
330
2
100
AcDbEntity
  8
ACHSEN
100
AcDbLine
 10
87.63215505834281
 20
408.5133898150713
 30
0.0
 11
73.1321550583427
 21
408.5133898150713
 31
0.0
  0
LINE
  5
135
330
2
100
AcDbEntity
  8
ACHSEN
100
AcDbLine
 10
84.18215505834288
 20
544.5133898150714
 30
0.0
 11
84.18215505834288
 21
531.5133898150714
 31
0.0
  0
LINE
  5
136
330
2
100
AcDbEntity
  8
ACHSEN
100
AcDbLine
 10
90.68215505834286
 20
538.0133898150713
 30
0.0
 11
77.68215505834287
 21
538.0133898150713
 31
0.0
  0
LINE
  5
137
330
2
100
AcDbEntity
  8
ACHSEN
100
AcDbLine
 10
80.38215505834271
 20
649.2633898150714
 30
0.0
 11
80.38215505834271
 21
634.7633898150712
 31
0.0
  0
LINE
  5
138
330
2
100
AcDbEntity
  8
ACHSEN
100
AcDbLine
 10
87.63215505834271
 20
642.0133898150712
 30
0.0
 11
73.1321550583427
 21
642.0133898150712
 31
0.0
  0
LINE
  5
139
330
2
100
AcDbEntity
  8
ACHSEN
100
AcDbLine
 10
84.18215505834275
 20
597.0133898150712
 30
0.0
 11
84.18215505834275
 21
584.0133898150712
 31
0.0
  0
LINE
  5
13A
330
2
100
AcDbEntity
  8
ACHSEN
100
AcDbLine
 10
90.68215505834286
 20
590.5133898150713
 30
0.0
 11
77.68215505834276
 21
590.5133898150713
 31
0.0
  0
LINE
  5
13B
330
2
100
AcDbEntity
  8
ACHSEN
100
AcDbLine
 10
80.38215505821353
 20
354.0862095829711
 30
0.0
 11
80.38215505821153
 21
347.0862095829712
 31
0.0
  0
LINE
  5
13C
330
2
100
AcDbEntity
  8
ACHSEN
100
AcDbLine
 10
91.1821550582192
 20
372.7862095829665
 30
0.0
 11
98.18215505821921
 21
372.7862095829644
 31
0.0
  0
LINE
  5
13D
330
2
100
AcDbEntity
  8
ACHSEN
100
AcDbLine
 10
91.18215505834982
 20
413.5133898150713
 30
0.0
 11
98.18215505834984
 21
413.5133898150713
 31
0.0
  0
LINE
  5
13E
330
2
100
AcDbEntity
  8
ACHSEN
100
AcDbLine
 10
91.18215505834973
 20
637.0133898150712
 30
0.0
 11
98.1821550583497
 21
637.0133898150712
 31
0.0
  0
DIMENSION
  5
13F
330
2
100
AcDbEntity
  8
BEMASSUNG
  6
Continuous
100
AcDbDimension
  2
*D6
 10
144.9115708803272
 20
413.5133898150711
 30
0.0
 11
140.3933538107773
 21
405.0128629524385
 31
0.0
 70
   128
  1
<>
 71
     5
 42
15.25
  3
Katalog 09
100
AcDbAlignedDimension
 13
158.0540498794649
 23
398.2633898150713
 33
0.0
 14
161.8540498794661
 24
413.5133898150711
 34
0.0
 50
270.0
100
AcDbRotatedDimension
1001
ACAD_DSTYLE_DIMINSPECT
1070
   396
1000
100%
1070
   395
1000

1070
   394
1070
    33
1070
   393
1070
     0
  0
LINE
  5
14C
330
2
100
AcDbEntity
  8
UMRISS05
100
AcDbLine
 10
86.76794149596977
 20
586.2633898150712
 30
0.0
 11
88.18215505834286
 21
586.2633898150712
 31
0.0
  0
DIMENSION
  5
150
330
2
100
AcDbEntity
  8
BEMASSUNG
  6
Continuous
100
AcDbDimension
  2
*D5
 10
121.9992975109102
 20
538.0133898150713
 30
0.0
 11
118.2968649330847
 21
564.2633898150712
 31
0.0
 70
   128
  1
<>
 71
     5
 42
52.5
  3
Katalog 09
100
AcDbAlignedDimension
 13
84.18215505834275
 23
590.5133898150713
 33
0.0
 14
84.18215505834288
 24
538.0133898150713
 34
0.0
 50
90.0
100
AcDbRotatedDimension
1001
ACAD_DSTYLE_DIMINSPECT
1070
   396
1000
100%
1070
   395
1000

1070
   394
1070
    33
1070
   393
1070
     0
  0
DIMENSION
  5
15D
330
2
100
AcDbEntity
  8
BEMASSUNG
  6
Continuous
100
AcDbDimension
  2
*D4
 10
56.48215505834278
 20
408.5133898150713
 30
0.0
 11
51.21572782194895
 21
406.2515463460431
 31
0.0
 70
   128
  1
<>
 71
     5
 42
10.25000000000011
  3
Katalog 09
100
AcDbAlignedDimension
 13
75.68215505834276
 23
398.2633898150713
 33
0.0
 14
80.38215505834271
 24
408.5133898150713
 34
0.0
 50
90.0
100
AcDbRotatedDimension
1001
ACAD_DSTYLE_DIMINSPECT
1070
   396
1000
100%
1070
   395
1000

1070
   394
1070
    33
1070
   393
1070
     0
  0
DIMENSION
  5
16A
330
2
100
AcDbEntity
  8
BEMASSUNG
  6
Continuous
100
AcDbDimension
  2
*D3
 10
105.5454963315393
 20
349.5862095829703
 30
0.0
 11
101.5018080604451
 21
365.4914792352281
 31
0.0
 70
   128
  1
<>
 71
     5
 42
31.99999999999784
  3
Katalog 09
100
AcDbAlignedDimension
 13
95.68215505822179
 23
381.5862095829682
 33
0.0
 14
93.38215505821242
 24
349.5862095829703
 34
0.0
 50
90.0
100
AcDbRotatedDimension
1001
ACAD_DSTYLE_DIMINSPECT
1070
   396
1000
100%
1070
   395
1000

1070
   394
1070
    33
1070
   393
1070
     0
  0
LINE
  5
177
330
2
100
AcDbEntity
  8
AVERDECKTE
100
AcDbLine
 10
82.18215505821294
 20
351.5862095829553
 30
0.0
 11
80.18215505821236
 21
349.586209582956
 31
0.0
  0
LINE
  5
17C
330
2
100
AcDbEntity
  8
AVERDECKTE
100
AcDbLine
 10
86.18215505821295
 20
351.5862095829541
 30
0.0
 11
88.18215505821237
 21
349.5862095829536
 31
0.0
  0
LINE
  5
17D
330
2
100
AcDbEntity
  8
AVERDECKTE
100
AcDbLine
 10
77.63215505821276
 20
351.5862095829721
 30
0.0
 11
75.63215505821219
 21
349.5862095829726
 31
0.0
  0
LINE
  5
17E
330
2
100
AcDbEntity
  8
AVERDECKTE
100
AcDbLine
 10
83.13215505821274
 20
351.5862095829703
 30
0.0
 11
85.1321550582122
 21
349.5862095829699
 31
0.0
  0
LINE
  5
17F
330
2
100
AcDbEntity
  8
AVERDECKTE
100
AcDbLine
 10
93.6821550582184
 20
370.0362095829657
 30
0.0
 11
95.68215505821784
 21
368.0362095829652
 31
0.0
  0
LINE
  5
180
330
2
100
AcDbEntity
  8
AVERDECKTE
100
AcDbLine
 10
93.68215505821998
 20
375.5362095829657
 30
0.0
 11
95.68215505822069
 21
377.5362095829652
 31
0.0
  0
LINE
  5
181
330
2
100
AcDbEntity
  8
AVERDECKTE
100
AcDbLine
 10
95.68215505821738
 20
366.5862095829507
 30
0.0
 11
93.68215505821735
 21
366.5862095829514
 31
0.0
  0
LINE
  5
182
330
2
100
AcDbEntity
  8
UMRISS05
100
AcDbLine
 10
93.68215505821295
 20
351.8862095829703
 30
0.0
 11
93.68215505822034
 21
376.5862095829703
 31
0.0
  0
LINE
  5
183
330
2
100
AcDbEntity
  8
UMRISS05
100
AcDbLine
 10
95.68215505822031
 20
376.5862095829697
 30
0.0
 11
95.68215505821292
 21
351.8862095829697
 31
0.0
  0
ARC
  5
184
330
2
100
AcDbEntity
  8
UMRISS05
100
AcDbCircle
 10
93.38215505821301
 20
351.8862095829704
 30
0.0
 40
0.3000000000000085
100
AcDbArc
 50
269.9999999999935
 51
0.0
  0
ARC
  5
185
330
2
100
AcDbEntity
  8
UMRISS05
100
AcDbCircle
 10
93.38215505821301
 20
351.8862095829703
 30
0.0
 40
2.299999999999998
100
AcDbArc
 50
269.999999999987
 51
0.0
  0
LINE
  5
186
330
2
100
AcDbEntity
  8
UMRISS05
100
AcDbLine
 10
75.68215505821226
 20
349.5862095829756
 30
0.0
 11
93.3821550582123
 21
349.5862095829703
 31
0.0
  0
LINE
  5
187
330
2
100
AcDbEntity
  8
UMRISS05
100
AcDbLine
 10
93.38215505821301
 20
351.5862095829703
 30
0.0
 11
75.68215505821282
 21
351.5862095829756
 31
0.0
  0
LINE
  5
188
330
2
100
AcDbEntity
  8
AVERDECKTE
100
AcDbLine
 10
77.18215505821238
 20
349.5862095829553
 30
0.0
 11
77.18215505821294
 21
351.5862095829553
 31
0.0
  0
LINE
  5
189
330
2
100
AcDbEntity
  8
AVERDECKTE
100
AcDbLine
 10
78.18215505821237
 20
349.5862095829521
 30
0.0
 11
78.18215505821294
 21
351.5862095829521
 31
0.0
  0
LINE
  5
18A
330
2
100
AcDbEntity
  8
UMRISS05
100
AcDbLine
 10
93.68215505822034
 20
376.5862095829703
 30
0.0
 11
93.68215505822179
 21
381.5862095829688
 31
0.0
  0
LINE
  5
18B
330
2
100
AcDbEntity
  8
UMRISS05
100
AcDbLine
 10
95.68215505822179
 20
381.5862095829682
 30
0.0
 11
93.68215505822179
 21
381.5862095829688
 31
0.0
  0
LINE
  5
18C
330
2
100
AcDbEntity
  8
UMRISS05
100
AcDbLine
 10
95.68215505822179
 20
381.5862095829682
 30
0.0
 11
95.68215505822031
 21
376.5862095829697
 31
0.0
  0
LINE
  5
18D
330
2
100
AcDbEntity
  8
UMRISS05
100
AcDbLine
 10
70.68215505821282
 20
351.5862095829756
 30
0.0
 11
70.68215505821226
 21
349.5862095829756
 31
0.0
  0
LINE
  5
18E
330
2
100
AcDbEntity
  8
UMRISS05
100
AcDbLine
 10
75.68215505821226
 20
349.5862095829756
 30
0.0
 11
70.68215505821226
 21
349.5862095829756
 31
0.0
  0
LINE
  5
18F
330
2
100
AcDbEntity
  8
UMRISS05
100
AcDbLine
 10
70.68215505821282
 20
351.5862095829756
 30
0.0
 11
75.68215505821282
 21
351.5862095829756
 31
0.0
  0
LINE
  5
190
330
2
100
AcDbEntity
  8
AVERDECKTE
100
AcDbLine
 10
183.0540498794592
 20
588.5133898150711
 30
0.0
 11
185.0540498794593
 21
586.5133898150711
 31
0.0
  0
LINE
  5
191
330
2
100
AcDbEntity
  8
AVERDECKTE
100
AcDbLine
 10
183.0540498794592
 20
592.5133898150711
 30
0.0
 11
185.0540498794592
 21
594.5133898150711
 31
0.0
  0
LINE
  5
192
330
2
100
AcDbEntity
  8
AVERDECKTE
100
AcDbLine
 10
183.0540498794593
 20
536.0133898150714
 30
0.0
 11
185.0540498794593
 21
534.0133898150711
 31
0.0
  0
LINE
  5
193
330
2
100
AcDbEntity
  8
AVERDECKTE
100
AcDbLine
 10
183.0540498794593
 20
540.0133898150711
 30
0.0
 11
185.0540498794593
 21
542.0133898150711
 31
0.0
  0
LINE
  5
194
330
2
100
AcDbEntity
  8
AVERDECKTE
100
AcDbLine
 10
183.0540498794593
 20
458.0133898150712
 30
0.0
 11
185.0540498794593
 21
456.0133898150712
 31
0.0
  0
LINE
  5
195
330
2
100
AcDbEntity
  8
AVERDECKTE
100
AcDbLine
 10
183.0540498794593
 20
462.0133898150711
 30
0.0
 11
185.0540498794593
 21
464.0133898150712
 31
0.0
  0
LINE
  5
196
330
2
100
AcDbEntity
  8
AVERDECKTE
100
AcDbLine
 10
183.0540498794593
 20
510.5133898150712
 30
0.0
 11
185.0540498794593
 21
508.5133898150711
 31
0.0
  0
LINE
  5
197
330
2
100
AcDbEntity
  8
AVERDECKTE
100
AcDbLine
 10
183.0540498794593
 20
514.5133898150711
 30
0.0
 11
185.0540498794593
 21
516.5133898150711
 31
0.0
  0
LINE
  5
198
330
2
100
AcDbEntity
  8
AVERDECKTE
100
AcDbLine
 10
183.0540498794571
 20
639.2633898150712
 30
0.0
 11
185.0540498794571
 21
637.2633898150711
 31
0.0
  0
LINE
  5
199
330
2
100
AcDbEntity
  8
AVERDECKTE
100
AcDbLine
 10
183.0540498794571
 20
644.7633898150711
 30
0.0
 11
185.0540498794571
 21
646.7633898150711
 31
0.0
  0
LINE
  5
19A
330
2
100
AcDbEntity
  8
AVERDECKTE
100
AcDbLine
 10
183.0540498794571
 20
405.7633898150712
 30
0.0
 11
185.0540498794571
 21
403.763389815071
 31
0.0
  0
LINE
  5
19B
330
2
100
AcDbEntity
  8
AVERDECKTE
100
AcDbLine
 10
183.0540498794571
 20
411.263389815071
 30
0.0
 11
185.0540498794571
 21
413.2633898150711
 31
0.0
  0
LINE
  5
19C
330
2
100
AcDbEntity
  8
UMRISS05
100
AcDbLine
 10
185.0540498794514
 20
403.2633898150711
 30
0.0
 11
185.0540498794512
 21
647.2633898150712
 31
0.0
  0
LINE
  5
19D
330
2
100
AcDbEntity
  8
UMRISS05
100
AcDbLine
 10
183.0540498794512
 20
647.2633898150712
 30
0.0
 11
183.0540498794514
 21
403.2633898150711
 31
0.0
  0
LINE
  5
19E
330
2
100
AcDbEntity
  8
UMRISS05
100
AcDbLine
 10
168.0540498794649
 20
588.2633898150711
 30
0.0
 11
182.7540498794649
 21
588.2633898150711
 31
0.0
  0
LINE
  5
19F
330
2
100
AcDbEntity
  8
UMRISS05
100
AcDbLine
 10
168.0540498794649
 20
540.2633898150711
 30
0.0
 11
168.0540498794649
 21
588.2633898150711
 31
0.0
  0
LINE
  5
1A0
330
2
100
AcDbEntity
  8
UMRISS05
100
AcDbLine
 10
182.7540498794649
 20
540.2633898150711
 30
0.0
 11
168.0540498794649
 21
540.2633898150711
 31
0.0
  0
LINE
  5
1A1
330
2
100
AcDbEntity
  8
UMRISS05
100
AcDbLine
 10
168.0540498794649
 20
510.2633898150711
 30
0.0
 11
182.7540498794649
 21
510.2633898150711
 31
0.0
  0
LINE
  5
1A2
330
2
100
AcDbEntity
  8
UMRISS05
100
AcDbLine
 10
168.0540498794649
 20
462.2633898150712
 30
0.0
 11
168.0540498794649
 21
510.2633898150711
 31
0.0
  0
LINE
  5
1A3
330
2
100
AcDbEntity
  8
UMRISS05
100
AcDbLine
 10
182.7540498794649
 20
462.2633898150712
 30
0.0
 11
168.0540498794649
 21
462.2633898150712
 31
0.0
  0
LINE
  5
1A4
330
2
100
AcDbEntity
  8
UMRISS05
100
AcDbLine
 10
153.0540498794649
 20
647.2633898150712
 30
0.0
 11
153.0540498794649
 21
403.2633898150711
 31
0.0
  0
LINE
  5
1A5
330
2
100
AcDbEntity
  8
UMRISS05
100
AcDbLine
 10
182.7540498794649
 20
652.2633898150711
 30
0.0
 11
158.0540498794649
 21
652.2633898150711
 31
0.0
  0
LINE
  5
1A6
102
{ACAD_REACTORS
330
288
102
}
330
2
100
AcDbEntity
  8
UMRISS05
100
AcDbLine
 10
158.0540498794649
 20
398.2633898150711
 30
0.0
 11
182.7540498794649
 21
398.2633898150711
 31
0.0
  0
LINE
  5
1A7
330
2
100
AcDbEntity
  8
AVERDECKTE
100
AcDbLine
 10
182.7540498794649
 20
588.2633898150711
 30
0.0
 11
183.0540498794647
 21
588.2633898150711
 31
0.0
  0
LINE
  5
1A8
330
2
100
AcDbEntity
  8
AVERDECKTE
100
AcDbLine
 10
182.7540498794649
 20
510.2633898150711
 30
0.0
 11
183.0540498794647
 21
510.2633898150711
 31
0.0
  0
LINE
  5
1A9
330
2
100
AcDbEntity
  8
AVERDECKTE
100
AcDbLine
 10
183.0540498794647
 20
462.263389815071
 30
0.0
 11
182.7540498794649
 21
462.263389815071
 31
0.0
  0
LINE
  5
1AA
330
2
100
AcDbEntity
  8
AVERDECKTE
100
AcDbLine
 10
183.0540498794647
 20
540.2633898150711
 30
0.0
 11
182.7540498794649
 21
540.2633898150711
 31
0.0
  0
LINE
  5
1AB
330
2
100
AcDbEntity
  8
UMRISS05
100
AcDbLine
 10
183.0540498794647
 20
652.2633898150711
 30
0.0
 11
182.7540498794649
 21
652.2633898150711
 31
0.0
  0
LINE
  5
1AC
330
2
100
AcDbEntity
  8
UMRISS05
100
AcDbLine
 10
183.0540498794647
 20
398.2633898150713
 30
0.0
 11
182.7540498794649
 21
398.2633898150713
 31
0.0
  0
LINE
  5
1AD
330
2
100
AcDbEntity
  8
AVERDECKTE
100
AcDbLine
 10
183.0540498794557
 20
586.2633898150711
 30
0.0
 11
185.0540498794557
 21
586.2633898150711
 31
0.0
  0
LINE
  5
1AE
330
2
100
AcDbEntity
  8
AVERDECKTE
100
AcDbLine
 10
183.0540498794554
 20
474.7633898150712
 30
0.0
 11
185.0540498794554
 21
474.7633898150712
 31
0.0
  0
LINE
  5
1AF
330
2
100
AcDbEntity
  8
AVERDECKTE
100
AcDbLine
 10
185.0540498794557
 20
464.2633898150712
 30
0.0
 11
183.0540498794557
 21
464.2633898150712
 31
0.0
  0
LINE
  5
1B0
330
2
100
AcDbEntity
  8
AVERDECKTE
100
AcDbLine
 10
183.0540498794625
 20
510.2633898150711
 30
0.0
 11
185.0540498794625
 21
510.2633898150711
 31
0.0
  0
LINE
  5
1B1
330
2
100
AcDbEntity
  8
AVERDECKTE
100
AcDbLine
 10
183.0540498794557
 20
508.2633898150712
 30
0.0
 11
185.0540498794557
 21
508.2633898150712
 31
0.0
  0
LINE
  5
1B2
330
2
100
AcDbEntity
  8
AVERDECKTE
100
AcDbLine
 10
185.0540498794554
 20
497.7633898150711
 30
0.0
 11
183.0540498794554
 21
497.7633898150711
 31
0.0
  0
LINE
  5
1B3
330
2
100
AcDbEntity
  8
AVERDECKTE
100
AcDbLine
 10
185.0540498794625
 20
462.263389815071
 30
0.0
 11
183.0540498794625
 21
462.263389815071
 31
0.0
  0
LINE
  5
1B4
330
2
100
AcDbEntity
  8
AVERDECKTE
100
AcDbLine
 10
183.0540498794554
 20
552.7633898150711
 30
0.0
 11
185.0540498794554
 21
552.7633898150711
 31
0.0
  0
LINE
  5
1B5
330
2
100
AcDbEntity
  8
AVERDECKTE
100
AcDbLine
 10
185.0540498794557
 20
542.2633898150714
 30
0.0
 11
183.0540498794557
 21
542.2633898150714
 31
0.0
  0
LINE
  5
1B6
330
2
100
AcDbEntity
  8
AVERDECKTE
100
AcDbLine
 10
183.0540498794625
 20
588.2633898150711
 30
0.0
 11
185.0540498794625
 21
588.2633898150711
 31
0.0
  0
LINE
  5
1B7
330
2
100
AcDbEntity
  8
AVERDECKTE
100
AcDbLine
 10
185.0540498794554
 20
575.7633898150711
 30
0.0
 11
183.0540498794554
 21
575.7633898150711
 31
0.0
  0
LINE
  5
1B8
330
2
100
AcDbEntity
  8
AVERDECKTE
100
AcDbLine
 10
185.0540498794625
 20
540.2633898150711
 30
0.0
 11
183.0540498794625
 21
540.2633898150711
 31
0.0
  0
ARC
  5
1B9
330
2
100
AcDbEntity
  8
UMRISS05
100
AcDbCircle
 10
158.0540498794649
 20
403.2633898150711
 30
0.0
 40
4.999999999999995
100
AcDbArc
 50
180.0
 51
270.0
  0
ARC
  5
1BA
330
2
100
AcDbEntity
  8
UMRISS05
100
AcDbCircle
 10
158.0540498794649
 20
647.2633898150712
 30
0.0
 40
5.000000000000006
100
AcDbArc
 50
90.0
 51
180.0
  0
LINE
  5
1BB
330
2
100
AcDbEntity
  8
UMRISS05
100
AcDbLine
 10
185.0540498794542
 20
652.2633898150711
 30
0.0
 11
183.0540498794542
 21
652.2633898150711
 31
0.0
  0
LINE
  5
1BC
330
2
100
AcDbEntity
  8
UMRISS05
100
AcDbLine
 10
185.0540498794542
 20
652.2633898150712
 30
0.0
 11
185.0540498794512
 21
647.2633898150712
 31
0.0
  0
LINE
  5
1BD
330
2
100
AcDbEntity
  8
UMRISS05
100
AcDbLine
 10
183.0540498794512
 20
647.2633898150712
 30
0.0
 11
183.0540498794542
 21
652.2633898150712
 31
0.0
  0
LINE
  5
1BE
330
2
100
AcDbEntity
  8
UMRISS05
100
AcDbLine
 10
183.0540498794542
 20
398.2633898150711
 30
0.0
 11
185.0540498794542
 21
398.2633898150711
 31
0.0
  0
LINE
  5
1BF
330
2
100
AcDbEntity
  8
UMRISS05
100
AcDbLine
 10
183.0540498794542
 20
398.2633898150713
 30
0.0
 11
183.0540498794514
 21
403.2633898150711
 31
0.0
  0
LINE
  5
1C0
330
2
100
AcDbEntity
  8
UMRISS05
100
AcDbLine
 10
185.0540498794514
 20
403.2633898150711
 30
0.0
 11
185.0540498794542
 21
398.2633898150713
 31
0.0
  0
CIRCLE
  5
1C1
330
2
100
AcDbEntity
  8
UMRISS05
100
AcDbCircle
 10
161.8540498794649
 20
637.0133898150712
 30
0.0
 40
2.750000000000001
  0
CIRCLE
  5
1C2
330
2
100
AcDbEntity
  8
UMRISS05
100
AcDbCircle
 10
161.8540498794649
 20
413.5133898150711
 30
0.0
 40
2.749999999999996
  0
CIRCLE
  5
1C3
330
2
100
AcDbEntity
  8
AVERDECKTE
100
AcDbCircle
 10
161.8540498794661
 20
637.0133898150712
 30
0.0
 40
4.750000000000001
  0
CIRCLE
  5
1C4
330
2
100
AcDbEntity
  8
AVERDECKTE
100
AcDbCircle
 10
161.8540498794661
 20
413.5133898150711
 30
0.0
 40
4.749999999999998
  0
DIMENSION
  5
1C5
330
2
100
AcDbEntity
  8
BEMASSUNG
  6
Continuous
100
AcDbDimension
  2
*D2
 10
46.3868052372376
 20
398.2633898150714
 30
0.0
 11
41.65743864196102
 21
526.8341829364072
 31
0.0
 70
   128
  1
<>
 71
     5
 42
254.0
  3
Katalog 09
100
AcDbAlignedDimension
 13
75.68215505834266
 23
652.2633898150712
 33
0.0
 14
75.68215505834276
 24
398.2633898150714
 34
0.0
 50
270.0
100
AcDbRotatedDimension
1001
ACAD_DSTYLE_DIMINSPECT
1070
   396
1000
100%
1070
   395
1000

1070
   394
1070
    33
1070
   393
1070
     0
  0
DIMENSION
  5
1D2
330
2
100
AcDbEntity
  8
BEMASSUNG
  6
Continuous
100
AcDbDimension
  2
*D1
 10
104.6374356911048
 20
542.2633898150714
 30
0.0
 11
101.0829905386496
 21
564.2633898150712
 31
0.0
 70
   128
  1
<>
 71
     5
 42
44.0
  3
Katalog 09
100
AcDbAlignedDimension
 13
86.76794149596977
 23
586.2633898150712
 33
0.0
 14
86.76794149596977
 24
542.2633898150714
 34
0.0
 50
270.0
100
AcDbRotatedDimension
1001
ACAD_DSTYLE_DIMINSPECT
1070
   396
1000
100%
1070
   395
1000

1070
   394
1070
    33
1070
   393
1070
     0
  0
LINE
  5
1DF
330
2
100
AcDbEntity
  8
ACHSEN
100
AcDbLine
 10
75.68215505834287
 20
564.2633898150712
 30
0.0
 11
97.64682275820096
 21
564.2633898150712
 31
0.0
  0
LINE
  5
1E0
330
2
100
AcDbEntity
  8
AVERDECKTE
100
AcDbLine
 10
93.68215505834973
 20
634.2633898150713
 30
0.0
 11
95.6821550583497
 21
632.2633898150712
 31
0.0
  0
LINE
  5
1E1
330
2
100
AcDbEntity
  8
AVERDECKTE
100
AcDbLine
 10
93.68215505834973
 20
639.7633898150712
 30
0.0
 11
95.6821550583497
 21
641.7633898150714
 31
0.0
  0
LINE
  5
1E2
330
2
100
AcDbEntity
  8
AVERDECKTE
100
AcDbLine
 10
93.68215505834982
 20
410.7633898150713
 30
0.0
 11
95.68215505834983
 21
408.7633898150714
 31
0.0
  0
LINE
  5
1E3
330
2
100
AcDbEntity
  8
AVERDECKTE
100
AcDbLine
 10
93.68215505834982
 20
416.2633898150714
 30
0.0
 11
95.68215505834983
 21
418.2633898150712
 31
0.0
  0
LINE
  5
1E4
330
2
100
AcDbEntity
  8
UMRISS05
100
AcDbLine
 10
89.59636862071597
 20
588.2633898150714
 30
0.0
 11
93.38215505834282
 21
588.2633898150714
 31
0.0
  0
LINE
  5
1E5
330
2
100
AcDbEntity
  8
UMRISS05
100
AcDbLine
 10
87.47504827715633
 20
586.5562830338849
 30
0.0
 11
88.88926183952944
 21
587.9704965962578
 31
0.0
  0
LINE
  5
1E6
330
2
100
AcDbEntity
  8
UMRISS05
100
AcDbLine
 10
78.18215505834287
 20
586.2633898150712
 30
0.0
 11
86.76794149596977
 21
586.2633898150712
 31
0.0
  0
LINE
  5
1E7
330
2
100
AcDbEntity
  8
UMRISS05
100
AcDbLine
 10
77.18215505834276
 20
576.0633898150712
 30
0.0
 11
77.18215505834276
 21
585.2633898150712
 31
0.0
  0
LINE
  5
1E8
330
2
100
AcDbEntity
  8
UMRISS05
100
AcDbLine
 10
77.8821550583428
 20
575.7633898150714
 30
0.0
 11
77.48215505834285
 21
575.7633898150714
 31
0.0
  0
LINE
  5
1E9
330
2
100
AcDbEntity
  8
UMRISS05
100
AcDbLine
 10
78.18215505834287
 20
553.0633898150713
 30
0.0
 11
78.18215505834276
 21
575.4633898150713
 31
0.0
  0
LINE
  5
1EA
330
2
100
AcDbEntity
  8
UMRISS05
100
AcDbLine
 10
77.48215505834285
 20
552.7633898150713
 30
0.0
 11
77.8821550583428
 21
552.7633898150713
 31
0.0
  0
LINE
  5
1EB
330
2
100
AcDbEntity
  8
UMRISS05
100
AcDbLine
 10
77.18215505834287
 20
543.2633898150713
 30
0.0
 11
77.18215505834287
 21
552.4633898150714
 31
0.0
  0
LINE
  5
1EC
330
2
100
AcDbEntity
  8
UMRISS05
100
AcDbLine
 10
86.76794149596977
 20
542.2633898150714
 30
0.0
 11
78.18215505834287
 21
542.2633898150714
 31
0.0
  0
LINE
  5
1ED
330
2
100
AcDbEntity
  8
UMRISS05
100
AcDbLine
 10
88.88926183952944
 20
540.5562830338847
 30
0.0
 11
87.47504827715621
 21
541.970496596258
 31
0.0
  0
LINE
  5
1EE
330
2
100
AcDbEntity
  8
UMRISS05
100
AcDbLine
 10
89.59636862071597
 20
510.2633898150712
 30
0.0
 11
93.38215505834282
 21
510.2633898150712
 31
0.0
  0
LINE
  5
1EF
330
2
100
AcDbEntity
  8
UMRISS05
100
AcDbLine
 10
87.47504827715633
 20
508.5562830338848
 30
0.0
 11
88.88926183952944
 21
509.9704965962577
 31
0.0
  0
LINE
  5
1F0
330
2
100
AcDbEntity
  8
UMRISS05
100
AcDbLine
 10
78.18215505834276
 20
508.2633898150714
 30
0.0
 11
86.76794149596977
 21
508.2633898150714
 31
0.0
  0
LINE
  5
1F1
330
2
100
AcDbEntity
  8
UMRISS05
100
AcDbLine
 10
77.18215505834287
 20
498.0633898150713
 30
0.0
 11
77.18215505834276
 21
507.2633898150713
 31
0.0
  0
LINE
  5
1F2
330
2
100
AcDbEntity
  8
UMRISS05
100
AcDbLine
 10
77.8821550583428
 20
497.7633898150712
 30
0.0
 11
77.48215505834285
 21
497.7633898150712
 31
0.0
  0
LINE
  5
1F3
330
2
100
AcDbEntity
  8
UMRISS05
100
AcDbLine
 10
78.18215505834287
 20
475.0633898150713
 30
0.0
 11
78.18215505834287
 21
497.463389815071
 31
0.0
  0
LINE
  5
1F4
330
2
100
AcDbEntity
  8
UMRISS05
100
AcDbLine
 10
77.48215505834285
 20
474.7633898150714
 30
0.0
 11
77.8821550583428
 21
474.7633898150714
 31
0.0
  0
LINE
  5
1F5
330
2
100
AcDbEntity
  8
UMRISS05
100
AcDbLine
 10
77.18215505834276
 20
465.2633898150711
 30
0.0
 11
77.18215505834276
 21
474.4633898150714
 31
0.0
  0
LINE
  5
1F6
330
2
100
AcDbEntity
  8
UMRISS05
100
AcDbLine
 10
86.76794149596977
 20
464.2633898150712
 30
0.0
 11
78.18215505834276
 21
464.2633898150712
 31
0.0
  0
LINE
  5
1F7
330
2
100
AcDbEntity
  8
UMRISS05
100
AcDbLine
 10
88.88926183952944
 20
462.5562830338846
 30
0.0
 11
87.47504827715633
 21
463.9704965962577
 31
0.0
  0
LINE
  5
1F8
330
2
100
AcDbEntity
  8
UMRISS05
100
AcDbLine
 10
93.38215505834282
 20
462.2633898150714
 30
0.0
 11
89.59636862071597
 21
462.2633898150712
 31
0.0
  0
LINE
  5
1F9
330
2
100
AcDbEntity
  8
UMRISS05
100
AcDbLine
 10
93.38215505834282
 20
540.2633898150713
 30
0.0
 11
89.59636862071597
 21
540.2633898150713
 31
0.0
  0
LINE
  5
1FA
330
2
100
AcDbEntity
  8
UMRISS05
100
AcDbLine
 10
95.68215505834787
 20
510.2633898150712
 30
0.0
 11
95.68215505834787
 21
462.2633898150714
 31
0.0
  0
LINE
  5
1FB
330
2
100
AcDbEntity
  8
UMRISS05
100
AcDbLine
 10
95.68215505834787
 20
588.2633898150714
 30
0.0
 11
95.68215505834787
 21
540.2633898150713
 31
0.0
  0
LINE
  5
1FC
330
2
100
AcDbEntity
  8
UMRISS05
100
AcDbLine
 10
93.68215505834788
 20
540.2633898150713
 30
0.0
 11
93.68215505834788
 21
588.2633898150714
 31
0.0
  0
LINE
  5
1FD
330
2
100
AcDbEntity
  8
UMRISS05
100
AcDbLine
 10
93.68215505834788
 20
462.2633898150714
 30
0.0
 11
93.68215505834788
 21
510.2633898150712
 31
0.0
  0
CIRCLE
  5
1FE
330
2
100
AcDbEntity
  8
UMRISS05
100
AcDbCircle
 10
84.18215505834275
 20
512.5133898150713
 30
0.0
 40
4.0
  0
CIRCLE
  5
1FF
330
2
100
AcDbEntity
  8
UMRISS05
100
AcDbCircle
 10
84.182155058343
 20
460.0133898150712
 30
0.0
 40
4.0
  0
CIRCLE
  5
200
330
2
100
AcDbEntity
  8
UMRISS05
100
AcDbCircle
 10
84.18215505834288
 20
538.0133898150713
 30
0.0
 40
4.0
  0
CIRCLE
  5
201
330
2
100
AcDbEntity
  8
UMRISS05
100
AcDbCircle
 10
84.18215505834275
 20
590.5133898150713
 30
0.0
 40
4.0
  0
CIRCLE
  5
202
330
2
100
AcDbEntity
  8
UMRISS05
100
AcDbCircle
 10
84.18215505834345
 20
590.5133898150713
 30
0.0
 40
2.0
  0
CIRCLE
  5
203
330
2
100
AcDbEntity
  8
UMRISS05
100
AcDbCircle
 10
84.18215505834345
 20
538.0133898150713
 30
0.0
 40
2.0
  0
CIRCLE
  5
204
330
2
100
AcDbEntity
  8
UMRISS05
100
AcDbCircle
 10
84.18215505834357
 20
460.0133898150712
 30
0.0
 40
2.0
  0
CIRCLE
  5
205
330
2
100
AcDbEntity
  8
UMRISS05
100
AcDbCircle
 10
84.18215505834334
 20
512.5133898150713
 30
0.0
 40
2.0
  0
LINE
  5
206
330
2
100
AcDbEntity
  8
UMRISS05
100
AcDbLine
 10
70.68215505834276
 20
403.2633898150713
 30
0.0
 11
70.68215505834266
 21
647.2633898150712
 31
0.0
  0
LINE
  5
207
330
2
100
AcDbEntity
  8
UMRISS05
100
AcDbLine
 10
75.68215505834266
 20
652.2633898150712
 30
0.0
 11
93.38215505834282
 21
652.2633898150712
 31
0.0
  0
LINE
  5
208
330
2
100
AcDbEntity
  8
UMRISS05
100
AcDbLine
 10
93.38215505834291
 20
398.2633898150714
 30
0.0
 11
75.68215505834276
 21
398.2633898150713
 31
0.0
  0
LINE
  5
209
330
2
100
AcDbEntity
  8
AVERDECKTE
100
AcDbLine
 10
93.68215505834346
 20
652.2633898150711
 30
0.0
 11
93.68215505834346
 21
588.2633898150714
 31
0.0
  0
LINE
  5
20A
330
2
100
AcDbEntity
  8
AVERDECKTE
100
AcDbLine
 10
93.68215505834346
 20
540.2633898150713
 30
0.0
 11
93.68215505834346
 21
510.2633898150712
 31
0.0
  0
LINE
  5
20B
330
2
100
AcDbEntity
  8
AVERDECKTE
100
AcDbLine
 10
93.68215505834346
 20
462.2633898150714
 30
0.0
 11
93.68215505834356
 21
398.2633898150714
 31
0.0
  0
LINE
  5
20C
330
2
100
AcDbEntity
  8
Sichtbare Kanten(MSL)
100
AcDbLine
 10
95.68215505834343
 20
588.2633898150714
 30
0.0
 11
93.38215505834282
 21
588.2633898150714
 31
0.0
  0
LINE
  5
20E
330
2
100
AcDbEntity
  8
UMRISS05
100
AcDbLine
 10
95.68215505834343
 20
510.2633898150712
 30
0.0
 11
93.38215505834282
 21
510.2633898150712
 31
0.0
  0
LINE
  5
20F
330
2
100
AcDbEntity
  8
UMRISS05
100
AcDbLine
 10
93.38215505834282
 20
462.2633898150714
 30
0.0
 11
95.68215505834357
 21
462.2633898150714
 31
0.0
  0
LINE
  5
210
330
2
100
AcDbEntity
  8
UMRISS05
100
AcDbLine
 10
93.38215505834282
 20
540.2633898150713
 30
0.0
 11
95.68215505834343
 21
540.2633898150713
 31
0.0
  0
LINE
  5
211
330
2
100
AcDbEntity
  8
UMRISS05
100
AcDbLine
 10
95.68215505834357
 20
398.2633898150714
 30
0.0
 11
95.68215505834343
 21
462.2633898150712
 31
0.0
  0
LINE
  5
212
330
2
100
AcDbEntity
  8
UMRISS05
100
AcDbLine
 10
95.68215505834343
 20
510.2633898150712
 30
0.0
 11
95.68215505834343
 21
540.2633898150713
 31
0.0
  0
LINE
  5
213
330
2
100
AcDbEntity
  8
UMRISS05
100
AcDbLine
 10
95.68215505834343
 20
588.2633898150714
 30
0.0
 11
95.68215505834343
 21
652.2633898150711
 31
0.0
  0
LINE
  5
214
330
2
100
AcDbEntity
  8
Sichtbare Kanten(MSL)
100
AcDbLine
 10
95.68215505834343
 20
652.2633898150711
 30
0.0
 11
93.38215505834282
 21
652.2633898150711
 31
0.0
  0
LINE
  5
215
330
2
100
AcDbEntity
  8
Sichtbare Kanten(MSL)
100
AcDbLine
 10
95.68215505834357
 20
398.2633898150714
 30
0.0
 11
93.38215505834291
 21
398.2633898150714
 31
0.0
  0
ARC
  5
216
330
2
100
AcDbEntity
  8
Sichtbare Kanten(MSL)
100
AcDbCircle
 10
89.59636862071576
 20
587.2633898150716
 30
0.0
 40
0.9999999999996942
100
AcDbArc
 50
89.99999999999348
 51
135.0000000000091
  0
ARC
  5
217
330
2
100
AcDbEntity
  8
UMRISS05
100
AcDbCircle
 10
86.76794149596991
 20
587.2633898150711
 30
0.0
 40
0.9999999999996934
100
AcDbArc
 50
269.9999999999935
 51
315.0000000000091
  0
ARC
  5
218
330
2
100
AcDbEntity
  8
UMRISS05
100
AcDbCircle
 10
78.18215505834287
 20
585.2633898150712
 30
0.0
 40
1.000000000000012
100
AcDbArc
 50
90.0
 51
180.0
  0
ARC
  5
219
330
2
100
AcDbEntity
  8
UMRISS05
100
AcDbCircle
 10
77.48215505834285
 20
576.0633898150712
 30
0.0
 40
0.3000000000000125
100
AcDbArc
 50
180.0
 51
270.0
  0
ARC
  5
21A
330
2
100
AcDbEntity
  8
UMRISS05
100
AcDbCircle
 10
77.8821550583428
 20
553.0633898150713
 30
0.0
 40
0.2999999999999781
100
AcDbArc
 50
270.0
 51
0.0
  0
ARC
  5
21B
330
2
100
AcDbEntity
  8
UMRISS05
100
AcDbCircle
 10
77.48215505834285
 20
552.4633898150714
 30
0.0
 40
0.2999999999999758
100
AcDbArc
 50
89.99999999999348
 51
180.0
  0
ARC
  5
21C
330
2
100
AcDbEntity
  8
UMRISS05
100
AcDbCircle
 10
78.18215505834287
 20
543.2633898150713
 30
0.0
 40
1.000000000000001
100
AcDbArc
 50
180.0
 51
270.0
  0
ARC
  5
21D
330
2
100
AcDbEntity
  8
UMRISS05
100
AcDbCircle
 10
86.76794149596965
 20
541.2633898150711
 30
0.0
 40
1.00000000000019
100
AcDbArc
 50
45.00000000000698
 51
89.99999999999348
  0
ARC
  5
21E
330
2
100
AcDbEntity
  8
UMRISS05
100
AcDbCircle
 10
89.5963686207161
 20
509.2633898150713
 30
0.0
 40
1.000000000000119
100
AcDbArc
 50
90.00000000000651
 51
134.9999999999999
  0
ARC
  5
21F
330
2
100
AcDbEntity
  8
UMRISS05
100
AcDbCircle
 10
86.76794149596977
 20
509.2633898150713
 30
0.0
 40
1.000000000000011
100
AcDbArc
 50
270.0
 51
314.9999999999999
  0
ARC
  5
220
330
2
100
AcDbEntity
  8
UMRISS05
100
AcDbCircle
 10
78.18215505834276
 20
507.2633898150713
 30
0.0
 40
0.9999999999999964
100
AcDbArc
 50
90.0
 51
180.0
  0
ARC
  5
221
330
2
100
AcDbEntity
  8
UMRISS05
100
AcDbCircle
 10
77.48215505834285
 20
498.0633898150713
 30
0.0
 40
0.3000000000000114
100
AcDbArc
 50
180.0
 51
270.0
  0
ARC
  5
222
330
2
100
AcDbEntity
  8
UMRISS05
100
AcDbCircle
 10
77.8821550583428
 20
497.463389815071
 30
0.0
 40
0.2999999999999758
100
AcDbArc
 50
0.0
 51
90.00000000000651
  0
ARC
  5
223
330
2
100
AcDbEntity
  8
UMRISS05
100
AcDbCircle
 10
77.8821550583428
 20
475.0633898150713
 30
0.0
 40
0.300000000000018
100
AcDbArc
 50
270.0000000000065
 51
0.0
  0
ARC
  5
224
330
2
100
AcDbEntity
  8
UMRISS05
100
AcDbCircle
 10
77.48215505834285
 20
474.4633898150714
 30
0.0
 40
0.3000000000000025
100
AcDbArc
 50
90.0
 51
180.0
  0
ARC
  5
225
330
2
100
AcDbEntity
  8
UMRISS05
100
AcDbCircle
 10
78.18215505834276
 20
465.2633898150711
 30
0.0
 40
0.9999999999999964
100
AcDbArc
 50
180.0
 51
270.0
  0
ARC
  5
226
330
2
100
AcDbEntity
  8
UMRISS05
100
AcDbCircle
 10
86.76794149596977
 20
463.2633898150713
 30
0.0
 40
1.000000000000021
100
AcDbArc
 50
45.00000000000007
 51
90.0
  0
ARC
  5
227
330
2
100
AcDbEntity
  8
UMRISS05
100
AcDbCircle
 10
89.59636862071597
 20
463.2633898150714
 30
0.0
 40
1.00000000000003
100
AcDbArc
 50
225.0000000000001
 51
270.0
  0
ARC
  5
228
330
2
100
AcDbEntity
  8
UMRISS05
100
AcDbCircle
 10
77.8821550583428
 20
575.4633898150713
 30
0.0
 40
0.3000000000000114
100
AcDbArc
 50
0.0
 51
90.0
  0
ARC
  5
229
330
2
100
AcDbEntity
  8
UMRISS05
100
AcDbCircle
 10
89.59636862071597
 20
541.2633898150714
 30
0.0
 40
1.000000000000085
100
AcDbArc
 50
225.0000000000001
 51
270.0
  0
ARC
  5
22A
330
2
100
AcDbEntity
  8
UMRISS05
100
AcDbCircle
 10
75.68215505834266
 20
647.2633898150712
 30
0.0
 40
5.000000000000008
100
AcDbArc
 50
90.0
 51
180.0
  0
ARC
  5
22B
330
2
100
AcDbEntity
  8
UMRISS05
100
AcDbCircle
 10
75.68215505834276
 20
403.2633898150713
 30
0.0
 40
4.999999999999999
100
AcDbArc
 50
180.0
 51
270.0
  0
CIRCLE
  5
22C
330
2
100
AcDbEntity
  8
UMRISS05
100
AcDbCircle
 10
80.38215505834328
 20
642.0133898150712
 30
0.0
 40
2.749999999999998
  0
CIRCLE
  5
22D
330
2
100
AcDbEntity
  8
UMRISS05
100
AcDbCircle
 10
80.38215505834271
 20
642.0133898150712
 30
0.0
 40
4.75
  0
CIRCLE
  5
22E
330
2
100
AcDbEntity
  8
UMRISS05
100
AcDbCircle
 10
80.38215505834337
 20
408.5133898150713
 30
0.0
 40
2.749999999999998
  0
CIRCLE
  5
22F
330
2
100
AcDbEntity
  8
UMRISS05
100
AcDbCircle
 10
80.38215505834271
 20
408.5133898150713
 30
0.0
 40
4.75
  0
ENDSEC
  0
SECTION
  2
OBJECTS
  0
DICTIONARY
  5
C
330
0
100
AcDbDictionary
281
     1
  3
ACAD_ASSOCNETWORK
350
2A2
  3
ACAD_COLOR
350
4D
  3
ACAD_DETAILVIEWSTYLE
350
251
  3
ACAD_FIELDLIST
350
2A0
  3
ACAD_GROUP
350
3A
  3
ACAD_LAYOUT
350
19
  3
ACAD_MATERIAL
350
E
  3
ACAD_MLEADERSTYLE
350
50
  3
ACAD_MLINESTYLE
350
3B
  3
ACAD_PLOTSETTINGS
350
3C
  3
ACAD_PLOTSTYLENAME
350
B
  3
ACAD_SCALELIST
350
4E
  3
ACAD_SECTIONVIEWSTYLE
350
25C
  3
ACAD_TABLESTYLE
350
4F
  3
ACAD_VISUALSTYLE
350
2E
  3
ACDB_RECOMPOSE_DATA
350
2BA
  3
AcDbVariableDictionary
350
2A9
  3
AcDsDecomposeData
350
2C0
  3
AcmDictionary
350
241
  3
AMG
350
232
  0
DICTIONARY
  5
20
330
1F
100
AcDbDictionary
280
     1
281
     1
  3
ACAD_LAYERSTATES
360
21
  3
AMLAYER_GROUPCOLORS
360
22
  0
DICTIONARY
  5
8
330
7
100
AcDbDictionary
280
     1
281
     1
  3
ADSK_XREC_LAYER_RECONCILED
360
9
  0
DICTIONARY
  5
14E
330
14D
100
AcDbDictionary
280
     1
281
     1
  3
ADSK_XREC_LAYER_RECONCILED
360
14F
  0
DICTIONARY
  5
6A
330
69
100
AcDbDictionary
280
     1
281
     1
  3
ADSK_XREC_LAYER_RECONCILED
360
6B
  0
DICTIONARY
  5
96
330
95
100
AcDbDictionary
280
     1
281
     1
  3
ADSK_XREC_LAYER_RECONCILED
360
97
  0
DICTIONARY
  5
179
330
178
100
AcDbDictionary
280
     1
281
     1
  3
ADSK_XREC_LAYER_RECONCILED
360
17A
  0
DICTIONARY
  5
3
330
2
100
AcDbDictionary
280
     1
281
     1
  3
ACAD_ASSOCNETWORK
360
4
  3
ACAD_SORTENTS
360
230
  0
DICTIONARY
  5
2A2
102
{ACAD_REACTORS
330
C
102
}
330
C
100
AcDbDictionary
281
     1
  3
ACAD_ASSOCNETWORK
350
2A3
  0
DICTIONARY
  5
4D
102
{ACAD_REACTORS
330
C
102
}
330
C
100
AcDbDictionary
281
     1
  0
DICTIONARY
  5
251
102
{ACAD_REACTORS
330
C
102
}
330
C
100
AcDbDictionary
281
     1
  3
Metric50
350
258
  0
FIELDLIST
  5
2A0
102
{ACAD_REACTORS
330
C
102
}
330
C
100
AcDbIdSet
 90
        6
330
254
330
255
330
256
330
25F
330
260
330
261
100
AcDbFieldList
  0
DICTIONARY
  5
3A
102
{ACAD_REACTORS
330
C
102
}
330
C
100
AcDbDictionary
281
     1
  0
DICTIONARY
  5
19
102
{ACAD_REACTORS
330
C
102
}
330
C
100
AcDbDictionary
281
     1
  3
Layout1
350
1E
  3
Model
350
18
  0
DICTIONARY
  5
E
102
{ACAD_REACTORS
330
C
102
}
330
C
100
AcDbDictionary
281
     1
  3
ByBlock
350
45
  3
ByLayer
350
3D
  3
Global
350
D
  0
DICTIONARY
  5
50
102
{ACAD_REACTORS
330
C
102
}
330
C
100
AcDbDictionary
281
     1
  0
DICTIONARY
  5
3B
102
{ACAD_REACTORS
330
C
102
}
330
C
100
AcDbDictionary
281
     1
  3
STANDARD
350
52
  0
DICTIONARY
  5
3C
102
{ACAD_REACTORS
330
C
102
}
330
C
100
AcDbDictionary
281
     1
  0
ACDBDICTIONARYWDFLT
  5
B
102
{ACAD_REACTORS
330
C
102
}
330
C
100
AcDbDictionary
281
     1
  3
Normal
350
A
100
AcDbDictionaryWithDefault
340
A
  0
DICTIONARY
  5
4E
102
{ACAD_REACTORS
330
C
102
}
330
C
100
AcDbDictionary
281
     1
  3
A0
350
57
  3
A1
350
58
  3
A2
350
59
  3
A3
350
5A
  3
A4
350
5B
  3
A5
350
5C
  3
A6
350
5D
  3
A7
350
5E
  3
A8
350
5F
  3
A9
350
60
  3
B0
350
61
  3
B1
350
62
  3
B2
350
63
  3
B3
350
64
  3
B4
350
65
  3
B5
350
66
  3
B6
350
67
  0
DICTIONARY
  5
25C
102
{ACAD_REACTORS
330
C
102
}
330
C
100
AcDbDictionary
281
     1
  3
Metric50
350
267
  0
DICTIONARY
  5
4F
102
{ACAD_REACTORS
330
C
102
}
330
C
100
AcDbDictionary
281
     1
  3
Standard
350
53
  0
DICTIONARY
  5
2E
102
{ACAD_REACTORS
330
C
102
}
330
C
100
AcDbDictionary
281
     1
  3
2dWireframe
350
2D
  3
Realistic
350
55
  3
Wireframe
350
56
  0
XRECORD
  5
2BA
102
{ACAD_REACTORS
330
C
102
}
330
C
100
AcDbXrecord
280
     1
 90
        1
330
53
  0
DICTIONARY
  5
2A9
102
{ACAD_REACTORS
330
C
102
}
330
C
100
AcDbDictionary
281
     1
  3
CANNOSCALE
350
2AE
  3
CMLEADERSTYLE
350
2AB
  3
CTABLESTYLE
350
2AA
  3
CVIEWDETAILSTYLE
350
2AC
  3
CVIEWSECTIONSTYLE
350
2AD
  3
DIMASSOC
350
2B3
  3
HIDETEXT
350
2B1
  3
INDEXCTL
350
2B0
  3
LOFTANG1
350
2B5
  3
LOFTANG2
350
2B6
  3
LONGITUDE
350
2B7
  3
SOLIDHIST
350
2B4
  3
SORTENTS
350
2AF
  3
XCLIPFRAME
350
2B2
  0
DICTIONARY
  5
2C0
102
{ACAD_REACTORS
330
C
102
}
330
C
100
AcDbDictionary
281
     1
  3
AcDsRecords
350
2C2
  3
AcDsSchemas
350
2C1
1001
ACAD
1070
     2
  0
DICTIONARY
  5
241
102
{ACAD_REACTORS
330
C
102
}
330
C
100
AcDbDictionary
281
     1
  3
AcmStdDictionary
350
242
  0
DICTIONARY
  5
232
102
{ACAD_REACTORS
330
C
102
}
330
C
100
AcDbDictionary
281
     1
  3
AcMgSettings
350
23C
  0
DICTIONARY
  5
21
102
{ACAD_REACTORS
330
20
102
}
330
20
100
AcDbDictionary
281
     1
  0
DICTIONARY
  5
22
102
{ACAD_REACTORS
330
20
102
}
330
20
100
AcDbDictionary
280
     1
281
     1
  0
XRECORD
  5
9
102
{ACAD_REACTORS
330
8
102
}
330
8
100
AcDbXrecord
280
     1
290
     1
  0
XRECORD
  5
14F
102
{ACAD_REACTORS
330
14E
102
}
330
14E
100
AcDbXrecord
280
     1
290
     1
  0
XRECORD
  5
6B
102
{ACAD_REACTORS
330
6A
102
}
330
6A
100
AcDbXrecord
280
     1
290
     1
  0
XRECORD
  5
97
102
{ACAD_REACTORS
330
96
102
}
330
96
100
AcDbXrecord
280
     1
290
     1
  0
XRECORD
  5
17A
102
{ACAD_REACTORS
330
179
102
}
330
179
100
AcDbXrecord
280
     1
290
     1
  0
DICTIONARY
  5
4
102
{ACAD_REACTORS
330
3
102
}
330
3
100
AcDbDictionary
281
     1
  3
ACAD_ASSOCNETWORK
350
2A1
  0
SORTENTSTABLE
  5
230
102
{ACAD_REACTORS
330
3
102
}
330
3
100
AcDbSortentsTable
330
2
331
1A4
  5
1C3
331
21E
  5
FB
331
1DF
  5
1A0
331
21A
  5
FF
331
1A0
  5
1DF
331
19C
  5
1E3
331
216
  5
133
331
198
  5
1E7
331
212
  5
137
331
194
  5
1EB
331
E1
  5
220
331
20E
  5
13B
331
9E
  5
226
331
20A
  5
13E
331
190
  5
1EF
331
9A
  5
22A
331
206
  5
15D
331
18C
  5
1F3
331
188
  5
1F7
331
202
  5
17D
331
1C3
  5
1A4
331
184
  5
1FB
331
10C
  5
219
331
1FE
  5
181
331
1FA
  5
185
331
180
  5
1FF
331
1BF
  5
1A8
331
1BB
  5
1AC
331
1F6
  5
189
331
17C
  5
203
331
1F2
  5
18D
331
1B7
  5
1B0
331
13F
  5
209
331
13B
  5
20E
331
1B3
  5
1B4
331
22D
  5
87
331
FC
  5
21D
331
1EE
  5
191
331
137
  5
212
331
1EA
  5
195
331
229
  5
9B
331
1AF
  5
1B8
331
B9
  5
224
331
1AB
  5
1BC
331
133
  5
216
331
1E6
  5
199
331
225
  5
AB
331
1E2
  5
19D
331
221
  5
D4
331
1A7
  5
1C0
331
21D
  5
FC
331
1A3
  5
1C4
331
219
  5
10C
331
19F
  5
1E0
331
19B
  5
1E4
331
215
  5
134
331
211
  5
138
331
68
  5
22F
331
197
  5
1E8
331
193
  5
1EC
331
1D2
  5
1A1
331
9D
  5
227
331
209
  5
13F
331
18F
  5
1F0
331
18B
  5
1F4
331
205
  5
16A
331
99
  5
22B
331
201
  5
17E
331
187
  5
1F8
331
D4
  5
221
331
183
  5
1FC
331
1C2
  5
1A5
331
1FD
  5
182
331
1BE
  5
1A9
331
1F9
  5
186
331
17F
  5
200
331
1BA
  5
1AD
331
1F5
  5
18A
331
1F1
  5
18E
331
1B6
  5
1B1
331
177
  5
204
331
FF
  5
21A
331
13E
  5
20A
331
13A
  5
20F
331
1B2
  5
1B5
331
22C
  5
94
331
FB
  5
21E
331
1ED
  5
192
331
136
  5
213
331
1E9
  5
196
331
228
  5
9C
331
1AE
  5
1B9
331
1AA
  5
1BD
331
1E5
  5
19A
331
224
  5
B9
331
1E1
  5
19E
331
220
  5
E1
331
1A6
  5
1C1
331
21C
  5
FD
331
1A2
  5
1C5
331
126
  5
217
331
218
  5
119
331
19E
  5
1E1
331
19A
  5
1E5
331
214
  5
135
331
210
  5
139
331
15D
  5
206
331
196
  5
1E9
331
20C
  5
13C
331
192
  5
1ED
331
9C
  5
228
331
208
  5
14C
331
18E
  5
1F1
331
18A
  5
1F5
331
204
  5
177
331
200
  5
17F
331
94
  5
22C
331
D3
  5
222
331
186
  5
1F9
331
1C5
  5
1A2
331
182
  5
1FD
331
1C1
  5
1A6
331
1FC
  5
183
331
1BD
  5
1AA
331
1F8
  5
187
331
17E
  5
201
331
1B9
  5
1AE
331
1F4
  5
18B
331
1F0
  5
18F
331
1B5
  5
1B2
331
FE
  5
21B
331
13D
  5
20B
331
22F
  5
68
331
139
  5
210
331
22B
  5
99
331
1B1
  5
1B6
331
1EC
  5
193
331
1AD
  5
1BA
331
135
  5
214
331
1E8
  5
197
331
227
  5
9D
331
7C
  5
22E
331
1A9
  5
1BE
331
1E4
  5
19B
331
223
  5
C6
331
16A
  5
205
331
1E0
  5
19F
331
1A5
  5
1C2
331
21F
  5
EE
331
21B
  5
FE
331
1A1
  5
1D2
331
EE
  5
21F
331
AB
  5
225
331
217
  5
126
331
19D
  5
1E2
331
199
  5
1E6
331
213
  5
136
331
195
  5
1EA
331
20F
  5
13A
331
119
  5
218
331
20B
  5
13D
331
191
  5
1EE
331
9B
  5
229
331
207
  5
150
331
18D
  5
1F2
331
189
  5
1F6
331
203
  5
17C
331
150
  5
207
331
14C
  5
208
331
185
  5
1FA
331
1C4
  5
1A3
331
1FF
  5
180
331
1FB
  5
184
331
181
  5
1FE
331
1C0
  5
1A7
331
1BC
  5
1AB
331
1F7
  5
188
331
17D
  5
202
331
1B8
  5
1AF
331
1F3
  5
18C
331
87
  5
22D
331
C6
  5
223
331
1B4
  5
1B3
331
22E
  5
7C
331
FD
  5
21C
331
1EF
  5
190
331
13C
  5
20C
331
138
  5
211
331
22A
  5
9A
331
1B0
  5
1B7
331
1EB
  5
194
331
1AC
  5
1BB
331
134
  5
215
331
1E7
  5
198
331
226
  5
9E
331
1A8
  5
1BF
331
1E3
  5
19C
331
222
  5
D3
  0
ACDBASSOCNETWORK
  5
2A3
102
{ACAD_REACTORS
330
2A2
102
}
330
2A2
100
AcDbAssocAction
 90
        1
 90
        1
330
0
360
0
 90
        0
 90
        0
 90
        0
100
AcDbAssocNetwork
 90
        0
 90
        1
 90
        1
330
2A1
 90
        1
330
2A1
  0
ACDBDETAILVIEWSTYLE
  5
258
102
{ACAD_XDICTIONARY
360
259
102
}
102
{ACAD_REACTORS
330
251
330
257
102
}
330
251
100
AcDbModelDocViewStyle
 70
     0
  3
Metric50
290
     0
100
AcDbDetailViewStyle
 70
     0
 71
     0
 90
        3
 71
     1
340
24
 40
5.0
340
0
 40
5.0
300

 40
0.0
280
     1
 71
     2
340
16
 90
       25
 71
     3
340
24
 40
5.0
 90
        0
 40
15.0
 90
        1
300
%<\AcVar ViewDetailId>% (%<\AcVar ViewScale \f "%sn">%)
 71
     4
340
16
 90
       25
340
16
 90
       25
280
     0
  0
LAYOUT
  5
1E
102
{ACAD_XDICTIONARY
360
2C5
102
}
102
{ACAD_REACTORS
330
19
102
}
330
19
100
AcDbPlotSettings
  1

  2
none_device
  4
Letter_(8.50_x_11.00_Inches)
  6

 40
6.349999904632567
 41
6.349999904632567
 42
6.350006103515625
 43
6.350006103515625
 44
215.8999938964844
 45
279.3999938964844
 46
0.0
 47
0.0
 48
0.0
 49
0.0
140
0.0
141
0.0
142
1.0
143
1.0
 70
   688
 72
     1
 73
     1
 74
     5
  7
Datenblatt.ctb
 75
    16
147
1.0
148
0.0
149
0.0
100
AcDbLayout
  1
Layout1
 70
     1
 71
     1
 10
-6.350006103515625
 20
-6.349999904632567
 11
273.0499877929688
 21
209.5499939918518
 12
0.0
 22
0.0
 32
0.0
 14
26.66999878883363
 24
20.31999878883363
 34
0.0
 15
240.0299890995026
 25
182.8799890995025
 35
0.0
146
0.0
 13
0.0
 23
0.0
 33
0.0
 16
1.0
 26
0.0
 36
0.0
 17
0.0
 27
1.0
 37
0.0
 76
     0
330
1B
  0
LAYOUT
  5
18
102
{ACAD_XDICTIONARY
360
1A
102
}
102
{ACAD_REACTORS
330
19
102
}
330
19
100
AcDbPlotSettings
  1

  2
A3quer-MSL.pc3
  4
A3
  6

 40
6.085416793823242
 41
6.12772798538208
 42
5.662078857421875
 43
5.53509521484375
 44
296.9683227539062
 45
419.9889831542968
 46
4.5
 47
2.5
 48
0.0
 49
0.0
140
0.0
141
0.0
142
1.0
143
1.0
 70
 11952
 72
     1
 73
     1
 74
     1
  7
Datenblatt.ctb
 75
    16
147
1.0
148
0.0160923307578855
149
0.4351688123455233
100
AcDbLayout
  1
Model
 70
     1
 71
     0
 10
0.0
 20
0.0
 11
12.0
 21
9.0
 12
0.0
 22
0.0
 32
0.0
 14
0.0
 24
0.0
 34
0.0
 15
0.0
 25
0.0
 35
0.0
146
0.0
 13
0.0
 23
0.0
 33
0.0
 16
1.0
 26
0.0
 36
0.0
 17
0.0
 27
1.0
 37
0.0
 76
     0
330
2
331
2C
  0
MATERIAL
  5
45
102
{ACAD_XDICTIONARY
360
46
102
}
102
{ACAD_REACTORS
330
E
102
}
330
E
100
AcDbMaterial
  1
ByBlock
 72
     0
 43
0.0208333333333333
 43
0.0
 43
0.0
 43
0.0
 43
0.0
 43
0.0208333333333333
 43
0.0
 43
0.0
 43
0.0
 43
0.0
 43
1.0
 43
0.0
 43
0.0
 43
0.0
 43
0.0
 43
1.0
 77
     0
 47
0.0208333333333333
 47
0.0
 47
0.0
 47
0.0
 47
0.0
 47
0.0208333333333333
 47
0.0
 47
0.0
 47
0.0
 47
0.0
 47
1.0
 47
0.0
 47
0.0
 47
0.0
 47
0.0
 47
1.0
171
     0
 49
0.0208333333333333
 49
0.0
 49
0.0
 49
0.0
 49
0.0
 49
0.0208333333333333
 49
0.0
 49
0.0
 49
0.0
 49
0.0
 49
1.0
 49
0.0
 49
0.0
 49
0.0
 49
0.0
 49
1.0
175
     0
142
0.0208333333333333
142
0.0
142
0.0
142
0.0
142
0.0
142
0.0208333333333333
142
0.0
142
0.0
142
0.0
142
0.0
142
1.0
142
0.0
142
0.0
142
0.0
142
0.0
142
1.0
179
     0
144
0.0208333333333333
144
0.0
144
0.0
144
0.0
144
0.0
144
0.0208333333333333
144
0.0
144
0.0
144
0.0
144
0.0
144
1.0
144
0.0
144
0.0
144
0.0
144
0.0
144
1.0
147
0.0208333333333333
147
0.0
147
0.0
147
0.0
147
0.0
147
0.0208333333333333
147
0.0
147
0.0
147
0.0
147
0.0
147
1.0
147
0.0
147
0.0
147
0.0
147
0.0
147
1.0
  0
MATERIAL
  5
3D
102
{ACAD_XDICTIONARY
360
3E
102
}
102
{ACAD_REACTORS
330
E
102
}
330
E
100
AcDbMaterial
  1
ByLayer
 72
     0
 43
0.0208333333333333
 43
0.0
 43
0.0
 43
0.0
 43
0.0
 43
0.0208333333333333
 43
0.0
 43
0.0
 43
0.0
 43
0.0
 43
1.0
 43
0.0
 43
0.0
 43
0.0
 43
0.0
 43
1.0
 77
     0
 47
0.0208333333333333
 47
0.0
 47
0.0
 47
0.0
 47
0.0
 47
0.0208333333333333
 47
0.0
 47
0.0
 47
0.0
 47
0.0
 47
1.0
 47
0.0
 47
0.0
 47
0.0
 47
0.0
 47
1.0
171
     0
 49
0.0208333333333333
 49
0.0
 49
0.0
 49
0.0
 49
0.0
 49
0.0208333333333333
 49
0.0
 49
0.0
 49
0.0
 49
0.0
 49
1.0
 49
0.0
 49
0.0
 49
0.0
 49
0.0
 49
1.0
175
     0
142
0.0208333333333333
142
0.0
142
0.0
142
0.0
142
0.0
142
0.0208333333333333
142
0.0
142
0.0
142
0.0
142
0.0
142
1.0
142
0.0
142
0.0
142
0.0
142
0.0
142
1.0
179
     0
144
0.0208333333333333
144
0.0
144
0.0
144
0.0
144
0.0
144
0.0208333333333333
144
0.0
144
0.0
144
0.0
144
0.0
144
1.0
144
0.0
144
0.0
144
0.0
144
0.0
144
1.0
147
0.0208333333333333
147
0.0
147
0.0
147
0.0
147
0.0
147
0.0208333333333333
147
0.0
147
0.0
147
0.0
147
0.0
147
1.0
147
0.0
147
0.0
147
0.0
147
0.0
147
1.0
  0
MATERIAL
  5
D
102
{ACAD_XDICTIONARY
360
F
102
}
102
{ACAD_REACTORS
330
E
102
}
330
E
100
AcDbMaterial
  1
Global
 72
     0
 43
0.0208333333333333
 43
0.0
 43
0.0
 43
0.0
 43
0.0
 43
0.0208333333333333
 43
0.0
 43
0.0
 43
0.0
 43
0.0
 43
1.0
 43
0.0
 43
0.0
 43
0.0
 43
0.0
 43
1.0
 77
     0
 47
0.0208333333333333
 47
0.0
 47
0.0
 47
0.0
 47
0.0
 47
0.0208333333333333
 47
0.0
 47
0.0
 47
0.0
 47
0.0
 47
1.0
 47
0.0
 47
0.0
 47
0.0
 47
0.0
 47
1.0
171
     0
 49
0.0208333333333333
 49
0.0
 49
0.0
 49
0.0
 49
0.0
 49
0.0208333333333333
 49
0.0
 49
0.0
 49
0.0
 49
0.0
 49
1.0
 49
0.0
 49
0.0
 49
0.0
 49
0.0
 49
1.0
175
     0
142
0.0208333333333333
142
0.0
142
0.0
142
0.0
142
0.0
142
0.0208333333333333
142
0.0
142
0.0
142
0.0
142
0.0
142
1.0
142
0.0
142
0.0
142
0.0
142
0.0
142
1.0
179
     0
144
0.0208333333333333
144
0.0
144
0.0
144
0.0
144
0.0
144
0.0208333333333333
144
0.0
144
0.0
144
0.0
144
0.0
144
1.0
144
0.0
144
0.0
144
0.0
144
0.0
144
1.0
147
0.0208333333333333
147
0.0
147
0.0
147
0.0
147
0.0
147
0.0208333333333333
147
0.0
147
0.0
147
0.0
147
0.0
147
1.0
147
0.0
147
0.0
147
0.0
147
0.0
147
1.0
  0
MLINESTYLE
  5
52
102
{ACAD_REACTORS
330
3B
102
}
330
3B
100
AcDbMlineStyle
  2
STANDARD
 70
     0
  3

 62
     0
 51
90.0
 52
90.0
 71
     2
 49
0.5
 62
   256
  6
BYLAYER
 49
-0.5
 62
   256
  6
BYLAYER
  0
ACDBPLACEHOLDER
  5
A
102
{ACAD_REACTORS
330
B
102
}
330
B
  0
SCALE
  5
57
102
{ACAD_REACTORS
330
4E
102
}
330
4E
100
AcDbScale
 70
     0
300
1:1
140
1.0
141
1.0
290
     1
  0
SCALE
  5
58
102
{ACAD_REACTORS
330
4E
102
}
330
4E
100
AcDbScale
 70
     0
300
1:2
140
1.0
141
2.0
290
     0
  0
SCALE
  5
59
102
{ACAD_REACTORS
330
4E
102
}
330
4E
100
AcDbScale
 70
     0
300
1:4
140
1.0
141
4.0
290
     0
  0
SCALE
  5
5A
102
{ACAD_REACTORS
330
4E
102
}
330
4E
100
AcDbScale
 70
     0
300
1:5
140
1.0
141
5.0
290
     0
  0
SCALE
  5
5B
102
{ACAD_REACTORS
330
4E
102
}
330
4E
100
AcDbScale
 70
     0
300
1:8
140
1.0
141
8.0
290
     0
  0
SCALE
  5
5C
102
{ACAD_REACTORS
330
4E
102
}
330
4E
100
AcDbScale
 70
     0
300
1:10
140
1.0
141
10.0
290
     0
  0
SCALE
  5
5D
102
{ACAD_REACTORS
330
4E
102
}
330
4E
100
AcDbScale
 70
     0
300
1:16
140
1.0
141
16.0
290
     0
  0
SCALE
  5
5E
102
{ACAD_REACTORS
330
4E
102
}
330
4E
100
AcDbScale
 70
     0
300
1:20
140
1.0
141
20.0
290
     0
  0
SCALE
  5
5F
102
{ACAD_REACTORS
330
4E
102
}
330
4E
100
AcDbScale
 70
     0
300
1:30
140
1.0
141
30.0
290
     0
  0
SCALE
  5
60
102
{ACAD_REACTORS
330
4E
102
}
330
4E
100
AcDbScale
 70
     0
300
1:40
140
1.0
141
40.0
290
     0
  0
SCALE
  5
61
102
{ACAD_REACTORS
330
4E
102
}
330
4E
100
AcDbScale
 70
     0
300
1:50
140
1.0
141
50.0
290
     0
  0
SCALE
  5
62
102
{ACAD_REACTORS
330
4E
102
}
330
4E
100
AcDbScale
 70
     0
300
1:100
140
1.0
141
100.0
290
     0
  0
SCALE
  5
63
102
{ACAD_REACTORS
330
4E
102
}
330
4E
100
AcDbScale
 70
     0
300
2:1
140
2.0
141
1.0
290
     0
  0
SCALE
  5
64
102
{ACAD_REACTORS
330
4E
102
}
330
4E
100
AcDbScale
 70
     0
300
4:1
140
4.0
141
1.0
290
     0
  0
SCALE
  5
65
102
{ACAD_REACTORS
330
4E
102
}
330
4E
100
AcDbScale
 70
     0
300
8:1
140
8.0
141
1.0
290
     0
  0
SCALE
  5
66
102
{ACAD_REACTORS
330
4E
102
}
330
4E
100
AcDbScale
 70
     0
300
10:1
140
10.0
141
1.0
290
     0
  0
SCALE
  5
67
102
{ACAD_REACTORS
330
4E
102
}
330
4E
100
AcDbScale
 70
     0
300
100:1
140
100.0
141
1.0
290
     0
  0
ACDBSECTIONVIEWSTYLE
  5
267
102
{ACAD_XDICTIONARY
360
268
102
}
102
{ACAD_REACTORS
330
25C
330
266
102
}
330
25C
100
AcDbModelDocViewStyle
 70
     0
  3
Metric50
290
     0
100
AcDbSectionViewStyle
 70
     0
 71
     0
 90
      102
 71
     1
340
24
 40
5.0
340
0
340
0
 40
5.0
300
I, O, Q, S, X, Z
 40
10.0
 90
        0
 40
2.5
 90
        0
 71
     2
340
16
 90
       25
340
16
 90
       50
 40
5.0
 40
2.5
 40
5.0
 71
     3
340
24
 40
5.0
 90
        0
 40
15.0
 90
        1
300
%<\AcVar ViewSectionStartId>%-%<\AcVar ViewSectionEndId>% (%<\AcVar ViewScale \f "%sn">%)
 71
     4
300
ANSI31
 40
1.0
 90
        0
290
     0
290
     0
 90
        6
 40
0.0
 40
1.570796326794896
 40
0.2617993877991494
 40
1.308996938995747
 40
-0.2617993877991494
 40
1.832595714594045
  0
TABLESTYLE
  5
53
102
{ACAD_XDICTIONARY
360
54
102
}
102
{ACAD_REACTORS
330
4F
102
}
330
4F
100
AcDbTableStyle
  3
Standard
 70
     0
 71
     0
 40
1.5
 41
1.5
280
     0
281
     0
  7
STANDARD
140
4.5
170
     2
 62
     0
 63
     7
283
     0
274
    -2
284
     1
 64
     0
275
    -2
285
     1
 65
     0
276
    -2
286
     1
 66
     0
277
    -2
287
     1
 67
     0
278
    -2
288
     1
 68
     0
279
    -2
289
     1
 69
     0
  7
STANDARD
140
6.0
170
     5
 62
     0
 63
     7
283
     0
274
    -2
284
     1
 64
     0
275
    -2
285
     1
 65
     0
276
    -2
286
     1
 66
     0
277
    -2
287
     1
 67
     0
278
    -2
288
     1
 68
     0
279
    -2
289
     1
 69
     0
  7
STANDARD
140
4.5
170
     5
 62
     0
 63
     7
283
     0
274
    -2
284
     1
 64
     0
275
    -2
285
     1
 65
     0
276
    -2
286
     1
 66
     0
277
    -2
287
     1
 67
     0
278
    -2
288
     1
 68
     0
279
    -2
289
     1
 69
     0
  0
VISUALSTYLE
  5
2D
102
{ACAD_XDICTIONARY
360
2C7
102
}
102
{ACAD_REACTORS
330
2E
102
}
330
2E
100
AcDbVisualStyle
  2
2dWireframe
 70
     4
 71
     0
 72
     2
 73
     0
 90
        0
 40
-0.6
 41
-30.0
 62
     5
 63
     7
 74
     1
 91
        4
 64
     7
 65
   257
 75
     1
175
     1
 42
1.0
 92
        0
 66
   257
 43
1.0
 76
     1
 77
     6
 78
     2
 67
     7
 79
     5
170
     0
171
     0
290
     0
174
     0
 93
        1
 44
0.0
173
     0
291
     0
 45
0.0
1001
ACAD
1000
AcDbSavedByObjectVersion
1070
     0
  0
VISUALSTYLE
  5
55
102
{ACAD_XDICTIONARY
360
2CC
102
}
102
{ACAD_REACTORS
330
2E
102
}
330
2E
100
AcDbVisualStyle
  2
Realistic
 70
     8
 71
     2
 72
     2
 73
     0
 90
        0
 40
-0.6
 41
-30.0
 62
     5
 63
     7
 74
     1
 91
        0
 64
     7
 65
   257
 75
     1
175
     1
 42
1.0
 92
        8
 66
     8
 43
1.0
 76
     1
 77
     6
 78
     2
 67
     7
 79
     5
170
     0
171
     0
290
     0
174
     0
 93
       13
 44
0.0
173
     0
291
     0
 45
0.0
1001
ACAD
1000
AcDbSavedByObjectVersion
1070
     0
  0
VISUALSTYLE
  5
56
102
{ACAD_XDICTIONARY
360
2CE
102
}
102
{ACAD_REACTORS
330
2E
102
}
330
2E
100
AcDbVisualStyle
  2
Wireframe
 70
     5
 71
     0
 72
     2
 73
     0
 90
        0
 40
-0.6
 41
-30.0
 62
     5
 63
     7
 74
     1
 91
        4
 64
     7
 65
   257
 75
     1
175
     1
 42
1.0
 92
        0
 66
   257
 43
1.0
 76
     1
 77
     6
 78
     2
 67
     7
 79
     3
170
     0
171
     0
290
     0
174
     0
 93
        1
 44
0.0
173
     0
291
     0
 45
0.0
1001
ACAD
1000
AcDbSavedByObjectVersion
1070
     0
  0
DICTIONARYVAR
  5
2AE
102
{ACAD_REACTORS
330
2A9
102
}
330
2A9
100
DictionaryVariables
280
     0
  1
1:1
  0
DICTIONARYVAR
  5
2AB
102
{ACAD_REACTORS
330
2A9
102
}
330
2A9
100
DictionaryVariables
280
     0
  1
STANDARD
  0
DICTIONARYVAR
  5
2AA
102
{ACAD_REACTORS
330
2A9
102
}
330
2A9
100
DictionaryVariables
280
     0
  1
STANDARD
  0
DICTIONARYVAR
  5
2AC
102
{ACAD_REACTORS
330
2A9
102
}
330
2A9
100
DictionaryVariables
280
     0
  1

  0
DICTIONARYVAR
  5
2AD
102
{ACAD_REACTORS
330
2A9
102
}
330
2A9
100
DictionaryVariables
280
     0
  1

  0
DICTIONARYVAR
  5
2B3
102
{ACAD_REACTORS
330
2A9
102
}
330
2A9
100
DictionaryVariables
280
     0
  1
1
  0
DICTIONARYVAR
  5
2B1
102
{ACAD_REACTORS
330
2A9
102
}
330
2A9
100
DictionaryVariables
280
     0
  1
1
  0
DICTIONARYVAR
  5
2B0
102
{ACAD_REACTORS
330
2A9
102
}
330
2A9
100
DictionaryVariables
280
     0
  1
0
  0
DICTIONARYVAR
  5
2B5
102
{ACAD_REACTORS
330
2A9
102
}
330
2A9
100
DictionaryVariables
280
     0
  1
1.570796
  0
DICTIONARYVAR
  5
2B6
102
{ACAD_REACTORS
330
2A9
102
}
330
2A9
100
DictionaryVariables
280
     0
  1
1.570796
  0
DICTIONARYVAR
  5
2B7
102
{ACAD_REACTORS
330
2A9
102
}
330
2A9
100
DictionaryVariables
280
     0
  1
-122.394000
  0
DICTIONARYVAR
  5
2B4
102
{ACAD_REACTORS
330
2A9
102
}
330
2A9
100
DictionaryVariables
280
     0
  1
1
  0
DICTIONARYVAR
  5
2AF
102
{ACAD_REACTORS
330
2A9
102
}
330
2A9
100
DictionaryVariables
280
     0
  1
127
  0
DICTIONARYVAR
  5
2B2
102
{ACAD_REACTORS
330
2A9
102
}
330
2A9
100
DictionaryVariables
280
     0
  1
0
  0
DICTIONARY
  5
2C2
102
{ACAD_REACTORS
330
2C0
102
}
330
2C0
100
AcDbDictionary
281
     1
  0
DICTIONARY
  5
2C1
102
{ACAD_REACTORS
330
2C0
102
}
330
2C0
100
AcDbDictionary
281
     1
  3
8796079687216
350
2BB
  3
8796079687232
350
2BC
  3
8796079687248
350
2BD
  3
8796079687264
350
2BE
  3
8796079687280
350
2BF
  0
DICTIONARY
  5
242
102
{ACAD_REACTORS
330
241
102
}
330
241
100
AcDbDictionary
281
     1
  0
DICTIONARY
  5
23C
102
{ACAD_REACTORS
330
232
102
}
330
232
100
AcDbDictionary
281
     1
  3
DWGSETTINGS
350
23B
  3
TRANSSETTINGS
350
23D
  0
ACDBASSOCNETWORK
  5
2A1
102
{ACAD_REACTORS
330
4
102
}
330
4
100
AcDbAssocAction
 90
        1
 90
        1
330
2A3
360
0
 90
        1
 90
        0
 90
        0
100
AcDbAssocNetwork
 90
        0
 90
        1
 90
        1
360
287
 90
        1
330
287
  0
DICTIONARY
  5
259
330
258
100
AcDbDictionary
280
     1
281
     1
  3
ACAD_XREC_ROUNDTRIP
360
2D0
  0
DICTIONARY
  5
2C5
330
1E
100
AcDbDictionary
280
     1
281
     1
  3
ACAD_XREC_ROUNDTRIP
360
2C6
  0
DICTIONARY
  5
1A
330
18
100
AcDbDictionary
280
     1
281
     1
  3
ACAD_XREC_ROUNDTRIP
360
2C4
  0
DICTIONARY
  5
46
330
45
100
AcDbDictionary
280
     1
281
     1
  3
ACAD_XREC_ROUNDTRIP
360
2CA
  3
BUMPTILE
360
47
  3
DIFFUSETILE
360
48
  3
OPACITYTILE
360
49
  3
REFLECTIONTILE
360
4A
  3
REFRACTIONTILE
360
4B
  3
SPECULARTILE
360
4C
  0
DICTIONARY
  5
3E
330
3D
100
AcDbDictionary
280
     1
281
     1
  3
ACAD_XREC_ROUNDTRIP
360
2C9
  3
BUMPTILE
360
3F
  3
DIFFUSETILE
360
40
  3
OPACITYTILE
360
41
  3
REFLECTIONTILE
360
42
  3
REFRACTIONTILE
360
43
  3
SPECULARTILE
360
44
  0
DICTIONARY
  5
F
330
D
100
AcDbDictionary
280
     1
281
     1
  3
ACAD_XREC_ROUNDTRIP
360
2C3
  3
BUMPTILE
360
10
  3
DIFFUSETILE
360
11
  3
OPACITYTILE
360
12
  3
REFLECTIONTILE
360
13
  3
REFRACTIONTILE
360
14
  3
SPECULARTILE
360
15
  0
DICTIONARY
  5
268
330
267
100
AcDbDictionary
280
     1
281
     1
  3
ACAD_XREC_ROUNDTRIP
360
2D1
  0
DICTIONARY
  5
54
330
53
100
AcDbDictionary
280
     1
281
     1
  3
ACAD_ROUNDTRIP_2008_TABLESTYLE_CELLSTYLEMAP
360
2B8
  3
ACAD_XREC_ROUNDTRIP
360
2CB
  0
DICTIONARY
  5
2C7
330
2D
100
AcDbDictionary
280
     1
281
     1
  3
ACAD_XREC_ROUNDTRIP
360
2C8
  0
DICTIONARY
  5
2CC
330
55
100
AcDbDictionary
280
     1
281
     1
  3
ACAD_XREC_ROUNDTRIP
360
2CD
  0
DICTIONARY
  5
2CE
330
56
100
AcDbDictionary
280
     1
281
     1
  3
ACAD_XREC_ROUNDTRIP
360
2CF
  0
XRECORD
  5
2BB
102
{ACAD_REACTORS
330
2C1
102
}
330
2C1
100
AcDbXrecord
280
     1
  1
AcDb_Thumbnail_Schema
102
{ATTRRECORD
341
2BC
  2
AcDbDs::TreatedAsObjectData
280
     1
291
     1
102
ATTRRECORD}
102
{ATTRRECORD
341
2BD
  2
AcDbDs::Legacy
280
     1
291
     1
102
ATTRRECORD}
  2
AcDbDs::ID
280
    10
 91
        8
102
{ATTRRECORD
341
2BE
  2
AcDs:Indexable
280
     1
291
     1
102
ATTRRECORD}
102
{ATTRRECORD
341
2BF
  2
AcDbDs::HandleAttribute
280
     7
282
     1
102
ATTRRECORD}
  2
Thumbnail_Data
280
    15
 91
        0
  0
XRECORD
  5
2BC
102
{ACAD_REACTORS
330
2C1
102
}
330
2C1
100
AcDbXrecord
280
     1
  1
AcDbDs::TreatedAsObjectDataSchema
  2
AcDbDs::TreatedAsObjectData
280
     1
 91
        0
  0
XRECORD
  5
2BD
102
{ACAD_REACTORS
330
2C1
102
}
330
2C1
100
AcDbXrecord
280
     1
  1
AcDbDs::LegacySchema
  2
AcDbDs::Legacy
280
     1
 91
        0
  0
XRECORD
  5
2BE
102
{ACAD_REACTORS
330
2C1
102
}
330
2C1
100
AcDbXrecord
280
     1
  1
AcDbDs::IndexedPropertySchema
  2
AcDs:Indexable
280
     1
 91
        0
  0
XRECORD
  5
2BF
102
{ACAD_REACTORS
330
2C1
102
}
330
2C1
100
AcDbXrecord
280
     1
  1
AcDbDs::HandleAttributeSchema
  2
AcDbDs::HandleAttribute
280
     7
 91
        1
284
     1
  0
ACDBASSOC2DCONSTRAINTGROUP
  5
287
330
2A1
100
AcDbAssocAction
 90
        1
 90
        1
330
2A1
360
0
 90
        1
 90
       61
 90
        0
 90
        2
 70
     0
 10
0.0
 20
0.0
 30
0.0
 10
1.0
 20
0.0
 30
0.0
 10
0.0
 20
1.0
 30
0.0
360
0
 90
        1
360
288
 90
      398
 90
        7
  1
AcConstrainedBoundedLine
330
287
 90
        1
 70
     1
 90
        3
 90
        3
 90
        5
 90
        8
330
288
 90
        0
 10
158.0540498794649
 20
398.2633898150711
 30
0.0
 10
1.0
 20
0.0
 30
0.0
290
     0
 10
158.0540498794649
 20
398.2633898150711
 30
0.0
 11
182.7540498794649
 21
398.2633898150711
 31
0.0
  1
AcConstrainedImplicitPoint
330
287
 90
        2
 70
     1
 90
        1
 90
        3
330
0
 90
        0
280
     0
 90
       -1
 90
        1
  1
AcPointCurveConstraint
330
287
 90
        3
 70
     0
 90
        2
 90
        2
 90
        1
 90
        0
290
     1
290
     1
  1
AcConstrainedImplicitPoint
330
287
 90
        4
 70
     1
 90
        1
 90
        5
330
0
 90
        0
280
     1
 90
       -1
 90
        1
  1
AcPointCurveConstraint
330
287
 90
        5
 70
     0
 90
        2
 90
        4
 90
        1
 90
        0
290
     1
290
     1
  1
AcConstrainedDatumLine
330
287
 90
        6
 70
     0
 90
        0
330
0
 90
        0
 10
0.0
 20
0.0
 30
0.0
 10
1.0
 20
0.0
 30
0.0
  1
AcHorizontalConstraint
330
287
 90
        8
 70
     0
 90
        1
 90
        1
 90
        0
290
     0
290
     1
 90
        6
  0
XRECORD
  5
2D0
102
{ACAD_REACTORS
330
259
102
}
330
259
100
AcDbXrecord
280
     1
102
DISPLAYNAME
  1
Metric50
102
FLAGS
 90
        0
  0
XRECORD
  5
2C6
102
{ACAD_REACTORS
330
2C5
102
}
330
2C5
100
AcDbXrecord
280
     1
102
SHADEPLOT
 70
     0
102
SHADEPLOTRESLEVEL
 70
     2
102
SHADEPLOTCUSTOMDPI
 70
   300
  0
XRECORD
  5
2C4
102
{ACAD_REACTORS
330
1A
102
}
330
1A
100
AcDbXrecord
280
     1
102
SHADEPLOT
 70
     0
102
SHADEPLOTRESLEVEL
 70
     2
102
SHADEPLOTCUSTOMDPI
 70
   300
  0
XRECORD
  5
2CA
102
{ACAD_REACTORS
330
46
102
}
330
46
100
AcDbXrecord
280
     1
102
MATERIAL
148
0.0
149
0.0
149
0.0
 93
        0
 94
      127
282
     0
 72
     0
 77
     0
171
     0
175
     0
179
     0
273
     0
  0
XRECORD
  5
47
102
{ACAD_REACTORS
330
46
102
}
330
46
100
AcDbXrecord
280
     1
270
     1
271
     1
  0
XRECORD
  5
48
102
{ACAD_REACTORS
330
46
102
}
330
46
100
AcDbXrecord
280
     1
270
     1
271
     1
  0
XRECORD
  5
49
102
{ACAD_REACTORS
330
46
102
}
330
46
100
AcDbXrecord
280
     1
270
     1
271
     1
  0
XRECORD
  5
4A
102
{ACAD_REACTORS
330
46
102
}
330
46
100
AcDbXrecord
280
     1
270
     1
271
     1
  0
XRECORD
  5
4B
102
{ACAD_REACTORS
330
46
102
}
330
46
100
AcDbXrecord
280
     1
270
     1
271
     1
  0
XRECORD
  5
4C
102
{ACAD_REACTORS
330
46
102
}
330
46
100
AcDbXrecord
280
     1
270
     1
271
     1
  0
XRECORD
  5
2C9
102
{ACAD_REACTORS
330
3E
102
}
330
3E
100
AcDbXrecord
280
     1
102
MATERIAL
148
0.0
149
0.0
149
0.0
 93
        0
 94
      127
282
     0
 72
     0
 77
     0
171
     0
175
     0
179
     0
273
     0
  0
XRECORD
  5
3F
102
{ACAD_REACTORS
330
3E
102
}
330
3E
100
AcDbXrecord
280
     1
270
     1
271
     1
  0
XRECORD
  5
40
102
{ACAD_REACTORS
330
3E
102
}
330
3E
100
AcDbXrecord
280
     1
270
     1
271
     1
  0
XRECORD
  5
41
102
{ACAD_REACTORS
330
3E
102
}
330
3E
100
AcDbXrecord
280
     1
270
     1
271
     1
  0
XRECORD
  5
42
102
{ACAD_REACTORS
330
3E
102
}
330
3E
100
AcDbXrecord
280
     1
270
     1
271
     1
  0
XRECORD
  5
43
102
{ACAD_REACTORS
330
3E
102
}
330
3E
100
AcDbXrecord
280
     1
270
     1
271
     1
  0
XRECORD
  5
44
102
{ACAD_REACTORS
330
3E
102
}
330
3E
100
AcDbXrecord
280
     1
270
     1
271
     1
  0
XRECORD
  5
2C3
102
{ACAD_REACTORS
330
F
102
}
330
F
100
AcDbXrecord
280
     1
102
MATERIAL
148
0.0
149
0.0
149
0.0
 93
        0
 94
      127
282
     0
 72
     0
 77
     0
171
     0
175
     0
179
     0
273
     0
  0
XRECORD
  5
10
102
{ACAD_REACTORS
330
F
102
}
330
F
100
AcDbXrecord
280
     1
270
     1
271
     1
  0
XRECORD
  5
11
102
{ACAD_REACTORS
330
F
102
}
330
F
100
AcDbXrecord
280
     1
270
     1
271
     1
  0
XRECORD
  5
12
102
{ACAD_REACTORS
330
F
102
}
330
F
100
AcDbXrecord
280
     1
270
     1
271
     1
  0
XRECORD
  5
13
102
{ACAD_REACTORS
330
F
102
}
330
F
100
AcDbXrecord
280
     1
270
     1
271
     1
  0
XRECORD
  5
14
102
{ACAD_REACTORS
330
F
102
}
330
F
100
AcDbXrecord
280
     1
270
     1
271
     1
  0
XRECORD
  5
15
102
{ACAD_REACTORS
330
F
102
}
330
F
100
AcDbXrecord
280
     1
270
     1
271
     1
  0
XRECORD
  5
2D1
102
{ACAD_REACTORS
330
268
102
}
330
268
100
AcDbXrecord
280
     1
102
DISPLAYNAME
  1
Metric50
102
FLAGS
 90
        0
  0
CELLSTYLEMAP
  5
2B8
102
{ACAD_REACTORS
330
54
102
}
330
54
100
AcDbCellStyleMap
 90
        3
300
CELLSTYLE
  1
TABLEFORMAT_BEGIN
 90
        5
170
     1
 91
        0
 92
    32768
 62
   257
 93
        1
300
CONTENTFORMAT
  1
CONTENTFORMAT_BEGIN
 90
        0
 91
        0
 92
        4
 93
        0
300

 40
0.0
140
1.0
 94
        5
 62
     0
340
24
144
6.0
309
CONTENTFORMAT_END
171
     1
301
MARGIN
  1
CELLMARGIN_BEGIN
 40
1.5
 40
1.5
 40
1.5
 40
1.5
 40
0.18
 40
0.18
309
CELLMARGIN_END
 94
        6
 95
        1
302
GRIDFORMAT
  1
GRIDFORMAT_BEGIN
 90
        0
 91
        1
 62
     0
 92
       -2
340
0
 93
        0
 40
0.045
309
GRIDFORMAT_END
 95
        2
302
GRIDFORMAT
  1
GRIDFORMAT_BEGIN
 90
        0
 91
        1
 62
     0
 92
       -2
340
0
 93
        0
 40
0.045
309
GRIDFORMAT_END
 95
        4
302
GRIDFORMAT
  1
GRIDFORMAT_BEGIN
 90
        0
 91
        1
 62
     0
 92
       -2
340
0
 93
        0
 40
0.045
309
GRIDFORMAT_END
 95
        8
302
GRIDFORMAT
  1
GRIDFORMAT_BEGIN
 90
        0
 91
        1
 62
     0
 92
       -2
340
0
 93
        0
 40
0.045
309
GRIDFORMAT_END
 95
       16
302
GRIDFORMAT
  1
GRIDFORMAT_BEGIN
 90
        0
 91
        1
 62
     0
 92
       -2
340
0
 93
        0
 40
0.045
309
GRIDFORMAT_END
 95
       32
302
GRIDFORMAT
  1
GRIDFORMAT_BEGIN
 90
        0
 91
        1
 62
     0
 92
       -2
340
0
 93
        0
 40
0.045
309
GRIDFORMAT_END
309
TABLEFORMAT_END
  1
CELLSTYLE_BEGIN
 90
        1
 91
        1
300
_TITLE
309
CELLSTYLE_END
300
CELLSTYLE
  1
TABLEFORMAT_BEGIN
 90
        5
170
     1
 91
        0
 92
        0
 62
   257
 93
        1
300
CONTENTFORMAT
  1
CONTENTFORMAT_BEGIN
 90
        0
 91
        0
 92
        4
 93
        0
300

 40
0.0
140
1.0
 94
        5
 62
     0
340
24
144
4.5
309
CONTENTFORMAT_END
171
     1
301
MARGIN
  1
CELLMARGIN_BEGIN
 40
1.5
 40
1.5
 40
1.5
 40
1.5
 40
0.18
 40
0.18
309
CELLMARGIN_END
 94
        6
 95
        1
302
GRIDFORMAT
  1
GRIDFORMAT_BEGIN
 90
        0
 91
        1
 62
     0
 92
       -2
340
0
 93
        0
 40
0.045
309
GRIDFORMAT_END
 95
        2
302
GRIDFORMAT
  1
GRIDFORMAT_BEGIN
 90
        0
 91
        1
 62
     0
 92
       -2
340
0
 93
        0
 40
0.045
309
GRIDFORMAT_END
 95
        4
302
GRIDFORMAT
  1
GRIDFORMAT_BEGIN
 90
        0
 91
        1
 62
     0
 92
       -2
340
0
 93
        0
 40
0.045
309
GRIDFORMAT_END
 95
        8
302
GRIDFORMAT
  1
GRIDFORMAT_BEGIN
 90
        0
 91
        1
 62
     0
 92
       -2
340
0
 93
        0
 40
0.045
309
GRIDFORMAT_END
 95
       16
302
GRIDFORMAT
  1
GRIDFORMAT_BEGIN
 90
        0
 91
        1
 62
     0
 92
       -2
340
0
 93
        0
 40
0.045
309
GRIDFORMAT_END
 95
       32
302
GRIDFORMAT
  1
GRIDFORMAT_BEGIN
 90
        0
 91
        1
 62
     0
 92
       -2
340
0
 93
        0
 40
0.045
309
GRIDFORMAT_END
309
TABLEFORMAT_END
  1
CELLSTYLE_BEGIN
 90
        2
 91
        1
300
_HEADER
309
CELLSTYLE_END
300
CELLSTYLE
  1
TABLEFORMAT_BEGIN
 90
        5
170
     1
 91
        0
 92
        0
 62
   257
 93
        1
300
CONTENTFORMAT
  1
CONTENTFORMAT_BEGIN
 90
        0
 91
        0
 92
        4
 93
        0
300

 40
0.0
140
1.0
 94
        2
 62
     0
340
24
144
4.5
309
CONTENTFORMAT_END
171
     1
301
MARGIN
  1
CELLMARGIN_BEGIN
 40
1.5
 40
1.5
 40
1.5
 40
1.5
 40
0.18
 40
0.18
309
CELLMARGIN_END
 94
        6
 95
        1
302
GRIDFORMAT
  1
GRIDFORMAT_BEGIN
 90
        0
 91
        1
 62
     0
 92
       -2
340
0
 93
        0
 40
0.045
309
GRIDFORMAT_END
 95
        2
302
GRIDFORMAT
  1
GRIDFORMAT_BEGIN
 90
        0
 91
        1
 62
     0
 92
       -2
340
0
 93
        0
 40
0.045
309
GRIDFORMAT_END
 95
        4
302
GRIDFORMAT
  1
GRIDFORMAT_BEGIN
 90
        0
 91
        1
 62
     0
 92
       -2
340
0
 93
        0
 40
0.045
309
GRIDFORMAT_END
 95
        8
302
GRIDFORMAT
  1
GRIDFORMAT_BEGIN
 90
        0
 91
        1
 62
     0
 92
       -2
340
0
 93
        0
 40
0.045
309
GRIDFORMAT_END
 95
       16
302
GRIDFORMAT
  1
GRIDFORMAT_BEGIN
 90
        0
 91
        1
 62
     0
 92
       -2
340
0
 93
        0
 40
0.045
309
GRIDFORMAT_END
 95
       32
302
GRIDFORMAT
  1
GRIDFORMAT_BEGIN
 90
        0
 91
        1
 62
     0
 92
       -2
340
0
 93
        0
 40
0.045
309
GRIDFORMAT_END
309
TABLEFORMAT_END
  1
CELLSTYLE_BEGIN
 90
        3
 91
        2
300
_DATA
309
CELLSTYLE_END
  0
XRECORD
  5
2CB
102
{ACAD_REACTORS
330
54
102
}
330
54
100
AcDbXrecord
280
     1
102
ACAD_ROUNDTRIP_PRE2007_TABLESTYLE
 90
        4
 91
        0
  1

 92
        4
 93
        0
  2

 94
        4
 95
        0
  3

  0
XRECORD
  5
2C8
102
{ACAD_REACTORS
330
2C7
102
}
330
2C7
100
AcDbXrecord
280
     1
102
RTVSPost2010Prop28
280
     1
102
RTVSPost2010PropOp28
 70
     1
102
RTVSPost2010Prop29
280
     1
102
RTVSPost2010PropOp29
 70
     1
102
RTVSPost2010Prop30
280
     0
102
RTVSPost2010PropOp30
 70
     1
102
RTVSPost2010Prop31
280
     0
102
RTVSPost2010PropOp31
 70
     1
102
RTVSPost2010Prop32
280
     0
102
RTVSPost2010PropOp32
 70
     1
102
RTVSPost2010Prop33
280
     0
102
RTVSPost2010PropOp33
 70
     1
102
RTVSPost2010Prop34
280
     0
102
RTVSPost2010PropOp34
 70
     1
102
RTVSPost2010Prop35
280
     0
102
RTVSPost2010PropOp35
 70
     1
102
RTVSPost2010Prop36
280
     0
102
RTVSPost2010PropOp36
 70
     1
102
RTVSPost2010Prop37
 90
       50
102
RTVSPost2010PropOp37
 70
     1
102
RTVSPost2010Prop38
140
0.0
102
RTVSPost2010PropOp38
 70
     1
102
RTVSPost2010Prop39
140
1.0
102
RTVSPost2010PropOp39
 70
     1
102
RTVSPost2010Prop40
 90
        0
102
RTVSPost2010PropOp40
 70
     1
102
RTVSPost2010Prop41ColorIndex
 90
       18
102
RTVSPost2010Prop41ColorRGB
 90
-16777216
102
RTVSPost2010PropOp41
 70
     1
102
RTVSPost2010Prop42
 90
       50
102
RTVSPost2010PropOp42
 70
     1
102
RTVSPost2010Prop43
 90
        3
102
RTVSPost2010PropOp43
 70
     1
102
RTVSPost2010Prop44ColorIndex
 90
        5
102
RTVSPost2010Prop44ColorRGB
 90
      255
102
RTVSPost2010PropOp44
 70
     1
102
RTVSPost2010Prop45
280
     0
102
RTVSPost2010PropOp45
 70
     1
102
RTVSPost2010Prop46
 90
       50
102
RTVSPost2010PropOp46
 70
     1
102
RTVSPost2010Prop47
 90
       50
102
RTVSPost2010PropOp47
 70
     1
102
RTVSPost2010Prop48
 90
       50
102
RTVSPost2010PropOp48
 70
     1
102
RTVSPost2010Prop49
280
     0
102
RTVSPost2010PropOp49
 70
     1
102
RTVSPost2010Prop50
 90
       50
102
RTVSPost2010PropOp50
 70
     1
102
RTVSPost2010Prop51ColorIndex
 90
      256
102
RTVSPost2010Prop51ColorRGB
 90
-16777216
102
RTVSPost2010PropOp51
 70
     0
102
RTVSPost2010Prop52
140
1.0
102
RTVSPost2010PropOp52
 70
     0
102
RTVSPost2010Prop53
 90
        2
102
RTVSPost2010PropOp53
 70
     1
102
RTVSPost2010Prop54
  1
strokes_ogs.tif
102
RTVSPost2010PropOp54
 70
     1
102
RTVSPost2010Prop55
280
     0
102
RTVSPost2010PropOp55
 70
     1
102
RTVSPost2010Prop56
140
1.0
102
RTVSPost2010PropOp56
 70
     1
102
RTVSPost2010Prop57
140
1.0
102
RTVSPost2010PropOp57
 70
     1
102
RTVSPropertyOp0
 70
     1
102
RTVSPropertyOp1
 70
     1
102
RTVSPropertyOp2
 70
     1
102
RTVSPropertyOp3
 70
     1
102
RTVSPropertyOp4
 70
     1
102
RTVSPropertyOp5
 70
     1
102
RTVSPropertyOp6
 70
     1
102
RTVSPropertyOp7
 70
     1
102
RTVSPropertyOp8
 70
     1
102
RTVSPropertyOp9
 70
     1
102
RTVSPropertyOp10
 70
     1
102
RTVSPropertyOp11
 70
     1
102
RTVSPropertyOp12
 70
     1
102
RTVSPropertyOp13
 70
     1
102
RTVSPropertyOp14
 70
     1
102
RTVSPropertyOp15
 70
     1
102
RTVSPropertyOp16
 70
     1
102
RTVSPropertyOp17
 70
     1
102
RTVSPropertyOp18
 70
     1
102
RTVSPropertyOp19
 70
     1
102
RTVSPropertyOp20
 70
     1
102
RTVSPropertyOp21
 70
     1
102
RTVSPropertyOp22
 70
     1
102
RTVSPropertyOp23
 70
     1
102
RTVSPropertyOp24
 70
     1
102
RTVSPropertyOp25
 70
     1
102
RTVSPropertyOp26
 70
     1
102
RTVSPropertyOp27
 70
     1
102
RTVSPropertyOp28
 70
     1
102
RTVSPropertyOp29
 70
     1
102
RTVSPropertyOp30
 70
     1
102
RTVSPropertyOp31
 70
     1
102
RTVSPropertyOp32
 70
     1
102
RTVSPropertyOp33
 70
     1
102
RTVSPropertyOp34
 70
     1
102
RTVSPropertyOp35
 70
     1
102
RTVSPropertyOp36
 70
     1
102
RTVSPropertyOp37
 70
     1
102
RTVSPropertyOp38
 70
     1
102
RTVSPropertyOp39
 70
     1
102
RTVSPropertyOp40
 70
     1
102
RTVSPropertyOp41
 70
     1
102
RTVSPropertyOp42
 70
     1
102
RTVSPropertyOp43
 70
     1
102
RTVSPropertyOp44
 70
     1
102
RTVSPropertyOp45
 70
     1
102
RTVSPropertyOp46
 70
     1
102
RTVSPropertyOp47
 70
     1
102
RTVSPropertyOp48
 70
     1
102
RTVSPropertyOp49
 70
     1
102
RTVSPropertyOp50
 70
     1
102
RTVSPropertyOp51
 70
     0
102
RTVSPropertyOp52
 70
     0
102
RTVSPropertyOp53
 70
     1
102
RTVSPropertyOp54
 70
     1
102
RTVSPropertyOp55
 70
     1
102
RTVSPropertyOp56
 70
     1
102
RTVSPropertyOp57
 70
     1
102
RTVSPropertyOp58
 70
     1
102
RTVSPropertyOp59
 70
     1
102
RTVSPropertyOp60
 70
     1
102
RTVSPropertyOp61
 70
     1
102
RTVSPropertyOp62
 70
     1
  0
XRECORD
  5
2CD
102
{ACAD_REACTORS
330
2CC
102
}
330
2CC
100
AcDbXrecord
280
     1
102
RTVSPost2010Prop28
280
     0
102
RTVSPost2010PropOp28
 70
     1
102
RTVSPost2010Prop29
280
     1
102
RTVSPost2010PropOp29
 70
     1
102
RTVSPost2010Prop30
280
     1
102
RTVSPost2010PropOp30
 70
     1
102
RTVSPost2010Prop31
280
     0
102
RTVSPost2010PropOp31
 70
     1
102
RTVSPost2010Prop32
280
     0
102
RTVSPost2010PropOp32
 70
     1
102
RTVSPost2010Prop33
280
     0
102
RTVSPost2010PropOp33
 70
     1
102
RTVSPost2010Prop34
280
     0
102
RTVSPost2010PropOp34
 70
     1
102
RTVSPost2010Prop35
280
     0
102
RTVSPost2010PropOp35
 70
     1
102
RTVSPost2010Prop36
280
     0
102
RTVSPost2010PropOp36
 70
     1
102
RTVSPost2010Prop37
 90
       50
102
RTVSPost2010PropOp37
 70
     1
102
RTVSPost2010Prop38
140
0.0
102
RTVSPost2010PropOp38
 70
     1
102
RTVSPost2010Prop39
140
1.0
102
RTVSPost2010PropOp39
 70
     1
102
RTVSPost2010Prop40
 90
        0
102
RTVSPost2010PropOp40
 70
     1
102
RTVSPost2010Prop41ColorIndex
 90
       18
102
RTVSPost2010Prop41ColorRGB
 90
-16777216
102
RTVSPost2010PropOp41
 70
     1
102
RTVSPost2010Prop42
 90
       50
102
RTVSPost2010PropOp42
 70
     1
102
RTVSPost2010Prop43
 90
        3
102
RTVSPost2010PropOp43
 70
     1
102
RTVSPost2010Prop44ColorIndex
 90
        5
102
RTVSPost2010Prop44ColorRGB
 90
      255
102
RTVSPost2010PropOp44
 70
     1
102
RTVSPost2010Prop45
280
     0
102
RTVSPost2010PropOp45
 70
     1
102
RTVSPost2010Prop46
 90
       50
102
RTVSPost2010PropOp46
 70
     1
102
RTVSPost2010Prop47
 90
       50
102
RTVSPost2010PropOp47
 70
     1
102
RTVSPost2010Prop48
 90
       50
102
RTVSPost2010PropOp48
 70
     1
102
RTVSPost2010Prop49
280
     0
102
RTVSPost2010PropOp49
 70
     1
102
RTVSPost2010Prop50
 90
       50
102
RTVSPost2010PropOp50
 70
     1
102
RTVSPost2010Prop51ColorIndex
 90
      256
102
RTVSPost2010Prop51ColorRGB
 90
-16777216
102
RTVSPost2010PropOp51
 70
     0
102
RTVSPost2010Prop52
140
1.0
102
RTVSPost2010PropOp52
 70
     0
102
RTVSPost2010Prop53
 90
        2
102
RTVSPost2010PropOp53
 70
     1
102
RTVSPost2010Prop54
  1
strokes_ogs.tif
102
RTVSPost2010PropOp54
 70
     1
102
RTVSPost2010Prop55
280
     0
102
RTVSPost2010PropOp55
 70
     1
102
RTVSPost2010Prop56
140
1.0
102
RTVSPost2010PropOp56
 70
     1
102
RTVSPost2010Prop57
140
1.0
102
RTVSPost2010PropOp57
 70
     1
102
RTVSPropertyOp0
 70
     1
102
RTVSPropertyOp1
 70
     1
102
RTVSPropertyOp2
 70
     1
102
RTVSPropertyOp3
 70
     1
102
RTVSPropertyOp4
 70
     1
102
RTVSPropertyOp5
 70
     1
102
RTVSPropertyOp6
 70
     1
102
RTVSPropertyOp7
 70
     1
102
RTVSPropertyOp8
 70
     1
102
RTVSPropertyOp9
 70
     1
102
RTVSPropertyOp10
 70
     1
102
RTVSPropertyOp11
 70
     1
102
RTVSPropertyOp12
 70
     1
102
RTVSPropertyOp13
 70
     1
102
RTVSPropertyOp14
 70
     1
102
RTVSPropertyOp15
 70
     1
102
RTVSPropertyOp16
 70
     1
102
RTVSPropertyOp17
 70
     1
102
RTVSPropertyOp18
 70
     1
102
RTVSPropertyOp19
 70
     1
102
RTVSPropertyOp20
 70
     1
102
RTVSPropertyOp21
 70
     1
102
RTVSPropertyOp22
 70
     1
102
RTVSPropertyOp23
 70
     1
102
RTVSPropertyOp24
 70
     1
102
RTVSPropertyOp25
 70
     1
102
RTVSPropertyOp26
 70
     1
102
RTVSPropertyOp27
 70
     1
102
RTVSPropertyOp28
 70
     1
102
RTVSPropertyOp29
 70
     1
102
RTVSPropertyOp30
 70
     1
102
RTVSPropertyOp31
 70
     1
102
RTVSPropertyOp32
 70
     1
102
RTVSPropertyOp33
 70
     1
102
RTVSPropertyOp34
 70
     1
102
RTVSPropertyOp35
 70
     1
102
RTVSPropertyOp36
 70
     1
102
RTVSPropertyOp37
 70
     1
102
RTVSPropertyOp38
 70
     1
102
RTVSPropertyOp39
 70
     1
102
RTVSPropertyOp40
 70
     1
102
RTVSPropertyOp41
 70
     1
102
RTVSPropertyOp42
 70
     1
102
RTVSPropertyOp43
 70
     1
102
RTVSPropertyOp44
 70
     1
102
RTVSPropertyOp45
 70
     1
102
RTVSPropertyOp46
 70
     1
102
RTVSPropertyOp47
 70
     1
102
RTVSPropertyOp48
 70
     1
102
RTVSPropertyOp49
 70
     1
102
RTVSPropertyOp50
 70
     1
102
RTVSPropertyOp51
 70
     0
102
RTVSPropertyOp52
 70
     0
102
RTVSPropertyOp53
 70
     1
102
RTVSPropertyOp54
 70
     1
102
RTVSPropertyOp55
 70
     1
102
RTVSPropertyOp56
 70
     1
102
RTVSPropertyOp57
 70
     1
102
RTVSPropertyOp58
 70
     1
102
RTVSPropertyOp59
 70
     1
102
RTVSPropertyOp60
 70
     1
102
RTVSPropertyOp61
 70
     1
102
RTVSPropertyOp62
 70
     1
  0
XRECORD
  5
2CF
102
{ACAD_REACTORS
330
2CE
102
}
330
2CE
100
AcDbXrecord
280
     1
102
RTVSPost2010Prop28
280
     0
102
RTVSPost2010PropOp28
 70
     1
102
RTVSPost2010Prop29
280
     1
102
RTVSPost2010PropOp29
 70
     1
102
RTVSPost2010Prop30
280
     1
102
RTVSPost2010PropOp30
 70
     1
102
RTVSPost2010Prop31
280
     0
102
RTVSPost2010PropOp31
 70
     1
102
RTVSPost2010Prop32
280
     0
102
RTVSPost2010PropOp32
 70
     1
102
RTVSPost2010Prop33
280
     0
102
RTVSPost2010PropOp33
 70
     1
102
RTVSPost2010Prop34
280
     0
102
RTVSPost2010PropOp34
 70
     1
102
RTVSPost2010Prop35
280
     0
102
RTVSPost2010PropOp35
 70
     1
102
RTVSPost2010Prop36
280
     0
102
RTVSPost2010PropOp36
 70
     1
102
RTVSPost2010Prop37
 90
       50
102
RTVSPost2010PropOp37
 70
     1
102
RTVSPost2010Prop38
140
0.0
102
RTVSPost2010PropOp38
 70
     1
102
RTVSPost2010Prop39
140
1.0
102
RTVSPost2010PropOp39
 70
     1
102
RTVSPost2010Prop40
 90
        0
102
RTVSPost2010PropOp40
 70
     1
102
RTVSPost2010Prop41ColorIndex
 90
       18
102
RTVSPost2010Prop41ColorRGB
 90
-16777216
102
RTVSPost2010PropOp41
 70
     1
102
RTVSPost2010Prop42
 90
       50
102
RTVSPost2010PropOp42
 70
     1
102
RTVSPost2010Prop43
 90
        3
102
RTVSPost2010PropOp43
 70
     1
102
RTVSPost2010Prop44ColorIndex
 90
        5
102
RTVSPost2010Prop44ColorRGB
 90
      255
102
RTVSPost2010PropOp44
 70
     1
102
RTVSPost2010Prop45
280
     0
102
RTVSPost2010PropOp45
 70
     1
102
RTVSPost2010Prop46
 90
       50
102
RTVSPost2010PropOp46
 70
     1
102
RTVSPost2010Prop47
 90
       50
102
RTVSPost2010PropOp47
 70
     1
102
RTVSPost2010Prop48
 90
       50
102
RTVSPost2010PropOp48
 70
     1
102
RTVSPost2010Prop49
280
     0
102
RTVSPost2010PropOp49
 70
     1
102
RTVSPost2010Prop50
 90
       50
102
RTVSPost2010PropOp50
 70
     1
102
RTVSPost2010Prop51ColorIndex
 90
      256
102
RTVSPost2010Prop51ColorRGB
 90
-16777216
102
RTVSPost2010PropOp51
 70
     0
102
RTVSPost2010Prop52
140
1.0
102
RTVSPost2010PropOp52
 70
     0
102
RTVSPost2010Prop53
 90
        2
102
RTVSPost2010PropOp53
 70
     1
102
RTVSPost2010Prop54
  1
strokes_ogs.tif
102
RTVSPost2010PropOp54
 70
     1
102
RTVSPost2010Prop55
280
     0
102
RTVSPost2010PropOp55
 70
     1
102
RTVSPost2010Prop56
140
1.0
102
RTVSPost2010PropOp56
 70
     1
102
RTVSPost2010Prop57
140
1.0
102
RTVSPost2010PropOp57
 70
     1
102
RTVSPropertyOp0
 70
     1
102
RTVSPropertyOp1
 70
     1
102
RTVSPropertyOp2
 70
     1
102
RTVSPropertyOp3
 70
     1
102
RTVSPropertyOp4
 70
     1
102
RTVSPropertyOp5
 70
     1
102
RTVSPropertyOp6
 70
     1
102
RTVSPropertyOp7
 70
     1
102
RTVSPropertyOp8
 70
     1
102
RTVSPropertyOp9
 70
     1
102
RTVSPropertyOp10
 70
     1
102
RTVSPropertyOp11
 70
     1
102
RTVSPropertyOp12
 70
     1
102
RTVSPropertyOp13
 70
     1
102
RTVSPropertyOp14
 70
     1
102
RTVSPropertyOp15
 70
     1
102
RTVSPropertyOp16
 70
     1
102
RTVSPropertyOp17
 70
     1
102
RTVSPropertyOp18
 70
     1
102
RTVSPropertyOp19
 70
     1
102
RTVSPropertyOp20
 70
     1
102
RTVSPropertyOp21
 70
     1
102
RTVSPropertyOp22
 70
     1
102
RTVSPropertyOp23
 70
     1
102
RTVSPropertyOp24
 70
     1
102
RTVSPropertyOp25
 70
     1
102
RTVSPropertyOp26
 70
     1
102
RTVSPropertyOp27
 70
     1
102
RTVSPropertyOp28
 70
     1
102
RTVSPropertyOp29
 70
     1
102
RTVSPropertyOp30
 70
     1
102
RTVSPropertyOp31
 70
     1
102
RTVSPropertyOp32
 70
     1
102
RTVSPropertyOp33
 70
     1
102
RTVSPropertyOp34
 70
     1
102
RTVSPropertyOp35
 70
     1
102
RTVSPropertyOp36
 70
     1
102
RTVSPropertyOp37
 70
     1
102
RTVSPropertyOp38
 70
     1
102
RTVSPropertyOp39
 70
     1
102
RTVSPropertyOp40
 70
     1
102
RTVSPropertyOp41
 70
     1
102
RTVSPropertyOp42
 70
     1
102
RTVSPropertyOp43
 70
     1
102
RTVSPropertyOp44
 70
     1
102
RTVSPropertyOp45
 70
     1
102
RTVSPropertyOp46
 70
     1
102
RTVSPropertyOp47
 70
     1
102
RTVSPropertyOp48
 70
     1
102
RTVSPropertyOp49
 70
     1
102
RTVSPropertyOp50
 70
     1
102
RTVSPropertyOp51
 70
     0
102
RTVSPropertyOp52
 70
     0
102
RTVSPropertyOp53
 70
     1
102
RTVSPropertyOp54
 70
     1
102
RTVSPropertyOp55
 70
     1
102
RTVSPropertyOp56
 70
     1
102
RTVSPropertyOp57
 70
     1
102
RTVSPropertyOp58
 70
     1
102
RTVSPropertyOp59
 70
     1
102
RTVSPropertyOp60
 70
     1
102
RTVSPropertyOp61
 70
     1
102
RTVSPropertyOp62
 70
     1
  0
ACDBASSOCGEOMDEPENDENCY
  5
288
330
287
100
AcDbAssocDependency
 90
        2
 90
        1
290
     1
290
     1
290
     1
290
     1
 90
   -10000
330
1A6
290
     0
330
0
330
0
360
0
 90
        1
100
AcDbAssocGeomDependency
 90
        0
290
     1
  1
AcDbAssocSingleEdgePersSubentId
290
     0
  0
ENDSEC
  0
EOF
