  0
SECTION
  2
HEADER
  9
$ACADVER
  1
AC1027
  9
$ACADMAINTVER
 70
    57
  9
$DWGCODEPAGE
  3
ANSI_1252
  9
$LASTSAVEDBY
  1
chrwyd
  9
$CUSTOMPROPERTYTAG
  1
AmdtFileType
  9
$CUSTOMPROPERTY
  1
84
  9
$REQUIREDVERSIONS
160
                 0
  9
$INSBASE
 10
0.0
 20
0.0
 30
0.0
  9
$EXTMIN
 10
-79.18230086560512
 20
-199.4297846312709
 30
0.0
  9
$EXTMAX
 10
109.8576359268453
 20
362.256434891033
 30
0.0
  9
$LIMMIN
 10
0.0
 20
0.0
  9
$LIMMAX
 10
420.0
 20
420.0
  9
$ORTHOMODE
 70
     0
  9
$REGENMODE
 70
     1
  9
$FILLMODE
 70
     1
  9
$QTEXTMODE
 70
     0
  9
$MIRRTEXT
 70
     0
  9
$LTSCALE
 40
1.0
  9
$ATTMODE
 70
     1
  9
$TEXTSIZE
 40
2.399999999999999
  9
$TRACEWID
 40
0.05
  9
$TEXTSTYLE
  7
NORM
  9
$CLAYER
  8
UMRISS07
  9
$CELTYPE
  6
BYLAYER
  9
$CECOLOR
 62
   256
  9
$CELTSCALE
 40
1.0
  9
$DISPSILH
 70
     0
  9
$DIMSCALE
 40
1.0
  9
$DIMASZ
 40
3.5
  9
$DIMEXO
 40
0.0
  9
$DIMDLI
 40
8.0
  9
$DIMRND
 40
0.0
  9
$DIMDLE
 40
0.0
  9
$DIMEXE
 40
0.5
  9
$DIMTP
 40
0.0
  9
$DIMTM
 40
0.0
  9
$DIMTXT
 40
3.5
  9
$DIMCEN
 40
1.5
  9
$DIMTSZ
 40
0.0
  9
$DIMTOL
 70
     0
  9
$DIMLIM
 70
     0
  9
$DIMTIH
 70
     0
  9
$DIMTOH
 70
     0
  9
$DIMSE1
 70
     0
  9
$DIMSE2
 70
     0
  9
$DIMTAD
 70
     1
  9
$DIMZIN
 70
     8
  9
$DIMBLK
  1

  9
$DIMASO
 70
     1
  9
$DIMSHO
 70
     1
  9
$DIMPOST
  1

  9
$DIMAPOST
  1

  9
$DIMALT
 70
     0
  9
$DIMALTD
 70
     2
  9
$DIMALTF
 40
25.4
  9
$DIMLFAC
 40
1.0
  9
$DIMTOFL
 70
     1
  9
$DIMTVP
 40
0.0
  9
$DIMTIX
 70
     1
  9
$DIMSOXD
 70
     0
  9
$DIMSAH
 70
     0
  9
$DIMBLK1
  1

  9
$DIMBLK2
  1

  9
$DIMSTYLE
  2
NORMAL
  9
$DIMCLRD
 70
   256
  9
$DIMCLRE
 70
   256
  9
$DIMCLRT
 70
     3
  9
$DIMTFAC
 40
0.5
  9
$DIMGAP
 40
1.0
  9
$DIMJUST
 70
     0
  9
$DIMSD1
 70
     0
  9
$DIMSD2
 70
     0
  9
$DIMTOLJ
 70
     1
  9
$DIMTZIN
 70
     8
  9
$DIMALTZ
 70
     0
  9
$DIMALTTZ
 70
     0
  9
$DIMUPT
 70
     0
  9
$DIMDEC
 70
     2
  9
$DIMTDEC
 70
     2
  9
$DIMALTU
 70
     2
  9
$DIMALTTD
 70
     2
  9
$DIMTXSTY
  7
ARIAL-STANDARD
  9
$DIMAUNIT
 70
     0
  9
$DIMADEC
 70
     0
  9
$DIMALTRND
 40
0.0
  9
$DIMAZIN
 70
     0
  9
$DIMDSEP
 70
    46
  9
$DIMATFIT
 70
     3
  9
$DIMFRAC
 70
     0
  9
$DIMLDRBLK
  1

  9
$DIMLUNIT
 70
     2
  9
$DIMLWD
 70
    -2
  9
$DIMLWE
 70
    -2
  9
$DIMTMOVE
 70
     0
  9
$DIMFXL
 40
1.0
  9
$DIMFXLON
 70
     0
  9
$DIMJOGANG
 40
0.7853981633974483
  9
$DIMTFILL
 70
     0
  9
$DIMTFILLCLR
 70
     0
  9
$DIMARCSYM
 70
     0
  9
$DIMLTYPE
  6

  9
$DIMLTEX1
  6

  9
$DIMLTEX2
  6

  9
$DIMTXTDIRECTION
 70
     0
  9
$LUNITS
 70
     2
  9
$LUPREC
 70
     2
  9
$SKETCHINC
 40
0.1
  9
$FILLETRAD
 40
0.0
  9
$AUNITS
 70
     0
  9
$AUPREC
 70
     0
  9
$MENU
  1
.
  9
$ELEVATION
 40
0.0
  9
$PELEVATION
 40
0.0
  9
$THICKNESS
 40
0.0
  9
$LIMCHECK
 70
     0
  9
$CHAMFERA
 40
2.5
  9
$CHAMFERB
 40
2.5
  9
$CHAMFERC
 40
1.0
  9
$CHAMFERD
 40
0.0
  9
$SKPOLY
 70
     1
  9
$TDCREATE
 40
2457498.354344572
  9
$TDUCREATE
 40
2457498.271011238
  9
$TDUPDATE
 40
2458368.259810706
  9
$TDUUPDATE
 40
2458368.176477373
  9
$TDINDWG
 40
0.0011766319
  9
$TDUSRTIMER
 40
0.0011762963
  9
$USRTIMER
 70
     1
  9
$ANGBASE
 50
0.0
  9
$ANGDIR
 70
     0
  9
$PDMODE
 70
     0
  9
$PDSIZE
 40
0.0
  9
$PLINEWID
 40
0.0
  9
$SPLFRAME
 70
     0
  9
$SPLINETYPE
 70
     6
  9
$SPLINESEGS
 70
     8
  9
$HANDSEED
  5
5696
  9
$SURFTAB1
 70
     6
  9
$SURFTAB2
 70
     6
  9
$SURFTYPE
 70
     6
  9
$SURFU
 70
     6
  9
$SURFV
 70
     6
  9
$UCSBASE
  2

  9
$UCSNAME
  2

  9
$UCSORG
 10
0.0
 20
0.0
 30
0.0
  9
$UCSXDIR
 10
1.0
 20
0.0
 30
0.0
  9
$UCSYDIR
 10
0.0
 20
1.0
 30
0.0
  9
$UCSORTHOREF
  2

  9
$UCSORTHOVIEW
 70
     0
  9
$UCSORGTOP
 10
0.0
 20
0.0
 30
0.0
  9
$UCSORGBOTTOM
 10
0.0
 20
0.0
 30
0.0
  9
$UCSORGLEFT
 10
0.0
 20
0.0
 30
0.0
  9
$UCSORGRIGHT
 10
0.0
 20
0.0
 30
0.0
  9
$UCSORGFRONT
 10
0.0
 20
0.0
 30
0.0
  9
$UCSORGBACK
 10
0.0
 20
0.0
 30
0.0
  9
$PUCSBASE
  2

  9
$PUCSNAME
  2

  9
$PUCSORG
 10
0.0
 20
0.0
 30
0.0
  9
$PUCSXDIR
 10
1.0
 20
0.0
 30
0.0
  9
$PUCSYDIR
 10
0.0
 20
1.0
 30
0.0
  9
$PUCSORTHOREF
  2

  9
$PUCSORTHOVIEW
 70
     0
  9
$PUCSORGTOP
 10
0.0
 20
0.0
 30
0.0
  9
$PUCSORGBOTTOM
 10
0.0
 20
0.0
 30
0.0
  9
$PUCSORGLEFT
 10
0.0
 20
0.0
 30
0.0
  9
$PUCSORGRIGHT
 10
0.0
 20
0.0
 30
0.0
  9
$PUCSORGFRONT
 10
0.0
 20
0.0
 30
0.0
  9
$PUCSORGBACK
 10
0.0
 20
0.0
 30
0.0
  9
$USERI1
 70
     0
  9
$USERI2
 70
     0
  9
$USERI3
 70
     0
  9
$USERI4
 70
     0
  9
$USERI5
 70
     0
  9
$USERR1
 40
0.0
  9
$USERR2
 40
0.0
  9
$USERR3
 40
0.0
  9
$USERR4
 40
0.0
  9
$USERR5
 40
0.0
  9
$WORLDVIEW
 70
     1
  9
$SHADEDGE
 70
     3
  9
$SHADEDIF
 70
    70
  9
$TILEMODE
 70
     1
  9
$MAXACTVP
 70
    48
  9
$PINSBASE
 10
0.0
 20
0.0
 30
0.0
  9
$PLIMCHECK
 70
     0
  9
$PEXTMIN
 10
26.66999878883363
 20
20.31999878883363
 30
0.0
  9
$PEXTMAX
 10
240.0299890995026
 20
182.8799890995025
 30
0.0
  9
$PLIMMIN
 10
-6.350006103515625
 20
-6.349999904632568
  9
$PLIMMAX
 10
273.0499877929688
 20
209.5499939918518
  9
$UNITMODE
 70
     0
  9
$VISRETAIN
 70
     1
  9
$PLINEGEN
 70
     0
  9
$PSLTSCALE
 70
     1
  9
$TREEDEPTH
 70
  3020
  9
$CMLSTYLE
  2
STANDARD
  9
$CMLJUST
 70
     0
  9
$CMLSCALE
 40
1.0
  9
$PROXYGRAPHICS
 70
     1
  9
$MEASUREMENT
 70
     1
  9
$CELWEIGHT
370
    -1
  9
$ENDCAPS
280
     0
  9
$JOINSTYLE
280
     0
  9
$LWDISPLAY
290
     0
  9
$INSUNITS
 70
     0
  9
$HYPERLINKBASE
  1

  9
$STYLESHEET
  1
monochrome.ctb
  9
$XEDIT
290
     1
  9
$CEPSNTYPE
380
     0
  9
$PSTYLEMODE
290
     1
  9
$FINGERPRINTGUID
  2
{63B94ADC-8A60-4CC5-9219-95F06E305256}
  9
$VERSIONGUID
  2
{E197E70F-D78E-4D65-BE69-C4D49DDCAA7E}
  9
$EXTNAMES
290
     1
  9
$PSVPSCALE
 40
0.0
  9
$OLESTARTUP
290
     0
  9
$SORTENTS
280
   127
  9
$INDEXCTL
280
     0
  9
$HIDETEXT
280
     0
  9
$XCLIPFRAME
280
     0
  9
$HALOGAP
280
     0
  9
$OBSCOLOR
 70
   257
  9
$OBSLTYPE
280
     0
  9
$INTERSECTIONDISPLAY
280
     0
  9
$INTERSECTIONCOLOR
 70
   257
  9
$DIMASSOC
280
     1
  9
$PROJECTNAME
  1

  9
$CAMERADISPLAY
290
     0
  9
$LENSLENGTH
 40
50.0
  9
$CAMERAHEIGHT
 40
0.0
  9
$STEPSPERSEC
 40
2.0
  9
$STEPSIZE
 40
6.0
  9
$3DDWFPREC
 40
2.0
  9
$PSOLWIDTH
 40
0.25
  9
$PSOLHEIGHT
 40
4.0
  9
$LOFTANG1
 40
1.570796326794896
  9
$LOFTANG2
 40
1.570796326794896
  9
$LOFTMAG1
 40
0.0
  9
$LOFTMAG2
 40
0.0
  9
$LOFTPARAM
 70
     7
  9
$LOFTNORMALS
280
     1
  9
$LATITUDE
 40
37.795
  9
$LONGITUDE
 40
-122.394
  9
$NORTHDIRECTION
 40
0.0
  9
$TIMEZONE
 70
 -8000
  9
$LIGHTGLYPHDISPLAY
280
     1
  9
$TILEMODELIGHTSYNCH
280
     1
  9
$CMATERIAL
347
4F96
  9
$SOLIDHIST
280
     1
  9
$SHOWHIST
280
     1
  9
$DWFFRAME
280
     2
  9
$DGNFRAME
280
     0
  9
$REALWORLDSCALE
290
     1
  9
$INTERFERECOLOR
 62
     1
  9
$INTERFEREOBJVS
345
4FB8
  9
$INTERFEREVPVS
346
5091
  9
$CSHADOW
280
     0
  9
$SHADOWPLANELOCATION
 40
0.0
  0
ENDSEC
  0
SECTION
  2
CLASSES
  0
CLASS
  1
ACDBDICTIONARYWDFLT
  2
AcDbDictionaryWithDefault
  3
ObjectDBX Classes
 90
        0
 91
        1
280
     0
281
     0
  0
CLASS
  1
PLOTSETTINGS
  2
AcDbPlotSettings
  3
ObjectDBX Classes
 90
        0
 91
        3
280
     0
281
     0
  0
CLASS
  1
DICTIONARYVAR
  2
AcDbDictionaryVar
  3
ObjectDBX Classes
 90
        0
 91
       11
280
     0
281
     0
  0
CLASS
  1
ACME_DOCUMENT
  2
AcMeDbDoc
  3
AcMeServices
 90
     1024
 91
        2
280
     0
281
     0
  0
CLASS
  1
AMGSETTINGSOBJ
  2
AmgSettingsObj
  3
"AcadM|Product Description: AutoCAD Mechanical|Company: Autodesk, Inc."
 90
     1024
 91
        2
280
     0
281
     0
  0
CLASS
  1
ACMESCOPE
  2
AcMeScope
  3
AcMeServices
 90
     1024
 91
        1
280
     0
281
     0
  0
CLASS
  1
ACMECOMMANDHISTORY
  2
AcMeCommandHistory
  3
AcMeServices
 90
     1024
 91
        1
280
     0
281
     0
  0
CLASS
  1
ACIMSYSVARMAN
  2
AcImSysVarManager
  3
AcMeServices
 90
     1024
 91
        5
280
     0
281
     0
  0
CLASS
  1
ACIMREALSYSVAR
  2
AcImRealSysVar
  3
AcMeServices
 90
     1024
 91
        3
280
     0
281
     0
  0
CLASS
  1
ACIMINTSYSVAR
  2
AcImIntSysVar
  3
AcMeServices
 90
     1024
 91
       27
280
     0
281
     0
  0
CLASS
  1
ACMEDRAWINGMAN
  2
AcMeDrawingMan
  3
AcMeServices
 90
     1024
 91
        0
280
     0
281
     0
  0
CLASS
  1
ACMEVIEW
  2
AcMeView
  3
AcMeServices
 90
     1024
 91
        0
280
     0
281
     0
  0
CLASS
  1
ACDBENTITYCACHE
  2
AcMeEntityCache
  3
AcMeServices
 90
     1024
 91
        1
280
     0
281
     0
  0
CLASS
  1
GSMANAGER
  2
AcMeGSManager
  3
AcMeServices
 90
     1024
 91
        0
280
     0
281
     0
  0
CLASS
  1
AMDTINTERNALREACTOR
  2
AmdtInternalReactor
  3
AcMeServices
 90
     1024
 91
        1
280
     0
281
     0
  0
CLASS
  1
ACMESTATEMGR
  2
AcMeStateMgr
  3
AcMeServices
 90
     1024
 91
        1
280
     0
281
     0
  0
CLASS
  1
ACGREFMASTER
  2
AcGrefMaster
  3
AcAttribServices
 90
     1024
 91
        1
280
     0
281
     0
  0
CLASS
  1
ACME_DATABASE
  2
AcMeDbDatabase
  3
AcMeServices
 90
     1024
 91
        1
280
     0
281
     0
  0
CLASS
  1
ACRFINSADJUSTERMGR
  2
AcRfInsAdjusterMgr
  3
AcMeServices
 90
     1024
 91
        1
280
     0
281
     0
  0
CLASS
  1
ACGREFACADMASTER
  2
AcGrefacadMaster
  3
AcGrefServices
 90
     1024
 91
        1
280
     0
281
     0
  0
CLASS
  1
AMIMASTER
  2
AmiMaster
  3
AmiServices
 90
     1024
 91
        1
280
     0
281
     0
  0
CLASS
  1
ACMDATADICTIONARY
  2
AcmDataDictionary
  3
"AcmSymBB|Product Description: AutoCAD Mechanical|Company: Autodesk, Inc."
 90
     1024
 91
        1
280
     0
281
     0
  0
CLASS
  1
ACMDATAENTRYBLOCK
  2
AcmDataEntryBlock
  3
AcmSymBB|Product Description: AutoCAD Mechanical|Company: Autodesk, Inc.
 90
     1024
 91
        2
280
     0
281
     0
  0
CLASS
  1
ACIMSTRSYSVAR
  2
AcImStrSysVar
  3
AcMeServices
 90
     1024
 91
        5
280
     0
281
     0
  0
CLASS
  1
ACMSTANDARDDIN
  2
AcmStandardDIN
  3
"Amdt_StdImp|Product Description: AutoCAD Mechanical|Company: Autodesk, Inc."
 90
     1024
 91
        1
280
     0
281
     0
  0
CLASS
  1
AMGOBJPROPCFG
  2
AmgObjPropCfg
  3
"AmgLay|Product Description: AutoCAD Mechanical|Company: Autodesk, Inc."
 90
     1024
 91
        1
280
     0
281
     0
  0
CLASS
  1
AMDTEDGESTANDARDDIN
  2
AmdtEdgeStdDIN
  3
"Amdt_StdImp|Product Description: AutoCAD Mechanical|Company: Autodesk, Inc."
 90
     1024
 91
        1
280
     0
281
     0
  0
CLASS
  1
ACMSURFSTANDARDDIN
  2
AcmSurfTextStdDIN
  3
"Amdt_StdImp|Product Description: AutoCAD Mechanical|Company: Autodesk, Inc."
 90
     1024
 91
        1
280
     0
281
     0
  0
CLASS
  1
ACMFCFSTANDARDDIN
  2
AcmFCFStdDIN
  3
"Amdt_StdImp|Product Description: AutoCAD Mechanical|Company: Autodesk, Inc."
 90
     1024
 91
        1
280
     0
281
     0
  0
CLASS
  1
ACMWELDSTANDARDDIN
  2
AcmWeldingStdDIN
  3
"Amdt_StdImp|Product Description: AutoCAD Mechanical|Company: Autodesk, Inc."
 90
     1024
 91
        1
280
     0
281
     0
  0
CLASS
  1
ACMIDSTANDARDDIN
  2
AcmIdStdDIN
  3
"Amdt_StdImp|Product Description: AutoCAD Mechanical|Company: Autodesk, Inc."
 90
     1024
 91
        1
280
     0
281
     0
  0
CLASS
  1
ACMDATUMSTANDARDDIN
  2
AcmDatumStdDIN
  3
"Amdt_StdImp|Product Description: AutoCAD Mechanical|Company: Autodesk, Inc."
 90
     1024
 91
        1
280
     0
281
     0
  0
CLASS
  1
ACMBOMSTANDARDDIN
  2
AcmBOMStdDIN
  3
"Amdt_StdImp|Product Description: AutoCAD Mechanical|Company: Autodesk, Inc."
 90
     1024
 91
        1
280
     0
281
     0
  0
CLASS
  1
ACMDETAILSTANDARDDIN
  2
AmdtDetailSymStdDIN
  3
"Amdt_StdImp|Product Description: AutoCAD Mechanical|Company: Autodesk, Inc."
 90
     1024
 91
        1
280
     0
281
     0
  0
CLASS
  1
ACMSECTIONSTANDARDDIN
  2
AmdtSectionSymStdDIN
  3
"Amdt_StdImp|Product Description: AutoCAD Mechanical|Company: Autodesk, Inc."
 90
     1024
 91
        1
280
     0
281
     0
  0
CLASS
  1
ACMCENTERLINESTANDARDDIN
  2
AmdtCenterLineStdDIN
  3
"Amdt_StdImp|Product Description: AutoCAD Mechanical|Company: Autodesk, Inc."
 90
     1024
 91
        1
280
     0
281
     0
  0
CLASS
  1
ACMNOTESTANDARDDIN
  2
AmdtNoteStdDIN
  3
"Amdt_StdImp|Product Description: AutoCAD Mechanical|Company: Autodesk, Inc."
 90
     1024
 91
        1
280
     0
281
     0
  0
CLASS
  1
ACAMGLAYSTD
  2
AcAmgLayStd
  3
"AmgLay|Product Description: AutoCAD Mechanical|Company: Autodesk, Inc."
 90
     1024
 91
        1
280
     0
281
     0
  0
CLASS
  1
ACAMGDIMSTD
  2
AcAmgDimStd
  3
"AmgDim|Product Description: AutoCAD Mechanical|Company: Autodesk, Inc."
 90
     1024
 91
        1
280
     0
281
     0
  0
CLASS
  1
ACAMGHOLECHARTSTDDIN
  2
AcAmgHoleChartStdDIN
  3
AmgDim|Product Description: AutoCAD Mechanical|Company: Autodesk, Inc.
 90
     1024
 91
        1
280
     0
281
     0
  0
CLASS
  1
ACAMGTITLESTD
  2
AcAmgTitleStd
  3
"AmgTitle|Product Description: AutoCAD Mechanical|Company: Autodesk, Inc."
 90
     1024
 91
        1
280
     0
281
     0
  0
CLASS
  1
ACAMGFILTERDAT
  2
AcAmgFilterDat
  3
"AcadM|Product Description: AutoCAD Mechanical|Company: Autodesk, Inc."
 90
     1024
 91
        6
280
     0
281
     0
  0
CLASS
  1
LAYER_INDEX
  2
AcDbLayerIndex
  3
ObjectDBX Classes
 90
        0
 91
        0
280
     0
281
     0
  0
CLASS
  1
IDBUFFER
  2
AcDbIdBuffer
  3
ObjectDBX Classes
 90
        0
 91
        0
280
     0
281
     0
  0
CLASS
  1
TABLESTYLE
  2
AcDbTableStyle
  3
ObjectDBX Classes
 90
     4095
 91
        1
280
     0
281
     0
  0
CLASS
  1
AM_DRAWING_MGR
  2
AcDmDwgMgr
  3
AcMechDwgViewMgmt
 90
     1024
 91
        1
280
     0
281
     0
  0
CLASS
  1
AM_DWG_DOCUMENT
  2
AcDmDwgDocument
  3
AcMechDwgViewMgmt
 90
     1024
 91
        1
280
     0
281
     0
  0
CLASS
  1
AM_DWG_SHEET
  2
AcDmSheet
  3
AcMechDwgViewMgmt
 90
     1024
 91
        1
280
     0
281
     0
  0
CLASS
  1
AM_VIEWDIMPARMAP
  2
AcDmViewDimParMap
  3
AcMechDwgViewMgmt
 90
     1024
 91
        1
280
     0
281
     0
  0
CLASS
  1
AM_DWGMGR_NAME
  2
AcDmDwgMgrName
  3
AcMechDwgViewMgmt
 90
     1024
 91
        1
280
     0
281
     0
  0
CLASS
  1
AMDTMENUSTATEMGR
  2
AmdtMenuStateMgr
  3
McadcomServices
 90
     1024
 91
        1
280
     0
281
     0
  0
CLASS
  1
AMDTMCOMMENUSTATE
  2
AmdtMcomMenuState
  3
McadcomServices
 90
     1024
 91
        1
280
     0
281
     0
  0
CLASS
  1
MAPIAMMOUDLE
  2
MApiAmModule
  3
MApiAmServices
 90
     1024
 91
        1
280
     0
281
     0
  0
CLASS
  1
AMDTADMENUSTATE
  2
AmdtAdMenuState
  3
DesignerServices
 90
     1024
 91
        0
280
     0
281
     0
  0
CLASS
  1
ADAPPL
  2
AcAdAppl
  3
DesignerAssemblies
 90
     1024
 91
        0
280
     0
281
     0
  0
CLASS
  1
DEPMGR
  2
AcAdDepMgr
  3
DesignerAssemblies
 90
     1024
 91
        0
280
     0
281
     0
  0
CLASS
  1
PARAMMGR
  2
AcAdParamMgr
  3
DesignerAssemblies
 90
     1024
 91
        0
280
     0
281
     0
  0
CLASS
  1
PARAMSCOPE
  2
AcAdParamScope
  3
DesignerAssemblies
 90
     1024
 91
        0
280
     0
281
     0
  0
CLASS
  1
NAMEDAPPL
  2
AcAdNamedAppl
  3
DesignerAssemblies
 90
     1024
 91
        0
280
     0
281
     0
  0
CLASS
  1
AMDTDMMENUSTATE
  2
AmdtDmMenuState
  3
AcMechDwgViewMgmt
 90
     1024
 91
        0
280
     0
281
     0
  0
CLASS
  1
AMDTAMMENUSTATE
  2
AmdtAmMenuState
  3
DesignerAssemblies
 90
     1024
 91
        1
280
     0
281
     0
  0
CLASS
  1
ACAMPROJECT
  2
AcAmProject
  3
DesignerAssemblies
 90
     1024
 91
        1
280
     0
281
     0
  0
CLASS
  1
ACAMGRCOMPDEF
  2
AcAmGrCompDef
  3
DesignerAssemblies
 90
     1024
 91
        1
280
     0
281
     0
  0
CLASS
  1
ACCMCONTEXT
  2
AcCmContext
  3
DesignerAssemblies
 90
     1024
 91
        1
280
     0
281
     0
  0
CLASS
  1
ACAMCOMPDEF
  2
AcAmCompDef
  3
DesignerAssemblies
 90
     1024
 91
        1
280
     0
281
     0
  0
CLASS
  1
ACAMCOMPDEFMGR
  2
AcAmCompDefMgr
  3
DesignerAssemblies
 90
     1024
 91
        1
280
     0
281
     0
  0
CLASS
  1
AMCONTEXTMGR
  2
AcAmContextMgr
  3
DesignerAssemblies
 90
     1024
 91
        1
280
     0
281
     0
  0
CLASS
  1
ACAMCONTEXTMODELER
  2
AcAmContextModeler
  3
DesignerAssemblies
 90
     1024
 91
        1
280
     0
281
     0
  0
CLASS
  1
ACMTHREADLINESTANDARDDIN
  2
AmdtThreadLineStdDIN
  3
"Amdt_StdImp|Product Description: AutoCAD Mechanical|Company: Autodesk, Inc."
 90
     1024
 91
        1
280
     0
281
     0
  0
CLASS
  1
CATALOGSTATE
  2
AcAmCatalogState
  3
DesignerAssemblies
 90
     1024
 91
        0
280
     0
281
     0
  0
CLASS
  1
ACAMGRCOMPDEFSET
  2
AcAmGrCompDefSet
  3
DesignerAssemblies
 90
     1024
 91
        1
280
     0
281
     0
  0
CLASS
  1
AMDTBROWSERDBTAB
  2
AmdtBrowserDbTab
  3
McadcomServices
 90
     1024
 91
        1
280
     0
281
     0
  0
CLASS
  1
CBROWSERAPPOBJECT
  2
CBrowserAppObject
  3
McadcomServices
 90
     1024
 91
        2
280
     0
281
     0
  0
CLASS
  1
DM_PLACEHOLDER
  2
AcDmSelsetPlaceholder
  3
McadcomServices
 90
     1024
 91
        1
280
     0
281
     0
  0
CLASS
  1
SORTENTSTABLE
  2
AcDbSortentsTable
  3
ObjectDBX Classes
 90
        0
 91
        0
280
     0
281
     0
  0
CLASS
  1
MATERIAL
  2
AcDbMaterial
  3
ObjectDBX Classes
 90
     1153
 91
        3
280
     0
281
     0
  0
CLASS
  1
VISUALSTYLE
  2
AcDbVisualStyle
  3
ObjectDBX Classes
 90
     4095
 91
       26
280
     0
281
     0
  0
CLASS
  1
SCALE
  2
AcDbScale
  3
ObjectDBX Classes
 90
     1153
 91
       17
280
     0
281
     0
  0
CLASS
  1
MLEADERSTYLE
  2
AcDbMLeaderStyle
  3
ACDB_MLEADERSTYLE_CLASS
 90
     4095
 91
        1
280
     0
281
     0
  0
CLASS
  1
ACRFATTGENMGR
  2
AcRfAttGeneralMgr
  3
AcAttribServices
 90
     1024
 91
        1
280
     0
281
     0
  0
CLASS
  1
ACRFOBJATTMGR
  2
AcRfObjAttGroupMgr
  3
AcAttribServices
 90
     1024
 91
        1
280
     0
281
     0
  0
CLASS
  1
ACRFMCADAPIATTHOLDER
  2
AcRfMCADAPIAttHolder
  3
AcAttribServices
 90
     1024
 91
        1
280
     0
281
     0
  0
CLASS
  1
AMDTSYSATTR
  2
AmdtSystemAttribute
  3
AcAttribServices
 90
     1024
 91
        6
280
     0
281
     0
  0
CLASS
  1
ACMTAPERSTANDARDDIN
  2
AcmTaperStdDIN
  3
"Amdt_StdImp|Product Description: AutoCAD Mechanical|Company: Autodesk, Inc."
 90
     1024
 91
        1
280
     0
281
     0
  0
CLASS
  1
ACMANOOTATIONVIEWSTANDARDDIN
  2
AmdtAnViewStdDIN
  3
"Amdt_StdImp|Product Description: AutoCAD Mechanical|Company: Autodesk, Inc."
 90
     1024
 91
        1
280
     0
281
     0
  0
CLASS
  1
CAMSSTRUCTBTNSTATE
  2
StructBtnState
  3
DesignerAssemblies
 90
     1024
 91
        1
280
     0
281
     0
  0
CLASS
  1
CELLSTYLEMAP
  2
AcDbCellStyleMap
  3
ObjectDBX Classes
 90
     1152
 91
        1
280
     0
281
     0
  0
CLASS
  1
ACDBSECTIONVIEWSTYLE
  2
AcDbSectionViewStyle
  3
ObjectDBX Classes
 90
     1025
 91
        3
280
     0
281
     0
  0
CLASS
  1
ACDBDETAILVIEWSTYLE
  2
AcDbDetailViewStyle
  3
ObjectDBX Classes
 90
     1025
 91
        3
280
     0
281
     0
  0
CLASS
  1
ACMSECTIONSTANDARDCUSTOM
  2
AmdtSectionSymStdCustom
  3
"Amdt_StdImp|Product Description: AutoCAD Mechanical|Company: Autodesk, Inc."
 90
     1024
 91
        2
280
     0
281
     0
  0
CLASS
  1
ACMDETAILTANDARDCUSTOM
  2
AmdtDetailSymStdCustom
  3
"Amdt_StdImp|Product Description: AutoCAD Mechanical|Company: Autodesk, Inc."
 90
     1024
 91
        2
280
     0
281
     0
  0
CLASS
  1
FIELD
  2
AcDbField
  3
ObjectDBX Classes
 90
     1152
 91
        6
280
     0
281
     0
  0
CLASS
  1
FIELDLIST
  2
AcDbFieldList
  3
ObjectDBX Classes
 90
     1152
 91
        1
280
     0
281
     0
  0
CLASS
  1
MULTILEADER
  2
AcDbMLeader
  3
ACDB_MLEADER_CLASS
 90
     1025
 91
        2
280
     0
281
     1
  0
ENDSEC
  0
SECTION
  2
TABLES
  0
TABLE
  2
VPORT
  5
8
330
0
100
AcDbSymbolTable
 70
     1
  0
VPORT
  5
4F94
330
8
100
AcDbSymbolTableRecord
100
AcDbViewportTableRecord
  2
*Active
 70
     0
 10
0.0
 20
0.0
 11
1.0
 21
1.0
 12
101.0997068998788
 22
81.54004823330017
 13
0.0
 23
0.0
 14
2.5
 24
2.5
 15
10.0
 25
10.0
 16
0.0
 26
0.0
 36
1.0
 17
0.0
 27
0.0
 37
0.0
 40
566.1425493047153
 41
2.179926560587515
 42
50.0
 43
0.0
 44
0.0
 50
0.0
 51
0.0
 71
     0
 72
  5000
 73
     1
 74
     1
 75
     0
 76
     0
 77
     0
 78
     0
281
     0
 65
     1
110
0.0
120
0.0
130
0.0
111
1.0
121
0.0
131
0.0
112
0.0
122
1.0
132
0.0
 79
     0
146
0.0
348
4FB4
 60
     3
 61
     5
292
     1
282
     1
141
0.0
142
0.0
 63
   250
421
  3355443
1001
ACAD_NAV_VCDISPLAY
1070
     3
  0
ENDTAB
  0
TABLE
  2
LTYPE
  5
5
330
0
100
AcDbSymbolTable
 70
    38
  0
LTYPE
  5
13
330
5
100
AcDbSymbolTableRecord
100
AcDbLinetypeTableRecord
  2
BYBLOCK
 70
     0
  3

 72
    65
 73
     0
 40
0.0
  0
LTYPE
  5
14
330
5
100
AcDbSymbolTableRecord
100
AcDbLinetypeTableRecord
  2
BYLAYER
 70
     0
  3

 72
    65
 73
     0
 40
0.0
  0
LTYPE
  5
15
330
5
100
AcDbSymbolTableRecord
100
AcDbLinetypeTableRecord
  2
CONTINUOUS
 70
     0
  3
Solid line
 72
    65
 73
     0
 40
0.0
  0
LTYPE
  5
65A
330
5
100
AcDbSymbolTableRecord
100
AcDbLinetypeTableRecord
  2
STRICHPUNKT
 70
     0
  3
Strichpunkt __ . __ . __ . __ . __ . __ . __ . 
 72
    65
 73
     4
 40
25.4
 49
12.7
 74
     0
 49
-6.349999999999999
 74
     0
 49
0.0
 74
     0
 49
-6.349999999999999
 74
     0
  0
LTYPE
  5
65B
330
5
100
AcDbSymbolTableRecord
100
AcDbLinetypeTableRecord
  2
VERDECKT
 70
     0
  3
Verdeckt __ __ __ __ __ __ __ __ __ __ __ __ __
 72
    65
 73
     2
 40
9.524999999999998
 49
6.349999999999999
 74
     0
 49
-3.174999999999999
 74
     0
  0
LTYPE
  5
6E1
330
5
100
AcDbSymbolTableRecord
100
AcDbLinetypeTableRecord
  2
STRICHPUNKT2
 70
     0
  3
Strichpunkt (.5x) _._._._._._._._._._._._._._._
 72
    65
 73
     4
 40
12.7
 49
6.349999999999999
 74
     0
 49
-3.174999999999999
 74
     0
 49
0.0
 74
     0
 49
-3.174999999999999
 74
     0
  0
LTYPE
  5
6E2
330
5
100
AcDbSymbolTableRecord
100
AcDbLinetypeTableRecord
  2
VERDECKT2
 70
     0
  3
Verdeckt (.5x) _ _ _ _ _ _ _ _ _ _ _ _ _ _ _ _ 
 72
    65
 73
     2
 40
4.762499999999999
 49
3.174999999999999
 74
     0
 49
-1.587499999999999
 74
     0
  0
LTYPE
  5
F04
330
5
100
AcDbSymbolTableRecord
100
AcDbLinetypeTableRecord
  2
AUSGEZOGEN
 70
     0
  3
Ausgezogene Linie
 72
    65
 73
     0
 40
0.0
  0
LTYPE
  5
F0B
330
5
100
AcDbSymbolTableRecord
100
AcDbLinetypeTableRecord
  2
STRICHPUNKTX2
 70
     0
  3
____  .  ____  .  ____  .  ____  .  ____  .  __
 72
    65
 73
     4
 40
2.0
 49
1.0
 74
     0
 49
-0.5
 74
     0
 49
0.0
 74
     0
 49
-0.5
 74
     0
  0
LTYPE
  5
F0C
330
5
100
AcDbSymbolTableRecord
100
AcDbLinetypeTableRecord
  2
GESTRICHELT
 70
     0
  3
__ __ __ __ __ __ __ __ __ __ __ __ __ __ __ __
 72
    65
 73
     2
 40
0.75
 49
0.5
 74
     0
 49
-0.25
 74
     0
  0
LTYPE
  5
F0D
330
5
100
AcDbSymbolTableRecord
100
AcDbLinetypeTableRecord
  2
GESTRICHELT2
 70
     0
  3
_ _ _ _ _ _ _ _ _ _ _ _ _ _ _ _ _ _ _ _ _ _ _ _
 72
    65
 73
     2
 40
0.375
 49
0.25
 74
     0
 49
-0.125
 74
     0
  0
LTYPE
  5
F0E
330
5
100
AcDbSymbolTableRecord
100
AcDbLinetypeTableRecord
  2
GESTRICHELTX2
 70
     0
  3
____  ____  ____  ____  ____  ____  ____  ____ 
 72
    65
 73
     2
 40
1.5
 49
1.0
 74
     0
 49
-0.5
 74
     0
  0
LTYPE
  5
F15
330
5
100
AcDbSymbolTableRecord
100
AcDbLinetypeTableRecord
  2
VERDECKTX2
 70
     0
  3
____ ____ ____ ____ ____ ____ ____ ____ ____ __
 72
    65
 73
     2
 40
0.75
 49
0.5
 74
     0
 49
-0.25
 74
     0
  0
LTYPE
  5
3F60
330
5
100
AcDbSymbolTableRecord
100
AcDbLinetypeTableRecord
  2
DASHED
 70
     0
  3
Dashed __ __ __ __ __ __ __ __ __ __ __ __ __ _
 72
    65
 73
     2
 40
19.05
 49
12.7
 74
     0
 49
-6.349999999999999
 74
     0
  0
LTYPE
  5
4799
330
5
100
AcDbSymbolTableRecord
100
AcDbLinetypeTableRecord
  2
RANDX2
 70
     0
  3
____  ____  .  ____  ____  .  ____  ____  .  __
 72
    65
 73
     6
 40
3.5
 49
1.0
 74
     0
 49
-0.5
 74
     0
 49
1.0
 74
     0
 49
-0.5
 74
     0
 49
0.0
 74
     0
 49
-0.5
 74
     0
  0
LTYPE
  5
4D0E
330
5
100
AcDbSymbolTableRecord
100
AcDbLinetypeTableRecord
  2
AM_ISO02W050
 70
     0
  3
__ __ __ __ __ __ __ __ __ __ __ __ __ __ __
 72
    65
 73
     2
 40
7.5
 49
6.0
 74
     0
 49
-1.5
 74
     0
  0
LTYPE
  5
4D0F
330
5
100
AcDbSymbolTableRecord
100
AcDbLinetypeTableRecord
  2
AM_ISO08W050
 70
     0
  3
____ . ____ . ____ . ____ . ____ . ____ . ____
 72
    65
 73
     4
 40
18.0
 49
12.0
 74
     0
 49
-1.5
 74
     0
 49
3.0
 74
     0
 49
-1.5
 74
     0
  0
LTYPE
  5
4D10
330
5
100
AcDbSymbolTableRecord
100
AcDbLinetypeTableRecord
  2
AM_ISO09W050
 70
     0
  3
_____ . . _____ . . _____ . . ____ .. ____
 72
    65
 73
     6
 40
22.5
 49
12.0
 74
     0
 49
-1.5
 74
     0
 49
3.0
 74
     0
 49
-1.5
 74
     0
 49
3.0
 74
     0
 49
-1.5
 74
     0
  0
LTYPE
  5
4D11
330
5
100
AcDbSymbolTableRecord
100
AcDbLinetypeTableRecord
  2
Amconstr
 70
     0
  3
_______________________
 72
    65
 73
     2
 40
9999.0
 49
9999.0
 74
     0
 49
0.0
 74
     0
  0
LTYPE
  5
4D12
330
5
100
AcDbSymbolTableRecord
100
AcDbLinetypeTableRecord
  2
AM_ISO08W050x2
 70
     0
  3
__ . __ . __ . __ . __ . __
 72
    65
 73
     4
 40
9.0
 49
6.0
 74
     0
 49
-0.75
 74
     0
 49
1.5
 74
     0
 49
-0.75
 74
     0
  0
LTYPE
  5
4D13
330
5
100
AcDbSymbolTableRecord
100
AcDbLinetypeTableRecord
  2
AM_ISO02W050x2
 70
     0
  3
 _ _ _ _ _ _ _ _ _ _ _ _
 72
    65
 73
     2
 40
3.75
 49
3.0
 74
     0
 49
-0.75
 74
     0
  0
LTYPE
  5
4D14
330
5
100
AcDbSymbolTableRecord
100
AcDbLinetypeTableRecord
  2
Amzigzag
 70
     0
  3
/\/-/\/-/\/-/\/-/\/-/\/
 72
    65
 73
     2
 40
11.0001
 49
0.0001
 74
     4
 75
   135
340
3F6E
 46
0.04
 50
0.0
 44
0.0
 45
0.0
 49
-11.0
 74
     0
  0
LTYPE
  5
4D15
330
5
100
AcDbSymbolTableRecord
100
AcDbLinetypeTableRecord
  2
AM_DIN_F_W050
 70
     0
  3
__ __ __ __ __ __ __ __ __ __ __ __ __ __ __
 72
    65
 73
     2
 40
6.25
 49
4.75
 74
     0
 49
-1.5
 74
     0
  0
LTYPE
  5
4D16
330
5
100
AcDbSymbolTableRecord
100
AcDbLinetypeTableRecord
  2
AM_DIN_G_W050
 70
     0
  3
____ . ____ . ____ . ____ . ____ . ____ . ____
 72
    65
 73
     4
 40
13.75
 49
9.75
 74
     0
 49
-1.5
 74
     0
 49
1.0
 74
     0
 49
-1.5
 74
     0
  0
LTYPE
  5
4D17
330
5
100
AcDbSymbolTableRecord
100
AcDbLinetypeTableRecord
  2
AM_DIN_K_W050
 70
     0
  3
_____ . . _____ . . _____ . . ____ .. ____
 72
    65
 73
     6
 40
16.25
 49
9.75
 74
     0
 49
-1.5
 74
     0
 49
1.0
 74
     0
 49
-1.5
 74
     0
 49
1.0
 74
     0
 49
-1.5
 74
     0
  0
LTYPE
  5
4D18
330
5
100
AcDbSymbolTableRecord
100
AcDbLinetypeTableRecord
  2
AM_DIN_G_W050x2
 70
     0
  3
__ . __ . __ . __ . __ . __
 72
    65
 73
     4
 40
6.875
 49
4.75
 74
     0
 49
-0.875
 74
     0
 49
0.375
 74
     0
 49
-0.875
 74
     0
  0
LTYPE
  5
4D19
330
5
100
AcDbSymbolTableRecord
100
AcDbLinetypeTableRecord
  2
AM_DIN_F_W050x2
 70
     0
  3
 _ _ _ _ _ _ _ _ _ _ _ _
 72
    65
 73
     2
 40
3.125
 49
2.25
 74
     0
 49
-0.875
 74
     0
  0
LTYPE
  5
4D27
330
5
100
AcDbSymbolTableRecord
100
AcDbLinetypeTableRecord
  2
ACDINWELD
 70
     0
  3
_ _ _ _ _
 72
    65
 73
     2
 40
2.0
 49
2.0
 74
     0
 49
-1.0
 74
     0
  0
LTYPE
  5
4D28
330
5
100
AcDbSymbolTableRecord
100
AcDbLinetypeTableRecord
  2
ACDINTGB
 70
     0
  3
__ . . __ . .
 72
    65
 73
     6
 40
9.0
 49
4.0
 74
     0
 49
-1.0
 74
     0
 49
1.0
 74
     0
 49
-1.0
 74
     0
 49
1.0
 74
     0
 49
-1.0
 74
     0
  0
LTYPE
  5
4D29
330
5
100
AcDbSymbolTableRecord
100
AcDbLinetypeTableRecord
  2
ACDINTGL
 70
     0
  3
_ _ _ _ _
 72
    65
 73
     2
 40
3.0
 49
2.0
 74
     0
 49
-1.0
 74
     0
  0
LTYPE
  5
4D2A
330
5
100
AcDbSymbolTableRecord
100
AcDbLinetypeTableRecord
  2
CENTER
 70
     0
  3
__ . __
 72
    65
 73
     4
 40
7.0
 49
4.0
 74
     0
 49
-1.0
 74
     0
 49
1.0
 74
     0
 49
-1.0
 74
     0
  0
LTYPE
  5
4D3A
330
5
100
AcDbSymbolTableRecord
100
AcDbLinetypeTableRecord
  2
gen3
 70
     0
  3
-- -- -- -- -- -- -- -- -- -- -- -- -- -- --
 72
    65
 73
     2
 40
6.25
 49
4.75
 74
     0
 49
-1.5
 74
     0
  0
LTYPE
  5
4D3B
330
5
100
AcDbSymbolTableRecord
100
AcDbLinetypeTableRecord
  2
gen7
 70
     0
  3
____ . ____ . ____ . ____ . ____ . ____ . ____
 72
    65
 73
     4
 40
13.75
 49
9.75
 74
     0
 49
-1.5
 74
     0
 49
1.0
 74
     0
 49
-1.5
 74
     0
  0
LTYPE
  5
4D3C
330
5
100
AcDbSymbolTableRecord
100
AcDbLinetypeTableRecord
  2
gen3a
 70
     0
  3
 - - - - -
 72
    65
 73
     2
 40
3.125
 49
2.25
 74
     0
 49
-0.875
 74
     0
  0
LTYPE
  5
4D3D
330
5
100
AcDbSymbolTableRecord
100
AcDbLinetypeTableRecord
  2
gen7a
 70
     0
  3
__ . __ . __
 72
    65
 73
     4
 40
6.875
 49
4.75
 74
     0
 49
-0.875
 74
     0
 49
0.375
 74
     0
 49
-0.875
 74
     0
  0
LTYPE
  5
4D3E
330
5
100
AcDbSymbolTableRecord
100
AcDbLinetypeTableRecord
  2
gen4a
 70
     0
  3
_____ . . _____ . . _____ . . ____ .. ____
 72
    65
 73
     6
 40
16.25
 49
9.75
 74
     0
 49
-1.5
 74
     0
 49
1.0
 74
     0
 49
-1.5
 74
     0
 49
1.0
 74
     0
 49
-1.5
 74
     0
  0
LTYPE
  5
4D41
330
5
100
AcDbSymbolTableRecord
100
AcDbLinetypeTableRecord
  2
genzigzag
 70
     0
  3
/\/-/\/-/\/-/\/-/\/-/\/
 72
    65
 73
     2
 40
12.0001
 49
0.0001
 74
     4
 75
   135
340
4D40
 46
2.0
 50
0.0
 44
0.0
 45
0.0
 49
-12.0
 74
     0
  0
LTYPE
  5
4EA8
330
5
100
AcDbSymbolTableRecord
100
AcDbLinetypeTableRecord
  2
HIDDEN
 70
     0
  3
Verdeckt
 72
    65
 73
     2
 40
9.525
 49
6.349999999999999
 74
     0
 49
-3.174999999999999
 74
     0
  0
LTYPE
  5
4EA9
330
5
100
AcDbSymbolTableRecord
100
AcDbLinetypeTableRecord
  2
PHANTOM2
 70
     0
  3
Phantom (.5x) ___ _ _ ___ _ _ ___ _ _ ___ _ _
 72
    65
 73
     6
 40
31.75
 49
15.875
 74
     0
 49
-3.174999999999999
 74
     0
 49
3.174999999999999
 74
     0
 49
-3.174999999999999
 74
     0
 49
3.174999999999999
 74
     0
 49
-3.174999999999999
 74
     0
  0
LTYPE
  5
5275
330
5
100
AcDbSymbolTableRecord
100
AcDbLinetypeTableRecord
  2
CHAIN
 70
     0
  3
Chain ____ _ ____ _ ____ _ ____ _ ____ _ ____
 72
    65
 73
     4
 40
0.3543
 49
0.2362
 74
     0
 49
-0.0295
 74
     0
 49
0.0591
 74
     0
 49
-0.0295
 74
     0
  0
ENDTAB
  0
TABLE
  2
LAYER
  5
2
102
{ACAD_XDICTIONARY
360
50F2
102
}
330
0
100
AcDbSymbolTable
 70
    24
  0
LAYER
  5
F
102
{ACAD_XDICTIONARY
360
5194
102
}
330
2
100
AcDbSymbolTableRecord
100
AcDbLayerTableRecord
  2
0
 70
     0
 62
     7
  6
CONTINUOUS
370
    -3
390
3F24
347
4FA6
348
0
  0
LAYER
  5
4C
102
{ACAD_XDICTIONARY
360
5196
102
}
330
2
100
AcDbSymbolTableRecord
100
AcDbLayerTableRecord
  2
UMRISS02
 70
     0
 62
     1
  6
CONTINUOUS
370
    -3
390
3F24
347
4FA6
348
0
  0
LAYER
  5
4D
102
{ACAD_XDICTIONARY
360
5198
102
}
330
2
100
AcDbSymbolTableRecord
100
AcDbLayerTableRecord
  2
UMRISS03
 70
     0
 62
     3
  6
CONTINUOUS
370
    -3
390
3F24
347
4FA6
348
0
  0
LAYER
  5
4E
102
{ACAD_XDICTIONARY
360
519A
102
}
330
2
100
AcDbSymbolTableRecord
100
AcDbLayerTableRecord
  2
UMRISS05
 70
     0
 62
     4
  6
CONTINUOUS
370
    -3
390
3F24
347
4FA6
348
0
  0
LAYER
  5
4F
102
{ACAD_XDICTIONARY
360
519C
102
}
330
2
100
AcDbSymbolTableRecord
100
AcDbLayerTableRecord
  2
UMRISS07
 70
     0
 62
     6
  6
CONTINUOUS
370
    -3
390
3F24
347
4FA6
348
0
  0
LAYER
  5
50
102
{ACAD_XDICTIONARY
360
519E
102
}
330
2
100
AcDbSymbolTableRecord
100
AcDbLayerTableRecord
  2
UMRISS10
 70
     0
 62
     7
  6
CONTINUOUS
370
    -3
390
3F24
347
4FA6
348
0
  0
LAYER
  5
51
102
{ACAD_XDICTIONARY
360
51A0
102
}
330
2
100
AcDbSymbolTableRecord
100
AcDbLayerTableRecord
  2
TEXT02
 70
     0
 62
     1
  6
CONTINUOUS
370
    -3
390
3F24
347
4FA6
348
0
  0
LAYER
  5
52
102
{ACAD_XDICTIONARY
360
51A2
102
}
330
2
100
AcDbSymbolTableRecord
100
AcDbLayerTableRecord
  2
TEXT03
 70
     0
 62
     3
  6
CONTINUOUS
370
    -3
390
3F24
347
4FA6
348
0
  0
LAYER
  5
53
102
{ACAD_XDICTIONARY
360
51A4
102
}
330
2
100
AcDbSymbolTableRecord
100
AcDbLayerTableRecord
  2
TEXT05
 70
     0
 62
     4
  6
CONTINUOUS
370
    -3
390
3F24
347
4FA6
348
0
  0
LAYER
  5
54
102
{ACAD_XDICTIONARY
360
51A6
102
}
330
2
100
AcDbSymbolTableRecord
100
AcDbLayerTableRecord
  2
TEXT07
 70
     0
 62
     6
  6
CONTINUOUS
370
    -3
390
3F24
347
4FA6
348
0
  0
LAYER
  5
55
102
{ACAD_XDICTIONARY
360
51A8
102
}
330
2
100
AcDbSymbolTableRecord
100
AcDbLayerTableRecord
  2
TEXT10
 70
     0
 62
     7
  6
CONTINUOUS
370
    -3
390
3F24
347
4FA6
348
0
  0
LAYER
  5
56
102
{ACAD_XDICTIONARY
360
51AA
102
}
330
2
100
AcDbSymbolTableRecord
100
AcDbLayerTableRecord
  2
BEMASSUNG
 70
     0
 62
     2
  6
CONTINUOUS
370
    -3
390
3F24
347
4FA6
348
0
  0
LAYER
  5
61
102
{ACAD_XDICTIONARY
360
51AC
102
}
330
2
100
AcDbSymbolTableRecord
100
AcDbLayerTableRecord
  2
ACHSEN
 70
     0
 62
     1
  6
STRICHPUNKT
370
    -3
390
3F24
347
4FA6
348
0
  0
LAYER
  5
65
102
{ACAD_XDICTIONARY
360
51AE
102
}
330
2
100
AcDbSymbolTableRecord
100
AcDbLayerTableRecord
  2
SCHRAFFUR
 70
     2
 62
     8
  6
CONTINUOUS
370
    -3
390
3F24
347
4FA6
348
0
  0
LAYER
  5
65C
102
{ACAD_XDICTIONARY
360
51B0
102
}
330
2
100
AcDbSymbolTableRecord
100
AcDbLayerTableRecord
  2
AVERDECKTE
 70
     0
 62
    13
  6
VERDECKT
370
    -3
390
3F24
347
4FA6
348
0
  0
LAYER
  5
3F61
102
{ACAD_XDICTIONARY
360
51B2
102
}
330
2
100
AcDbSymbolTableRecord
100
AcDbLayerTableRecord
  2
ACA_VARSAVE
 70
     4
 62
     7
  6
CONTINUOUS
370
    -3
390
3F24
347
4FA6
348
0
  0
LAYER
  5
3F62
102
{ACAD_XDICTIONARY
360
51B4
102
}
330
2
100
AcDbSymbolTableRecord
100
AcDbLayerTableRecord
  2
ASHADE
 70
     0
 62
     7
  6
CONTINUOUS
370
    -3
390
3F24
347
4FA6
348
0
  0
LAYER
  5
3F63
102
{ACAD_XDICTIONARY
360
51B6
102
}
330
2
100
AcDbSymbolTableRecord
100
AcDbLayerTableRecord
  2
KOPF
 70
     0
 62
     7
  6
CONTINUOUS
370
    -3
390
3F24
347
4FA6
348
0
  0
LAYER
  5
3F6C
102
{ACAD_XDICTIONARY
360
51B8
102
}
330
2
100
AcDbSymbolTableRecord
100
AcDbLayerTableRecord
  2
AVERDECKT
 70
     0
 62
    13
  6
VERDECKT
370
    -3
390
3F24
347
4FA6
348
0
  0
LAYER
  5
479A
102
{ACAD_XDICTIONARY
360
51BA
102
}
330
2
100
AcDbSymbolTableRecord
100
AcDbLayerTableRecord
  2
KOPF03
 70
     0
 62
     1
  6
RANDX2
370
    -3
390
3F24
347
4FA6
348
0
  0
LAYER
  5
5276
330
2
100
AcDbSymbolTableRecord
100
AcDbLayerTableRecord
  2
Sichtbare Kanten(MSL)
 70
     0
 62
     7
  6
CONTINUOUS
370
    50
390
3F24
347
4FA6
348
0
  0
LAYER
  5
5277
330
2
100
AcDbSymbolTableRecord
100
AcDbLayerTableRecord
  2
Defpoints
 70
     0
 62
     7
  6
CONTINUOUS
290
     0
370
    -3
390
3F24
347
4FA6
348
0
  0
LAYER
  5
5278
330
2
100
AcDbSymbolTableRecord
100
AcDbLayerTableRecord
  2
Mittellinie(MSL)
 70
     0
 62
     1
  6
CHAIN
370
    25
390
3F24
347
4FA6
348
0
  0
LAYER
  5
5279
330
2
100
AcDbSymbolTableRecord
100
AcDbLayerTableRecord
  2
Mittelpunktmarkierung(MSL)
 70
     0
 62
     1
  6
CONTINUOUS
370
    25
390
3F24
347
4FA6
348
0
  0
ENDTAB
  0
TABLE
  2
STYLE
  5
3
330
0
100
AcDbSymbolTable
 70
    26
  0
STYLE
  5
10
330
3
100
AcDbSymbolTableRecord
100
AcDbTextStyleTableRecord
  2
STANDARD
 70
     0
 40
0.0
 41
1.0
 50
0.0
 71
     0
 42
3.5
  3
ISOCP.SHX
  4

  0
STYLE
  5
1DC
330
3
100
AcDbSymbolTableRecord
100
AcDbTextStyleTableRecord
  2
ARIAL-STANDARD
 70
     0
 40
0.0
 41
1.0
 50
0.0
 71
     0
 42
3.5
  3
arial.ttf
  4

1001
ACAD
1000
Arial
1071
       34
  0
STYLE
  5
1DD
330
3
100
AcDbSymbolTableRecord
100
AcDbTextStyleTableRecord
  2
ARIAL-FETT
 70
     0
 40
3.5
 41
1.0
 50
0.0
 71
     0
 42
10.0
  3

  4

1001
ACAD
1000
Arial
1071
 33554466
  0
STYLE
  5
1E4
330
3
100
AcDbSymbolTableRecord
100
AcDbTextStyleTableRecord
  2
BOOKMAN-KURSIV
 70
     0
 40
3.5
 41
1.0
 50
0.0
 71
     0
 42
10.0
  3
BOOKOSI.TTF
  4

1001
ACAD
1000
Bookman Old Style
1071
 16777234
  0
STYLE
  5
1EE
330
3
100
AcDbSymbolTableRecord
100
AcDbTextStyleTableRecord
  2
COMMERCIAL
 70
     0
 40
3.5
 41
1.0
 50
0.0
 71
     0
 42
10.0
  3
comsc.ttf
  4

1001
ACAD
1000
CommercialScript BT
1071
       66
  0
STYLE
  5
219
330
3
100
AcDbSymbolTableRecord
100
AcDbTextStyleTableRecord
  2
SWIS-FETT
 70
     0
 40
3.5
 41
1.0
 50
0.0
 71
     0
 42
10.0
  3
swissbo.ttf
  4

1001
ACAD
1000
Swis721 BdOul BT
1071
       82
  0
STYLE
  5
21B
330
3
100
AcDbSymbolTableRecord
100
AcDbTextStyleTableRecord
  2
SWIS-BLACK
 70
     0
 40
3.5
 41
1.0
 50
0.0
 71
     0
 42
10.0
  3
swissk.ttf
  4

1001
ACAD
1000
Swis721 Blk BT
1071
       34
  0
STYLE
  5
21D
330
3
100
AcDbSymbolTableRecord
100
AcDbTextStyleTableRecord
  2
SWIS-BLACK-SCHMAL
 70
     0
 40
3.5
 41
1.0
 50
0.0
 71
     0
 42
10.0
  3
swissck.ttf
  4

1001
ACAD
1000
Swis721 BlkCn BT
1071
       34
  0
STYLE
  5
21F
330
3
100
AcDbSymbolTableRecord
100
AcDbTextStyleTableRecord
  2
SWIS-BLACK-BREIT
 70
     0
 40
3.5
 41
1.0
 50
0.0
 71
     0
 42
10.0
  3
swissek.ttf
  4

1001
ACAD
1000
Swis721 BlkEx BT
1071
       34
  0
STYLE
  5
232
330
3
100
AcDbSymbolTableRecord
100
AcDbTextStyleTableRecord
  2
TIMES-NEW-ROMAN
 70
     0
 40
3.5
 41
1.0
 50
0.0
 71
     0
 42
10.0
  3

  4

1001
ACAD
1000
Times New Roman
1071
 16777234
  0
STYLE
  5
235
330
3
100
AcDbSymbolTableRecord
100
AcDbTextStyleTableRecord
  2
VINETA
 70
     0
 40
3.5
 41
1.0
 50
0.0
 71
     0
 42
10.0
  3
vinet.ttf
  4

1001
ACAD
1000
Vineta BT
1071
       82
  0
STYLE
  5
F24
330
3
100
AcDbSymbolTableRecord
100
AcDbTextStyleTableRecord
  2
NORM
 70
     0
 40
0.0
 41
1.0
 50
0.0
 71
     0
 42
2.399999999999999
  3
simplex.shx
  4

  0
STYLE
  5
12D0
330
3
100
AcDbSymbolTableRecord
100
AcDbTextStyleTableRecord
  2
TIMES
 70
     0
 40
0.0
 41
0.8
 50
0.0
 71
     0
 42
3.0
  3

  4

1001
ACAD
1000
Times New Roman
1071
 33554450
  0
STYLE
  5
12D1
330
3
100
AcDbSymbolTableRecord
100
AcDbTextStyleTableRecord
  2
ARIAL
 70
     0
 40
0.0
 41
0.8
 50
0.0
 71
     0
 42
3.0
  3
ARIALN.TTF
  4

1001
ACAD
1000
Arial Narrow
1071
       34
  0
STYLE
  5
3F6D
330
3
100
AcDbSymbolTableRecord
100
AcDbTextStyleTableRecord
  2
ARIALFETT
 70
     0
 40
0.0
 41
1.0
 50
0.0
 71
     0
 42
6.0
  3

  4

1001
ACAD
1000
Arial Black
1071
       34
  0
STYLE
  5
3F6E
330
3
100
AcDbSymbolTableRecord
100
AcDbTextStyleTableRecord
  2

 70
     1
 40
0.0
 41
1.0
 50
0.0
 71
     0
 42
2.5
  3
ltypeshp.shx
  4

  0
STYLE
  5
479B
330
3
100
AcDbSymbolTableRecord
100
AcDbTextStyleTableRecord
  2
DIN
 70
     0
 40
0.0
 41
0.8
 50
0.0
 71
     0
 42
3.5
  3
isocp.shx
  4

  0
STYLE
  5
479C
330
3
100
AcDbSymbolTableRecord
100
AcDbTextStyleTableRecord
  2
NORM2
 70
     0
 40
0.0
 41
0.8
 50
0.0
 71
     0
 42
48.0
  3
simplex.shx
  4

  0
STYLE
  5
479D
330
3
100
AcDbSymbolTableRecord
100
AcDbTextStyleTableRecord
  2
PASSDIN
 70
     0
 40
0.0
 41
1.0
 50
0.0
 71
     0
 42
3.5
  3
isocp.shx
  4

  0
STYLE
  5
4D1A
330
3
100
AcDbSymbolTableRecord
100
AcDbTextStyleTableRecord
  2
ACDINTS
 70
     0
 40
1.0
 41
1.0
 50
0.0
 71
     0
 42
3.5
  3
isocp.shx
  4

  0
STYLE
  5
4D26
330
3
100
AcDbSymbolTableRecord
100
AcDbTextStyleTableRecord
  2
ACDINGDT
 70
     0
 40
0.0
 41
1.0
 50
0.0
 71
     0
 42
3.5
  3
amgdt.shx
  4

  0
STYLE
  5
4D40
330
3
100
AcDbSymbolTableRecord
100
AcDbTextStyleTableRecord
  2

 70
     1
 40
0.0
 41
1.0
 50
0.0
 71
     0
 42
3.5
  3
genltshp.shx
  4

  0
STYLE
  5
4F52
330
3
100
AcDbSymbolTableRecord
100
AcDbTextStyleTableRecord
  2
WMF
 70
     0
 40
0.0
 41
1.0
 50
0.0
 71
     0
 42
10.0
  3
arial.ttf
  4

1001
ACAD
1000
Arial
1071
       34
  0
STYLE
  5
507A
330
3
100
AcDbSymbolTableRecord
100
AcDbTextStyleTableRecord
  2
USER1
 70
     0
 40
0.0
 41
1.0
 50
0.0
 71
     0
 42
3.5
  3
TXT.SHX
  4

  0
STYLE
  5
507B
330
3
100
AcDbSymbolTableRecord
100
AcDbTextStyleTableRecord
  2
USER2
 70
     0
 40
0.0
 41
1.0
 50
0.0
 71
     0
 42
3.5
  3
SIMPLEX.SHX
  4

  0
STYLE
  5
507C
330
3
100
AcDbSymbolTableRecord
100
AcDbTextStyleTableRecord
  2
USER3
 70
     0
 40
0.0
 41
1.0
 50
0.0
 71
     0
 42
3.5
  3
ITALIC.SHX
  4

  0
ENDTAB
  0
TABLE
  2
VIEW
  5
6
330
0
100
AcDbSymbolTable
 70
     0
  0
ENDTAB
  0
TABLE
  2
UCS
  5
7
330
0
100
AcDbSymbolTable
 70
     0
  0
ENDTAB
  0
TABLE
  2
APPID
  5
9
330
0
100
AcDbSymbolTable
 70
    33
  0
APPID
  5
11
330
9
100
AcDbSymbolTableRecord
100
AcDbRegAppTableRecord
  2
ACAD
 70
     0
  0
APPID
  5
F32
330
9
100
AcDbSymbolTableRecord
100
AcDbRegAppTableRecord
  2
ACA_CADIMENU
 70
     0
  0
APPID
  5
F33
330
9
100
AcDbSymbolTableRecord
100
AcDbRegAppTableRecord
  2
AVE_RENDER
 70
     0
  0
APPID
  5
F34
330
9
100
AcDbSymbolTableRecord
100
AcDbRegAppTableRecord
  2
GENIUS_GENCFG_13
 70
     0
1001
GENIUS_GENCFG0_13
1000
GEN@INFO_POS@XLATE
1001
GENIUS_GENCFG1_13
1000
GEN@INFO_POS
1001
GENIUS_GENCFG2_13
1000
GEN@LAYER@DEFS
1001
GENIUS_GENCFG3_13
1000
GEN@LAYER@ENTSORT
1001
GENIUS_GENCFG4_13
1000
GEN
1001
GENIUS_GEVCFG0_13
1000
GEV
  0
APPID
  5
F35
330
9
100
AcDbSymbolTableRecord
100
AcDbRegAppTableRecord
  2
GENIUS_GENCFG0_13
 70
     0
1001
GENIUS_GENCFG_13
1071
908952218
1000
53F
1000
GEN@INFO_POS@XLATE
1070
     7
1000
GenCfgObject
1000
GenCfgShort
1000
GenCfgReal
1000
GenCfgBool
1000
GenCfgString
1000
GenCfgDim
1000
GenCfgAttrInf
1000
INFOPOINTS
1070
     0
1002
{
1000
GENINF14
1070
     0
1002
{
1000
2GENINF
1070
     4
1000
2
1002
{
1002
}
1000
3GENINF
1070
     4
1000
3
1002
{
1002
}
1000
4GENINF
1070
     4
1000
4
1002
{
1002
}
1000
5GENINF
1070
     4
1000
5
1002
{
1002
}
1000
6GENINF
1070
     4
1000
6
1002
{
1002
}
1000
7GENINF
1070
     4
1000
7
1002
{
1002
}
1000
8GENINF
1070
     4
1000
8
1002
{
1002
}
1000
9GENINF
1070
     4
1000
9
1002
{
1002
}
1000
10GENINF
1070
     4
1000
10
1002
{
1002
}
1000
11GENINF
1070
     4
1000
11
1002
{
1002
}
1000
12GENINF
1070
     4
1000
12
1002
{
1002
}
1000
13GENINF
1070
     4
1000
13
1002
{
1002
}
1000
14GENINF
1070
     4
1000
14
1002
{
1002
}
1000
15GENINF
1070
     4
1000
15
1002
{
1002
}
1000
16GENINF
1070
     4
1000
16
1002
{
1002
}
1000
17GENINF
1070
     4
1000
17
1002
{
1002
}
1000
18GENINF
1070
     4
1000
18
1002
{
1002
}
1000
19GENINF
1070
     4
1000
19
1002
{
1002
}
1000
20GENINF
1070
     4
1000
20
1002
{
1002
}
1000
21GENINF
1070
     4
1000
21
1002
{
1002
}
1000
22GENINF
1070
     4
1000
22
1002
{
1002
}
1000
23GENINF
1070
     4
1000
23
1002
{
1002
}
1000
24GENINF
1070
     4
1000
24
1002
{
1002
}
1000
25GENINF
1070
     4
1000
25
1002
{
1002
}
1000
26GENINF
1070
     4
1000
26
1002
{
1002
}
1000
27GENINF
1070
     4
1000
27
1002
{
1002
}
1000
0GENINF
1070
     4
1000
0
1002
{
1002
}
1002
}
1000
GENINF13
1070
     0
1002
{
1000
2GENINF
1070
     4
1000
2
1002
{
1002
}
1000
3GENINF
1070
     4
1000
3
1002
{
1002
}
1000
4GENINF
1070
     4
1000
4
1002
{
1002
}
1000
5GENINF
1070
     4
1000
5
1002
{
1002
}
1000
6GENINF
1070
     4
1000
6
1002
{
1002
}
1000
7GENINF
1070
     4
1000
7
1002
{
1002
}
1000
8GENINF
1070
     4
1000
8
1002
{
1002
}
1000
9GENINF
1070
     4
1000
9
1002
{
1002
}
1000
10GENINF
1070
     4
1000
10
1002
{
1002
}
1000
11GENINF
1070
     4
1000
11
1002
{
1002
}
1000
12GENINF
1070
     4
1000
12
1002
{
1002
}
1000
13GENINF
1070
     4
1000
13
1002
{
1002
}
1000
14GENINF
1070
     4
1000
14
1002
{
1002
}
1000
15GENINF
1070
     4
1000
15
1002
{
1002
}
1000
16GENINF
1070
     4
1000
16
1002
{
1002
}
1000
17GENINF
1070
     4
1000
17
1002
{
1002
}
1000
18GENINF
1070
     4
1000
18
1002
{
1002
}
1000
19GENINF
1070
     4
1000
19
1002
{
1002
}
1000
20GENINF
1070
     4
1000
20
1002
{
1002
}
1000
21GENINF
1070
     4
1000
21
1002
{
1002
}
1000
22GENINF
1070
     4
1000
22
1002
{
1002
}
1000
23GENINF
1070
     4
1000
23
1002
{
1002
}
1000
24GENINF
1070
     4
1000
24
1002
{
1002
}
1000
0GENINF
1070
     4
1000
0
1002
{
1002
}
1002
}
1000
GENINFO
1070
     0
1002
{
1000
3GENINF
1070
     4
1000
3
1002
{
1002
}
1000
4GENINF
1070
     4
1000
4
1002
{
1002
}
1000
5GENINF
1070
     4
1000
5
1002
{
1002
}
1000
6GENINF
1070
     4
1000
6
1002
{
1002
}
1000
7GENINF
1070
     4
1000
7
1002
{
1002
}
1000
8GENINF
1070
     4
1000
8
1002
{
1002
}
1000
9GENINF
1070
     4
1000
9
1002
{
1002
}
1000
10GENINF
1070
     4
1000
10
1002
{
1002
}
1000
11GENINF
1070
     4
1000
11
1002
{
1002
}
1000
12GENINF
1070
     4
1000
12
1002
{
1002
}
1000
13GENINF
1070
     4
1000
13
1002
{
1002
}
1000
14GENINF
1070
     4
1000
14
1002
{
1002
}
1000
15GENINF
1070
     4
1000
15
1002
{
1002
}
1000
16GENINF
1070
     4
1000
16
1002
{
1002
}
1000
17GENINF
1070
     4
1000
17
1002
{
1002
}
1000
18GENINF
1070
     4
1000
18
1002
{
1002
}
1000
19GENINF
1070
     4
1000
19
1002
{
1002
}
1000
20GENINF
1070
     4
1000
20
1002
{
1002
}
1000
21GENINF
1070
     4
1000
21
1002
{
1002
}
1000
22GENINF
1070
     4
1000
22
1002
{
1002
}
1002
}
1000
DININFO
1070
     0
1002
{
1000
ST-NAME1
1070
     4
1000
5
1002
{
1002
}
1000
ST-NAME2
1070
     4
1000
6
1002
{
1002
}
1000
ST-NORM1
1070
     4
1000
7
1002
{
1002
}
1000
ST-NORM2
1070
     4
1000
8
1002
{
1002
}
1000
ST-MAT1
1070
     4
1000
9
1002
{
1002
}
1000
ST-MAT2
1070
     4
1000
10
1002
{
1002
}
1002
}
1002
}
1000
POS_NUMBERS
1070
     0
1002
{
1000
GENPOS14
1070
     0
1002
{
1000
1GENPOS
1070
     4
1000
1
1002
{
1002
}
1000
2GENPOS
1070
     4
1000
2
1002
{
1002
}
1000
3GENPOS
1070
     4
1000
3
1002
{
1002
}
1000
4GENPOS
1070
     4
1000
4
1002
{
1002
}
1000
5GENPOS
1070
     4
1000
5
1002
{
1002
}
1000
6GENPOS
1070
     4
1000
6
1002
{
1002
}
1000
7GENPOS
1070
     4
1000
7
1002
{
1002
}
1000
8GENPOS
1070
     4
1000
8
1002
{
1002
}
1000
9GENPOS
1070
     4
1000
9
1002
{
1002
}
1000
10GENPOS
1070
     4
1000
10
1002
{
1002
}
1000
11GENPOS
1070
     4
1000
11
1002
{
1002
}
1000
12GENPOS
1070
     4
1000
12
1002
{
1002
}
1000
13GENPOS
1070
     4
1000
13
1002
{
1002
}
1000
14GENPOS
1070
     4
1000
14
1002
{
1002
}
1000
15GENPOS
1070
     4
1000
15
1002
{
1002
}
1000
16GENPOS
1070
     4
1000
16
1002
{
1002
}
1000
17GENPOS
1070
     4
1000
17
1002
{
1002
}
1000
18GENPOS
1070
     4
1000
18
1002
{
1002
}
1000
19GENPOS
1070
     4
1000
19
1002
{
1002
}
1000
20GENPOS
1070
     4
1000
20
1002
{
1002
}
1000
21GENPOS
1070
     4
1000
21
1002
{
1002
}
1000
22GENPOS
1070
     4
1000
22
1002
{
1002
}
1000
23GENPOS
1070
     4
1000
23
1002
{
1002
}
1000
24GENPOS
1070
     4
1000
24
1002
{
1002
}
1000
25GENPOS
1070
     4
1000
25
1002
{
1002
}
1000
26GENPOS
1070
     4
1000
26
1002
{
1002
}
1000
27GENPOS
1070
     4
1000
27
1002
{
1002
}
1000
0GENPOS
1070
     4
1000
0
1002
{
1002
}
1002
}
1000
GENPOS13
1070
     0
1002
{
1000
1GENPOS
1070
     4
1000
1
1002
{
1002
}
1000
2GENPOS
1070
     4
1000
2
1002
{
1002
}
1000
3GENPOS
1070
     4
1000
3
1002
{
1002
}
1000
4GENPOS
1070
     4
1000
4
1002
{
1002
}
1000
5GENPOS
1070
     4
1000
5
1002
{
1002
}
1000
6GENPOS
1070
     4
1000
6
1002
{
1002
}
1000
7GENPOS
1070
     4
1000
7
1002
{
1002
}
1000
8GENPOS
1070
     4
1000
8
1002
{
1002
}
1000
9GENPOS
1070
     4
1000
9
1002
{
1002
}
1000
10GENPOS
1070
     4
1000
10
1002
{
1002
}
1000
11GENPOS
1070
     4
1000
11
1002
{
1002
}
1000
12GENPOS
1070
     4
1000
12
1002
{
1002
}
1000
13GENPOS
1070
     4
1000
13
1002
{
1002
}
1000
14GENPOS
1070
     4
1000
14
1002
{
1002
}
1000
15GENPOS
1070
     4
1000
15
1002
{
1002
}
1000
16GENPOS
1070
     4
1000
16
1002
{
1002
}
1000
17GENPOS
1070
     4
1000
17
1002
{
1002
}
1000
18GENPOS
1070
     4
1000
18
1002
{
1002
}
1000
19GENPOS
1070
     4
1000
19
1002
{
1002
}
1000
20GENPOS
1070
     4
1000
20
1002
{
1002
}
1000
21GENPOS
1070
     4
1000
21
1002
{
1002
}
1000
22GENPOS
1070
     4
1000
22
1002
{
1002
}
1000
23GENPOS
1070
     4
1000
23
1002
{
1002
}
1000
24GENPOS
1070
     4
1000
24
1002
{
1002
}
1000
0GENPOS
1070
     4
1000
0
1002
{
1002
}
1002
}
1000
GENPOS
1070
     0
1002
{
1000
1GENPOS
1070
     4
1000
1
1002
{
1002
}
1000
2GENPOS
1070
     4
1000
2
1002
{
1002
}
1000
3GENPOS
1070
     4
1000
3
1002
{
1002
}
1000
4GENPOS
1070
     4
1000
4
1002
{
1002
}
1000
5GENPOS
1070
     4
1000
5
1002
{
1002
}
1000
6GENPOS
1070
     4
1000
6
1002
{
1002
}
1000
7GENPOS
1070
     4
1000
7
1002
{
1002
}
1000
8GENPOS
1070
     4
1000
8
1002
{
1002
}
1000
9GENPOS
1070
     4
1000
9
1002
{
1002
}
1000
10GENPOS
1070
     4
1000
10
1002
{
1002
}
1000
11GENPOS
1070
     4
1000
11
1002
{
1002
}
1000
12GENPOS
1070
     4
1000
12
1002
{
1002
}
1000
13GENPOS
1070
     4
1000
13
1002
{
1002
}
1000
14GENPOS
1070
     4
1000
14
1002
{
1002
}
1000
15GENPOS
1070
     4
1000
15
1002
{
1002
}
1000
16GENPOS
1070
     4
1000
16
1002
{
1002
}
1000
17GENPOS
1070
     4
1000
17
1002
{
1002
}
1000
18GENPOS
1070
     4
1000
18
1002
{
1002
}
1000
19GENPOS
1070
     4
1000
19
1002
{
1002
}
1000
20GENPOS
1070
     4
1000
20
1002
{
1002
}
1000
21GENPOS
1070
     4
1000
21
1002
{
1002
}
1000
22GENPOS
1070
     4
1000
22
1002
{
1002
}
1000
23GENPOS
1070
     4
1000
23
1002
{
1002
}
1002
}
1000
DIN985
1070
     0
1002
{
1000
POSITION
1070
     4
1000
1
1002
{
1002
}
1000
MENGE
1070
     4
1000
2
1002
{
1002
}
1000
BLATT
1070
     4
1000
3
1002
{
1002
}
1000
BENENN
1070
     4
1000
5
1002
{
1002
}
1000
BENENN2
1070
     4
1000
6
1002
{
1002
}
1000
NORM
1070
     4
1000
7
1002
{
1002
}
1000
NORM2
1070
     4
1000
8
1002
{
1002
}
1000
WERKSTOFF
1070
     4
1000
9
1002
{
1002
}
1000
WERKSTOFF2
1070
     4
1000
10
1002
{
1002
}
1002
}
1000
DIN986
1070
     0
1002
{
1000
POSITION
1070
     4
1000
1
1002
{
1002
}
1000
MENGE
1070
     4
1000
2
1002
{
1002
}
1000
BLATT
1070
     4
1000
3
1002
{
1002
}
1000
BENENN
1070
     4
1000
5
1002
{
1002
}
1000
BENENN2
1070
     4
1000
6
1002
{
1002
}
1000
NORM
1070
     4
1000
7
1002
{
1002
}
1000
NORM2
1070
     4
1000
8
1002
{
1002
}
1000
WERKSTOFF
1070
     4
1000
9
1002
{
1002
}
1000
WERKSTOFF2
1070
     4
1000
10
1002
{
1002
}
1002
}
1000
DIN987
1070
     0
1002
{
1000
POSITION
1070
     4
1000
1
1002
{
1002
}
1000
MENGE
1070
     4
1000
2
1002
{
1002
}
1000
BLATT
1070
     4
1000
3
1002
{
1002
}
1000
BENENN
1070
     4
1000
5
1002
{
1002
}
1000
BENENN2
1070
     4
1000
6
1002
{
1002
}
1000
NORM
1070
     4
1000
7
1002
{
1002
}
1000
NORM2
1070
     4
1000
8
1002
{
1002
}
1000
WERKSTOFF
1070
     4
1000
9
1002
{
1002
}
1000
WERKSTOFF2
1070
     4
1000
10
1002
{
1002
}
1002
}
1002
}
  0
APPID
  5
F36
330
9
100
AcDbSymbolTableRecord
100
AcDbRegAppTableRecord
  2
GENIUS_GENCFG1_13
 70
     0
1001
GENIUS_GENCFG_13
1071
908952218
1000
540
1000
GEN@INFO_POS
1070
     7
1000
GenCfgObject
1000
GenCfgShort
1000
GenCfgReal
1000
GenCfgBool
1000
GenCfgString
1000
GenCfgDim
1000
GenCfgAttrInf
1000
DescrText
1070
     4
1000
5, ,6, ,7, ,8
1002
{
1002
}
1000
DescrText2
1070
     4
1000
26
1002
{
1002
}
1000
VisibleAttr1
1070
     4
1000
1
1002
{
1002
}
1000
VisibleAttr2
1070
     4
1000
26
1002
{
1002
}
1000
UpdateBlock
1070
     3
1070
     1
1002
{
1002
}
1000
Attrib
1070
     0
1002
{
1000
0
1070
     6
1002
{
1000
Prompt
1070
     4
1000
(genmsg gendwg 103)
1002
{
1002
}
1000
Value
1070
     4
1000

1002
{
1002
}
1000
EditFlag
1070
     1
1070
     0
1002
{
1002
}
1000
PosInDDATTE
1070
     1
1070
    27
1002
{
1002
}
1000
FieldLen
1070
     1
1070
    -1
1002
{
1002
}
1002
}
1000
1
1070
     6
1002
{
1000
Prompt
1070
     4
1000
(genmsg gendwg 31)
1002
{
1002
}
1000
Value
1070
     4
1000
1
1002
{
1002
}
1000
EditFlag
1070
     1
1070
     1
1002
{
1002
}
1000
PosInDDATTE
1070
     1
1070
     1
1002
{
1002
}
1000
FieldLen
1070
     1
1070
    -1
1002
{
1002
}
1002
}
1000
2
1070
     6
1002
{
1000
Prompt
1070
     4
1000
(genmsg gendwg 32)
1002
{
1002
}
1000
Value
1070
     4
1000
1
1002
{
1002
}
1000
EditFlag
1070
     1
1070
     1
1002
{
1002
}
1000
PosInDDATTE
1070
     1
1070
     2
1002
{
1002
}
1000
FieldLen
1070
     1
1070
    -1
1002
{
1002
}
1002
}
1000
3
1070
     6
1002
{
1000
Prompt
1070
     4
1000
(genmsg gendwg 33)
1002
{
1002
}
1000
Value
1070
     4
1000

1002
{
1002
}
1000
EditFlag
1070
     1
1070
     1
1002
{
1002
}
1000
PosInDDATTE
1070
     1
1070
     3
1002
{
1002
}
1000
FieldLen
1070
     1
1070
    -1
1002
{
1002
}
1002
}
1000
4
1070
     6
1002
{
1000
Prompt
1070
     4
1000
(genmsg gendwg 34)
1002
{
1002
}
1000
Value
1070
     4
1000

1002
{
1002
}
1000
EditFlag
1070
     1
1070
     1
1002
{
1002
}
1000
PosInDDATTE
1070
     1
1070
     4
1002
{
1002
}
1000
FieldLen
1070
     1
1070
    -1
1002
{
1002
}
1002
}
1000
5
1070
     6
1002
{
1000
Prompt
1070
     4
1000
(genmsg gendwg 35)
1002
{
1002
}
1000
Value
1070
     4
1000

1002
{
1002
}
1000
EditFlag
1070
     1
1070
     1
1002
{
1002
}
1000
PosInDDATTE
1070
     1
1070
     5
1002
{
1002
}
1000
FieldLen
1070
     1
1070
    -1
1002
{
1002
}
1002
}
1000
6
1070
     6
1002
{
1000
Prompt
1070
     4
1000
(genmsg gendwg 36)
1002
{
1002
}
1000
Value
1070
     4
1000

1002
{
1002
}
1000
EditFlag
1070
     1
1070
     1
1002
{
1002
}
1000
PosInDDATTE
1070
     1
1070
     6
1002
{
1002
}
1000
FieldLen
1070
     1
1070
    -1
1002
{
1002
}
1002
}
1000
7
1070
     6
1002
{
1000
Prompt
1070
     4
1000
(genmsg gendwg 37)
1002
{
1002
}
1000
Value
1070
     4
1000

1002
{
1002
}
1000
EditFlag
1070
     1
1070
     1
1002
{
1002
}
1000
PosInDDATTE
1070
     1
1070
     7
1002
{
1002
}
1000
FieldLen
1070
     1
1070
    -1
1002
{
1002
}
1002
}
1000
8
1070
     6
1002
{
1000
Prompt
1070
     4
1000
(genmsg gendwg 38)
1002
{
1002
}
1000
Value
1070
     4
1000

1002
{
1002
}
1000
EditFlag
1070
     1
1070
     1
1002
{
1002
}
1000
PosInDDATTE
1070
     1
1070
     8
1002
{
1002
}
1000
FieldLen
1070
     1
1070
    -1
1002
{
1002
}
1002
}
1000
9
1070
     6
1002
{
1000
Prompt
1070
     4
1000
(genmsg gendwg 39)
1002
{
1002
}
1000
Value
1070
     4
1000

1002
{
1002
}
1000
EditFlag
1070
     1
1070
     1
1002
{
1002
}
1000
PosInDDATTE
1070
     1
1070
     9
1002
{
1002
}
1000
FieldLen
1070
     1
1070
    -1
1002
{
1002
}
1002
}
1000
10
1070
     6
1002
{
1000
Prompt
1070
     4
1000
(genmsg gendwg 40)
1002
{
1002
}
1000
Value
1070
     4
1000

1002
{
1002
}
1000
EditFlag
1070
     1
1070
     1
1002
{
1002
}
1000
PosInDDATTE
1070
     1
1070
    10
1002
{
1002
}
1000
FieldLen
1070
     1
1070
    -1
1002
{
1002
}
1002
}
1000
11
1070
     6
1002
{
1000
Prompt
1070
     4
1000
(genmsg gendwg 41)
1002
{
1002
}
1000
Value
1070
     4
1000

1002
{
1002
}
1000
EditFlag
1070
     1
1070
     1
1002
{
1002
}
1000
PosInDDATTE
1070
     1
1070
    11
1002
{
1002
}
1000
FieldLen
1070
     1
1070
    -1
1002
{
1002
}
1002
}
1000
12
1070
     6
1002
{
1000
Prompt
1070
     4
1000
(genmsg gendwg 42)
1002
{
1002
}
1000
Value
1070
     4
1000

1002
{
1002
}
1000
EditFlag
1070
     1
1070
     1
1002
{
1002
}
1000
PosInDDATTE
1070
     1
1070
    12
1002
{
1002
}
1000
FieldLen
1070
     1
1070
    -1
1002
{
1002
}
1002
}
1000
13
1070
     6
1002
{
1000
Prompt
1070
     4
1000
(genmsg gendwg 43)
1002
{
1002
}
1000
Value
1070
     4
1000

1002
{
1002
}
1000
EditFlag
1070
     1
1070
     1
1002
{
1002
}
1000
PosInDDATTE
1070
     1
1070
    13
1002
{
1002
}
1000
FieldLen
1070
     1
1070
    -1
1002
{
1002
}
1002
}
1000
14
1070
     6
1002
{
1000
Prompt
1070
     4
1000
(genmsg gendwg 44)
1002
{
1002
}
1000
Value
1070
     4
1000

1002
{
1002
}
1000
EditFlag
1070
     1
1070
     1
1002
{
1002
}
1000
PosInDDATTE
1070
     1
1070
    14
1002
{
1002
}
1000
FieldLen
1070
     1
1070
    -1
1002
{
1002
}
1002
}
1000
15
1070
     6
1002
{
1000
Prompt
1070
     4
1000
(genmsg gendwg 45)
1002
{
1002
}
1000
Value
1070
     4
1000

1002
{
1002
}
1000
EditFlag
1070
     1
1070
     1
1002
{
1002
}
1000
PosInDDATTE
1070
     1
1070
    15
1002
{
1002
}
1000
FieldLen
1070
     1
1070
    -1
1002
{
1002
}
1002
}
1000
16
1070
     6
1002
{
1000
Prompt
1070
     4
1000
(genmsg gendwg 46)
1002
{
1002
}
1000
Value
1070
     4
1000

1002
{
1002
}
1000
EditFlag
1070
     1
1070
     1
1002
{
1002
}
1000
PosInDDATTE
1070
     1
1070
    16
1002
{
1002
}
1000
FieldLen
1070
     1
1070
    -1
1002
{
1002
}
1002
}
1000
17
1070
     6
1002
{
1000
Prompt
1070
     4
1000
(genmsg gendwg 47)
1002
{
1002
}
1000
Value
1070
     4
1000

1002
{
1002
}
1000
EditFlag
1070
     1
1070
     1
1002
{
1002
}
1000
PosInDDATTE
1070
     1
1070
    17
1002
{
1002
}
1000
FieldLen
1070
     1
1070
    -1
1002
{
1002
}
1002
}
1000
18
1070
     6
1002
{
1000
Prompt
1070
     4
1000
(genmsg gendwg 48)
1002
{
1002
}
1000
Value
1070
     4
1000

1002
{
1002
}
1000
EditFlag
1070
     1
1070
     1
1002
{
1002
}
1000
PosInDDATTE
1070
     1
1070
    18
1002
{
1002
}
1000
FieldLen
1070
     1
1070
    -1
1002
{
1002
}
1002
}
1000
19
1070
     6
1002
{
1000
Prompt
1070
     4
1000
(genmsg gendwg 99)
1002
{
1002
}
1000
Value
1070
     4
1000

1002
{
1002
}
1000
EditFlag
1070
     1
1070
     1
1002
{
1002
}
1000
PosInDDATTE
1070
     1
1070
    19
1002
{
1002
}
1000
FieldLen
1070
     1
1070
    -1
1002
{
1002
}
1002
}
1000
20
1070
     6
1002
{
1000
Prompt
1070
     4
1000
(genmsg gendwg 100)
1002
{
1002
}
1000
Value
1070
     4
1000

1002
{
1002
}
1000
EditFlag
1070
     1
1070
     1
1002
{
1002
}
1000
PosInDDATTE
1070
     1
1070
    20
1002
{
1002
}
1000
FieldLen
1070
     1
1070
    -1
1002
{
1002
}
1002
}
1000
21
1070
     6
1002
{
1000
Prompt
1070
     4
1000
(genmsg gendwg 101)
1002
{
1002
}
1000
Value
1070
     4
1000

1002
{
1002
}
1000
EditFlag
1070
     1
1070
     1
1002
{
1002
}
1000
PosInDDATTE
1070
     1
1070
    21
1002
{
1002
}
1000
FieldLen
1070
     1
1070
    -1
1002
{
1002
}
1002
}
1000
22
1070
     6
1002
{
1000
Prompt
1070
     4
1000
(genmsg gendwg 102)
1002
{
1002
}
1000
Value
1070
     4
1000

1002
{
1002
}
1000
EditFlag
1070
     1
1070
     1
1002
{
1002
}
1000
PosInDDATTE
1070
     1
1070
    22
1002
{
1002
}
1000
FieldLen
1070
     1
1070
    -1
1002
{
1002
}
1002
}
1000
23
1070
     6
1002
{
1000
Prompt
1070
     4
1000
(genmsg gendwg 30)
1002
{
1002
}
1000
Value
1070
     4
1000

1002
{
1002
}
1000
EditFlag
1070
     1
1070
     1
1002
{
1002
}
1000
PosInDDATTE
1070
     1
1070
    23
1002
{
1002
}
1000
FieldLen
1070
     1
1070
    -1
1002
{
1002
}
1002
}
1000
24
1070
     6
1002
{
1000
Prompt
1070
     4
1000
(genmsg gendwg 104)
1002
{
1002
}
1000
Value
1070
     4
1000

1002
{
1002
}
1000
EditFlag
1070
     1
1070
     1
1002
{
1002
}
1000
PosInDDATTE
1070
     1
1070
    24
1002
{
1002
}
1000
FieldLen
1070
     1
1070
    -1
1002
{
1002
}
1002
}
1000
25
1070
     6
1002
{
1000
Prompt
1070
     4
1000
(genmsg gendwg 105)
1002
{
1002
}
1000
Value
1070
     4
1000

1002
{
1002
}
1000
EditFlag
1070
     1
1070
     1
1002
{
1002
}
1000
PosInDDATTE
1070
     1
1070
    25
1002
{
1002
}
1000
FieldLen
1070
     1
1070
    -1
1002
{
1002
}
1002
}
1000
26
1070
     6
1002
{
1000
Prompt
1070
     4
1000
(genmsg gendwg 106)
1002
{
1002
}
1000
Value
1070
     4
1000

1002
{
1002
}
1000
EditFlag
1070
     1
1070
     1
1002
{
1002
}
1000
PosInDDATTE
1070
     1
1070
    26
1002
{
1002
}
1000
FieldLen
1070
     1
1070
    -1
1002
{
1002
}
1002
}
1000
27
1070
     6
1002
{
1000
Prompt
1070
     4
1000
(genmsg gendwg 109)
1002
{
1002
}
1000
Value
1070
     4
1000

1002
{
1002
}
1000
EditFlag
1070
     1
1070
     2
1002
{
1002
}
1000
PosInDDATTE
1070
     1
1070
    27
1002
{
1002
}
1000
FieldLen
1070
     1
1070
    -1
1002
{
1002
}
1002
}
1002
}
1000
Xlate
1070
     0
1002
{
1000
>
1002
}
  0
APPID
  5
F37
330
9
100
AcDbSymbolTableRecord
100
AcDbRegAppTableRecord
  2
GENIUS_GENCFG2_13
 70
     0
1001
GENIUS_GENCFG_13
1071
908952218
1000
541
1000
GEN@LAYER@DEFS
1070
     9
1000
GenCfgObject
1000
GenCfgShort
1000
GenCfgReal
1000
GenCfgBool
1000
GenCfgString
1000
GenCfgDim
1000
GenCfgAttrInf
1000
GenCfgLaySection
1000
GenCfgLayer
1000
Basic
1070
     0
1002
{
1000
0
1070
     8
1000
0
1002
{
1000
Color
1070
     1
1070
     7
1002
{
1002
}
1000
LType
1070
     4
1000
CONTINUOUS
1002
{
1002
}
1000
Base
1070
     3
1070
     0
1002
{
1002
}
1002
}
1000
1
1070
     8
1000
1
1002
{
1000
Color
1070
     1
1070
    14
1002
{
1002
}
1000
LType
1070
     4
1000
CONTINUOUS
1002
{
1002
}
1000
Base
1070
     3
1070
     0
1002
{
1002
}
1002
}
1000
2
1070
     8
1000
2
1002
{
1000
Color
1070
     1
1070
     5
1002
{
1002
}
1000
LType
1070
     4
1000
CONTINUOUS
1002
{
1002
}
1000
Base
1070
     3
1070
     0
1002
{
1002
}
1002
}
1000
3
1070
     8
1000
3
1002
{
1000
Color
1070
     1
1070
     6
1002
{
1002
}
1000
LType
1070
     4
1000
GEN3
1002
{
1002
}
1000
Base
1070
     3
1070
     0
1002
{
1002
}
1002
}
1000
4
1070
     8
1000
4
1002
{
1000
Color
1070
     1
1070
     3
1002
{
1002
}
1000
LType
1070
     4
1000
CONTINUOUS
1002
{
1002
}
1000
Base
1070
     3
1070
     0
1002
{
1002
}
1002
}
1000
5
1070
     8
1000
5
1002
{
1000
Color
1070
     1
1070
     3
1002
{
1002
}
1000
LType
1070
     4
1000
CONTINUOUS
1002
{
1002
}
1000
Base
1070
     3
1070
     0
1002
{
1002
}
1002
}
1000
6
1070
     8
1000
6
1002
{
1000
Color
1070
     1
1070
     2
1002
{
1002
}
1000
LType
1070
     4
1000
CONTINUOUS
1002
{
1002
}
1000
Base
1070
     3
1070
     0
1002
{
1002
}
1002
}
1000
7
1070
     8
1000
7
1002
{
1000
Color
1070
     1
1070
     4
1002
{
1002
}
1000
LType
1070
     4
1000
GEN7
1002
{
1002
}
1000
Base
1070
     3
1070
     0
1002
{
1002
}
1002
}
1000
8
1070
     8
1000
8
1002
{
1000
Color
1070
     1
1070
     1
1002
{
1002
}
1000
LType
1070
     4
1000
CONTINUOUS
1002
{
1002
}
1000
Base
1070
     3
1070
     0
1002
{
1002
}
1002
}
1000
3A
1070
     8
1000
3A
1002
{
1000
Color
1070
     1
1070
     6
1002
{
1002
}
1000
LType
1070
     4
1000
GEN3A
1002
{
1002
}
1000
Base
1070
     3
1070
     0
1002
{
1002
}
1002
}
1000
7A
1070
     8
1000
7A
1002
{
1000
Color
1070
     1
1070
     4
1002
{
1002
}
1000
LType
1070
     4
1000
GEN7A
1002
{
1002
}
1000
Base
1070
     3
1070
     0
1002
{
1002
}
1002
}
1000
2A
1070
     8
1000
2A
1002
{
1000
Color
1070
     1
1070
     7
1002
{
1002
}
1000
LType
1070
     4
1000
GEN7
1002
{
1002
}
1000
Base
1070
     3
1070
     0
1002
{
1002
}
1002
}
1000
4A
1070
     8
1000
4A
1002
{
1000
Color
1070
     1
1070
     3
1002
{
1002
}
1000
LType
1070
     4
1000
GEN4A
1002
{
1002
}
1000
Base
1070
     3
1070
     0
1002
{
1002
}
1002
}
1000
9
1070
     8
1000
9
1002
{
1000
Color
1070
     1
1070
   253
1002
{
1002
}
1000
LType
1070
     4
1000
CONTINUOUS
1002
{
1002
}
1000
Base
1070
     3
1070
     0
1002
{
1002
}
1002
}
1000
IP
1070
     8
1000
IP
1002
{
1000
Color
1070
     1
1070
     7
1002
{
1002
}
1000
LType
1070
     4
1000
CONTINUOUS
1002
{
1002
}
1000
Base
1070
     3
1070
     0
1002
{
1002
}
1002
}
1002
}
1000
Standard
1070
     0
1002
{
1000
0N
1070
     8
1000
0N
1002
{
1000
Color
1070
     1
1070
     7
1002
{
1002
}
1000
LType
1070
     4
1000
CONTINUOUS
1002
{
1002
}
1000
Base
1070
     3
1070
     0
1002
{
1002
}
1002
}
1000
1N
1070
     8
1000
1N
1002
{
1000
Color
1070
     1
1070
    14
1002
{
1002
}
1000
LType
1070
     4
1000
CONTINUOUS
1002
{
1002
}
1000
Base
1070
     3
1070
     0
1002
{
1002
}
1002
}
1000
2N
1070
     8
1000
2N
1002
{
1000
Color
1070
     1
1070
     5
1002
{
1002
}
1000
LType
1070
     4
1000
CONTINUOUS
1002
{
1002
}
1000
Base
1070
     3
1070
     0
1002
{
1002
}
1002
}
1000
3N
1070
     8
1000
3N
1002
{
1000
Color
1070
     1
1070
     6
1002
{
1002
}
1000
LType
1070
     4
1000
GEN3
1002
{
1002
}
1000
Base
1070
     3
1070
     0
1002
{
1002
}
1002
}
1000
4N
1070
     8
1000
4N
1002
{
1000
Color
1070
     1
1070
     3
1002
{
1002
}
1000
LType
1070
     4
1000
CONTINUOUS
1002
{
1002
}
1000
Base
1070
     3
1070
     0
1002
{
1002
}
1002
}
1000
5N
1070
     8
1000
5N
1002
{
1000
Color
1070
     1
1070
     3
1002
{
1002
}
1000
LType
1070
     4
1000
CONTINUOUS
1002
{
1002
}
1000
Base
1070
     3
1070
     0
1002
{
1002
}
1002
}
1000
6N
1070
     8
1000
6N
1002
{
1000
Color
1070
     1
1070
     2
1002
{
1002
}
1000
LType
1070
     4
1000
CONTINUOUS
1002
{
1002
}
1000
Base
1070
     3
1070
     0
1002
{
1002
}
1002
}
1000
7N
1070
     8
1000
7N
1002
{
1000
Color
1070
     1
1070
     4
1002
{
1002
}
1000
LType
1070
     4
1000
GEN7
1002
{
1002
}
1000
Base
1070
     3
1070
     0
1002
{
1002
}
1002
}
1000
8N
1070
     8
1000
8N
1002
{
1000
Color
1070
     1
1070
     1
1002
{
1002
}
1000
LType
1070
     4
1000
CONTINUOUS
1002
{
1002
}
1000
Base
1070
     3
1070
     0
1002
{
1002
}
1002
}
1000
3AN
1070
     8
1000
3AN
1002
{
1000
Color
1070
     1
1070
     6
1002
{
1002
}
1000
LType
1070
     4
1000
GEN3A
1002
{
1002
}
1000
Base
1070
     3
1070
     0
1002
{
1002
}
1002
}
1000
7AN
1070
     8
1000
7AN
1002
{
1000
Color
1070
     1
1070
     4
1002
{
1002
}
1000
LType
1070
     4
1000
GEN7A
1002
{
1002
}
1000
Base
1070
     3
1070
     0
1002
{
1002
}
1002
}
1000
2AN
1070
     8
1000
2AN
1002
{
1000
Color
1070
     1
1070
     7
1002
{
1002
}
1000
LType
1070
     4
1000
GEN7
1002
{
1002
}
1000
Base
1070
     3
1070
     0
1002
{
1002
}
1002
}
1000
4AN
1070
     8
1000
4AN
1002
{
1000
Color
1070
     1
1070
     3
1002
{
1002
}
1000
LType
1070
     4
1000
GEN4A
1002
{
1002
}
1000
Base
1070
     3
1070
     0
1002
{
1002
}
1002
}
1000
9N
1070
     8
1000
9N
1002
{
1000
Color
1070
     1
1070
   253
1002
{
1002
}
1000
LType
1070
     4
1000
CONTINUOUS
1002
{
1002
}
1000
Base
1070
     3
1070
     0
1002
{
1002
}
1002
}
1000
IPN
1070
     8
1000
IPN
1002
{
1000
Color
1070
     1
1070
     7
1002
{
1002
}
1000
LType
1070
     4
1000
CONTINUOUS
1002
{
1002
}
1000
Base
1070
     3
1070
     0
1002
{
1002
}
1002
}
1002
}
1000
Extra
1070
     0
1002
{
1000
Klin
1070
     8
1000
KLIN
1002
{
1000
Color
1070
     1
1070
     1
1002
{
1002
}
1000
LType
1070
     4
1000
CONTINUOUS
1002
{
1002
}
1000
Base
1070
     3
1070
     1
1002
{
1002
}
1002
}
1000
Info
1070
     8
1000
INFO
1002
{
1000
Color
1070
     1
1070
     4
1002
{
1002
}
1000
LType
1070
     4
1000
CONTINUOUS
1002
{
1002
}
1000
Base
1070
     3
1070
     1
1002
{
1002
}
1002
}
1000
Rahm2
1070
     8
1000
RAHM2
1002
{
1000
Color
1070
     1
1070
     1
1002
{
1002
}
1000
LType
1070
     4
1000
CONTINUOUS
1002
{
1002
}
1000
Base
1070
     3
1070
     1
1002
{
1002
}
1002
}
1000
Rahm3
1070
     8
1000
RAHM3
1002
{
1000
Color
1070
     1
1070
     2
1002
{
1002
}
1000
LType
1070
     4
1000
CONTINUOUS
1002
{
1002
}
1000
Base
1070
     3
1070
     1
1002
{
1002
}
1002
}
1000
Rahm5
1070
     8
1000
RAHM5
1002
{
1000
Color
1070
     1
1070
     7
1002
{
1002
}
1000
LType
1070
     4
1000
CONTINUOUS
1002
{
1002
}
1000
Base
1070
     3
1070
     1
1002
{
1002
}
1002
}
1000
View
1070
     8
1000
VIEW
1002
{
1000
Color
1070
     1
1070
     1
1002
{
1002
}
1000
LType
1070
     4
1000
CONTINUOUS
1002
{
1002
}
1000
Base
1070
     3
1070
     1
1002
{
1002
}
1002
}
1000
Behind
1070
     8
1000
BEHIND
1002
{
1000
Color
1070
     1
1070
   253
1002
{
1002
}
1000
LType
1070
     4
1000
CONTINUOUS
1002
{
1002
}
1000
Base
1070
     3
1070
     1
1002
{
1002
}
1002
}
1002
}
  0
APPID
  5
F38
330
9
100
AcDbSymbolTableRecord
100
AcDbRegAppTableRecord
  2
GENIUS_GENCFG3_13
 70
     0
1001
GENIUS_GENCFG_13
1071
908952218
1000
542
1000
GEN@LAYER@ENTSORT
1070
    10
1000
GenCfgObject
1000
GenCfgShort
1000
GenCfgReal
1000
GenCfgBool
1000
GenCfgString
1000
GenCfgDim
1000
GenCfgAttrInf
1000
GenCfgLaySection
1000
GenCfgLayer
1000
GenCfgEntSort
1000
ADDL
1070
     9
1000
5
1002
{
1000
Class
1070
     4
1000
SYM
1002
{
1002
}
1000
Color
1070
     1
1070
     1
1002
{
1002
}
1000
LType
1070
     4
1000
BYLAYER
1002
{
1002
}
1002
}
1000
ALTR
1070
     9
1000
4
1002
{
1000
Class
1070
     4
1000

1002
{
1002
}
1000
Color
1070
     1
1070
     7
1002
{
1002
}
1000
LType
1070
     4
1000
GEN3A
1002
{
1002
}
1002
}
1000
BELI
1070
     9
1000
4
1002
{
1000
Class
1070
     4
1000

1002
{
1002
}
1000
Color
1070
     1
1070
   256
1002
{
1002
}
1000
LType
1070
     4
1000
BYLAYER
1002
{
1002
}
1002
}
1000
BHNV
1070
     9
1000
9
1002
{
1000
Class
1070
     4
1000
INV
1002
{
1002
}
1000
Color
1070
     1
1070
   256
1002
{
1002
}
1000
LType
1070
     4
1000
BYLAYER
1002
{
1002
}
1002
}
1000
BHNVS
1070
     9
1000
BEHIND
1002
{
1000
Class
1070
     4
1000
INV
1002
{
1002
}
1000
Color
1070
     1
1070
   256
1002
{
1002
}
1000
LType
1070
     4
1000
BYLAYER
1002
{
1002
}
1002
}
1000
BLID
1070
     9
1000
4A
1002
{
1000
Class
1070
     4
1000

1002
{
1002
}
1000
Color
1070
     1
1070
   256
1002
{
1002
}
1000
LType
1070
     4
1000
BYLAYER
1002
{
1002
}
1002
}
1000
BOAP
1070
     9
1000
4A
1002
{
1000
Class
1070
     4
1000

1002
{
1002
}
1000
Color
1070
     1
1070
   256
1002
{
1002
}
1000
LType
1070
     4
1000
BYLAYER
1002
{
1002
}
1002
}
1000
BOR2
1070
     9
1000
RAHM2
1002
{
1000
Class
1070
     4
1000
SPZ,SYM
1002
{
1002
}
1000
Color
1070
     1
1070
   256
1002
{
1002
}
1000
LType
1070
     4
1000
BYLAYER
1002
{
1002
}
1002
}
1000
BOR3
1070
     9
1000
RAHM3
1002
{
1000
Class
1070
     4
1000
SPZ,SYM
1002
{
1002
}
1000
Color
1070
     1
1070
   256
1002
{
1002
}
1000
LType
1070
     4
1000
BYLAYER
1002
{
1002
}
1002
}
1000
BOR5
1070
     9
1000
RAHM5
1002
{
1000
Class
1070
     4
1000
SPZ,SYM
1002
{
1002
}
1000
Color
1070
     1
1070
   256
1002
{
1002
}
1000
LType
1070
     4
1000
BYLAYER
1002
{
1002
}
1002
}
1000
BOR7
1070
     9
1000
RAHM5
1002
{
1000
Class
1070
     4
1000
SPZ,SYM
1002
{
1002
}
1000
Color
1070
     1
1070
     7
1002
{
1002
}
1000
LType
1070
     4
1000
CONTINUOUS
1002
{
1002
}
1002
}
1000
BPAP
1070
     9
1000
4A
1002
{
1000
Class
1070
     4
1000

1002
{
1002
}
1000
Color
1070
     1
1070
   256
1002
{
1002
}
1000
LType
1070
     4
1000
BYLAYER
1002
{
1002
}
1002
}
1000
BPEX
1070
     9
1000
4A
1002
{
1000
Class
1070
     4
1000

1002
{
1002
}
1000
Color
1070
     1
1070
   256
1002
{
1002
}
1000
LType
1070
     4
1000
BYLAYER
1002
{
1002
}
1002
}
1000
BTDI
1070
     9
1000
5
1002
{
1000
Class
1070
     4
1000
DIM,SYM
1002
{
1002
}
1000
Color
1070
     1
1070
   256
1002
{
1002
}
1000
LType
1070
     4
1000
BYLAYER
1002
{
1002
}
1002
}
1000
CAL2
1070
     9
1000
4
1002
{
1000
Class
1070
     4
1000
SYM
1002
{
1002
}
1000
Color
1070
     1
1070
   256
1002
{
1002
}
1000
LType
1070
     4
1000
BYLAYER
1002
{
1002
}
1002
}
1000
CAL3
1070
     9
1000
4
1002
{
1000
Class
1070
     4
1000
SYM
1002
{
1002
}
1000
Color
1070
     1
1070
     2
1002
{
1002
}
1000
LType
1070
     4
1000
BYLAYER
1002
{
1002
}
1002
}
1000
CAL5
1070
     9
1000
4
1002
{
1000
Class
1070
     4
1000
SYM
1002
{
1002
}
1000
Color
1070
     1
1070
     7
1002
{
1002
}
1000
LType
1070
     4
1000
BYLAYER
1002
{
1002
}
1002
}
1000
CAL7
1070
     9
1000
4
1002
{
1000
Class
1070
     4
1000
SYM
1002
{
1002
}
1000
Color
1070
     1
1070
     5
1002
{
1002
}
1000
LType
1070
     4
1000
BYLAYER
1002
{
1002
}
1002
}
1000
CENN
1070
     9
1000
7A
1002
{
1000
Class
1070
     4
1000
CEN
1002
{
1002
}
1000
Color
1070
     1
1070
   256
1002
{
1002
}
1000
LType
1070
     4
1000
BYLAYER
1002
{
1002
}
1002
}
1000
CENW
1070
     9
1000
7
1002
{
1000
Class
1070
     4
1000
CEN
1002
{
1002
}
1000
Color
1070
     1
1070
   256
1002
{
1002
}
1000
LType
1070
     4
1000
BYLAYER
1002
{
1002
}
1002
}
1000
CLIN
1070
     9
1000
KLIN
1002
{
1000
Class
1070
     4
1000
SPZ
1002
{
1002
}
1000
Color
1070
     1
1070
   256
1002
{
1002
}
1000
LType
1070
     4
1000
BYLAYER
1002
{
1002
}
1002
}
1000
CON1
1070
     9
1000
0
1002
{
1000
Class
1070
     4
1000
CON,BGD
1002
{
1002
}
1000
Color
1070
     1
1070
   256
1002
{
1002
}
1000
LType
1070
     4
1000
BYLAYER
1002
{
1002
}
1002
}
1000
CON2
1070
     9
1000
1
1002
{
1000
Class
1070
     4
1000
CON,BGD
1002
{
1002
}
1000
Color
1070
     1
1070
   256
1002
{
1002
}
1000
LType
1070
     4
1000
BYLAYER
1002
{
1002
}
1002
}
1000
CON3
1070
     9
1000
2
1002
{
1000
Class
1070
     4
1000
CON,BGD
1002
{
1002
}
1000
Color
1070
     1
1070
   256
1002
{
1002
}
1000
LType
1070
     4
1000
BYLAYER
1002
{
1002
}
1002
}
1000
CON4
1070
     9
1000
2
1002
{
1000
Class
1070
     4
1000
CON,BGD
1002
{
1002
}
1000
Color
1070
     1
1070
   256
1002
{
1002
}
1000
LType
1070
     4
1000
BYLAYER
1002
{
1002
}
1002
}
1000
DERP
1070
     9
1000
4
1002
{
1000
Class
1070
     4
1000

1002
{
1002
}
1000
Color
1070
     1
1070
   256
1002
{
1002
}
1000
LType
1070
     4
1000
BYLAYER
1002
{
1002
}
1002
}
1000
DETA
1070
     9
1000
4
1002
{
1000
Class
1070
     4
1000

1002
{
1002
}
1000
Color
1070
     1
1070
   256
1002
{
1002
}
1000
LType
1070
     4
1000
BYLAYER
1002
{
1002
}
1002
}
1000
DIAG
1070
     9
1000
5
1002
{
1000
Class
1070
     4
1000
SYM
1002
{
1002
}
1000
Color
1070
     1
1070
   256
1002
{
1002
}
1000
LType
1070
     4
1000
BYLAYER
1002
{
1002
}
1002
}
1000
DILI
1070
     9
1000
5
1002
{
1000
Class
1070
     4
1000
DIM,SYM
1002
{
1002
}
1000
Color
1070
     1
1070
     2
1002
{
1002
}
1000
LType
1070
     4
1000
BYLAYER
1002
{
1002
}
1002
}
1000
DITO2
1070
     9
1000
5
1002
{
1000
Class
1070
     4
1000
DIM,SYM
1002
{
1002
}
1000
Color
1070
     1
1070
     3
1002
{
1002
}
1000
LType
1070
     4
1000
BYLAYER
1002
{
1002
}
1002
}
1000
DITO3
1070
     9
1000
5
1002
{
1000
Class
1070
     4
1000
DIM,SYM
1002
{
1002
}
1000
Color
1070
     1
1070
     2
1002
{
1002
}
1000
LType
1070
     4
1000
BYLAYER
1002
{
1002
}
1002
}
1000
DITX
1070
     9
1000
5
1002
{
1000
Class
1070
     4
1000
DIM,SYM
1002
{
1002
}
1000
Color
1070
     1
1070
     3
1002
{
1002
}
1000
LType
1070
     4
1000
CONTINUOUS
1002
{
1002
}
1002
}
1000
DIXL
1070
     9
1000
5
1002
{
1000
Class
1070
     4
1000
DIM,SYM
1002
{
1002
}
1000
Color
1070
     1
1070
     2
1002
{
1002
}
1000
LType
1070
     4
1000
BYLAYER
1002
{
1002
}
1002
}
1000
EXMP
1070
     9
1000
4A
1002
{
1000
Class
1070
     4
1000

1002
{
1002
}
1000
Color
1070
     1
1070
   256
1002
{
1002
}
1000
LType
1070
     4
1000
BYLAYER
1002
{
1002
}
1002
}
1000
FEMN
1070
     9
1000
8
1002
{
1000
Class
1070
     4
1000

1002
{
1002
}
1000
Color
1070
     1
1070
   256
1002
{
1002
}
1000
LType
1070
     4
1000
BYLAYER
1002
{
1002
}
1002
}
1000
FEMPN
1070
     9
1000
8
1002
{
1000
Class
1070
     4
1000
SYM
1002
{
1002
}
1000
Color
1070
     1
1070
     3
1002
{
1002
}
1000
LType
1070
     4
1000
BYLAYER
1002
{
1002
}
1002
}
1000
FEMSP
1070
     9
1000
4A
1002
{
1000
Class
1070
     4
1000

1002
{
1002
}
1000
Color
1070
     1
1070
   256
1002
{
1002
}
1000
LType
1070
     4
1000
CONTINUOUS
1002
{
1002
}
1002
}
1000
FEMST
1070
     9
1000
4A
1002
{
1000
Class
1070
     4
1000
SYM
1002
{
1002
}
1000
Color
1070
     1
1070
     3
1002
{
1002
}
1000
LType
1070
     4
1000
BYLAYER
1002
{
1002
}
1002
}
1000
FEMVN
1070
     9
1000
2
1002
{
1000
Class
1070
     4
1000
CON
1002
{
1002
}
1000
Color
1070
     1
1070
   256
1002
{
1002
}
1000
LType
1070
     4
1000
BYLAYER
1002
{
1002
}
1002
}
1000
FEMVT
1070
     9
1000
2
1002
{
1000
Class
1070
     4
1000
SYM
1002
{
1002
}
1000
Color
1070
     1
1070
     3
1002
{
1002
}
1000
LType
1070
     4
1000
BYLAYER
1002
{
1002
}
1002
}
1000
FLAT
1070
     9
1000
0
1002
{
1000
Class
1070
     4
1000

1002
{
1002
}
1000
Color
1070
     1
1070
   256
1002
{
1002
}
1000
LType
1070
     4
1000
BYLAYER
1002
{
1002
}
1002
}
1000
FRAR
1070
     9
1000
4A
1002
{
1000
Class
1070
     4
1000

1002
{
1002
}
1000
Color
1070
     1
1070
   256
1002
{
1002
}
1000
LType
1070
     4
1000
BYLAYER
1002
{
1002
}
1002
}
1000
GRLI
1070
     9
1000
5
1002
{
1000
Class
1070
     4
1000
SYM
1002
{
1002
}
1000
Color
1070
     1
1070
   256
1002
{
1002
}
1000
LType
1070
     4
1000
BYLAYER
1002
{
1002
}
1002
}
1000
GVLI
1070
     9
1000
4A
1002
{
1000
Class
1070
     4
1000

1002
{
1002
}
1000
Color
1070
     1
1070
   256
1002
{
1002
}
1000
LType
1070
     4
1000
BYLAYER
1002
{
1002
}
1002
}
1000
HATC
1070
     9
1000
8
1002
{
1000
Class
1070
     4
1000
HTC,BGD
1002
{
1002
}
1000
Color
1070
     1
1070
   256
1002
{
1002
}
1000
LType
1070
     4
1000
BYLAYER
1002
{
1002
}
1002
}
1000
HIDN
1070
     9
1000
3A
1002
{
1000
Class
1070
     4
1000
HID,BGD
1002
{
1002
}
1000
Color
1070
     1
1070
   256
1002
{
1002
}
1000
LType
1070
     4
1000
BYLAYER
1002
{
1002
}
1002
}
1000
HIDW
1070
     9
1000
3
1002
{
1000
Class
1070
     4
1000
HID,BGD
1002
{
1002
}
1000
Color
1070
     1
1070
   256
1002
{
1002
}
1000
LType
1070
     4
1000
BYLAYER
1002
{
1002
}
1002
}
1000
HLIN
1070
     9
1000
4
1002
{
1000
Class
1070
     4
1000
BGD
1002
{
1002
}
1000
Color
1070
     1
1070
   256
1002
{
1002
}
1000
LType
1070
     4
1000
BYLAYER
1002
{
1002
}
1002
}
1000
HOCN
1070
     9
1000
7A
1002
{
1000
Class
1070
     4
1000
CEN
1002
{
1002
}
1000
Color
1070
     1
1070
   256
1002
{
1002
}
1000
LType
1070
     4
1000
BYLAYER
1002
{
1002
}
1002
}
1000
HOCW
1070
     9
1000
7
1002
{
1000
Class
1070
     4
1000
CEN
1002
{
1002
}
1000
Color
1070
     1
1070
   256
1002
{
1002
}
1000
LType
1070
     4
1000
BYLAYER
1002
{
1002
}
1002
}
1000
INFO
1070
     9
1000
INFO
1002
{
1000
Class
1070
     4
1000
SPZ,SYM
1002
{
1002
}
1000
Color
1070
     1
1070
   256
1002
{
1002
}
1000
LType
1070
     4
1000
BYLAYER
1002
{
1002
}
1002
}
1000
LADI
1070
     9
1000
4
1002
{
1000
Class
1070
     4
1000
BGD
1002
{
1002
}
1000
Color
1070
     1
1070
   256
1002
{
1002
}
1000
LType
1070
     4
1000
BYLAYER
1002
{
1002
}
1002
}
1000
LEAD
1070
     9
1000
5
1002
{
1000
Class
1070
     4
1000
SYM
1002
{
1002
}
1000
Color
1070
     1
1070
   256
1002
{
1002
}
1000
LType
1070
     4
1000
BYLAYER
1002
{
1002
}
1002
}
1000
N_ADDL
1070
     9
1000
5N
1002
{
1000
Class
1070
     4
1000
SYM
1002
{
1002
}
1000
Color
1070
     1
1070
     1
1002
{
1002
}
1000
LType
1070
     4
1000
BYLAYER
1002
{
1002
}
1002
}
1000
N_BHNV
1070
     9
1000
9N
1002
{
1000
Class
1070
     4
1000
INV
1002
{
1002
}
1000
Color
1070
     1
1070
   256
1002
{
1002
}
1000
LType
1070
     4
1000
BYLAYER
1002
{
1002
}
1002
}
1000
N_CON1
1070
     9
1000
0N
1002
{
1000
Class
1070
     4
1000
CON,BGD
1002
{
1002
}
1000
Color
1070
     1
1070
   256
1002
{
1002
}
1000
LType
1070
     4
1000
BYLAYER
1002
{
1002
}
1002
}
1000
N_CON2
1070
     9
1000
1N
1002
{
1000
Class
1070
     4
1000
CON,BGD
1002
{
1002
}
1000
Color
1070
     1
1070
   256
1002
{
1002
}
1000
LType
1070
     4
1000
BYLAYER
1002
{
1002
}
1002
}
1000
N_CON3
1070
     9
1000
2N
1002
{
1000
Class
1070
     4
1000
CON,BGD
1002
{
1002
}
1000
Color
1070
     1
1070
   256
1002
{
1002
}
1000
LType
1070
     4
1000
BYLAYER
1002
{
1002
}
1002
}
1000
N_CON4
1070
     9
1000
2N
1002
{
1000
Class
1070
     4
1000
CON,BGD
1002
{
1002
}
1000
Color
1070
     1
1070
   256
1002
{
1002
}
1000
LType
1070
     4
1000
BYLAYER
1002
{
1002
}
1002
}
1000
N_CENN
1070
     9
1000
7AN
1002
{
1000
Class
1070
     4
1000
CEN
1002
{
1002
}
1000
Color
1070
     1
1070
   256
1002
{
1002
}
1000
LType
1070
     4
1000
BYLAYER
1002
{
1002
}
1002
}
1000
N_CENW
1070
     9
1000
7N
1002
{
1000
Class
1070
     4
1000
CEN
1002
{
1002
}
1000
Color
1070
     1
1070
   256
1002
{
1002
}
1000
LType
1070
     4
1000
BYLAYER
1002
{
1002
}
1002
}
1000
N_DILI
1070
     9
1000
5N
1002
{
1000
Class
1070
     4
1000
DIM,SYM
1002
{
1002
}
1000
Color
1070
     1
1070
   256
1002
{
1002
}
1000
LType
1070
     4
1000
BYLAYER
1002
{
1002
}
1002
}
1000
N_DITX
1070
     9
1000
5N
1002
{
1000
Class
1070
     4
1000
DIM,SYM
1002
{
1002
}
1000
Color
1070
     1
1070
     2
1002
{
1002
}
1000
LType
1070
     4
1000
CONTINUOUS
1002
{
1002
}
1002
}
1000
N_DIXL
1070
     9
1000
5N
1002
{
1000
Class
1070
     4
1000
DIM,SYM
1002
{
1002
}
1000
Color
1070
     1
1070
   256
1002
{
1002
}
1000
LType
1070
     4
1000
BYLAYER
1002
{
1002
}
1002
}
1000
N_HATC
1070
     9
1000
8N
1002
{
1000
Class
1070
     4
1000
HTC,BGD
1002
{
1002
}
1000
Color
1070
     1
1070
   256
1002
{
1002
}
1000
LType
1070
     4
1000
BYLAYER
1002
{
1002
}
1002
}
1000
N_HIDN
1070
     9
1000
3AN
1002
{
1000
Class
1070
     4
1000
HID,BGD
1002
{
1002
}
1000
Color
1070
     1
1070
   256
1002
{
1002
}
1000
LType
1070
     4
1000
BYLAYER
1002
{
1002
}
1002
}
1000
N_HIDW
1070
     9
1000
3N
1002
{
1000
Class
1070
     4
1000
HID,BGD
1002
{
1002
}
1000
Color
1070
     1
1070
   256
1002
{
1002
}
1000
LType
1070
     4
1000
BYLAYER
1002
{
1002
}
1002
}
1000
N_NGIP
1070
     9
1000
IPN
1002
{
1000
Class
1070
     4
1000

1002
{
1002
}
1000
Color
1070
     1
1070
   256
1002
{
1002
}
1000
LType
1070
     4
1000
BYLAYER
1002
{
1002
}
1002
}
1000
N_PHAN
1070
     9
1000
4AN
1002
{
1000
Class
1070
     4
1000

1002
{
1002
}
1000
Color
1070
     1
1070
   256
1002
{
1002
}
1000
LType
1070
     4
1000
BYLAYER
1002
{
1002
}
1002
}
1000
N_POSL
1070
     9
1000
5N
1002
{
1000
Class
1070
     4
1000
SYM
1002
{
1002
}
1000
Color
1070
     1
1070
   256
1002
{
1002
}
1000
LType
1070
     4
1000
BYLAYER
1002
{
1002
}
1002
}
1000
N_TCON
1070
     9
1000
0N
1002
{
1000
Class
1070
     4
1000
CON,BGD
1002
{
1002
}
1000
Color
1070
     1
1070
   256
1002
{
1002
}
1000
LType
1070
     4
1000
BYLAYER
1002
{
1002
}
1002
}
1000
N_THLI
1070
     9
1000
4N
1002
{
1000
Class
1070
     4
1000
BGD
1002
{
1002
}
1000
Color
1070
     1
1070
   256
1002
{
1002
}
1000
LType
1070
     4
1000
BYLAYER
1002
{
1002
}
1002
}
1000
N_TLEN
1070
     9
1000
0N
1002
{
1000
Class
1070
     4
1000
CON,BGD
1002
{
1002
}
1000
Color
1070
     1
1070
   256
1002
{
1002
}
1000
LType
1070
     4
1000
BYLAYER
1002
{
1002
}
1002
}
1000
N_TXT3
1070
     9
1000
6N
1002
{
1000
Class
1070
     4
1000
SYM
1002
{
1002
}
1000
Color
1070
     1
1070
   256
1002
{
1002
}
1000
LType
1070
     4
1000
BYLAYER
1002
{
1002
}
1002
}
1000
N_VPLI
1070
     9
1000
2AN
1002
{
1000
Class
1070
     4
1000

1002
{
1002
}
1000
Color
1070
     1
1070
   256
1002
{
1002
}
1000
LType
1070
     4
1000
BYLAYER
1002
{
1002
}
1002
}
1000
NGIP
1070
     9
1000
IP
1002
{
1000
Class
1070
     4
1000

1002
{
1002
}
1000
Color
1070
     1
1070
   256
1002
{
1002
}
1000
LType
1070
     4
1000
BYLAYER
1002
{
1002
}
1002
}
1000
PAL2
1070
     9
1000
RAHM2
1002
{
1000
Class
1070
     4
1000
SPZ,SYM
1002
{
1002
}
1000
Color
1070
     1
1070
   256
1002
{
1002
}
1000
LType
1070
     4
1000
BYLAYER
1002
{
1002
}
1002
}
1000
PAL3
1070
     9
1000
RAHM3
1002
{
1000
Class
1070
     4
1000
SPZ,SYM
1002
{
1002
}
1000
Color
1070
     1
1070
   256
1002
{
1002
}
1000
LType
1070
     4
1000
BYLAYER
1002
{
1002
}
1002
}
1000
PAL5
1070
     9
1000
RAHM5
1002
{
1000
Class
1070
     4
1000
SPZ,SYM
1002
{
1002
}
1000
Color
1070
     1
1070
   256
1002
{
1002
}
1000
LType
1070
     4
1000
BYLAYER
1002
{
1002
}
1002
}
1000
PAL7
1070
     9
1000
RAHM5
1002
{
1000
Class
1070
     4
1000
SPZ,SYM
1002
{
1002
}
1000
Color
1070
     1
1070
     7
1002
{
1002
}
1000
LType
1070
     4
1000
CONTINUOUS
1002
{
1002
}
1002
}
1000
PHAN
1070
     9
1000
4A
1002
{
1000
Class
1070
     4
1000

1002
{
1002
}
1000
Color
1070
     1
1070
   256
1002
{
1002
}
1000
LType
1070
     4
1000
BYLAYER
1002
{
1002
}
1002
}
1000
POSL
1070
     9
1000
5
1002
{
1000
Class
1070
     4
1000
SYM
1002
{
1002
}
1000
Color
1070
     1
1070
   256
1002
{
1002
}
1000
LType
1070
     4
1000
BYLAYER
1002
{
1002
}
1002
}
1000
POSN
1070
     9
1000
6
1002
{
1000
Class
1070
     4
1000
SYM
1002
{
1002
}
1000
Color
1070
     1
1070
     7
1002
{
1002
}
1000
LType
1070
     4
1000
BYLAYER
1002
{
1002
}
1002
}
1000
POSREF
1070
     9
1000
6
1002
{
1000
Class
1070
     4
1000
SYM
1002
{
1002
}
1000
Color
1070
     1
1070
     5
1002
{
1002
}
1000
LType
1070
     4
1000
BYLAYER
1002
{
1002
}
1002
}
1000
POSX
1070
     9
1000
5
1002
{
1000
Class
1070
     4
1000
SYM
1002
{
1002
}
1000
Color
1070
     1
1070
     2
1002
{
1002
}
1000
LType
1070
     4
1000
CONTINUOUS
1002
{
1002
}
1002
}
1000
PSEC
1070
     9
1000
4A
1002
{
1000
Class
1070
     4
1000

1002
{
1002
}
1000
Color
1070
     1
1070
   256
1002
{
1002
}
1000
LType
1070
     4
1000
BYLAYER
1002
{
1002
}
1002
}
1000
RCGN
1070
     9
1000
7A
1002
{
1000
Class
1070
     4
1000
CEN
1002
{
1002
}
1000
Color
1070
     1
1070
   256
1002
{
1002
}
1000
LType
1070
     4
1000
BYLAYER
1002
{
1002
}
1002
}
1000
RCGW
1070
     9
1000
7
1002
{
1000
Class
1070
     4
1000
CEN
1002
{
1002
}
1000
Color
1070
     1
1070
   256
1002
{
1002
}
1000
LType
1070
     4
1000
BYLAYER
1002
{
1002
}
1002
}
1000
RFDI
1070
     9
1000
4
1002
{
1000
Class
1070
     4
1000
BGD
1002
{
1002
}
1000
Color
1070
     1
1070
   256
1002
{
1002
}
1000
LType
1070
     4
1000
BYLAYER
1002
{
1002
}
1002
}
1000
RQTR
1070
     9
1000
4
1002
{
1000
Class
1070
     4
1000

1002
{
1002
}
1000
Color
1070
     1
1070
     7
1002
{
1002
}
1000
LType
1070
     4
1000
GEN7A
1002
{
1002
}
1002
}
1000
RSBO
1070
     9
1000
4
1002
{
1000
Class
1070
     4
1000
BGD
1002
{
1002
}
1000
Color
1070
     1
1070
   256
1002
{
1002
}
1000
LType
1070
     4
1000
BYLAYER
1002
{
1002
}
1002
}
1000
SBRK
1070
     9
1000
4
1002
{
1000
Class
1070
     4
1000
BGD
1002
{
1002
}
1000
Color
1070
     1
1070
   256
1002
{
1002
}
1000
LType
1070
     4
1000
BYLAYER
1002
{
1002
}
1002
}
1000
SCEN
1070
     9
1000
7
1002
{
1000
Class
1070
     4
1000

1002
{
1002
}
1000
Color
1070
     1
1070
   256
1002
{
1002
}
1000
LType
1070
     4
1000
CONTINUOUS
1002
{
1002
}
1002
}
1000
SECT
1070
     9
1000
4
1002
{
1000
Class
1070
     4
1000
BGD
1002
{
1002
}
1000
Color
1070
     1
1070
   256
1002
{
1002
}
1000
LType
1070
     4
1000
BYLAYER
1002
{
1002
}
1002
}
1000
SELN
1070
     9
1000
7A
1002
{
1000
Class
1070
     4
1000

1002
{
1002
}
1000
Color
1070
     1
1070
   256
1002
{
1002
}
1000
LType
1070
     4
1000
BYLAYER
1002
{
1002
}
1002
}
1000
SELW
1070
     9
1000
7
1002
{
1000
Class
1070
     4
1000

1002
{
1002
}
1000
Color
1070
     1
1070
   256
1002
{
1002
}
1000
LType
1070
     4
1000
BYLAYER
1002
{
1002
}
1002
}
1000
SSYS
1070
     9
1000
0
1002
{
1000
Class
1070
     4
1000

1002
{
1002
}
1000
Color
1070
     1
1070
   256
1002
{
1002
}
1000
LType
1070
     4
1000
BYLAYER
1002
{
1002
}
1002
}
1000
STLI
1070
     9
1000
4
1002
{
1000
Class
1070
     4
1000

1002
{
1002
}
1000
Color
1070
     1
1070
     7
1002
{
1002
}
1000
LType
1070
     4
1000
GEN3A
1002
{
1002
}
1002
}
1000
SYB1
1070
     9
1000
5
1002
{
1000
Class
1070
     4
1000
SYM
1002
{
1002
}
1000
Color
1070
     1
1070
   256
1002
{
1002
}
1000
LType
1070
     4
1000
BYLAYER
1002
{
1002
}
1002
}
1000
SYB2
1070
     9
1000
5
1002
{
1000
Class
1070
     4
1000
SYM
1002
{
1002
}
1000
Color
1070
     1
1070
   256
1002
{
1002
}
1000
LType
1070
     4
1000
BYLAYER
1002
{
1002
}
1002
}
1000
SYB3
1070
     9
1000
6
1002
{
1000
Class
1070
     4
1000
SYM
1002
{
1002
}
1000
Color
1070
     1
1070
   256
1002
{
1002
}
1000
LType
1070
     4
1000
CONTINUOUS
1002
{
1002
}
1002
}
1000
SYB5
1070
     9
1000
5
1002
{
1000
Class
1070
     4
1000
SYM
1002
{
1002
}
1000
Color
1070
     1
1070
     7
1002
{
1002
}
1000
LType
1070
     4
1000
BYLAYER
1002
{
1002
}
1002
}
1000
SYMN
1070
     9
1000
7A
1002
{
1000
Class
1070
     4
1000
CEN
1002
{
1002
}
1000
Color
1070
     1
1070
   256
1002
{
1002
}
1000
LType
1070
     4
1000
BYLAYER
1002
{
1002
}
1002
}
1000
SYMW
1070
     9
1000
7
1002
{
1000
Class
1070
     4
1000
CEN
1002
{
1002
}
1000
Color
1070
     1
1070
   256
1002
{
1002
}
1000
LType
1070
     4
1000
BYLAYER
1002
{
1002
}
1002
}
1000
TCON
1070
     9
1000
0
1002
{
1000
Class
1070
     4
1000
CON,BGD
1002
{
1002
}
1000
Color
1070
     1
1070
   256
1002
{
1002
}
1000
LType
1070
     4
1000
BYLAYER
1002
{
1002
}
1002
}
1000
THLI
1070
     9
1000
4
1002
{
1000
Class
1070
     4
1000
BGD
1002
{
1002
}
1000
Color
1070
     1
1070
   256
1002
{
1002
}
1000
LType
1070
     4
1000
BYLAYER
1002
{
1002
}
1002
}
1000
TIT2
1070
     9
1000
RAHM2
1002
{
1000
Class
1070
     4
1000
SPZ,SYM
1002
{
1002
}
1000
Color
1070
     1
1070
   256
1002
{
1002
}
1000
LType
1070
     4
1000
BYLAYER
1002
{
1002
}
1002
}
1000
TIT3
1070
     9
1000
RAHM3
1002
{
1000
Class
1070
     4
1000
SPZ,SYM
1002
{
1002
}
1000
Color
1070
     1
1070
   256
1002
{
1002
}
1000
LType
1070
     4
1000
BYLAYER
1002
{
1002
}
1002
}
1000
TIT5
1070
     9
1000
RAHM5
1002
{
1000
Class
1070
     4
1000
SPZ,SYM
1002
{
1002
}
1000
Color
1070
     1
1070
   256
1002
{
1002
}
1000
LType
1070
     4
1000
BYLAYER
1002
{
1002
}
1002
}
1000
TIT7
1070
     9
1000
RAHM5
1002
{
1000
Class
1070
     4
1000
SPZ,SYM
1002
{
1002
}
1000
Color
1070
     1
1070
     7
1002
{
1002
}
1000
LType
1070
     4
1000
CONTINUOUS
1002
{
1002
}
1002
}
1000
TLEN
1070
     9
1000
0
1002
{
1000
Class
1070
     4
1000
CON,BGD
1002
{
1002
}
1000
Color
1070
     1
1070
   256
1002
{
1002
}
1000
LType
1070
     4
1000
BYLAYER
1002
{
1002
}
1002
}
1000
TRKN
1070
     9
1000
7A
1002
{
1000
Class
1070
     4
1000

1002
{
1002
}
1000
Color
1070
     1
1070
   256
1002
{
1002
}
1000
LType
1070
     4
1000
BYLAYER
1002
{
1002
}
1002
}
1000
TRKW
1070
     9
1000
7
1002
{
1000
Class
1070
     4
1000

1002
{
1002
}
1000
Color
1070
     1
1070
   256
1002
{
1002
}
1000
LType
1070
     4
1000
BYLAYER
1002
{
1002
}
1002
}
1000
TRLI
1070
     9
1000
4
1002
{
1000
Class
1070
     4
1000
BGD
1002
{
1002
}
1000
Color
1070
     1
1070
   256
1002
{
1002
}
1000
LType
1070
     4
1000
BYLAYER
1002
{
1002
}
1002
}
1000
TXT1
1070
     9
1000
6
1002
{
1000
Class
1070
     4
1000
SYM
1002
{
1002
}
1000
Color
1070
     1
1070
     2
1002
{
1002
}
1000
LType
1070
     4
1000
BYLAYER
1002
{
1002
}
1002
}
1000
TXT2
1070
     9
1000
6
1002
{
1000
Class
1070
     4
1000
SYM
1002
{
1002
}
1000
Color
1070
     1
1070
     2
1002
{
1002
}
1000
LType
1070
     4
1000
BYLAYER
1002
{
1002
}
1002
}
1000
TXT3
1070
     9
1000
6
1002
{
1000
Class
1070
     4
1000
SYM
1002
{
1002
}
1000
Color
1070
     1
1070
   256
1002
{
1002
}
1000
LType
1070
     4
1000
BYLAYER
1002
{
1002
}
1002
}
1000
TXT5
1070
     9
1000
6
1002
{
1000
Class
1070
     4
1000
SYM
1002
{
1002
}
1000
Color
1070
     1
1070
     7
1002
{
1002
}
1000
LType
1070
     4
1000
BYLAYER
1002
{
1002
}
1002
}
1000
TXT7
1070
     9
1000
6
1002
{
1000
Class
1070
     4
1000
SYM
1002
{
1002
}
1000
Color
1070
     1
1070
     7
1002
{
1002
}
1000
LType
1070
     4
1000
BYLAYER
1002
{
1002
}
1002
}
1000
VIEW
1070
     9
1000
VIEW
1002
{
1000
Class
1070
     4
1000
SPZ
1002
{
1002
}
1000
Color
1070
     1
1070
   256
1002
{
1002
}
1000
LType
1070
     4
1000
BYLAYER
1002
{
1002
}
1002
}
1000
VPLI
1070
     9
1000
2A
1002
{
1000
Class
1070
     4
1000

1002
{
1002
}
1000
Color
1070
     1
1070
   256
1002
{
1002
}
1000
LType
1070
     4
1000
BYLAYER
1002
{
1002
}
1002
}
1000
ZIZA
1070
     9
1000
4
1002
{
1000
Class
1070
     4
1000
BGD
1002
{
1002
}
1000
Color
1070
     1
1070
   256
1002
{
1002
}
1000
LType
1070
     4
1000
GENZIGZAG
1002
{
1002
}
1002
}
  0
APPID
  5
F39
330
9
100
AcDbSymbolTableRecord
100
AcDbRegAppTableRecord
  2
GENIUS_GENCFG4_13
 70
     0
1001
GENIUS_GENCFG_13
1071
911900800
1000
543
1000
GEN
1070
     9
1000
GenCfgObject
1000
GenCfgShort
1000
GenCfgReal
1000
GenCfgBool
1000
GenCfgString
1000
GenCfgDim
1000
GenCfgLaySection
1000
GenCfgLType
1000
GenCfgFilter
1000
Balloon
1070
     0
1002
{
1000
GenIF
1070
     1
1070
     0
1002
{
1002
}
1000
GenPosInc
1070
     1
1070
     1
1002
{
1002
}
1000
GenPosBlk
1070
     1
1070
     8
1002
{
1002
}
1000
GenPosVar
1070
     1
1070
     0
1002
{
1002
}
1000
GenZiCir
1070
     2
1040
1.5
1002
{
1002
}
1000
MaxCharForCenteredText
1070
     1
1070
    30
1002
{
1002
}
1000
Snap
1070
     0
1002
{
1000
ActivationRadius
1070
     2
1040
1.0
1002
{
1002
}
1000
M
1070
     0
1002
{
1000
SnapStepX
1070
     2
1040
20.0
1002
{
1002
}
1000
SnapStepY
1070
     2
1040
10.0
1002
{
1002
}
1002
}
1000
I
1070
     0
1002
{
1000
SnapStepX
1070
     2
1040
1.0
1002
{
1002
}
1000
SnapStepY
1070
     2
1040
0.5
1002
{
1002
}
1002
}
1002
}
1002
}
1000
Centerline
1070
     0
1002
{
1000
ScaleNot
1070
     3
1070
     0
1002
{
1002
}
1000
M
1070
     0
1002
{
1000
GenCenAng
1070
     4
1000
45|90|135
1002
{
1002
}
1000
GenCenDia
1070
     2
1040
3.0
1002
{
1002
}
1000
GenCenDias
1070
     4
1000
10|20|30
1002
{
1002
}
1000
GenCenDist
1070
     2
1040
3.0
1002
{
1002
}
1000
GenCenLen
1070
     2
1040
10.0
1002
{
1002
}
1000
GenCenOff
1070
     2
1040
10.0
1002
{
1002
}
1000
GENCENOFF1
1070
     2
1040
10.0
1002
{
1002
}
1000
GENCENOFF2
1070
     2
1040
10.0
1002
{
1002
}
1002
}
1000
I
1070
     0
1002
{
1000
GenCenAng
1070
     4
1000
45|90|135
1002
{
1002
}
1000
GenCenDia
1070
     2
1040
0.5
1002
{
1002
}
1000
GenCenDias
1070
     4
1000
0.5|1.0|1.5
1002
{
1002
}
1000
GenCenDist
1070
     2
1040
0.125
1002
{
1002
}
1000
GenCenLen
1070
     2
1040
0.5
1002
{
1002
}
1000
GenCenOff
1070
     2
1040
0.5
1002
{
1002
}
1002
}
1002
}
1000
CLine
1070
     0
1002
{
1000
CAngArray
1070
     4
1000
30|45|60
1002
{
1002
}
1000
Typ
1070
     4
1000
XLINE
1002
{
1002
}
1000
M
1070
     0
1002
{
1000
CLinArray
1070
     4
1000
1
1002
{
1002
}
1002
}
1000
I
1070
     0
1002
{
1000
CLinArray
1070
     4
1000
0.125|0.25|0.5
1002
{
1002
}
1002
}
1002
}
1000
Detail
1070
     0
1002
{
1002
}
1000
Dimension
1070
     5
1002
{
1000
DIMALT
1070
     1
1070
     0
1002
{
1002
}
1000
DIMALTD
1070
     1
1070
     2
1002
{
1002
}
1000
DIMALTTD
1070
     1
1070
     4
1002
{
1002
}
1000
DIMALTTZ
1070
     1
1070
     0
1002
{
1002
}
1000
DIMALTU
1070
     1
1070
     2
1002
{
1002
}
1000
DIMALTZ
1070
     1
1070
     0
1002
{
1002
}
1000
DIMAUNIT
1070
     1
1070
     0
1002
{
1002
}
1000
DIMBLK
1070
     4
1000

1002
{
1002
}
1000
DIMBLK1
1070
     4
1000

1002
{
1002
}
1000
DIMBLK2
1070
     4
1000

1002
{
1002
}
1000
DIMCLRD
1070
     1
1070
     2
1002
{
1002
}
1000
DIMCLRE
1070
     1
1070
     2
1002
{
1002
}
1000
DIMCLRT
1070
     1
1070
     3
1002
{
1002
}
1000
DIMDLE
1070
     2
1040
0.0
1002
{
1002
}
1000
DIMFIT
1070
     1
1070
     3
1002
{
1002
}
1000
DIMJUST
1070
     1
1070
     0
1002
{
1002
}
1000
DIMLFAC
1070
     2
1040
1.0
1002
{
1002
}
1000
DIMLIM
1070
     1
1070
     0
1002
{
1002
}
1000
DIMPOST
1070
     4
1000
<>
1002
{
1002
}
1000
DIMRND
1070
     2
1040
0.0
1002
{
1002
}
1000
DIMSAH
1070
     1
1070
     0
1002
{
1002
}
1000
DIMSCALE
1070
     2
1040
1.0
1002
{
1002
}
1000
DIMSD1
1070
     1
1070
     0
1002
{
1002
}
1000
DIMSD2
1070
     1
1070
     0
1002
{
1002
}
1000
DIMSE1
1070
     1
1070
     0
1002
{
1002
}
1000
DIMSE2
1070
     1
1070
     0
1002
{
1002
}
1000
DIMSOXD
1070
     1
1070
     0
1002
{
1002
}
1000
DIMTAD
1070
     1
1070
     0
1002
{
1002
}
1000
DIMTFAC
1070
     2
1040
0.71
1002
{
1002
}
1000
DIMTIH
1070
     1
1070
     0
1002
{
1002
}
1000
DIMTIX
1070
     1
1070
     0
1002
{
1002
}
1000
DIMTM
1070
     2
1040
0.1
1002
{
1002
}
1000
DIMTOFL
1070
     1
1070
     0
1002
{
1002
}
1000
DIMTOH
1070
     1
1070
     0
1002
{
1002
}
1000
DIMTOL
1070
     1
1070
     0
1002
{
1002
}
1000
DIMTOLJ
1070
     1
1070
     1
1002
{
1002
}
1000
DIMTP
1070
     2
1040
0.1
1002
{
1002
}
1000
DIMTSZ
1070
     2
1040
0.0
1002
{
1002
}
1000
DIMTVP
1070
     2
1040
0.0
1002
{
1002
}
1000
DIMTXSTY
1070
     4
1000
STANDARD
1002
{
1002
}
1000
DIMTZIN
1070
     1
1070
     0
1002
{
1002
}
1000
DIMUNIT
1070
     1
1070
     2
1002
{
1002
}
1000
DIMUPT
1070
     1
1070
     0
1002
{
1002
}
1000
M
1070
     0
1002
{
1000
DIMALTF
1070
     2
1040
0.0393701
1002
{
1002
}
1000
DIMAPOST
1070
     4
1000
"
1002
{
1002
}
1000
DIMASZ
1070
     2
1040
2.5
1002
{
1002
}
1000
DIMCEN
1070
     2
1040
0.0
1002
{
1002
}
1000
DIMDEC
1070
     1
1070
     2
1002
{
1002
}
1000
DIMDLI
1070
     2
1040
7.0
1002
{
1002
}
1000
DIMEXE
1070
     2
1040
1.0
1002
{
1002
}
1000
DIMEXO
1070
     2
1040
1.0
1002
{
1002
}
1000
DIMGAP
1070
     2
1040
0.6
1002
{
1002
}
1000
DIMTDEC
1070
     1
1070
     3
1002
{
1002
}
1000
DIMTXT
1070
     2
1040
3.5
1002
{
1002
}
1000
DIMZIN
1070
     1
1070
     8
1002
{
1002
}
1002
}
1000
I
1070
     0
1002
{
1000
DIMALTF
1070
     2
1040
25.4
1002
{
1002
}
1000
DIMAPOST
1070
     4
1000
mm
1002
{
1002
}
1000
DIMASZ
1070
     2
1040
0.1
1002
{
1002
}
1000
DIMCEN
1070
     2
1040
0.0
1002
{
1002
}
1000
DIMDEC
1070
     1
1070
     4
1002
{
1002
}
1000
DIMDLI
1070
     2
1040
0.5
1002
{
1002
}
1000
DIMEXE
1070
     2
1040
0.1
1002
{
1002
}
1000
DIMEXO
1070
     2
1040
0.05
1002
{
1002
}
1000
DIMGAP
1070
     2
1040
0.06
1002
{
1002
}
1000
DIMTDEC
1070
     1
1070
     4
1002
{
1002
}
1000
DIMTXT
1070
     2
1040
0.12
1002
{
1002
}
1000
DIMZIN
1070
     1
1070
     7
1002
{
1002
}
1002
}
1000
GEN-ISO
1070
     5
1002
{
1000
NAME
1070
     4
1000
GEN-ISO
1002
{
1002
}
1000
DIMTAD
1070
     1
1070
     1
1002
{
1002
}
1000
DIMTOLJ
1070
     1
1070
     0
1002
{
1002
}
1000
DIMTOFL
1070
     1
1070
     1
1002
{
1002
}
1000
M
1070
     0
1002
{
1002
}
1000
I
1070
     0
1002
{
1002
}
1002
}
1000
GEN-ISO-POS
1070
     5
1002
{
1000
NAME
1070
     4
1000
GEN-ISO-POS
1002
{
1002
}
1000
DIMTOLJ
1070
     1
1070
     0
1002
{
1002
}
1000
DIMTXSTY
1070
     4
1000
STANDARD
1002
{
1002
}
1000
M
1070
     0
1002
{
1000
DIMASZ
1070
     2
1040
2.5
1002
{
1002
}
1000
DIMGAP
1070
     2
1040
1.5
1002
{
1002
}
1000
DIMTXT
1070
     2
1040
5.0
1002
{
1002
}
1002
}
1000
I
1070
     0
1002
{
1000
DIMASZ
1070
     2
1040
0.1
1002
{
1002
}
1000
DIMGAP
1070
     2
1040
0.06
1002
{
1002
}
1000
DIMTXT
1070
     2
1040
0.2
1002
{
1002
}
1002
}
1002
}
1000
GEN-ISO-CIR
1070
     5
1002
{
1000
NAME
1070
     4
1000
GEN-ISO$3
1002
{
1002
}
1000
DIMFIT
1070
     1
1070
     0
1002
{
1002
}
1000
DIMTAD
1070
     1
1070
     1
1002
{
1002
}
1000
DIMTIH
1070
     1
1070
     0
1002
{
1002
}
1000
DIMTIX
1070
     1
1070
     0
1002
{
1002
}
1000
DIMTOH
1070
     1
1070
     1
1002
{
1002
}
1000
DIMTOLJ
1070
     1
1070
     0
1002
{
1002
}
1000
DIMTOFL
1070
     1
1070
     0
1002
{
1002
}
1000
DIMUPT
1070
     1
1070
     1
1002
{
1002
}
1000
M
1070
     0
1002
{
1002
}
1000
I
1070
     0
1002
{
1002
}
1002
}
1000
GEN-ISO-RAD
1070
     5
1002
{
1000
NAME
1070
     4
1000
GEN-ISO$4
1002
{
1002
}
1000
DIMFIT
1070
     1
1070
     0
1002
{
1002
}
1000
DIMTAD
1070
     1
1070
     1
1002
{
1002
}
1000
DIMTOH
1070
     1
1070
     1
1002
{
1002
}
1000
DIMTOLJ
1070
     1
1070
     0
1002
{
1002
}
1000
DIMUPT
1070
     1
1070
     1
1002
{
1002
}
1000
M
1070
     0
1002
{
1002
}
1000
I
1070
     0
1002
{
1002
}
1000
DIMTIH
1070
     1
1070
     0
1002
{
1002
}
1000
DIMTIX
1070
     1
1070
     0
1002
{
1002
}
1000
DIMTOFL
1070
     1
1070
     0
1002
{
1002
}
1002
}
1000
GEN-ISO-ORD
1070
     5
1002
{
1000
NAME
1070
     4
1000
GEN-ISO$6
1002
{
1002
}
1000
DIMTOLJ
1070
     1
1070
     0
1002
{
1002
}
1000
M
1070
     0
1002
{
1002
}
1000
I
1070
     0
1002
{
1002
}
1002
}
1000
GEN-ISO-AXE-F
1070
     5
1002
{
1000
NAME
1070
     4
1000
GEN-ISO-AXE-F
1002
{
1002
}
1000
DIMSE1
1070
     1
1070
     1
1002
{
1002
}
1000
DIMSE2
1070
     1
1070
     1
1002
{
1002
}
1000
DIMTAD
1070
     1
1070
     1
1002
{
1002
}
1000
DIMTOLJ
1070
     1
1070
     0
1002
{
1002
}
1000
DIMTOFL
1070
     1
1070
     1
1002
{
1002
}
1000
M
1070
     0
1002
{
1002
}
1000
I
1070
     0
1002
{
1002
}
1002
}
1000
GEN-ISO-AXE-H
1070
     5
1002
{
1000
NAME
1070
     4
1000
GEN-ISO-AXE-H
1002
{
1002
}
1000
DIMBLK1
1070
     4
1000
GENAXEH
1002
{
1002
}
1000
DIMLFAC
1070
     2
1040
2.0
1002
{
1002
}
1000
DIMSAH
1070
     1
1070
     1
1002
{
1002
}
1000
DIMSE1
1070
     1
1070
     1
1002
{
1002
}
1000
DIMSE2
1070
     1
1070
     1
1002
{
1002
}
1000
DIMTAD
1070
     1
1070
     1
1002
{
1002
}
1000
DIMTOLJ
1070
     1
1070
     0
1002
{
1002
}
1000
DIMTOFL
1070
     1
1070
     1
1002
{
1002
}
1000
M
1070
     0
1002
{
1002
}
1000
I
1070
     0
1002
{
1002
}
1002
}
1000
GEN-ANSI
1070
     5
1002
{
1000
NAME
1070
     4
1000
GEN-ANSI
1002
{
1002
}
1000
DIMTIH
1070
     1
1070
     1
1002
{
1002
}
1000
DIMTOH
1070
     1
1070
     1
1002
{
1002
}
1000
DIMTAD
1070
     1
1070
     0
1002
{
1002
}
1000
DIMTOLJ
1070
     1
1070
     1
1002
{
1002
}
1000
M
1070
     0
1002
{
1002
}
1000
I
1070
     0
1002
{
1002
}
1002
}
1000
GEN-ANSI-POS
1070
     5
1002
{
1000
NAME
1070
     4
1000
GEN-ANSI-POS
1002
{
1002
}
1000
DIMTOLJ
1070
     1
1070
     1
1002
{
1002
}
1000
DIMTXSTY
1070
     4
1000
STANDARD
1002
{
1002
}
1000
M
1070
     0
1002
{
1000
DIMASZ
1070
     2
1040
2.5
1002
{
1002
}
1000
DIMGAP
1070
     2
1040
1.5
1002
{
1002
}
1000
DIMTXT
1070
     2
1040
5.0
1002
{
1002
}
1002
}
1000
I
1070
     0
1002
{
1000
DIMASZ
1070
     2
1040
0.1
1002
{
1002
}
1000
DIMGAP
1070
     2
1040
0.06
1002
{
1002
}
1000
DIMTXT
1070
     2
1040
0.2
1002
{
1002
}
1002
}
1002
}
1000
GEN-ANSI-CIR
1070
     5
1002
{
1000
NAME
1070
     4
1000
GEN-ANSI$3
1002
{
1002
}
1000
DIMFIT
1070
     1
1070
     0
1002
{
1002
}
1000
DIMTAD
1070
     1
1070
     0
1002
{
1002
}
1000
DIMTIH
1070
     1
1070
     1
1002
{
1002
}
1000
DIMTIX
1070
     1
1070
     0
1002
{
1002
}
1000
DIMTOFL
1070
     1
1070
     0
1002
{
1002
}
1000
DIMTOH
1070
     1
1070
     1
1002
{
1002
}
1000
DIMTOLJ
1070
     1
1070
     1
1002
{
1002
}
1000
DIMUPT
1070
     1
1070
     1
1002
{
1002
}
1000
M
1070
     0
1002
{
1002
}
1000
I
1070
     0
1002
{
1002
}
1002
}
1000
GEN-ANSI-RAD
1070
     5
1002
{
1000
NAME
1070
     4
1000
GEN-ANSI$4
1002
{
1002
}
1000
DIMFIT
1070
     1
1070
     0
1002
{
1002
}
1000
DIMTAD
1070
     1
1070
     0
1002
{
1002
}
1000
DIMTIH
1070
     1
1070
     1
1002
{
1002
}
1000
DIMTIX
1070
     1
1070
     0
1002
{
1002
}
1000
DIMTOFL
1070
     1
1070
     0
1002
{
1002
}
1000
DIMTOH
1070
     1
1070
     1
1002
{
1002
}
1000
DIMTOLJ
1070
     1
1070
     1
1002
{
1002
}
1000
DIMUPT
1070
     1
1070
     1
1002
{
1002
}
1000
M
1070
     0
1002
{
1002
}
1000
I
1070
     0
1002
{
1002
}
1002
}
1000
GEN-ANSI-ORD
1070
     5
1002
{
1000
NAME
1070
     4
1000
GEN-ANSI$6
1002
{
1002
}
1000
DIMTAD
1070
     1
1070
     0
1002
{
1002
}
1000
DIMTIH
1070
     1
1070
     1
1002
{
1002
}
1000
DIMTOH
1070
     1
1070
     1
1002
{
1002
}
1000
DIMTOLJ
1070
     1
1070
     1
1002
{
1002
}
1000
M
1070
     0
1002
{
1002
}
1000
I
1070
     0
1002
{
1002
}
1002
}
1000
GEN-ANSI-AXE-F
1070
     5
1002
{
1000
NAME
1070
     4
1000
GEN-ANSI-AXE-F
1002
{
1002
}
1000
DIMBLK1
1070
     4
1000
GENAXEH
1002
{
1002
}
1000
DIMSAH
1070
     1
1070
     1
1002
{
1002
}
1000
DIMSE1
1070
     1
1070
     1
1002
{
1002
}
1000
DIMSE2
1070
     1
1070
     1
1002
{
1002
}
1000
DIMTAD
1070
     1
1070
     0
1002
{
1002
}
1000
DIMTIH
1070
     1
1070
     1
1002
{
1002
}
1000
DIMTOH
1070
     1
1070
     1
1002
{
1002
}
1000
DIMTOLJ
1070
     1
1070
     1
1002
{
1002
}
1000
M
1070
     0
1002
{
1002
}
1000
I
1070
     0
1002
{
1002
}
1002
}
1000
GEN-ANSI-AXE-H
1070
     5
1002
{
1000
NAME
1070
     4
1000
GEN-ANSI-AXE-H
1002
{
1002
}
1000
DIMBLK1
1070
     4
1000
GENAXEH
1002
{
1002
}
1000
DIMLFAC
1070
     2
1040
2.0
1002
{
1002
}
1000
DIMSAH
1070
     1
1070
     1
1002
{
1002
}
1000
DIMSE1
1070
     1
1070
     1
1002
{
1002
}
1000
DIMSE2
1070
     1
1070
     1
1002
{
1002
}
1000
DIMTAD
1070
     1
1070
     0
1002
{
1002
}
1000
DIMTOFL
1070
     1
1070
     1
1002
{
1002
}
1000
DIMTOLJ
1070
     1
1070
     1
1002
{
1002
}
1000
M
1070
     0
1002
{
1002
}
1000
I
1070
     0
1002
{
1002
}
1002
}
1002
}
1000
DimSet
1070
     0
1002
{
1000
ChainSum
1070
     3
1070
     0
1002
{
1002
}
1000
DimDclTyp0
1070
     4
1000
dim23
1002
{
1002
}
1000
HorBra
1070
     3
1070
     0
1002
{
1002
}
1000
StrDia
1070
     4
1000
%%c<>
1002
{
1002
}
1000
StrRad
1070
     4
1000
R<>
1002
{
1002
}
1000
TextMinus
1070
     4
1000
<>
1002
{
1002
}
1000
TextPlus
1070
     4
1000
<>
1002
{
1002
}
1000
M
1070
     0
1002
{
1000
DimdliFirst
1070
     2
1040
10.0
1002
{
1002
}
1000
PointMakeDist
1070
     2
1040
10.0
1002
{
1002
}
1002
}
1000
I
1070
     0
1002
{
1000
DimdliFirst
1070
     2
1040
0.5
1002
{
1002
}
1000
PointMakeDist
1070
     2
1040
0.5
1002
{
1002
}
1002
}
1000
FitGrade
1070
     4
1000
h7
1002
{
1002
}
1002
}
1000
Drawing
1070
     0
1002
{
1000
ChamferDimMode
1070
     1
1070
     2
1002
{
1002
}
1000
Gen_Fiso
1070
    -3
1040
1.0
1002
{
1002
}
1000
GenDimStil
1070
     4
1000
ISO
1002
{
1002
}
1000
GenDwgUScale
1070
     2
1040
1.0
1002
{
1002
}
1000
GenInch
1070
     4
1000
M
1002
{
1002
}
1000
GenPlotScale
1070
     4
1000
1:1
1002
{
1002
}
1000
Revisi
1070
     4
1000
0
1002
{
1002
}
1000
Version
1070
    -5
1000
14.01/Apr  1 1998
1002
{
1002
}
1000
Platform
1070
    -5
1000
WINNT
1002
{
1002
}
1002
}
1000
DwgVar
1070
     0
1002
{
1000
M
1070
     0
1002
{
1002
}
1000
I
1070
     0
1002
{
1002
}
1002
}
1000
Hatch
1070
     0
1002
{
1000
GenHtcFlag
1070
     3
1070
     0
1002
{
1002
}
1002
}
1000
Info_Pos
1070
     0
1002
{
1000
>
1002
}
1000
Layer
1070
     6
1002
{
1000
Defs
1070
     0
1002
{
1000
>
1002
}
1000
EntSort
1070
     0
1002
{
1000
>
1002
}
1000
Match
1070
     0
1002
{
1002
}
1000
Settings
1070
     0
1002
{
1000
FocGrNC
1070
     3
1070
     0
1002
{
1002
}
1000
FocGrLo
1070
     3
1070
     0
1002
{
1002
}
1000
FocLoNC
1070
     3
1070
     0
1002
{
1002
}
1000
FocusCol
1070
     1
1070
   253
1002
{
1002
}
1000
GenStdLG
1070
     4
1000

1002
{
1002
}
1000
LayMatch
1070
     3
1070
     0
1002
{
1002
}
1000
LgOff
1070
     3
1070
     0
1002
{
1002
}
1000
CurLG
1070
    -5
1000

1002
{
1002
}
1002
}
1002
}
1000
LType
1070
     0
1002
{
1000
GEN3
1070
     7
1000
genius.lin
1002
{
1002
}
1000
GEN7
1070
     7
1000
genius.lin
1002
{
1002
}
1000
GEN4A
1070
     7
1000
genius.lin
1002
{
1002
}
1000
GEN3A
1070
     7
1000
genius.lin
1002
{
1002
}
1000
GEN7A
1070
     7
1000
genius.lin
1002
{
1002
}
1000
GENZIGZAG
1070
     7
1000
genius.lin
1002
{
1002
}
1002
}
1000
Objecter
1070
     0
1002
{
1000
CreateGroups
1070
     3
1070
     0
1002
{
1002
}
1000
LaySwitch
1070
     3
1070
     1
1002
{
1002
}
1000
LastObj
1070
    -5
1000
0
1002
{
1002
}
1000
TimeStamp
1070
    -5
1000
19981124.10463783
1002
{
1002
}
1002
}
1000
OSWiz
1070
     0
1002
{
1000
Filter
1070
     0
1002
{
1000
HATCH
1070
     8
1002
{
1000
EntityType
1070
     4
1000
LINE
1002
{
1002
}
1000
Layer
1070
     4
1000
8,8N,*-8,*-8N
1002
{
1002
}
1000
Linetype
1070
     4
1000
*
1002
{
1002
}
1000
Color
1070
     4
1000
*
1002
{
1002
}
1000
ApplyInDims
1070
     3
1070
     1
1002
{
1002
}
1002
}
1000
SYMBOLS
1070
     8
1002
{
1000
EntityType
1070
     4
1000
*
1002
{
1002
}
1000
Layer
1070
     4
1000
[5-6],[5-6]N,*-[5-6],*-[5-6]N
1002
{
1002
}
1000
Linetype
1070
     4
1000
*
1002
{
1002
}
1000
Color
1070
     4
1000
*
1002
{
1002
}
1000
ApplyInDims
1070
     3
1070
     1
1002
{
1002
}
1002
}
1000
FEM
1070
     8
1002
{
1000
EntityType
1070
     4
1000
*
1002
{
1002
}
1000
Layer
1070
     4
1000
4A,4AN,*-4A,*-4AN
1002
{
1002
}
1000
Linetype
1070
     4
1000
*
1002
{
1002
}
1000
Color
1070
     4
1000
*
1002
{
1002
}
1000
ApplyInDims
1070
     3
1070
     1
1002
{
1002
}
1002
}
1002
}
1002
}
1000
PaList
1070
     0
1002
{
1000
AutoUpdatePartList
1070
     1
1070
     0
1002
{
1002
}
1000
ReadInfoPoint
1070
     3
1070
     0
1002
{
1002
}
1000
ReadPosNr
1070
     3
1070
     1
1002
{
1002
}
1000
RevStr
1070
     4
1000
0
1002
{
1002
}
1002
}
1000
Paper
1070
     0
1002
{
1000
Layer
1070
    -5
1000
5
1002
{
1002
}
1002
}
1000
PartDB
1070
     0
1002
{
1000
GenDbOwner
1070
     4
1000

1002
{
1002
}
1002
}
1000
System
1070
     0
1002
{
1002
}
1000
Title
1070
     0
1002
{
1000
MakeView
1070
     1
1070
     2
1002
{
1002
}
1002
}
1000
Tools
1070
     0
1002
{
1000
Trans
1070
     0
1002
{
1000
Drawingtranslation
1070
    -4
1070
     1
1002
{
1002
}
1000
upreserve
1070
     3
1070
     0
1002
{
1002
}
1000
originally_on
1070
    -4
1070
     0
1002
{
1002
}
1000
sourcelang
1070
    -5
1000
D
1002
{
1002
}
1002
}
1002
}
  0
APPID
  5
F3A
330
9
100
AcDbSymbolTableRecord
100
AcDbRegAppTableRecord
  2
GENIUS_GEVCFG0_13
 70
     0
1001
GENIUS_GENCFG_13
1071
908952218
1000
545
1000
GEV
1070
     1
1000
GenCfgObject
1000
VED
1070
     0
1002
{
1002
}
  0
APPID
  5
F3B
330
9
100
AcDbSymbolTableRecord
100
AcDbRegAppTableRecord
  2
GENIUS_GENOENT_13
 70
     0
  0
APPID
  5
F3C
330
9
100
AcDbSymbolTableRecord
100
AcDbRegAppTableRecord
  2
GENIUS_GENREC_14
 70
     0
  0
APPID
  5
F3D
330
9
100
AcDbSymbolTableRecord
100
AcDbRegAppTableRecord
  2
GENIUS_GENODEF_13
 70
     0
  0
APPID
  5
F3E
330
9
100
AcDbSymbolTableRecord
100
AcDbRegAppTableRecord
  2
GENIUS_GENOBJ-N-REC_13
 70
     0
  0
APPID
  5
12D3
330
9
100
AcDbSymbolTableRecord
100
AcDbRegAppTableRecord
  2
CCCMM
 70
     0
  0
APPID
  5
4CF0
330
9
100
AcDbSymbolTableRecord
100
AcDbRegAppTableRecord
  2
MCAD_NO_VIS
 70
     0
  0
APPID
  5
4CF1
330
9
100
AcDbSymbolTableRecord
100
AcDbRegAppTableRecord
  2
ACAD_TEMP_GRAPHIC
 70
     0
  0
APPID
  5
4D02
330
9
100
AcDbSymbolTableRecord
100
AcDbRegAppTableRecord
  2
ACATTRIBSERVICES
 70
     0
  0
APPID
  5
4D42
330
9
100
AcDbSymbolTableRecord
100
AcDbRegAppTableRecord
  2
GENIUS_GENSCREG_15
 70
     0
  0
APPID
  5
4D43
330
9
100
AcDbSymbolTableRecord
100
AcDbRegAppTableRecord
  2
GENIUS_GENOBJ-N-SDF_13
 70
     0
  0
APPID
  5
4EAB
330
9
100
AcDbSymbolTableRecord
100
AcDbRegAppTableRecord
  2
AD_DRAW
 70
     0
  0
APPID
  5
4EC9
330
9
100
AcDbSymbolTableRecord
100
AcDbRegAppTableRecord
  2
DESIGNERASSEMBLIES
 70
     0
  0
APPID
  5
4ECE
330
9
100
AcDbSymbolTableRecord
100
AcDbRegAppTableRecord
  2
ACADM_DIM_EDIT
 70
     0
  0
APPID
  5
4ECF
330
9
100
AcDbSymbolTableRecord
100
AcDbRegAppTableRecord
  2
AMDT_DM_ADJ
 70
     0
  0
APPID
  5
4F92
330
9
100
AcDbSymbolTableRecord
100
AcDbRegAppTableRecord
  2
GENIUS_GENDIMSH_14
 70
     0
  0
APPID
  5
4FD3
330
9
100
AcDbSymbolTableRecord
100
AcDbRegAppTableRecord
  2
ACAD_MLEADERVER
 70
     0
  0
APPID
  5
5086
330
9
100
AcDbSymbolTableRecord
100
AcDbRegAppTableRecord
  2
ACAD_PSEXT
 70
     0
  0
APPID
  5
5193
330
9
100
AcDbSymbolTableRecord
100
AcDbRegAppTableRecord
  2
ACAD_NAV_VCDISPLAY
 70
     0
  0
APPID
  5
527B
330
9
100
AcDbSymbolTableRecord
100
AcDbRegAppTableRecord
  2
ACAD_DSTYLE_DIMJAG
 70
     0
  0
APPID
  5
527C
330
9
100
AcDbSymbolTableRecord
100
AcDbRegAppTableRecord
  2
ACAD_DSTYLE_DIMBREAK
 70
     0
  0
APPID
  5
527D
330
9
100
AcDbSymbolTableRecord
100
AcDbRegAppTableRecord
  2
ACAD_DSTYLE_DIMTALN
 70
     0
  0
APPID
  5
527E
330
9
100
AcDbSymbolTableRecord
100
AcDbRegAppTableRecord
  2
ACAD_DSTYLE_DIMINSPECT
 70
     0
  0
APPID
  5
55CB
330
9
100
AcDbSymbolTableRecord
100
AcDbRegAppTableRecord
  2
ACAD_EXEMPT_FROM_CAD_STANDARDS
 70
     0
  0
ENDTAB
  0
TABLE
  2
DIMSTYLE
  5
A
330
0
100
AcDbSymbolTable
 70
    23
100
AcDbDimStyleTable
 71
     1
340
1D
  0
DIMSTYLE
105
1D
330
A
100
AcDbSymbolTableRecord
100
AcDbDimStyleTableRecord
  2
NORMAL
 70
     0
 41
3.5
 42
0.0
 43
8.0
 44
0.5
 73
     0
 74
     0
 77
     1
 78
     8
140
3.5
141
1.5
146
0.5
147
1.0
172
     1
174
     1
176
   256
177
   256
178
     3
271
     2
272
     2
284
     8
340
1DC
  0
DIMSTYLE
105
1CB
330
A
100
AcDbSymbolTableRecord
100
AcDbDimStyleTableRecord
  2
RADIUS
 70
     0
 41
3.5
 42
1.0
 43
0.0
 44
0.5
 73
     0
 74
     0
 77
     1
 78
     8
140
3.5
141
1.5
146
0.5
147
1.0
176
   256
177
   256
178
     3
271
     2
272
     2
284
     8
340
1DC
  0
DIMSTYLE
105
3A1
330
A
100
AcDbSymbolTableRecord
100
AcDbDimStyleTableRecord
  2
RADIUS-2-1
 70
     0
 41
3.5
 42
1.0
 43
0.0
 44
0.5
 73
     0
 74
     0
 77
     1
 78
     8
140
3.5
141
1.5
144
0.5
146
0.5
147
1.0
176
   256
177
   256
178
     3
271
     2
272
     2
284
     8
340
1DC
  0
DIMSTYLE
105
3C2
330
A
100
AcDbSymbolTableRecord
100
AcDbDimStyleTableRecord
  2
RADIUS-5-1
 70
     0
 41
3.5
 42
1.0
 43
0.0
 44
0.5
 73
     0
 74
     0
 77
     1
 78
     8
140
3.5
141
1.5
144
0.2
146
0.5
147
1.0
176
   256
177
   256
178
     3
271
     2
272
     2
284
     8
340
1DC
  0
DIMSTYLE
105
3E3
330
A
100
AcDbSymbolTableRecord
100
AcDbDimStyleTableRecord
  2
NORMAL-2-1
 70
     0
 41
3.5
 42
0.0
 43
8.0
 44
0.5
 73
     0
 74
     0
 77
     1
 78
     8
140
3.5
141
1.5
144
0.5
146
0.5
147
1.0
172
     1
174
     1
176
   256
177
   256
178
     3
271
     2
272
     2
284
     8
340
1DC
  0
DIMSTYLE
105
404
330
A
100
AcDbSymbolTableRecord
100
AcDbDimStyleTableRecord
  2
NORMAL-5-1
 70
     0
 41
3.5
 42
0.0
 43
8.0
 44
0.5
 73
     0
 74
     0
 77
     1
 78
     8
140
3.5
141
1.5
144
0.2
146
0.5
147
1.0
172
     1
174
     1
176
   256
177
   256
178
     3
271
     2
272
     2
284
     8
340
1DC
  0
DIMSTYLE
105
425
330
A
100
AcDbSymbolTableRecord
100
AcDbDimStyleTableRecord
  2
NORMAL-1-2
 70
     0
 41
3.5
 42
0.0
 43
8.0
 44
0.5
 73
     0
 74
     0
 77
     1
 78
     8
140
3.5
141
1.5
144
2.0
146
0.5
147
1.0
172
     1
174
     1
176
   256
177
   256
178
     3
271
     2
272
     2
284
     8
340
1DC
  0
DIMSTYLE
105
446
330
A
100
AcDbSymbolTableRecord
100
AcDbDimStyleTableRecord
  2
RADIUS-1-2
 70
     0
 41
3.5
 42
1.0
 43
0.0
 44
0.5
 73
     0
 74
     0
 77
     1
 78
     8
140
3.5
141
1.5
144
2.0
146
0.5
147
1.0
176
   256
177
   256
178
     3
271
     2
272
     2
284
     8
340
1DC
  0
DIMSTYLE
105
3CBD
330
A
100
AcDbSymbolTableRecord
100
AcDbDimStyleTableRecord
  2
WINKEL
 70
     0
 41
3.5
 42
1.0
 43
8.0
 44
0.5
 73
     0
 74
     0
 77
     1
 78
     8
140
3.5
141
1.5
146
0.5
147
1.0
172
     1
174
     1
176
   256
177
   256
178
     3
271
     2
272
     2
284
     8
340
1DC
  0
DIMSTYLE
105
3F6F
330
A
100
AcDbSymbolTableRecord
100
AcDbDimStyleTableRecord
  2
ISO-25
 70
     0
 41
2.5
 42
0.625
 43
3.75
 44
1.25
 74
     0
 77
     1
 78
     8
140
2.5
141
2.5
143
0.0394
145
1.0
147
0.625
172
     1
340
10
  0
DIMSTYLE
105
3F70
330
A
100
AcDbSymbolTableRecord
100
AcDbDimStyleTableRecord
  2
GEN-ISO
 70
     0
  3
<>
  4
"
 41
2.5
 42
1.0
 43
7.0
 44
1.0
 47
0.1
 48
0.1
 73
     0
 74
     0
 77
     1
 78
     8
140
3.5
141
0.0
143
0.0393701
146
0.71
147
0.6
172
     1
176
     2
177
     2
178
     3
271
     2
272
     3
274
     4
283
     0
340
10
  0
DIMSTYLE
105
479E
330
A
100
AcDbSymbolTableRecord
100
AcDbDimStyleTableRecord
  2
STANDARD
 70
     0
340
10
  0
DIMSTYLE
105
479F
330
A
100
AcDbSymbolTableRecord
100
AcDbDimStyleTableRecord
  2
TB
 70
     0
 41
2.5
 42
0.0
 43
10.0
 44
1.8
 73
     0
 74
     0
 77
     1
 78
     8
140
3.5
141
0.0
143
2.54
146
0.71
147
1.75
172
     1
173
     1
176
     1
177
     1
178
   256
271
     3
288
     1
340
479C
  0
DIMSTYLE
105
4D2D
330
A
100
AcDbSymbolTableRecord
100
AcDbDimStyleTableRecord
  2
AM_DIN
 70
     0
  4
"
 41
2.5
 42
1.0
 43
10.0
 44
1.0
 47
0.1
 48
0.1
 73
     0
 74
     0
 77
     1
 78
     8
 79
     2
140
3.5
141
0.0
143
0.0393701
146
0.71
147
1.5
172
     1
176
   256
177
   256
178
     2
271
     2
272
     3
274
     4
283
     0
284
     8
340
10
371
    -1
372
    -1
  0
DIMSTYLE
105
4D2E
330
A
100
AcDbSymbolTableRecord
100
AcDbDimStyleTableRecord
  2
AM_DIN$3
 70
     0
  4
"
 41
2.5
 42
1.0
 43
10.0
 44
1.0
 47
0.1
 48
0.1
 73
     0
 77
     1
 78
     8
 79
     2
140
3.5
141
0.0
143
0.0393701
146
0.71
147
1.5
176
   256
177
   256
178
     2
271
     2
272
     3
274
     4
283
     0
284
     8
288
     1
289
     0
340
10
371
    -1
372
    -1
  0
DIMSTYLE
105
4D2F
330
A
100
AcDbSymbolTableRecord
100
AcDbDimStyleTableRecord
  2
AM_DIN$4
 70
     0
  4
"
 41
2.5
 42
1.0
 43
10.0
 44
1.0
 47
0.1
 48
0.1
 73
     0
 77
     1
 78
     8
 79
     2
140
3.5
141
0.0
143
0.0393701
146
0.71
147
1.5
176
   256
177
   256
178
     2
271
     2
272
     3
274
     4
283
     0
284
     8
288
     1
289
     0
340
10
371
    -1
372
    -1
  0
DIMSTYLE
105
4D30
330
A
100
AcDbSymbolTableRecord
100
AcDbDimStyleTableRecord
  2
AM_DIN$6
 70
     0
  4
"
 41
2.5
 42
1.0
 43
10.0
 44
1.0
 47
0.1
 48
0.1
 73
     0
 74
     0
 78
     8
 79
     2
140
3.5
141
0.0
143
0.0393701
146
0.71
147
1.5
172
     1
176
   256
177
   256
178
     2
271
     2
272
     3
274
     4
283
     0
284
     8
340
10
371
    -1
372
    -1
  0
DIMSTYLE
105
4D31
330
A
100
AcDbSymbolTableRecord
100
AcDbDimStyleTableRecord
  2
AM_DIN$7
 70
     0
  4
"
 41
2.5
 42
1.0
 43
10.0
 44
1.0
 47
0.1
 48
0.1
 73
     0
 74
     0
 77
     1
 78
     8
 79
     2
140
5.0
141
0.0
143
0.0393701
146
0.71
147
1.5
172
     1
176
   256
177
   256
178
     2
271
     2
272
     3
274
     4
283
     0
284
     8
340
10
371
    -1
372
    -1
  0
DIMSTYLE
105
4D32
330
A
100
AcDbSymbolTableRecord
100
AcDbDimStyleTableRecord
  2
AM_DIN$SF
 70
     0
  4
"
 41
2.5
 42
1.0
 43
10.0
 44
1.0
 47
0.1
 48
0.1
 73
     0
 74
     0
 75
     1
 76
     1
 77
     1
 78
     8
 79
     2
140
3.5
141
0.0
143
0.0393701
146
0.71
147
1.5
172
     1
176
   256
177
   256
178
     2
271
     2
272
     3
274
     4
283
     0
284
     8
340
10
371
    -1
372
    -1
  0
DIMSTYLE
105
4D37
330
A
100
AcDbSymbolTableRecord
100
AcDbDimStyleTableRecord
  2
AM_DIN$SH
 70
     0
  4
"
 41
2.5
 42
1.0
 43
10.0
 44
1.0
 47
0.1
 48
0.1
 73
     0
 74
     0
 75
     1
 76
     1
 77
     1
 78
     8
 79
     2
140
3.5
141
0.0
143
0.0393701
144
2.0
146
0.71
147
1.5
172
     1
173
     1
176
   256
177
   256
178
     2
271
     2
272
     3
274
     4
283
     0
284
     8
340
10
343
4D33
371
    -1
372
    -1
  0
DIMSTYLE
105
4F53
330
A
100
AcDbSymbolTableRecord
100
AcDbDimStyleTableRecord
  2
WMF
 70
     0
 40
1.9
 41
2.799999999999999
 42
1.0
 43
0.0
 44
1.0
 73
     0
 74
     0
 77
     1
 78
     8
140
3.5
141
1.5
146
0.5
147
1.0
172
     1
174
     1
176
     7
177
     7
178
     7
271
     2
272
     2
279
     2
284
     8
285
     8
286
     8
340
4F52
  0
DIMSTYLE
105
4F54
330
A
100
AcDbSymbolTableRecord
100
AcDbDimStyleTableRecord
  2
PROSPEKT
 70
     0
 40
1.5
 41
3.5
 42
1.0
 43
8.0
 44
0.5
 73
     0
 74
     0
 77
     1
 78
     8
140
3.5
141
1.5
146
0.5
147
1.0
172
     1
174
     1
176
   256
177
   256
178
     3
271
     2
272
     2
284
     8
340
F24
  0
DIMSTYLE
105
527A
102
{ACAD_REACTORS
330
5455
330
5456
330
5457
330
5458
330
5459
330
545A
330
545B
330
545C
330
545D
330
545E
330
5482
330
5483
330
549D
102
}
330
A
100
AcDbSymbolTableRecord
100
AcDbDimStyleTableRecord
  2
Katalog 09
 70
     0
 41
12.0
 42
0.0
 43
8.0
 44
1.0
 73
     0
 74
     0
 77
     1
 78
     8
140
9.0
141
1.5
143
25.39999999999999
146
0.4285714285714286
147
2.5
172
     1
174
     1
176
     2
177
     2
178
     3
271
     2
272
     2
284
     8
285
     8
286
     8
340
1DC
1001
ACAD_DSTYLE_DIMBREAK
1070
   391
1040
3.75
1001
ACAD_DSTYLE_DIMJAG
1070
   388
1040
1.5
1001
ACAD_DSTYLE_DIMTALN
1070
   392
1070
     0
  0
ENDTAB
  0
TABLE
  2
BLOCK_RECORD
  5
1
330
0
100
AcDbSymbolTable
 70
    32
  0
BLOCK_RECORD
  5
19
102
{ACAD_XDICTIONARY
360
4D4C
102
}
330
1
100
AcDbSymbolTableRecord
100
AcDbBlockTableRecord
  2
*MODEL_SPACE
340
3F27
 70
     0
280
     1
281
     0
  0
BLOCK_RECORD
  5
16
330
1
100
AcDbSymbolTableRecord
100
AcDbBlockTableRecord
  2
*PAPER_SPACE
340
3F28
 70
     0
280
     1
281
     0
  0
BLOCK_RECORD
  5
3F4C
330
1
100
AcDbSymbolTableRecord
100
AcDbBlockTableRecord
  2
ACA_CFG
340
0
102
{BLKREFS
331
3F50
102
}
 70
     0
280
     1
281
     0
  0
BLOCK_RECORD
  5
3F4F
330
1
100
AcDbSymbolTableRecord
100
AcDbBlockTableRecord
  2
ACA_SAVE_DONT_PURGE
340
0
102
{BLKREFS
331
43DD
102
}
 70
     0
280
     1
281
     0
  0
BLOCK_RECORD
  5
3F53
330
1
100
AcDbSymbolTableRecord
100
AcDbBlockTableRecord
  2
AVE_RENDER
340
0
102
{BLKREFS
331
43DE
331
43DF
331
43E0
102
}
 70
     0
280
     1
281
     0
  0
BLOCK_RECORD
  5
4D33
330
1
100
AcDbSymbolTableRecord
100
AcDbBlockTableRecord
  2
GENAXEH
340
0
 70
     0
280
     1
281
     0
  0
BLOCK_RECORD
  5
517E
330
1
100
AcDbSymbolTableRecord
100
AcDbBlockTableRecord
  2
_ACMFILLED15
340
0
 70
     0
280
     1
281
     0
  0
BLOCK_RECORD
  5
549E
330
1
100
AcDbSymbolTableRecord
100
AcDbBlockTableRecord
  2
*D19
340
0
 70
     0
280
     1
281
     0
  0
BLOCK_RECORD
  5
54AC
330
1
100
AcDbSymbolTableRecord
100
AcDbBlockTableRecord
  2
*D20
340
0
 70
     0
280
     1
281
     0
  0
BLOCK_RECORD
  5
54BA
330
1
100
AcDbSymbolTableRecord
100
AcDbBlockTableRecord
  2
*D21
340
0
 70
     0
280
     1
281
     0
  0
BLOCK_RECORD
  5
54C8
330
1
100
AcDbSymbolTableRecord
100
AcDbBlockTableRecord
  2
*D22
340
0
 70
     0
280
     1
281
     0
  0
BLOCK_RECORD
  5
54D4
330
1
100
AcDbSymbolTableRecord
100
AcDbBlockTableRecord
  2
*D23
340
0
 70
     0
280
     1
281
     0
  0
BLOCK_RECORD
  5
54E0
330
1
100
AcDbSymbolTableRecord
100
AcDbBlockTableRecord
  2
*D24
340
0
 70
     0
280
     1
281
     0
  0
BLOCK_RECORD
  5
54EC
330
1
100
AcDbSymbolTableRecord
100
AcDbBlockTableRecord
  2
*D25
340
0
 70
     0
280
     1
281
     0
  0
BLOCK_RECORD
  5
54F8
330
1
100
AcDbSymbolTableRecord
100
AcDbBlockTableRecord
  2
*D26
340
0
 70
     0
280
     1
281
     0
  0
BLOCK_RECORD
  5
5506
330
1
100
AcDbSymbolTableRecord
100
AcDbBlockTableRecord
  2
*D27
340
0
 70
     0
280
     1
281
     0
  0
BLOCK_RECORD
  5
5514
330
1
100
AcDbSymbolTableRecord
100
AcDbBlockTableRecord
  2
*D28
340
0
 70
     0
280
     1
281
     0
  0
BLOCK_RECORD
  5
5522
330
1
100
AcDbSymbolTableRecord
100
AcDbBlockTableRecord
  2
*D29
340
0
 70
     0
280
     1
281
     0
  0
BLOCK_RECORD
  5
552E
330
1
100
AcDbSymbolTableRecord
100
AcDbBlockTableRecord
  2
*D30
340
0
 70
     0
280
     1
281
     0
  0
BLOCK_RECORD
  5
553A
330
1
100
AcDbSymbolTableRecord
100
AcDbBlockTableRecord
  2
*D31
340
0
 70
     0
280
     1
281
     0
  0
ENDTAB
  0
ENDSEC
  0
SECTION
  2
BLOCKS
  0
BLOCK
  5
1A
330
19
100
AcDbEntity
  8
0
100
AcDbBlockBegin
  2
*MODEL_SPACE
 70
     0
 10
0.0
 20
0.0
 30
0.0
  3
*MODEL_SPACE
  1

  0
ENDBLK
  5
1B
330
19
100
AcDbEntity
  8
0
100
AcDbBlockEnd
  0
BLOCK
  5
17
330
16
100
AcDbEntity
 67
     1
  8
0
100
AcDbBlockBegin
  2
*PAPER_SPACE
 70
     0
 10
0.0
 20
0.0
 30
0.0
  3
*PAPER_SPACE
  1

  0
ENDBLK
  5
18
330
16
100
AcDbEntity
 67
     1
  8
0
100
AcDbBlockEnd
  0
BLOCK
  5
3F4D
330
3F4C
100
AcDbEntity
  8
0
100
AcDbBlockBegin
  2
ACA_CFG
 70
     0
 10
0.0
 20
0.0
 30
0.0
  3
ACA_CFG
  1
ACA_CFG
  0
ENDBLK
  5
3F4E
330
3F4C
100
AcDbEntity
  8
0
100
AcDbBlockEnd
  0
BLOCK
  5
3F51
330
3F4F
100
AcDbEntity
  8
0
100
AcDbBlockBegin
  2
ACA_SAVE_DONT_PURGE
 70
     0
 10
0.0
 20
0.0
 30
0.0
  3
ACA_SAVE_DONT_PURGE
  1

  0
INSERT
  5
3F50
330
3F4F
100
AcDbEntity
  8
ACA_VARSAVE
100
AcDbBlockReference
  2
ACA_CFG
 10
0.0
 20
0.0
 30
0.0
1001
ACA_CADIMENU
1000
ACA_CFG
1002
{
1000
ACA_V:LAY-GRCODE
1000

1002
}
1002
{
1000
ACA_V:LAY-GRDEL1
1000
_-
1002
}
1002
{
1000
ACA_V:LAY-GRDEL2
1000
_
1002
}
1002
{
1000
ACA_V:LAY-MLAST
1000

1002
}
1002
{
1000
ACA_V:LAY-PRE
1000

1002
}
1002
{
1000
ACA_V:LAY-PRELIST
1000
.nil.
1002
}
1002
{
1000
ACA_V:ZEIN
1040
1.0
1002
}
1002
{
1000
ACA_V:EINH
1000
mm
1002
}
1002
{
1000
ACA_V:Mass
1040
1.0
1002
}
1002
{
1000
ACA_V:EIFA
1040
1.0
1002
}
1002
{
1000
ACA_V:PDIS
1000
 mm
1002
}
1002
{
1000
ACA_V:PARE
1000
 qmm
1002
}
1002
{
1000
ACA_V:FFA1
1040
1.0
1002
}
1002
{
1000
ACA_V:FDR1
1000
0.0
1002
}
1002
{
1000
ACA_V:FXF1
1040
1.0
1002
}
1002
{
1000
ACA_V:FYF1
1040
1.0
1002
}
1002
{
1000
ACA_V:FZF1
1040
1.0
1002
}
1002
{
1000
ACA_V:THT2
1040
2.5
1002
}
1002
{
1000
ACA_V:THT3
1040
3.5
1002
}
1002
{
1000
ACA_V:THT5
1040
5.0
1002
}
1002
{
1000
ACA_V:THT7
1040
7.0
1002
}
1002
{
1000
ACA_V:THT1
1040
10.0
1002
}
1002
{
1000
ACA_V:ZSi
1070
    15
1002
}
1002
{
1000
ACA_V:F-CADI
1000
CM1
1002
}
1002
{
1000
ACA_V:F-CAD1
1000
B
1002
}
1002
{
1000
ACA_V:F-CAD3
1000
A
1002
}
1002
{
1000
ACA_L:ABBI
1000
ABBIEGEKANT
1002
}
1002
{
1000
ACA_L:ACHS
1000
ACHSEN
1002
}
1002
{
1000
ACA_L:ATRI
1000
ATTRIBUTE
1002
}
1002
{
1000
ACA_L:AVER
1000
AVERDECKTE
1002
}
1002
{
1000
ACA_L:A-AL
1000
ABBIEGEKANT*,*ACHSEN*,*AVERDECKTE*,*AVERDECKTE*
1002
}
1002
{
1000
ACA_L:BEMA
1000
BEMASSUNG
1002
}
1002
{
1000
ACA_L:BEMT
1000
BEMTEXT
1002
}
1002
{
1000
ACA_L:B-AL
1000
BEM*
1002
}
1002
{
1000
ACA_L:HIKO
1000
HILFSKONSTR
1002
}
1002
{
1000
ACA_L:HILI
1000
HILFSLINIEN
1002
}
1002
{
1000
ACA_L:HIPU
1000
HILFSPUNKTE
1002
}
1002
{
1000
ACA_L:H-AL
1000
HILFS*
1002
}
1002
{
1000
ACA_L:KO03
1000
KOPF03
1002
}
1002
{
1000
ACA_L:KO05
1000
KOPF05
1002
}
1002
{
1000
ACA_L:KO07
1000
KOPF07
1002
}
1002
{
1000
ACA_L:KO10
1000
KOPF10
1002
}
1002
{
1000
ACA_L:K-AL
1000
KOPF*
1002
}
1002
{
1000
ACA_L:SCHR
1000
SCHRAFFUR
1002
}
1002
{
1000
ACA_L:TE02
1000
TEXT02
1002
}
1002
{
1000
ACA_L:TE03
1000
TEXT03
1002
}
1002
{
1000
ACA_L:TE05
1000
TEXT05
1002
}
1002
{
1000
ACA_L:TE07
1000
TEXT07
1002
}
1002
{
1000
ACA_L:TE10
1000
TEXT10
1002
}
1002
{
1000
ACA_L:T-AL
1000
TEXT*
1002
}
1002
{
1000
ACA_L:UM02
1000
UMRISS02
1002
}
1002
{
1000
ACA_L:UM03
1000
UMRISS03
1002
}
1002
{
1000
ACA_L:UM05
1000
UMRISS05
1002
}
1002
{
1000
ACA_L:UM07
1000
UMRISS07
1002
}
1002
{
1000
ACA_L:UM10
1000
UMRISS10
1002
}
1002
{
1000
ACA_L:U-AL
1000
UMRISS*
1002
}
1002
{
1000
ACA_L:2225
1000
S-FELD225
1002
}
1002
{
1000
ACA_L:2226
1000
S-FELD226
1002
}
1002
{
1000
ACA_L:2227
1000
S-FELD227
1002
}
1002
{
1000
ACA_L:2228
1000
S-FELD228
1002
}
1002
{
1000
ACA_L:2230
1000
S-*,*SCHRAFF*
1002
}
1002
{
1000
ACA_L:2239
1000
0
1002
}
1002
{
1000
ACA_L:2240
1000
*
1002
}
1002
{
1000
ACA_L:2241
1000
R-FELD241
1002
}
1002
{
1000
ACA_L:2242
1000
R-FELD242
1002
}
1002
{
1000
ACA_L:2243
1000
R-FELD243
1002
}
1002
{
1000
ACA_L:2244
1000
R-*
1002
}
1002
{
1000
ACA_L:GRA0
1000
SEIT0
1002
}
1002
{
1000
ACA_L:GRA1
1000
SEIT1
1002
}
1002
{
1000
ACA_L:GRA2
1000
SEIT2
1002
}
1002
{
1000
ACA_L:GRA3
1000
SEIT3
1002
}
1002
{
1000
ACA_L:GRA4
1000
SEIT4
1002
}
1002
{
1000
ACA_L:GRA5
1000
SEIT5
1002
}
1002
{
1000
ACA_L:GRA6
1000
SEIT6
1002
}
1002
{
1000
ACA_L:GRA7
1000
SEIT7
1002
}
1002
{
1000
ACA_L:GRA8
1000
SEIT8
1002
}
1002
{
1000
ACA_L:GRA9
1000
SEIT9
1002
}
1002
{
1000
ACA_L:GRB0
1000
GRUN0
1002
}
1002
{
1000
ACA_L:GRB1
1000
GRUN1
1002
}
1002
{
1000
ACA_L:GRB2
1000
GRUN2
1002
}
1002
{
1000
ACA_L:GRB3
1000
GRUN3
1002
}
1002
{
1000
ACA_L:GRB4
1000
GRUN4
1002
}
1002
{
1000
ACA_L:GRB5
1000
GRUN5
1002
}
1002
{
1000
ACA_L:GRB6
1000
GRUN6
1002
}
1002
{
1000
ACA_L:GRB7
1000
GRUN7
1002
}
1002
{
1000
ACA_L:GRB8
1000
GRUN8
1002
}
1002
{
1000
ACA_L:GRB9
1000
GRUN9
1002
}
1002
{
1000
ACA_L:GRC0
1000
AUFR0
1002
}
1002
{
1000
ACA_L:GRC1
1000
AUFR1
1002
}
1002
{
1000
ACA_L:GRC2
1000
AUFR2
1002
}
1002
{
1000
ACA_L:GRC3
1000
AUFR3
1002
}
1002
{
1000
ACA_L:GRC4
1000
AUFR4
1002
}
1002
{
1000
ACA_L:GRC5
1000
AUFR5
1002
}
1002
{
1000
ACA_L:GRC6
1000
AUFR6
1002
}
1002
{
1000
ACA_L:GRC7
1000
AUFR7
1002
}
1002
{
1000
ACA_L:GRC8
1000
AUFR8
1002
}
1002
{
1000
ACA_L:GRC9
1000
AUFR9
1002
}
1002
{
1000
ACA_L:GRD0
1000
TEIL0
1002
}
1002
{
1000
ACA_L:GRD1
1000
TEIL1
1002
}
1002
{
1000
ACA_L:GRD2
1000
TEIL2
1002
}
1002
{
1000
ACA_L:GRD3
1000
TEIL3
1002
}
1002
{
1000
ACA_L:GRD4
1000
TEIL4
1002
}
1002
{
1000
ACA_L:GRD5
1000
TEIL5
1002
}
1002
{
1000
ACA_L:GRD6
1000
TEIL6
1002
}
1002
{
1000
ACA_L:GRD7
1000
TEIL7
1002
}
1002
{
1000
ACA_L:GRD8
1000
TEIL8
1002
}
1002
{
1000
ACA_L:GRD9
1000
TEIL9
1002
}
  0
ENDBLK
  5
3F52
330
3F4F
100
AcDbEntity
  8
0
100
AcDbBlockEnd
  0
BLOCK
  5
3F54
330
3F53
100
AcDbEntity
  8
0
100
AcDbBlockBegin
  2
AVE_RENDER
 70
     0
 10
0.0
 20
0.0
 30
0.0
  3
AVE_RENDER
  1
AVE_RENDER
  0
ENDBLK
  5
3F55
330
3F53
100
AcDbEntity
  8
0
100
AcDbBlockEnd
  0
BLOCK
  5
4D35
330
4D33
100
AcDbEntity
  8
0
100
AcDbBlockBegin
  2
GENAXEH
 70
     0
 10
0.0
 20
0.0
 30
0.0
  3
GENAXEH
  1

  0
LINE
  5
4D34
330
4D33
100
AcDbEntity
  8
0
100
AcDbLine
 10
-1.0
 20
0.0
 30
0.0
 11
1.0
 21
0.0
 31
0.0
  0
ENDBLK
  5
4D36
330
4D33
100
AcDbEntity
  8
0
100
AcDbBlockEnd
  0
BLOCK
  5
517F
330
517E
100
AcDbEntity
  8
0
100
AcDbBlockBegin
  2
_ACMFILLED15
 70
     0
 10
0.0
 20
0.0
 30
0.0
  3
_ACMFILLED15
  1

  0
TRACE
  5
5181
330
517E
100
AcDbEntity
  8
UMRISS07
 62
     0
100
AcDbTrace
 10
-1.0
 20
-0.131652497
 30
0.0
 11
-1.0
 21
0.131652497
 31
0.0
 12
0.0
 22
0.0
 32
0.0
 13
0.0
 23
0.0
 33
0.0
  0
ENDBLK
  5
5180
330
517E
100
AcDbEntity
  8
0
100
AcDbBlockEnd
  0
BLOCK
  5
549F
330
549E
100
AcDbEntity
  8
0
100
AcDbBlockBegin
  2
*D19
 70
     1
 10
0.0
 20
0.0
 30
0.0
  3
*D19
  1

  0
LINE
  5
55D3
330
549E
100
AcDbEntity
  8
BEMASSUNG
 62
     2
440
 16777216
370
    -2
100
AcDbLine
 10
20.16595789137546
 20
191.7066254256995
 30
0.0
 11
-8.960256668455798
 21
191.7066254256995
 31
0.0
  0
LINE
  5
55D4
330
549E
100
AcDbEntity
  8
BEMASSUNG
 62
     2
440
 16777216
370
    -2
100
AcDbLine
 10
20.16595789137546
 20
182.706625425699
 30
0.0
 11
-8.9602566684558
 21
182.706625425699
 31
0.0
  0
LINE
  5
55D5
330
549E
100
AcDbEntity
  8
BEMASSUNG
 62
     2
440
 16777216
370
    -2
100
AcDbLine
 10
-7.960256668455802
 20
170.706625425699
 30
0.0
 11
-7.960256668455804
 21
158.706625425699
 31
0.0
  0
LINE
  5
55D6
330
549E
100
AcDbEntity
  8
BEMASSUNG
 62
     2
440
 16777216
370
    -2
100
AcDbLine
 10
-7.960256668455794
 20
203.7066254256995
 30
0.0
 11
-7.960256668455789
 21
226.6247700368873
 31
0.0
  0
LINE
  5
55D7
330
549E
100
AcDbEntity
  8
BEMASSUNG
 62
     2
440
 16777216
370
    -2
100
AcDbLine
 10
-7.960256668455799
 20
182.706625425699
 30
0.0
 11
-7.960256668455797
 21
191.7066254256995
 31
0.0
  0
SOLID
  5
55D8
330
549E
100
AcDbEntity
  8
BEMASSUNG
 62
     2
440
 16777216
100
AcDbTrace
 10
-9.960256668455803
 20
170.706625425699
 30
0.0
 11
-5.960256668455802
 21
170.706625425699
 31
0.0
 12
-7.960256668455799
 22
182.706625425699
 32
0.0
 13
-7.960256668455799
 23
182.706625425699
 33
0.0
  0
SOLID
  5
55D9
330
549E
100
AcDbEntity
  8
BEMASSUNG
 62
     2
440
 16777216
100
AcDbTrace
 10
-9.960256668455796
 20
203.7066254256995
 30
0.0
 11
-5.960256668455794
 21
203.7066254256995
 31
0.0
 12
-7.960256668455797
 22
191.7066254256995
 32
0.0
 13
-7.960256668455797
 23
191.7066254256995
 33
0.0
  0
MTEXT
  5
55DA
330
549E
100
AcDbEntity
  8
BEMASSUNG
 62
     3
440
 16777216
100
AcDbMText
 10
-15.05541355795105
 20
221.1656977312939
 30
0.0
 40
9.0
 41
0.0
 46
0.0
 71
     5
 72
     1
  1
\A1;9
  7
ARIAL-STANDARD
 11
0.0000000000000001
 21
1.0
 31
0.0
 73
     1
 44
1.0
  0
POINT
  5
55DB
330
549E
100
AcDbEntity
  8
Defpoints
 62
     0
440
 16777216
100
AcDbPoint
 10
20.16595789137546
 20
191.7066254256995
 30
0.0
  0
POINT
  5
55DC
330
549E
100
AcDbEntity
  8
Defpoints
 62
     0
440
 16777216
100
AcDbPoint
 10
20.16595789137546
 20
182.706625425699
 30
0.0
  0
POINT
  5
55DD
330
549E
100
AcDbEntity
  8
Defpoints
 62
     0
440
 16777216
100
AcDbPoint
 10
-7.960256668455799
 20
182.706625425699
 30
0.0
  0
ENDBLK
  5
54A0
330
549E
100
AcDbEntity
  8
0
100
AcDbBlockEnd
  0
BLOCK
  5
54AD
330
54AC
100
AcDbEntity
  8
0
100
AcDbBlockBegin
  2
*D20
 70
     1
 10
0.0
 20
0.0
 30
0.0
  3
*D20
  1

  0
LINE
  5
55DE
330
54AC
100
AcDbEntity
  8
BEMASSUNG
 62
     2
440
 16777216
370
    -2
100
AcDbLine
 10
16.06595789137509
 20
165.706625425699
 30
0.0
 11
-24.33218258835822
 21
165.706625425699
 31
0.0
  0
LINE
  5
55DF
330
54AC
100
AcDbEntity
  8
BEMASSUNG
 62
     2
440
 16777216
370
    -2
100
AcDbLine
 10
-6.797186791544504
 20
187.206625425699
 30
0.0
 11
-24.33218258835822
 21
187.206625425699
 31
0.0
  0
LINE
  5
55E0
330
54AC
100
AcDbEntity
  8
BEMASSUNG
 62
     2
440
 16777216
370
    -2
100
AcDbLine
 10
-23.33218258835822
 20
199.206625425699
 30
0.0
 11
-23.33218258835821
 21
211.206625425699
 31
0.0
  0
LINE
  5
55E1
330
54AC
100
AcDbEntity
  8
BEMASSUNG
 62
     2
440
 16777216
370
    -2
100
AcDbLine
 10
-23.33218258835822
 20
153.706625425699
 30
0.0
 11
-23.33218258835823
 21
113.1077168308832
 31
0.0
  0
LINE
  5
55E2
330
54AC
100
AcDbEntity
  8
BEMASSUNG
 62
     2
440
 16777216
370
    -2
100
AcDbLine
 10
-23.33218258835822
 20
187.206625425699
 30
0.0
 11
-23.33218258835822
 21
165.706625425699
 31
0.0
  0
SOLID
  5
55E3
330
54AC
100
AcDbEntity
  8
BEMASSUNG
 62
     2
440
 16777216
100
AcDbTrace
 10
-25.33218258835822
 20
199.206625425699
 30
0.0
 11
-21.33218258835821
 21
199.206625425699
 31
0.0
 12
-23.33218258835822
 22
187.206625425699
 32
0.0
 13
-23.33218258835822
 23
187.206625425699
 33
0.0
  0
SOLID
  5
55E4
330
54AC
100
AcDbEntity
  8
BEMASSUNG
 62
     2
440
 16777216
100
AcDbTrace
 10
-25.33218258835822
 20
153.706625425699
 30
0.0
 11
-21.33218258835822
 21
153.706625425699
 31
0.0
 12
-23.33218258835822
 22
165.706625425699
 32
0.0
 13
-23.33218258835822
 23
165.706625425699
 33
0.0
  0
MTEXT
  5
55E5
330
54AC
100
AcDbEntity
  8
BEMASSUNG
 62
     3
440
 16777216
100
AcDbMText
 10
-30.42733947785348
 20
127.4071711282911
 30
0.0
 40
9.0
 41
0.0
 46
0.0
 71
     5
 72
     1
  1
\A1;21.5
  7
ARIAL-STANDARD
 11
0.0000000000000001
 21
1.0
 31
0.0
 73
     1
 44
1.0
  0
POINT
  5
55E6
330
54AC
100
AcDbEntity
  8
Defpoints
 62
     0
440
 16777216
100
AcDbPoint
 10
16.06595789137509
 20
165.706625425699
 30
0.0
  0
POINT
  5
55E7
330
54AC
100
AcDbEntity
  8
Defpoints
 62
     0
440
 16777216
100
AcDbPoint
 10
-6.797186791544504
 20
187.206625425699
 30
0.0
  0
POINT
  5
55E8
330
54AC
100
AcDbEntity
  8
Defpoints
 62
     0
440
 16777216
100
AcDbPoint
 10
-23.33218258835822
 20
187.206625425699
 30
0.0
  0
ENDBLK
  5
54AE
330
54AC
100
AcDbEntity
  8
0
100
AcDbBlockEnd
  0
BLOCK
  5
54BB
330
54BA
100
AcDbEntity
  8
0
100
AcDbBlockBegin
  2
*D21
 70
     1
 10
0.0
 20
0.0
 30
0.0
  3
*D21
  1

  0
LINE
  5
55E9
330
54BA
100
AcDbEntity
  8
BEMASSUNG
 62
     2
440
 16777216
370
    -2
100
AcDbLine
 10
51.66595789137454
 20
65.20662542569948
 30
0.0
 11
51.66595789137454
 21
-74.64337300535248
 31
0.0
  0
LINE
  5
55EA
330
54BA
100
AcDbEntity
  8
BEMASSUNG
 62
     2
440
 16777216
370
    -2
100
AcDbLine
 10
24.66595789137455
 20
-7.783850465157456
 30
0.0
 11
24.66595789137454
 21
-74.64337300535248
 31
0.0
  0
LINE
  5
55EB
330
54BA
100
AcDbEntity
  8
BEMASSUNG
 62
     2
440
 16777216
370
    -2
100
AcDbLine
 10
12.66595789137454
 20
-73.64337300535249
 30
0.0
 11
0.6659578913745428
 21
-73.64337300535249
 31
0.0
  0
LINE
  5
55EC
330
54BA
100
AcDbEntity
  8
BEMASSUNG
 62
     2
440
 16777216
370
    -2
100
AcDbLine
 10
63.66595789137454
 20
-73.64337300535249
 30
0.0
 11
109.8576359268453
 21
-73.64337300535249
 31
0.0
  0
LINE
  5
55ED
330
54BA
100
AcDbEntity
  8
BEMASSUNG
 62
     2
440
 16777216
370
    -2
100
AcDbLine
 10
24.66595789137454
 20
-73.64337300535249
 30
0.0
 11
51.66595789137454
 21
-73.64337300535249
 31
0.0
  0
SOLID
  5
55EE
330
54BA
100
AcDbEntity
  8
BEMASSUNG
 62
     2
440
 16777216
100
AcDbTrace
 10
12.66595789137454
 20
-71.64337300535248
 30
0.0
 11
12.66595789137454
 21
-75.64337300535249
 31
0.0
 12
24.66595789137454
 22
-73.64337300535249
 32
0.0
 13
24.66595789137454
 23
-73.64337300535249
 33
0.0
  0
SOLID
  5
55EF
330
54BA
100
AcDbEntity
  8
BEMASSUNG
 62
     2
440
 16777216
100
AcDbTrace
 10
63.66595789137454
 20
-71.64337300535248
 30
0.0
 11
63.66595789137454
 21
-75.64337300535249
 31
0.0
 12
51.66595789137454
 22
-73.64337300535249
 32
0.0
 13
51.66595789137454
 23
-73.64337300535249
 33
0.0
  0
MTEXT
  5
55F0
330
54BA
100
AcDbEntity
  8
BEMASSUNG
 62
     3
440
 16777216
100
AcDbMText
 10
92.76179690910998
 20
-66.54514653877678
 30
0.0
 40
9.0
 41
0.0
 46
0.0
 71
     5
 72
     1
  1
\A1;DM-3
  7
ARIAL-STANDARD
 73
     1
 44
1.0
  0
POINT
  5
55F1
330
54BA
100
AcDbEntity
  8
Defpoints
 62
     0
440
 16777216
100
AcDbPoint
 10
51.66595789137454
 20
65.20662542569948
 30
0.0
  0
POINT
  5
55F2
330
54BA
100
AcDbEntity
  8
Defpoints
 62
     0
440
 16777216
100
AcDbPoint
 10
24.66595789137455
 20
-7.783850465157456
 30
0.0
  0
POINT
  5
55F3
330
54BA
100
AcDbEntity
  8
Defpoints
 62
     0
440
 16777216
100
AcDbPoint
 10
24.66595789137454
 20
-73.64337300535249
 30
0.0
  0
ENDBLK
  5
54BC
330
54BA
100
AcDbEntity
  8
0
100
AcDbBlockEnd
  0
BLOCK
  5
54C9
330
54C8
100
AcDbEntity
  8
0
100
AcDbBlockBegin
  2
*D22
 70
     1
 10
0.0
 20
0.0
 30
0.0
  3
*D22
  1

  0
LINE
  5
55F4
330
54C8
100
AcDbEntity
  8
BEMASSUNG
 62
     2
440
 16777216
370
    -2
100
AcDbLine
 10
9.165957891373636
 20
265.2066254256986
 30
0.0
 11
-44.16311590763017
 21
265.2066254256986
 31
0.0
  0
LINE
  5
55F5
330
54C8
100
AcDbEntity
  8
BEMASSUNG
 62
     2
440
 16777216
370
    -2
100
AcDbLine
 10
-43.16311590763018
 20
187.206625425699
 30
0.0
 11
-44.16311590763018
 21
187.206625425699
 31
0.0
  0
LINE
  5
55F6
330
54C8
100
AcDbEntity
  8
BEMASSUNG
 62
     2
440
 16777216
370
    -2
100
AcDbLine
 10
-43.16311590763016
 20
253.2066254256986
 30
0.0
 11
-43.16311590763018
 21
199.206625425699
 31
0.0
  0
SOLID
  5
55F7
330
54C8
100
AcDbEntity
  8
BEMASSUNG
 62
     2
440
 16777216
100
AcDbTrace
 10
-45.16311590763017
 20
253.2066254256986
 30
0.0
 11
-41.16311590763017
 21
253.2066254256986
 31
0.0
 12
-43.16311590763016
 22
265.2066254256986
 32
0.0
 13
-43.16311590763016
 23
265.2066254256986
 33
0.0
  0
SOLID
  5
55F8
330
54C8
100
AcDbEntity
  8
BEMASSUNG
 62
     2
440
 16777216
100
AcDbTrace
 10
-45.16311590763018
 20
199.206625425699
 30
0.0
 11
-41.16311590763018
 21
199.206625425699
 31
0.0
 12
-43.16311590763018
 22
187.206625425699
 32
0.0
 13
-43.16311590763018
 23
187.206625425699
 33
0.0
  0
MTEXT
  5
55F9
330
54C8
100
AcDbEntity
  8
BEMASSUNG
 62
     3
440
 16777216
100
AcDbMText
 10
-50.25827279712544
 20
226.2066254256988
 30
0.0
 40
9.0
 41
0.0
 46
0.0
 71
     5
 72
     1
  1
\A1;78
  7
ARIAL-STANDARD
 11
0.0000000000000001
 21
1.0
 31
0.0
 73
     1
 44
1.0
  0
POINT
  5
55FA
330
54C8
100
AcDbEntity
  8
Defpoints
 62
     0
440
 16777216
100
AcDbPoint
 10
9.165957891373636
 20
265.2066254256986
 30
0.0
  0
POINT
  5
55FB
330
54C8
100
AcDbEntity
  8
Defpoints
 62
     0
440
 16777216
100
AcDbPoint
 10
-43.16311590763018
 20
187.206625425699
 30
0.0
  0
POINT
  5
55FC
330
54C8
100
AcDbEntity
  8
Defpoints
 62
     0
440
 16777216
100
AcDbPoint
 10
-43.16311590763018
 20
187.206625425699
 30
0.0
  0
ENDBLK
  5
54CA
330
54C8
100
AcDbEntity
  8
0
100
AcDbBlockEnd
  0
BLOCK
  5
54D5
330
54D4
100
AcDbEntity
  8
0
100
AcDbBlockBegin
  2
*D23
 70
     1
 10
0.0
 20
0.0
 30
0.0
  3
*D23
  1

  0
LINE
  5
55FD
330
54D4
100
AcDbEntity
  8
BEMASSUNG
 62
     2
440
 16777216
370
    -2
100
AcDbLine
 10
9.165957891374546
 20
65.20662542569948
 30
0.0
 11
-44.16311590763021
 21
65.2066254256995
 31
0.0
  0
LINE
  5
55FE
330
54D4
100
AcDbEntity
  8
BEMASSUNG
 62
     2
440
 16777216
370
    -2
100
AcDbLine
 10
-14.71730719805111
 20
187.206625425699
 30
0.0
 11
-44.16311590763018
 21
187.206625425699
 31
0.0
  0
LINE
  5
55FF
330
54D4
100
AcDbEntity
  8
BEMASSUNG
 62
     2
440
 16777216
370
    -2
100
AcDbLine
 10
-43.16311590763021
 20
77.2066254256995
 30
0.0
 11
-43.16311590763019
 21
175.206625425699
 31
0.0
  0
SOLID
  5
5600
330
54D4
100
AcDbEntity
  8
BEMASSUNG
 62
     2
440
 16777216
100
AcDbTrace
 10
-45.16311590763021
 20
77.2066254256995
 30
0.0
 11
-41.16311590763021
 21
77.2066254256995
 31
0.0
 12
-43.16311590763021
 22
65.2066254256995
 32
0.0
 13
-43.16311590763021
 23
65.2066254256995
 33
0.0
  0
SOLID
  5
5601
330
54D4
100
AcDbEntity
  8
BEMASSUNG
 62
     2
440
 16777216
100
AcDbTrace
 10
-45.16311590763019
 20
175.206625425699
 30
0.0
 11
-41.16311590763019
 21
175.206625425699
 31
0.0
 12
-43.16311590763018
 22
187.206625425699
 32
0.0
 13
-43.16311590763018
 23
187.206625425699
 33
0.0
  0
MTEXT
  5
5602
330
54D4
100
AcDbEntity
  8
BEMASSUNG
 62
     3
440
 16777216
100
AcDbMText
 10
-50.18153337011316
 20
126.2066254256992
 30
0.0
 40
9.0
 41
0.0
 46
0.0
 71
     5
 72
     1
  1
\A1;122
  7
ARIAL-STANDARD
 11
0.0000000000000001
 21
1.0
 31
0.0
 73
     1
 44
1.0
  0
POINT
  5
5603
330
54D4
100
AcDbEntity
  8
Defpoints
 62
     0
440
 16777216
100
AcDbPoint
 10
9.165957891374546
 20
65.20662542569948
 30
0.0
  0
POINT
  5
5604
330
54D4
100
AcDbEntity
  8
Defpoints
 62
     0
440
 16777216
100
AcDbPoint
 10
-14.71730719805111
 20
187.206625425699
 30
0.0
  0
POINT
  5
5605
330
54D4
100
AcDbEntity
  8
Defpoints
 62
     0
440
 16777216
100
AcDbPoint
 10
-43.16311590763018
 20
187.206625425699
 30
0.0
  0
ENDBLK
  5
54D6
330
54D4
100
AcDbEntity
  8
0
100
AcDbBlockEnd
  0
BLOCK
  5
54E1
330
54E0
100
AcDbEntity
  8
0
100
AcDbBlockBegin
  2
*D24
 70
     1
 10
0.0
 20
0.0
 30
0.0
  3
*D24
  1

  0
LINE
  5
5606
330
54E0
100
AcDbEntity
  8
BEMASSUNG
 62
     2
440
 16777216
370
    -2
100
AcDbLine
 10
19.66572331692578
 20
324.7760408391548
 30
0.0
 11
-66.12227358047547
 21
324.7760408391548
 31
0.0
  0
LINE
  5
5607
330
54E0
100
AcDbEntity
  8
BEMASSUNG
 62
     2
440
 16777216
370
    -2
100
AcDbLine
 10
-32.66076734113324
 20
187.206625425699
 30
0.0
 11
-66.12227358047551
 21
187.206625425699
 31
0.0
  0
LINE
  5
5608
330
54E0
100
AcDbEntity
  8
BEMASSUNG
 62
     2
440
 16777216
370
    -2
100
AcDbLine
 10
-65.12227358047548
 20
312.7760408391548
 30
0.0
 11
-65.1222735804755
 21
199.206625425699
 31
0.0
  0
SOLID
  5
5609
330
54E0
100
AcDbEntity
  8
BEMASSUNG
 62
     2
440
 16777216
100
AcDbTrace
 10
-67.12227358047548
 20
312.7760408391548
 30
0.0
 11
-63.12227358047548
 21
312.7760408391548
 31
0.0
 12
-65.12227358047548
 22
324.7760408391548
 32
0.0
 13
-65.12227358047548
 23
324.7760408391548
 33
0.0
  0
SOLID
  5
560A
330
54E0
100
AcDbEntity
  8
BEMASSUNG
 62
     2
440
 16777216
100
AcDbTrace
 10
-67.12227358047551
 20
199.206625425699
 30
0.0
 11
-63.1222735804755
 21
199.206625425699
 31
0.0
 12
-65.1222735804755
 22
187.206625425699
 32
0.0
 13
-65.1222735804755
 23
187.206625425699
 33
0.0
  0
MTEXT
  5
560B
330
54E0
100
AcDbEntity
  8
BEMASSUNG
 62
     3
440
 16777216
100
AcDbMText
 10
-72.22050004705124
 20
255.9913331324269
 30
0.0
 40
9.0
 41
0.0
 46
0.0
 71
     5
 72
     1
  1
\A1;138
  7
ARIAL-STANDARD
 11
0.0000000000000001
 21
1.0
 31
0.0
 73
     1
 44
1.0
  0
POINT
  5
560C
330
54E0
100
AcDbEntity
  8
Defpoints
 62
     0
440
 16777216
100
AcDbPoint
 10
19.66572331692578
 20
324.7760408391548
 30
0.0
  0
POINT
  5
560D
330
54E0
100
AcDbEntity
  8
Defpoints
 62
     0
440
 16777216
100
AcDbPoint
 10
-32.66076734113324
 20
187.206625425699
 30
0.0
  0
POINT
  5
560E
330
54E0
100
AcDbEntity
  8
Defpoints
 62
     0
440
 16777216
100
AcDbPoint
 10
-65.1222735804755
 20
187.206625425699
 30
0.0
  0
ENDBLK
  5
54E2
330
54E0
100
AcDbEntity
  8
0
100
AcDbBlockEnd
  0
BLOCK
  5
54ED
330
54EC
100
AcDbEntity
  8
0
100
AcDbBlockBegin
  2
*D25
 70
     1
 10
0.0
 20
0.0
 30
0.0
  3
*D25
  1

  0
LINE
  5
560F
330
54EC
100
AcDbEntity
  8
BEMASSUNG
 62
     2
440
 16777216
370
    -2
100
AcDbLine
 10
24.66595789137455
 20
187.206625425699
 30
0.0
 11
-66.12227358047547
 21
187.206625425699
 31
0.0
  0
LINE
  5
5610
330
54EC
100
AcDbEntity
  8
BEMASSUNG
 62
     2
440
 16777216
370
    -2
100
AcDbLine
 10
19.66595789137454
 20
-0.7925365399089515
 30
0.0
 11
-66.12227358047551
 21
-0.7925365399089273
 31
0.0
  0
LINE
  5
5611
330
54EC
100
AcDbEntity
  8
BEMASSUNG
 62
     2
440
 16777216
370
    -2
100
AcDbLine
 10
-65.12227358047546
 20
175.206625425699
 30
0.0
 11
-65.1222735804755
 21
11.20746346009107
 31
0.0
  0
SOLID
  5
5612
330
54EC
100
AcDbEntity
  8
BEMASSUNG
 62
     2
440
 16777216
100
AcDbTrace
 10
-67.12227358047546
 20
175.206625425699
 30
0.0
 11
-63.12227358047547
 21
175.206625425699
 31
0.0
 12
-65.12227358047546
 22
187.206625425699
 32
0.0
 13
-65.12227358047546
 23
187.206625425699
 33
0.0
  0
SOLID
  5
5613
330
54EC
100
AcDbEntity
  8
BEMASSUNG
 62
     2
440
 16777216
100
AcDbTrace
 10
-67.12227358047551
 20
11.20746346009107
 30
0.0
 11
-63.1222735804755
 21
11.20746346009107
 31
0.0
 12
-65.1222735804755
 22
-0.7925365399089275
 32
0.0
 13
-65.1222735804755
 23
-0.7925365399089275
 33
0.0
  0
MTEXT
  5
5614
330
54EC
100
AcDbEntity
  8
BEMASSUNG
 62
     3
440
 16777216
100
AcDbMText
 10
-72.21743046997073
 20
93.20704444289503
 30
0.0
 40
9.0
 41
0.0
 46
0.0
 71
     5
 72
     1
  1
\A1;188
  7
ARIAL-STANDARD
 11
0.0000000000000001
 21
1.0
 31
0.0
 73
     1
 44
1.0
  0
POINT
  5
5615
330
54EC
100
AcDbEntity
  8
Defpoints
 62
     0
440
 16777216
100
AcDbPoint
 10
24.66595789137455
 20
187.206625425699
 30
0.0
  0
POINT
  5
5616
330
54EC
100
AcDbEntity
  8
Defpoints
 62
     0
440
 16777216
100
AcDbPoint
 10
19.66595789137454
 20
-0.7925365399089515
 30
0.0
  0
POINT
  5
5617
330
54EC
100
AcDbEntity
  8
Defpoints
 62
     0
440
 16777216
100
AcDbPoint
 10
-65.1222735804755
 20
-0.7925365399089275
 30
0.0
  0
ENDBLK
  5
54EE
330
54EC
100
AcDbEntity
  8
0
100
AcDbBlockEnd
  0
BLOCK
  5
54F9
330
54F8
100
AcDbEntity
  8
0
100
AcDbBlockBegin
  2
*D26
 70
     1
 10
0.0
 20
0.0
 30
0.0
  3
*D26
  1

  0
LINE
  5
5618
330
54F8
100
AcDbEntity
  8
BEMASSUNG
 62
     2
440
 16777216
370
    -2
100
AcDbLine
 10
9.165957891374546
 20
65.20662542569948
 30
0.0
 11
9.165957891374539
 21
-52.29107086714816
 31
0.0
  0
LINE
  5
5619
330
54F8
100
AcDbEntity
  8
BEMASSUNG
 62
     2
440
 16777216
370
    -2
100
AcDbLine
 10
24.66595789137455
 20
-7.783850465157456
 30
0.0
 11
24.66595789137454
 21
-52.29107086714816
 31
0.0
  0
LINE
  5
561A
330
54F8
100
AcDbEntity
  8
BEMASSUNG
 62
     2
440
 16777216
370
    -2
100
AcDbLine
 10
36.66595789137455
 20
-51.29107086714816
 30
0.0
 11
48.66595789137455
 21
-51.29107086714816
 31
0.0
  0
LINE
  5
561B
330
54F8
100
AcDbEntity
  8
BEMASSUNG
 62
     2
440
 16777216
370
    -2
100
AcDbLine
 10
-2.83404210862546
 20
-51.29107086714816
 30
0.0
 11
-42.43226857520157
 21
-51.29107086714816
 31
0.0
  0
LINE
  5
561C
330
54F8
100
AcDbEntity
  8
BEMASSUNG
 62
     2
440
 16777216
370
    -2
100
AcDbLine
 10
24.66595789137454
 20
-51.29107086714816
 30
0.0
 11
9.165957891374539
 21
-51.29107086714816
 31
0.0
  0
SOLID
  5
561D
330
54F8
100
AcDbEntity
  8
BEMASSUNG
 62
     2
440
 16777216
100
AcDbTrace
 10
36.66595789137455
 20
-49.29107086714816
 30
0.0
 11
36.66595789137455
 21
-53.29107086714817
 31
0.0
 12
24.66595789137454
 22
-51.29107086714816
 32
0.0
 13
24.66595789137454
 23
-51.29107086714816
 33
0.0
  0
SOLID
  5
561E
330
54F8
100
AcDbEntity
  8
BEMASSUNG
 62
     2
440
 16777216
100
AcDbTrace
 10
-2.83404210862546
 20
-49.29107086714816
 30
0.0
 11
-2.83404210862546
 21
-53.29107086714817
 31
0.0
 12
9.165957891374539
 22
-51.29107086714816
 32
0.0
 13
9.165957891374539
 23
-51.29107086714816
 33
0.0
  0
MTEXT
  5
561F
330
54F8
100
AcDbEntity
  8
BEMASSUNG
 62
     3
440
 16777216
100
AcDbMText
 10
-28.63315534191372
 20
-44.19591397765294
 30
0.0
 40
9.0
 41
0.0
 46
0.0
 71
     5
 72
     1
  1
\A1;15.5
  7
ARIAL-STANDARD
 73
     1
 44
1.0
  0
POINT
  5
5620
330
54F8
100
AcDbEntity
  8
Defpoints
 62
     0
440
 16777216
100
AcDbPoint
 10
9.165957891374546
 20
65.20662542569948
 30
0.0
  0
POINT
  5
5621
330
54F8
100
AcDbEntity
  8
Defpoints
 62
     0
440
 16777216
100
AcDbPoint
 10
24.66595789137455
 20
-7.783850465157456
 30
0.0
  0
POINT
  5
5622
330
54F8
100
AcDbEntity
  8
Defpoints
 62
     0
440
 16777216
100
AcDbPoint
 10
24.66595789137454
 20
-51.29107086714816
 30
0.0
  0
ENDBLK
  5
54FA
330
54F8
100
AcDbEntity
  8
0
100
AcDbBlockEnd
  0
BLOCK
  5
5507
330
5506
100
AcDbEntity
  8
0
100
AcDbBlockBegin
  2
*D27
 70
     1
 10
0.0
 20
0.0
 30
0.0
  3
*D27
  1

  0
LINE
  5
5623
330
5506
100
AcDbEntity
  8
BEMASSUNG
 62
     2
440
 16777216
370
    -2
100
AcDbLine
 10
-19.06680999127422
 20
19.20820203173093
 30
0.0
 11
-23.6406348313327
 21
19.20820203173093
 31
0.0
  0
LINE
  5
5624
330
5506
100
AcDbEntity
  8
BEMASSUNG
 62
     2
440
 16777216
370
    -2
100
AcDbLine
 10
24.52012232627249
 20
-0.7925365399089515
 30
0.0
 11
-23.6406348313327
 21
-0.7925365399089378
 31
0.0
  0
LINE
  5
5625
330
5506
100
AcDbEntity
  8
BEMASSUNG
 62
     2
440
 16777216
370
    -2
100
AcDbLine
 10
-22.6406348313327
 20
31.20820203173094
 30
0.0
 11
-22.64063483133269
 21
43.20820203173094
 31
0.0
  0
LINE
  5
5626
330
5506
100
AcDbEntity
  8
BEMASSUNG
 62
     2
440
 16777216
370
    -2
100
AcDbLine
 10
-22.64063483133271
 20
-12.79253653990894
 30
0.0
 11
-22.64063483133271
 21
-24.79253653990894
 31
0.0
  0
LINE
  5
5627
330
5506
100
AcDbEntity
  8
BEMASSUNG
 62
     2
440
 16777216
370
    -2
100
AcDbLine
 10
-22.6406348313327
 20
19.20820203173093
 30
0.0
 11
-22.6406348313327
 21
-0.7925365399089382
 31
0.0
  0
SOLID
  5
5628
330
5506
100
AcDbEntity
  8
BEMASSUNG
 62
     2
440
 16777216
100
AcDbTrace
 10
-24.6406348313327
 20
31.20820203173094
 30
0.0
 11
-20.6406348313327
 21
31.20820203173094
 31
0.0
 12
-22.6406348313327
 22
19.20820203173093
 32
0.0
 13
-22.6406348313327
 23
19.20820203173093
 33
0.0
  0
SOLID
  5
5629
330
5506
100
AcDbEntity
  8
BEMASSUNG
 62
     2
440
 16777216
100
AcDbTrace
 10
-24.64063483133271
 20
-12.79253653990894
 30
0.0
 11
-20.64063483133271
 21
-12.79253653990894
 31
0.0
 12
-22.6406348313327
 22
-0.7925365399089382
 32
0.0
 13
-22.6406348313327
 23
-0.7925365399089382
 33
0.0
  0
MTEXT
  5
562A
330
5506
100
AcDbEntity
  8
BEMASSUNG
 62
     3
440
 16777216
100
AcDbMText
 10
-29.73579172082793
 20
9.207832745910994
 30
0.0
 40
9.0
 41
0.0
 46
0.0
 71
     5
 72
     1
  1
\A1;Hub = 20
  7
ARIAL-STANDARD
 11
0.0000000000000001
 21
1.0
 31
0.0
 73
     1
 44
1.0
  0
POINT
  5
562B
330
5506
100
AcDbEntity
  8
Defpoints
 62
     0
440
 16777216
100
AcDbPoint
 10
-19.06680999127422
 20
19.20820203173093
 30
0.0
  0
POINT
  5
562C
330
5506
100
AcDbEntity
  8
Defpoints
 62
     0
440
 16777216
100
AcDbPoint
 10
24.52012232627249
 20
-0.7925365399089515
 30
0.0
  0
POINT
  5
562D
330
5506
100
AcDbEntity
  8
Defpoints
 62
     0
440
 16777216
100
AcDbPoint
 10
-22.6406348313327
 20
-0.7925365399089382
 30
0.0
  0
ENDBLK
  5
5508
330
5506
100
AcDbEntity
  8
0
100
AcDbBlockEnd
  0
BLOCK
  5
5515
330
5514
100
AcDbEntity
  8
0
100
AcDbBlockBegin
  2
*D28
 70
     1
 10
0.0
 20
0.0
 30
0.0
  3
*D28
  1

  0
LINE
  5
562E
330
5514
100
AcDbEntity
  8
BEMASSUNG
 62
     2
440
 16777216
370
    -2
100
AcDbLine
 10
19.66572331692578
 20
324.7760408391548
 30
0.0
 11
-22.56803733055182
 21
324.7760408391548
 31
0.0
  0
LINE
  5
562F
330
5514
100
AcDbEntity
  8
BEMASSUNG
 62
     2
440
 16777216
370
    -2
100
AcDbLine
 10
-16.40202191435821
 20
304.7738353800994
 30
0.0
 11
-22.56803733055182
 21
304.7738353800994
 31
0.0
  0
LINE
  5
5630
330
5514
100
AcDbEntity
  8
BEMASSUNG
 62
     2
440
 16777216
370
    -2
100
AcDbLine
 10
-21.56803733055182
 20
336.7760408391548
 30
0.0
 11
-21.56803733055181
 21
348.7760408391548
 31
0.0
  0
LINE
  5
5631
330
5514
100
AcDbEntity
  8
BEMASSUNG
 62
     2
440
 16777216
370
    -2
100
AcDbLine
 10
-21.56803733055183
 20
292.7738353800994
 30
0.0
 11
-21.56803733055183
 21
280.7738353800994
 31
0.0
  0
LINE
  5
5632
330
5514
100
AcDbEntity
  8
BEMASSUNG
 62
     2
440
 16777216
370
    -2
100
AcDbLine
 10
-21.56803733055182
 20
324.7760408391548
 30
0.0
 11
-21.56803733055182
 21
304.7738353800994
 31
0.0
  0
SOLID
  5
5633
330
5514
100
AcDbEntity
  8
BEMASSUNG
 62
     2
440
 16777216
100
AcDbTrace
 10
-23.56803733055182
 20
336.7760408391548
 30
0.0
 11
-19.56803733055181
 21
336.7760408391548
 31
0.0
 12
-21.56803733055182
 22
324.7760408391548
 32
0.0
 13
-21.56803733055182
 23
324.7760408391548
 33
0.0
  0
SOLID
  5
5634
330
5514
100
AcDbEntity
  8
BEMASSUNG
 62
     2
440
 16777216
100
AcDbTrace
 10
-23.56803733055183
 20
292.7738353800994
 30
0.0
 11
-19.56803733055183
 21
292.7738353800994
 31
0.0
 12
-21.56803733055182
 22
304.7738353800994
 32
0.0
 13
-21.56803733055182
 23
304.7738353800994
 33
0.0
  0
MTEXT
  5
5635
330
5514
100
AcDbEntity
  8
BEMASSUNG
 62
     3
440
 16777216
100
AcDbMText
 10
-28.6631942200471
 20
314.7749381096271
 30
0.0
 40
9.0
 41
0.0
 46
0.0
 71
     5
 72
     1
  1
\A1;Hub = 20
  7
ARIAL-STANDARD
 11
0.0000000000000001
 21
1.0
 31
0.0
 73
     1
 44
1.0
  0
POINT
  5
5636
330
5514
100
AcDbEntity
  8
Defpoints
 62
     0
440
 16777216
100
AcDbPoint
 10
19.66572331692578
 20
324.7760408391548
 30
0.0
  0
POINT
  5
5637
330
5514
100
AcDbEntity
  8
Defpoints
 62
     0
440
 16777216
100
AcDbPoint
 10
-16.40202191435821
 20
304.7738353800994
 30
0.0
  0
POINT
  5
5638
330
5514
100
AcDbEntity
  8
Defpoints
 62
     0
440
 16777216
100
AcDbPoint
 10
-21.56803733055182
 20
304.7738353800994
 30
0.0
  0
ENDBLK
  5
5516
330
5514
100
AcDbEntity
  8
0
100
AcDbBlockEnd
  0
BLOCK
  5
5523
330
5522
100
AcDbEntity
  8
0
100
AcDbBlockBegin
  2
*D29
 70
     1
 10
0.0
 20
0.0
 30
0.0
  3
*D29
  1

  0
LINE
  5
5639
330
5522
100
AcDbEntity
  8
BEMASSUNG
 62
     2
440
 16777216
370
    -2
100
AcDbLine
 10
53.61595789137528
 20
127.206625425699
 30
0.0
 11
75.87967658672958
 21
127.206625425699
 31
0.0
  0
LINE
  5
563A
330
5522
100
AcDbEntity
  8
BEMASSUNG
 62
     2
440
 16777216
370
    -2
100
AcDbLine
 10
50.41595789137454
 20
187.206625425699
 30
0.0
 11
75.8796765867296
 21
187.206625425699
 31
0.0
  0
LINE
  5
563B
330
5522
100
AcDbEntity
  8
BEMASSUNG
 62
     2
440
 16777216
370
    -2
100
AcDbLine
 10
74.87967658672959
 20
139.206625425699
 30
0.0
 11
74.8796765867296
 21
175.206625425699
 31
0.0
  0
SOLID
  5
563C
330
5522
100
AcDbEntity
  8
BEMASSUNG
 62
     2
440
 16777216
100
AcDbTrace
 10
72.87967658672958
 20
139.206625425699
 30
0.0
 11
76.87967658672959
 21
139.206625425699
 31
0.0
 12
74.87967658672959
 22
127.206625425699
 32
0.0
 13
74.87967658672959
 23
127.206625425699
 33
0.0
  0
SOLID
  5
563D
330
5522
100
AcDbEntity
  8
BEMASSUNG
 62
     2
440
 16777216
100
AcDbTrace
 10
72.8796765867296
 20
175.206625425699
 30
0.0
 11
76.8796765867296
 21
175.206625425699
 31
0.0
 12
74.8796765867296
 22
187.206625425699
 32
0.0
 13
74.8796765867296
 23
187.206625425699
 33
0.0
  0
MTEXT
  5
563E
330
5522
100
AcDbEntity
  8
BEMASSUNG
 62
     3
440
 16777216
100
AcDbMText
 10
67.78451969723434
 20
157.206625425699
 30
0.0
 40
9.0
 41
0.0
 46
0.0
 71
     5
 72
     1
  1
\A1;60
  7
ARIAL-STANDARD
 11
0.0000000000000001
 21
1.0
 31
0.0
 73
     1
 44
1.0
  0
POINT
  5
563F
330
5522
100
AcDbEntity
  8
Defpoints
 62
     0
440
 16777216
100
AcDbPoint
 10
53.61595789137528
 20
127.206625425699
 30
0.0
  0
POINT
  5
5640
330
5522
100
AcDbEntity
  8
Defpoints
 62
     0
440
 16777216
100
AcDbPoint
 10
50.41595789137454
 20
187.206625425699
 30
0.0
  0
POINT
  5
5641
330
5522
100
AcDbEntity
  8
Defpoints
 62
     0
440
 16777216
100
AcDbPoint
 10
74.8796765867296
 20
187.206625425699
 30
0.0
  0
ENDBLK
  5
5524
330
5522
100
AcDbEntity
  8
0
100
AcDbBlockEnd
  0
BLOCK
  5
552F
330
552E
100
AcDbEntity
  8
0
100
AcDbBlockBegin
  2
*D30
 70
     1
 10
0.0
 20
0.0
 30
0.0
  3
*D30
  1

  0
LINE
  5
5642
330
552E
100
AcDbEntity
  8
BEMASSUNG
 62
     2
440
 16777216
370
    -2
100
AcDbLine
 10
50.41595789137454
 20
187.206625425699
 30
0.0
 11
75.88032471292852
 21
187.206625425699
 31
0.0
  0
LINE
  5
5643
330
552E
100
AcDbEntity
  8
BEMASSUNG
 62
     2
440
 16777216
370
    -2
100
AcDbLine
 10
60.08451275369726
 20
227.206625425699
 30
0.0
 11
75.88032471292854
 21
227.206625425699
 31
0.0
  0
LINE
  5
5644
330
552E
100
AcDbEntity
  8
BEMASSUNG
 62
     2
440
 16777216
370
    -2
100
AcDbLine
 10
74.88032471292853
 20
199.206625425699
 30
0.0
 11
74.88032471292853
 21
215.206625425699
 31
0.0
  0
SOLID
  5
5645
330
552E
100
AcDbEntity
  8
BEMASSUNG
 62
     2
440
 16777216
100
AcDbTrace
 10
72.88032471292853
 20
199.206625425699
 30
0.0
 11
76.88032471292853
 21
199.206625425699
 31
0.0
 12
74.88032471292853
 22
187.206625425699
 32
0.0
 13
74.88032471292853
 23
187.206625425699
 33
0.0
  0
SOLID
  5
5646
330
552E
100
AcDbEntity
  8
BEMASSUNG
 62
     2
440
 16777216
100
AcDbTrace
 10
72.88032471292853
 20
215.206625425699
 30
0.0
 11
76.88032471292853
 21
215.206625425699
 31
0.0
 12
74.88032471292854
 22
227.206625425699
 32
0.0
 13
74.88032471292854
 23
227.206625425699
 33
0.0
  0
MTEXT
  5
5647
330
552E
100
AcDbEntity
  8
BEMASSUNG
 62
     3
440
 16777216
100
AcDbMText
 10
67.78516782343327
 20
207.206625425699
 30
0.0
 40
9.0
 41
0.0
 46
0.0
 71
     5
 72
     1
  1
\A1;40
  7
ARIAL-STANDARD
 11
0.0000000000000001
 21
1.0
 31
0.0
 73
     1
 44
1.0
  0
POINT
  5
5648
330
552E
100
AcDbEntity
  8
Defpoints
 62
     0
440
 16777216
100
AcDbPoint
 10
50.41595789137454
 20
187.206625425699
 30
0.0
  0
POINT
  5
5649
330
552E
100
AcDbEntity
  8
Defpoints
 62
     0
440
 16777216
100
AcDbPoint
 10
60.08451275369726
 20
227.206625425699
 30
0.0
  0
POINT
  5
564A
330
552E
100
AcDbEntity
  8
Defpoints
 62
     0
440
 16777216
100
AcDbPoint
 10
74.88032471292854
 20
227.206625425699
 30
0.0
  0
ENDBLK
  5
5530
330
552E
100
AcDbEntity
  8
0
100
AcDbBlockEnd
  0
BLOCK
  5
553B
330
553A
100
AcDbEntity
  8
0
100
AcDbBlockBegin
  2
*D31
 70
     1
 10
0.0
 20
0.0
 30
0.0
  3
*D31
  1

  0
LINE
  5
564B
330
553A
100
AcDbEntity
  8
BEMASSUNG
 62
     2
440
 16777216
370
    -2
100
AcDbLine
 10
9.165957891374318
 20
-159.9297846312708
 30
0.0
 11
-6.923964734720126
 21
-159.9297846312708
 31
0.0
  0
LINE
  5
564C
330
553A
100
AcDbEntity
  8
BEMASSUNG
 62
     2
440
 16777216
370
    -2
100
AcDbLine
 10
9.165957891374318
 20
-175.4297846312709
 30
0.0
 11
-6.923964734720129
 21
-175.4297846312709
 31
0.0
  0
LINE
  5
564D
330
553A
100
AcDbEntity
  8
BEMASSUNG
 62
     2
440
 16777216
370
    -2
100
AcDbLine
 10
-5.923964734720123
 20
-147.9297846312709
 30
0.0
 11
-5.92396473472012
 21
-135.9297846312709
 31
0.0
  0
LINE
  5
564E
330
553A
100
AcDbEntity
  8
BEMASSUNG
 62
     2
440
 16777216
370
    -2
100
AcDbLine
 10
-5.923964734720132
 20
-187.4297846312709
 30
0.0
 11
-5.923964734720135
 21
-199.4297846312709
 31
0.0
  0
LINE
  5
564F
330
553A
100
AcDbEntity
  8
BEMASSUNG
 62
     2
440
 16777216
370
    -2
100
AcDbLine
 10
-5.923964734720126
 20
-159.9297846312708
 30
0.0
 11
-5.923964734720129
 21
-175.4297846312709
 31
0.0
  0
SOLID
  5
5650
330
553A
100
AcDbEntity
  8
BEMASSUNG
 62
     2
440
 16777216
100
AcDbTrace
 10
-7.923964734720123
 20
-147.9297846312709
 30
0.0
 11
-3.923964734720123
 21
-147.9297846312709
 31
0.0
 12
-5.923964734720126
 22
-159.9297846312708
 32
0.0
 13
-5.923964734720126
 23
-159.9297846312708
 33
0.0
  0
SOLID
  5
5651
330
553A
100
AcDbEntity
  8
BEMASSUNG
 62
     2
440
 16777216
100
AcDbTrace
 10
-7.923964734720132
 20
-187.4297846312709
 30
0.0
 11
-3.923964734720132
 21
-187.4297846312709
 31
0.0
 12
-5.923964734720129
 22
-175.4297846312709
 32
0.0
 13
-5.923964734720129
 23
-175.4297846312709
 33
0.0
  0
MTEXT
  5
5652
330
553A
100
AcDbEntity
  8
BEMASSUNG
 62
     3
440
 16777216
100
AcDbMText
 10
-13.01912162421533
 20
-167.6797846312709
 30
0.0
 40
9.0
 41
0.0
 46
0.0
 71
     5
 72
     1
  1
\A1;15.5
  7
ARIAL-STANDARD
 11
0.0000000000000001
 21
1.0
 31
0.0
 73
     1
 44
1.0
  0
POINT
  5
5653
330
553A
100
AcDbEntity
  8
Defpoints
 62
     0
440
 16777216
100
AcDbPoint
 10
9.165957891374318
 20
-159.9297846312708
 30
0.0
  0
POINT
  5
5654
330
553A
100
AcDbEntity
  8
Defpoints
 62
     0
440
 16777216
100
AcDbPoint
 10
9.165957891374318
 20
-175.4297846312709
 30
0.0
  0
POINT
  5
5655
330
553A
100
AcDbEntity
  8
Defpoints
 62
     0
440
 16777216
100
AcDbPoint
 10
-5.923964734720129
 20
-175.4297846312709
 30
0.0
  0
ENDBLK
  5
553C
330
553A
100
AcDbEntity
  8
0
100
AcDbBlockEnd
  0
ENDSEC
  0
SECTION
  2
ENTITIES
  0
INSERT
  5
43DD
330
19
100
AcDbEntity
  8
ACA_VARSAVE
100
AcDbBlockReference
  2
ACA_SAVE_DONT_PURGE
 10
0.5
 20
-7.0
 30
0.0
  0
INSERT
  5
43DE
330
19
100
AcDbEntity
  8
ASHADE
 62
     4
100
AcDbBlockReference
  2
AVE_RENDER
 10
0.5
 20
-7.0
 30
0.0
1001
AVE_RENDER
1002
{
1070
     0
1000
Quick Opt
1070
     0
1070
     1
1070
     1
1070
     1
1070
     0
1070
     0
1070
     1
1002
}
  0
INSERT
  5
43DF
330
19
100
AcDbEntity
  8
ASHADE
 62
     3
100
AcDbBlockReference
  2
AVE_RENDER
 10
0.5
 20
-7.0
 30
0.0
1001
AVE_RENDER
1002
{
1070
     0
1000
Full Opt
1070
     0
1070
     1
1070
     1
1070
     1
1070
     0
1070
     0
1070
     0
1070
     1
1070
     1
1040
0.0001
1040
0.0001
1002
}
  0
INSERT
  5
43E0
330
19
100
AcDbEntity
  8
ASHADE
 62
     1
100
AcDbBlockReference
  2
AVE_RENDER
 10
0.5
 20
-7.0
 30
0.0
1001
AVE_RENDER
1002
{
1070
     2
1000
Pref
1070
    30
1070
    20
1070
     0
1070
     0
1000

1070
    10
1070
     0
1070
    30
1040
1.0
1070
     1
1040
0.3
1040
0.7
1040
0.0
1040
10.0
1010
-1.0
1020
-1.0
1030
-1.0
1040
0.3
1070
    49
1002
}
  0
ARC
  5
5396
330
19
100
AcDbEntity
  8
UMRISS05
100
AcDbCircle
 10
24.66595789137455
 20
262.2066254256986
 30
0.0
 40
5.0
100
AcDbArc
 50
180.0
 51
0.0
  0
LINE
  5
5397
330
19
100
AcDbEntity
  8
UMRISS05
100
AcDbLine
 10
19.66595789137454
 20
265.2066254256986
 30
0.0
 11
19.66595789137454
 21
262.2066254256986
 31
0.0
  0
LINE
  5
5398
330
19
100
AcDbEntity
  8
UMRISS05
100
AcDbLine
 10
29.66595789137455
 20
262.2066254256986
 30
0.0
 11
29.66595789137455
 21
265.2066254256986
 31
0.0
  0
LINE
  5
5399
330
19
100
AcDbEntity
  8
UMRISS05
100
AcDbLine
 10
19.66595789137454
 20
265.2066254256986
 30
0.0
 11
9.165957891374546
 21
265.2066254256986
 31
0.0
  0
LINE
  5
539A
330
19
100
AcDbEntity
  8
UMRISS05
100
AcDbLine
 10
9.165957891374546
 20
65.20662542569948
 30
0.0
 11
51.66595789137454
 21
65.20662542569948
 31
0.0
  0
LINE
  5
539B
330
19
100
AcDbEntity
  8
UMRISS05
100
AcDbLine
 10
51.66595789137454
 20
265.2066254256986
 30
0.0
 11
29.66595789137455
 21
265.2066254256986
 31
0.0
  0
LINE
  5
539C
330
19
100
AcDbEntity
  8
UMRISS05
100
AcDbLine
 10
9.165957891374546
 20
265.2066254256986
 30
0.0
 11
9.165957891374546
 21
65.20662542569948
 31
0.0
  0
LINE
  5
539D
330
19
100
AcDbEntity
  8
UMRISS05
100
AcDbLine
 10
36.16595789137455
 20
258.7066254256986
 30
0.0
 11
36.16595789137455
 21
195.7066254256986
 31
0.0
  0
LINE
  5
539E
330
19
100
AcDbEntity
  8
UMRISS05
100
AcDbLine
 10
51.66595789137454
 20
258.7066254256986
 30
0.0
 11
36.16595789137455
 21
258.7066254256986
 31
0.0
  0
LINE
  5
539F
330
19
100
AcDbEntity
  8
UMRISS05
100
AcDbLine
 10
36.16595789137455
 20
195.7066254256986
 30
0.0
 11
51.66595789137454
 21
195.706625425699
 31
0.0
  0
LINE
  5
53A0
330
19
100
AcDbEntity
  8
UMRISS05
100
AcDbLine
 10
36.16595789137455
 20
102.706625425699
 30
0.0
 11
51.66595789137454
 21
102.706625425699
 31
0.0
  0
LINE
  5
53A1
330
19
100
AcDbEntity
  8
UMRISS05
100
AcDbLine
 10
36.16595789137455
 20
151.706625425699
 30
0.0
 11
36.16595789137455
 21
102.706625425699
 31
0.0
  0
LINE
  5
53A2
330
19
100
AcDbEntity
  8
UMRISS05
100
AcDbLine
 10
51.66595789137454
 20
151.706625425699
 30
0.0
 11
36.16595789137455
 21
151.706625425699
 31
0.0
  0
CIRCLE
  5
53A3
330
19
100
AcDbEntity
  8
UMRISS05
100
AcDbCircle
 10
28.66595789137455
 20
85.20662542569949
 30
0.0
 40
3.25
  0
CIRCLE
  5
53A4
330
19
100
AcDbEntity
  8
UMRISS05
100
AcDbCircle
 10
24.66595789137455
 20
236.2066254256991
 30
0.0
 40
3.25
  0
CIRCLE
  5
53A5
330
19
100
AcDbEntity
  8
UMRISS05
100
AcDbCircle
 10
25.16595789137455
 20
203.206625425699
 30
0.0
 40
3.25
  0
CIRCLE
  5
53A6
330
19
100
AcDbEntity
  8
UMRISS05
100
AcDbCircle
 10
38.76595789137491
 20
158.1066254256991
 30
0.0
 40
3.25
  0
CIRCLE
  5
53A7
330
19
100
AcDbEntity
  8
UMRISS05
100
AcDbCircle
 10
43.66595789137455
 20
187.206625425699
 30
0.0
 40
3.25
  0
ARC
  5
53A8
330
19
100
AcDbEntity
  8
UMRISS05
100
AcDbCircle
 10
26.16595789137455
 20
155.706625425699
 30
0.0
 40
27.99999999999999
100
AcDbArc
 50
268.6590538825407
 51
285.7947765070793
  0
ARC
  5
53A9
330
19
100
AcDbEntity
  8
UMRISS05
100
AcDbCircle
 10
25.52240871197455
 20
128.2141565577765
 30
0.0
 40
0.4999999999999899
100
AcDbArc
 50
175.9416325345141
 51
268.6590538825407
  0
LINE
  5
53AA
330
19
100
AcDbEntity
  8
UMRISS05
100
AcDbLine
 10
25.44891019777742
 20
134.2431200524777
 30
0.0
 11
25.02366247626151
 21
128.2495428879313
 31
0.0
  0
ARC
  5
53AB
330
19
100
AcDbEntity
  8
UMRISS05
100
AcDbCircle
 10
25.94765643349138
 20
134.2077337223233
 30
0.0
 40
0.5000000000000174
100
AcDbArc
 50
89.41823408733865
 51
175.9416325345141
  0
ARC
  5
53AC
330
19
100
AcDbEntity
  8
UMRISS05
100
AcDbCircle
 10
26.16595789137455
 20
155.7066254256976
 30
0.0
 40
20.99999999999836
100
AcDbArc
 50
269.4182340873386
 51
285.8083434064401
  0
ARC
  5
53AD
330
19
100
AcDbEntity
  8
UMRISS05
100
AcDbCircle
 10
32.02299567982891
 20
135.0197912468154
 30
0.0
 40
0.5000000000000174
100
AcDbArc
 50
15.74616180128587
 51
105.80834340644
  0
LINE
  5
53AE
330
19
100
AcDbEntity
  8
UMRISS05
100
AcDbLine
 10
34.13248898931807
 20
129.3806360682899
 30
0.0
 11
32.50423238876602
 21
135.1554792343884
 31
0.0
  0
ARC
  5
53AF
330
19
100
AcDbEntity
  8
UMRISS05
100
AcDbCircle
 10
33.65125228038187
 20
129.2449480807179
 30
0.0
 40
0.4999999999999587
100
AcDbArc
 50
285.7947765070319
 51
15.74616180128587
  0
CIRCLE
  5
53B0
330
19
100
AcDbEntity
  8
UMRISS05
100
AcDbCircle
 10
24.66595789137455
 20
187.206625425699
 30
0.0
 40
9.050000000000002
  0
LINE
  5
53B1
330
19
100
AcDbEntity
  8
UMRISS05
100
AcDbLine
 10
51.66595789137454
 20
258.7066254256986
 30
0.0
 11
51.66595789137454
 21
265.2066254256986
 31
0.0
  0
LINE
  5
53B2
330
19
100
AcDbEntity
  8
UMRISS05
100
AcDbLine
 10
51.66595789137454
 20
30.20662542569949
 30
0.0
 11
51.66595789137227
 21
102.706625425699
 31
0.0
  0
LINE
  5
53B3
330
19
100
AcDbEntity
  8
UMRISS05
100
AcDbLine
 10
51.6659578913709
 20
151.7066254256994
 30
0.0
 11
51.66595789136954
 21
195.706625425699
 31
0.0
  0
ARC
  5
53B4
330
19
100
AcDbEntity
  8
UMRISS05
100
AcDbCircle
 10
31.66595789137455
 20
53.35293255927422
 30
0.0
 40
2.000000000000011
100
AcDbArc
 50
153.1964344455011
 51
180.0
  0
ARC
  5
53B5
330
19
100
AcDbEntity
  8
UMRISS05
100
AcDbCircle
 10
29.71595789137473
 20
58.36368125194599
 30
0.0
 40
1.999999999999975
100
AcDbArc
 50
333.1964344455012
 51
0.0
  0
ARC
  5
53B6
330
19
100
AcDbEntity
  8
UMRISS05
100
AcDbCircle
 10
23.61595789137528
 20
60.75026750729034
 30
0.0
 40
1.999999999999986
100
AcDbArc
 50
278.6269265587103
 51
0.0
  0
LINE
  5
53B7
330
19
100
AcDbEntity
  8
UMRISS05
100
AcDbLine
 10
35.66595789137455
 20
18.61946553064194
 30
0.0
 11
35.66595789137455
 21
44.08714828057941
 31
0.0
  0
ARC
  5
53B8
330
19
100
AcDbEntity
  8
UMRISS05
100
AcDbCircle
 10
30.66595789137364
 20
18.61946553064194
 30
0.0
 40
5.000000000001353
100
AcDbArc
 50
270.0
 51
0.0
  0
LINE
  5
53B9
330
19
100
AcDbEntity
  8
Sichtbare Kanten(MSL)
100
AcDbLine
 10
18.66595789137636
 20
13.61946553064058
 30
0.0
 11
19.66595789137454
 21
13.61946553064058
 31
0.0
  0
LINE
  5
53BA
330
19
100
AcDbEntity
  8
UMRISS05
100
AcDbLine
 10
29.66595789137455
 20
13.61946553064058
 30
0.0
 11
30.66595789137364
 21
13.61946553064058
 31
0.0
  0
ARC
  5
53BB
330
19
100
AcDbEntity
  8
UMRISS05
100
AcDbCircle
 10
18.66595789137636
 20
18.61946553064194
 30
0.0
 40
5.000000000001358
100
AcDbArc
 50
180.0
 51
270.0
  0
LINE
  5
53BC
330
19
100
AcDbEntity
  8
UMRISS05
100
AcDbLine
 10
13.66595789137454
 20
65.20662542569858
 30
0.0
 11
13.66595789137454
 21
18.61946553064194
 31
0.0
  0
LINE
  5
53BD
330
19
100
AcDbEntity
  8
UMRISS05
100
AcDbLine
 10
26.16595789137455
 20
127.706625425699
 30
0.0
 11
26.16595789137455
 21
134.706625425699
 31
0.0
  0
LINE
  5
53BE
330
19
100
AcDbEntity
  8
UMRISS05
100
AcDbLine
 10
38.66595789137455
 20
45.08714828057941
 30
0.0
 11
38.66595789137455
 21
65.20662542569858
 31
0.0
  0
ARC
  5
53BF
330
19
100
AcDbEntity
  8
UMRISS05
100
AcDbCircle
 10
38.16595789137455
 20
45.08714828057941
 30
0.0
 40
0.5000000000000254
100
AcDbArc
 50
270.0
 51
0.0
  0
LINE
  5
53C0
330
19
100
AcDbEntity
  8
UMRISS05
100
AcDbLine
 10
36.16595789137455
 20
44.58714828057941
 30
0.0
 11
38.16595789137455
 21
44.58714828057941
 31
0.0
  0
ARC
  5
53C1
330
19
100
AcDbEntity
  8
UMRISS05
100
AcDbCircle
 10
36.16595789137455
 20
44.08714828057941
 30
0.0
 40
0.5000000000000275
100
AcDbArc
 50
90.0
 51
180.0
  0
LINE
  5
53C2
330
19
100
AcDbEntity
  8
UMRISS05
100
AcDbLine
 10
31.71595789137473
 20
58.36368125194599
 30
0.0
 11
31.71595789137473
 21
65.20662542569858
 31
0.0
  0
LINE
  5
53C3
330
19
100
AcDbEntity
  8
UMRISS05
100
AcDbLine
 10
25.61595789137527
 20
65.20662542569858
 30
0.0
 11
25.61595789137527
 21
60.75026750729034
 31
0.0
  0
ARC
  5
53C4
330
19
100
AcDbEntity
  8
UMRISS05
100
AcDbCircle
 10
24.66595789137455
 20
53.82946553064062
 30
0.0
 40
5.000000000000016
100
AcDbArc
 50
98.62692655865778
 51
180.0
  0
LINE
  5
53C5
330
19
100
AcDbEntity
  8
UMRISS05
100
AcDbLine
 10
19.66595789137454
 20
53.82946553064062
 30
0.0
 11
19.66595789137454
 21
31.82946553064062
 31
0.0
  0
ARC
  5
53C6
330
19
100
AcDbEntity
  8
UMRISS05
100
AcDbCircle
 10
24.66595789137455
 20
31.82946553064062
 30
0.0
 40
5.000000000000002
100
AcDbArc
 50
180.0
 51
0.0
  0
LINE
  5
53C7
330
19
100
AcDbEntity
  8
UMRISS05
100
AcDbLine
 10
29.66595789137455
 20
31.82946553064062
 30
0.0
 11
29.66595789137455
 21
53.35293255927422
 31
0.0
  0
LINE
  5
53C8
330
19
100
AcDbEntity
  8
UMRISS05
100
AcDbLine
 10
29.88084237474641
 20
54.25479873132622
 30
0.0
 11
31.50107340800378
 21
57.46181507989399
 31
0.0
  0
ARC
  5
53C9
330
19
100
AcDbEntity
  8
UMRISS05
100
AcDbCircle
 10
24.66595789137455
 20
291.7761025708212
 30
0.0
 40
5.0
100
AcDbArc
 50
0.0
 51
180.0
  0
LINE
  5
53CA
330
19
100
AcDbEntity
  8
UMRISS05
100
AcDbLine
 10
29.66595789137455
 20
265.206625425699
 30
0.0
 11
29.66595789137455
 21
291.7761025708212
 31
0.0
  0
LINE
  5
53CB
330
19
100
AcDbEntity
  8
UMRISS05
100
AcDbLine
 10
19.66595789137454
 20
291.7761025708212
 30
0.0
 11
19.66595789137454
 21
265.206625425699
 31
0.0
  0
CIRCLE
  5
53CC
330
19
100
AcDbEntity
  8
UMRISS05
100
AcDbCircle
 10
24.66595789137455
 20
305.7761025708212
 30
0.0
 40
2.6
  0
LINE
  5
53CD
330
19
100
AcDbEntity
  8
UMRISS05
100
AcDbLine
 10
13.66595789137454
 20
306.7761025708212
 30
0.0
 11
13.66595789137454
 21
265.206625425699
 31
0.0
  0
ARC
  5
53CE
330
19
100
AcDbEntity
  8
UMRISS05
100
AcDbCircle
 10
18.66595789137454
 20
306.7761025708212
 30
0.0
 40
5.0
100
AcDbArc
 50
90.0
 51
180.0
  0
LINE
  5
53CF
330
19
100
AcDbEntity
  8
UMRISS05
100
AcDbLine
 10
30.66595789137455
 20
311.7761025708212
 30
0.0
 11
29.665883815494
 21
311.7761025708212
 31
0.0
  0
LINE
  5
53D0
330
19
100
AcDbEntity
  8
UMRISS05
100
AcDbLine
 10
19.66588381473184
 20
311.7761025708212
 30
0.0
 11
18.66595789137454
 21
311.7761025708212
 31
0.0
  0
ARC
  5
53D1
330
19
100
AcDbEntity
  8
UMRISS05
100
AcDbCircle
 10
30.66595789137455
 20
306.7761025708212
 30
0.0
 40
5.000000000000012
100
AcDbArc
 50
0.0
 51
90.0
  0
LINE
  5
53D2
330
19
100
AcDbEntity
  8
UMRISS05
100
AcDbLine
 10
35.66595789137455
 20
265.206625425699
 30
0.0
 11
35.66595789137455
 21
306.7761025708212
 31
0.0
  0
CIRCLE
  5
53D3
330
19
100
AcDbEntity
  8
UMRISS05
100
AcDbCircle
 10
24.66595789137455
 20
165.706625425699
 30
0.0
 40
5.099999999999952
  0
CIRCLE
  5
53D4
330
19
100
AcDbEntity
  8
UMRISS05
100
AcDbCircle
 10
24.66595789137455
 20
165.706625425699
 30
0.0
 40
4.749999999999955
  0
LINE
  5
53D5
330
19
100
AcDbEntity
  8
UMRISS05
100
AcDbLine
 10
29.66595789137455
 20
24.70746346009105
 30
0.0
 11
19.66595789137454
 21
24.70746346009105
 31
0.0
  0
LINE
  5
53D6
330
19
100
AcDbEntity
  8
UMRISS05
100
AcDbLine
 10
29.66595789137455
 20
-0.7925365399089515
 30
0.0
 11
19.66595789137454
 21
-0.7925365399089515
 31
0.0
  0
LINE
  5
53D7
330
19
100
AcDbEntity
  8
UMRISS05
100
AcDbLine
 10
19.66595789137454
 20
-0.7925365399089515
 30
0.0
 11
19.66595789137454
 21
24.70746346009105
 31
0.0
  0
LINE
  5
53D8
330
19
100
AcDbEntity
  8
UMRISS05
100
AcDbLine
 10
29.66595789137455
 20
-0.7925365399089515
 30
0.0
 11
29.66595789137455
 21
24.70746346009105
 31
0.0
  0
CIRCLE
  5
53D9
330
19
100
AcDbEntity
  8
UMRISS05
100
AcDbCircle
 10
24.66595789137455
 20
18.70746346009105
 30
0.0
 40
2.549999999999999
  0
LINE
  5
53DA
330
19
100
AcDbEntity
  8
UMRISS05
100
AcDbLine
 10
25.23826985171536
 20
203.7598555614538
 30
0.0
 11
24.26080468432565
 21
205.0265685702054
 31
0.0
  0
LINE
  5
53DB
330
19
100
AcDbEntity
  8
UMRISS05
100
AcDbLine
 10
26.70446760279947
 20
201.8597860483267
 30
0.0
 11
25.72700243540976
 21
203.1264990570778
 31
0.0
  0
LINE
  5
53DC
330
19
100
AcDbEntity
  8
UMRISS05
100
AcDbLine
 10
23.62744817994963
 20
204.5378359865106
 30
0.0
 11
24.60491334733934
 21
203.2711229777594
 31
0.0
  0
LINE
  5
53DD
330
19
100
AcDbEntity
  8
UMRISS05
100
AcDbLine
 10
25.09364593103374
 20
202.6377664733834
 30
0.0
 11
26.07111109842345
 21
201.3710534646318
 31
0.0
  0
LINE
  5
53DE
330
19
100
AcDbEntity
  8
UMRISS05
100
AcDbLine
 10
25.17717827875322
 20
203.8390251245007
 30
0.0
 11
24.54382177437719
 21
203.3502925408063
 31
0.0
  0
LINE
  5
53DF
330
19
100
AcDbEntity
  8
UMRISS05
100
AcDbLine
 10
24.26080468432565
 20
205.0265685702054
 30
0.0
 11
23.62744817994963
 21
204.5378359865106
 31
0.0
  0
LINE
  5
53E0
330
19
100
AcDbEntity
  8
UMRISS05
100
AcDbLine
 10
26.07111109842345
 20
201.3710534646318
 30
0.0
 11
26.70446760279947
 21
201.8597860483267
 31
0.0
  0
LINE
  5
53E1
330
19
100
AcDbEntity
  8
UMRISS05
100
AcDbLine
 10
25.15473750399588
 20
202.5585969103365
 30
0.0
 11
25.7880940083719
 21
203.0473294940309
 31
0.0
  0
LINE
  5
53E2
330
19
100
AcDbEntity
  8
UMRISS05
100
AcDbLine
 10
23.82693292228259
 20
201.6603013059937
 30
0.0
 11
25.09364593103374
 21
202.6377664733834
 31
0.0
  0
LINE
  5
53E3
330
19
100
AcDbEntity
  8
UMRISS05
100
AcDbLine
 10
25.72700243540976
 20
203.1264990570778
 30
0.0
 11
26.9937154441609
 21
204.1039642244675
 31
0.0
  0
LINE
  5
53E4
330
19
100
AcDbEntity
  8
UMRISS05
100
AcDbLine
 10
25.80617199845756
 20
203.1875906300399
 30
0.0
 11
25.31743941476225
 21
203.8209471344155
 31
0.0
  0
LINE
  5
53E5
330
19
100
AcDbEntity
  8
UMRISS05
100
AcDbLine
 10
24.52574378429245
 20
203.2100314047973
 30
0.0
 11
25.01447636798685
 21
202.5766749004213
 31
0.0
  0
LINE
  5
53E6
330
19
100
AcDbEntity
  8
UMRISS05
100
AcDbLine
 10
24.60491334733934
 20
203.2711229777594
 30
0.0
 11
23.33820033858819
 21
202.2936578103697
 31
0.0
  0
LINE
  5
53E7
330
19
100
AcDbEntity
  8
UMRISS05
100
AcDbLine
 10
26.50498286046741
 20
204.7373207288436
 30
0.0
 11
25.23826985171536
 21
203.7598555614538
 31
0.0
  0
LINE
  5
53E8
330
19
100
AcDbEntity
  8
UMRISS05
100
AcDbLine
 10
26.9937154441609
 20
204.1039642244675
 30
0.0
 11
26.50498286046741
 21
204.7373207288436
 31
0.0
  0
LINE
  5
53E9
330
19
100
AcDbEntity
  8
UMRISS05
100
AcDbLine
 10
23.33820033858819
 20
202.2936578103697
 30
0.0
 11
23.82693292228259
 21
201.6603013059941
 31
0.0
  0
CIRCLE
  5
53EA
330
19
100
AcDbEntity
  8
UMRISS05
100
AcDbCircle
 10
25.16595789137455
 20
203.1988110174186
 30
0.0
 40
2.999999999999971
  0
LINE
  5
53EB
330
19
100
AcDbEntity
  8
UMRISS05
100
AcDbLine
 10
24.72833881460201
 20
236.7688608038259
 30
0.0
 11
23.72862990480144
 21
238.0180934065331
 31
0.0
  0
LINE
  5
53EC
330
19
100
AcDbEntity
  8
UMRISS05
100
AcDbLine
 10
26.22790217930151
 20
234.8950118997652
 30
0.0
 11
25.22819326950184
 21
236.144244502472
 31
0.0
  0
LINE
  5
53ED
330
19
100
AcDbEntity
  8
UMRISS05
100
AcDbLine
 10
23.10401360344759
 20
237.5182389516333
 30
0.0
 11
24.10372251324816
 21
236.269006348926
 31
0.0
  0
LINE
  5
53EE
330
19
100
AcDbEntity
  8
UMRISS05
100
AcDbLine
 10
24.60357696814799
 20
235.6443900475722
 30
0.0
 11
25.60328587794766
 21
234.3951574448654
 31
0.0
  0
LINE
  5
53EF
330
19
100
AcDbEntity
  8
UMRISS05
100
AcDbLine
 10
24.66585700773931
 20
236.8469378414955
 30
0.0
 11
24.04124070638545
 21
236.3470833865952
 31
0.0
  0
LINE
  5
53F0
330
19
100
AcDbEntity
  8
UMRISS05
100
AcDbLine
 10
23.72862990480144
 20
238.0180934065331
 30
0.0
 11
23.10401360344759
 21
237.5182389516333
 31
0.0
  0
LINE
  5
53F1
330
19
100
AcDbEntity
  8
UMRISS05
100
AcDbLine
 10
25.60328587794766
 20
234.3951574448654
 30
0.0
 11
26.22790217930151
 21
234.8950118997652
 31
0.0
  0
LINE
  5
53F2
330
19
100
AcDbEntity
  8
UMRISS05
100
AcDbLine
 10
24.66605877500979
 20
235.5663130099035
 30
0.0
 11
25.29067507636455
 21
236.0661674648034
 31
0.0
  0
LINE
  5
53F3
330
19
100
AcDbEntity
  8
UMRISS05
100
AcDbLine
 10
23.35434436544119
 20
234.6446811377725
 30
0.0
 11
24.60357696814799
 21
235.6443900475722
 31
0.0
  0
LINE
  5
53F4
330
19
100
AcDbEntity
  8
UMRISS05
100
AcDbLine
 10
25.22819326950184
 20
236.144244502472
 30
0.0
 11
26.47742587220864
 21
237.1439534122721
 31
0.0
  0
LINE
  5
53F5
330
19
100
AcDbEntity
  8
UMRISS05
100
AcDbLine
 10
25.30627030717142
 20
236.2067263093347
 30
0.0
 11
24.80641585227068
 21
236.8313426106886
 31
0.0
  0
LINE
  5
53F6
330
19
100
AcDbEntity
  8
UMRISS05
100
AcDbLine
 10
24.02564547557858
 20
236.2065245420633
 30
0.0
 11
24.52549993047933
 21
235.5819082407099
 31
0.0
  0
LINE
  5
53F7
330
19
100
AcDbEntity
  8
UMRISS05
100
AcDbLine
 10
24.10372251324816
 20
236.269006348926
 30
0.0
 11
22.85448991054136
 21
235.2692974391264
 31
0.0
  0
LINE
  5
53F8
330
19
100
AcDbEntity
  8
UMRISS05
100
AcDbLine
 10
25.97757141730881
 20
237.768569713626
 30
0.0
 11
24.72833881460201
 21
236.7688608038259
 31
0.0
  0
LINE
  5
53F9
330
19
100
AcDbEntity
  8
UMRISS05
100
AcDbLine
 10
26.47742587220864
 20
237.1439534122721
 30
0.0
 11
25.97757141730881
 21
237.768569713626
 31
0.0
  0
LINE
  5
53FA
330
19
100
AcDbEntity
  8
UMRISS05
100
AcDbLine
 10
22.85448991054136
 20
235.2692974391264
 30
0.0
 11
23.35434436544119
 21
234.6446811377725
 31
0.0
  0
CIRCLE
  5
53FB
330
19
100
AcDbEntity
  8
UMRISS05
100
AcDbCircle
 10
24.66595789137455
 20
236.2066254256995
 30
0.0
 40
2.999999999999948
  0
LINE
  5
53FC
330
19
100
AcDbEntity
  8
UMRISS05
100
AcDbLine
 10
28.78674968263795
 20
84.65398689721656
 30
0.0
 11
30.13361032213061
 21
83.7902934227784
 31
0.0
  0
LINE
  5
53FD
330
19
100
AcDbEntity
  8
UMRISS05
100
AcDbLine
 10
26.76645872340078
 20
85.94952710887424
 30
0.0
 11
28.11331936289162
 21
85.08583363443563
 31
0.0
  0
LINE
  5
53FE
330
19
100
AcDbEntity
  8
UMRISS05
100
AcDbLine
 10
30.56545705934923
 20
84.46372374252382
 30
0.0
 11
29.21859641985748
 21
85.32741721696243
 31
0.0
  0
LINE
  5
53FF
330
19
100
AcDbEntity
  8
UMRISS05
100
AcDbLine
 10
28.54516610011115
 20
85.7592639541815
 30
0.0
 11
27.1983054606194
 21
86.62295742861966
 31
0.0
  0
LINE
  5
5400
330
19
100
AcDbEntity
  8
UMRISS05
100
AcDbLine
 10
28.87092847260601
 20
84.60000605506388
 30
0.0
 11
29.30277520982554
 21
85.27343637481022
 31
0.0
  0
LINE
  5
5401
330
19
100
AcDbEntity
  8
UMRISS05
100
AcDbLine
 10
30.13361032213061
 20
83.7902934227784
 30
0.0
 11
30.56545705934923
 21
84.46372374252382
 31
0.0
  0
LINE
  5
5402
330
19
100
AcDbEntity
  8
UMRISS05
100
AcDbLine
 10
27.1983054606194
 20
86.62295742861966
 30
0.0
 11
26.76645872340078
 21
85.94952710887424
 31
0.0
  0
LINE
  5
5403
330
19
100
AcDbEntity
  8
UMRISS05
100
AcDbLine
 10
28.46098731014308
 20
85.81324479633417
 30
0.0
 11
28.02914057292355
 21
85.13981447658784
 31
0.0
  0
LINE
  5
5404
330
19
100
AcDbEntity
  8
UMRISS05
100
AcDbLine
 10
29.40885957455021
 20
87.10612459367325
 30
0.0
 11
28.54516610011115
 21
85.7592639541815
 31
0.0
  0
LINE
  5
5405
330
19
100
AcDbEntity
  8
UMRISS05
100
AcDbLine
 10
28.11331936289162
 20
85.08583363443563
 30
0.0
 11
27.24962588845438
 21
83.73897299494343
 31
0.0
  0
LINE
  5
5406
330
19
100
AcDbEntity
  8
UMRISS05
100
AcDbLine
 10
28.05933852073986
 20
85.00165484446757
 30
0.0
 11
28.73276884048528
 21
84.56980810724848
 31
0.0
  0
LINE
  5
5407
330
19
100
AcDbEntity
  8
UMRISS05
100
AcDbLine
 10
29.27257726201015
 20
85.41159600693095
 30
0.0
 11
28.59914694226382
 21
85.84344274414958
 31
0.0
  0
LINE
  5
5408
330
19
100
AcDbEntity
  8
UMRISS05
100
AcDbLine
 10
29.21859641985748
 20
85.32741721696243
 30
0.0
 11
30.08228989429563
 21
86.67427785645463
 31
0.0
  0
LINE
  5
5409
330
19
100
AcDbEntity
  8
UMRISS05
100
AcDbLine
 10
27.9230562081998
 20
83.30712625772481
 30
0.0
 11
28.78674968263795
 21
84.65398689721656
 31
0.0
  0
LINE
  5
540A
330
19
100
AcDbEntity
  8
UMRISS05
100
AcDbLine
 10
27.24962588845438
 20
83.73897299494343
 30
0.0
 11
27.9230562081998
 21
83.30712625772481
 31
0.0
  0
LINE
  5
540B
330
19
100
AcDbEntity
  8
UMRISS05
100
AcDbLine
 10
30.08228989429563
 20
86.67427785645418
 30
0.0
 11
29.40885957455021
 21
87.10612459367325
 31
0.0
  0
CIRCLE
  5
540C
330
19
100
AcDbEntity
  8
UMRISS05
100
AcDbCircle
 10
28.66595789137455
 20
85.20662542569903
 30
0.0
 40
2.999999999999949
  0
LINE
  5
540D
330
19
100
AcDbEntity
  8
UMRISS05
100
AcDbLine
 10
38.73129204243332
 20
158.6712476701398
 30
0.0
 11
37.53271585566972
 21
159.7311604611388
 31
0.0
  0
LINE
  5
540E
330
19
100
AcDbEntity
  8
UMRISS05
100
AcDbLine
 10
40.52915632257873
 20
157.0813784836412
 30
0.0
 11
39.33058013581604
 21
158.1412912746402
 31
0.0
  0
LINE
  5
540F
330
19
100
AcDbEntity
  8
UMRISS05
100
AcDbLine
 10
37.00275946017018
 20
159.131872367757
 30
0.0
 11
38.20133564693378
 21
158.071959576758
 31
0.0
  0
LINE
  5
5410
330
19
100
AcDbEntity
  8
UMRISS05
100
AcDbLine
 10
38.8006237403165
 20
157.5420031812584
 30
0.0
 11
39.99919992707919
 21
156.4820903902593
 31
0.0
  0
LINE
  5
5411
330
19
100
AcDbEntity
  8
UMRISS05
100
AcDbLine
 10
38.65638103076117
 20
158.7374922195774
 30
0.0
 11
38.12642463526163
 21
158.1382041261956
 31
0.0
  0
LINE
  5
5412
330
19
100
AcDbEntity
  8
UMRISS05
100
AcDbLine
 10
37.53271585566972
 20
159.7311604611388
 30
0.0
 11
37.00275946017018
 21
159.131872367757
 31
0.0
  0
LINE
  5
5413
330
19
100
AcDbEntity
  8
UMRISS05
100
AcDbLine
 10
39.99919992707919
 20
156.4820903902593
 30
0.0
 11
40.52915632257873
 21
157.0813784836412
 31
0.0
  0
LINE
  5
5414
330
19
100
AcDbEntity
  8
UMRISS05
100
AcDbLine
 10
38.87553475198865
 20
157.4757586318208
 30
0.0
 11
39.40549114748819
 21
158.0750467252026
 31
0.0
  0
LINE
  5
5415
330
19
100
AcDbEntity
  8
UMRISS05
100
AcDbLine
 10
37.74071094931651
 20
156.3434269944953
 30
0.0
 11
38.8006237403165
 21
157.5420031812584
 31
0.0
  0
LINE
  5
5416
330
19
100
AcDbEntity
  8
UMRISS05
100
AcDbLine
 10
39.33058013581604
 20
158.1412912746402
 30
0.0
 11
40.39049292681511
 21
159.3398674614034
 31
0.0
  0
LINE
  5
5417
330
19
100
AcDbEntity
  8
UMRISS05
100
AcDbLine
 10
39.39682468525234
 20
158.2162022863128
 30
0.0
 11
38.79753659187145
 21
158.7461586818124
 31
0.0
  0
LINE
  5
5418
330
19
100
AcDbEntity
  8
UMRISS05
100
AcDbLine
 10
38.13509109749657
 20
157.9970485650854
 30
0.0
 11
38.73437919087837
 21
157.4670921695858
 31
0.0
  0
LINE
  5
5419
330
19
100
AcDbEntity
  8
UMRISS05
100
AcDbLine
 10
38.20133564693378
 20
158.071959576758
 30
0.0
 11
37.14142285593471
 21
156.8733833899948
 31
0.0
  0
LINE
  5
541A
330
19
100
AcDbEntity
  8
UMRISS05
100
AcDbLine
 10
39.7912048334324
 20
159.8698238569029
 30
0.0
 11
38.73129204243332
 21
158.6712476701398
 31
0.0
  0
LINE
  5
541B
330
19
100
AcDbEntity
  8
UMRISS05
100
AcDbLine
 10
40.39049292681511
 20
159.3398674614034
 30
0.0
 11
39.7912048334324
 21
159.8698238569029
 31
0.0
  0
LINE
  5
541C
330
19
100
AcDbEntity
  8
UMRISS05
100
AcDbLine
 10
37.14142285593471
 20
156.8733833899948
 30
0.0
 11
37.74071094931651
 21
156.3434269944953
 31
0.0
  0
CIRCLE
  5
541D
330
19
100
AcDbEntity
  8
UMRISS05
100
AcDbCircle
 10
38.76595789137491
 20
158.1066254256991
 30
0.0
 40
2.999999999999951
  0
LINE
  5
541E
330
19
100
AcDbEntity
  8
UMRISS05
100
AcDbLine
 10
25.5337403232993
 20
17.13045564437084
 30
0.0
 11
25.89958087344849
 21
16.46561917653275
 31
0.0
  0
LINE
  5
541F
330
19
100
AcDbEntity
  8
UMRISS05
100
AcDbLine
 10
26.41834866464296
 20
16.84284070162516
 30
0.0
 11
25.89866346593544
 21
17.3958091739139
 31
0.0
  0
ARC
  5
5420
330
19
100
AcDbEntity
  8
UMRISS05
100
AcDbCircle
 10
24.66595789137455
 20
18.70746346009105
 30
0.0
 40
2.558845726812008
100
AcDbArc
 50
313.2227446782029
 51
298.8227347306633
  0
ARC
  5
5421
330
19
100
AcDbEntity
  8
UMRISS05
100
AcDbCircle
 10
24.66595789137455
 20
18.70746346009105
 30
0.0
 40
1.800000000000009
100
AcDbArc
 50
313.2227446782029
 51
298.8227347306633
  0
LINE
  5
5422
330
19
100
AcDbEntity
  8
UMRISS05
100
AcDbLine
 10
25.16595789137455
 20
127.8635245391399
 30
0.0
 11
25.16595789137455
 21
130.2550999020802
 31
0.0
  0
LINE
  5
5423
330
19
100
AcDbEntity
  8
UMRISS05
100
AcDbLine
 10
20.16595789137546
 20
191.7066254256995
 30
0.0
 11
29.16595789137545
 21
191.706625425699
 31
0.0
  0
LINE
  5
5424
330
19
100
AcDbEntity
  8
UMRISS05
100
AcDbLine
 10
20.16595789137546
 20
182.706625425699
 30
0.0
 11
20.16595789137546
 21
191.7066254256995
 31
0.0
  0
LINE
  5
5425
330
19
100
AcDbEntity
  8
UMRISS05
100
AcDbLine
 10
29.16595789137455
 20
182.706625425699
 30
0.0
 11
20.16595789137546
 21
182.706625425699
 31
0.0
  0
LINE
  5
5426
330
19
100
AcDbEntity
  8
UMRISS05
100
AcDbLine
 10
29.16595789137545
 20
191.706625425699
 30
0.0
 11
29.16595789137455
 21
182.706625425699
 31
0.0
  0
CIRCLE
  5
5427
330
19
100
AcDbEntity
  8
UMRISS05
100
AcDbCircle
 10
24.66595789137455
 20
187.206625425699
 30
0.0
 40
7.999999999999993
  0
CIRCLE
  5
5428
330
19
100
AcDbEntity
  8
UMRISS05
100
AcDbCircle
 10
24.66595789137455
 20
187.206625425699
 30
0.0
 40
7.099999999999995
  0
LINE
  5
5429
330
19
100
AcDbEntity
  8
UMRISS05
100
AcDbLine
 10
29.2248147568821
 20
128.3190939114072
 30
0.0
 11
29.28070503152276
 21
129.3175308283933
 31
0.0
  0
LINE
  5
542A
330
19
100
AcDbEntity
  8
UMRISS05
100
AcDbLine
 10
29.2248147568821
 20
128.3190939114072
 30
0.0
 11
26.72872246441648
 21
128.4588195980066
 31
0.0
  0
LINE
  5
542B
330
19
100
AcDbEntity
  8
UMRISS05
100
AcDbLine
 10
26.78461273905623
 20
129.4572565149931
 30
0.0
 11
26.72872246441648
 21
128.4588195980066
 31
0.0
  0
LINE
  5
542C
330
19
100
AcDbEntity
  8
UMRISS05
100
AcDbLine
 10
27.05488253978501
 20
134.2854193453252
 30
0.0
 11
27.07957372830743
 21
134.7265085026868
 31
0.0
  0
LINE
  5
542D
330
19
100
AcDbEntity
  8
UMRISS05
100
AcDbLine
 10
27.05488253978501
 20
134.2854193453252
 30
0.0
 11
26.99899226514526
 21
133.2869824283386
 31
0.0
  0
LINE
  5
542E
330
19
100
AcDbEntity
  8
UMRISS05
100
AcDbLine
 10
29.49508455761088
 20
133.1472567417393
 30
0.0
 11
29.55097483225063
 21
134.1456936587253
 31
0.0
  0
LINE
  5
542F
330
19
100
AcDbEntity
  8
UMRISS05
100
AcDbLine
 10
27.05488253978501
 20
134.2854193453252
 30
0.0
 11
29.55097483225063
 21
134.1456936587253
 31
0.0
  0
LINE
  5
5430
330
19
100
AcDbEntity
  8
UMRISS05
100
AcDbLine
 10
29.59715986254969
 20
134.9707538245618
 30
0.0
 11
29.55097483225063
 21
134.1456936587253
 31
0.0
  0
LINE
  5
5431
330
19
100
AcDbEntity
  8
UMRISS05
100
AcDbLine
 10
26.99899226514435
 20
133.2869824283386
 30
0.0
 11
26.78461273905623
 21
129.4572565149931
 31
0.0
  0
LINE
  5
5432
330
19
100
AcDbEntity
  8
UMRISS05
100
AcDbLine
 10
29.49508455761088
 20
133.1472567417393
 30
0.0
 11
29.28070503152276
 21
129.3175308283933
 31
0.0
  0
LINE
  5
5433
330
19
100
AcDbEntity
  8
UMRISS05
100
AcDbLine
 10
29.59715986254969
 20
134.9707538245618
 30
0.0
 11
29.5981814615493
 21
134.9890039076515
 31
0.0
  0
LINE
  5
5434
330
19
100
AcDbEntity
  8
UMRISS05
100
AcDbLine
 10
26.72872246441648
 20
128.4588195980066
 30
0.0
 11
26.67880061856749
 21
128.4616141117387
 31
0.0
  0
LINE
  5
5435
330
19
100
AcDbEntity
  8
UMRISS05
100
AcDbLine
 10
26.16595789137273
 20
128.4903219052732
 30
0.0
 11
26.67880061856749
 21
128.4616141117387
 31
0.0
  0
CIRCLE
  5
5436
330
19
100
AcDbEntity
  8
UMRISS05
100
AcDbCircle
 10
24.66595789137455
 20
187.206625425699
 30
0.0
 40
9.0
  0
CIRCLE
  5
5437
330
19
100
AcDbEntity
  8
UMRISS05
100
AcDbCircle
 10
24.66595789137455
 20
187.206625425699
 30
0.0
 40
8.05
  0
LINE
  5
5438
330
19
100
AcDbEntity
  8
Mittelpunktmarkierung(MSL)
  6
CHAIN
 48
10.31825447082519
100
AcDbLine
 10
34.07314671726044
 20
158.1066254256991
 30
0.0
 11
43.28389875192033
 21
158.1066254256991
 31
0.0
  0
LINE
  5
5439
330
19
100
AcDbEntity
  8
Mittelpunktmarkierung(MSL)
  6
CHAIN
 48
23.99096870422363
100
AcDbLine
 10
38.76595789137491
 20
162.7934954563855
 30
0.0
 11
38.76595789137491
 21
153.4606891819323
 31
0.0
  0
LINE
  5
543A
330
19
100
AcDbEntity
  8
Mittelpunktmarkierung(MSL)
  6
CHAIN
 48
10.31825447082519
100
AcDbLine
 10
18.66595789137454
 20
203.1988110174186
 30
0.0
 11
31.66595789137455
 21
203.1988110174186
 31
0.0
  0
LINE
  5
543B
330
19
100
AcDbEntity
  8
Mittelpunktmarkierung(MSL)
  6
CHAIN
 48
10.31825447082519
100
AcDbLine
 10
25.16595789137455
 20
209.6988110174186
 30
0.0
 11
25.16595789137455
 21
196.6988110174186
 31
0.0
  0
LINE
  5
543C
330
19
100
AcDbEntity
  8
Mittelpunktmarkierung(MSL)
  6
CHAIN
 48
13.65187644958496
100
AcDbLine
 10
16.06595789137509
 20
165.706625425699
 30
0.0
 11
33.26595789137491
 21
165.706625425699
 31
0.0
  0
LINE
  5
543D
330
19
100
AcDbEntity
  8
Mittelpunktmarkierung(MSL)
  6
CHAIN
 48
23.99096870422363
100
AcDbLine
 10
24.66595789137455
 20
198.1252624384972
 30
0.0
 11
24.66595789137455
 21
62.45344756220333
 31
0.0
  0
LINE
  5
543E
330
19
100
AcDbEntity
  8
Mittelpunktmarkierung(MSL)
  6
CHAIN
 48
10.31825447082519
100
AcDbLine
 10
22.16595789137455
 20
85.20662542569903
 30
0.0
 11
35.16595789137455
 21
85.20662542569903
 31
0.0
  0
LINE
  5
543F
330
19
100
AcDbEntity
  8
Mittelpunktmarkierung(MSL)
  6
CHAIN
 48
10.31825447082519
100
AcDbLine
 10
28.66595789137455
 20
91.70662542569903
 30
0.0
 11
28.66595789137455
 21
78.70662542569949
 31
0.0
  0
LINE
  5
5440
330
19
100
AcDbEntity
  8
Mittelpunktmarkierung(MSL)
  6
CHAIN
 48
9.603906631469726
100
AcDbLine
 10
18.61595789137527
 20
18.70746346009105
 30
0.0
 11
30.71595789137473
 21
18.70746346009105
 31
0.0
  0
LINE
  5
5441
330
19
100
AcDbEntity
  8
Mittelpunktmarkierung(MSL)
  6
CHAIN
 48
9.603906631469726
100
AcDbLine
 10
24.66595789137455
 20
24.75746346009123
 30
0.0
 11
24.66595789137455
 21
-7.783850465157456
 31
0.0
  0
LINE
  5
5442
330
19
100
AcDbEntity
  8
Mittelpunktmarkierung(MSL)
  6
CHAIN
 48
9.524535179138183
100
AcDbLine
 10
16.16595789137454
 20
53.82946553064062
 30
0.0
 11
28.16595789137455
 21
53.82946553064062
 31
0.0
  0
LINE
  5
5443
330
19
100
AcDbEntity
  8
Mittelpunktmarkierung(MSL)
  6
CHAIN
 48
23.99096870422363
100
AcDbLine
 10
24.66595789137455
 20
57.32946553064062
 30
0.0
 11
24.66595789137455
 21
50.32946553064062
 31
0.0
  0
LINE
  5
5444
330
19
100
AcDbEntity
  8
Mittelpunktmarkierung(MSL)
  6
CHAIN
 48
13.49313259124756
100
AcDbLine
 10
16.16595789137454
 20
31.82946553064062
 30
0.0
 11
33.16595789137455
 21
31.82946553064062
 31
0.0
  0
LINE
  5
5445
330
19
100
AcDbEntity
  8
Mittelpunktmarkierung(MSL)
  6
CHAIN
 48
23.99096870422363
100
AcDbLine
 10
24.66595789137455
 20
50.71161570560184
 30
0.0
 11
24.66595789137455
 21
25.11946553064059
 31
0.0
  0
LINE
  5
5446
330
19
100
AcDbEntity
  8
Mittelpunktmarkierung(MSL)
  6
CHAIN
 48
13.49313259124756
100
AcDbLine
 10
16.16595789137454
 20
291.7761025708212
 30
0.0
 11
33.16595789137455
 21
291.7761025708212
 31
0.0
  0
LINE
  5
5447
330
19
100
AcDbEntity
  8
Mittelpunktmarkierung(MSL)
  6
CHAIN
 48
23.99096870422363
100
AcDbLine
 10
24.66595789137455
 20
330.2049590640447
 30
0.0
 11
24.66595789137455
 21
259.0095848224649
 31
0.0
  0
LINE
  5
5448
330
19
100
AcDbEntity
  8
Mittelpunktmarkierung(MSL)
  6
CHAIN
 48
10.71511459350586
100
AcDbLine
 10
43.66595789137455
 20
193.956625425699
 30
0.0
 11
43.66595789137455
 21
180.456625425699
 31
0.0
  0
LINE
  5
5449
330
19
100
AcDbEntity
  8
Mittellinie(MSL)
  6
CHAIN
 48
23.99096870422363
100
AcDbLine
 10
33.16595789137455
 20
227.206625425699
 30
0.0
 11
60.08451275369726
 21
227.206625425699
 31
0.0
  0
LINE
  5
544A
330
19
100
AcDbEntity
  8
Mittellinie(MSL)
  6
CHAIN
 48
23.99096870422363
100
AcDbLine
 10
53.61595789137528
 20
127.206625425699
 30
0.0
 11
32.66595789137455
 21
127.206625425699
 31
0.0
  0
LINE
  5
544B
330
19
100
AcDbEntity
  8
Mittelpunktmarkierung(MSL)
  6
CHAIN
 48
10.31825447082519
100
AcDbLine
 10
18.16595789137454
 20
236.2066254256991
 30
0.0
 11
31.16595789137455
 21
236.2066254256991
 31
0.0
  0
LINE
  5
544C
330
19
100
AcDbEntity
  8
Mittelpunktmarkierung(MSL)
  6
CHAIN
 48
10.31825447082519
100
AcDbLine
 10
24.66595789137455
 20
242.706625425699
 30
0.0
 11
24.66595789137455
 21
229.706625425699
 31
0.0
  0
LINE
  5
544D
330
19
100
AcDbEntity
  8
UMRISS05
100
AcDbLine
 10
19.66603196801725
 20
299.7760408410602
 30
0.0
 11
29.666031967256
 21
299.7761643014971
 31
0.0
  0
LINE
  5
544E
330
19
100
AcDbEntity
  8
UMRISS05
100
AcDbLine
 10
19.66572331692578
 20
324.7760408391548
 30
0.0
 11
29.66572331616362
 21
324.7761642995917
 31
0.0
  0
LINE
  5
544F
330
19
100
AcDbEntity
  8
UMRISS05
100
AcDbLine
 10
29.66572331616362
 20
324.7761642995917
 30
0.0
 11
29.666031967256
 21
299.7761643014971
 31
0.0
  0
LINE
  5
5450
330
19
100
AcDbEntity
  8
UMRISS05
100
AcDbLine
 10
19.66572331692578
 20
324.7760408391548
 30
0.0
 11
19.66603196801725
 21
299.7760408410602
 31
0.0
  0
LINE
  5
5451
330
19
100
AcDbEntity
  8
UMRISS05
100
AcDbLine
 10
22.12728945524895
 20
305.4553939413088
 30
0.0
 11
22.88015144859264
 21
305.5505025953814
 31
0.0
  0
LINE
  5
5452
330
19
100
AcDbEntity
  8
UMRISS05
100
AcDbLine
 10
22.88015144859264
 20
306.0017025462601
 30
0.0
 11
22.12728945524895
 21
306.0968112003327
 31
0.0
  0
ARC
  5
5453
330
19
100
AcDbEntity
  8
UMRISS05
100
AcDbCircle
 10
24.66595789137455
 20
305.7761025708212
 30
0.0
 40
2.55884572681199
100
AcDbArc
 50
187.2000049737584
 51
172.7999950262153
  0
ARC
  5
5454
330
19
100
AcDbEntity
  8
UMRISS05
100
AcDbCircle
 10
24.66595789137455
 20
305.7761025708212
 30
0.0
 40
1.799999999999995
100
AcDbArc
 50
187.2000049737584
 51
172.7999950262416
  0
DIMENSION
  5
5455
330
19
100
AcDbEntity
  8
BEMASSUNG
100
AcDbDimension
280
     0
  2
*D19
 10
-7.960256668455799
 20
182.706625425699
 30
0.0
 11
-7.960256668455826
 21
221.1656977312939
 31
0.0
 70
   160
 71
     5
 42
9.000000000000454
 73
     0
 74
     0
 75
     0
  3
Katalog 09
100
AcDbAlignedDimension
 13
20.16595789137546
 23
191.7066254256995
 33
0.0
 14
20.16595789137546
 24
182.706625425699
 34
0.0
 50
90.0
100
AcDbRotatedDimension
1001
ACAD_DSTYLE_DIMINSPECT
1070
   396
1000
100%
1070
   395
1000

1070
   394
1070
    33
1070
   393
1070
     0
  0
DIMENSION
  5
5456
330
19
100
AcDbEntity
  8
BEMASSUNG
100
AcDbDimension
280
     0
  2
*D20
 10
-23.33218258835822
 20
187.206625425699
 30
0.0
 11
-23.33218258835825
 21
127.4071711282911
 31
0.0
 70
   160
 71
     5
 42
21.5
 73
     0
 74
     0
 75
     0
  3
Katalog 09
100
AcDbAlignedDimension
 13
16.06595789137509
 23
165.706625425699
 33
0.0
 14
-6.797186791544504
 24
187.206625425699
 34
0.0
 50
90.0
100
AcDbRotatedDimension
1001
ACAD_DSTYLE_DIMINSPECT
1070
   396
1000
100%
1070
   395
1000

1070
   394
1070
    33
1070
   393
1070
     0
  0
DIMENSION
  5
5457
330
19
100
AcDbEntity
  8
BEMASSUNG
100
AcDbDimension
280
     0
  2
*D21
 10
24.66595789137454
 20
-73.64337300535249
 30
0.0
 11
92.76179690910998
 21
-73.64337300535249
 31
0.0
 70
   160
  1
DM-3
 71
     5
 42
27.0
 73
     0
 74
     0
 75
     0
  3
Katalog 09
100
AcDbAlignedDimension
 13
51.66595789137454
 23
65.20662542569948
 33
0.0
 14
24.66595789137455
 24
-7.783850465157456
 34
0.0
 50
180.0
100
AcDbRotatedDimension
1001
ACAD_DSTYLE_DIMINSPECT
1070
   396
1000
100%
1070
   395
1000

1070
   394
1070
    33
1070
   393
1070
     0
  0
DIMENSION
  5
5458
330
19
100
AcDbEntity
  8
BEMASSUNG
100
AcDbDimension
280
     0
  2
*D22
 10
-43.16311590763018
 20
187.206625425699
 30
0.0
 11
-50.25827279712544
 21
226.2066254256988
 31
0.0
 70
    32
 71
     5
 42
77.99999999999954
 73
     0
 74
     0
 75
     0
  3
Katalog 09
100
AcDbAlignedDimension
 13
9.165957891373636
 23
265.2066254256986
 33
0.0
 14
-43.16311590763018
 24
187.206625425699
 34
0.0
 50
90.0
100
AcDbRotatedDimension
1001
ACAD_DSTYLE_DIMINSPECT
1070
   396
1000
100%
1070
   395
1000

1070
   394
1070
    33
1070
   393
1070
     0
  0
DIMENSION
  5
5459
330
19
100
AcDbEntity
  8
BEMASSUNG
100
AcDbDimension
280
     0
  2
*D23
 10
-43.16311590763018
 20
187.206625425699
 30
0.0
 11
-50.18153337011316
 21
126.2066254256992
 31
0.0
 70
    32
 71
     5
 42
121.9999999999995
 73
     0
 74
     0
 75
     0
  3
Katalog 09
100
AcDbAlignedDimension
 13
9.165957891374546
 23
65.20662542569948
 33
0.0
 14
-14.71730719805111
 24
187.206625425699
 34
0.0
 50
90.0
100
AcDbRotatedDimension
1001
ACAD_DSTYLE_DIMINSPECT
1070
   396
1000
100%
1070
   395
1000

1070
   394
1070
    33
1070
   393
1070
     0
  0
DIMENSION
  5
545A
330
19
100
AcDbEntity
  8
BEMASSUNG
100
AcDbDimension
280
     0
  2
*D24
 10
-65.1222735804755
 20
187.206625425699
 30
0.0
 11
-72.22050004705124
 21
255.9913331324269
 31
0.0
 70
    32
 71
     5
 42
137.5694154134557
 73
     0
 74
     0
 75
     0
  3
Katalog 09
100
AcDbAlignedDimension
 13
19.66572331692578
 23
324.7760408391548
 33
0.0
 14
-32.66076734113324
 24
187.206625425699
 34
0.0
 50
90.0
100
AcDbRotatedDimension
1001
ACAD_DSTYLE_DIMINSPECT
1070
   396
1000
100%
1070
   395
1000

1070
   394
1070
    33
1070
   393
1070
     0
1001
ACAD
1000
DSTYLE
1002
{
1070
   271
1070
     0
1002
}
  0
DIMENSION
  5
545B
330
19
100
AcDbEntity
  8
BEMASSUNG
100
AcDbDimension
280
     0
  2
*D25
 10
-65.1222735804755
 20
-0.7925365399089275
 30
0.0
 11
-72.21743046997073
 21
93.20704444289503
 31
0.0
 70
    32
 71
     5
 42
187.9991619656079
 73
     0
 74
     0
 75
     0
  3
Katalog 09
100
AcDbAlignedDimension
 13
24.66595789137455
 23
187.206625425699
 33
0.0
 14
19.66595789137454
 24
-0.7925365399089515
 34
0.0
 50
90.0
100
AcDbRotatedDimension
1001
ACAD_DSTYLE_DIMINSPECT
1070
   396
1000
100%
1070
   395
1000

1070
   394
1070
    33
1070
   393
1070
     0
  0
DIMENSION
  5
545C
330
19
100
AcDbEntity
  8
BEMASSUNG
100
AcDbDimension
280
     0
  2
*D26
 10
24.66595789137454
 20
-51.29107086714816
 30
0.0
 11
-28.63315534191372
 21
-51.29107086714816
 31
0.0
 70
   160
 71
     5
 42
15.5
 73
     0
 74
     0
 75
     0
  3
Katalog 09
100
AcDbAlignedDimension
 13
9.165957891374546
 23
65.20662542569948
 33
0.0
 14
24.66595789137455
 24
-7.783850465157456
 34
0.0
 50
180.0
100
AcDbRotatedDimension
1001
ACAD_DSTYLE_DIMINSPECT
1070
   396
1000
100%
1070
   395
1000

1070
   394
1070
    33
1070
   393
1070
     0
  0
DIMENSION
  5
545D
330
19
100
AcDbEntity
  8
BEMASSUNG
100
AcDbDimension
280
     0
  2
*D27
 10
-22.6406348313327
 20
-0.7925365399089382
 30
0.0
 11
-22.6406348313327
 21
9.207832745910994
 31
0.0
 70
   160
  1
Hub = <>
 71
     5
 42
20.00073857163988
 73
     0
 74
     0
 75
     0
  3
Katalog 09
100
AcDbAlignedDimension
 13
-19.06680999127422
 23
19.20820203173093
 33
0.0
 14
24.52012232627249
 24
-0.7925365399089515
 34
0.0
 50
90.0
100
AcDbRotatedDimension
1001
ACAD_DSTYLE_DIMINSPECT
1070
   396
1000
100%
1070
   395
1000

1070
   394
1070
    33
1070
   393
1070
     0
  0
DIMENSION
  5
545E
330
19
100
AcDbEntity
  8
BEMASSUNG
100
AcDbDimension
280
     0
  2
*D28
 10
-21.56803733055182
 20
304.7738353800994
 30
0.0
 11
-21.56803733055188
 21
314.7749381096271
 31
0.0
 70
   160
  1
Hub = <>
 71
     5
 42
20.0022054590554
 73
     0
 74
     0
 75
     0
  3
Katalog 09
100
AcDbAlignedDimension
 13
19.66572331692578
 23
324.7760408391548
 33
0.0
 14
-16.40202191435821
 24
304.7738353800994
 34
0.0
 50
90.0
100
AcDbRotatedDimension
1001
ACAD_DSTYLE_DIMINSPECT
1070
   396
1000
100%
1070
   395
1000

1070
   394
1070
    33
1070
   393
1070
     0
  0
ARC
  5
545F
330
19
100
AcDbEntity
  8
ACHSEN
100
AcDbCircle
 10
4.176203812214566
 20
261.9094403538195
 30
0.0
 40
6.814233977353978
100
AcDbArc
 50
28.93828833890953
 51
167.0811130302631
  0
ARC
  5
5460
330
19
100
AcDbEntity
  8
ACHSEN
100
AcDbCircle
 10
4.176203812214566
 20
261.9094403538195
 30
0.0
 40
9.814233977353978
100
AcDbArc
 50
19.63089478020348
 51
172.9406410692978
  0
ARC
  5
5461
330
19
100
AcDbEntity
  8
ACHSEN
100
AcDbCircle
 10
-18.79146182481474
 20
236.155568630935
 30
0.0
 40
6.814233977353978
100
AcDbArc
 50
270.0
 51
346.9806378393871
  0
ARC
  5
5462
330
19
100
AcDbEntity
  8
ACHSEN
100
AcDbCircle
 10
-18.79146182481474
 20
236.155568630935
 30
0.0
 40
9.814233977353978
100
AcDbArc
 50
270.0
 51
347.0811130302632
  0
LINE
  5
5463
330
19
100
AcDbEntity
  8
ACHSEN
100
AcDbLine
 10
-12.15239460970008
 20
234.6204558626639
 30
0.0
 11
-5.563632003211409
 21
263.1155858055793
 31
0.0
  0
LINE
  5
5464
330
19
100
AcDbEntity
  8
ACHSEN
100
AcDbLine
 10
-2.46554520221764
 20
263.4329083473856
 30
0.0
 11
-9.225650163061459
 21
233.9613863654656
 31
0.0
  0
LINE
  5
5465
330
19
100
AcDbEntity
  8
ACHSEN
100
AcDbLine
 10
-18.79146182481474
 20
229.341334653581
 30
0.0
 11
-24.12797362715139
 21
229.341334653581
 31
0.0
  0
LINE
  5
5466
330
19
100
AcDbEntity
  8
ACHSEN
100
AcDbLine
 10
-18.79146182481474
 20
226.3413346535811
 30
0.0
 11
-24.02837356584917
 21
226.3413346535811
 31
0.0
  0
POLYLINE
  5
5467
330
19
100
AcDbEntity
  8
ACHSEN
100
AcDb2dPolyline
 66
     1
 10
0.0
 20
0.0
 30
0.0
 70
     2
  0
VERTEX
  5
5468
330
5467
100
AcDbEntity
  8
ACHSEN
100
AcDbVertex
100
AcDb2dVertex
 10
-24.12797362715139
 20
229.341334653581
 30
0.0
 42
0.1742921813446832
  0
VERTEX
  5
5469
330
5467
100
AcDbEntity
  8
ACHSEN
100
AcDbVertex
100
AcDb2dVertex
 10
-24.58845782728224
 20
229.1981449860284
 30
0.0
 42
0.2149835583460877
 70
     1
  0
VERTEX
  5
546A
330
5467
100
AcDbEntity
  8
ACHSEN
100
AcDbVertex
100
AcDb2dVertex
 10
-24.77901183061443
 20
228.849902530879
 30
0.0
 42
0.028731412344426
  0
VERTEX
  5
546B
330
5467
100
AcDbEntity
  8
ACHSEN
100
AcDbVertex
100
AcDb2dVertex
 10
-24.78371953860244
 20
228.6111285621862
 30
0.0
 42
0.0647867178643076
 70
     1
  0
VERTEX
  5
546C
330
5467
100
AcDbEntity
  8
ACHSEN
100
AcDbVertex
100
AcDb2dVertex
 10
-24.76604193040805
 20
228.5063410672572
 30
0.0
 42
0.0281776653801642
  0
VERTEX
  5
546D
330
5467
100
AcDbEntity
  8
ACHSEN
100
AcDbVertex
100
AcDb2dVertex
 10
-24.65943650701831
 20
228.2168662815145
 30
0.0
 42
0.05420490482652
 70
     1
  0
VERTEX
  5
546E
330
5467
100
AcDbEntity
  8
ACHSEN
100
AcDbVertex
100
AcDb2dVertex
 10
-24.57993482779841
 20
228.0772062172316
 30
0.0
 42
0.0128798373827233
  0
VERTEX
  5
546F
330
5467
100
AcDbEntity
  8
ACHSEN
100
AcDbVertex
100
AcDb2dVertex
 10
-24.40562140344321
 20
227.8486516007376
 30
0.0
 42
0.0102679014401633
 70
     1
  0
VERTEX
  5
5470
330
5467
100
AcDbEntity
  8
ACHSEN
100
AcDbVertex
100
AcDb2dVertex
 10
-24.17394732562991
 20
227.5724000511189
 30
0.0
 42
0.0105309851912043
  0
VERTEX
  5
5471
330
5467
100
AcDbEntity
  8
ACHSEN
100
AcDbVertex
100
AcDb2dVertex
 10
-24.03043116176525
 20
227.4150514617675
 30
0.0
 42
-0.0098471549447001
 70
     1
  0
VERTEX
  5
5472
330
5467
100
AcDbEntity
  8
ACHSEN
100
AcDbVertex
100
AcDb2dVertex
 10
-23.87672076651745
 20
227.2469882797857
 30
0.0
 42
-0.0472588414971947
  0
VERTEX
  5
5473
330
5467
100
AcDbEntity
  8
ACHSEN
100
AcDbVertex
100
AcDb2dVertex
 10
-23.73919985236591
 20
227.0570538523768
 30
0.0
 42
-0.0362476380541049
 70
     1
  0
VERTEX
  5
5474
330
5467
100
AcDbEntity
  8
ACHSEN
100
AcDbVertex
100
AcDb2dVertex
 10
-23.60366031336764
 20
226.7833266684117
 30
0.0
 42
-0.0971304546251685
  0
VERTEX
  5
5475
330
5467
100
AcDbEntity
  8
ACHSEN
100
AcDbVertex
100
AcDb2dVertex
 10
-23.56870092760676
 20
226.60506348783
 30
0.0
 42
-0.1351883478628582
 70
     1
  0
VERTEX
  5
5476
330
5467
100
AcDbEntity
  8
ACHSEN
100
AcDbVertex
100
AcDb2dVertex
 10
-23.60366031336764
 20
226.4781277258478
 30
0.0
 42
-0.182411189361992
  0
VERTEX
  5
5477
330
5467
100
AcDbEntity
  8
ACHSEN
100
AcDbVertex
100
AcDb2dVertex
 10
-23.69074402448007
 20
226.4087878311254
 30
0.0
 42
-0.057264080913504
 70
     1
  0
VERTEX
  5
5478
330
5467
100
AcDbEntity
  8
ACHSEN
100
AcDbVertex
100
AcDb2dVertex
 10
-24.02837356584917
 20
226.3413346535811
 30
0.0
 42
-0.0589706698081777
  0
VERTEX
  5
5479
330
5467
100
AcDbEntity
  8
ACHSEN
100
AcDbVertex
100
AcDb2dVertex
 10
-24.48027391622475
 20
226.3571665452143
 30
0.0
 42
-0.109647967479952
 70
     1
  0
VERTEX
  5
547A
330
5467
100
AcDbEntity
  8
ACHSEN
100
AcDbVertex
100
AcDb2dVertex
 10
-24.70882585625407
 20
226.4461417244627
 30
0.0
 42
-0.062839175519594
  0
VERTEX
  5
547B
330
5467
100
AcDbEntity
  8
ACHSEN
100
AcDbVertex
100
AcDb2dVertex
 10
-24.8160412395215
 20
226.5392673117037
 30
0.0
 42
-0.0612610441680683
 70
     1
  0
VERTEX
  5
547C
330
5467
100
AcDbEntity
  8
ACHSEN
100
AcDbVertex
100
AcDb2dVertex
 10
-24.89920367652269
 20
226.6588318922357
 30
0.0
 42
-0.111030152922142
  0
VERTEX
  5
547D
330
5467
100
AcDbEntity
  8
ACHSEN
100
AcDbVertex
100
AcDb2dVertex
 10
-24.93566282650738
 20
226.7936013742235
 30
0.0
 42
-0.0460047872888546
 70
     1
  0
VERTEX
  5
547E
330
5467
100
AcDbEntity
  8
ACHSEN
100
AcDbVertex
100
AcDb2dVertex
 10
-24.919360694376
 20
227.1267551852913
 30
0.0
 42
-0.1431452867500605
  0
VERTEX
  5
547F
330
5467
100
AcDbEntity
  8
ACHSEN
100
AcDbVertex
100
AcDb2dVertex
 10
-24.74495636849554
 20
227.5119059367469
 30
0.0
 42
-0.1244691872495059
 70
     1
  0
VERTEX
  5
5480
330
5467
100
AcDbEntity
  8
ACHSEN
100
AcDbVertex
100
AcDb2dVertex
 10
-24.3493587938325
 20
227.7905072349174
 30
0.0
  0
SEQEND
  5
5481
330
5467
100
AcDbEntity
  8
ACHSEN
  0
DIMENSION
  5
5482
330
19
100
AcDbEntity
  8
BEMASSUNG
100
AcDbDimension
280
     0
  2
*D29
 10
74.8796765867296
 20
187.206625425699
 30
0.0
 11
67.78451969723434
 21
157.206625425699
 31
0.0
 70
    32
 71
     5
 42
59.99999999999999
 73
     0
 74
     0
 75
     0
  3
Katalog 09
100
AcDbAlignedDimension
 13
53.61595789137528
 23
127.206625425699
 33
0.0
 14
50.41595789137454
 24
187.206625425699
 34
0.0
 50
90.0
100
AcDbRotatedDimension
1001
ACAD_DSTYLE_DIMINSPECT
1070
   396
1000
100%
1070
   395
1000

1070
   394
1070
    33
1070
   393
1070
     0
  0
DIMENSION
  5
5483
330
19
100
AcDbEntity
  8
BEMASSUNG
100
AcDbDimension
280
     0
  2
*D30
 10
74.88032471292854
 20
227.206625425699
 30
0.0
 11
67.78516782343327
 21
207.206625425699
 31
0.0
 70
    32
 71
     5
 42
40.0
 73
     0
 74
     0
 75
     0
  3
Katalog 09
100
AcDbAlignedDimension
 13
50.41595789137454
 23
187.206625425699
 33
0.0
 14
60.08451275369726
 24
227.206625425699
 34
0.0
 50
90.0
100
AcDbRotatedDimension
1001
ACAD_DSTYLE_DIMINSPECT
1070
   396
1000
100%
1070
   395
1000

1070
   394
1070
    33
1070
   393
1070
     0
  0
MULTILEADER
  5
5484
330
19
100
AcDbEntity
  8
BEMASSUNG
160
               724
310
D4020000180000000C00000016000000000000C00C00000033000000000000000C00000013000000993A0000E0000000260000006ADE8EEFB59D4BC00F4FDFC180577640000000000000000000000000000000000000000000000000000000000000F03F000000000000F03F0000000000000000000000000000000041006E
310
007300630068006C0075007300730067006500770069006E006400650020004D003600000013000000010000000000000000001440000000000000F03F0000000000000000000000000000F03F00000000000000000000000000000000000000000000000000000000010000000000000000000000490053004F0043005000
310
2E005300480058000000000000000C00000033000000000000000C000000100000000B0000000C00000016000000000000C00C00000012000000FF7F00000C00000013000000010000000C0000001400000001000000540000000700000003000000E7DE89BD2FA43740C69FA43A328B7440000000000000000080BEE0D76C
310
AA3840CC1C87EA6A4C74400000000000000000C8C62C79976C3640DD820CB47C82744000000000000000000C00000013000000891300003C0000000600000002000000D7525B9B6308374052915877D7867440000000000000000040C8745CAB5325400C6422DE6441764000000000000000000C0000001300000011270000
310
3C000000060000000200000040C8745CAB5325400C6422DE64417640000000000000000088A9EF70599B24400C6422DE6441764000000000000000000C00000016000000000000C00C00000012000000FF7F00000C00000017000000000000000C000000130000009A3A00003C000000060000000200000068DE8EEFB53D4B
310
C00C6422DE64417640000000000000000088A9EF70599B24400C6422DE6441764000000000000000000C00000016000000000000C00C00000012000000FF7F00000C00000017000000FFFFFFFF0C0000003300000000000000
100
AcDbMLeader
270
     2
300
CONTEXT_DATA{
 40
1.0
 10
-56.48211473918928
 20
359.2839851230831
 30
0.0
 41
5.0
140
4.0
145
2.0
174
     1
175
     6
176
     2
177
     0
290
     1
304
Anschlussgewinde M6
 11
0.0
 21
0.0
 31
1.0
340
10
 12
8.30341675687373
 22
362.4808443398522
 32
0.0
 13
1.0
 23
0.0
 33
0.0
 42
0.0
 43
0.0
 44
0.0
 45
1.0
170
     1
 90
-1073741824
171
     3
172
     5
 91
-1073741824
141
0.0
 92
        0
291
     0
292
     0
173
     0
293
     0
142
0.0
143
0.0
294
     0
295
     0
296
     0
110
24.6657233165447
120
320.4061025693734
130
0.0
111
1.0
121
0.0
131
0.0
112
0.0
122
1.0
132
0.0
297
     0
302
LEADER{
290
     1
291
     1
 10
10.66341675687374
 20
356.087125906314
 30
0.0
 11
-1.0
 21
0.0
 31
0.0
 90
        0
 40
0.36
304
LEADER_LINE{
 10
24.6657233165447
 20
324.7761025693733
 30
0.0
 91
        0
305
}
271
     0
303
}
272
     9
273
     9
301
}
340
4FD2
 90
   345088
170
     1
 91
-1056964608
341
13
171
    -2
290
     1
291
     1
 41
0.36
 42
4.0
172
     2
343
10
173
     1
 95
        6
174
     1
175
     0
 92
-1056964608
292
     0
 93
-1056964608
 10
1.0
 20
1.0
 30
1.0
 43
0.0
176
     0
293
     0
294
     0
178
     0
179
     1
 45
1.0
271
     0
272
     9
273
     9
295
     0
  0
MULTILEADER
  5
5485
330
19
100
AcDbEntity
  8
BEMASSUNG
160
               724
310
D4020000180000000C00000016000000000000C00C00000033000000000000000C00000013000000993A0000E0000000260000002DD23A7DA7FF50C081BE2A74316940C0000000000000000000000000000000000000000000000000000000000000F03F000000000000F03F0000000000000000000000000000000041006E
310
007300630068006C0075007300730067006500770069006E006400650020004D003600000013000000010000000000000000001440000000000000F03F0000000000000000000000000000F03F00000000000000000000000000000000000000000000000000000000010000000000000000000000490053004F0043005000
310
2E005300480058000000000000000C00000033000000000000000C000000100000000B0000000C00000016000000000000C00C00000012000000FF7F00000C00000013000000010000000C0000001400000001000000540000000700000003000000FAC9F8C6C6B3354068A094996EAB0DC0000000000000000080429DBC26
310
8538400068F996755CE9BF0000000000000000C7035303E4CC3640097569C123DC11C000000000000000000C00000013000000891300003C0000000600000002000000E1E62565554036409EE21987ED5810C0000000000000000000F6A9674F27F83FA0161292101A41C000000000000000000C0000001300000011270000
310
3C000000060000000200000000F6A9674F27F83FA0161292101A41C0000000000000000000B9ADEA2AAC03C0A0161292101A41C000000000000000000C00000016000000000000C00C00000012000000FF7F00000C00000017000000000000000C000000130000009A3A00003C00000006000000020000002DD23A7DA7CF50
310
C0A0161292101A41C0000000000000000000B9ADEA2AAC03C0A0161292101A41C000000000000000000C00000016000000000000C00C00000012000000FF7F00000C00000017000000FFFFFFFF0C0000003300000000000000
100
AcDbMLeader
270
     2
300
CONTEXT_DATA{
 40
1.0
 10
-69.24459772819746
 20
-31.00677147746022
 30
0.0
 41
5.0
140
4.0
145
2.0
174
     1
175
     6
176
     2
177
     0
290
     1
304
Anschlussgewinde M6
 11
0.0
 21
0.0
 31
1.0
340
10
 12
-4.459066232134432
 22
-27.80991226069111
 32
0.0
 13
1.0
 23
0.0
 33
0.0
 42
0.0
 43
0.0
 44
0.0
 45
1.0
170
     1
 90
-1073741824
171
     3
172
     5
 91
-1073741824
141
0.0
 92
        0
291
     0
292
     0
173
     0
293
     0
142
0.0
143
0.0
294
     0
295
     0
296
     0
110
152.9928715604296
120
-58.56529068461554
130
0.0
111
1.0
121
0.0
131
0.0
112
0.0
122
1.0
132
0.0
297
     0
302
LEADER{
290
     1
291
     1
 10
1.509597210824153
 20
-34.20363069422933
 30
0.0
 11
-1.0
 21
0.0
 31
0.0
 90
        0
 40
3.968663442958586
304
LEADER_LINE{
 10
24.52012232627249
 20
-0.7925365399089515
 30
0.0
 91
        0
305
}
271
     0
303
}
272
     9
273
     9
301
}
340
4FD2
 90
   345216
170
     1
 91
-1056964608
341
13
171
    -2
290
     1
291
     1
 41
0.36
 42
4.0
172
     2
343
10
173
     1
 95
        6
174
     1
175
     0
 92
-1056964608
292
     0
 93
-1056964608
 10
1.0
 20
1.0
 30
1.0
 43
0.0
176
     0
293
     0
294
     0
178
     0
179
     1
 45
1.0
271
     0
272
     9
273
     9
295
     0
  0
LINE
  5
5486
330
19
100
AcDbEntity
  8
UMRISS05
100
AcDbLine
 10
51.66595789137454
 20
-175.4297846312709
 30
0.0
 11
51.66595789137454
 21
-159.9297846312708
 31
0.0
  0
LINE
  5
5487
330
19
100
AcDbEntity
  8
ACHSEN
 48
0.8
100
AcDbLine
 10
6.381671739423154
 20
-167.6797846312709
 30
0.0
 11
54.78502530869173
 21
-167.6797846312709
 31
0.0
  0
LINE
  5
5488
330
19
100
AcDbEntity
  8
UMRISS05
100
AcDbLine
 10
51.66595789137454
 20
-175.4297846312709
 30
0.0
 11
9.165957891374318
 21
-175.4297846312709
 31
0.0
  0
LINE
  5
5489
330
19
100
AcDbEntity
  8
UMRISS05
100
AcDbLine
 10
9.165957891374318
 20
-161.4297846312709
 30
0.0
 11
51.66595789137364
 21
-161.4297846312709
 31
0.0
  0
LINE
  5
548A
330
19
100
AcDbEntity
  8
UMRISS05
100
AcDbLine
 10
9.165957891374318
 20
-159.9297846312708
 30
0.0
 11
51.66595789137454
 21
-159.9297846312708
 31
0.0
  0
LINE
  5
548B
330
19
100
AcDbEntity
  8
UMRISS05
100
AcDbLine
 10
9.165957891375228
 20
-175.4297846312709
 30
0.0
 11
9.165957891374318
 21
-159.9297846312708
 31
0.0
  0
LINE
  5
548C
330
19
100
AcDbEntity
  8
UMRISS05
100
AcDbLine
 10
35.66595789137409
 20
-169.1797846312772
 30
0.0
 11
30.66595789137455
 21
-169.1797846312781
 31
0.0
  0
LINE
  5
548D
330
19
100
AcDbEntity
  8
UMRISS05
100
AcDbLine
 10
18.66595789137454
 20
-169.1797846312781
 30
0.0
 11
19.66595789137454
 21
-169.1797846312781
 31
0.0
  0
LINE
  5
548E
330
19
100
AcDbEntity
  8
UMRISS05
100
AcDbLine
 10
29.66595789137455
 20
-169.1797846312781
 30
0.0
 11
30.66595789137455
 21
-169.1797846312781
 31
0.0
  0
LINE
  5
548F
330
19
100
AcDbEntity
  8
UMRISS05
100
AcDbLine
 10
18.66595789137454
 20
-169.1797846312781
 30
0.0
 11
13.66595789137454
 21
-169.1797846312772
 31
0.0
  0
LINE
  5
5490
330
19
100
AcDbEntity
  8
UMRISS05
100
AcDbLine
 10
13.66595789137454
 20
-166.1797846312772
 30
0.0
 11
13.66595789137454
 21
-169.1797846312772
 31
0.0
  0
LINE
  5
5491
330
19
100
AcDbEntity
  8
UMRISS05
100
AcDbLine
 10
13.66595789137454
 20
-166.1797846312772
 30
0.0
 11
18.66595789137454
 21
-166.1797846312781
 31
0.0
  0
LINE
  5
5492
330
19
100
AcDbEntity
  8
UMRISS05
100
AcDbLine
 10
30.66595789137455
 20
-166.1797846312781
 30
0.0
 11
29.66595789137455
 21
-166.1797846312781
 31
0.0
  0
LINE
  5
5493
330
19
100
AcDbEntity
  8
UMRISS05
100
AcDbLine
 10
19.66595789137454
 20
-166.1797846312781
 30
0.0
 11
18.66595789137454
 21
-166.1797846312781
 31
0.0
  0
LINE
  5
5494
330
19
100
AcDbEntity
  8
UMRISS05
100
AcDbLine
 10
35.66595789137409
 20
-166.1797846312772
 30
0.0
 11
35.66595789137409
 21
-169.1797846312772
 31
0.0
  0
LINE
  5
5495
330
19
100
AcDbEntity
  8
UMRISS05
100
AcDbLine
 10
30.66595789137455
 20
-166.1797846312781
 30
0.0
 11
35.66595789137409
 21
-166.1797846312772
 31
0.0
  0
CIRCLE
  5
5496
330
19
100
AcDbEntity
  8
UMRISS05
100
AcDbCircle
 10
24.66595789137455
 20
-167.6797846312818
 30
0.0
 40
2.458500000000002
  0
CIRCLE
  5
5497
330
19
100
AcDbEntity
  8
UMRISS05
100
AcDbCircle
 10
24.66595789137455
 20
-167.6797846312818
 30
0.0
 40
4.638500000000003
  0
LINE
  5
5498
330
19
100
AcDbEntity
  8
UMRISS05
100
AcDbLine
 10
29.66595789137455
 20
-172.6797846312818
 30
0.0
 11
29.66595789137455
 21
-162.6797846312818
 31
0.0
  0
LINE
  5
5499
330
19
100
AcDbEntity
  8
UMRISS05
100
AcDbLine
 10
19.66595789137454
 20
-162.6797846312818
 30
0.0
 11
29.66595789137455
 21
-162.6797846312818
 31
0.0
  0
LINE
  5
549A
330
19
100
AcDbEntity
  8
UMRISS05
100
AcDbLine
 10
19.66595789137454
 20
-172.6797846312818
 30
0.0
 11
19.66595789137454
 21
-162.6797846312818
 31
0.0
  0
LINE
  5
549B
330
19
100
AcDbEntity
  8
UMRISS05
100
AcDbLine
 10
19.66595789137454
 20
-172.6797846312818
 30
0.0
 11
29.66595789137455
 21
-172.6797846312818
 31
0.0
  0
LINE
  5
549C
330
19
100
AcDbEntity
  8
Mittelpunktmarkierung(MSL)
  6
CHAIN
 48
10.31825447082519
100
AcDbLine
 10
24.66595789137455
 20
-174.3297846312814
 30
0.0
 11
24.66595789137455
 21
-161.0297846312812
 31
0.0
  0
DIMENSION
  5
549D
330
19
100
AcDbEntity
  8
BEMASSUNG
100
AcDbDimension
280
     0
  2
*D31
 10
-5.923964734720129
 20
-175.4297846312709
 30
0.0
 11
-13.01912162421533
 21
-167.6797846312709
 31
0.0
 70
    32
 71
     5
 42
15.5
 73
     0
 74
     0
 75
     0
  3
Katalog 09
100
AcDbAlignedDimension
 13
9.165957891374318
 23
-159.9297846312708
 33
0.0
 14
9.165957891374318
 24
-175.4297846312709
 34
0.0
 50
90.0
100
AcDbRotatedDimension
1001
ACAD_DSTYLE_DIMINSPECT
1070
   396
1000
100%
1070
   395
1000

1070
   394
1070
    33
1070
   393
1070
     0
  0
VIEWPORT
  5
4C67
330
16
100
AcDbEntity
 67
     1
  8
0
100
AcDbViewport
 10
133.3499908447265
 20
101.5999970436096
 30
0.0
 40
393.1579018965371
 41
228.4221935424805
 68
     1
 69
     1
 12
133.3499908447265
 22
101.5999970436096
 13
0.0
 23
0.0
 14
10.0
 24
10.0
 15
10.0
 25
10.0
 16
0.0
 26
0.0
 36
1.0
 17
0.0
 27
0.0
 37
0.0
 42
50.0
 43
0.0
 44
0.0
 45
228.4221935424805
 50
0.0
 51
0.0
 72
  5000
 90
    32800
  1

281
     0
 71
     1
 74
     0
110
0.0
120
0.0
130
0.0
111
1.0
121
0.0
131
0.0
112
0.0
122
1.0
132
0.0
 79
     0
146
0.0
170
     0
 61
     5
348
4FB4
292
     1
282
     1
141
0.0
142
0.0
 63
   250
421
  3355443
1001
GENIUS_GENSCREG_15
1000
PF
1040
1.0
1000
DF
1040
1.0
1000
MIN
1011
-63.22896010354196
1021
-12.6110997276306
1031
0.0
1000
MAX
1011
329.9289417929951
1021
215.8110938148499
1031
0.0
1000
FLAGS
1070
     4
1001
GENIUS_GENOBJ-N-SDF_13
1002
{
1000
OWNER
1000
GEN
1002
}
1001
GENIUS_GENODEF_13
1002
{
1000
HIER
1070
     0
1002
}
1002
{
1000
MANEDIT
1070
     0
1002
}
1002
{
1000
NOSEL
1070
     0
1002
}
1002
{
1000
BEHIND
1070
     0
1002
}
1002
{
1000
OTHER
1070
     0
1002
}
1002
{
1000
REACTOR
1002
}
  0
VIEWPORT
  5
4C69
330
16
100
AcDbEntity
 67
     1
  8
UMRISS07
100
AcDbViewport
 10
133.3499939441681
 20
101.5999939441681
 30
0.0
 40
213.3599903106689
 41
162.5599903106689
 68
     2
 69
     2
 12
-14.74378684114839
 22
137.4819361773036
 13
0.0
 23
0.0
 14
10.0
 24
10.0
 15
10.0
 25
10.0
 16
0.0
 26
0.0
 36
1.0
 17
0.0
 27
0.0
 37
0.0
 42
50.0
 43
0.0
 44
0.0
 45
40.29427779839482
 50
0.0
 51
0.0
 72
  5000
331
65
 90
    33280
  1

281
     0
 71
     1
 74
     0
110
0.0
120
0.0
130
0.0
111
1.0
121
0.0
131
0.0
112
0.0
122
1.0
132
0.0
 79
     0
146
0.0
170
     0
 61
     5
348
4FB4
292
     1
282
     1
141
0.0
142
0.0
 63
   250
421
  3355443
1001
GENIUS_GENSCREG_15
1000
PF
1040
0.0
1000
DF
1040
0.0
1000
MIN
1011
26.66999878883363
1021
20.31999878883363
1031
0.0
1000
MAX
1011
240.0299890995026
1021
182.8799890995025
1031
0.0
1000
FLAGS
1070
     4
1001
GENIUS_GENODEF_13
1002
{
1000
HIER
1070
     0
1002
}
1002
{
1000
MANEDIT
1070
     0
1002
}
1002
{
1000
NOSEL
1070
     0
1002
}
1002
{
1000
BEHIND
1070
     0
1002
}
1002
{
1000
OTHER
1070
     0
1002
}
1002
{
1000
REACTOR
1002
}
1001
GENIUS_GENOBJ-N-SDF_13
1002
{
1000
OWNER
1000
GEN
1002
}
  0
ENDSEC
  0
SECTION
  2
OBJECTS
  0
DICTIONARY
  5
C
330
0
100
AcDbDictionary
281
     1
  3
ACAD_CIP_PREVIOUS_PRODUCT_INFO
350
5171
  3
ACAD_COLOR
350
4E6C
  3
ACAD_DETAILVIEWSTYLE
350
5157
  3
ACAD_FIELDLIST
350
5186
  3
ACAD_GROUP
350
D
  3
ACAD_LAYOUT
350
3F25
  3
ACAD_MATERIAL
350
4E6B
  3
ACAD_MLEADERSTYLE
350
4FD1
  3
ACAD_MLINESTYLE
350
E
  3
ACAD_PLOTSETTINGS
350
3F26
  3
ACAD_PLOTSTYLENAME
350
3F23
  3
ACAD_SCALELIST
350
4FBF
  3
ACAD_SECTIONVIEWSTYLE
350
5155
  3
ACAD_TABLESTYLE
350
4E6D
  3
ACAD_VISUALSTYLE
350
4FAE
  3
ACDB_RECOMPOSE_DATA
350
5695
  3
AcDbVariableDictionary
350
3F39
  3
AcmDictionary
350
4D05
  3
AMG
350
4CEB
  3
AMGSNAPSETTINGS
350
4D45
  3
CADIWARE
350
66
  0
DICTIONARY
  5
50F2
330
2
100
AcDbDictionary
280
     1
281
     1
  3
ACAD_LAYERSTATES
360
527F
  3
AMLAYER_GROUPCOLORS
360
50F3
  0
DICTIONARY
  5
5194
330
F
100
AcDbDictionary
280
     1
281
     1
  3
ADSK_XREC_LAYER_RECONCILED
360
5195
  0
DICTIONARY
  5
5196
330
4C
100
AcDbDictionary
280
     1
281
     1
  3
ADSK_XREC_LAYER_RECONCILED
360
5197
  0
DICTIONARY
  5
5198
330
4D
100
AcDbDictionary
280
     1
281
     1
  3
ADSK_XREC_LAYER_RECONCILED
360
5199
  0
DICTIONARY
  5
519A
330
4E
100
AcDbDictionary
280
     1
281
     1
  3
ADSK_XREC_LAYER_RECONCILED
360
519B
  0
DICTIONARY
  5
519C
330
4F
100
AcDbDictionary
280
     1
281
     1
  3
ADSK_XREC_LAYER_RECONCILED
360
519D
  0
DICTIONARY
  5
519E
330
50
100
AcDbDictionary
280
     1
281
     1
  3
ADSK_XREC_LAYER_RECONCILED
360
519F
  0
DICTIONARY
  5
51A0
330
51
100
AcDbDictionary
280
     1
281
     1
  3
ADSK_XREC_LAYER_RECONCILED
360
51A1
  0
DICTIONARY
  5
51A2
330
52
100
AcDbDictionary
280
     1
281
     1
  3
ADSK_XREC_LAYER_RECONCILED
360
51A3
  0
DICTIONARY
  5
51A4
330
53
100
AcDbDictionary
280
     1
281
     1
  3
ADSK_XREC_LAYER_RECONCILED
360
51A5
  0
DICTIONARY
  5
51A6
330
54
100
AcDbDictionary
280
     1
281
     1
  3
ADSK_XREC_LAYER_RECONCILED
360
51A7
  0
DICTIONARY
  5
51A8
330
55
100
AcDbDictionary
280
     1
281
     1
  3
ADSK_XREC_LAYER_RECONCILED
360
51A9
  0
DICTIONARY
  5
51AA
330
56
100
AcDbDictionary
280
     1
281
     1
  3
ADSK_XREC_LAYER_RECONCILED
360
51AB
  0
DICTIONARY
  5
51AC
330
61
100
AcDbDictionary
280
     1
281
     1
  3
ADSK_XREC_LAYER_RECONCILED
360
51AD
  0
DICTIONARY
  5
51AE
330
65
100
AcDbDictionary
280
     1
281
     1
  3
ADSK_XREC_LAYER_RECONCILED
360
51AF
  0
DICTIONARY
  5
51B0
330
65C
100
AcDbDictionary
280
     1
281
     1
  3
ADSK_XREC_LAYER_RECONCILED
360
51B1
  0
DICTIONARY
  5
51B2
330
3F61
100
AcDbDictionary
280
     1
281
     1
  3
ADSK_XREC_LAYER_RECONCILED
360
51B3
  0
DICTIONARY
  5
51B4
330
3F62
100
AcDbDictionary
280
     1
281
     1
  3
ADSK_XREC_LAYER_RECONCILED
360
51B5
  0
DICTIONARY
  5
51B6
330
3F63
100
AcDbDictionary
280
     1
281
     1
  3
ADSK_XREC_LAYER_RECONCILED
360
51B7
  0
DICTIONARY
  5
51B8
330
3F6C
100
AcDbDictionary
280
     1
281
     1
  3
ADSK_XREC_LAYER_RECONCILED
360
51B9
  0
DICTIONARY
  5
51BA
330
479A
100
AcDbDictionary
280
     1
281
     1
  3
ADSK_XREC_LAYER_RECONCILED
360
51BB
  0
DICTIONARY
  5
4D4C
330
19
100
AcDbDictionary
280
     1
281
     1
  0
XRECORD
  5
5171
102
{ACAD_REACTORS
330
C
102
}
330
C
100
AcDbXrecord
280
     1
300
AMECH_PP
300
2014
300
PDSU_F_S
  0
DICTIONARY
  5
4E6C
102
{ACAD_REACTORS
330
C
102
}
330
C
100
AcDbDictionary
281
     1
  0
DICTIONARY
  5
5157
102
{ACAD_REACTORS
330
C
102
}
330
C
100
AcDbDictionary
281
     1
  3
Imperial24
350
5282
  3
Metric50
350
5158
  0
FIELDLIST
  5
5186
102
{ACAD_REACTORS
330
C
102
}
330
C
100
AcDbIdSet
 90
        6
330
5184
330
5185
330
5187
330
518B
330
518C
330
518D
100
AcDbFieldList
  0
DICTIONARY
  5
D
102
{ACAD_REACTORS
330
C
102
}
330
C
100
AcDbDictionary
281
     1
  0
DICTIONARY
  5
3F25
102
{ACAD_REACTORS
330
C
102
}
330
C
100
AcDbDictionary
281
     1
  3
Layout1
350
3F28
  3
Model
350
3F27
  0
DICTIONARY
  5
4E6B
102
{ACAD_REACTORS
330
C
102
}
330
C
100
AcDbDictionary
281
     1
  3
ByBlock
350
4F9E
  3
ByLayer
350
4F96
  3
Global
350
4FA6
  0
DICTIONARY
  5
4FD1
102
{ACAD_REACTORS
330
C
102
}
330
C
100
AcDbDictionary
281
     1
  3
Standard
350
4FD2
  0
DICTIONARY
  5
E
102
{ACAD_REACTORS
330
C
102
}
330
C
100
AcDbDictionary
281
     1
  3
STANDARD
350
1C
  0
DICTIONARY
  5
3F26
102
{ACAD_REACTORS
330
C
102
}
330
C
100
AcDbDictionary
281
     1
  3
A3 hoch
350
4E28
  3
A3 quer
350
4E27
  3
A4 hoch
350
4E29
  0
ACDBDICTIONARYWDFLT
  5
3F23
102
{ACAD_REACTORS
330
C
102
}
330
C
100
AcDbDictionary
281
     1
  3
Normal
350
3F24
100
AcDbDictionaryWithDefault
340
3F24
  0
DICTIONARY
  5
4FBF
102
{ACAD_REACTORS
330
C
102
}
330
C
100
AcDbDictionary
281
     1
  3
A0
350
4FC0
  3
A1
350
4FC1
  3
A2
350
4FC2
  3
A3
350
4FC3
  3
A4
350
4FC4
  3
A5
350
4FC5
  3
A6
350
4FC6
  3
A7
350
4FC7
  3
A8
350
4FC8
  3
A9
350
4FC9
  3
B0
350
4FCA
  3
B1
350
4FCB
  3
B2
350
4FCC
  3
B3
350
4FCD
  3
B4
350
4FCE
  3
B5
350
4FCF
  3
B6
350
4FD0
  0
DICTIONARY
  5
5155
102
{ACAD_REACTORS
330
C
102
}
330
C
100
AcDbDictionary
281
     1
  3
Imperial24
350
5280
  3
Metric50
350
5156
  0
DICTIONARY
  5
4E6D
102
{ACAD_REACTORS
330
C
102
}
330
C
100
AcDbDictionary
281
     1
  3
Standard
350
4E6E
  0
DICTIONARY
  5
4FAE
102
{ACAD_REACTORS
330
C
102
}
330
C
100
AcDbDictionary
281
     1
  3
2dWireframe
350
4FB4
  3
3D Hidden
350
4FB6
  3
3dWireframe
350
4FB5
  3
Basic
350
4FB3
  3
Brighten
350
4FBA
  3
ColorChange
350
4FBE
  3
Conceptual
350
4FB7
  3
Dim
350
4FB9
  3
EdgeColorOff
350
509A
  3
Facepattern
350
4FBD
  3
Flat
350
4FAF
  3
FlatWithEdges
350
4FB0
  3
Gouraud
350
4FB1
  3
GouraudWithEdges
350
4FB2
  3
Hidden
350
5092
  3
JitterOff
350
5098
  3
Linepattern
350
4FBC
  3
OverhangOff
350
5099
  3
Realistic
350
4FB8
  3
Shaded
350
5097
  3
Shaded with edges
350
5096
  3
Shades of Gray
350
5093
  3
Sketchy
350
5094
  3
Thicken
350
4FBB
  3
Wireframe
350
5091
  3
X-Ray
350
5095
  0
XRECORD
  5
5695
102
{ACAD_REACTORS
330
C
102
}
330
C
100
AcDbXrecord
280
     1
 90
        1
330
4E6E
330
5156
330
5158
330
5280
330
5282
  0
DICTIONARY
  5
3F39
102
{ACAD_REACTORS
330
C
102
}
330
C
100
AcDbDictionary
281
     1
  3
CANNOSCALE
350
5005
  3
CMLEADERSTYLE
350
5003
  3
CTABLESTYLE
350
4EDE
  3
CVIEWDETAILSTYLE
350
5666
  3
CVIEWSECTIONSTYLE
350
5667
  3
DIMASSOC
350
3F3A
  3
INDEXCTL
350
4D6C
  3
LAYEREVAL
350
5007
  3
LAYERNOTIFY
350
5008
  3
LIGHTINGUNITS
350
5006
  3
MSLTSCALE
350
5004
  0
DICTIONARY
  5
4D05
102
{ACAD_REACTORS
330
C
102
}
330
C
100
AcDbDictionary
281
     1
  3
AcmStdDictionary
350
4D0B
  3
AMDTSECTSYM_ARROWCOLOR
350
4E83
  0
DICTIONARY
  5
4CEB
102
{ACAD_REACTORS
330
C
102
}
330
C
100
AcDbDictionary
281
     1
  0
DICTIONARY
  5
4D45
102
{ACAD_REACTORS
330
C
102
}
330
C
100
AcDbDictionary
281
     1
  0
DICTIONARY
  5
66
102
{ACAD_REACTORS
330
C
102
}
330
C
100
AcDbDictionary
281
     1
  3
CADIMENU_14S
350
67
  0
DICTIONARY
  5
527F
102
{ACAD_REACTORS
330
50F2
102
}
330
50F2
100
AcDbDictionary
281
     1
  0
DICTIONARY
  5
50F3
102
{ACAD_REACTORS
330
50F2
102
}
330
50F2
100
AcDbDictionary
280
     1
281
     1
  0
XRECORD
  5
5195
102
{ACAD_REACTORS
330
5194
102
}
330
5194
100
AcDbXrecord
280
     1
290
     1
  0
XRECORD
  5
5197
102
{ACAD_REACTORS
330
5196
102
}
330
5196
100
AcDbXrecord
280
     1
290
     1
  0
XRECORD
  5
5199
102
{ACAD_REACTORS
330
5198
102
}
330
5198
100
AcDbXrecord
280
     1
290
     1
  0
XRECORD
  5
519B
102
{ACAD_REACTORS
330
519A
102
}
330
519A
100
AcDbXrecord
280
     1
290
     1
  0
XRECORD
  5
519D
102
{ACAD_REACTORS
330
519C
102
}
330
519C
100
AcDbXrecord
280
     1
290
     1
  0
XRECORD
  5
519F
102
{ACAD_REACTORS
330
519E
102
}
330
519E
100
AcDbXrecord
280
     1
290
     1
  0
XRECORD
  5
51A1
102
{ACAD_REACTORS
330
51A0
102
}
330
51A0
100
AcDbXrecord
280
     1
290
     1
  0
XRECORD
  5
51A3
102
{ACAD_REACTORS
330
51A2
102
}
330
51A2
100
AcDbXrecord
280
     1
290
     1
  0
XRECORD
  5
51A5
102
{ACAD_REACTORS
330
51A4
102
}
330
51A4
100
AcDbXrecord
280
     1
290
     1
  0
XRECORD
  5
51A7
102
{ACAD_REACTORS
330
51A6
102
}
330
51A6
100
AcDbXrecord
280
     1
290
     1
  0
XRECORD
  5
51A9
102
{ACAD_REACTORS
330
51A8
102
}
330
51A8
100
AcDbXrecord
280
     1
290
     1
  0
XRECORD
  5
51AB
102
{ACAD_REACTORS
330
51AA
102
}
330
51AA
100
AcDbXrecord
280
     1
290
     1
  0
XRECORD
  5
51AD
102
{ACAD_REACTORS
330
51AC
102
}
330
51AC
100
AcDbXrecord
280
     1
290
     1
  0
XRECORD
  5
51AF
102
{ACAD_REACTORS
330
51AE
102
}
330
51AE
100
AcDbXrecord
280
     1
290
     1
  0
XRECORD
  5
51B1
102
{ACAD_REACTORS
330
51B0
102
}
330
51B0
100
AcDbXrecord
280
     1
290
     1
  0
XRECORD
  5
51B3
102
{ACAD_REACTORS
330
51B2
102
}
330
51B2
100
AcDbXrecord
280
     1
290
     1
  0
XRECORD
  5
51B5
102
{ACAD_REACTORS
330
51B4
102
}
330
51B4
100
AcDbXrecord
280
     1
290
     1
  0
XRECORD
  5
51B7
102
{ACAD_REACTORS
330
51B6
102
}
330
51B6
100
AcDbXrecord
280
     1
290
     1
  0
XRECORD
  5
51B9
102
{ACAD_REACTORS
330
51B8
102
}
330
51B8
100
AcDbXrecord
280
     1
290
     1
  0
XRECORD
  5
51BB
102
{ACAD_REACTORS
330
51BA
102
}
330
51BA
100
AcDbXrecord
280
     1
290
     1
  0
ACDBDETAILVIEWSTYLE
  5
5282
102
{ACAD_XDICTIONARY
360
5283
102
}
102
{ACAD_REACTORS
330
5157
330
5392
102
}
330
5157
100
AcDbModelDocViewStyle
 70
     0
  3
Imperial24
290
     0
100
AcDbDetailViewStyle
 70
     0
 71
     0
 90
        3
 71
     1
340
10
 62
   256
 40
0.24
340
0
 62
   256
 40
0.24
300

 40
0.36
280
     3
 71
     2
340
15
 90
       25
 62
   256
 71
     3
340
10
 62
   256
 40
0.24
 90
        1
 40
0.75
 90
        1
300
%<\AcVar ViewType \f "%tc1">% %<\AcVar ViewDetailId>%\PVARIA %<\AcVar ViewScale \f "%sn">%
 71
     4
340
15
 90
       25
 62
   256
340
15
 90
       25
 62
   256
280
     0
  0
ACDBDETAILVIEWSTYLE
  5
5158
102
{ACAD_XDICTIONARY
360
565F
102
}
102
{ACAD_REACTORS
330
5157
330
517C
102
}
330
5157
100
AcDbModelDocViewStyle
 70
     0
  3
Metric50
290
     0
100
AcDbDetailViewStyle
 70
     0
 71
     0
 90
        3
 71
     1
340
10
 62
   256
 40
5.0
340
0
 62
   256
 40
5.0
300

 40
0.0
280
     1
 71
     2
340
15
 90
       25
 62
   256
 71
     3
340
10
 62
   256
 40
5.0
 90
        0
 40
15.0
 90
        1
300
%<\AcVar ViewDetailId>% (%<\AcVar ViewScale \f "%sn">%)
 71
     4
340
15
 90
       25
 62
   256
340
15
 90
       25
 62
   256
280
     0
  0
LAYOUT
  5
3F28
102
{ACAD_REACTORS
330
3F25
102
}
330
3F25
100
AcDbPlotSettings
  1

  2
none_device
  4
Letter_(8.50_x_11.00_Inches)
  6

 40
6.349999904632568
 41
6.349999904632568
 42
6.350006103515625
 43
6.350006103515625
 44
215.8999938964844
 45
279.3999938964844
 46
0.0
 47
0.0
 48
0.0
 49
0.0
140
0.0
141
0.0
142
1.0
143
1.0
 70
   688
 72
     1
 73
     1
 74
     5
  7
monochrome.ctb
 75
    16
147
1.0
 76
     0
 77
     2
 78
   300
148
0.0
149
0.0
100
AcDbLayout
  1
Layout1
 70
     1
 71
     1
 10
-6.350006103515625
 20
-6.349999904632568
 11
273.0499877929688
 21
209.5499939918518
 12
0.0
 22
0.0
 32
0.0
 14
26.66999878883363
 24
20.31999878883363
 34
0.0
 15
240.0299890995026
 25
182.8799890995025
 35
0.0
146
0.0
 13
0.0
 23
0.0
 33
0.0
 16
1.0
 26
0.0
 36
0.0
 17
0.0
 27
1.0
 37
0.0
 76
     0
330
16
331
4C67
  0
LAYOUT
  5
3F27
102
{ACAD_REACTORS
330
3F25
102
}
330
3F25
100
AcDbPlotSettings
  1
A3 quer
  2
A3quer-MSL.pc3
  4
A3
  6

 40
6.085416793823242
 41
6.12772798538208
 42
5.662078857421875
 43
5.53509521484375
 44
296.9683227539062
 45
419.9889831542968
 46
4.5
 47
2.5
 48
0.0
 49
0.0
140
0.0
141
0.0
142
1.0
143
1.0
 70
 11952
 72
     1
 73
     1
 74
     1
  7
A3 hoch.ctb
 75
    16
147
1.0
 76
     0
 77
     2
 78
   300
148
0.0160923307578855
149
0.4351688123455233
100
AcDbLayout
  1
Model
 70
     1
 71
     0
 10
0.0
 20
0.0
 11
12.0
 21
9.0
 12
0.0
 22
0.0
 32
0.0
 14
0.0
 24
0.0
 34
0.0
 15
0.0
 25
0.0
 35
0.0
146
0.0
 13
0.0
 23
0.0
 33
0.0
 16
1.0
 26
0.0
 36
0.0
 17
0.0
 27
1.0
 37
0.0
 76
     0
330
19
331
4F94
  0
MATERIAL
  5
4F9E
102
{ACAD_XDICTIONARY
360
4F9F
102
}
102
{ACAD_REACTORS
330
4E6B
102
}
330
4E6B
100
AcDbMaterial
  1
ByBlock
 72
     0
 43
0.0208333333333333
 43
0.0
 43
0.0
 43
0.0
 43
0.0
 43
0.0208333333333333
 43
0.0
 43
0.0
 43
0.0
 43
0.0
 43
1.0
 43
0.0
 43
0.0
 43
0.0
 43
0.0
 43
1.0
 77
     0
 47
0.0208333333333333
 47
0.0
 47
0.0
 47
0.0
 47
0.0
 47
0.0208333333333333
 47
0.0
 47
0.0
 47
0.0
 47
0.0
 47
1.0
 47
0.0
 47
0.0
 47
0.0
 47
0.0
 47
1.0
171
     0
 49
0.0208333333333333
 49
0.0
 49
0.0
 49
0.0
 49
0.0
 49
0.0208333333333333
 49
0.0
 49
0.0
 49
0.0
 49
0.0
 49
1.0
 49
0.0
 49
0.0
 49
0.0
 49
0.0
 49
1.0
175
     0
142
0.0208333333333333
142
0.0
142
0.0
142
0.0
142
0.0
142
0.0208333333333333
142
0.0
142
0.0
142
0.0
142
0.0
142
1.0
142
0.0
142
0.0
142
0.0
142
0.0
142
1.0
179
     0
144
0.0208333333333333
144
0.0
144
0.0
144
0.0
144
0.0
144
0.0208333333333333
144
0.0
144
0.0
144
0.0
144
0.0
144
1.0
144
0.0
144
0.0
144
0.0
144
0.0
144
1.0
147
0.0208333333333333
147
0.0
147
0.0
147
0.0
147
0.0
147
0.0208333333333333
147
0.0
147
0.0
147
0.0
147
0.0
147
1.0
147
0.0
147
0.0
147
0.0
147
0.0
147
1.0
  0
MATERIAL
  5
4F96
102
{ACAD_XDICTIONARY
360
4F97
102
}
102
{ACAD_REACTORS
330
4E6B
102
}
330
4E6B
100
AcDbMaterial
  1
ByLayer
 72
     0
 43
0.0208333333333333
 43
0.0
 43
0.0
 43
0.0
 43
0.0
 43
0.0208333333333333
 43
0.0
 43
0.0
 43
0.0
 43
0.0
 43
1.0
 43
0.0
 43
0.0
 43
0.0
 43
0.0
 43
1.0
 77
     0
 47
0.0208333333333333
 47
0.0
 47
0.0
 47
0.0
 47
0.0
 47
0.0208333333333333
 47
0.0
 47
0.0
 47
0.0
 47
0.0
 47
1.0
 47
0.0
 47
0.0
 47
0.0
 47
0.0
 47
1.0
171
     0
 49
0.0208333333333333
 49
0.0
 49
0.0
 49
0.0
 49
0.0
 49
0.0208333333333333
 49
0.0
 49
0.0
 49
0.0
 49
0.0
 49
1.0
 49
0.0
 49
0.0
 49
0.0
 49
0.0
 49
1.0
175
     0
142
0.0208333333333333
142
0.0
142
0.0
142
0.0
142
0.0
142
0.0208333333333333
142
0.0
142
0.0
142
0.0
142
0.0
142
1.0
142
0.0
142
0.0
142
0.0
142
0.0
142
1.0
179
     0
144
0.0208333333333333
144
0.0
144
0.0
144
0.0
144
0.0
144
0.0208333333333333
144
0.0
144
0.0
144
0.0
144
0.0
144
1.0
144
0.0
144
0.0
144
0.0
144
0.0
144
1.0
147
0.0208333333333333
147
0.0
147
0.0
147
0.0
147
0.0
147
0.0208333333333333
147
0.0
147
0.0
147
0.0
147
0.0
147
1.0
147
0.0
147
0.0
147
0.0
147
0.0
147
1.0
  0
MATERIAL
  5
4FA6
102
{ACAD_XDICTIONARY
360
4FA7
102
}
102
{ACAD_REACTORS
330
4E6B
102
}
330
4E6B
100
AcDbMaterial
  1
Global
 72
     0
 43
0.0208333333333333
 43
0.0
 43
0.0
 43
0.0
 43
0.0
 43
0.0208333333333333
 43
0.0
 43
0.0
 43
0.0
 43
0.0
 43
1.0
 43
0.0
 43
0.0
 43
0.0
 43
0.0
 43
1.0
 77
     0
 47
0.0208333333333333
 47
0.0
 47
0.0
 47
0.0
 47
0.0
 47
0.0208333333333333
 47
0.0
 47
0.0
 47
0.0
 47
0.0
 47
1.0
 47
0.0
 47
0.0
 47
0.0
 47
0.0
 47
1.0
171
     0
 49
0.0208333333333333
 49
0.0
 49
0.0
 49
0.0
 49
0.0
 49
0.0208333333333333
 49
0.0
 49
0.0
 49
0.0
 49
0.0
 49
1.0
 49
0.0
 49
0.0
 49
0.0
 49
0.0
 49
1.0
175
     0
142
0.0208333333333333
142
0.0
142
0.0
142
0.0
142
0.0
142
0.0208333333333333
142
0.0
142
0.0
142
0.0
142
0.0
142
1.0
142
0.0
142
0.0
142
0.0
142
0.0
142
1.0
179
     0
144
0.0208333333333333
144
0.0
144
0.0
144
0.0
144
0.0
144
0.0208333333333333
144
0.0
144
0.0
144
0.0
144
0.0
144
1.0
144
0.0
144
0.0
144
0.0
144
0.0
144
1.0
147
0.0208333333333333
147
0.0
147
0.0
147
0.0
147
0.0
147
0.0208333333333333
147
0.0
147
0.0
147
0.0
147
0.0
147
1.0
147
0.0
147
0.0
147
0.0
147
0.0
147
1.0
  0
MLEADERSTYLE
  5
4FD2
102
{ACAD_REACTORS
330
4FD1
330
5484
330
5485
102
}
330
4FD1
100
AcDbMLeaderStyle
179
     2
170
     2
171
     1
172
     0
 90
        2
 40
0.0
 41
0.0
173
     1
 91
-1056964608
340
13
 92
       -2
290
     1
 42
2.0
291
     1
 43
0.36
  3
Standard
 44
4.0
300

342
10
174
     1
178
     6
175
     1
176
     0
 93
-1056964608
 45
4.0
292
     0
297
     0
 46
4.0
 94
-1056964608
 47
1.0
 49
1.0
140
1.0
293
     1
141
0.0
294
     1
177
     0
142
1.0
295
     0
296
     0
143
0.125
271
     0
272
     9
273
     9
298
     1
  0
MLINESTYLE
  5
1C
102
{ACAD_REACTORS
330
E
102
}
330
E
100
AcDbMlineStyle
  2
STANDARD
 70
     0
  3

 62
     0
 51
90.0
 52
90.0
 71
     2
 49
0.5
 62
   256
  6
BYLAYER
 49
-0.5
 62
   256
  6
BYLAYER
  0
PLOTSETTINGS
  5
4E28
102
{ACAD_REACTORS
330
3F26
102
}
330
3F26
100
AcDbPlotSettings
  1
A3 hoch
  2
A3hoch-MSL.pc3
  4
A3
  6

 40
6.085416793823242
 41
6.12772798538208
 42
5.662078857421875
 43
5.53509521484375
 44
296.9683227539062
 45
419.9889831542968
 46
0.0
 47
0.0
 48
0.0
 49
0.0
140
0.0
141
0.0
142
1.0
143
1.0
 70
  1712
 72
     1
 73
     0
 74
     2
  7
monochrome.ctb
 75
    16
147
1.0
 76
     0
 77
     2
 78
   300
148
9.5
149
4.0
  0
PLOTSETTINGS
  5
4E27
102
{ACAD_REACTORS
330
3F26
102
}
330
3F26
100
AcDbPlotSettings
  1
A3 quer
  2
A3quer-MSL.pc3
  4
A3
  6

 40
6.085416793823242
 41
6.12772798538208
 42
5.662078857421875
 43
5.53509521484375
 44
296.9683227539062
 45
419.9889831542968
 46
0.0
 47
0.0
 48
0.0
 49
0.0
140
0.0
141
0.0
142
1.0
143
1.0
 70
  1712
 72
     1
 73
     1
 74
     2
  7
monochrome.ctb
 75
    16
147
1.0
 76
     0
 77
     2
 78
   300
148
9.5
149
4.0
  0
PLOTSETTINGS
  5
4E29
102
{ACAD_REACTORS
330
3F26
102
}
330
3F26
100
AcDbPlotSettings
  1
A4 hoch
  2
A4hoch-MSL.pc3
  4
A4
  6

 40
6.011333465576171
 41
4.233306884765625
 42
6.011322021484375
 43
4.23333740234375
 44
209.9733276367187
 45
296.9683227539062
 46
0.0
 47
0.0
 48
0.0
 49
0.0
140
0.0
141
0.0
142
1.0
143
1.0
 70
  3760
 72
     1
 73
     0
 74
     2
  7
monochrome.ctb
 75
    16
147
1.0
 76
     0
 77
     2
 78
   300
148
0.0
149
0.0
1001
ACAD_PSEXT
1000
A4hoch-MSL.pc3
1000
HP Universal Printing PCL 5
1000
HST_mslklp05.msl.ch
1000

1070
     0
  0
ACDBPLACEHOLDER
  5
3F24
102
{ACAD_REACTORS
330
3F23
102
}
330
3F23
  0
SCALE
  5
4FC0
102
{ACAD_REACTORS
330
4FBF
102
}
330
4FBF
100
AcDbScale
 70
     0
300
1:1
140
1.0
141
1.0
290
     1
  0
SCALE
  5
4FC1
102
{ACAD_REACTORS
330
4FBF
102
}
330
4FBF
100
AcDbScale
 70
     0
300
1:2
140
1.0
141
2.0
290
     0
  0
SCALE
  5
4FC2
102
{ACAD_REACTORS
330
4FBF
102
}
330
4FBF
100
AcDbScale
 70
     0
300
1:4
140
1.0
141
4.0
290
     0
  0
SCALE
  5
4FC3
102
{ACAD_REACTORS
330
4FBF
102
}
330
4FBF
100
AcDbScale
 70
     0
300
1:5
140
1.0
141
5.0
290
     0
  0
SCALE
  5
4FC4
102
{ACAD_REACTORS
330
4FBF
102
}
330
4FBF
100
AcDbScale
 70
     0
300
1:8
140
1.0
141
8.0
290
     0
  0
SCALE
  5
4FC5
102
{ACAD_REACTORS
330
4FBF
102
}
330
4FBF
100
AcDbScale
 70
     0
300
1:10
140
1.0
141
10.0
290
     0
  0
SCALE
  5
4FC6
102
{ACAD_REACTORS
330
4FBF
102
}
330
4FBF
100
AcDbScale
 70
     0
300
1:16
140
1.0
141
16.0
290
     0
  0
SCALE
  5
4FC7
102
{ACAD_REACTORS
330
4FBF
102
}
330
4FBF
100
AcDbScale
 70
     0
300
1:20
140
1.0
141
20.0
290
     0
  0
SCALE
  5
4FC8
102
{ACAD_REACTORS
330
4FBF
102
}
330
4FBF
100
AcDbScale
 70
     0
300
1:30
140
1.0
141
30.0
290
     0
  0
SCALE
  5
4FC9
102
{ACAD_REACTORS
330
4FBF
102
}
330
4FBF
100
AcDbScale
 70
     0
300
1:40
140
1.0
141
40.0
290
     0
  0
SCALE
  5
4FCA
102
{ACAD_REACTORS
330
4FBF
102
}
330
4FBF
100
AcDbScale
 70
     0
300
1:50
140
1.0
141
50.0
290
     0
  0
SCALE
  5
4FCB
102
{ACAD_REACTORS
330
4FBF
102
}
330
4FBF
100
AcDbScale
 70
     0
300
1:100
140
1.0
141
100.0
290
     0
  0
SCALE
  5
4FCC
102
{ACAD_REACTORS
330
4FBF
102
}
330
4FBF
100
AcDbScale
 70
     0
300
2:1
140
2.0
141
1.0
290
     0
  0
SCALE
  5
4FCD
102
{ACAD_REACTORS
330
4FBF
102
}
330
4FBF
100
AcDbScale
 70
     0
300
4:1
140
4.0
141
1.0
290
     0
  0
SCALE
  5
4FCE
102
{ACAD_REACTORS
330
4FBF
102
}
330
4FBF
100
AcDbScale
 70
     0
300
8:1
140
8.0
141
1.0
290
     0
  0
SCALE
  5
4FCF
102
{ACAD_REACTORS
330
4FBF
102
}
330
4FBF
100
AcDbScale
 70
     0
300
10:1
140
10.0
141
1.0
290
     0
  0
SCALE
  5
4FD0
102
{ACAD_REACTORS
330
4FBF
102
}
330
4FBF
100
AcDbScale
 70
     0
300
100:1
140
100.0
141
1.0
290
     0
  0
ACDBSECTIONVIEWSTYLE
  5
5280
102
{ACAD_XDICTIONARY
360
5281
102
}
102
{ACAD_REACTORS
330
5155
330
5393
102
}
330
5155
100
AcDbModelDocViewStyle
 70
     0
  3
Imperial24
290
     0
100
AcDbSectionViewStyle
 70
     0
 71
     0
 90
       78
 71
     1
340
10
 62
   256
 40
0.24
340
0
340
0
 62
   256
 40
0.24
300
I, O, Q, S, X, Z
 40
0.48
 90
        3
 40
0.18
 90
        1
 71
     2
340
15
 90
       25
 62
   256
340
15
 90
       50
 62
   256
 40
0.24
 40
0.0
 40
0.24
 71
     3
340
10
 62
   256
 40
0.24
 90
        1
 40
0.75
 90
        1
300
%<\AcVar ViewType \f "%tc1">% %<\AcVar ViewSectionStartId>%-%<\AcVar ViewSectionEndId>%\PVARIA %<\AcVar ViewScale \f "%sn">%
 71
     4
 62
   256
 62
   257
300
ANSI31
 40
1.0
 90
        0
290
     0
290
     0
 90
        6
 40
0.0
 40
1.570796326794896
 40
0.2617993877991494
 40
1.308996938995747
 40
-0.2617993877991494
 40
1.832595714594046
  0
ACDBSECTIONVIEWSTYLE
  5
5156
102
{ACAD_XDICTIONARY
360
565D
102
}
102
{ACAD_REACTORS
330
5155
330
517B
102
}
330
5155
100
AcDbModelDocViewStyle
 70
     0
  3
Metric50
290
     0
100
AcDbSectionViewStyle
 70
     0
 71
     0
 90
      102
 71
     1
340
10
 62
   256
 40
5.0
340
0
340
0
 62
   256
 40
5.0
300
I, O, Q, S, X, Z
 40
10.0
 90
        0
 40
2.5
 90
        0
 71
     2
340
15
 90
       25
 62
   256
340
15
 90
       50
 62
   256
 40
5.0
 40
2.5
 40
5.0
 71
     3
340
10
 62
   256
 40
5.0
 90
        0
 40
15.0
 90
        1
300
%<\AcVar ViewSectionStartId>%-%<\AcVar ViewSectionEndId>% (%<\AcVar ViewScale \f "%sn">%)
 71
     4
 62
   256
 62
   257
300
ANSI31
 40
1.0
 90
        0
290
     0
290
     0
 90
        6
 40
0.0
 40
1.570796326794896
 40
0.2617993877991494
 40
1.308996938995747
 40
-0.2617993877991494
 40
1.832595714594046
  0
TABLESTYLE
  5
4E6E
102
{ACAD_XDICTIONARY
360
5000
102
}
102
{ACAD_REACTORS
330
4E6D
102
}
330
4E6D
100
AcDbTableStyle
280
     0
  3
Standard
 70
     0
 71
     0
 40
1.5
 41
1.5
280
     0
281
     0
  7
STANDARD
140
4.5
170
     2
 62
     0
 63
     7
283
     0
 90
        4
 91
        0
  1

274
    -2
284
     1
 64
     0
275
    -2
285
     1
 65
     0
276
    -2
286
     1
 66
     0
277
    -2
287
     1
 67
     0
278
    -2
288
     1
 68
     0
279
    -2
289
     1
 69
     0
  7
STANDARD
140
6.0
170
     5
 62
     0
 63
     7
283
     0
 90
        4
 91
        0
  1

274
    -2
284
     1
 64
     0
275
    -2
285
     1
 65
     0
276
    -2
286
     1
 66
     0
277
    -2
287
     1
 67
     0
278
    -2
288
     1
 68
     0
279
    -2
289
     1
 69
     0
  7
STANDARD
140
4.5
170
     5
 62
     0
 63
     7
283
     0
 90
        4
 91
        0
  1

274
    -2
284
     1
 64
     0
275
    -2
285
     1
 65
     0
276
    -2
286
     1
 66
     0
277
    -2
287
     1
 67
     0
278
    -2
288
     1
 68
     0
279
    -2
289
     1
 69
     0
  0
VISUALSTYLE
  5
4FB4
102
{ACAD_REACTORS
330
4FAE
102
}
330
4FAE
100
AcDbVisualStyle
  2
2dWireframe
 70
     4
177
     3
291
     0
 70
    58
 90
        0
176
     1
 90
        2
176
     1
 90
        0
176
     1
 90
        0
176
     1
 40
0.6
176
     1
 40
30.0
176
     1
 62
     7
420
 16777215
176
     1
 90
        1
176
     1
 90
        4
176
     1
 62
     7
176
     1
 62
   257
176
     1
 90
        1
176
     1
 90
        1
176
     1
 40
1.0
176
     1
 90
        0
176
     1
 62
   257
176
     1
 40
1.0
176
     1
 90
        1
176
     1
 90
        6
176
     1
 90
        2
176
     1
 62
     7
176
     1
 90
        5
176
     1
 90
        0
176
     1
 90
        0
176
     1
290
     0
176
     1
 90
        1
176
     1
 40
0.0
176
     1
 90
        0
176
     1
290
     1
176
     1
290
     1
176
     1
290
     0
176
     1
290
     0
176
     1
290
     0
176
     1
290
     0
176
     1
290
     0
176
     1
290
     0
176
     1
290
     0
176
     1
 90
       50
176
     1
 40
0.0
176
     1
 40
1.0
176
     1
 90
        0
176
     1
 62
    18
420
        0
176
     1
 90
       50
176
     1
 90
        3
176
     1
 62
     5
420
      255
176
     1
290
     0
176
     1
 90
       50
176
     1
 90
       50
176
     1
 90
       50
176
     1
290
     0
176
     1
 90
       50
176
     1
 62
   256
176
     0
 40
1.0
176
     0
 90
        2
176
     1
  1
strokes_ogs.tif
176
     1
290
     0
176
     1
 40
1.0
176
     1
 40
1.0
176
     1
  0
VISUALSTYLE
  5
4FB6
102
{ACAD_REACTORS
330
4FAE
102
}
330
4FAE
100
AcDbVisualStyle
  2
3D Hidden
 70
     6
177
     3
291
     0
 70
    58
 90
        1
176
     1
 90
        2
176
     1
 90
        2
176
     1
 90
        0
176
     1
 40
0.6
176
     1
 40
30.0
176
     1
 62
     7
420
 16777215
176
     1
 90
        2
176
     1
 90
        2
176
     1
 62
     7
176
     1
 62
   257
176
     1
 90
        2
176
     1
 90
        1
176
     1
 40
40.0
176
     1
 90
        0
176
     1
 62
   257
176
     1
 40
1.0
176
     1
 90
        1
176
     1
 90
        6
176
     1
 90
        2
176
     1
 62
     7
176
     1
 90
        3
176
     1
 90
        0
176
     1
 90
        0
176
     1
290
     0
176
     1
 90
        1
176
     1
 40
0.0
176
     1
 90
        0
176
     1
290
     0
176
     1
290
     1
176
     1
290
     1
176
     1
290
     0
176
     1
290
     0
176
     1
290
     0
176
     1
290
     0
176
     1
290
     0
176
     1
290
     0
176
     1
 90
       50
176
     1
 40
0.0
176
     1
 40
1.0
176
     1
 90
        0
176
     1
 62
    18
420
        0
176
     1
 90
       50
176
     1
 90
        3
176
     1
 62
     5
420
      255
176
     1
290
     0
176
     1
 90
       50
176
     1
 90
       50
176
     1
 90
       50
176
     1
290
     0
176
     1
 90
       50
176
     1
 62
   256
176
     0
 40
1.0
176
     0
 90
        2
176
     1
  1
strokes_ogs.tif
176
     1
290
     0
176
     1
 40
1.0
176
     1
 40
1.0
176
     1
  0
VISUALSTYLE
  5
4FB5
102
{ACAD_REACTORS
330
4FAE
102
}
330
4FAE
100
AcDbVisualStyle
  2
3dWireframe
 70
     5
177
     3
291
     0
 70
    58
 90
        0
176
     1
 90
        2
176
     1
 90
        0
176
     1
 90
        0
176
     1
 40
0.6
176
     1
 40
30.0
176
     1
 62
     7
420
 16777215
176
     1
 90
        1
176
     1
 90
        4
176
     1
 62
     7
176
     1
 62
   257
176
     1
 90
        1
176
     1
 90
        1
176
     1
 40
1.0
176
     1
 90
        0
176
     1
 62
   257
176
     1
 40
1.0
176
     1
 90
        1
176
     1
 90
        6
176
     1
 90
        2
176
     1
 62
     7
176
     1
 90
        5
176
     1
 90
        0
176
     1
 90
        0
176
     1
290
     0
176
     1
 90
        1
176
     1
 40
0.0
176
     1
 90
        0
176
     1
290
     0
176
     1
290
     1
176
     1
290
     1
176
     1
290
     0
176
     1
290
     0
176
     1
290
     0
176
     1
290
     0
176
     1
290
     0
176
     1
290
     0
176
     1
 90
       50
176
     1
 40
0.0
176
     1
 40
1.0
176
     1
 90
        0
176
     1
 62
    18
420
        0
176
     1
 90
       50
176
     1
 90
        3
176
     1
 62
     5
420
      255
176
     1
290
     0
176
     1
 90
       50
176
     1
 90
       50
176
     1
 90
       50
176
     1
290
     0
176
     1
 90
       50
176
     1
 62
   256
176
     0
 40
1.0
176
     0
 90
        2
176
     1
  1
strokes_ogs.tif
176
     1
290
     0
176
     1
 40
1.0
176
     1
 40
1.0
176
     1
  0
VISUALSTYLE
  5
4FB3
102
{ACAD_REACTORS
330
4FAE
102
}
330
4FAE
100
AcDbVisualStyle
  2
Basic
 70
     7
177
     3
291
     1
 70
    58
 90
        1
176
     1
 90
        0
176
     1
 90
        1
176
     1
 90
        0
176
     1
 40
0.6
176
     1
 40
30.0
176
     1
 62
     7
420
 16777215
176
     1
 90
        0
176
     1
 90
        4
176
     1
 62
     7
176
     1
 62
   257
176
     1
 90
        1
176
     1
 90
        1
176
     1
 40
1.0
176
     1
 90
        8
176
     1
 62
     7
176
     1
 40
1.0
176
     1
 90
        1
176
     1
 90
        6
176
     1
 90
        2
176
     1
 62
     7
176
     1
 90
        5
176
     1
 90
        0
176
     1
 90
        0
176
     1
290
     0
176
     1
 90
        1
176
     1
 40
0.0
176
     1
 90
        0
176
     1
290
     0
176
     1
290
     1
176
     1
290
     1
176
     1
290
     0
176
     1
290
     0
176
     1
290
     0
176
     1
290
     0
176
     1
290
     0
176
     1
290
     0
176
     1
 90
       50
176
     1
 40
0.0
176
     1
 40
1.0
176
     1
 90
        0
176
     1
 62
    18
420
        0
176
     1
 90
       50
176
     1
 90
        3
176
     1
 62
     5
420
      255
176
     1
290
     0
176
     1
 90
       50
176
     1
 90
       50
176
     1
 90
       50
176
     1
290
     0
176
     1
 90
       50
176
     1
 62
   256
176
     0
 40
1.0
176
     0
 90
        2
176
     1
  1
strokes_ogs.tif
176
     1
290
     0
176
     1
 40
1.0
176
     1
 40
1.0
176
     1
  0
VISUALSTYLE
  5
4FBA
102
{ACAD_REACTORS
330
4FAE
102
}
330
4FAE
100
AcDbVisualStyle
  2
Brighten
 70
    12
177
     3
291
     1
 70
    58
 90
        2
176
     1
 90
        2
176
     1
 90
        0
176
     1
 90
        0
176
     1
 40
0.6
176
     1
 40
30.0
176
     1
 62
     7
420
 16777215
176
     1
 90
        1
176
     1
 90
        4
176
     1
 62
     7
176
     1
 62
   257
176
     1
 90
        1
176
     1
 90
        1
176
     1
 40
1.0
176
     1
 90
        8
176
     1
 62
     7
176
     1
 40
1.0
176
     1
 90
        1
176
     1
 90
        6
176
     1
 90
        2
176
     1
 62
     7
176
     1
 90
        5
176
     1
 90
        0
176
     1
 90
        0
176
     1
290
     0
176
     1
 90
        1
176
     1
 40
50.0
176
     1
 90
        0
176
     1
290
     0
176
     1
290
     1
176
     1
290
     1
176
     1
290
     0
176
     1
290
     0
176
     1
290
     0
176
     1
290
     0
176
     1
290
     0
176
     1
290
     0
176
     1
 90
       50
176
     1
 40
0.0
176
     1
 40
1.0
176
     1
 90
        0
176
     1
 62
    18
420
        0
176
     1
 90
       50
176
     1
 90
        3
176
     1
 62
     5
420
      255
176
     1
290
     0
176
     1
 90
       50
176
     1
 90
       50
176
     1
 90
       50
176
     1
290
     0
176
     1
 90
       50
176
     1
 62
   256
176
     0
 40
1.0
176
     0
 90
        2
176
     1
  1
strokes_ogs.tif
176
     1
290
     0
176
     1
 40
1.0
176
     1
 40
1.0
176
     1
  0
VISUALSTYLE
  5
4FBE
102
{ACAD_REACTORS
330
4FAE
102
}
330
4FAE
100
AcDbVisualStyle
  2
ColorChange
 70
    16
177
     3
291
     1
 70
    58
 90
        2
176
     1
 90
        2
176
     1
 90
        3
176
     1
 90
        0
176
     1
 40
0.6
176
     1
 40
30.0
176
     1
 62
     8
420
  8421504
176
     1
 90
        1
176
     1
 90
        4
176
     1
 62
     7
176
     1
 62
   257
176
     1
 90
        1
176
     1
 90
        1
176
     1
 40
1.0
176
     1
 90
        8
176
     1
 62
     8
420
  8421504
176
     1
 40
1.0
176
     1
 90
        1
176
     1
 90
        6
176
     1
 90
        2
176
     1
 62
     7
176
     1
 90
        5
176
     1
 90
        0
176
     1
 90
        0
176
     1
290
     0
176
     1
 90
        1
176
     1
 40
0.0
176
     1
 90
        0
176
     1
290
     0
176
     1
290
     1
176
     1
290
     1
176
     1
290
     0
176
     1
290
     0
176
     1
290
     0
176
     1
290
     0
176
     1
290
     0
176
     1
290
     0
176
     1
 90
       50
176
     1
 40
0.0
176
     1
 40
1.0
176
     1
 90
        0
176
     1
 62
    18
420
        0
176
     1
 90
       50
176
     1
 90
        3
176
     1
 62
     5
420
      255
176
     1
290
     0
176
     1
 90
       50
176
     1
 90
       50
176
     1
 90
       50
176
     1
290
     0
176
     1
 90
       50
176
     1
 62
   256
176
     0
 40
1.0
176
     0
 90
        2
176
     1
  1
strokes_ogs.tif
176
     1
290
     0
176
     1
 40
1.0
176
     1
 40
1.0
176
     1
  0
VISUALSTYLE
  5
4FB7
102
{ACAD_REACTORS
330
4FAE
102
}
330
4FAE
100
AcDbVisualStyle
  2
Conceptual
 70
     9
177
     3
291
     0
 70
    58
 90
        3
176
     1
 90
        2
176
     1
 90
        0
176
     1
 90
        0
176
     1
 40
0.6
176
     1
 40
30.0
176
     1
 62
     7
420
 16777215
176
     1
 90
        2
176
     1
 90
        2
176
     1
 62
     7
176
     1
 62
   257
176
     1
 90
        1
176
     1
 90
        1
176
     1
 40
40.0
176
     1
 90
        8
176
     1
 62
     7
176
     1
 40
1.0
176
     1
 90
        1
176
     1
 90
        6
176
     1
 90
        2
176
     1
 62
     7
176
     1
 90
        3
176
     1
 90
        0
176
     1
 90
        0
176
     1
290
     0
176
     1
 90
        1
176
     1
 40
0.0
176
     1
 90
        0
176
     1
290
     0
176
     1
290
     1
176
     1
290
     1
176
     1
290
     0
176
     1
290
     0
176
     1
290
     0
176
     1
290
     0
176
     1
290
     0
176
     1
290
     0
176
     1
 90
       50
176
     1
 40
0.0
176
     1
 40
1.0
176
     1
 90
        0
176
     1
 62
    18
420
        0
176
     1
 90
       50
176
     1
 90
        3
176
     1
 62
     5
420
      255
176
     1
290
     0
176
     1
 90
       50
176
     1
 90
       50
176
     1
 90
       50
176
     1
290
     0
176
     1
 90
       50
176
     1
 62
   256
176
     0
 40
1.0
176
     0
 90
        2
176
     1
  1
strokes_ogs.tif
176
     1
290
     0
176
     1
 40
1.0
176
     1
 40
1.0
176
     1
  0
VISUALSTYLE
  5
4FB9
102
{ACAD_REACTORS
330
4FAE
102
}
330
4FAE
100
AcDbVisualStyle
  2
Dim
 70
    11
177
     3
291
     1
 70
    58
 90
        2
176
     1
 90
        2
176
     1
 90
        0
176
     1
 90
        0
176
     1
 40
0.6
176
     1
 40
30.0
176
     1
 62
     7
420
 16777215
176
     1
 90
        1
176
     1
 90
        4
176
     1
 62
     7
176
     1
 62
   257
176
     1
 90
        1
176
     1
 90
        1
176
     1
 40
1.0
176
     1
 90
        8
176
     1
 62
     7
176
     1
 40
1.0
176
     1
 90
        1
176
     1
 90
        6
176
     1
 90
        2
176
     1
 62
     7
176
     1
 90
        5
176
     1
 90
        0
176
     1
 90
        0
176
     1
290
     0
176
     1
 90
        1
176
     1
 40
-50.0
176
     1
 90
        0
176
     1
290
     0
176
     1
290
     1
176
     1
290
     1
176
     1
290
     0
176
     1
290
     0
176
     1
290
     0
176
     1
290
     0
176
     1
290
     0
176
     1
290
     0
176
     1
 90
       50
176
     1
 40
0.0
176
     1
 40
1.0
176
     1
 90
        0
176
     1
 62
    18
420
        0
176
     1
 90
       50
176
     1
 90
        3
176
     1
 62
     5
420
      255
176
     1
290
     0
176
     1
 90
       50
176
     1
 90
       50
176
     1
 90
       50
176
     1
290
     0
176
     1
 90
       50
176
     1
 62
   256
176
     0
 40
1.0
176
     0
 90
        2
176
     1
  1
strokes_ogs.tif
176
     1
290
     0
176
     1
 40
1.0
176
     1
 40
1.0
176
     1
  0
VISUALSTYLE
  5
509A
102
{ACAD_REACTORS
330
4FAE
102
}
330
4FAE
100
AcDbVisualStyle
  2
EdgeColorOff
 70
    22
177
     3
291
     1
 70
    58
 90
        2
176
     0
 90
        2
176
     0
 90
        0
176
     0
 90
        0
176
     0
 40
0.6
176
     0
 40
30.0
176
     0
 62
     7
420
 16777215
176
     0
 90
        1
176
     0
 90
        4
176
     0
 62
     7
176
     0
 62
   257
176
     0
 90
        1
176
     0
 90
        1
176
     0
 40
1.0
176
     0
 90
        8
176
     2
 62
     7
176
     0
 40
1.0
176
     0
 90
        1
176
     0
 90
        6
176
     0
 90
        2
176
     0
 62
     7
176
     0
 90
        5
176
     0
 90
        0
176
     0
 90
        0
176
     0
290
     0
176
     0
 90
        1
176
     0
 40
0.0
176
     0
 90
        0
176
     0
290
     0
176
     1
290
     1
176
     1
290
     1
176
     1
290
     0
176
     1
290
     0
176
     1
290
     0
176
     1
290
     0
176
     1
290
     0
176
     1
290
     0
176
     1
 90
       50
176
     1
 40
0.0
176
     1
 40
1.0
176
     1
 90
        0
176
     1
 62
    18
420
        0
176
     1
 90
       50
176
     1
 90
        3
176
     1
 62
     5
420
      255
176
     1
290
     0
176
     1
 90
       50
176
     1
 90
       50
176
     1
 90
       50
176
     1
290
     0
176
     1
 90
       50
176
     1
 62
   256
176
     0
 40
1.0
176
     0
 90
        2
176
     1
  1
strokes_ogs.tif
176
     1
290
     0
176
     1
 40
1.0
176
     1
 40
1.0
176
     1
  0
VISUALSTYLE
  5
4FBD
102
{ACAD_REACTORS
330
4FAE
102
}
330
4FAE
100
AcDbVisualStyle
  2
Facepattern
 70
    15
177
     3
291
     1
 70
    58
 90
        2
176
     1
 90
        2
176
     1
 90
        0
176
     1
 90
        0
176
     1
 40
0.6
176
     1
 40
30.0
176
     1
 62
     7
420
 16777215
176
     1
 90
        1
176
     1
 90
        4
176
     1
 62
     7
176
     1
 62
   257
176
     1
 90
        1
176
     1
 90
        1
176
     1
 40
1.0
176
     1
 90
        8
176
     1
 62
     7
176
     1
 40
1.0
176
     1
 90
        1
176
     1
 90
        6
176
     1
 90
        2
176
     1
 62
     7
176
     1
 90
        5
176
     1
 90
        0
176
     1
 90
        0
176
     1
290
     0
176
     1
 90
        1
176
     1
 40
0.0
176
     1
 90
        0
176
     1
290
     0
176
     1
290
     1
176
     1
290
     1
176
     1
290
     0
176
     1
290
     0
176
     1
290
     0
176
     1
290
     0
176
     1
290
     0
176
     1
290
     0
176
     1
 90
       50
176
     1
 40
0.0
176
     1
 40
1.0
176
     1
 90
        0
176
     1
 62
    18
420
        0
176
     1
 90
       50
176
     1
 90
        3
176
     1
 62
     5
420
      255
176
     1
290
     0
176
     1
 90
       50
176
     1
 90
       50
176
     1
 90
       50
176
     1
290
     0
176
     1
 90
       50
176
     1
 62
   256
176
     0
 40
1.0
176
     0
 90
        2
176
     1
  1
strokes_ogs.tif
176
     1
290
     0
176
     1
 40
1.0
176
     1
 40
1.0
176
     1
  0
VISUALSTYLE
  5
4FAF
102
{ACAD_REACTORS
330
4FAE
102
}
330
4FAE
100
AcDbVisualStyle
  2
Flat
 70
     0
177
     3
291
     1
 70
    58
 90
        2
176
     1
 90
        1
176
     1
 90
        1
176
     1
 90
        2
176
     1
 40
0.6
176
     1
 40
30.0
176
     1
 62
     7
420
 16777215
176
     1
 90
        0
176
     1
 90
        4
176
     1
 62
     7
176
     1
 62
   257
176
     1
 90
        1
176
     1
 90
        1
176
     1
 40
1.0
176
     1
 90
        8
176
     1
 62
     7
176
     1
 40
1.0
176
     1
 90
        1
176
     1
 90
        6
176
     1
 90
        2
176
     1
 62
     7
176
     1
 90
        5
176
     1
 90
        0
176
     1
 90
        0
176
     1
290
     0
176
     1
 90
       13
176
     1
 40
0.0
176
     1
 90
        0
176
     1
290
     0
176
     1
290
     1
176
     1
290
     1
176
     1
290
     0
176
     1
290
     0
176
     1
290
     0
176
     1
290
     0
176
     1
290
     0
176
     1
290
     0
176
     1
 90
       50
176
     1
 40
0.0
176
     1
 40
1.0
176
     1
 90
        0
176
     1
 62
    18
420
        0
176
     1
 90
       50
176
     1
 90
        3
176
     1
 62
     5
420
      255
176
     1
290
     0
176
     1
 90
       50
176
     1
 90
       50
176
     1
 90
       50
176
     1
290
     0
176
     1
 90
       50
176
     1
 62
   256
176
     0
 40
1.0
176
     0
 90
        2
176
     1
  1
strokes_ogs.tif
176
     1
290
     0
176
     1
 40
1.0
176
     1
 40
1.0
176
     1
  0
VISUALSTYLE
  5
4FB0
102
{ACAD_REACTORS
330
4FAE
102
}
330
4FAE
100
AcDbVisualStyle
  2
FlatWithEdges
 70
     1
177
     3
291
     1
 70
    58
 90
        2
176
     1
 90
        1
176
     1
 90
        1
176
     1
 90
        2
176
     1
 40
0.6
176
     1
 40
30.0
176
     1
 62
     7
420
 16777215
176
     1
 90
        1
176
     1
 90
        4
176
     1
 62
     7
176
     1
 62
   257
176
     1
 90
        1
176
     1
 90
        1
176
     1
 40
1.0
176
     1
 90
        0
176
     1
 62
   257
176
     1
 40
1.0
176
     1
 90
        1
176
     1
 90
        6
176
     1
 90
        2
176
     1
 62
     7
176
     1
 90
        5
176
     1
 90
        0
176
     1
 90
        0
176
     1
290
     0
176
     1
 90
       13
176
     1
 40
0.0
176
     1
 90
        0
176
     1
290
     0
176
     1
290
     1
176
     1
290
     1
176
     1
290
     0
176
     1
290
     0
176
     1
290
     0
176
     1
290
     0
176
     1
290
     0
176
     1
290
     0
176
     1
 90
       50
176
     1
 40
0.0
176
     1
 40
1.0
176
     1
 90
        0
176
     1
 62
    18
420
        0
176
     1
 90
       50
176
     1
 90
        3
176
     1
 62
     5
420
      255
176
     1
290
     0
176
     1
 90
       50
176
     1
 90
       50
176
     1
 90
       50
176
     1
290
     0
176
     1
 90
       50
176
     1
 62
   256
176
     0
 40
1.0
176
     0
 90
        2
176
     1
  1
strokes_ogs.tif
176
     1
290
     0
176
     1
 40
1.0
176
     1
 40
1.0
176
     1
  0
VISUALSTYLE
  5
4FB1
102
{ACAD_REACTORS
330
4FAE
102
}
330
4FAE
100
AcDbVisualStyle
  2
Gouraud
 70
     2
177
     3
291
     1
 70
    58
 90
        2
176
     1
 90
        2
176
     1
 90
        1
176
     1
 90
        2
176
     1
 40
0.6
176
     1
 40
30.0
176
     1
 62
     7
420
 16777215
176
     1
 90
        0
176
     1
 90
        4
176
     1
 62
     7
176
     1
 62
   257
176
     1
 90
        1
176
     1
 90
        1
176
     1
 40
1.0
176
     1
 90
        0
176
     1
 62
     7
176
     1
 40
1.0
176
     1
 90
        1
176
     1
 90
        6
176
     1
 90
        2
176
     1
 62
     7
176
     1
 90
        5
176
     1
 90
        0
176
     1
 90
        0
176
     1
290
     0
176
     1
 90
       13
176
     1
 40
0.0
176
     1
 90
        0
176
     1
290
     0
176
     1
290
     1
176
     1
290
     1
176
     1
290
     0
176
     1
290
     0
176
     1
290
     0
176
     1
290
     0
176
     1
290
     0
176
     1
290
     0
176
     1
 90
       50
176
     1
 40
0.0
176
     1
 40
1.0
176
     1
 90
        0
176
     1
 62
    18
420
        0
176
     1
 90
       50
176
     1
 90
        3
176
     1
 62
     5
420
      255
176
     1
290
     0
176
     1
 90
       50
176
     1
 90
       50
176
     1
 90
       50
176
     1
290
     0
176
     1
 90
       50
176
     1
 62
   256
176
     0
 40
1.0
176
     0
 90
        2
176
     1
  1
strokes_ogs.tif
176
     1
290
     0
176
     1
 40
1.0
176
     1
 40
1.0
176
     1
  0
VISUALSTYLE
  5
4FB2
102
{ACAD_REACTORS
330
4FAE
102
}
330
4FAE
100
AcDbVisualStyle
  2
GouraudWithEdges
 70
     3
177
     3
291
     1
 70
    58
 90
        2
176
     1
 90
        2
176
     1
 90
        1
176
     1
 90
        2
176
     1
 40
0.6
176
     1
 40
30.0
176
     1
 62
     7
420
 16777215
176
     1
 90
        1
176
     1
 90
        4
176
     1
 62
     7
176
     1
 62
   257
176
     1
 90
        1
176
     1
 90
        1
176
     1
 40
1.0
176
     1
 90
        0
176
     1
 62
   257
176
     1
 40
1.0
176
     1
 90
        1
176
     1
 90
        6
176
     1
 90
        2
176
     1
 62
     7
176
     1
 90
        5
176
     1
 90
        0
176
     1
 90
        0
176
     1
290
     0
176
     1
 90
       13
176
     1
 40
0.0
176
     1
 90
        0
176
     1
290
     0
176
     1
290
     1
176
     1
290
     1
176
     1
290
     0
176
     1
290
     0
176
     1
290
     0
176
     1
290
     0
176
     1
290
     0
176
     1
290
     0
176
     1
 90
       50
176
     1
 40
0.0
176
     1
 40
1.0
176
     1
 90
        0
176
     1
 62
    18
420
        0
176
     1
 90
       50
176
     1
 90
        3
176
     1
 62
     5
420
      255
176
     1
290
     0
176
     1
 90
       50
176
     1
 90
       50
176
     1
 90
       50
176
     1
290
     0
176
     1
 90
       50
176
     1
 62
   256
176
     0
 40
1.0
176
     0
 90
        2
176
     1
  1
strokes_ogs.tif
176
     1
290
     0
176
     1
 40
1.0
176
     1
 40
1.0
176
     1
  0
VISUALSTYLE
  5
5092
102
{ACAD_REACTORS
330
4FAE
102
}
330
4FAE
100
AcDbVisualStyle
  2
Hidden
 70
     6
177
     3
291
     0
 70
    58
 90
        1
176
     1
 90
        2
176
     1
 90
        2
176
     1
 90
        0
176
     1
 40
0.6
176
     1
 40
30.0
176
     1
 62
     7
420
 16777215
176
     1
 90
        2
176
     1
 90
        2
176
     1
 62
     7
176
     1
 62
   257
176
     1
 90
        2
176
     1
 90
        1
176
     1
 40
40.0
176
     1
 90
        0
176
     1
 62
   257
176
     1
 40
1.0
176
     1
 90
        1
176
     1
 90
        6
176
     1
 90
        2
176
     1
 62
     7
176
     1
 90
        3
176
     1
 90
        0
176
     1
 90
        0
176
     1
290
     0
176
     1
 90
        1
176
     1
 40
0.0
176
     1
 90
        0
176
     1
290
     0
176
     1
290
     1
176
     1
290
     1
176
     1
290
     0
176
     1
290
     0
176
     1
290
     0
176
     1
290
     0
176
     1
290
     0
176
     1
290
     0
176
     1
 90
       50
176
     1
 40
0.0
176
     1
 40
1.0
176
     1
 90
        0
176
     1
 62
    18
420
        0
176
     1
 90
       50
176
     1
 90
        3
176
     1
 62
     5
420
      255
176
     1
290
     0
176
     1
 90
       50
176
     1
 90
       50
176
     1
 90
       50
176
     1
290
     0
176
     1
 90
       50
176
     1
 62
   256
176
     0
 40
1.0
176
     0
 90
        2
176
     1
  1
strokes_ogs.tif
176
     1
290
     0
176
     1
 40
1.0
176
     1
 40
1.0
176
     1
  0
VISUALSTYLE
  5
5098
102
{ACAD_REACTORS
330
4FAE
102
}
330
4FAE
100
AcDbVisualStyle
  2
JitterOff
 70
    20
177
     3
291
     1
 70
    58
 90
        2
176
     0
 90
        2
176
     0
 90
        0
176
     0
 90
        0
176
     0
 40
0.6
176
     0
 40
30.0
176
     0
 62
     7
420
 16777215
176
     0
 90
        1
176
     0
 90
        4
176
     0
 62
     7
176
     0
 62
   257
176
     0
 90
        1
176
     0
 90
        1
176
     0
 40
1.0
176
     0
 90
       10
176
     2
 62
     7
176
     0
 40
1.0
176
     0
 90
        1
176
     0
 90
        6
176
     0
 90
        2
176
     0
 62
     7
176
     0
 90
        5
176
     0
 90
        0
176
     0
 90
        0
176
     0
290
     0
176
     0
 90
        1
176
     0
 40
0.0
176
     0
 90
        0
176
     0
290
     0
176
     1
290
     1
176
     1
290
     1
176
     1
290
     0
176
     1
290
     0
176
     1
290
     0
176
     1
290
     0
176
     1
290
     0
176
     1
290
     0
176
     1
 90
       50
176
     1
 40
0.0
176
     1
 40
1.0
176
     1
 90
        0
176
     1
 62
    18
420
        0
176
     1
 90
       50
176
     1
 90
        3
176
     1
 62
     5
420
      255
176
     1
290
     0
176
     1
 90
       50
176
     1
 90
       50
176
     1
 90
       50
176
     1
290
     0
176
     1
 90
       50
176
     1
 62
   256
176
     0
 40
1.0
176
     0
 90
        2
176
     1
  1
strokes_ogs.tif
176
     1
290
     0
176
     1
 40
1.0
176
     1
 40
1.0
176
     1
  0
VISUALSTYLE
  5
4FBC
102
{ACAD_REACTORS
330
4FAE
102
}
330
4FAE
100
AcDbVisualStyle
  2
Linepattern
 70
    14
177
     3
291
     1
 70
    58
 90
        2
176
     1
 90
        2
176
     1
 90
        0
176
     1
 90
        0
176
     1
 40
0.6
176
     1
 40
30.0
176
     1
 62
     7
420
 16777215
176
     1
 90
        1
176
     1
 90
        4
176
     1
 62
     7
176
     1
 62
   257
176
     1
 90
        7
176
     1
 90
        7
176
     1
 40
1.0
176
     1
 90
        8
176
     1
 62
     7
176
     1
 40
1.0
176
     1
 90
        1
176
     1
 90
        6
176
     1
 90
        2
176
     1
 62
     7
176
     1
 90
        5
176
     1
 90
        0
176
     1
 90
        0
176
     1
290
     0
176
     1
 90
        1
176
     1
 40
0.0
176
     1
 90
        0
176
     1
290
     0
176
     1
290
     1
176
     1
290
     1
176
     1
290
     0
176
     1
290
     0
176
     1
290
     0
176
     1
290
     0
176
     1
290
     0
176
     1
290
     0
176
     1
 90
       50
176
     1
 40
0.0
176
     1
 40
1.0
176
     1
 90
        0
176
     1
 62
    18
420
        0
176
     1
 90
       50
176
     1
 90
        3
176
     1
 62
     5
420
      255
176
     1
290
     0
176
     1
 90
       50
176
     1
 90
       50
176
     1
 90
       50
176
     1
290
     0
176
     1
 90
       50
176
     1
 62
   256
176
     0
 40
1.0
176
     0
 90
        2
176
     1
  1
strokes_ogs.tif
176
     1
290
     0
176
     1
 40
1.0
176
     1
 40
1.0
176
     1
  0
VISUALSTYLE
  5
5099
102
{ACAD_REACTORS
330
4FAE
102
}
330
4FAE
100
AcDbVisualStyle
  2
OverhangOff
 70
    21
177
     3
291
     1
 70
    58
 90
        2
176
     0
 90
        2
176
     0
 90
        0
176
     0
 90
        0
176
     0
 40
0.6
176
     0
 40
30.0
176
     0
 62
     7
420
 16777215
176
     0
 90
        1
176
     0
 90
        4
176
     0
 62
     7
176
     0
 62
   257
176
     0
 90
        1
176
     0
 90
        1
176
     0
 40
1.0
176
     0
 90
        9
176
     2
 62
     7
176
     0
 40
1.0
176
     0
 90
        1
176
     0
 90
        6
176
     0
 90
        2
176
     0
 62
     7
176
     0
 90
        5
176
     0
 90
        0
176
     0
 90
        0
176
     0
290
     0
176
     0
 90
        1
176
     0
 40
0.0
176
     0
 90
        0
176
     0
290
     0
176
     1
290
     1
176
     1
290
     1
176
     1
290
     0
176
     1
290
     0
176
     1
290
     0
176
     1
290
     0
176
     1
290
     0
176
     1
290
     0
176
     1
 90
       50
176
     1
 40
0.0
176
     1
 40
1.0
176
     1
 90
        0
176
     1
 62
    18
420
        0
176
     1
 90
       50
176
     1
 90
        3
176
     1
 62
     5
420
      255
176
     1
290
     0
176
     1
 90
       50
176
     1
 90
       50
176
     1
 90
       50
176
     1
290
     0
176
     1
 90
       50
176
     1
 62
   256
176
     0
 40
1.0
176
     0
 90
        2
176
     1
  1
strokes_ogs.tif
176
     1
290
     0
176
     1
 40
1.0
176
     1
 40
1.0
176
     1
  0
VISUALSTYLE
  5
4FB8
102
{ACAD_REACTORS
330
4FAE
102
}
330
4FAE
100
AcDbVisualStyle
  2
Realistic
 70
     8
177
     3
291
     0
 70
    58
 90
        2
176
     1
 90
        2
176
     1
 90
        0
176
     1
 90
        0
176
     1
 40
0.6
176
     1
 40
30.0
176
     1
 62
     7
420
 16777215
176
     1
 90
        1
176
     1
 90
        0
176
     1
 62
     7
176
     1
 62
   257
176
     1
 90
        1
176
     1
 90
        1
176
     1
 40
1.0
176
     1
 90
        8
176
     1
 62
     8
420
  7895160
176
     1
 40
1.0
176
     1
 90
        1
176
     1
 90
        6
176
     1
 90
        2
176
     1
 62
     7
176
     1
 90
        5
176
     1
 90
        0
176
     1
 90
        0
176
     1
290
     0
176
     1
 90
       13
176
     1
 40
0.0
176
     1
 90
        0
176
     1
290
     0
176
     1
290
     1
176
     1
290
     1
176
     1
290
     0
176
     1
290
     0
176
     1
290
     0
176
     1
290
     0
176
     1
290
     0
176
     1
290
     0
176
     1
 90
       50
176
     1
 40
0.0
176
     1
 40
1.0
176
     1
 90
        0
176
     1
 62
    18
420
        0
176
     1
 90
       50
176
     1
 90
        3
176
     1
 62
     5
420
      255
176
     1
290
     0
176
     1
 90
       50
176
     1
 90
       50
176
     1
 90
       50
176
     1
290
     0
176
     1
 90
       50
176
     1
 62
   256
176
     0
 40
1.0
176
     0
 90
        2
176
     1
  1
strokes_ogs.tif
176
     1
290
     0
176
     1
 40
1.0
176
     1
 40
1.0
176
     1
  0
VISUALSTYLE
  5
5097
102
{ACAD_REACTORS
330
4FAE
102
}
330
4FAE
100
AcDbVisualStyle
  2
Shaded
 70
    27
177
     3
291
     0
 70
    58
 90
        2
176
     1
 90
        2
176
     1
 90
        1
176
     1
 90
        2
176
     1
 40
0.6
176
     1
 40
30.0
176
     1
 62
     7
420
 16777215
176
     1
 90
        0
176
     1
 90
        4
176
     1
 62
     7
176
     1
 62
   257
176
     1
 90
        1
176
     1
 90
        1
176
     1
 40
1.0
176
     1
 90
        8
176
     1
 62
   257
176
     1
 40
1.0
176
     1
 90
        1
176
     1
 90
        6
176
     1
 90
        2
176
     1
 62
     8
420
  7895160
176
     1
 90
        3
176
     1
 90
        0
176
     1
 90
        0
176
     1
290
     0
176
     1
 90
        5
176
     1
 40
0.0
176
     1
 90
        0
176
     1
290
     0
176
     1
290
     1
176
     1
290
     1
176
     1
290
     0
176
     1
290
     0
176
     1
290
     0
176
     1
290
     0
176
     1
290
     0
176
     1
290
     0
176
     1
 90
       50
176
     1
 40
0.0
176
     1
 40
1.0
176
     1
 90
        0
176
     1
 62
    18
420
        0
176
     1
 90
       50
176
     1
 90
        3
176
     1
 62
     5
420
      255
176
     1
290
     0
176
     1
 90
       50
176
     1
 90
       50
176
     1
 90
       50
176
     1
290
     0
176
     1
 90
       50
176
     1
 62
   256
176
     0
 40
1.0
176
     0
 90
        2
176
     1
  1
strokes_ogs.tif
176
     1
290
     0
176
     1
 40
1.0
176
     1
 40
1.0
176
     1
  0
VISUALSTYLE
  5
5096
102
{ACAD_REACTORS
330
4FAE
102
}
330
4FAE
100
AcDbVisualStyle
  2
Shaded with edges
 70
    26
177
     3
291
     0
 70
    58
 90
        2
176
     1
 90
        2
176
     1
 90
        1
176
     1
 90
        2
176
     1
 40
0.6
176
     1
 40
30.0
176
     1
 62
     7
420
 16777215
176
     1
 90
        1
176
     1
 90
       10
176
     1
 62
     7
176
     1
 62
   257
176
     1
 90
        2
176
     1
 90
        1
176
     1
 40
1.0
176
     1
 90
        8
176
     1
 62
   257
176
     1
 40
1.0
176
     1
 90
        1
176
     1
 90
        6
176
     1
 90
        2
176
     1
 62
     7
176
     1
 90
        3
176
     1
 90
        0
176
     1
 90
        0
176
     1
290
     0
176
     1
 90
        5
176
     1
 40
0.0
176
     1
 90
        0
176
     1
290
     0
176
     1
290
     1
176
     1
290
     1
176
     1
290
     0
176
     1
290
     0
176
     1
290
     0
176
     1
290
     0
176
     1
290
     0
176
     1
290
     0
176
     1
 90
       50
176
     1
 40
0.0
176
     1
 40
1.0
176
     1
 90
        0
176
     1
 62
    18
420
        0
176
     1
 90
       50
176
     1
 90
        3
176
     1
 62
     5
420
      255
176
     1
290
     0
176
     1
 90
       50
176
     1
 90
       50
176
     1
 90
       50
176
     1
290
     0
176
     1
 90
       50
176
     1
 62
   256
176
     0
 40
1.0
176
     0
 90
        2
176
     1
  1
strokes_ogs.tif
176
     1
290
     0
176
     1
 40
1.0
176
     1
 40
1.0
176
     1
  0
VISUALSTYLE
  5
5093
102
{ACAD_REACTORS
330
4FAE
102
}
330
4FAE
100
AcDbVisualStyle
  2
Shades of Gray
 70
    23
177
     3
291
     0
 70
    58
 90
        2
176
     1
 90
        2
176
     1
 90
        3
176
     1
 90
        0
176
     1
 40
0.6
176
     1
 40
30.0
176
     1
 62
     7
420
 16777215
176
     1
 90
        2
176
     1
 90
        2
176
     1
 62
     7
176
     1
 62
     7
176
     1
 90
        1
176
     1
 90
        1
176
     1
 40
40.0
176
     1
 90
        8
176
     1
 62
     7
176
     1
 40
1.0
176
     1
 90
        1
176
     1
 90
        6
176
     1
 90
        2
176
     1
 62
     7
176
     1
 90
        3
176
     1
 90
        0
176
     1
 90
        0
176
     1
290
     0
176
     1
 90
        1
176
     1
 40
0.0
176
     1
 90
        0
176
     1
290
     0
176
     1
290
     1
176
     1
290
     1
176
     1
290
     0
176
     1
290
     0
176
     1
290
     0
176
     1
290
     0
176
     1
290
     0
176
     1
290
     0
176
     1
 90
       50
176
     1
 40
0.0
176
     1
 40
1.0
176
     1
 90
        0
176
     1
 62
    18
420
        0
176
     1
 90
       50
176
     1
 90
        3
176
     1
 62
     5
420
      255
176
     1
290
     0
176
     1
 90
       50
176
     1
 90
       50
176
     1
 90
       50
176
     1
290
     0
176
     1
 90
       50
176
     1
 62
   256
176
     0
 40
1.0
176
     0
 90
        2
176
     1
  1
strokes_ogs.tif
176
     1
290
     0
176
     1
 40
1.0
176
     1
 40
1.0
176
     1
  0
VISUALSTYLE
  5
5094
102
{ACAD_REACTORS
330
4FAE
102
}
330
4FAE
100
AcDbVisualStyle
  2
Sketchy
 70
    24
177
     3
291
     0
 70
    58
 90
        1
176
     1
 90
        2
176
     1
 90
        2
176
     1
 90
        0
176
     1
 40
0.6
176
     1
 40
30.0
176
     1
 62
     7
420
 16777215
176
     1
 90
        2
176
     1
 90
        2
176
     1
 62
     7
176
     1
 62
     7
176
     1
 90
        1
176
     1
 90
        1
176
     1
 40
40.0
176
     1
 90
       11
176
     1
 62
     7
176
     1
 40
1.0
176
     1
 90
        1
176
     1
 90
        6
176
     1
 90
        2
176
     1
 62
     7
176
     1
 90
        6
176
     1
 90
        0
176
     1
 90
        0
176
     1
290
     0
176
     1
 90
        1
176
     1
 40
0.0
176
     1
 90
        0
176
     1
290
     0
176
     1
290
     1
176
     1
290
     1
176
     1
290
     0
176
     1
290
     0
176
     1
290
     0
176
     1
290
     0
176
     1
290
     0
176
     1
290
     0
176
     1
 90
       50
176
     1
 40
0.0
176
     1
 40
1.0
176
     1
 90
        0
176
     1
 62
    18
420
        0
176
     1
 90
       50
176
     1
 90
        3
176
     1
 62
     5
420
      255
176
     1
290
     0
176
     1
 90
       50
176
     1
 90
       50
176
     1
 90
       50
176
     1
290
     0
176
     1
 90
       50
176
     1
 62
   256
176
     0
 40
1.0
176
     0
 90
        2
176
     1
  1
strokes_ogs.tif
176
     1
290
     0
176
     1
 40
1.0
176
     1
 40
1.0
176
     1
  0
VISUALSTYLE
  5
4FBB
102
{ACAD_REACTORS
330
4FAE
102
}
330
4FAE
100
AcDbVisualStyle
  2
Thicken
 70
    13
177
     3
291
     1
 70
    58
 90
        2
176
     1
 90
        2
176
     1
 90
        0
176
     1
 90
        0
176
     1
 40
0.6
176
     1
 40
30.0
176
     1
 62
     7
420
 16777215
176
     1
 90
        1
176
     1
 90
        4
176
     1
 62
     7
176
     1
 62
   257
176
     1
 90
        1
176
     1
 90
        1
176
     1
 40
1.0
176
     1
 90
       12
176
     1
 62
     7
176
     1
 40
1.0
176
     1
 90
        1
176
     1
 90
        6
176
     1
 90
        2
176
     1
 62
     7
176
     1
 90
        5
176
     1
 90
        0
176
     1
 90
        0
176
     1
290
     0
176
     1
 90
        1
176
     1
 40
0.0
176
     1
 90
        0
176
     1
290
     0
176
     1
290
     1
176
     1
290
     1
176
     1
290
     0
176
     1
290
     0
176
     1
290
     0
176
     1
290
     0
176
     1
290
     0
176
     1
290
     0
176
     1
 90
       50
176
     1
 40
0.0
176
     1
 40
1.0
176
     1
 90
        0
176
     1
 62
    18
420
        0
176
     1
 90
       50
176
     1
 90
        3
176
     1
 62
     5
420
      255
176
     1
290
     0
176
     1
 90
       50
176
     1
 90
       50
176
     1
 90
       50
176
     1
290
     0
176
     1
 90
       50
176
     1
 62
   256
176
     0
 40
1.0
176
     0
 90
        2
176
     1
  1
strokes_ogs.tif
176
     1
290
     0
176
     1
 40
1.0
176
     1
 40
1.0
176
     1
  0
VISUALSTYLE
  5
5091
102
{ACAD_REACTORS
330
4FAE
102
}
330
4FAE
100
AcDbVisualStyle
  2
Wireframe
 70
     5
177
     3
291
     0
 70
    58
 90
        0
176
     1
 90
        2
176
     1
 90
        0
176
     1
 90
        0
176
     1
 40
0.6
176
     1
 40
30.0
176
     1
 62
     7
420
 16777215
176
     1
 90
        1
176
     1
 90
        4
176
     1
 62
     7
176
     1
 62
   257
176
     1
 90
        1
176
     1
 90
        1
176
     1
 40
1.0
176
     1
 90
        0
176
     1
 62
   257
176
     1
 40
1.0
176
     1
 90
        1
176
     1
 90
        6
176
     1
 90
        2
176
     1
 62
     7
176
     1
 90
        3
176
     1
 90
        0
176
     1
 90
        0
176
     1
290
     0
176
     1
 90
        1
176
     1
 40
0.0
176
     1
 90
        0
176
     1
290
     0
176
     1
290
     1
176
     1
290
     1
176
     1
290
     0
176
     1
290
     0
176
     1
290
     0
176
     1
290
     0
176
     1
290
     0
176
     1
290
     0
176
     1
 90
       50
176
     1
 40
0.0
176
     1
 40
1.0
176
     1
 90
        0
176
     1
 62
    18
420
        0
176
     1
 90
       50
176
     1
 90
        3
176
     1
 62
     5
420
      255
176
     1
290
     0
176
     1
 90
       50
176
     1
 90
       50
176
     1
 90
       50
176
     1
290
     0
176
     1
 90
       50
176
     1
 62
   256
176
     0
 40
1.0
176
     0
 90
        2
176
     1
  1
strokes_ogs.tif
176
     1
290
     0
176
     1
 40
1.0
176
     1
 40
1.0
176
     1
  0
VISUALSTYLE
  5
5095
102
{ACAD_REACTORS
330
4FAE
102
}
330
4FAE
100
AcDbVisualStyle
  2
X-Ray
 70
    25
177
     3
291
     0
 70
    58
 90
        2
176
     1
 90
        2
176
     1
 90
        1
176
     1
 90
        1
176
     1
 40
0.5
176
     1
 40
30.0
176
     1
 62
     7
420
 16777215
176
     1
 90
        1
176
     1
 90
        0
176
     1
 62
     7
176
     1
 62
   257
176
     1
 90
        1
176
     1
 90
        1
176
     1
 40
1.0
176
     1
 90
        8
176
     1
 62
     7
176
     1
 40
1.0
176
     1
 90
        1
176
     1
 90
        6
176
     1
 90
        2
176
     1
 62
     7
176
     1
 90
        3
176
     1
 90
        0
176
     1
 90
        0
176
     1
290
     0
176
     1
 90
       13
176
     1
 40
0.0
176
     1
 90
        0
176
     1
290
     0
176
     1
290
     1
176
     1
290
     1
176
     1
290
     0
176
     1
290
     0
176
     1
290
     0
176
     1
290
     0
176
     1
290
     0
176
     1
290
     0
176
     1
 90
       50
176
     1
 40
0.0
176
     1
 40
1.0
176
     1
 90
        0
176
     1
 62
    18
420
        0
176
     1
 90
       50
176
     1
 90
        3
176
     1
 62
     5
420
      255
176
     1
290
     0
176
     1
 90
       50
176
     1
 90
       50
176
     1
 90
       50
176
     1
290
     0
176
     1
 90
       50
176
     1
 62
   256
176
     0
 40
1.0
176
     0
 90
        2
176
     1
  1
strokes_ogs.tif
176
     1
290
     0
176
     1
 40
1.0
176
     1
 40
1.0
176
     1
  0
DICTIONARYVAR
  5
5005
102
{ACAD_REACTORS
330
3F39
102
}
330
3F39
100
DictionaryVariables
280
     0
  1
1:1
  0
DICTIONARYVAR
  5
5003
102
{ACAD_REACTORS
330
3F39
102
}
330
3F39
100
DictionaryVariables
280
     0
  1
STANDARD
  0
DICTIONARYVAR
  5
4EDE
102
{ACAD_REACTORS
330
3F39
102
}
330
3F39
100
DictionaryVariables
280
     0
  1
STANDARD
  0
DICTIONARYVAR
  5
5666
102
{ACAD_REACTORS
330
3F39
102
}
330
3F39
100
DictionaryVariables
280
     0
  1
Metric50
  0
DICTIONARYVAR
  5
5667
102
{ACAD_REACTORS
330
3F39
102
}
330
3F39
100
DictionaryVariables
280
     0
  1
Metric50
  0
DICTIONARYVAR
  5
3F3A
102
{ACAD_REACTORS
330
3F39
102
}
330
3F39
100
DictionaryVariables
280
     0
  1
1
  0
DICTIONARYVAR
  5
4D6C
102
{ACAD_REACTORS
330
3F39
102
}
330
3F39
100
DictionaryVariables
280
     0
  1
1
  0
DICTIONARYVAR
  5
5007
102
{ACAD_REACTORS
330
3F39
102
}
330
3F39
100
DictionaryVariables
280
     0
  1
1
  0
DICTIONARYVAR
  5
5008
102
{ACAD_REACTORS
330
3F39
102
}
330
3F39
100
DictionaryVariables
280
     0
  1
15
  0
DICTIONARYVAR
  5
5006
102
{ACAD_REACTORS
330
3F39
102
}
330
3F39
100
DictionaryVariables
280
     0
  1
0
  0
DICTIONARYVAR
  5
5004
102
{ACAD_REACTORS
330
3F39
102
}
330
3F39
100
DictionaryVariables
280
     0
  1
0
  0
DICTIONARY
  5
4D0B
102
{ACAD_REACTORS
330
4D05
102
}
330
4D05
100
AcDbDictionary
281
     1
  0
XRECORD
  5
4E83
102
{ACAD_REACTORS
330
4D05
102
}
330
4D05
100
AcDbXrecord
280
     1
 90
-1023410169
  0
DICTIONARY
  5
67
102
{ACAD_REACTORS
330
66
102
}
330
66
100
AcDbDictionary
281
     1
  3
DATASTORAGE
350
115
  3
SOKRATES
350
68
  0
DICTIONARY
  5
5283
330
5282
100
AcDbDictionary
280
     1
281
     1
  3
ACAD_XREC_ROUNDTRIP
360
5694
  0
DICTIONARY
  5
565F
330
5158
100
AcDbDictionary
280
     1
281
     1
  3
ACAD_XREC_ROUNDTRIP
360
5692
  0
DICTIONARY
  5
4F9F
330
4F9E
100
AcDbDictionary
280
     1
281
     1
  3
BUMPTILE
360
4FA1
  3
DIFFUSETILE
360
4FA0
  3
OPACITYTILE
360
4FA4
  3
REFLECTIONTILE
360
4FA3
  3
REFRACTIONTILE
360
4FA5
  3
SPECULARTILE
360
4FA2
  0
DICTIONARY
  5
4F97
330
4F96
100
AcDbDictionary
280
     1
281
     1
  3
BUMPTILE
360
4F99
  3
DIFFUSETILE
360
4F98
  3
OPACITYTILE
360
4F9C
  3
REFLECTIONTILE
360
4F9B
  3
REFRACTIONTILE
360
4F9D
  3
SPECULARTILE
360
4F9A
  0
DICTIONARY
  5
4FA7
330
4FA6
100
AcDbDictionary
280
     1
281
     1
  3
BUMPTILE
360
4FA9
  3
DIFFUSETILE
360
4FA8
  3
OPACITYTILE
360
4FAC
  3
REFLECTIONTILE
360
4FAB
  3
REFRACTIONTILE
360
4FAD
  3
SPECULARTILE
360
4FAA
  0
DICTIONARY
  5
5281
330
5280
100
AcDbDictionary
280
     1
281
     1
  3
ACAD_XREC_ROUNDTRIP
360
5693
  0
DICTIONARY
  5
565D
330
5156
100
AcDbDictionary
280
     1
281
     1
  3
ACAD_XREC_ROUNDTRIP
360
5691
  0
DICTIONARY
  5
5000
330
4E6E
100
AcDbDictionary
280
     1
281
     1
  3
ACAD_ROUNDTRIP_2008_TABLESTYLE_CELLSTYLEMAP
360
5690
  0
DICTIONARY
  5
115
102
{ACAD_REACTORS
330
67
102
}
330
67
100
AcDbDictionary
281
     1
  3
NAMESPACE
350
116
  0
DICTIONARY
  5
68
102
{ACAD_REACTORS
330
67
102
}
330
67
100
AcDbDictionary
281
     1
  3
DIMPROFILE
350
107
  3
GROUPPROFILE
350
C5
  3
HATCHPROFILE
350
CE
  3
LAYERPROFILE
350
69
  3
LAYERSET
350
94
  3
MVIEWPROFILE
350
E7
  3
SETPROFILE
350
EF
  3
TEXTPROFILE
350
7E
  0
XRECORD
  5
5694
102
{ACAD_REACTORS
330
5283
102
}
330
5283
100
AcDbXrecord
280
     1
102
DISPLAYNAME
  1
Imperial24
102
FLAGS
 90
        0
  0
XRECORD
  5
5692
102
{ACAD_REACTORS
330
565F
102
}
330
565F
100
AcDbXrecord
280
     1
102
DISPLAYNAME
  1
Metric50
102
FLAGS
 90
        0
  0
XRECORD
  5
4FA1
102
{ACAD_REACTORS
330
4F9F
102
}
330
4F9F
100
AcDbXrecord
280
     1
270
     1
271
     1
  0
XRECORD
  5
4FA0
102
{ACAD_REACTORS
330
4F9F
102
}
330
4F9F
100
AcDbXrecord
280
     1
270
     1
271
     1
  0
XRECORD
  5
4FA4
102
{ACAD_REACTORS
330
4F9F
102
}
330
4F9F
100
AcDbXrecord
280
     1
270
     1
271
     1
  0
XRECORD
  5
4FA3
102
{ACAD_REACTORS
330
4F9F
102
}
330
4F9F
100
AcDbXrecord
280
     1
270
     1
271
     1
  0
XRECORD
  5
4FA5
102
{ACAD_REACTORS
330
4F9F
102
}
330
4F9F
100
AcDbXrecord
280
     1
270
     1
271
     1
  0
XRECORD
  5
4FA2
102
{ACAD_REACTORS
330
4F9F
102
}
330
4F9F
100
AcDbXrecord
280
     1
270
     1
271
     1
  0
XRECORD
  5
4F99
102
{ACAD_REACTORS
330
4F97
102
}
330
4F97
100
AcDbXrecord
280
     1
270
     1
271
     1
  0
XRECORD
  5
4F98
102
{ACAD_REACTORS
330
4F97
102
}
330
4F97
100
AcDbXrecord
280
     1
270
     1
271
     1
  0
XRECORD
  5
4F9C
102
{ACAD_REACTORS
330
4F97
102
}
330
4F97
100
AcDbXrecord
280
     1
270
     1
271
     1
  0
XRECORD
  5
4F9B
102
{ACAD_REACTORS
330
4F97
102
}
330
4F97
100
AcDbXrecord
280
     1
270
     1
271
     1
  0
XRECORD
  5
4F9D
102
{ACAD_REACTORS
330
4F97
102
}
330
4F97
100
AcDbXrecord
280
     1
270
     1
271
     1
  0
XRECORD
  5
4F9A
102
{ACAD_REACTORS
330
4F97
102
}
330
4F97
100
AcDbXrecord
280
     1
270
     1
271
     1
  0
XRECORD
  5
4FA9
102
{ACAD_REACTORS
330
4FA7
102
}
330
4FA7
100
AcDbXrecord
280
     1
270
     1
271
     1
  0
XRECORD
  5
4FA8
102
{ACAD_REACTORS
330
4FA7
102
}
330
4FA7
100
AcDbXrecord
280
     1
270
     1
271
     1
  0
XRECORD
  5
4FAC
102
{ACAD_REACTORS
330
4FA7
102
}
330
4FA7
100
AcDbXrecord
280
     1
270
     1
271
     1
  0
XRECORD
  5
4FAB
102
{ACAD_REACTORS
330
4FA7
102
}
330
4FA7
100
AcDbXrecord
280
     1
270
     1
271
     1
  0
XRECORD
  5
4FAD
102
{ACAD_REACTORS
330
4FA7
102
}
330
4FA7
100
AcDbXrecord
280
     1
270
     1
271
     1
  0
XRECORD
  5
4FAA
102
{ACAD_REACTORS
330
4FA7
102
}
330
4FA7
100
AcDbXrecord
280
     1
270
     1
271
     1
  0
XRECORD
  5
5693
102
{ACAD_REACTORS
330
5281
102
}
330
5281
100
AcDbXrecord
280
     1
102
DISPLAYNAME
  1
Imperial24
102
FLAGS
 90
        0
  0
XRECORD
  5
5691
102
{ACAD_REACTORS
330
565D
102
}
330
565D
100
AcDbXrecord
280
     1
102
DISPLAYNAME
  1
Metric50
102
FLAGS
 90
        0
  0
CELLSTYLEMAP
  5
5690
102
{ACAD_REACTORS
330
5000
102
}
330
5000
100
AcDbCellStyleMap
 90
        3
300
CELLSTYLE
  1
TABLEFORMAT_BEGIN
 90
        5
170
     1
 91
        0
 92
    32768
 62
   257
 93
        1
300
CONTENTFORMAT
  1
CONTENTFORMAT_BEGIN
 90
        0
 91
        0
 92
        4
 93
        0
300

 40
0.0
140
1.0
 94
        5
 62
     0
340
10
144
6.0
309
CONTENTFORMAT_END
171
     1
301
MARGIN
  1
CELLMARGIN_BEGIN
 40
1.5
 40
1.5
 40
1.5
 40
1.5
 40
0.18
 40
0.18
309
CELLMARGIN_END
 94
        6
 95
        1
302
GRIDFORMAT
  1
GRIDFORMAT_BEGIN
 90
        0
 91
        1
 62
     0
 92
       -2
340
0
 93
        0
 40
0.045
309
GRIDFORMAT_END
 95
        2
302
GRIDFORMAT
  1
GRIDFORMAT_BEGIN
 90
        0
 91
        1
 62
     0
 92
       -2
340
0
 93
        0
 40
0.045
309
GRIDFORMAT_END
 95
        4
302
GRIDFORMAT
  1
GRIDFORMAT_BEGIN
 90
        0
 91
        1
 62
     0
 92
       -2
340
0
 93
        0
 40
0.045
309
GRIDFORMAT_END
 95
        8
302
GRIDFORMAT
  1
GRIDFORMAT_BEGIN
 90
        0
 91
        1
 62
     0
 92
       -2
340
0
 93
        0
 40
0.045
309
GRIDFORMAT_END
 95
       16
302
GRIDFORMAT
  1
GRIDFORMAT_BEGIN
 90
        0
 91
        1
 62
     0
 92
       -2
340
0
 93
        0
 40
0.045
309
GRIDFORMAT_END
 95
       32
302
GRIDFORMAT
  1
GRIDFORMAT_BEGIN
 90
        0
 91
        1
 62
     0
 92
       -2
340
0
 93
        0
 40
0.045
309
GRIDFORMAT_END
309
TABLEFORMAT_END
  1
CELLSTYLE_BEGIN
 90
        1
 91
        1
300
_TITLE
309
CELLSTYLE_END
300
CELLSTYLE
  1
TABLEFORMAT_BEGIN
 90
        5
170
     1
 91
        0
 92
        0
 62
   257
 93
        1
300
CONTENTFORMAT
  1
CONTENTFORMAT_BEGIN
 90
        0
 91
        0
 92
        4
 93
        0
300

 40
0.0
140
1.0
 94
        5
 62
     0
340
10
144
4.5
309
CONTENTFORMAT_END
171
     1
301
MARGIN
  1
CELLMARGIN_BEGIN
 40
1.5
 40
1.5
 40
1.5
 40
1.5
 40
0.18
 40
0.18
309
CELLMARGIN_END
 94
        6
 95
        1
302
GRIDFORMAT
  1
GRIDFORMAT_BEGIN
 90
        0
 91
        1
 62
     0
 92
       -2
340
0
 93
        0
 40
0.045
309
GRIDFORMAT_END
 95
        2
302
GRIDFORMAT
  1
GRIDFORMAT_BEGIN
 90
        0
 91
        1
 62
     0
 92
       -2
340
0
 93
        0
 40
0.045
309
GRIDFORMAT_END
 95
        4
302
GRIDFORMAT
  1
GRIDFORMAT_BEGIN
 90
        0
 91
        1
 62
     0
 92
       -2
340
0
 93
        0
 40
0.045
309
GRIDFORMAT_END
 95
        8
302
GRIDFORMAT
  1
GRIDFORMAT_BEGIN
 90
        0
 91
        1
 62
     0
 92
       -2
340
0
 93
        0
 40
0.045
309
GRIDFORMAT_END
 95
       16
302
GRIDFORMAT
  1
GRIDFORMAT_BEGIN
 90
        0
 91
        1
 62
     0
 92
       -2
340
0
 93
        0
 40
0.045
309
GRIDFORMAT_END
 95
       32
302
GRIDFORMAT
  1
GRIDFORMAT_BEGIN
 90
        0
 91
        1
 62
     0
 92
       -2
340
0
 93
        0
 40
0.045
309
GRIDFORMAT_END
309
TABLEFORMAT_END
  1
CELLSTYLE_BEGIN
 90
        2
 91
        1
300
_HEADER
309
CELLSTYLE_END
300
CELLSTYLE
  1
TABLEFORMAT_BEGIN
 90
        5
170
     1
 91
        0
 92
        0
 62
   257
 93
        1
300
CONTENTFORMAT
  1
CONTENTFORMAT_BEGIN
 90
        0
 91
        0
 92
        4
 93
        0
300

 40
0.0
140
1.0
 94
        2
 62
     0
340
10
144
4.5
309
CONTENTFORMAT_END
171
     1
301
MARGIN
  1
CELLMARGIN_BEGIN
 40
1.5
 40
1.5
 40
1.5
 40
1.5
 40
0.18
 40
0.18
309
CELLMARGIN_END
 94
        6
 95
        1
302
GRIDFORMAT
  1
GRIDFORMAT_BEGIN
 90
        0
 91
        1
 62
     0
 92
       -2
340
0
 93
        0
 40
0.045
309
GRIDFORMAT_END
 95
        2
302
GRIDFORMAT
  1
GRIDFORMAT_BEGIN
 90
        0
 91
        1
 62
     0
 92
       -2
340
0
 93
        0
 40
0.045
309
GRIDFORMAT_END
 95
        4
302
GRIDFORMAT
  1
GRIDFORMAT_BEGIN
 90
        0
 91
        1
 62
     0
 92
       -2
340
0
 93
        0
 40
0.045
309
GRIDFORMAT_END
 95
        8
302
GRIDFORMAT
  1
GRIDFORMAT_BEGIN
 90
        0
 91
        1
 62
     0
 92
       -2
340
0
 93
        0
 40
0.045
309
GRIDFORMAT_END
 95
       16
302
GRIDFORMAT
  1
GRIDFORMAT_BEGIN
 90
        0
 91
        1
 62
     0
 92
       -2
340
0
 93
        0
 40
0.045
309
GRIDFORMAT_END
 95
       32
302
GRIDFORMAT
  1
GRIDFORMAT_BEGIN
 90
        0
 91
        1
 62
     0
 92
       -2
340
0
 93
        0
 40
0.045
309
GRIDFORMAT_END
309
TABLEFORMAT_END
  1
CELLSTYLE_BEGIN
 90
        3
 91
        2
300
_DATA
309
CELLSTYLE_END
  0
DICTIONARY
  5
116
102
{ACAD_REACTORS
330
115
102
}
330
115
100
AcDbDictionary
281
     1
  3
V-DPT-1-PATH
350
3F20
  3
V-DPT-BEDP
350
3F05
  3
V-DPT-CADIICON_END
350
3F06
  3
V-DPT-CADIICON_START
350
3F07
  3
V-DPT-ER
350
3F08
  3
V-DPT-F-CAD1
350
3F09
  3
V-DPT-F-CAD3
350
3F0A
  3
V-DPT-F-CADI
350
3F0B
  3
V-DPT-FDR1
350
3F0C
  3
V-DPT-FFA1
350
3F0D
  3
V-DPT-FXF1
350
3F0E
  3
V-DPT-FYF1
350
3F0F
  3
V-DPT-FZF1
350
3F10
  3
V-DPT-H_WI
350
3F11
  3
V-DPT-HLINE
350
3F12
  3
V-DPT-L-NAME
350
3F13
  3
V-DPT-LLIA
350
3F14
  3
V-DPT-LLIR
350
3F15
  3
V-DPT-MAXROWS
350
3F16
  3
V-DPT-MLST
350
3F17
  3
V-DPT-PARE
350
3F18
  3
V-DPT-PCD1
350
3F19
  3
V-DPT-PCR1
350
3F1A
  3
V-DPT-PDIS
350
3F1B
  3
V-DPT-SETACAD
350
3F1C
  3
V-DPT-TEXA
350
3F1D
  3
V-DPT-ULA
350
3F1E
  3
V-DPT-V_WI
350
3F1F
  0
DICTIONARY
  5
107
102
{ACAD_REACTORS
330
68
102
}
330
68
100
AcDbDictionary
281
     1
  3
201
350
37C9
  3
202
350
37CA
  3
203
350
37CB
  3
204
350
37CC
  3
205
350
37CD
  3
206
350
37CE
  3
207
350
37CF
  3
208
350
37D0
  3
209
350
37D1
  3
210
350
37D2
  3
211
350
37D3
  3
212
350
37D4
  3
PROFILEID
350
3F03
  0
DICTIONARY
  5
C5
102
{ACAD_REACTORS
330
68
102
}
330
68
100
AcDbDictionary
281
     1
  3
401
350
3798
  3
402
350
3799
  3
403
350
379A
  3
404
350
379B
  3
PROFILEID
350
3EFF
  0
DICTIONARY
  5
CE
102
{ACAD_REACTORS
330
68
102
}
330
68
100
AcDbDictionary
281
     1
  3
601
350
379D
  3
602
350
379E
  3
603
350
379F
  3
604
350
37A0
  3
605
350
37A1
  3
606
350
37A2
  3
607
350
37A3
  3
608
350
37A4
  3
609
350
37A5
  3
610
350
37A6
  3
611
350
37A7
  3
612
350
37A8
  3
613
350
37A9
  3
614
350
37AA
  3
615
350
37AB
  3
616
350
37AC
  3
617
350
37AD
  3
618
350
37AE
  3
619
350
37AF
  3
620
350
37B0
  3
621
350
37B1
  3
622
350
37B2
  3
PROFILEID
350
3F00
  0
DICTIONARY
  5
69
102
{ACAD_REACTORS
330
68
102
}
330
68
100
AcDbDictionary
281
     1
  3
101
350
3749
  3
102
350
374A
  3
103
350
374B
  3
107
350
374C
  3
108
350
374D
  3
109
350
374E
  3
110
350
374F
  3
111
350
3750
  3
120
350
3751
  3
121
350
3752
  3
122
350
3753
  3
123
350
3754
  3
124
350
3755
  3
125
350
3756
  3
126
350
3757
  3
127
350
3758
  3
128
350
3759
  3
129
350
375A
  3
130
350
375B
  3
PROFILEID
350
3EFC
  0
DICTIONARY
  5
94
102
{ACAD_REACTORS
330
68
102
}
330
68
100
AcDbDictionary
281
     1
  3
301
350
3768
  3
302
350
3769
  3
303
350
376A
  3
304
350
376B
  3
305
350
376C
  3
306
350
376D
  3
307
350
376E
  3
308
350
376F
  3
309
350
3770
  3
310
350
3772
  3
311
350
3773
  3
312
350
3774
  3
313
350
3775
  3
314
350
3776
  3
315
350
3777
  3
316
350
3778
  3
317
350
3779
  3
318
350
377A
  3
319
350
377B
  3
320
350
377F
  3
321
350
3780
  3
322
350
3781
  3
323
350
3782
  3
324
350
3783
  3
325
350
3786
  3
326
350
3796
  3
327
350
3787
  3
328
350
3788
  3
329
350
3789
  3
330
350
378A
  3
331
350
378B
  3
332
350
378C
  3
333
350
378D
  3
334
350
378E
  3
335
350
378F
  3
336
350
3790
  3
337
350
3791
  3
338
350
3792
  3
339
350
3793
  3
340
350
3771
  3
341
350
3794
  3
342
350
377C
  3
343
350
377D
  3
344
350
3784
  3
345
350
3785
  3
346
350
377E
  3
347
350
3795
  3
PROFILEID
350
3EFE
  0
DICTIONARY
  5
E7
102
{ACAD_REACTORS
330
68
102
}
330
68
100
AcDbDictionary
281
     1
  3
701
350
37B4
  3
702
350
37B5
  3
703
350
37B6
  3
704
350
37B7
  3
705
350
37B8
  3
706
350
37B9
  3
PROFILEID
350
3F01
  0
DICTIONARY
  5
EF
102
{ACAD_REACTORS
330
68
102
}
330
68
100
AcDbDictionary
281
     1
  3
801
350
37BB
  3
802
350
37BC
  3
803
350
37BD
  3
804
350
37BE
  3
805
350
37BF
  3
806
350
37C0
  3
807
350
37C1
  3
808
350
37C2
  3
809
350
37C3
  3
810
350
37C4
  3
811
350
37C5
  3
812
350
37C6
  3
813
350
37C7
  3
PROFILEID
350
3F02
  0
DICTIONARY
  5
7E
102
{ACAD_REACTORS
330
68
102
}
330
68
100
AcDbDictionary
281
     1
  3
901
350
375D
  3
902
350
375E
  3
903
350
375F
  3
904
350
3760
  3
905
350
3761
  3
906
350
3762
  3
907
350
3763
  3
908
350
3764
  3
909
350
3765
  3
910
350
3766
  3
PROFILEID
350
3EFD
  0
XRECORD
  5
3F20
102
{ACAD_REACTORS
330
116
102
}
330
116
100
AcDbXrecord
280
     1
  1
D:\r14\CADiMenu
  0
XRECORD
  5
3F05
102
{ACAD_REACTORS
330
116
102
}
330
116
100
AcDbXrecord
280
     1
  1
SYM:RTT
  0
XRECORD
  5
3F06
102
{ACAD_REACTORS
330
116
102
}
330
116
100
AcDbXrecord
280
     1
 70
   504
  0
XRECORD
  5
3F07
102
{ACAD_REACTORS
330
116
102
}
330
116
100
AcDbXrecord
280
     1
 70
   461
  0
XRECORD
  5
3F08
102
{ACAD_REACTORS
330
116
102
}
330
116
100
AcDbXrecord
280
     1
  1
CM1
  0
XRECORD
  5
3F09
102
{ACAD_REACTORS
330
116
102
}
330
116
100
AcDbXrecord
280
     1
  1
B
  0
XRECORD
  5
3F0A
102
{ACAD_REACTORS
330
116
102
}
330
116
100
AcDbXrecord
280
     1
  1
A
  0
XRECORD
  5
3F0B
102
{ACAD_REACTORS
330
116
102
}
330
116
100
AcDbXrecord
280
     1
  1
CM-INSFZ
  0
XRECORD
  5
3F0C
102
{ACAD_REACTORS
330
116
102
}
330
116
100
AcDbXrecord
280
     1
 40
0.0
  0
XRECORD
  5
3F0D
102
{ACAD_REACTORS
330
116
102
}
330
116
100
AcDbXrecord
280
     1
 40
1.0
  0
XRECORD
  5
3F0E
102
{ACAD_REACTORS
330
116
102
}
330
116
100
AcDbXrecord
280
     1
 40
1.0
  0
XRECORD
  5
3F0F
102
{ACAD_REACTORS
330
116
102
}
330
116
100
AcDbXrecord
280
     1
 40
1.0
  0
XRECORD
  5
3F10
102
{ACAD_REACTORS
330
116
102
}
330
116
100
AcDbXrecord
280
     1
 40
1.0
  0
XRECORD
  5
3F11
102
{ACAD_REACTORS
330
116
102
}
330
116
100
AcDbXrecord
280
     1
 40
0.0
  0
XRECORD
  5
3F12
102
{ACAD_REACTORS
330
116
102
}
330
116
100
AcDbXrecord
280
     1
  1
_.line
  0
XRECORD
  5
3F13
102
{ACAD_REACTORS
330
116
102
}
330
116
100
AcDbXrecord
280
     1
  1
d:\r14\CADiMenu14\Lisp\CADIM-d3
  0
XRECORD
  5
3F14
102
{ACAD_REACTORS
330
116
102
}
330
116
100
AcDbXrecord
280
     1
 40
5.0
  0
XRECORD
  5
3F15
102
{ACAD_REACTORS
330
116
102
}
330
116
100
AcDbXrecord
280
     1
 40
10.0
  0
XRECORD
  5
3F16
102
{ACAD_REACTORS
330
116
102
}
330
116
100
AcDbXrecord
280
     1
 70
    23
  0
XRECORD
  5
3F17
102
{ACAD_REACTORS
330
116
102
}
330
116
100
AcDbXrecord
280
     1
  1
SYM:RTNIL
  0
XRECORD
  5
3F18
102
{ACAD_REACTORS
330
116
102
}
330
116
100
AcDbXrecord
280
     1
  1
 qmm
  0
XRECORD
  5
3F19
102
{ACAD_REACTORS
330
116
102
}
330
116
100
AcDbXrecord
280
     1
 40
1.0
  0
XRECORD
  5
3F1A
102
{ACAD_REACTORS
330
116
102
}
330
116
100
AcDbXrecord
280
     1
 70
     6
  0
XRECORD
  5
3F1B
102
{ACAD_REACTORS
330
116
102
}
330
116
100
AcDbXrecord
280
     1
  1
 mm
  0
XRECORD
  5
3F1C
102
{ACAD_REACTORS
330
116
102
}
330
116
100
AcDbXrecord
280
     1
  1
SYM:RTLB
  1
D:\r14\CADiMenu
  1
D:\r14\CADiMenu\Support
  1
D:\r14\CADiMenu\Support\Bmp
  1
D:\r14\CADiMenu\Icemtrx
  1
D:\r14\Support
  1
D:\r14\Fonts
  1
D:\r14\Help
  1
G:\compass\Vorlagen.de\14\bmp14
  1
D:\r14\drv
  1
D:\r14\CADiMenu14
  1
D:\r14\CADiMenu14\Support
  1
D:\r14\CADiMenu14\Support\Bmp
  1
D:\r14\CADiMenu14\Icemtrx
  1
D:\R14MCAD\Support
  1
D:\R14MCAD\Fonts
  1
D:\R14MCAD\Help
  1
D:\R14MCAD\drv
  1
G:\compass\Vorlagen.de\14\Default\
  1
 (aktuelles Verzeichnis) 
  1
D:\r14\CADiMenu14
  1
D:\r14\CADiMenu14\Support
  1
D:\r14\CADiMenu14\Support\Bmp
  1
D:\r14\CADiMenu14\Icemtrx
  1
D:\R14MCAD\Support
  1
D:\R14MCAD\Fonts
  1
D:\R14MCAD\Help
  1
D:\R14MCAD\drv
  1
D:\r14\CADiMenu14
  1
D:\r14\CADiMenu14\Support
  1
D:\r14\CADiMenu14\Support\Bmp
  1
D:\r14\CADiMenu14\Icemtrx
  1
D:\R14MCAD\Support
  1
D:\R14MCAD\Fonts
  1
D:\R14MCAD\Help
  1
D:\R14MCAD\drv
  1
D:\r14\CADiMenu14
  1
D:\r14\CADiMenu14\Support
  1
D:\r14\CADiMenu14\Support\Bmp
  1
D:\r14\CADiMenu14\Icemtrx
  1
D:\R14MCAD\Support
  1
D:\R14MCAD\Fonts
  1
D:\R14MCAD\Help
  1
D:\R14MCAD\drv
  1
SYM:RTLE
  0
XRECORD
  5
3F1D
102
{ACAD_REACTORS
330
116
102
}
330
116
100
AcDbXrecord
280
     1
  1
SYM:RTVOID
  0
XRECORD
  5
3F1E
102
{ACAD_REACTORS
330
116
102
}
330
116
100
AcDbXrecord
280
     1
 40
2.0
  0
XRECORD
  5
3F1F
102
{ACAD_REACTORS
330
116
102
}
330
116
100
AcDbXrecord
280
     1
 40
0.0
  0
XRECORD
  5
37C9
102
{ACAD_REACTORS
330
107
102
}
330
107
100
AcDbXrecord
280
     1
  1
SwitchRadio
  1
V:DimLayerCurrent
  1
DimLayerCurrent
 70
  1023
 70
  1023
 70
  1025
 70
     0
  0
XRECORD
  5
37CA
102
{ACAD_REACTORS
330
107
102
}
330
107
100
AcDbXrecord
280
     1
  1
SwitchRadio
  1
V:DimLayerDIM
  1
DimLayerDIM
 70
  1024
 70
  1023
 70
  1025
 70
     1
  0
XRECORD
  5
37CB
102
{ACAD_REACTORS
330
107
102
}
330
107
100
AcDbXrecord
280
     1
  1
SwitchTString
  1
V:DimLayerDIMVar
  1
DimLayerDIMVar
 70
     0
  1
L:BEMA
  0
XRECORD
  5
37CC
102
{ACAD_REACTORS
330
107
102
}
330
107
100
AcDbXrecord
280
     1
  1
SwitchTString
  1
V:DimStyleLinear
  1
DimStyleLinear
 70
     0
  1
LINEAR
  0
XRECORD
  5
37CD
102
{ACAD_REACTORS
330
107
102
}
330
107
100
AcDbXrecord
280
     1
  1
SwitchTString
  1
V:DimStyleRadius
  1
DimStyleRadius
 70
     0
  1
RADIUS
  0
XRECORD
  5
37CE
102
{ACAD_REACTORS
330
107
102
}
330
107
100
AcDbXrecord
280
     1
  1
SwitchTString
  1
V:DimStyleDiameter
  1
DimStyleDiameter
 70
     0
  1
DIAMETER
  0
XRECORD
  5
37CF
102
{ACAD_REACTORS
330
107
102
}
330
107
100
AcDbXrecord
280
     1
  1
SwitchTString
  1
V:DimStyleAngular
  1
DimStyleAngular
 70
     0
  1
ANGULAR
  0
XRECORD
  5
37D0
102
{ACAD_REACTORS
330
107
102
}
330
107
100
AcDbXrecord
280
     1
  1
SwitchTString
  1
V:DimStyleOrdinate
  1
DimStyleOrdinate
 70
     0
  1
ORDINATE
  0
XRECORD
  5
37D1
102
{ACAD_REACTORS
330
107
102
}
330
107
100
AcDbXrecord
280
     1
  1
SwitchTString
  1
V:DimStyleLeader
  1
DimStyleLeader
 70
     0
  1
LEADER
  0
XRECORD
  5
37D2
102
{ACAD_REACTORS
330
107
102
}
330
107
100
AcDbXrecord
280
     1
  1
SwitchRadio
  1
V:DimLayerAlt
  1
DimLayerAlt
 70
  1025
 70
  1023
 70
  1025
 70
     1
  0
XRECORD
  5
37D3
102
{ACAD_REACTORS
330
107
102
}
330
107
100
AcDbXrecord
280
     1
  1
SwitchTString
  1
V:DimLayerALTVar
  1
DimLayerAltVar
 70
     0
  1
L:LK35
  0
XRECORD
  5
37D4
102
{ACAD_REACTORS
330
107
102
}
330
107
100
AcDbXrecord
280
     1
  1
SwitchTBoolean
  1
V:DimStyleSwitch
  1
DimStyleSwitch
 70
  1139
 70
     0
  0
XRECORD
  5
3F03
102
{ACAD_REACTORS
330
107
102
}
330
107
100
AcDbXrecord
280
     1
  1
Unbenanntes Profil
  1
Internes Profil
  0
XRECORD
  5
3798
102
{ACAD_REACTORS
330
C5
102
}
330
C5
100
AcDbXrecord
280
     1
  1
SwitchTString
  1
V:GrpPrefix
  1
GrpPrefix
 70
  1033
  1
_-
  0
XRECORD
  5
3799
102
{ACAD_REACTORS
330
C5
102
}
330
C5
100
AcDbXrecord
280
     1
  1
SwitchTString
  1
V:GrpSuffix
  1
GrpSuffix
 70
  1032
  1
-
  0
XRECORD
  5
379A
102
{ACAD_REACTORS
330
C5
102
}
330
C5
100
AcDbXrecord
280
     1
  1
SwitchTString
  1
V:GrpPspace
  1
GrpPspace
 70
  1075
  1
PSPACE
  0
XRECORD
  5
379B
102
{ACAD_REACTORS
330
C5
102
}
330
C5
100
AcDbXrecord
280
     1
  1
SwitchTString
  1
V:GrpMspace
  1
GrpMspace
 70
     0
  1

  0
XRECORD
  5
3EFF
102
{ACAD_REACTORS
330
C5
102
}
330
C5
100
AcDbXrecord
280
     1
  1
Unbenanntes Profil
  1
Internes Profil
  0
XRECORD
  5
379D
102
{ACAD_REACTORS
330
CE
102
}
330
CE
100
AcDbXrecord
280
     1
  1
SwitchRadio
  1
V:HatchStyleNormal
  1
HatchStyleNormal
 70
  1083
 70
  1083
 70
  1085
 70
     1
  0
XRECORD
  5
379E
102
{ACAD_REACTORS
330
CE
102
}
330
CE
100
AcDbXrecord
280
     1
  1
SwitchRadio
  1
V:HatchStyleOuter
  1
HatchStyleOuter
 70
  1084
 70
  1083
 70
  1085
 70
     0
  0
XRECORD
  5
379F
102
{ACAD_REACTORS
330
CE
102
}
330
CE
100
AcDbXrecord
280
     1
  1
SwitchRadio
  1
V:HatchStyleIgnore
  1
HatchStyleIgnore
 70
  1085
 70
  1083
 70
  1085
 70
     0
  0
XRECORD
  5
37A0
102
{ACAD_REACTORS
330
CE
102
}
330
CE
100
AcDbXrecord
280
     1
  1
SwitchRadio
  1
V:HatchLayerCurrent
  1
HatchLayerCurrent
 70
  1086
 70
  1086
 70
  1088
 70
     0
  0
XRECORD
  5
37A1
102
{ACAD_REACTORS
330
CE
102
}
330
CE
100
AcDbXrecord
280
     1
  1
SwitchRadio
  1
V:HatchLayerHatch
  1
HatchLayerHatch
 70
  1087
 70
  1086
 70
  1088
 70
     1
  0
XRECORD
  5
37A2
102
{ACAD_REACTORS
330
CE
102
}
330
CE
100
AcDbXrecord
280
     1
  1
SwitchRadio
  1
V:HatchLayerDim
  1
HatchLayerDim
 70
  1088
 70
  1086
 70
  1088
 70
     0
  0
XRECORD
  5
37A3
102
{ACAD_REACTORS
330
CE
102
}
330
CE
100
AcDbXrecord
280
     1
  1
SwitchTString
  1
V:HatchLayerHatchVar
  1
HatchLayerHatchVar
 70
     0
  1
L:SCHR
  0
XRECORD
  5
37A4
102
{ACAD_REACTORS
330
CE
102
}
330
CE
100
AcDbXrecord
280
     1
  1
SwitchTString
  1
V:HatchLayerDimVar
  1
HatchLayerDimVar
 70
     0
  1
L:LH32
  0
XRECORD
  5
37A5
102
{ACAD_REACTORS
330
CE
102
}
330
CE
100
AcDbXrecord
280
     1
  1
SwitchHatch
  1
H:201U
  1

 70
     0
  1
DIN201_UNIVERSAL
 40
0.0
 40
1.0
 40
1.0
  0
XRECORD
  5
37A6
102
{ACAD_REACTORS
330
CE
102
}
330
CE
100
AcDbXrecord
280
     1
  1
SwitchHatch
  1
H:201S
  1

 70
     0
  1
DIN201_SOLID
 40
0.0
 40
1.0
 40
1.0
  0
XRECORD
  5
37A7
102
{ACAD_REACTORS
330
CE
102
}
330
CE
100
AcDbXrecord
280
     1
  1
SwitchHatch
  1
H:201M
  1

 70
     0
  1
DIN201_METALL
 40
0.0
 40
1.0
 40
1.0
  0
XRECORD
  5
37A8
102
{ACAD_REACTORS
330
CE
102
}
330
CE
100
AcDbXrecord
280
     1
  1
SwitchHatch
  1
H:201P
  1

 70
     0
  1
DIN201_PLASTIK
 40
0.0
 40
1.0
 40
1.0
  0
XRECORD
  5
37A9
102
{ACAD_REACTORS
330
CE
102
}
330
CE
100
AcDbXrecord
280
     1
  1
SwitchHatch
  1
H:201N
  1

 70
     0
  1
DIN201_NATURSTOFF
 40
0.0
 40
1.0
 40
1.0
  0
XRECORD
  5
37AA
102
{ACAD_REACTORS
330
CE
102
}
330
CE
100
AcDbXrecord
280
     1
  1
SwitchHatch
  1
H:201L
  1

 70
     0
  1
DIN201_LIQUID
 40
0.0
 40
1.0
 40
1.0
  0
XRECORD
  5
37AB
102
{ACAD_REACTORS
330
CE
102
}
330
CE
100
AcDbXrecord
280
     1
  1
SwitchHatch
  1
H:201D
  1

 70
     0
  1
DAEMMUNG
 40
0.0
 40
1.0
 40
1.0
  0
XRECORD
  5
37AC
102
{ACAD_REACTORS
330
CE
102
}
330
CE
100
AcDbXrecord
280
     1
  1
SwitchHatch
  1
H:SR07
  1

 70
     0
  1
SR07
 40
0.0
 40
1.0
 40
1.0
  0
XRECORD
  5
37AD
102
{ACAD_REACTORS
330
CE
102
}
330
CE
100
AcDbXrecord
280
     1
  1
SwitchHatch
  1
H:SS05
  1

 70
     0
  1
SS05
 40
0.0
 40
1.0
 40
1.0
  0
XRECORD
  5
37AE
102
{ACAD_REACTORS
330
CE
102
}
330
CE
100
AcDbXrecord
280
     1
  1
SwitchHatch
  1
H:SS06
  1

 70
     0
  1
SS06
 40
0.0
 40
1.0
 40
1.0
  0
XRECORD
  5
37AF
102
{ACAD_REACTORS
330
CE
102
}
330
CE
100
AcDbXrecord
280
     1
  1
SwitchHatch
  1
H:SS07
  1

 70
     0
  1
SS07
 40
0.0
 40
1.0
 40
1.0
  0
XRECORD
  5
37B0
102
{ACAD_REACTORS
330
CE
102
}
330
CE
100
AcDbXrecord
280
     1
  1
SwitchHatch
  1
H:ST05
  1

 70
     0
  1
ST05
 40
0.0
 40
1.0
 40
1.0
  0
XRECORD
  5
37B1
102
{ACAD_REACTORS
330
CE
102
}
330
CE
100
AcDbXrecord
280
     1
  1
SwitchHatch
  1
H:ST06
  1

 70
     0
  1
ST06
 40
0.0
 40
1.0
 40
1.0
  0
XRECORD
  5
37B2
102
{ACAD_REACTORS
330
CE
102
}
330
CE
100
AcDbXrecord
280
     1
  1
SwitchHatch
  1
H:ST07
  1

 70
     0
  1
ST07
 40
0.0
 40
1.0
 40
1.0
  0
XRECORD
  5
3F00
102
{ACAD_REACTORS
330
CE
102
}
330
CE
100
AcDbXrecord
280
     1
  1
Unbenanntes Profil
  1
Internes Profil
  0
XRECORD
  5
3749
102
{ACAD_REACTORS
330
69
102
}
330
69
100
AcDbXrecord
280
     1
  1
SwitchTBoolean
  1
V:SwitchLayerNames
  1
SwitchLayerNames
 70
  1002
 70
     1
  0
XRECORD
  5
374A
102
{ACAD_REACTORS
330
69
102
}
330
69
100
AcDbXrecord
280
     1
  1
SwitchTBoolean
  1
V:SwitchColor
  1
SwitchColor
 70
  1003
 70
     0
  0
XRECORD
  5
374B
102
{ACAD_REACTORS
330
69
102
}
330
69
100
AcDbXrecord
280
     1
  1
SwitchTBoolean
  1
V:SwitchLineType
  1
SwitchLinetype
 70
  1045
 70
     0
  0
XRECORD
  5
374C
102
{ACAD_REACTORS
330
69
102
}
330
69
100
AcDbXrecord
280
     1
  1
SwitchTBoolean
  1
V:CmdSwitchHatch
  1
CmdSwitchHatch
 70
  1046
 70
     1
  0
XRECORD
  5
374D
102
{ACAD_REACTORS
330
69
102
}
330
69
100
AcDbXrecord
280
     1
  1
SwitchTBoolean
  1
V:CmdSwitchDim
  1
CmdSwitchDim
 70
  1009
 70
     1
  0
XRECORD
  5
374E
102
{ACAD_REACTORS
330
69
102
}
330
69
100
AcDbXrecord
280
     1
  1
SwitchTBoolean
  1
V:CmdSwitchMview
  1
CmdSwitchMview
 70
  1010
 70
     1
  0
XRECORD
  5
374F
102
{ACAD_REACTORS
330
69
102
}
330
69
100
AcDbXrecord
280
     1
  1
SwitchTBoolean
  1
V:CmdSwitchText
  1
CmdSwitchText
 70
  1011
 70
     1
  0
XRECORD
  5
3750
102
{ACAD_REACTORS
330
69
102
}
330
69
100
AcDbXrecord
280
     1
  1
SwitchTBoolean
  1
V:CmdSwitchConstr
  1
CmdSwitchConstr
 70
  1012
 70
     1
  0
XRECORD
  5
3751
102
{ACAD_REACTORS
330
69
102
}
330
69
100
AcDbXrecord
280
     1
  1
SwitchRadio
  1
V:SwitchColorNoReset
  1
SwitchColorNoReset
 70
  1064
 70
  1064
 70
  1066
 70
     1
  0
XRECORD
  5
3752
102
{ACAD_REACTORS
330
69
102
}
330
69
100
AcDbXrecord
280
     1
  1
SwitchRadio
  1
V:SwitchColorResetBylayer
  1
SwitchColorResetBylayer
 70
  1065
 70
  1064
 70
  1066
 70
     0
  0
XRECORD
  5
3753
102
{ACAD_REACTORS
330
69
102
}
330
69
100
AcDbXrecord
280
     1
  1
SwitchRadio
  1
V:SwitchColorResetByblock
  1
SwitchColorResetByblock
 70
  1066
 70
  1064
 70
  1066
 70
     0
  0
XRECORD
  5
3754
102
{ACAD_REACTORS
330
69
102
}
330
69
100
AcDbXrecord
280
     1
  1
SwitchRadio
  1
V:SwitchLtypeNoReset
  1
SwitchLtypeNoReset
 70
  1067
 70
  1067
 70
  1069
 70
     1
  0
XRECORD
  5
3755
102
{ACAD_REACTORS
330
69
102
}
330
69
100
AcDbXrecord
280
     1
  1
SwitchRadio
  1
V:SwitchLtypeResetBylayer
  1
SwitchLtypeResetBylayer
 70
  1068
 70
  1067
 70
  1069
 70
     0
  0
XRECORD
  5
3756
102
{ACAD_REACTORS
330
69
102
}
330
69
100
AcDbXrecord
280
     1
  1
SwitchRadio
  1
V:SwitchLtypeResetByblock
  1
SwitchLtypeResetByblock
 70
  1069
 70
  1067
 70
  1069
 70
     0
  0
XRECORD
  5
3757
102
{ACAD_REACTORS
330
69
102
}
330
69
100
AcDbXrecord
280
     1
  1
SwitchRadio
  1
V:GroupsNotActive
  1
GroupsNotActive
 70
  1070
 70
  1070
 70
  1071
 70
     1
  0
XRECORD
  5
3758
102
{ACAD_REACTORS
330
69
102
}
330
69
100
AcDbXrecord
280
     1
  1
SwitchRadio
  1
V:GroupsActive
  1
GroupsActive
 70
  1071
 70
  1070
 70
  1071
 70
     0
  0
XRECORD
  5
3759
102
{ACAD_REACTORS
330
69
102
}
330
69
100
AcDbXrecord
280
     1
  1
SwitchRadio
  1
V:GroupPspace
  1
GroupPspace
 70
  1076
 70
  1076
 70
  1077
 70
     1
  0
XRECORD
  5
375A
102
{ACAD_REACTORS
330
69
102
}
330
69
100
AcDbXrecord
280
     1
  1
SwitchRadio
  1
V:LayerPspace
  1
LayerPspace
 70
  1077
 70
  1076
 70
  1077
 70
     0
  0
XRECORD
  5
375B
102
{ACAD_REACTORS
330
69
102
}
330
69
100
AcDbXrecord
280
     1
  1
SwitchTString
  1
V:LastLayer
  1
LastLayer
 70
     0
  1
L:AVER
  0
XRECORD
  5
3EFC
102
{ACAD_REACTORS
330
69
102
}
330
69
100
AcDbXrecord
280
     1
  1
Unbenanntes Profil
  1
Internes Profil
  0
XRECORD
  5
3768
102
{ACAD_REACTORS
330
94
102
}
330
94
100
AcDbXrecord
280
     1
  1
SwitchLayer
  1
L:ABBI
  1
ABBI
 70
     0
 70
    14
 70
     0
 70
     1
 70
     0
  1
ABBIEGEKANT
  1
DOT
  0
XRECORD
  5
3769
102
{ACAD_REACTORS
330
94
102
}
330
94
100
AcDbXrecord
280
     1
  1
SwitchLayer
  1
L:ACHS
  1
ACHS
 70
     1
 70
    12
 70
     0
 70
     1
 70
     0
  1
ACHSEN
  1
STRICHPUNKT2
  0
XRECORD
  5
376A
102
{ACAD_REACTORS
330
94
102
}
330
94
100
AcDbXrecord
280
     1
  1
SwitchLayer
  1
L:ATRI
  1
ATTR
 70
     2
 70
    11
 70
     0
 70
     1
 70
     0
  1
ATTRIBUTE
  1
CONTINUOUS
  0
XRECORD
  5
376B
102
{ACAD_REACTORS
330
94
102
}
330
94
100
AcDbXrecord
280
     1
  1
SwitchLayer
  1
L:AVER
  1
AVER
 70
     3
 70
    12
 70
     0
 70
     1
 70
     0
  1
AVERDECKTE
  1
VERDECKT2
  0
XRECORD
  5
376C
102
{ACAD_REACTORS
330
94
102
}
330
94
100
AcDbXrecord
280
     1
  1
SwitchLayer
  1
L:BEMA
  1
BEMA
 70
     4
 70
     8
 70
     0
 70
     1
 70
     0
  1
BEMASSUNG
  1
CONTINUOUS
  0
XRECORD
  5
376D
102
{ACAD_REACTORS
330
94
102
}
330
94
100
AcDbXrecord
280
     1
  1
SwitchLayer
  1
L:BEMT
  1
BEMT
 70
     5
 70
     9
 70
     0
 70
     1
 70
     0
  1
BEMTEXT
  1
CONTINUOUS
  0
XRECORD
  5
376E
102
{ACAD_REACTORS
330
94
102
}
330
94
100
AcDbXrecord
280
     1
  1
SwitchLayer
  1
L:HIKO
  1
HIKO
 70
     6
 70
    11
 70
     0
 70
     1
 70
     0
  1
HILFSKONSTR
  1
CONTINUOUS
  0
XRECORD
  5
376F
102
{ACAD_REACTORS
330
94
102
}
330
94
100
AcDbXrecord
280
     1
  1
SwitchLayer
  1
L:HILI
  1
HILI
 70
     7
 70
    11
 70
     0
 70
     1
 70
     0
  1
HILFSLINIEN
  1
CONTINUOUS
  0
XRECORD
  5
3770
102
{ACAD_REACTORS
330
94
102
}
330
94
100
AcDbXrecord
280
     1
  1
SwitchLayer
  1
L:HIPU
  1
HIPU
 70
     8
 70
    11
 70
     0
 70
     1
 70
     0
  1
HILFSPUNKTE
  1
CONTINUOUS
  0
XRECORD
  5
3772
102
{ACAD_REACTORS
330
94
102
}
330
94
100
AcDbXrecord
280
     1
  1
SwitchLayer
  1
L:KO03
  1
KO03
 70
    10
 70
     2
 70
     0
 70
     0
 70
     0
  1
KOPF03
  1
CONTINUOUS
  0
XRECORD
  5
3773
102
{ACAD_REACTORS
330
94
102
}
330
94
100
AcDbXrecord
280
     1
  1
SwitchLayer
  1
L:KO05
  1
KO05
 70
    11
 70
     3
 70
     0
 70
     0
 70
     0
  1
KOPF05
  1
CONTINUOUS
  0
XRECORD
  5
3774
102
{ACAD_REACTORS
330
94
102
}
330
94
100
AcDbXrecord
280
     1
  1
SwitchLayer
  1
L:KO07
  1
KO07
 70
    12
 70
     4
 70
     0
 70
     0
 70
     0
  1
KOPF07
  1
CONTINUOUS
  0
XRECORD
  5
3775
102
{ACAD_REACTORS
330
94
102
}
330
94
100
AcDbXrecord
280
     1
  1
SwitchLayer
  1
L:KO10
  1
KO10
 70
    13
 70
     6
 70
     0
 70
     0
 70
     0
  1
KOPF10
  1
CONTINUOUS
  0
XRECORD
  5
3776
102
{ACAD_REACTORS
330
94
102
}
330
94
100
AcDbXrecord
280
     1
  1
SwitchLayer
  1
L:SCHR
  1
SCHR
 70
    14
 70
     8
 70
     0
 70
     1
 70
     0
  1
SCHRAFFUR
  1
CONTINUOUS
  0
XRECORD
  5
3777
102
{ACAD_REACTORS
330
94
102
}
330
94
100
AcDbXrecord
280
     1
  1
SwitchLayer
  1
L:TE02
  1
TE02
 70
    15
 70
     1
 70
     0
 70
     1
 70
     0
  1
TEXT02
  1
CONTINUOUS
  0
XRECORD
  5
3778
102
{ACAD_REACTORS
330
94
102
}
330
94
100
AcDbXrecord
280
     1
  1
SwitchLayer
  1
L:TE03
  1
TE03
 70
    16
 70
     2
 70
     0
 70
     1
 70
     0
  1
TEXT03
  1
CONTINUOUS
  0
XRECORD
  5
3779
102
{ACAD_REACTORS
330
94
102
}
330
94
100
AcDbXrecord
280
     1
  1
SwitchLayer
  1
L:TE05
  1
TE05
 70
    17
 70
     3
 70
     0
 70
     1
 70
     0
  1
TEXT05
  1
CONTINUOUS
  0
XRECORD
  5
377A
102
{ACAD_REACTORS
330
94
102
}
330
94
100
AcDbXrecord
280
     1
  1
SwitchLayer
  1
L:TE07
  1
TE07
 70
    18
 70
     4
 70
     0
 70
     1
 70
     0
  1
TEXT07
  1
CONTINUOUS
  0
XRECORD
  5
377B
102
{ACAD_REACTORS
330
94
102
}
330
94
100
AcDbXrecord
280
     1
  1
SwitchLayer
  1
L:TE10
  1
TE10
 70
    19
 70
     6
 70
     0
 70
     1
 70
     0
  1
TEXT10
  1
CONTINUOUS
  0
XRECORD
  5
377F
102
{ACAD_REACTORS
330
94
102
}
330
94
100
AcDbXrecord
280
     1
  1
SwitchLayer
  1
L:UM02
  1
UM02
 70
    23
 70
     1
 70
     0
 70
     0
 70
     0
  1
UMRISS02
  1
CONTINUOUS
  0
XRECORD
  5
3780
102
{ACAD_REACTORS
330
94
102
}
330
94
100
AcDbXrecord
280
     1
  1
SwitchLayer
  1
L:UM03
  1
UM03
 70
    24
 70
     2
 70
     0
 70
     1
 70
     0
  1
UMRISS03
  1
CONTINUOUS
  0
XRECORD
  5
3781
102
{ACAD_REACTORS
330
94
102
}
330
94
100
AcDbXrecord
280
     1
  1
SwitchLayer
  1
L:UM05
  1
UM05
 70
    25
 70
     3
 70
     0
 70
     1
 70
     0
  1
UMRISS05
  1
CONTINUOUS
  0
XRECORD
  5
3782
102
{ACAD_REACTORS
330
94
102
}
330
94
100
AcDbXrecord
280
     1
  1
SwitchLayer
  1
L:UM07
  1
UM07
 70
    26
 70
     4
 70
     0
 70
     1
 70
     0
  1
UMRISS07
  1
CONTINUOUS
  0
XRECORD
  5
3783
102
{ACAD_REACTORS
330
94
102
}
330
94
100
AcDbXrecord
280
     1
  1
SwitchLayer
  1
L:UM10
  1
UM10
 70
    27
 70
     6
 70
     0
 70
     1
 70
     0
  1
UMRISS10
  1
CONTINUOUS
  0
XRECORD
  5
3786
102
{ACAD_REACTORS
330
94
102
}
330
94
100
AcDbXrecord
280
     1
  1
SwitchLayer
  1
L:MVIE
  1
MVIE
 70
    30
 70
   210
 70
     0
 70
     0
 70
     0
  1
VIEWPORTS
  1
CONTINUOUS
  0
XRECORD
  5
3796
102
{ACAD_REACTORS
330
94
102
}
330
94
100
AcDbXrecord
280
     1
  1
SwitchTString
  1
V:LtFile
  1
LtFile
 70
  1061
  1
cadi.lin
  0
XRECORD
  5
3787
102
{ACAD_REACTORS
330
94
102
}
330
94
100
AcDbXrecord
280
     1
  1
SwitchLayer
  1
L:OFLZ
  1
OFLZ
 70
    31
 70
     9
 70
     0
 70
     0
 70
     0
  1
OBERFLZEICH
  1
CONTINUOUS
  0
XRECORD
  5
3788
102
{ACAD_REACTORS
330
94
102
}
330
94
100
AcDbXrecord
280
     1
  1
SwitchLayer
  1
L:LG32
  1
LG32
 70
    32
 70
     7
 70
     0
 70
     0
 70
     0
  1
LG32
  1
CONTINUOUS
  0
XRECORD
  5
3789
102
{ACAD_REACTORS
330
94
102
}
330
94
100
AcDbXrecord
280
     1
  1
SwitchLayer
  1
L:LG33
  1
LG33
 70
    33
 70
    80
 70
     0
 70
     0
 70
     0
  1
LG33
  1
CONTINUOUS
  0
XRECORD
  5
378A
102
{ACAD_REACTORS
330
94
102
}
330
94
100
AcDbXrecord
280
     1
  1
SwitchLayer
  1
L:LH32
  1
LH32
 70
    34
 70
    30
 70
     0
 70
     0
 70
     0
  1
LH32
  1
CONTINUOUS
  0
XRECORD
  5
378B
102
{ACAD_REACTORS
330
94
102
}
330
94
100
AcDbXrecord
280
     1
  1
SwitchLayer
  1
L:LH33
  1
LH33
 70
    35
 70
   103
 70
     0
 70
     0
 70
     0
  1
LH33
  1
CONTINUOUS
  0
XRECORD
  5
378C
102
{ACAD_REACTORS
330
94
102
}
330
94
100
AcDbXrecord
280
     1
  1
SwitchLayer
  1
L:LI32
  1
LI32
 70
    36
 70
    40
 70
     0
 70
     0
 70
     0
  1
LI32
  1
CONTINUOUS
  0
XRECORD
  5
378D
102
{ACAD_REACTORS
330
94
102
}
330
94
100
AcDbXrecord
280
     1
  1
SwitchLayer
  1
L:LI33
  1
LI33
 70
    37
 70
   120
 70
     0
 70
     0
 70
     0
  1
LI33
  1
CONTINUOUS
  0
XRECORD
  5
378E
102
{ACAD_REACTORS
330
94
102
}
330
94
100
AcDbXrecord
280
     1
  1
SwitchLayer
  1
L:LJ32
  1
LJ32
 70
    38
 70
    50
 70
     0
 70
     0
 70
     0
  1
LJ32
  1
CONTINUOUS
  0
XRECORD
  5
378F
102
{ACAD_REACTORS
330
94
102
}
330
94
100
AcDbXrecord
280
     1
  1
SwitchLayer
  1
L:LK32
  1
LK32
 70
    39
 70
    60
 70
     0
 70
     0
 70
     0
  1
LK32
  1
CONTINUOUS
  0
XRECORD
  5
3790
102
{ACAD_REACTORS
330
94
102
}
330
94
100
AcDbXrecord
280
     1
  1
SwitchLayer
  1
L:LJ36
  1
LJ36
 70
    40
 70
   220
 70
     0
 70
     0
 70
     0
  1
LJ36
  1
CONTINUOUS
  0
XRECORD
  5
3791
102
{ACAD_REACTORS
330
94
102
}
330
94
100
AcDbXrecord
280
     1
  1
SwitchLayer
  1
L:LK34
  1
LK34
 70
    41
 70
   170
 70
     0
 70
     0
 70
     0
  1
LK34
  1
CONTINUOUS
  0
XRECORD
  5
3792
102
{ACAD_REACTORS
330
94
102
}
330
94
100
AcDbXrecord
280
     1
  1
SwitchLayer
  1
L:LK35
  1
LK35
 70
    42
 70
   200
 70
     0
 70
     0
 70
     0
  1
LK35
  1
CONTINUOUS
  0
XRECORD
  5
3793
102
{ACAD_REACTORS
330
94
102
}
330
94
100
AcDbXrecord
280
     1
  1
SwitchLayer
  1
L:LK36
  1
LK36
 70
    43
 70
   240
 70
     0
 70
     0
 70
     0
  1
LK36
  1
CONTINUOUS
  0
XRECORD
  5
3771
102
{ACAD_REACTORS
330
94
102
}
330
94
100
AcDbXrecord
280
     1
  1
SwitchLayer
  1
L:KO02
  1
KO02
 70
     9
 70
     1
 70
     0
 70
     0
 70
     0
  1
KOPF02
  1
CONTINUOUS
  0
XRECORD
  5
3794
102
{ACAD_REACTORS
330
94
102
}
330
94
100
AcDbXrecord
280
     1
  1
SwitchLayer
  1
L:LJ34
  1
LJ34
 70
    44
 70
   150
 70
     0
 70
     0
 70
     0
  1
LJ34
  1
CONTINUOUS
  0
XRECORD
  5
377C
102
{ACAD_REACTORS
330
94
102
}
330
94
100
AcDbXrecord
280
     1
  1
SwitchLayer
  1
L:TE14
  1
TE14
 70
    20
 70
     5
 70
     0
 70
     0
 70
     0
  1
TEXT14
  1
CONTINUOUS
  0
XRECORD
  5
377D
102
{ACAD_REACTORS
330
94
102
}
330
94
100
AcDbXrecord
280
     1
  1
SwitchLayer
  1
L:TE20
  1
TE20
 70
    21
 70
    90
 70
     0
 70
     0
 70
     0
  1
TEXT20
  1
CONTINUOUS
  0
XRECORD
  5
3784
102
{ACAD_REACTORS
330
94
102
}
330
94
100
AcDbXrecord
280
     1
  1
SwitchLayer
  1
L:UM14
  1
UM14
 70
    28
 70
     5
 70
     0
 70
     0
 70
     0
  1
UMRISS14
  1
CONTINUOUS
  0
XRECORD
  5
3785
102
{ACAD_REACTORS
330
94
102
}
330
94
100
AcDbXrecord
280
     1
  1
SwitchLayer
  1
L:UM20
  1
UM20
 70
    29
 70
    90
 70
     0
 70
     0
 70
     0
  1
UMRISS20
  1
CONTINUOUS
  0
XRECORD
  5
377E
102
{ACAD_REACTORS
330
94
102
}
330
94
100
AcDbXrecord
280
     1
  1
SwitchLayer
  1
L:UM01
  1
UM01
 70
    22
 70
    21
 70
     0
 70
     1
 70
     0
  1
UMRISS01
  1
CONTINUOUS
  0
XRECORD
  5
3795
102
{ACAD_REACTORS
330
94
102
}
330
94
100
AcDbXrecord
280
     1
  1
SwitchLayer
  1
L:NULL
  1
NULL
 70
    45
 70
     7
 70
     0
 70
     0
 70
     0
  1
0
  1
CONTINUOUS
  0
XRECORD
  5
3EFE
102
{ACAD_REACTORS
330
94
102
}
330
94
100
AcDbXrecord
280
     1
  1
unbenanntes Profil
  1
Internes Profil
  0
XRECORD
  5
37B4
102
{ACAD_REACTORS
330
E7
102
}
330
E7
100
AcDbXrecord
280
     1
  1
SwitchTString
  1
V:MviewPrefix
  1
MviewPrefix
 70
  1097
  1
VP
  0
XRECORD
  5
37B5
102
{ACAD_REACTORS
330
E7
102
}
330
E7
100
AcDbXrecord
280
     1
  1
SwitchTString
  1
V:MviewDelimiter
  1
MviewDelimiter
 70
  1045
  1
-
  0
XRECORD
  5
37B6
102
{ACAD_REACTORS
330
E7
102
}
330
E7
100
AcDbXrecord
280
     1
  1
SwitchRadio
  1
V:MviewLayerCurrent
  1
MviewLayerCurrent
 70
  1098
 70
  1098
 70
  1099
 70
     0
  0
XRECORD
  5
37B7
102
{ACAD_REACTORS
330
E7
102
}
330
E7
100
AcDbXrecord
280
     1
  1
SwitchRadio
  1
V:MviewLayerMview
  1
MviewLayerMview
 70
  1099
 70
  1098
 70
  1099
 70
     1
  0
XRECORD
  5
37B8
102
{ACAD_REACTORS
330
E7
102
}
330
E7
100
AcDbXrecord
280
     1
  1
SwitchTString
  1
V:MviewLayerMviewVar
  1
MviewLayerMviewVar
 70
     0
  1
L:MVIE
  0
XRECORD
  5
37B9
102
{ACAD_REACTORS
330
E7
102
}
330
E7
100
AcDbXrecord
280
     1
  1
SwitchTBoolean
  1
V:MviewActivate
  1
MviewActivate
 70
  1135
 70
     0
  0
XRECORD
  5
3F01
102
{ACAD_REACTORS
330
E7
102
}
330
E7
100
AcDbXrecord
280
     1
  1
Unbenanntes Profil
  1
Internes Profil
  0
XRECORD
  5
37BB
102
{ACAD_REACTORS
330
EF
102
}
330
EF
100
AcDbXrecord
280
     1
  1
SwitchRadio
  1
V:UnitsMM
  1
UnitsMM
 70
  1104
 70
  1104
 70
  1109
 70
     1
  0
XRECORD
  5
37BC
102
{ACAD_REACTORS
330
EF
102
}
330
EF
100
AcDbXrecord
280
     1
  1
SwitchRadio
  1
V:UnitsCM
  1
UnitsCM
 70
  1105
 70
  1104
 70
  1109
 70
     0
  0
XRECORD
  5
37BD
102
{ACAD_REACTORS
330
EF
102
}
330
EF
100
AcDbXrecord
280
     1
  1
SwitchRadio
  1
V:UnitsDM
  1
UnitsDM
 70
  1106
 70
  1104
 70
  1109
 70
     0
  0
XRECORD
  5
37BE
102
{ACAD_REACTORS
330
EF
102
}
330
EF
100
AcDbXrecord
280
     1
  1
SwitchRadio
  1
V:UnitsM
  1
UnitsM
 70
  1107
 70
  1104
 70
  1109
 70
     0
  0
XRECORD
  5
37BF
102
{ACAD_REACTORS
330
EF
102
}
330
EF
100
AcDbXrecord
280
     1
  1
SwitchRadio
  1
V:UnitsKM
  1
UnitsKM
 70
  1108
 70
  1104
 70
  1109
 70
     0
  0
XRECORD
  5
37C0
102
{ACAD_REACTORS
330
EF
102
}
330
EF
100
AcDbXrecord
280
     1
  1
SwitchRadio
  1
V:UnitsOther
  1
UnitsOther
 70
  1109
 70
  1104
 70
  1109
 70
     0
  0
XRECORD
  5
37C1
102
{ACAD_REACTORS
330
EF
102
}
330
EF
100
AcDbXrecord
280
     1
  1
SwitchTString
  1
V:UnitsOtherDesc
  1
UnitsOtherDesc
 70
  1110
  1

  0
XRECORD
  5
37C2
102
{ACAD_REACTORS
330
EF
102
}
330
EF
100
AcDbXrecord
280
     1
  1
SwitchFloat
  1
V:UnitsOtherFactor
  1
UnitsOtherFactor
 70
  1111
 40
1.0
  0
XRECORD
  5
37C3
102
{ACAD_REACTORS
330
EF
102
}
330
EF
100
AcDbXrecord
280
     1
  1
SwitchTString
  1
V:EinH
  1
EinH
 70
     0
  1
mm
  0
XRECORD
  5
37C4
102
{ACAD_REACTORS
330
EF
102
}
330
EF
100
AcDbXrecord
280
     1
  1
SwitchFloat
  1
V:MASS
  1
Mass
 70
     0
 40
1.0
  0
XRECORD
  5
37C5
102
{ACAD_REACTORS
330
EF
102
}
330
EF
100
AcDbXrecord
280
     1
  1
SwitchFloat
  1
V:EIFA
  1
Eifa
 70
     0
 40
1.0
  0
XRECORD
  5
37C6
102
{ACAD_REACTORS
330
EF
102
}
330
EF
100
AcDbXrecord
280
     1
  1
SwitchFloat
  1
V:ZEIN
  1
Zein
 70
     0
 40
1.0
  0
XRECORD
  5
37C7
102
{ACAD_REACTORS
330
EF
102
}
330
EF
100
AcDbXrecord
280
     1
  1
SwitchScale
  1

  1

 70
    68
 40
1.0
 40
1.0
 70
     1
  0
XRECORD
  5
3F02
102
{ACAD_REACTORS
330
EF
102
}
330
EF
100
AcDbXrecord
280
     1
  1
Unbenanntes Profil
  1
Internes Profil
  0
XRECORD
  5
375D
102
{ACAD_REACTORS
330
7E
102
}
330
7E
100
AcDbXrecord
280
     1
  1
SwitchRadio
  1
V:TEXTLAYERCURRENT
  1
TextLayerCurrent
 70
  1091
 70
  1091
 70
  1093
 70
     1
  0
XRECORD
  5
375E
102
{ACAD_REACTORS
330
7E
102
}
330
7E
100
AcDbXrecord
280
     1
  1
SwitchRadio
  1
V:TEXTLAYERTEXT
  1
TextLayerText
 70
  1092
 70
  1091
 70
  1093
 70
     0
  0
XRECORD
  5
375F
102
{ACAD_REACTORS
330
7E
102
}
330
7E
100
AcDbXrecord
280
     1
  1
SwitchRadio
  1
V:TEXTLAYERDIM
  1
TextLayerDim
 70
  1093
 70
  1091
 70
  1093
 70
     0
  0
XRECORD
  5
3760
102
{ACAD_REACTORS
330
7E
102
}
330
7E
100
AcDbXrecord
280
     1
  1
SwitchTString
  1
V:TEXTLAYERTEXTVAR
  1
TextLayerTextVar
 70
     0
  1
L:TE03
  0
XRECORD
  5
3761
102
{ACAD_REACTORS
330
7E
102
}
330
7E
100
AcDbXrecord
280
     1
  1
SwitchTString
  1
V:TEXTLAYERDIMVAR
  1
TextLayerDimVar
 70
     0
  1
L:BEMT
  0
XRECORD
  5
3762
102
{ACAD_REACTORS
330
7E
102
}
330
7E
100
AcDbXrecord
280
     1
  1
SwitchTextFloat
  1
T:THT2
  1
THT2
 70
     0
 40
2.5
  0
XRECORD
  5
3763
102
{ACAD_REACTORS
330
7E
102
}
330
7E
100
AcDbXrecord
280
     1
  1
SwitchTextFloat
  1
T:THT3
  1
THT3
 70
     0
 40
3.5
  0
XRECORD
  5
3764
102
{ACAD_REACTORS
330
7E
102
}
330
7E
100
AcDbXrecord
280
     1
  1
SwitchTextFloat
  1
T:THT5
  1
THT5
 70
     0
 40
5.0
  0
XRECORD
  5
3765
102
{ACAD_REACTORS
330
7E
102
}
330
7E
100
AcDbXrecord
280
     1
  1
SwitchTextFloat
  1
T:THT7
  1
THT7
 70
     0
 40
7.0
  0
XRECORD
  5
3766
102
{ACAD_REACTORS
330
7E
102
}
330
7E
100
AcDbXrecord
280
     1
  1
SwitchTextFloat
  1
T:THT10
  1
THT10
 70
     0
 40
10.0
  0
XRECORD
  5
3EFD
102
{ACAD_REACTORS
330
7E
102
}
330
7E
100
AcDbXrecord
280
     1
  1
Unbenanntes Profil
  1
Internes Profil
  0
ENDSEC
  0
SECTION
  2
ACDSDATA
 70
     2
 71
     6
  0
ACDSSCHEMA
 90
        0
  1
AcDb_Thumbnail_Schema
  2
AcDbDs::ID
280
    10
 91
        8
  2
Thumbnail_Data
280
    15
 91
        0
101
ACDSRECORD
 95
        0
 90
        1
  2
AcDbDs::TreatedAsObjectData
280
     1
291
     1
101
ACDSRECORD
 95
        0
 90
        2
  2
AcDbDs::Legacy
280
     1
291
     1
101
ACDSRECORD
  1
AcDbDs::ID
 90
        3
  2
AcDs:Indexable
280
     1
291
     1
101
ACDSRECORD
  1
AcDbDs::ID
 90
        4
  2
AcDbDs::HandleAttribute
280
     7
282
     1
  0
ACDSSCHEMA
 90
        1
  1
AcDbDs::TreatedAsObjectDataSchema
  2
AcDbDs::TreatedAsObjectData
280
     1
 91
        0
  0
ACDSSCHEMA
 90
        2
  1
AcDbDs::LegacySchema
  2
AcDbDs::Legacy
280
     1
 91
        0
  0
ACDSSCHEMA
 90
        3
  1
AcDbDs::IndexedPropertySchema
  2
AcDs:Indexable
280
     1
 91
        0
  0
ACDSSCHEMA
 90
        4
  1
AcDbDs::HandleAttributeSchema
  2
AcDbDs::HandleAttribute
280
     7
 91
        1
284
     1
  0
ACDSRECORD
 90
        0
  2
AcDbDs::ID
280
    10
320
3F27
  2
Thumbnail_Data
280
    15
 94
     1459
310
89504E470D0A1A0A0000000D49484452000001000000008808030000003F38C55500000300504C5445000000000000C8C8C80000000000000000000000000000000000000000000000000000330000660000990000CC0000FF0033000033330033660033990033CC0033FF0066000066330066660066990066CC0066FF0099
310
000099330099660099990099CC0099FF00CC0000CC3300CC6600CC9900CCCC00CCFF00FF0000FF3300FF6600FF9900FFCC00FFFF3300003300333300663300993300CC3300FF3333003333333333663333993333CC3333FF3366003366333366663366993366CC3366FF3399003399333399663399993399CC3399FF33CC00
310
33CC3333CC6633CC9933CCCC33CCFF33FF0033FF3333FF6633FF9933FFCC33FFFF6600006600336600666600996600CC6600FF6633006633336633666633996633CC6633FF6666006666336666666666996666CC6666FF6699006699336699666699996699CC6699FF66CC0066CC3366CC6666CC9966CCCC66CCFF66FF0066
310
FF3366FF6666FF9966FFCC66FFFF9900009900339900669900999900CC9900FF9933009933339933669933999933CC9933FF9966009966339966669966999966CC9966FF9999009999339999669999999999CC9999FF99CC0099CC3399CC6699CC9999CCCC99CCFF99FF0099FF3399FF6699FF9999FFCC99FFFFCC0000CC00
310
33CC0066CC0099CC00CCCC00FFCC3300CC3333CC3366CC3399CC33CCCC33FFCC6600CC6633CC6666CC6699CC66CCCC66FFCC9900CC9933CC9966CC9999CC99CCCC99FFCCCC00CCCC33CCCC66CCCC99CCCCCCCCCCFFCCFF00CCFF33CCFF66CCFF99CCFFCCCCFFFFFF0000FF0033FF0066FF0099FF00CCFF00FFFF3300FF3333
310
FF3366FF3399FF33CCFF33FFFF6600FF6633FF6666FF6699FF66CCFF66FFFF9900FF9933FF9966FF9999FF99CCFF99FFFFCC00FFCC33FFCC66FFCC99FFCCCCFFCCFFFFFF00FFFF33FFFF66FFFF99FFFFCCFFFFFF0000000D0D0D1A1A1A2828283535354343435050505D5D5D6B6B6B787878868686939393A1A1A1AEAEAEBB
310
BBBBC9C9C9D6D6D6E4E4E4F1F1F1FFFFFF00000000000000000000000000000000000000000000000000000000000008F1915C0000026E4944415478DAED9D496EC3300C45791C6F74FF1D4FC2C3345234505682EE5AC0EFFF36865174E3174E1265C9EC6F15AFDFE87711FD96A4B84900E00AFC938700D06D9F48E07A4900
310
962D382E0736004985E6F8BB0514070108013800141480D3054A131140BF2F460560023000381B8057C90278A37F01A0033001A87247037827000C8011FAE728D8BD7EEA5880510E2F00D3006A08303C801A07592EB0278175C501701880F1ECD903DAA33B1C00AE0EB801A8B50008C00804630C8C73810C2066F86B25A103
310
DAE50B409B13F89005E8009E6F01F34BA60388FEC941706F183D1F40C42D0D120044BA7400AB10A201B004600C876131604C8CBC1E7E58C1E32DE0A31A00C4BA4159C08A01330DBED707F454182400B1EA80590C05B00E184B64182EB02E9166C7DD81002CD701E6400B4800AC3588606381B944A86580DA22C40D86328056
310
0A9301ECFF21005C008849D1CBB6355266A9318207604C00B6DA025000ACCE101BC06F691003C004E02C859FAEAF6B84D28C90003001B800A0016C7382CC2C00B100BBCD86E182A0009C2D81D618EDEDF1C000D8FF52A3605B2ECE0550E000DEAFCDC802D8000A0F40EC004C0070002207418701481B48302D20CD0A73016C
310
2E80B68082B2803800181EC058264775011880B99B5C1CBBC991F615DC2DA0EF27480330D260FB1100B00B840101D8BEAB2E1940C0001C1B8BD30104D7058C1C03AEABBF392D006800A1A316F26123E4A316D859E00EE0BA72841000461CC8910006E07C937E00C01FBF234992244992244992F4F079000110002E801000B9
310
0057A337543887AC9C00ECDC4F9006A07DF96D4F51D09173B200C5806401AA03044085900008C0BFEA077B8FD5D3992E15970000000049454E44AE426082
  0
ENDSEC
  0
EOF
