  0
SECTION
  2
HEADER
  9
$ACADVER
  1
AC1027
  9
$ACADMAINTVER
 70
    57
  9
$DWGCODEPAGE
  3
ANSI_1252
  9
$TITLE
  1
Bügel zu Verstärkungsset Holz
  9
$AUTHOR
  1
Sn
  9
$LASTSAVEDBY
  1
chrwyd
  9
$CUSTOMPROPERTYTAG
  1
Manager
  9
$CUSTOMPROPERTY
  1

  9
$CUSTOMPROPERTYTAG
  1
Firma
  9
$CUSTOMPROPERTY
  1

  9
$CUSTOMPROPERTYTAG
  1
Kategorie
  9
$CUSTOMPROPERTY
  1

  9
$CUSTOMPROPERTYTAG
  1
Bauteilnummer
  9
$CUSTOMPROPERTY
  1
201.8156 2D
  9
$CUSTOMPROPERTYTAG
  1
Bezeichnung
  9
$CUSTOMPROPERTY
  1
Bügel zu Verstärkungsset Holz
  9
$CUSTOMPROPERTYTAG
  1
Projekt
  9
$CUSTOMPROPERTY
  1

  9
$CUSTOMPROPERTYTAG
  1
Konstrukteur
  9
$CUSTOMPROPERTY
  1
Administrator
  9
$CUSTOMPROPERTYTAG
  1
Ingenieur
  9
$CUSTOMPROPERTY
  1

  9
$CUSTOMPROPERTYTAG
  1
Bevollmächtigter
  9
$CUSTOMPROPERTY
  1

  9
$CUSTOMPROPERTYTAG
  1
Kostenstelle
  9
$CUSTOMPROPERTY
  1

  9
$CUSTOMPROPERTYTAG
  1
Zulieferer
  9
$CUSTOMPROPERTY
  1

  9
$CUSTOMPROPERTYTAG
  1
Benutzerstatus
  9
$CUSTOMPROPERTY
  1

  9
$CUSTOMPROPERTYTAG
  1
Konstruktionsstatus
  9
$CUSTOMPROPERTY
  1
InBearbeitung
  9
$CUSTOMPROPERTYTAG
  1
Kontrolliert von
  9
$CUSTOMPROPERTY
  1
Sn
  9
$CUSTOMPROPERTYTAG
  1
Datum Überprüfung
  9
$CUSTOMPROPERTY
  1
02/10/2016
  9
$CUSTOMPROPERTYTAG
  1
Konstruktion genehmigt von
  9
$CUSTOMPROPERTY
  1

  9
$CUSTOMPROPERTYTAG
  1
Fertigung genehmigt von
  9
$CUSTOMPROPERTY
  1

  9
$CUSTOMPROPERTYTAG
  1
1AIMD_REVISION_DATE
  9
$CUSTOMPROPERTY
  1

  9
$CUSTOMPROPERTYTAG
  1
1AIMD_REVISION_DESCRIPTION
  9
$CUSTOMPROPERTY
  1

  9
$CUSTOMPROPERTYTAG
  1
1AIMD_REVISION_INDEX
  9
$CUSTOMPROPERTY
  1

  9
$CUSTOMPROPERTYTAG
  1
1AIMD_REVISION_USERNAME
  9
$CUSTOMPROPERTY
  1

  9
$CUSTOMPROPERTYTAG
  1
2AIMD_REVISION_DATE
  9
$CUSTOMPROPERTY
  1

  9
$CUSTOMPROPERTYTAG
  1
2AIMD_REVISION_DESCRIPTION
  9
$CUSTOMPROPERTY
  1

  9
$CUSTOMPROPERTYTAG
  1
2AIMD_REVISION_INDEX
  9
$CUSTOMPROPERTY
  1

  9
$CUSTOMPROPERTYTAG
  1
2AIMD_REVISION_USERNAME
  9
$CUSTOMPROPERTY
  1

  9
$CUSTOMPROPERTYTAG
  1
3AIMD_REVISION_DATE
  9
$CUSTOMPROPERTY
  1

  9
$CUSTOMPROPERTYTAG
  1
3AIMD_REVISION_DESCRIPTION
  9
$CUSTOMPROPERTY
  1

  9
$CUSTOMPROPERTYTAG
  1
3AIMD_REVISION_INDEX
  9
$CUSTOMPROPERTY
  1

  9
$CUSTOMPROPERTYTAG
  1
3AIMD_REVISION_USERNAME
  9
$CUSTOMPROPERTY
  1

  9
$CUSTOMPROPERTYTAG
  1
4AIMD_REVISION_DATE
  9
$CUSTOMPROPERTY
  1

  9
$CUSTOMPROPERTYTAG
  1
4AIMD_REVISION_DESCRIPTION
  9
$CUSTOMPROPERTY
  1

  9
$CUSTOMPROPERTYTAG
  1
4AIMD_REVISION_INDEX
  9
$CUSTOMPROPERTY
  1

  9
$CUSTOMPROPERTYTAG
  1
4AIMD_REVISION_USERNAME
  9
$CUSTOMPROPERTY
  1

  9
$CUSTOMPROPERTYTAG
  1
5AIMD_REVISION_DATE
  9
$CUSTOMPROPERTY
  1

  9
$CUSTOMPROPERTYTAG
  1
5AIMD_REVISION_DESCRIPTION
  9
$CUSTOMPROPERTY
  1

  9
$CUSTOMPROPERTYTAG
  1
5AIMD_REVISION_INDEX
  9
$CUSTOMPROPERTY
  1

  9
$CUSTOMPROPERTYTAG
  1
5AIMD_REVISION_USERNAME
  9
$CUSTOMPROPERTY
  1

  9
$CUSTOMPROPERTYTAG
  1
6AIMD_REVISION_DATE
  9
$CUSTOMPROPERTY
  1

  9
$CUSTOMPROPERTYTAG
  1
6AIMD_REVISION_DESCRIPTION
  9
$CUSTOMPROPERTY
  1

  9
$CUSTOMPROPERTYTAG
  1
6AIMD_REVISION_INDEX
  9
$CUSTOMPROPERTY
  1

  9
$CUSTOMPROPERTYTAG
  1
6AIMD_REVISION_USERNAME
  9
$CUSTOMPROPERTY
  1

  9
$CUSTOMPROPERTYTAG
  1
7AIMD_REVISION_DATE
  9
$CUSTOMPROPERTY
  1

  9
$CUSTOMPROPERTYTAG
  1
7AIMD_REVISION_DESCRIPTION
  9
$CUSTOMPROPERTY
  1

  9
$CUSTOMPROPERTYTAG
  1
7AIMD_REVISION_INDEX
  9
$CUSTOMPROPERTY
  1

  9
$CUSTOMPROPERTYTAG
  1
7AIMD_REVISION_USERNAME
  9
$CUSTOMPROPERTY
  1

  9
$CUSTOMPROPERTYTAG
  1
8AIMD_REVISION_DATE
  9
$CUSTOMPROPERTY
  1

  9
$CUSTOMPROPERTYTAG
  1
8AIMD_REVISION_DESCRIPTION
  9
$CUSTOMPROPERTY
  1

  9
$CUSTOMPROPERTYTAG
  1
8AIMD_REVISION_INDEX
  9
$CUSTOMPROPERTY
  1

  9
$CUSTOMPROPERTYTAG
  1
8AIMD_REVISION_USERNAME
  9
$CUSTOMPROPERTY
  1

  9
$CUSTOMPROPERTYTAG
  1
AIMD_MATERIAL
  9
$CUSTOMPROPERTY
  1
1.4301
  9
$CUSTOMPROPERTYTAG
  1
AIMD_ORIGIN
  9
$CUSTOMPROPERTY
  1

  9
$CUSTOMPROPERTYTAG
  1
AIMD_PARTNO
  9
$CUSTOMPROPERTY
  1

  9
$CUSTOMPROPERTYTAG
  1
AIMD_REPLACED
  9
$CUSTOMPROPERTY
  1

  9
$CUSTOMPROPERTYTAG
  1
AIMD_REPLACEMENT
  9
$CUSTOMPROPERTY
  1

  9
$CUSTOMPROPERTYTAG
  1
AIMD_SCALE
  9
$CUSTOMPROPERTY
  1
1:1
  9
$CUSTOMPROPERTYTAG
  1
AIMD_WEIGHT
  9
$CUSTOMPROPERTY
  1

  9
$CUSTOMPROPERTYTAG
  1
AIMD_WEIGHT_UNIT
  9
$CUSTOMPROPERTY
  1

  9
$CUSTOMPROPERTYTAG
  1
AIMD_BEZ2
  9
$CUSTOMPROPERTY
  1
24413
  9
$CUSTOMPROPERTYTAG
  1
AIMD_BEZ3
  9
$CUSTOMPROPERTY
  1

  9
$CUSTOMPROPERTYTAG
  1
AIMD_BEZ4
  9
$CUSTOMPROPERTY
  1

  9
$CUSTOMPROPERTYTAG
  1
AIMD_FIRMA
  9
$CUSTOMPROPERTY
  1

  9
$CUSTOMPROPERTYTAG
  1
AIMD_OBERFL
  9
$CUSTOMPROPERTY
  1

  9
$CUSTOMPROPERTYTAG
  1
TEILENR
  9
$CUSTOMPROPERTY
  1

  9
$CUSTOMPROPERTYTAG
  1
DATEINAME
  9
$CUSTOMPROPERTY
  1
201.8156_2D
  9
$CUSTOMPROPERTYTAG
  1
FILE_EXT
  9
$CUSTOMPROPERTY
  1
idw
  9
$CUSTOMPROPERTYTAG
  1
EDM_CREATE_DATE
  9
$CUSTOMPROPERTY
  1
01/22/2014
  9
$CUSTOMPROPERTYTAG
  1
EDM_CREATE_BY
  9
$CUSTOMPROPERTY
  1
Sn
  9
$CUSTOMPROPERTYTAG
  1
EDM_CHECKED_DATE
  9
$CUSTOMPROPERTY
  1
02/10/2016
  9
$CUSTOMPROPERTYTAG
  1
EDM_CHECKED_BY
  9
$CUSTOMPROPERTY
  1
Sn
  9
$CUSTOMPROPERTYTAG
  1
AIMD_REV
  9
$CUSTOMPROPERTY
  1

  9
$CUSTOMPROPERTYTAG
  1
AIMD_DESCRIPTION
  9
$CUSTOMPROPERTY
  1
24413
  9
$CUSTOMPROPERTYTAG
  1
AIMD_AIMKEY
  9
$CUSTOMPROPERTY
  1
180084.21599
  9
$CUSTOMPROPERTYTAG
  1
AIMD_USERID
  9
$CUSTOMPROPERTY
  1
Sn
  9
$CUSTOMPROPERTYTAG
  1
FIRST_SCALE
  9
$CUSTOMPROPERTY
  1
1 : 1
  9
$CUSTOMPROPERTYTAG
  1
Masseinheit
  9
$CUSTOMPROPERTY
  1
mm
  9
$REQUIREDVERSIONS
160
                 0
  9
$INSBASE
 10
0.0
 20
0.0
 30
0.0
  9
$EXTMIN
 10
41.92245537173289
 20
79.75167925114703
 30
-0.0015258207003583
  9
$EXTMAX
 10
188.6174015870986
 20
232.4980322326278
 30
0.0000000349246037
  9
$LIMMIN
 10
0.0
 20
0.0
  9
$LIMMAX
 10
210.0
 20
297.0
  9
$ORTHOMODE
 70
     0
  9
$REGENMODE
 70
     1
  9
$FILLMODE
 70
     1
  9
$QTEXTMODE
 70
     0
  9
$MIRRTEXT
 70
     0
  9
$LTSCALE
 40
1.0
  9
$ATTMODE
 70
     1
  9
$TEXTSIZE
 40
0.2
  9
$TRACEWID
 40
0.05
  9
$TEXTSTYLE
  7
Standard
  9
$CLAYER
  8
0
  9
$CELTYPE
  6
ByLayer
  9
$CECOLOR
 62
   256
  9
$CELTSCALE
 40
1.0
  9
$DISPSILH
 70
     0
  9
$DIMSCALE
 40
1.0
  9
$DIMASZ
 40
1.799999999999999
  9
$DIMEXO
 40
0.0625
  9
$DIMDLI
 40
0.38
  9
$DIMRND
 40
0.0
  9
$DIMDLE
 40
0.0
  9
$DIMEXE
 40
0.18
  9
$DIMTP
 40
0.0
  9
$DIMTM
 40
0.0
  9
$DIMTXT
 40
0.2000000029802322
  9
$DIMCEN
 40
0.09
  9
$DIMTSZ
 40
0.0
  9
$DIMTOL
 70
     0
  9
$DIMLIM
 70
     0
  9
$DIMTIH
 70
     1
  9
$DIMTOH
 70
     1
  9
$DIMSE1
 70
     0
  9
$DIMSE2
 70
     0
  9
$DIMTAD
 70
     0
  9
$DIMZIN
 70
     0
  9
$DIMBLK
  1

  9
$DIMASO
 70
     1
  9
$DIMSHO
 70
     1
  9
$DIMPOST
  1

  9
$DIMAPOST
  1

  9
$DIMALT
 70
     0
  9
$DIMALTD
 70
     2
  9
$DIMALTF
 40
25.4
  9
$DIMLFAC
 40
1.0
  9
$DIMTOFL
 70
     0
  9
$DIMTVP
 40
0.0
  9
$DIMTIX
 70
     0
  9
$DIMSOXD
 70
     0
  9
$DIMSAH
 70
     0
  9
$DIMBLK1
  1

  9
$DIMBLK2
  1

  9
$DIMSTYLE
  2
Standard
  9
$DIMCLRD
 70
     0
  9
$DIMCLRE
 70
     0
  9
$DIMCLRT
 70
     0
  9
$DIMTFAC
 40
1.0
  9
$DIMGAP
 40
0.09
  9
$DIMJUST
 70
     0
  9
$DIMSD1
 70
     0
  9
$DIMSD2
 70
     0
  9
$DIMTOLJ
 70
     1
  9
$DIMTZIN
 70
     0
  9
$DIMALTZ
 70
     0
  9
$DIMALTTZ
 70
     0
  9
$DIMUPT
 70
     0
  9
$DIMDEC
 70
     4
  9
$DIMTDEC
 70
     4
  9
$DIMALTU
 70
     2
  9
$DIMALTTD
 70
     2
  9
$DIMTXSTY
  7
Standard
  9
$DIMAUNIT
 70
     0
  9
$DIMADEC
 70
     0
  9
$DIMALTRND
 40
0.0
  9
$DIMAZIN
 70
     0
  9
$DIMDSEP
 70
    46
  9
$DIMATFIT
 70
     3
  9
$DIMFRAC
 70
     0
  9
$DIMLDRBLK
  1

  9
$DIMLUNIT
 70
     2
  9
$DIMLWD
 70
    -2
  9
$DIMLWE
 70
    -2
  9
$DIMTMOVE
 70
     0
  9
$DIMFXL
 40
1.0
  9
$DIMFXLON
 70
     0
  9
$DIMJOGANG
 40
0.7853981633974483
  9
$DIMTFILL
 70
     0
  9
$DIMTFILLCLR
 70
     0
  9
$DIMARCSYM
 70
     0
  9
$DIMLTYPE
  6

  9
$DIMLTEX1
  6

  9
$DIMLTEX2
  6

  9
$DIMTXTDIRECTION
 70
     0
  9
$LUNITS
 70
     2
  9
$LUPREC
 70
     4
  9
$SKETCHINC
 40
0.1
  9
$FILLETRAD
 40
0.0
  9
$AUNITS
 70
     0
  9
$AUPREC
 70
     0
  9
$MENU
  1
.
  9
$ELEVATION
 40
0.0
  9
$PELEVATION
 40
0.0
  9
$THICKNESS
 40
0.0
  9
$LIMCHECK
 70
     0
  9
$CHAMFERA
 40
0.0
  9
$CHAMFERB
 40
0.0
  9
$CHAMFERC
 40
0.0
  9
$CHAMFERD
 40
0.0
  9
$SKPOLY
 70
     0
  9
$TDCREATE
 40
2459111.335271296
  9
$TDUCREATE
 40
2459111.251937963
  9
$TDUPDATE
 40
2459111.344976887
  9
$TDUUPDATE
 40
2459111.261643553
  9
$TDINDWG
 40
0.0073630671
  9
$TDUSRTIMER
 40
0.0073630671
  9
$USRTIMER
 70
     1
  9
$ANGBASE
 50
0.0
  9
$ANGDIR
 70
     0
  9
$PDMODE
 70
     0
  9
$PDSIZE
 40
0.0
  9
$PLINEWID
 40
0.0
  9
$SPLFRAME
 70
     0
  9
$SPLINETYPE
 70
     6
  9
$SPLINESEGS
 70
     8
  9
$HANDSEED
  5
12A7
  9
$SURFTAB1
 70
     6
  9
$SURFTAB2
 70
     6
  9
$SURFTYPE
 70
     6
  9
$SURFU
 70
     6
  9
$SURFV
 70
     6
  9
$UCSBASE
  2

  9
$UCSNAME
  2

  9
$UCSORG
 10
0.0
 20
0.0
 30
0.0
  9
$UCSXDIR
 10
1.0
 20
0.0
 30
0.0
  9
$UCSYDIR
 10
0.0
 20
1.0
 30
0.0
  9
$UCSORTHOREF
  2

  9
$UCSORTHOVIEW
 70
     0
  9
$UCSORGTOP
 10
0.0
 20
0.0
 30
0.0
  9
$UCSORGBOTTOM
 10
0.0
 20
0.0
 30
0.0
  9
$UCSORGLEFT
 10
0.0
 20
0.0
 30
0.0
  9
$UCSORGRIGHT
 10
0.0
 20
0.0
 30
0.0
  9
$UCSORGFRONT
 10
0.0
 20
0.0
 30
0.0
  9
$UCSORGBACK
 10
0.0
 20
0.0
 30
0.0
  9
$PUCSBASE
  2

  9
$PUCSNAME
  2

  9
$PUCSORG
 10
0.0
 20
0.0
 30
0.0
  9
$PUCSXDIR
 10
1.0
 20
0.0
 30
0.0
  9
$PUCSYDIR
 10
0.0
 20
1.0
 30
0.0
  9
$PUCSORTHOREF
  2

  9
$PUCSORTHOVIEW
 70
     0
  9
$PUCSORGTOP
 10
0.0
 20
0.0
 30
0.0
  9
$PUCSORGBOTTOM
 10
0.0
 20
0.0
 30
0.0
  9
$PUCSORGLEFT
 10
0.0
 20
0.0
 30
0.0
  9
$PUCSORGRIGHT
 10
0.0
 20
0.0
 30
0.0
  9
$PUCSORGFRONT
 10
0.0
 20
0.0
 30
0.0
  9
$PUCSORGBACK
 10
0.0
 20
0.0
 30
0.0
  9
$USERI1
 70
     0
  9
$USERI2
 70
     0
  9
$USERI3
 70
     0
  9
$USERI4
 70
     0
  9
$USERI5
 70
     0
  9
$USERR1
 40
0.0
  9
$USERR2
 40
0.0
  9
$USERR3
 40
0.0
  9
$USERR4
 40
0.0
  9
$USERR5
 40
0.0
  9
$WORLDVIEW
 70
     1
  9
$SHADEDGE
 70
     3
  9
$SHADEDIF
 70
    70
  9
$TILEMODE
 70
     1
  9
$MAXACTVP
 70
    64
  9
$PINSBASE
 10
0.0
 20
0.0
 30
0.0
  9
$PLIMCHECK
 70
     0
  9
$PEXTMIN
 10
0.0
 20
0.0
 30
0.0
  9
$PEXTMAX
 10
210.0
 20
297.0
 30
0.0
  9
$PLIMMIN
 10
0.0
 20
0.0
  9
$PLIMMAX
 10
210.0
 20
297.0
  9
$UNITMODE
 70
     0
  9
$VISRETAIN
 70
     1
  9
$PLINEGEN
 70
     0
  9
$PSLTSCALE
 70
     1
  9
$TREEDEPTH
 70
  3020
  9
$CMLSTYLE
  2
Standard
  9
$CMLJUST
 70
     0
  9
$CMLSCALE
 40
1.0
  9
$PROXYGRAPHICS
 70
     1
  9
$MEASUREMENT
 70
     1
  9
$CELWEIGHT
370
    -1
  9
$ENDCAPS
280
     0
  9
$JOINSTYLE
280
     0
  9
$LWDISPLAY
290
     0
  9
$INSUNITS
 70
     4
  9
$HYPERLINKBASE
  1

  9
$STYLESHEET
  1

  9
$XEDIT
290
     1
  9
$CEPSNTYPE
380
     0
  9
$PSTYLEMODE
290
     1
  9
$FINGERPRINTGUID
  2
{F91FACB9-A581-498C-9906-C1133F19F199}
  9
$VERSIONGUID
  2
{927784E5-E8E3-4B60-871A-F8AD1F67FEFB}
  9
$EXTNAMES
290
     1
  9
$PSVPSCALE
 40
0.0
  9
$OLESTARTUP
290
     0
  9
$SORTENTS
280
   127
  9
$INDEXCTL
280
     0
  9
$HIDETEXT
280
     1
  9
$XCLIPFRAME
280
     2
  9
$HALOGAP
280
     0
  9
$OBSCOLOR
 70
   257
  9
$OBSLTYPE
280
     0
  9
$INTERSECTIONDISPLAY
280
     0
  9
$INTERSECTIONCOLOR
 70
   257
  9
$DIMASSOC
280
     1
  9
$PROJECTNAME
  1

  9
$CAMERADISPLAY
290
     0
  9
$LENSLENGTH
 40
50.0
  9
$CAMERAHEIGHT
 40
0.0
  9
$STEPSPERSEC
 40
2.0
  9
$STEPSIZE
 40
6.0
  9
$3DDWFPREC
 40
2.0
  9
$PSOLWIDTH
 40
0.25
  9
$PSOLHEIGHT
 40
4.0
  9
$LOFTANG1
 40
1.570796326794896
  9
$LOFTANG2
 40
1.570796326794896
  9
$LOFTMAG1
 40
0.0
  9
$LOFTMAG2
 40
0.0
  9
$LOFTPARAM
 70
     7
  9
$LOFTNORMALS
280
     1
  9
$LATITUDE
 40
37.795
  9
$LONGITUDE
 40
-122.394
  9
$NORTHDIRECTION
 40
0.0
  9
$TIMEZONE
 70
 -8000
  9
$LIGHTGLYPHDISPLAY
280
     1
  9
$TILEMODELIGHTSYNCH
280
     1
  9
$CMATERIAL
347
11
  9
$SOLIDHIST
280
     0
  9
$SHOWHIST
280
     1
  9
$DWFFRAME
280
     2
  9
$DGNFRAME
280
     0
  9
$REALWORLDSCALE
290
     1
  9
$INTERFERECOLOR
 62
     1
  9
$INTERFEREOBJVS
345
33
  9
$INTERFEREVPVS
346
30
  9
$CSHADOW
280
     0
  9
$SHADOWPLANELOCATION
 40
0.0
  0
ENDSEC
  0
SECTION
  2
CLASSES
  0
CLASS
  1
ACDBDICTIONARYWDFLT
  2
AcDbDictionaryWithDefault
  3
ObjectDBX Classes
 90
        0
 91
        1
280
     0
281
     0
  0
CLASS
  1
MATERIAL
  2
AcDbMaterial
  3
ObjectDBX Classes
 90
     1153
 91
        3
280
     0
281
     0
  0
CLASS
  1
VISUALSTYLE
  2
AcDbVisualStyle
  3
ObjectDBX Classes
 90
     4095
 91
       24
280
     0
281
     0
  0
CLASS
  1
SCALE
  2
AcDbScale
  3
ObjectDBX Classes
 90
     1153
 91
       17
280
     0
281
     0
  0
CLASS
  1
TABLESTYLE
  2
AcDbTableStyle
  3
ObjectDBX Classes
 90
     4095
 91
        1
280
     0
281
     0
  0
CLASS
  1
MLEADERSTYLE
  2
AcDbMLeaderStyle
  3
ACDB_MLEADERSTYLE_CLASS
 90
     4095
 91
        1
280
     0
281
     0
  0
CLASS
  1
ACDBSECTIONVIEWSTYLE
  2
AcDbSectionViewStyle
  3
ObjectDBX Classes
 90
     1025
 91
        3
280
     0
281
     0
  0
CLASS
  1
ACDBDETAILVIEWSTYLE
  2
AcDbDetailViewStyle
  3
ObjectDBX Classes
 90
     1025
 91
        3
280
     0
281
     0
  0
CLASS
  1
DICTIONARYVAR
  2
AcDbDictionaryVar
  3
ObjectDBX Classes
 90
        0
 91
        5
280
     0
281
     0
  0
CLASS
  1
ACME_DOCUMENT
  2
AcMeDbDoc
  3
AcMeServices
 90
     1024
 91
        2
280
     0
281
     0
  0
CLASS
  1
AMGSETTINGSOBJ
  2
AmgSettingsObj
  3
"AcadM|Product Description: AutoCAD Mechanical|Company: Autodesk, Inc."
 90
     1024
 91
        2
280
     0
281
     0
  0
CLASS
  1
ACMESCOPE
  2
AcMeScope
  3
AcMeServices
 90
     1024
 91
        1
280
     0
281
     0
  0
CLASS
  1
ACMECOMMANDHISTORY
  2
AcMeCommandHistory
  3
AcMeServices
 90
     1024
 91
        1
280
     0
281
     0
  0
CLASS
  1
ACIMSYSVARMAN
  2
AcImSysVarManager
  3
AcMeServices
 90
     1024
 91
        3
280
     0
281
     0
  0
CLASS
  1
ACIMINTSYSVAR
  2
AcImIntSysVar
  3
AcMeServices
 90
     1024
 91
        2
280
     0
281
     0
  0
CLASS
  1
ACMESTATEMGR
  2
AcMeStateMgr
  3
AcMeServices
 90
     1024
 91
        1
280
     0
281
     0
  0
CLASS
  1
ACDBENTITYCACHE
  2
AcMeEntityCache
  3
AcMeServices
 90
     1024
 91
        1
280
     0
281
     0
  0
CLASS
  1
ACGREFMASTER
  2
AcGrefMaster
  3
AcAttribServices
 90
     1024
 91
        1
280
     0
281
     0
  0
CLASS
  1
ACME_DATABASE
  2
AcMeDbDatabase
  3
AcMeServices
 90
     1024
 91
        1
280
     0
281
     0
  0
CLASS
  1
ACRFINSADJUSTERMGR
  2
AcRfInsAdjusterMgr
  3
AcMeServices
 90
     1024
 91
        1
280
     0
281
     0
  0
CLASS
  1
ACGREFACADMASTER
  2
AcGrefacadMaster
  3
AcGrefServices
 90
     1024
 91
        1
280
     0
281
     0
  0
CLASS
  1
AMDTMENUSTATEMGR
  2
AmdtMenuStateMgr
  3
McadcomServices
 90
     1024
 91
        1
280
     0
281
     0
  0
CLASS
  1
AMDTMCOMMENUSTATE
  2
AmdtMcomMenuState
  3
McadcomServices
 90
     1024
 91
        1
280
     0
281
     0
  0
CLASS
  1
AMIMASTER
  2
AmiMaster
  3
AmiServices
 90
     1024
 91
        1
280
     0
281
     0
  0
CLASS
  1
MAPIAMMOUDLE
  2
MApiAmModule
  3
MApiAmServices
 90
     1024
 91
        1
280
     0
281
     0
  0
CLASS
  1
ACIMSTRSYSVAR
  2
AcImStrSysVar
  3
AcMeServices
 90
     1024
 91
        5
280
     0
281
     0
  0
CLASS
  1
AMDTAMMENUSTATE
  2
AmdtAmMenuState
  3
DesignerAssemblies
 90
     1024
 91
        1
280
     0
281
     0
  0
CLASS
  1
ACAMPROJECT
  2
AcAmProject
  3
DesignerAssemblies
 90
     1024
 91
        1
280
     0
281
     0
  0
CLASS
  1
ACAMGRCOMPDEF
  2
AcAmGrCompDef
  3
DesignerAssemblies
 90
     1024
 91
        1
280
     0
281
     0
  0
CLASS
  1
ACAMCOMPDEF
  2
AcAmCompDef
  3
DesignerAssemblies
 90
     1024
 91
        1
280
     0
281
     0
  0
CLASS
  1
ACAMCOMPDEFMGR
  2
AcAmCompDefMgr
  3
DesignerAssemblies
 90
     1024
 91
        1
280
     0
281
     0
  0
CLASS
  1
AMCONTEXTMGR
  2
AcAmContextMgr
  3
DesignerAssemblies
 90
     1024
 91
        1
280
     0
281
     0
  0
CLASS
  1
ACAMCONTEXTMODELER
  2
AcAmContextModeler
  3
DesignerAssemblies
 90
     1024
 91
        1
280
     0
281
     0
  0
CLASS
  1
ACMDATADICTIONARY
  2
AcmDataDictionary
  3
"AcmSymBB|Product Description: AutoCAD Mechanical|Company: Autodesk, Inc."
 90
     1024
 91
        1
280
     0
281
     0
  0
CLASS
  1
ACAMGRCOMPDEFSET
  2
AcAmGrCompDefSet
  3
DesignerAssemblies
 90
     1024
 91
        1
280
     0
281
     0
  0
CLASS
  1
AMDTBROWSERDBTAB
  2
AmdtBrowserDbTab
  3
McadcomServices
 90
     1024
 91
        1
280
     0
281
     0
  0
CLASS
  1
CBROWSERAPPOBJECT
  2
CBrowserAppObject
  3
McadcomServices
 90
     1024
 91
        2
280
     0
281
     0
  0
CLASS
  1
DM_PLACEHOLDER
  2
AcDmSelsetPlaceholder
  3
McadcomServices
 90
     1024
 91
        1
280
     0
281
     0
  0
CLASS
  1
ACMSTANDARDDIN
  2
AcmStandardDIN
  3
"Amdt_StdImp|Product Description: AutoCAD Mechanical|Company: Autodesk, Inc."
 90
     1024
 91
        1
280
     0
281
     0
  0
CLASS
  1
AMDTEDGESTANDARDDIN13715
  2
AmdtEdgeStdDIN13715
  3
"Amdt_StdImp|Product Description: AutoCAD Mechanical|Company: Autodesk, Inc."
 90
     1024
 91
        1
280
     0
281
     0
  0
CLASS
  1
ACMSURFSTANDARDDIN2002
  2
AcmSurfTextStdDIN2002
  3
"Amdt_StdImp|Product Description: AutoCAD Mechanical|Company: Autodesk, Inc."
 90
     1024
 91
        1
280
     0
281
     0
  0
CLASS
  1
ACMFCFSTANDARDDIN2008
  2
AcmFCFStdDIN2008
  3
"Amdt_StdImp|Product Description: AutoCAD Mechanical|Company: Autodesk, Inc."
 90
     1024
 91
        1
280
     0
281
     0
  0
CLASS
  1
ACMWELDSTANDARDDIN
  2
AcmWeldingStdDIN
  3
"Amdt_StdImp|Product Description: AutoCAD Mechanical|Company: Autodesk, Inc."
 90
     1024
 91
        1
280
     0
281
     0
  0
CLASS
  1
ACMIDSTANDARDDIN2008
  2
AcmIdStdDIN2008
  3
"Amdt_StdImp|Product Description: AutoCAD Mechanical|Company: Autodesk, Inc."
 90
     1024
 91
        1
280
     0
281
     0
  0
CLASS
  1
ACMDATUMSTANDARDDIN
  2
AcmDatumStdDIN
  3
"Amdt_StdImp|Product Description: AutoCAD Mechanical|Company: Autodesk, Inc."
 90
     1024
 91
        1
280
     0
281
     0
  0
CLASS
  1
ACMBOMSTANDARDDIN
  2
AcmBOMStdDIN
  3
"Amdt_StdImp|Product Description: AutoCAD Mechanical|Company: Autodesk, Inc."
 90
     1024
 91
        1
280
     0
281
     0
  0
CLASS
  1
ACMDETAILSTANDARDDIN
  2
AmdtDetailSymStdDIN
  3
"Amdt_StdImp|Product Description: AutoCAD Mechanical|Company: Autodesk, Inc."
 90
     1024
 91
        1
280
     0
281
     0
  0
CLASS
  1
ACMSECTIONSTANDARDDIN
  2
AmdtSectionSymStdDIN
  3
"Amdt_StdImp|Product Description: AutoCAD Mechanical|Company: Autodesk, Inc."
 90
     1024
 91
        1
280
     0
281
     0
  0
CLASS
  1
ACMCENTERLINESTANDARDDIN
  2
AmdtCenterLineStdDIN
  3
"Amdt_StdImp|Product Description: AutoCAD Mechanical|Company: Autodesk, Inc."
 90
     1024
 91
        1
280
     0
281
     0
  0
CLASS
  1
ACMTHREADLINESTANDARDDIN
  2
AmdtThreadLineStdDIN
  3
"Amdt_StdImp|Product Description: AutoCAD Mechanical|Company: Autodesk, Inc."
 90
     1024
 91
        1
280
     0
281
     0
  0
CLASS
  1
ACMNOTESTANDARDDIN
  2
AmdtNoteStdDIN
  3
"Amdt_StdImp|Product Description: AutoCAD Mechanical|Company: Autodesk, Inc."
 90
     1024
 91
        1
280
     0
281
     0
  0
CLASS
  1
ACMTAPERSTANDARDDIN
  2
AcmTaperStdDIN
  3
"Amdt_StdImp|Product Description: AutoCAD Mechanical|Company: Autodesk, Inc."
 90
     1024
 91
        1
280
     0
281
     0
  0
CLASS
  1
ACMANOOTATIONVIEWSTANDARDDIN
  2
AmdtAnViewStdDIN
  3
"Amdt_StdImp|Product Description: AutoCAD Mechanical|Company: Autodesk, Inc."
 90
     1024
 91
        1
280
     0
281
     0
  0
CLASS
  1
ACAMGLAYSTD
  2
AcAmgLayStd
  3
"AmgLay|Product Description: AutoCAD Mechanical|Company: Autodesk, Inc."
 90
     1024
 91
        1
280
     0
281
     0
  0
CLASS
  1
ACAMGDIMSTD
  2
AcAmgDimStd
  3
"AmgDim|Product Description: AutoCAD Mechanical|Company: Autodesk, Inc."
 90
     1024
 91
        1
280
     0
281
     0
  0
CLASS
  1
AMGOBJPROPCFG
  2
AmgObjPropCfg
  3
"AmgLay|Product Description: AutoCAD Mechanical|Company: Autodesk, Inc."
 90
     1024
 91
        1
280
     0
281
     0
  0
CLASS
  1
ACAMGHOLECHARTSTDDIN
  2
AcAmgHoleChartStdDIN
  3
AmgDim|Product Description: AutoCAD Mechanical|Company: Autodesk, Inc.
 90
     1024
 91
        1
280
     0
281
     0
  0
CLASS
  1
ACAMGTITLESTD
  2
AcAmgTitleStd
  3
"AmgTitle|Product Description: AutoCAD Mechanical|Company: Autodesk, Inc."
 90
     1024
 91
        1
280
     0
281
     0
  0
CLASS
  1
ACMSECTIONSTANDARDCUSTOM
  2
AmdtSectionSymStdCustom
  3
"Amdt_StdImp|Product Description: AutoCAD Mechanical|Company: Autodesk, Inc."
 90
     1024
 91
        2
280
     0
281
     0
  0
CLASS
  1
ACMDETAILTANDARDCUSTOM
  2
AmdtDetailSymStdCustom
  3
"Amdt_StdImp|Product Description: AutoCAD Mechanical|Company: Autodesk, Inc."
 90
     1024
 91
        2
280
     0
281
     0
  0
CLASS
  1
FIELD
  2
AcDbField
  3
ObjectDBX Classes
 90
     1152
 91
        6
280
     0
281
     0
  0
CLASS
  1
FIELDLIST
  2
AcDbFieldList
  3
ObjectDBX Classes
 90
     1152
 91
        1
280
     0
281
     0
  0
CLASS
  1
AMDTNOTETEMPLATEDB
  2
AmdtNoteTemplateDB
  3
AcmSymBB|Product Description: AutoCAD Mechanical|Company: Autodesk, Inc.
 90
     1024
 91
        7
280
     0
281
     0
  0
CLASS
  1
ACAMGFILTERDAT
  2
AcAmgFilterDat
  3
"AcadM|Product Description: AutoCAD Mechanical|Company: Autodesk, Inc."
 90
     1024
 91
        6
280
     0
281
     0
  0
CLASS
  1
CELLSTYLEMAP
  2
AcDbCellStyleMap
  3
ObjectDBX Classes
 90
     1152
 91
        1
280
     0
281
     0
  0
ENDSEC
  0
SECTION
  2
TABLES
  0
TABLE
  2
VPORT
  5
8
330
0
100
AcDbSymbolTable
 70
     1
  0
VPORT
  5
57
330
8
100
AcDbSymbolTableRecord
100
AcDbViewportTableRecord
  2
*Active
 70
     0
 10
0.0
 20
0.0
 11
1.0
 21
1.0
 12
115.2699284794157
 22
156.1248557418874
 13
0.0
 23
0.0
 14
1.0
 24
1.0
 15
0.0
 25
0.0
 16
0.0
 26
0.0
 36
1.0
 17
0.0
 27
0.0
 37
0.0
 40
153.7234085442621
 41
1.900747065101387
 42
50.0
 43
0.0
 44
0.0
 50
0.0
 51
0.0
 71
     0
 72
   100
 73
     1
 74
     1
 75
     0
 76
     0
 77
     0
 78
     0
281
     0
 65
     1
110
0.0
120
0.0
130
0.0
111
1.0
121
0.0
131
0.0
112
0.0
122
1.0
132
0.0
 79
     0
146
0.0
348
2F
 60
     3
 61
     5
292
     1
282
     1
141
0.0
142
0.0
 63
   250
421
  3355443
1001
ACAD_NAV_VCDISPLAY
1070
     3
  0
ENDTAB
  0
TABLE
  2
LTYPE
  5
5
330
0
100
AcDbSymbolTable
 70
    74
  0
LTYPE
  5
5B
330
5
100
AcDbSymbolTableRecord
100
AcDbLinetypeTableRecord
  2
ByBlock
 70
     0
  3

 72
    65
 73
     0
 40
0.0
  0
LTYPE
  5
5C
330
5
100
AcDbSymbolTableRecord
100
AcDbLinetypeTableRecord
  2
ByLayer
 70
     0
  3

 72
    65
 73
     0
 40
0.0
  0
LTYPE
  5
5D
330
5
100
AcDbSymbolTableRecord
100
AcDbLinetypeTableRecord
  2
Continuous
 70
     0
  3
Solid line
 72
    65
 73
     0
 40
0.0
  0
LTYPE
  5
78
330
5
100
AcDbSymbolTableRecord
100
AcDbLinetypeTableRecord
  2
Section_View_Lines
 70
     0
  3
Section View Lines
 72
    65
 73
     4
 40
0.8406
 49
0.6614
 74
     0
 49
-0.0827
 74
     0
 49
0.0138
 74
     0
 49
-0.0827
 74
     0
  0
LTYPE
  5
79
330
5
100
AcDbSymbolTableRecord
100
AcDbLinetypeTableRecord
  2
CHAIN
 70
     0
  3
Chain ____ _ ____ _ ____ _ ____ _ ____ _ ____
 72
    65
 73
     4
 40
0.3543
 49
0.2362
 74
     0
 49
-0.0295
 74
     0
 49
0.0591
 74
     0
 49
-0.0295
 74
     0
  0
LTYPE
  5
7A
330
5
100
AcDbSymbolTableRecord
100
AcDbLinetypeTableRecord
  2
DASH_DOT
 70
     0
  3
Dash dot _._._._._._._._._._._._._._._.
 72
    65
 73
     4
 40
0.37
 49
0.24
 74
     0
 49
-0.06
 74
     0
 49
0.01
 74
     0
 49
-0.06
 74
     0
  0
LTYPE
  5
7B
330
5
100
AcDbSymbolTableRecord
100
AcDbLinetypeTableRecord
  2
DASH_DOUBLE_DOT
 70
     0
  3
Dash Double Dot __ __ . __ __ . __ __ . __ _
 72
    65
 73
     6
 40
0.4398
 49
0.24
 74
     0
 49
-0.06
 74
     0
 49
0.0098
 74
     0
 49
-0.06
 74
     0
 49
0.01
 74
     0
 49
-0.06
 74
     0
  0
LTYPE
  5
7C
330
5
100
AcDbSymbolTableRecord
100
AcDbLinetypeTableRecord
  2
DASH_TRIPLE_DOT
 70
     0
  3
Dash Triple-Dot _ . . . _ . . . _ . . . _
 72
    65
 73
     8
 40
0.51
 49
0.24
 74
     0
 49
-0.06
 74
     0
 49
0.01
 74
     0
 49
-0.06
 74
     0
 49
0.01
 74
     0
 49
-0.06
 74
     0
 49
0.01
 74
     0
 49
-0.06
 74
     0
  0
LTYPE
  5
7D
330
5
100
AcDbSymbolTableRecord
100
AcDbLinetypeTableRecord
  2
DASHED
 70
     0
  3
Dashed __ __ __ __ __ __ __ __ __ __ __ __ __ _
 72
    65
 73
     2
 40
0.2067
 49
0.1654
 74
     0
 49
-0.0413
 74
     0
  0
LTYPE
  5
7E
330
5
100
AcDbSymbolTableRecord
100
AcDbLinetypeTableRecord
  2
DASHED_SPACE
 70
     0
  3
Dashed Space _._._._._._._._._._._._._._._.
 72
    65
 73
     2
 40
0.2067
 49
0.1654
 74
     0
 49
-0.0413
 74
     0
  0
LTYPE
  5
7F
330
5
100
AcDbSymbolTableRecord
100
AcDbLinetypeTableRecord
  2
DOTTED
 70
     0
  3
Dotted . . . . . . . . . . . . . . . . . . . . 
 72
    65
 73
     2
 40
0.0482
 49
0.0069
 74
     0
 49
-0.0413
 74
     0
  0
LTYPE
  5
80
330
5
100
AcDbSymbolTableRecord
100
AcDbLinetypeTableRecord
  2
DOUBLE_DASH_CHAIN
 70
     0
  3
Double Dash Chain ___ _ _ ___ _ _ ___ _ _ ___ _
 72
    65
 73
     6
 40
1.240299999999999
 49
0.6614
 74
     0
 49
-0.0827
 74
     0
 49
0.1654
 74
     0
 49
-0.0827
 74
     0
 49
0.1654
 74
     0
 49
-0.0827
 74
     0
  0
LTYPE
  5
81
330
5
100
AcDbSymbolTableRecord
100
AcDbLinetypeTableRecord
  2
DOUBLE_DASH_DOT
 70
     0
  3
Double Dash Dot __ __ . __ __ . __ __ . __ _
 72
    65
 73
     6
 40
0.67
 49
0.24
 74
     0
 49
-0.06
 74
     0
 49
0.24
 74
     0
 49
-0.06
 74
     0
 49
0.01
 74
     0
 49
-0.06
 74
     0
  0
LTYPE
  5
82
330
5
100
AcDbSymbolTableRecord
100
AcDbLinetypeTableRecord
  2
DOUBLE_DASH_DOUBLE_DOT
 70
     0
  3
Double-dash double-dot _ _ . . _ _ . . _
 72
    65
 73
     8
 40
0.7400000000000001
 49
0.24
 74
     0
 49
-0.06
 74
     0
 49
0.24
 74
     0
 49
-0.06
 74
     0
 49
0.01
 74
     0
 49
-0.06
 74
     0
 49
0.01
 74
     0
 49
-0.06
 74
     0
  0
LTYPE
  5
83
330
5
100
AcDbSymbolTableRecord
100
AcDbLinetypeTableRecord
  2
DOUBLE_DASH_TRIPLE_DOT
 70
     0
  3
Double Dash Triple Dot __ __ . . . __ __ . . .
 72
    65
 73
    10
 40
0.8100000000000001
 49
0.24
 74
     0
 49
-0.06
 74
     0
 49
0.24
 74
     0
 49
-0.06
 74
     0
 49
0.01
 74
     0
 49
-0.06
 74
     0
 49
0.01
 74
     0
 49
-0.06
 74
     0
 49
0.01
 74
     0
 49
-0.06
 74
     0
  0
LTYPE
  5
84
330
5
100
AcDbSymbolTableRecord
100
AcDbLinetypeTableRecord
  2
LONG_DASH_DOTTED
 70
     0
  3
Long-Dash Dot ____ . ____ . ____ . ____ . _
 72
    65
 73
     4
 40
0.3001
 49
0.2362
 74
     0
 49
-0.0295
 74
     0
 49
0.0049
 74
     0
 49
-0.0295
 74
     0
  0
LTYPE
  5
85
330
5
100
AcDbSymbolTableRecord
100
AcDbLinetypeTableRecord
  2
LONG_DASH_DOUBLE_DOT
 70
     0
  3
Long Dash Double Dot ____ . . ____ . . ____ . .
 72
    65
 73
     6
 40
0.3345
 49
0.2362
 74
     0
 49
-0.0295
 74
     0
 49
0.0049
 74
     0
 49
-0.0295
 74
     0
 49
0.0049
 74
     0
 49
-0.0295
 74
     0
  0
LTYPE
  5
86
330
5
100
AcDbSymbolTableRecord
100
AcDbLinetypeTableRecord
  2
LONG_DASH_TRIPLE_DOT
 70
     0
  3
Long Dash Triple Dot ____ ... ____ ... ____
 72
    65
 73
     8
 40
0.75
 49
0.48
 74
     0
 49
-0.06
 74
     0
 49
0.01
 74
     0
 49
-0.06
 74
     0
 49
0.01
 74
     0
 49
-0.06
 74
     0
 49
0.01
 74
     0
 49
-0.06
 74
     0
  0
LTYPE
  5
87
330
5
100
AcDbSymbolTableRecord
100
AcDbLinetypeTableRecord
  2
BORDER
 70
     0
  3
Border __ __ . __ __ . __ __ . __ __ . __ __ .
 72
    65
 73
     6
 40
44.45
 49
12.7
 74
     0
 49
-6.349999999999999
 74
     0
 49
12.7
 74
     0
 49
-6.349999999999999
 74
     0
 49
0.0
 74
     0
 49
-6.349999999999999
 74
     0
  0
LTYPE
  5
88
330
5
100
AcDbSymbolTableRecord
100
AcDbLinetypeTableRecord
  2
BORDER2
 70
     0
  3
Border (.5x) __.__.__.__.__.__.__.__.__.__.__.
 72
    65
 73
     6
 40
22.225
 49
6.349999999999999
 74
     0
 49
-3.174999999999999
 74
     0
 49
6.349999999999999
 74
     0
 49
-3.174999999999999
 74
     0
 49
0.0
 74
     0
 49
-3.174999999999999
 74
     0
  0
LTYPE
  5
89
330
5
100
AcDbSymbolTableRecord
100
AcDbLinetypeTableRecord
  2
BORDERX2
 70
     0
  3
Border (2x) ____  ____  .  ____  ____  .  ___
 72
    65
 73
     6
 40
88.9
 49
25.4
 74
     0
 49
-12.7
 74
     0
 49
25.4
 74
     0
 49
-12.7
 74
     0
 49
0.0
 74
     0
 49
-12.7
 74
     0
  0
LTYPE
  5
8A
330
5
100
AcDbSymbolTableRecord
100
AcDbLinetypeTableRecord
  2
CENTER
 70
     0
  3
Center ____ _ ____ _ ____ _ ____ _ ____ _ ____
 72
    65
 73
     4
 40
50.8
 49
31.75
 74
     0
 49
-6.349999999999999
 74
     0
 49
6.349999999999999
 74
     0
 49
-6.349999999999999
 74
     0
  0
LTYPE
  5
8B
330
5
100
AcDbSymbolTableRecord
100
AcDbLinetypeTableRecord
  2
CENTER2
 70
     0
  3
Center (.5x) ___ _ ___ _ ___ _ ___ _ ___ _ ___
 72
    65
 73
     4
 40
28.575
 49
19.05
 74
     0
 49
-3.174999999999999
 74
     0
 49
3.174999999999999
 74
     0
 49
-3.174999999999999
 74
     0
  0
LTYPE
  5
8C
330
5
100
AcDbSymbolTableRecord
100
AcDbLinetypeTableRecord
  2
CENTERX2
 70
     0
  3
Center (2x) ________  __  ________  __  _____
 72
    65
 73
     4
 40
101.6
 49
63.5
 74
     0
 49
-12.7
 74
     0
 49
12.7
 74
     0
 49
-12.7
 74
     0
  0
LTYPE
  5
8D
330
5
100
AcDbSymbolTableRecord
100
AcDbLinetypeTableRecord
  2
DASHDOT2
 70
     0
  3
Dash dot (.5x) _._._._._._._._._._._._._._._.
 72
    65
 73
     4
 40
12.7
 49
6.349999999999999
 74
     0
 49
-3.174999999999999
 74
     0
 49
0.0
 74
     0
 49
-3.174999999999999
 74
     0
  0
LTYPE
  5
8E
330
5
100
AcDbSymbolTableRecord
100
AcDbLinetypeTableRecord
  2
DASHDOTX2
 70
     0
  3
Dash dot (2x) ____  .  ____  .  ____  .  ___
 72
    65
 73
     4
 40
50.8
 49
25.4
 74
     0
 49
-12.7
 74
     0
 49
0.0
 74
     0
 49
-12.7
 74
     0
  0
LTYPE
  5
8F
330
5
100
AcDbSymbolTableRecord
100
AcDbLinetypeTableRecord
  2
DASHED2
 70
     0
  3
Dashed (.5x) _ _ _ _ _ _ _ _ _ _ _ _ _ _ _ _ _
 72
    65
 73
     2
 40
9.524999999999998
 49
6.349999999999999
 74
     0
 49
-3.174999999999999
 74
     0
  0
LTYPE
  5
90
330
5
100
AcDbSymbolTableRecord
100
AcDbLinetypeTableRecord
  2
DASHEDX2
 70
     0
  3
Dashed (2x) ____  ____  ____  ____  ____  ___
 72
    65
 73
     2
 40
38.1
 49
25.4
 74
     0
 49
-12.7
 74
     0
  0
LTYPE
  5
91
330
5
100
AcDbSymbolTableRecord
100
AcDbLinetypeTableRecord
  2
DIVIDE
 70
     0
  3
Divide ____ . . ____ . . ____ . . ____ . . ____
 72
    65
 73
     6
 40
31.75
 49
12.7
 74
     0
 49
-6.349999999999999
 74
     0
 49
0.0
 74
     0
 49
-6.349999999999999
 74
     0
 49
0.0
 74
     0
 49
-6.349999999999999
 74
     0
  0
LTYPE
  5
92
330
5
100
AcDbSymbolTableRecord
100
AcDbLinetypeTableRecord
  2
DIVIDE2
 70
     0
  3
Divide (.5x) __..__..__..__..__..__..__..__.._
 72
    65
 73
     6
 40
15.875
 49
6.349999999999999
 74
     0
 49
-3.174999999999999
 74
     0
 49
0.0
 74
     0
 49
-3.174999999999999
 74
     0
 49
0.0
 74
     0
 49
-3.174999999999999
 74
     0
  0
LTYPE
  5
93
330
5
100
AcDbSymbolTableRecord
100
AcDbLinetypeTableRecord
  2
DIVIDEX2
 70
     0
  3
Divide (2x) ________  .  .  ________  .  .  _
 72
    65
 73
     6
 40
63.49999999999999
 49
25.4
 74
     0
 49
-12.7
 74
     0
 49
0.0
 74
     0
 49
-12.7
 74
     0
 49
0.0
 74
     0
 49
-12.7
 74
     0
  0
LTYPE
  5
94
330
5
100
AcDbSymbolTableRecord
100
AcDbLinetypeTableRecord
  2
DOT
 70
     0
  3
Dot . . . . . . . . . . . . . . . . . . . . . .
 72
    65
 73
     2
 40
6.349999999999999
 49
0.0
 74
     0
 49
-6.349999999999999
 74
     0
  0
LTYPE
  5
95
330
5
100
AcDbSymbolTableRecord
100
AcDbLinetypeTableRecord
  2
DOT2
 70
     0
  3
Dot (.5x) .....................................
 72
    65
 73
     2
 40
3.174999999999999
 49
0.0
 74
     0
 49
-3.174999999999999
 74
     0
  0
LTYPE
  5
96
330
5
100
AcDbSymbolTableRecord
100
AcDbLinetypeTableRecord
  2
DOTX2
 70
     0
  3
Dot (2x) .  .  .  .  .  .  .  .  .  .  .  .  . 
 72
    65
 73
     2
 40
12.7
 49
0.0
 74
     0
 49
-12.7
 74
     0
  0
LTYPE
  5
97
330
5
100
AcDbSymbolTableRecord
100
AcDbLinetypeTableRecord
  2
HIDDEN
 70
     0
  3
Hidden __ __ __ __ __ __ __ __ __ __ __ __ __ _
 72
    65
 73
     2
 40
9.524999999999998
 49
6.349999999999999
 74
     0
 49
-3.174999999999999
 74
     0
  0
LTYPE
  5
98
330
5
100
AcDbSymbolTableRecord
100
AcDbLinetypeTableRecord
  2
HIDDEN2
 70
     0
  3
Hidden (.5x) _ _ _ _ _ _ _ _ _ _ _ _ _ _ _ _ _
 72
    65
 73
     2
 40
4.762499999999999
 49
3.174999999999999
 74
     0
 49
-1.587499999999999
 74
     0
  0
LTYPE
  5
99
330
5
100
AcDbSymbolTableRecord
100
AcDbLinetypeTableRecord
  2
HIDDENX2
 70
     0
  3
Hidden (2x) ____ ____ ____ ____ ____ ____ ____
 72
    65
 73
     2
 40
19.05
 49
12.7
 74
     0
 49
-6.349999999999999
 74
     0
  0
LTYPE
  5
9A
330
5
100
AcDbSymbolTableRecord
100
AcDbLinetypeTableRecord
  2
PHANTOM
 70
     0
  3
Phantom ______  __  __  ______  __  __  ______
 72
    65
 73
     6
 40
63.5
 49
31.75
 74
     0
 49
-6.349999999999999
 74
     0
 49
6.349999999999999
 74
     0
 49
-6.349999999999999
 74
     0
 49
6.349999999999999
 74
     0
 49
-6.349999999999999
 74
     0
  0
LTYPE
  5
9B
330
5
100
AcDbSymbolTableRecord
100
AcDbLinetypeTableRecord
  2
PHANTOM2
 70
     0
  3
Phantom (.5x) ___ _ _ ___ _ _ ___ _ _ ___ _ _
 72
    65
 73
     6
 40
31.75
 49
15.875
 74
     0
 49
-3.174999999999999
 74
     0
 49
3.174999999999999
 74
     0
 49
-3.174999999999999
 74
     0
 49
3.174999999999999
 74
     0
 49
-3.174999999999999
 74
     0
  0
LTYPE
  5
9C
330
5
100
AcDbSymbolTableRecord
100
AcDbLinetypeTableRecord
  2
PHANTOMX2
 70
     0
  3
Phantom (2x) ____________    ____    ____   _
 72
    65
 73
     6
 40
127.0
 49
63.5
 74
     0
 49
-12.7
 74
     0
 49
12.7
 74
     0
 49
-12.7
 74
     0
 49
12.7
 74
     0
 49
-12.7
 74
     0
  0
LTYPE
  5
9D
330
5
100
AcDbSymbolTableRecord
100
AcDbLinetypeTableRecord
  2
ACAD_ISO02W100
 70
     0
  3
ISO dash __ __ __ __ __ __ __ __ __ __ __ __ __
 72
    65
 73
     2
 40
15.0
 49
12.0
 74
     0
 49
-3.0
 74
     0
  0
LTYPE
  5
9E
330
5
100
AcDbSymbolTableRecord
100
AcDbLinetypeTableRecord
  2
ACAD_ISO03W100
 70
     0
  3
ISO dash space __    __    __    __    __    __
 72
    65
 73
     2
 40
30.0
 49
12.0
 74
     0
 49
-18.0
 74
     0
  0
LTYPE
  5
9F
330
5
100
AcDbSymbolTableRecord
100
AcDbLinetypeTableRecord
  2
ACAD_ISO04W100
 70
     0
  3
ISO long-dash dot ____ . ____ . ____ . ____ . _
 72
    65
 73
     4
 40
30.0
 49
24.0
 74
     0
 49
-3.0
 74
     0
 49
0.0
 74
     0
 49
-3.0
 74
     0
  0
LTYPE
  5
A0
330
5
100
AcDbSymbolTableRecord
100
AcDbLinetypeTableRecord
  2
ACAD_ISO05W100
 70
     0
  3
ISO long-dash double-dot ____ .. ____ .. ____ .
 72
    65
 73
     6
 40
33.0
 49
24.0
 74
     0
 49
-3.0
 74
     0
 49
0.0
 74
     0
 49
-3.0
 74
     0
 49
0.0
 74
     0
 49
-3.0
 74
     0
  0
LTYPE
  5
A1
330
5
100
AcDbSymbolTableRecord
100
AcDbLinetypeTableRecord
  2
ACAD_ISO06W100
 70
     0
  3
ISO long-dash triple-dot ____ ... ____ ... ____
 72
    65
 73
     8
 40
36.0
 49
24.0
 74
     0
 49
-3.0
 74
     0
 49
0.0
 74
     0
 49
-3.0
 74
     0
 49
0.0
 74
     0
 49
-3.0
 74
     0
 49
0.0
 74
     0
 49
-3.0
 74
     0
  0
LTYPE
  5
A2
330
5
100
AcDbSymbolTableRecord
100
AcDbLinetypeTableRecord
  2
ACAD_ISO07W100
 70
     0
  3
ISO dot . . . . . . . . . . . . . . . . . . . .
 72
    65
 73
     2
 40
3.0
 49
0.0
 74
     0
 49
-3.0
 74
     0
  0
LTYPE
  5
A3
330
5
100
AcDbSymbolTableRecord
100
AcDbLinetypeTableRecord
  2
ACAD_ISO08W100
 70
     0
  3
ISO long-dash short-dash ____ __ ____ __ ____ _
 72
    65
 73
     4
 40
36.0
 49
24.0
 74
     0
 49
-3.0
 74
     0
 49
6.0
 74
     0
 49
-3.0
 74
     0
  0
LTYPE
  5
A4
330
5
100
AcDbSymbolTableRecord
100
AcDbLinetypeTableRecord
  2
ACAD_ISO09W100
 70
     0
  3
ISO long-dash double-short-dash ____ __ __ ____
 72
    65
 73
     6
 40
45.0
 49
24.0
 74
     0
 49
-3.0
 74
     0
 49
6.0
 74
     0
 49
-3.0
 74
     0
 49
6.0
 74
     0
 49
-3.0
 74
     0
  0
LTYPE
  5
A5
330
5
100
AcDbSymbolTableRecord
100
AcDbLinetypeTableRecord
  2
ACAD_ISO10W100
 70
     0
  3
ISO dash dot __ . __ . __ . __ . __ . __ . __ .
 72
    65
 73
     4
 40
18.0
 49
12.0
 74
     0
 49
-3.0
 74
     0
 49
0.0
 74
     0
 49
-3.0
 74
     0
  0
LTYPE
  5
A6
330
5
100
AcDbSymbolTableRecord
100
AcDbLinetypeTableRecord
  2
ACAD_ISO11W100
 70
     0
  3
ISO double-dash dot __ __ . __ __ . __ __ . __ 
 72
    65
 73
     6
 40
33.0
 49
12.0
 74
     0
 49
-3.0
 74
     0
 49
12.0
 74
     0
 49
-3.0
 74
     0
 49
0.0
 74
     0
 49
-3.0
 74
     0
  0
LTYPE
  5
A7
330
5
100
AcDbSymbolTableRecord
100
AcDbLinetypeTableRecord
  2
ACAD_ISO12W100
 70
     0
  3
ISO dash double-dot __ . . __ . . __ . . __ . .
 72
    65
 73
     6
 40
21.0
 49
12.0
 74
     0
 49
-3.0
 74
     0
 49
0.0
 74
     0
 49
-3.0
 74
     0
 49
0.0
 74
     0
 49
-3.0
 74
     0
  0
LTYPE
  5
A8
330
5
100
AcDbSymbolTableRecord
100
AcDbLinetypeTableRecord
  2
ACAD_ISO13W100
 70
     0
  3
ISO double-dash double-dot __ __ . . __ __ . . 
 72
    65
 73
     8
 40
36.0
 49
12.0
 74
     0
 49
-3.0
 74
     0
 49
12.0
 74
     0
 49
-3.0
 74
     0
 49
0.0
 74
     0
 49
-3.0
 74
     0
 49
0.0
 74
     0
 49
-3.0
 74
     0
  0
LTYPE
  5
A9
330
5
100
AcDbSymbolTableRecord
100
AcDbLinetypeTableRecord
  2
ACAD_ISO14W100
 70
     0
  3
ISO dash triple-dot __ . . . __ . . . __ . . . 
 72
    65
 73
     8
 40
24.0
 49
12.0
 74
     0
 49
-3.0
 74
     0
 49
0.0
 74
     0
 49
-3.0
 74
     0
 49
0.0
 74
     0
 49
-3.0
 74
     0
 49
0.0
 74
     0
 49
-3.0
 74
     0
  0
LTYPE
  5
AA
330
5
100
AcDbSymbolTableRecord
100
AcDbLinetypeTableRecord
  2
ACAD_ISO15W100
 70
     0
  3
ISO double-dash triple-dot __ __ . . . __ __ . 
 72
    65
 73
    10
 40
39.0
 49
12.0
 74
     0
 49
-3.0
 74
     0
 49
12.0
 74
     0
 49
-3.0
 74
     0
 49
0.0
 74
     0
 49
-3.0
 74
     0
 49
0.0
 74
     0
 49
-3.0
 74
     0
 49
0.0
 74
     0
 49
-3.0
 74
     0
  0
LTYPE
  5
AD
330
5
100
AcDbSymbolTableRecord
100
AcDbLinetypeTableRecord
  2
FENCELINE1
 70
     0
  3
Fenceline circle ----0-----0----0-----0----0---
 72
    65
 73
     4
 40
36.83
 49
6.349999999999999
 74
     0
 49
-2.54
 74
     4
 75
   133
340
AC
 46
2.54
 50
0.0
 44
-2.54
 45
0.0
 49
-2.54
 74
     0
 49
25.4
 74
     0
  0
LTYPE
  5
AE
330
5
100
AcDbSymbolTableRecord
100
AcDbLinetypeTableRecord
  2
FENCELINE2
 70
     0
  3
Fenceline square ----[]-----[]----[]-----[]----
 72
    65
 73
     4
 40
36.83
 49
6.349999999999999
 74
     0
 49
-2.54
 74
     4
 75
   132
340
AC
 46
2.54
 50
0.0
 44
-2.54
 45
0.0
 49
-2.54
 74
     0
 49
25.4
 74
     0
  0
LTYPE
  5
AF
330
5
100
AcDbSymbolTableRecord
100
AcDbLinetypeTableRecord
  2
TRACKS
 70
     0
  3
Tracks -|-|-|-|-|-|-|-|-|-|-|-|-|-|-|-|-|-|-|-|
 72
    65
 73
     2
 40
7.62
 49
3.81
 74
     4
 75
   130
340
AC
 46
6.349999999999999
 50
0.0
 44
0.0
 45
0.0
 49
3.81
 74
     0
  0
LTYPE
  5
B0
330
5
100
AcDbSymbolTableRecord
100
AcDbLinetypeTableRecord
  2
BATTING
 70
     0
  3
Batting SSSSSSSSSSSSSSSSSSSSSSSSSSSSSSSSSSSSSSS
 72
    65
 73
     4
 40
10.16254
 49
0.00254
 74
     0
 49
-2.54
 74
     4
 75
   134
340
AC
 46
2.54
 50
0.0
 44
-2.54
 45
0.0
 49
-5.08
 74
     4
 75
   134
340
AC
 46
2.54
 50
180.0
 44
2.54
 45
0.0
 49
-2.54
 74
     0
  0
LTYPE
  5
B1
330
5
100
AcDbSymbolTableRecord
100
AcDbLinetypeTableRecord
  2
HOT_WATER_SUPPLY
 70
     0
  3
Hot water supply ---- HW ---- HW ---- HW ----
 72
    65
 73
     3
 40
22.86
 49
12.7
 74
     0
 49
-5.08
 74
     2
 75
     0
340
55
 46
2.54
 50
0.0
 44
-2.54
 45
-1.27
  9
HW
 49
-5.08
 74
     0
  0
LTYPE
  5
B2
330
5
100
AcDbSymbolTableRecord
100
AcDbLinetypeTableRecord
  2
GAS_LINE
 70
     0
  3
Gas line ----GAS----GAS----GAS----GAS----GAS---
 72
    65
 73
     3
 40
24.13
 49
12.7
 74
     0
 49
-5.08
 74
     2
 75
     0
340
55
 46
2.54
 50
0.0
 44
-2.54
 45
-1.27
  9
GAS
 49
-6.349999999999999
 74
     0
  0
LTYPE
  5
B3
330
5
100
AcDbSymbolTableRecord
100
AcDbLinetypeTableRecord
  2
ZIGZAG
 70
     0
  3
Zig zag /\/\/\/\/\/\/\/\/\/\/\/\/\/\/\/\/\/\/\/
 72
    65
 73
     4
 40
20.32254
 49
0.00254
 74
     0
 49
-5.08
 74
     4
 75
   131
340
AC
 46
5.08
 50
0.0
 44
-5.08
 45
0.0
 49
-10.16
 74
     4
 75
   131
340
AC
 46
5.08
 50
180.0
 44
5.08
 45
0.0
 49
-5.08
 74
     0
  0
LTYPE
  5
1210
330
5
100
AcDbSymbolTableRecord
100
AcDbLinetypeTableRecord
  2
AM_ISO02W050
 70
     0
  3
__ __ __ __ __ __ __ __ __ __ __ __ __ __ __
 72
    65
 73
     2
 40
7.5
 49
6.0
 74
     0
 49
-1.5
 74
     0
  0
LTYPE
  5
1211
330
5
100
AcDbSymbolTableRecord
100
AcDbLinetypeTableRecord
  2
AM_ISO08W050
 70
     0
  3
____ . ____ . ____ . ____ . ____ . ____ . ____
 72
    65
 73
     4
 40
18.0
 49
12.0
 74
     0
 49
-1.5
 74
     0
 49
3.0
 74
     0
 49
-1.5
 74
     0
  0
LTYPE
  5
1212
330
5
100
AcDbSymbolTableRecord
100
AcDbLinetypeTableRecord
  2
AM_ISO09W050
 70
     0
  3
_____ . . _____ . . _____ . . ____ .. ____
 72
    65
 73
     6
 40
22.5
 49
12.0
 74
     0
 49
-1.5
 74
     0
 49
3.0
 74
     0
 49
-1.5
 74
     0
 49
3.0
 74
     0
 49
-1.5
 74
     0
  0
LTYPE
  5
1213
330
5
100
AcDbSymbolTableRecord
100
AcDbLinetypeTableRecord
  2
Amconstr
 70
     0
  3
_______________________
 72
    65
 73
     2
 40
9999.0
 49
9999.0
 74
     0
 49
0.0
 74
     0
  0
LTYPE
  5
1214
330
5
100
AcDbSymbolTableRecord
100
AcDbLinetypeTableRecord
  2
AM_ISO08W050x2
 70
     0
  3
__ . __ . __ . __ . __ . __
 72
    65
 73
     4
 40
9.0
 49
6.0
 74
     0
 49
-0.75
 74
     0
 49
1.5
 74
     0
 49
-0.75
 74
     0
  0
LTYPE
  5
1215
330
5
100
AcDbSymbolTableRecord
100
AcDbLinetypeTableRecord
  2
AM_ISO02W050x2
 70
     0
  3
 _ _ _ _ _ _ _ _ _ _ _ _
 72
    65
 73
     2
 40
3.75
 49
3.0
 74
     0
 49
-0.75
 74
     0
  0
LTYPE
  5
1218
330
5
100
AcDbSymbolTableRecord
100
AcDbLinetypeTableRecord
  2
Amzigzag
 70
     0
  3
/\/-/\/-/\/-/\/-/\/-/\/
 72
    65
 73
     2
 40
11.0001
 49
0.0001
 74
     4
 75
   136
340
1217
 46
0.04
 50
0.0
 44
0.0
 45
0.0
 49
-11.0
 74
     0
  0
LTYPE
  5
1219
330
5
100
AcDbSymbolTableRecord
100
AcDbLinetypeTableRecord
  2
AM_DIN_F_W050
 70
     0
  3
__ __ __ __ __ __ __ __ __ __ __ __ __ __ __
 72
    65
 73
     2
 40
6.25
 49
4.75
 74
     0
 49
-1.5
 74
     0
  0
LTYPE
  5
121A
330
5
100
AcDbSymbolTableRecord
100
AcDbLinetypeTableRecord
  2
AM_DIN_G_W050
 70
     0
  3
____ . ____ . ____ . ____ . ____ . ____ . ____
 72
    65
 73
     4
 40
13.75
 49
9.75
 74
     0
 49
-1.5
 74
     0
 49
1.0
 74
     0
 49
-1.5
 74
     0
  0
LTYPE
  5
121B
330
5
100
AcDbSymbolTableRecord
100
AcDbLinetypeTableRecord
  2
AM_DIN_K_W050
 70
     0
  3
_____ . . _____ . . _____ . . ____ .. ____
 72
    65
 73
     6
 40
16.25
 49
9.75
 74
     0
 49
-1.5
 74
     0
 49
1.0
 74
     0
 49
-1.5
 74
     0
 49
1.0
 74
     0
 49
-1.5
 74
     0
  0
LTYPE
  5
121C
330
5
100
AcDbSymbolTableRecord
100
AcDbLinetypeTableRecord
  2
AM_DIN_G_W050x2
 70
     0
  3
__ . __ . __ . __ . __ . __
 72
    65
 73
     4
 40
6.875
 49
4.75
 74
     0
 49
-0.875
 74
     0
 49
0.375
 74
     0
 49
-0.875
 74
     0
  0
LTYPE
  5
121D
330
5
100
AcDbSymbolTableRecord
100
AcDbLinetypeTableRecord
  2
AM_DIN_F_W050x2
 70
     0
  3
 _ _ _ _ _ _ _ _ _ _ _ _
 72
    65
 73
     2
 40
3.125
 49
2.25
 74
     0
 49
-0.875
 74
     0
  0
LTYPE
  5
1230
330
5
100
AcDbSymbolTableRecord
100
AcDbLinetypeTableRecord
  2
ACDINWELD
 70
     0
  3
_ _ _ _ _
 72
    65
 73
     2
 40
2.0
 49
2.0
 74
     0
 49
-1.0
 74
     0
  0
LTYPE
  5
1231
330
5
100
AcDbSymbolTableRecord
100
AcDbLinetypeTableRecord
  2
ACDINTGL
 70
     0
  3
_ _ _ _ _
 72
    65
 73
     2
 40
3.0
 49
2.0
 74
     0
 49
-1.0
 74
     0
  0
LTYPE
  5
1232
330
5
100
AcDbSymbolTableRecord
100
AcDbLinetypeTableRecord
  2
ACDINTGB
 70
     0
  3
__ . . __ . .
 72
    65
 73
     6
 40
9.0
 49
4.0
 74
     0
 49
-1.0
 74
     0
 49
1.0
 74
     0
 49
-1.0
 74
     0
 49
1.0
 74
     0
 49
-1.0
 74
     0
  0
ENDTAB
  0
TABLE
  2
LAYER
  5
2
330
0
100
AcDbSymbolTable
 70
    13
  0
LAYER
  5
54
330
2
100
AcDbSymbolTableRecord
100
AcDbLayerTableRecord
  2
0
 70
     0
 62
     7
  6
Continuous
370
    -3
390
F
347
21
348
0
  0
LAYER
  5
F8
330
2
100
AcDbSymbolTableRecord
100
AcDbLayerTableRecord
  2
Bemaßungen(MSL)
 70
     0
 62
   179
420
  2500185
  6
Continuous
370
    25
390
F
347
21
348
0
  0
LAYER
  5
130
330
2
100
AcDbSymbolTableRecord
100
AcDbLayerTableRecord
  2
Mittellinie(DIN)
 70
     0
 62
   179
420
  2500185
  6
Continuous
370
    25
390
F
347
21
348
0
  0
LAYER
  5
134
330
2
100
AcDbSymbolTableRecord
100
AcDbLayerTableRecord
  2
Mittellinie(MSL)
 70
     0
 62
     1
420
 16711680
  6
Continuous
370
    25
390
F
347
21
348
0
  0
LAYER
  5
137
330
2
100
AcDbSymbolTableRecord
100
AcDbLayerTableRecord
  2
Mittelpunktmarkierung(DIN)
 70
     0
 62
   179
420
  2500185
  6
Continuous
370
    25
390
F
347
21
348
0
  0
LAYER
  5
13B
330
2
100
AcDbSymbolTableRecord
100
AcDbLayerTableRecord
  2
Mittelpunktmarkierung(MSL)
 70
     0
 62
     1
420
 16711680
  6
Continuous
370
    25
390
F
347
21
348
0
  0
LAYER
  5
15B
330
2
100
AcDbSymbolTableRecord
100
AcDbLayerTableRecord
  2
Sichtbare Kanten(MSL)
 70
     0
 62
     7
  6
Continuous
370
    50
390
F
347
21
348
0
  0
LAYER
  5
162
330
2
100
AcDbSymbolTableRecord
100
AcDbLayerTableRecord
  2
Sichtbare tangentiale Kanten(MSL)
 70
     0
 62
   253
420
 11382189
  6
Continuous
370
    25
390
F
347
21
348
0
  0
LAYER
  5
169
330
2
100
AcDbSymbolTableRecord
100
AcDbLayerTableRecord
  2
Skizziergeometrie(MSL)
 70
     0
 62
   179
420
  2500185
  6
Continuous
370
    25
390
F
347
21
348
0
  0
LAYER
  5
16B
330
2
100
AcDbSymbolTableRecord
100
AcDbLayerTableRecord
  2
Skizzierlinie(DIN)
 70
     0
 62
   179
420
  2500185
  6
Continuous
370
    25
390
F
347
21
348
0
  0
LAYER
  5
184
330
2
100
AcDbSymbolTableRecord
100
AcDbLayerTableRecord
  2
Symbole(MSL)
 70
     0
 62
   179
420
  2500185
  6
Continuous
370
    25
390
F
347
21
348
0
  0
LAYER
  5
19A
330
2
100
AcDbSymbolTableRecord
100
AcDbLayerTableRecord
  2
Verdeckte Kanten(MSL)
 70
     0
 62
    11
420
 16744512
  6
Continuous
370
    35
390
F
347
21
348
0
  0
LAYER
  5
370
330
2
100
AcDbSymbolTableRecord
100
AcDbLayerTableRecord
  2
Defpoints
 70
     0
 62
     7
  6
Continuous
290
     0
370
    -3
390
F
347
21
348
0
  0
ENDTAB
  0
TABLE
  2
STYLE
  5
3
330
0
100
AcDbSymbolTable
 70
    38
  0
STYLE
  5
55
330
3
100
AcDbSymbolTableRecord
100
AcDbTextStyleTableRecord
  2
Standard
 70
     0
 40
0.0
 41
1.0
 50
0.0
 71
     0
 42
0.2
  3
arial.ttf
  4

1001
ACAD
1000
Arial
1071
      256
  0
STYLE
  5
5A
330
3
100
AcDbSymbolTableRecord
100
AcDbTextStyleTableRecord
  2
Annotative
 70
     0
 40
0.0
 41
1.0
 50
0.0
 71
     0
 42
0.2
  3
txt
  4

1001
AcadAnnotative
1000
AnnotativeData
1002
{
1070
     1
1070
     1
1002
}
  0
STYLE
  5
AC
330
3
100
AcDbSymbolTableRecord
100
AcDbTextStyleTableRecord
  2

 70
     1
 40
0.0
 41
1.0
 50
0.0
 71
     0
 42
0.2
  3
ltypeshp.shx
  4

  0
STYLE
  5
1A2
330
3
100
AcDbSymbolTableRecord
100
AcDbTextStyleTableRecord
  2
Aktuell-DIN
 70
     0
 40
0.0
 41
1.0
 50
0.0
 71
     0
 42
0.2
  3
arial.ttf
  4

1001
ACAD
1000
Arial
1071
      256
  0
STYLE
  5
1A3
330
3
100
AcDbSymbolTableRecord
100
AcDbTextStyleTableRecord
  2
Aktuell-DIN-MSL
 70
     0
 40
0.0
 41
1.0
 50
0.0
 71
     0
 42
0.2
  3
arial.ttf
  4

1001
ACAD
1000
Arial
1071
      256
  0
STYLE
  5
1A4
330
3
100
AcDbSymbolTableRecord
100
AcDbTextStyleTableRecord
  2
Aktuell-DIN-MSLGroßer Text
 70
     0
 40
0.0
 41
1.0
 50
0.0
 71
     0
 42
0.2
  3
arial.ttf
  4

1001
ACAD
1000
Arial
1071
      256
  0
STYLE
  5
1A5
330
3
100
AcDbSymbolTableRecord
100
AcDbTextStyleTableRecord
  2
Aktuell-DIN-MSLNach Layer
 70
     0
 40
0.0
 41
1.0
 50
0.0
 71
     0
 42
0.2
  3
arial.ttf
  4

1001
ACAD
1000
Arial
1071
      256
  0
STYLE
  5
1A6
330
3
100
AcDbSymbolTableRecord
100
AcDbTextStyleTableRecord
  2
Aktuell-DINGroßer Text
 70
     0
 40
0.0
 41
1.0
 50
0.0
 71
     0
 42
0.2
  3
arial.ttf
  4

1001
ACAD
1000
Arial
1071
      256
  0
STYLE
  5
1A7
330
3
100
AcDbSymbolTableRecord
100
AcDbTextStyleTableRecord
  2
Aktuell-DINNach Layer
 70
     0
 40
0.0
 41
1.0
 50
0.0
 71
     0
 42
0.2
  3
arial.ttf
  4

1001
ACAD
1000
Arial
1071
      256
  0
STYLE
  5
1A8
330
3
100
AcDbSymbolTableRecord
100
AcDbTextStyleTableRecord
  2
NORM
 70
     0
 40
0.0
 41
1.0
 50
0.0
 71
     0
 42
0.2
  3
arial.ttf
  4

1001
ACAD
1000
Arial
1071
      256
  0
STYLE
  5
1A9
330
3
100
AcDbSymbolTableRecord
100
AcDbTextStyleTableRecord
  2
NORM-MSL
 70
     0
 40
0.0
 41
1.0
 50
0.0
 71
     0
 42
0.2
  3
arial.ttf
  4

1001
ACAD
1000
Arial
1071
      256
  0
STYLE
  5
1AA
330
3
100
AcDbSymbolTableRecord
100
AcDbTextStyleTableRecord
  2
NORMAL-MSL
 70
     0
 40
0.0
 41
1.0
 50
0.0
 71
     0
 42
0.2
  3
arial.ttf
  4

1001
ACAD
1000
Arial
1071
      256
  0
STYLE
  5
1AB
330
3
100
AcDbSymbolTableRecord
100
AcDbTextStyleTableRecord
  2
Rahmen_1
 70
     0
 40
0.0
 41
1.0
 50
0.0
 71
     0
 42
0.2
  3
arial.ttf
  4

1001
ACAD
1000
Arial
1071
      256
  0
STYLE
  5
1AC
330
3
100
AcDbSymbolTableRecord
100
AcDbTextStyleTableRecord
  2
STANDARD-ANSI
 70
     0
 40
0.0
 41
1.0
 50
0.0
 71
     0
 42
0.2
  3
arial.ttf
  4

1001
ACAD
1000
Arial
1071
      256
  0
STYLE
  5
1AD
330
3
100
AcDbSymbolTableRecord
100
AcDbTextStyleTableRecord
  2
STANDARD-ANSI~0
 70
     0
 40
0.0
 41
1.0
 50
0.0
 71
     0
 42
0.2
  3
arial.ttf
  4

1001
ACAD
1000
Arial
1071
      256
  0
STYLE
  5
1AE
330
3
100
AcDbSymbolTableRecord
100
AcDbTextStyleTableRecord
  2
STANDARD-ANSIGroßer Text
 70
     0
 40
0.0
 41
1.0
 50
0.0
 71
     0
 42
0.2
  3
arial.ttf
  4

1001
ACAD
1000
Arial
1071
      256
  0
STYLE
  5
1AF
330
3
100
AcDbSymbolTableRecord
100
AcDbTextStyleTableRecord
  2
STANDARD-ANSINach Layer
 70
     0
 40
0.0
 41
1.0
 50
0.0
 71
     0
 42
0.2
  3
arial.ttf
  4

1001
ACAD
1000
Arial
1071
      256
  0
STYLE
  5
1B0
330
3
100
AcDbSymbolTableRecord
100
AcDbTextStyleTableRecord
  2
STANDARD-BSI
 70
     0
 40
0.0
 41
1.0
 50
0.0
 71
     0
 42
0.2
  3
arial.ttf
  4

1001
ACAD
1000
Arial
1071
      256
  0
STYLE
  5
1B1
330
3
100
AcDbSymbolTableRecord
100
AcDbTextStyleTableRecord
  2
STANDARD-BSI~0
 70
     0
 40
0.0
 41
1.0
 50
0.0
 71
     0
 42
0.2
  3
arial.ttf
  4

1001
ACAD
1000
Arial
1071
      256
  0
STYLE
  5
1B2
330
3
100
AcDbSymbolTableRecord
100
AcDbTextStyleTableRecord
  2
STANDARD-BSIGroßer Text
 70
     0
 40
0.0
 41
1.0
 50
0.0
 71
     0
 42
0.2
  3
arial.ttf
  4

1001
ACAD
1000
Arial
1071
      256
  0
STYLE
  5
1B3
330
3
100
AcDbSymbolTableRecord
100
AcDbTextStyleTableRecord
  2
STANDARD-BSINach Layer
 70
     0
 40
0.0
 41
1.0
 50
0.0
 71
     0
 42
0.2
  3
arial.ttf
  4

1001
ACAD
1000
Arial
1071
      256
  0
STYLE
  5
1B4
330
3
100
AcDbSymbolTableRecord
100
AcDbTextStyleTableRecord
  2
STANDARD-GB
 70
     0
 40
0.0
 41
1.0
 50
0.0
 71
     0
 42
0.2
  3
arial.ttf
  4

1001
ACAD
1000
Arial
1071
      256
  0
STYLE
  5
1B5
330
3
100
AcDbSymbolTableRecord
100
AcDbTextStyleTableRecord
  2
STANDARD-GBGroßer Text
 70
     0
 40
0.0
 41
1.0
 50
0.0
 71
     0
 42
0.2
  3
arial.ttf
  4

1001
ACAD
1000
Arial
1071
      256
  0
STYLE
  5
1B6
330
3
100
AcDbSymbolTableRecord
100
AcDbTextStyleTableRecord
  2
STANDARD-GBNach Layer
 70
     0
 40
0.0
 41
1.0
 50
0.0
 71
     0
 42
0.2
  3
arial.ttf
  4

1001
ACAD
1000
Arial
1071
      256
  0
STYLE
  5
1B7
330
3
100
AcDbSymbolTableRecord
100
AcDbTextStyleTableRecord
  2
STANDARD-ISO
 70
     0
 40
0.0
 41
1.0
 50
0.0
 71
     0
 42
0.2
  3
arial.ttf
  4

1001
ACAD
1000
Arial
1071
      256
  0
STYLE
  5
1B8
330
3
100
AcDbSymbolTableRecord
100
AcDbTextStyleTableRecord
  2
STANDARD-ISOGroßer Text
 70
     0
 40
0.0
 41
1.0
 50
0.0
 71
     0
 42
0.2
  3
arial.ttf
  4

1001
ACAD
1000
Arial
1071
      256
  0
STYLE
  5
1B9
330
3
100
AcDbSymbolTableRecord
100
AcDbTextStyleTableRecord
  2
STANDARD-ISONach Layer
 70
     0
 40
0.0
 41
1.0
 50
0.0
 71
     0
 42
0.2
  3
arial.ttf
  4

1001
ACAD
1000
Arial
1071
      256
  0
STYLE
  5
1BA
330
3
100
AcDbSymbolTableRecord
100
AcDbTextStyleTableRecord
  2
STANDARD-JIS
 70
     0
 40
0.0
 41
1.0
 50
0.0
 71
     0
 42
0.2
  3
arial.ttf
  4

1001
ACAD
1000
Arial
1071
      256
  0
STYLE
  5
1BB
330
3
100
AcDbSymbolTableRecord
100
AcDbTextStyleTableRecord
  2
STANDARD-JIS~0
 70
     0
 40
0.0
 41
1.0
 50
0.0
 71
     0
 42
0.2
  3
arial.ttf
  4

1001
ACAD
1000
Arial
1071
      256
  0
STYLE
  5
1BC
330
3
100
AcDbSymbolTableRecord
100
AcDbTextStyleTableRecord
  2
STANDARD-JISGroßer Text
 70
     0
 40
0.0
 41
1.0
 50
0.0
 71
     0
 42
0.2
  3
arial.ttf
  4

1001
ACAD
1000
Arial
1071
      256
  0
STYLE
  5
1BD
330
3
100
AcDbSymbolTableRecord
100
AcDbTextStyleTableRecord
  2
STANDARD-JISNach Layer
 70
     0
 40
0.0
 41
1.0
 50
0.0
 71
     0
 42
0.2
  3
arial.ttf
  4

1001
ACAD
1000
Arial
1071
      256
  0
STYLE
  5
2AD
330
3
100
AcDbSymbolTableRecord
100
AcDbTextStyleTableRecord
  2
Textstil20
 70
     0
 40
0.0
 41
1.0
 50
0.0
 71
     0
 42
0.2
  3
arial.ttf
  4

1001
ACAD
1000
Arial
1071
      256
  0
STYLE
  5
2B2
330
3
100
AcDbSymbolTableRecord
100
AcDbTextStyleTableRecord
  2
Textstil31
 70
     0
 40
0.0
 41
1.0
 50
0.0
 71
     0
 42
0.2
  3
arial.ttf
  4

1001
ACAD
1000
Arial
1071
      256
  0
STYLE
  5
2B8
330
3
100
AcDbSymbolTableRecord
100
AcDbTextStyleTableRecord
  2
Textstil10
 70
     0
 40
0.0
 41
1.0
 50
0.0
 71
     0
 42
0.2
  3
arial.ttf
  4

1001
ACAD
1000
Arial
1071
      256
  0
STYLE
  5
2CE
330
3
100
AcDbSymbolTableRecord
100
AcDbTextStyleTableRecord
  2
Textstil32
 70
     0
 40
0.0
 41
1.0
 50
0.0
 71
     0
 42
0.2
  3
arial.ttf
  4

1001
ACAD
1000
Arial
1071
      256
  0
STYLE
  5
1217
330
3
100
AcDbSymbolTableRecord
100
AcDbTextStyleTableRecord
  2

 70
     1
 40
0.0
 41
1.0
 50
0.0
 71
     0
 42
0.2
  3
genltshp.shx
  4

  0
STYLE
  5
122E
330
3
100
AcDbSymbolTableRecord
100
AcDbTextStyleTableRecord
  2
ACDINTS
 70
     0
 40
0.0
 41
1.0
 50
0.0
 71
     0
 42
0.2
  3
isocp.shx
  4

  0
STYLE
  5
122F
330
3
100
AcDbSymbolTableRecord
100
AcDbTextStyleTableRecord
  2
ACDINGDT
 70
     0
 40
0.0
 41
1.0
 50
0.0
 71
     0
 42
0.2
  3
amgdt.shx
  4

  0
ENDTAB
  0
TABLE
  2
VIEW
  5
6
330
0
100
AcDbSymbolTable
 70
     0
  0
ENDTAB
  0
TABLE
  2
UCS
  5
7
330
0
100
AcDbSymbolTable
 70
     0
  0
ENDTAB
  0
TABLE
  2
APPID
  5
9
330
0
100
AcDbSymbolTable
 70
    12
  0
APPID
  5
56
330
9
100
AcDbSymbolTableRecord
100
AcDbRegAppTableRecord
  2
ACAD
 70
     0
  0
APPID
  5
5E
330
9
100
AcDbSymbolTableRecord
100
AcDbRegAppTableRecord
  2
AcadAnnotative
 70
     0
  0
APPID
  5
2B0
330
9
100
AcDbSymbolTableRecord
100
AcDbRegAppTableRecord
  2
AcadAnnoPO
 70
     0
  0
APPID
  5
8AD
330
9
100
AcDbSymbolTableRecord
100
AcDbRegAppTableRecord
  2
ACAD_DSTYLE_DIMRADIAL_EXTENSION
 70
     0
  0
APPID
  5
F27
330
9
100
AcDbSymbolTableRecord
100
AcDbRegAppTableRecord
  2
ACAD_DSTYLE_DIMANGULAR_EXTENSION
 70
     0
  0
APPID
  5
11CF
330
9
100
AcDbSymbolTableRecord
100
AcDbRegAppTableRecord
  2
MCAD_NO_VIS
 70
     0
  0
APPID
  5
11D0
330
9
100
AcDbSymbolTableRecord
100
AcDbRegAppTableRecord
  2
ACAD_TEMP_GRAPHIC
 70
     0
  0
APPID
  5
11DA
330
9
100
AcDbSymbolTableRecord
100
AcDbRegAppTableRecord
  2
ACATTRIBSERVICES
 70
     0
  0
APPID
  5
11F2
330
9
100
AcDbSymbolTableRecord
100
AcDbRegAppTableRecord
  2
DESIGNERASSEMBLIES
 70
     0
  0
APPID
  5
120D
330
9
100
AcDbSymbolTableRecord
100
AcDbRegAppTableRecord
  2
ACAD_DSTYLE_DIMJAG
 70
     0
  0
APPID
  5
120E
330
9
100
AcDbSymbolTableRecord
100
AcDbRegAppTableRecord
  2
ACAD_DSTYLE_DIMBREAK
 70
     0
  0
APPID
  5
124B
330
9
100
AcDbSymbolTableRecord
100
AcDbRegAppTableRecord
  2
ACAD_NAV_VCDISPLAY
 70
     0
  0
ENDTAB
  0
TABLE
  2
DIMSTYLE
  5
A
330
0
100
AcDbSymbolTable
 70
    65
100
AcDbDimStyleTable
 71
     2
340
1CD
340
58
  0
DIMSTYLE
105
58
330
A
100
AcDbSymbolTableRecord
100
AcDbDimStyleTableRecord
  2
Standard
 70
     0
340
55
  0
DIMSTYLE
105
59
330
A
100
AcDbSymbolTableRecord
100
AcDbDimStyleTableRecord
  2
Annotative
 70
     0
340
55
1001
AcadAnnotative
1000
AnnotativeData
1002
{
1070
     1
1070
     1
1002
}
  0
DIMSTYLE
105
1CD
102
{ACAD_REACTORS
330
452
330
732
330
814
330
8BF
330
CC3
102
}
330
A
100
AcDbSymbolTableRecord
100
AcDbDimStyleTableRecord
  2
NORMAL-MSL
 70
     0
 41
3.5
 42
0.0
 43
6.099999999999999
 44
1.0
 45
0.00000001
 46
7.0
 73
     0
 74
     0
 77
     1
 78
     8
 79
     2
140
3.5
143
1.0
146
0.5
147
1.0
172
     1
176
     5
177
     5
178
     7
179
     1
271
     2
272
     2
284
     8
286
     8
340
1AA
342
1BE
371
     0
372
     0
  0
DIMSTYLE
105
1CE
330
A
100
AcDbSymbolTableRecord
100
AcDbDimStyleTableRecord
  2
NORMAL-MSL$7
 70
     0
 41
2.5
 42
0.0
 43
6.099999999999999
 44
1.0
 45
0.00000001
 46
7.0
 73
     0
 74
     0
 77
     1
 78
     8
 79
     2
140
3.5
143
1.0
146
0.5
147
1.0
172
     1
176
   179
177
     5
178
     7
179
     1
271
     2
272
     2
284
     8
286
     8
340
1AA
342
1BE
371
    25
372
     0
  0
DIMSTYLE
105
1CF
330
A
100
AcDbSymbolTableRecord
100
AcDbDimStyleTableRecord
  2
NORMAL-MSLGroßer Text
 70
     0
 41
5.0
 42
0.0
 43
5.0
 44
1.5
 45
0.00000001
 73
     0
 74
     0
 77
     1
 78
     8
 79
     2
140
5.25
143
1.0
146
0.3333333432674408
147
1.0
172
     1
176
     5
177
     5
178
     7
271
     2
272
     2
284
     8
286
     8
340
1A4
371
     0
372
     0
  0
DIMSTYLE
105
1D0
330
A
100
AcDbSymbolTableRecord
100
AcDbDimStyleTableRecord
  2
NORMAL-MSLGroßer Text$7
 70
     0
 41
5.0
 42
0.0
 43
5.0
 44
1.5
 45
0.00000001
 73
     0
 74
     0
 77
     1
 78
     8
 79
     2
140
5.25
143
1.0
146
0.3333333432674408
147
1.0
172
     1
176
   179
177
     5
178
     7
271
     2
272
     2
284
     8
286
     8
340
1A4
371
    25
372
     0
  0
DIMSTYLE
105
1D1
330
A
100
AcDbSymbolTableRecord
100
AcDbDimStyleTableRecord
  2
STANDARD-ANSI
 70
     0
 41
2.5
 42
1.587499999999999
 43
5.999999999999999
 44
3.174999999999999
 45
0.00000001
 46
10.0
140
3.04800009727478
143
1.0
144
0.0393700787401575
147
0.8
171
     3
176
   250
177
   250
178
   250
271
     2
272
     2
274
     3
340
1AD
371
    25
372
    25
  0
DIMSTYLE
105
1D2
330
A
100
AcDbSymbolTableRecord
100
AcDbDimStyleTableRecord
  2
STANDARD-ANSI$7
 70
     0
 41
2.5
 42
1.587499999999999
 43
5.999999999999999
 44
3.174999999999999
 45
0.00000001
 46
10.0
140
3.04800009727478
143
1.0
144
0.0393700787401575
147
0.8
171
     3
176
   179
177
   250
178
   250
271
     2
272
     2
274
     3
340
1AD
371
    25
372
    25
  0
DIMSTYLE
105
1D3
330
A
100
AcDbSymbolTableRecord
100
AcDbDimStyleTableRecord
  2
STANDARD-ANSIGroßer Text
 70
     0
 41
5.0
 42
1.587499999999999
 43
5.999999999999999
 44
3.174999999999999
 45
0.00000001
 46
10.0
 77
     1
140
4.57200002670288
143
1.0
144
0.0393700787401575
146
0.6666666865348816
147
0.8
171
     3
176
   250
177
   250
178
   179
271
     2
272
     2
274
     3
340
1AE
371
    25
372
    25
  0
DIMSTYLE
105
1D4
330
A
100
AcDbSymbolTableRecord
100
AcDbDimStyleTableRecord
  2
STANDARD-ANSIGroßer Text$7
 70
     0
 41
5.0
 42
1.587499999999999
 43
5.999999999999999
 44
3.174999999999999
 45
0.00000001
 46
10.0
 77
     1
140
4.57200002670288
143
1.0
144
0.0393700787401575
146
0.6666666865348816
147
0.8
171
     3
176
   179
177
   250
178
   179
271
     2
272
     2
274
     3
340
1AE
371
    25
372
    25
  0
DIMSTYLE
105
1D5
330
A
100
AcDbSymbolTableRecord
100
AcDbDimStyleTableRecord
  2
STANDARD-BSI
 70
     0
 41
2.5
 42
0.5
 43
5.999999999999999
 44
2.999999999999999
 45
0.00000001
 46
10.0
 73
     0
 74
     0
 77
     1
 78
     8
 79
     2
140
3.5
143
0.03937
147
0.75
171
     3
172
     1
176
   250
177
   250
178
   250
179
     2
271
     2
272
     2
274
     3
278
    44
340
1B1
371
    25
372
    25
  0
DIMSTYLE
105
1D6
330
A
100
AcDbSymbolTableRecord
100
AcDbDimStyleTableRecord
  2
STANDARD-BSI$7
 70
     0
 41
2.5
 42
0.5
 43
5.999999999999999
 44
2.999999999999999
 45
0.00000001
 46
10.0
 73
     0
 74
     0
 77
     1
 78
     8
 79
     2
140
3.5
143
0.03937
147
0.75
171
     3
172
     1
176
     7
177
   250
178
   250
179
     2
271
     2
272
     2
274
     3
278
    44
340
1B1
371
    25
372
    25
  0
DIMSTYLE
105
1D7
330
A
100
AcDbSymbolTableRecord
100
AcDbDimStyleTableRecord
  2
STANDARD-BSIGroßer Text
 70
     0
 41
5.0
 42
0.5
 43
5.999999999999999
 44
2.999999999999999
 45
0.00000001
 46
10.0
 73
     0
 74
     0
 77
     1
 78
     8
 79
     2
140
5.25
143
0.03937
146
0.6666666865348816
147
0.75
171
     3
172
     1
176
   250
177
   250
178
   179
179
     2
271
     2
272
     2
274
     3
278
    44
340
1B2
371
    25
372
    25
  0
DIMSTYLE
105
1D8
330
A
100
AcDbSymbolTableRecord
100
AcDbDimStyleTableRecord
  2
STANDARD-BSIGroßer Text$7
 70
     0
 41
5.0
 42
0.5
 43
5.999999999999999
 44
2.999999999999999
 45
0.00000001
 46
10.0
 73
     0
 74
     0
 77
     1
 78
     8
 79
     2
140
5.25
143
0.03937
146
0.6666666865348816
147
0.75
171
     3
172
     1
176
     7
177
   250
178
   179
179
     2
271
     2
272
     2
274
     3
278
    44
340
1B2
371
    25
372
    25
  0
DIMSTYLE
105
1D9
330
A
100
AcDbSymbolTableRecord
100
AcDbDimStyleTableRecord
  2
STANDARD-DIN
 70
     0
 41
2.5
 42
0.0
 43
5.999999999999999
 44
3.174999999999999
 45
0.00000001
 46
10.0
 73
     0
 74
     0
 77
     1
140
3.5
143
0.03937
147
0.8
171
     3
172
     1
176
   250
177
   250
178
   250
271
     2
272
     2
274
     3
278
    44
340
1B1
371
    25
372
    25
  0
DIMSTYLE
105
1DA
330
A
100
AcDbSymbolTableRecord
100
AcDbDimStyleTableRecord
  2
STANDARD-DIN$7
 70
     0
 41
2.5
 42
0.0
 43
5.999999999999999
 44
3.174999999999999
 45
0.00000001
 46
10.0
 73
     0
 74
     0
 77
     1
140
3.5
143
0.03937
147
0.8
171
     3
172
     1
176
   179
177
   250
178
   250
271
     2
272
     2
274
     3
278
    44
340
1B1
371
    25
372
    25
  0
DIMSTYLE
105
1DB
330
A
100
AcDbSymbolTableRecord
100
AcDbDimStyleTableRecord
  2
STANDARD-DINGroßer Text
 70
     0
 41
5.0
 42
0.0
 43
5.999999999999999
 44
3.174999999999999
 45
0.00000001
 46
10.0
 73
     0
 74
     0
 77
     1
140
5.25
143
0.03937
146
0.6666666865348816
147
0.8
171
     3
172
     1
176
   250
177
   250
178
   179
271
     2
272
     2
274
     3
278
    44
340
1A6
371
    25
372
    25
  0
DIMSTYLE
105
1DC
330
A
100
AcDbSymbolTableRecord
100
AcDbDimStyleTableRecord
  2
STANDARD-DINGroßer Text$7
 70
     0
 41
5.0
 42
0.0
 43
5.999999999999999
 44
3.174999999999999
 45
0.00000001
 46
10.0
 73
     0
 74
     0
 77
     1
140
5.25
143
0.03937
146
0.6666666865348816
147
0.8
171
     3
172
     1
176
   179
177
   250
178
   179
271
     2
272
     2
274
     3
278
    44
340
1A6
371
    25
372
    25
  0
DIMSTYLE
105
1EB
330
A
100
AcDbSymbolTableRecord
100
AcDbDimStyleTableRecord
  2
STANDARD-GB
 70
     0
 41
4.0
 42
0.0
 43
5.999999999999999
 44
5.0
 45
0.00000001
 46
10.0
 73
     0
 74
     0
 77
     1
 78
     8
 79
     2
140
3.5
143
0.03937
147
0.75
171
     3
172
     1
176
   250
177
   250
178
   250
179
     3
271
     2
272
     2
274
     3
275
     1
340
1B1
341
1DD
342
1DD
371
    25
372
    25
  0
DIMSTYLE
105
1EC
330
A
100
AcDbSymbolTableRecord
100
AcDbDimStyleTableRecord
  2
STANDARD-GB$7
 70
     0
 41
4.0
 42
0.0
 43
5.999999999999999
 44
5.0
 45
0.00000001
 46
10.0
 73
     0
 74
     0
 77
     1
 78
     8
 79
     2
140
3.5
143
0.03937
147
0.75
171
     3
172
     1
176
     7
177
   250
178
   250
179
     3
271
     2
272
     2
274
     3
275
     1
340
1B1
341
1DD
342
1DD
371
    25
372
    25
  0
DIMSTYLE
105
1ED
330
A
100
AcDbSymbolTableRecord
100
AcDbDimStyleTableRecord
  2
STANDARD-GBGroßer Text
 70
     0
 41
8.0
 42
0.0
 43
5.999999999999999
 44
5.0
 45
0.00000001
 46
10.0
 73
     0
 74
     0
 77
     1
 78
     8
 79
     2
140
5.25
143
0.03937
146
0.6666666865348816
147
0.75
171
     3
172
     1
176
   250
177
   250
178
   179
179
     3
271
     2
272
     2
274
     3
275
     1
340
1B5
341
1DD
342
1DD
371
    25
372
    25
  0
DIMSTYLE
105
1EE
330
A
100
AcDbSymbolTableRecord
100
AcDbDimStyleTableRecord
  2
STANDARD-GBGroßer Text$7
 70
     0
 41
8.0
 42
0.0
 43
5.999999999999999
 44
5.0
 45
0.00000001
 46
10.0
 73
     0
 74
     0
 77
     1
 78
     8
 79
     2
140
5.25
143
0.03937
146
0.6666666865348816
147
0.75
171
     3
172
     1
176
     7
177
   250
178
   179
179
     3
271
     2
272
     2
274
     3
275
     1
340
1B5
341
1DD
342
1DD
371
    25
372
    25
  0
DIMSTYLE
105
1EF
330
A
100
AcDbSymbolTableRecord
100
AcDbDimStyleTableRecord
  2
STANDARD-ISO
 70
     0
 41
2.5
 42
0.0
 43
5.999999999999999
 44
3.174999999999999
 45
0.00000001
 46
10.0
 73
     0
 74
     0
 77
     1
140
3.5
143
0.03937
147
0.762
171
     3
172
     1
176
   250
177
   250
178
   250
179
     2
271
     2
272
     2
274
     3
278
    44
340
1B1
371
    25
372
    25
  0
DIMSTYLE
105
1F0
330
A
100
AcDbSymbolTableRecord
100
AcDbDimStyleTableRecord
  2
STANDARD-ISO$7
 70
     0
 41
2.5
 42
0.0
 43
5.999999999999999
 44
3.174999999999999
 45
0.00000001
 46
10.0
 73
     0
 74
     0
 77
     1
140
3.5
143
0.03937
147
0.762
171
     3
172
     1
176
     7
177
   250
178
   250
179
     2
271
     2
272
     2
274
     3
278
    44
340
1B1
371
    25
372
    25
  0
DIMSTYLE
105
1F1
330
A
100
AcDbSymbolTableRecord
100
AcDbDimStyleTableRecord
  2
STANDARD-ISOGroßer Text
 70
     0
 41
5.0
 42
0.0
 43
5.999999999999999
 44
3.174999999999999
 45
0.00000001
 46
10.0
 73
     0
 74
     0
 77
     1
140
5.25
143
0.03937
146
0.6666666865348816
147
0.762
171
     3
172
     1
176
   250
177
   250
178
   179
179
     2
271
     2
272
     2
274
     3
278
    44
340
1B8
371
    25
372
    25
  0
DIMSTYLE
105
1F2
330
A
100
AcDbSymbolTableRecord
100
AcDbDimStyleTableRecord
  2
STANDARD-ISOGroßer Text$7
 70
     0
 41
5.0
 42
0.0
 43
5.999999999999999
 44
3.174999999999999
 45
0.00000001
 46
10.0
 73
     0
 74
     0
 77
     1
140
5.25
143
0.03937
146
0.6666666865348816
147
0.762
171
     3
172
     1
176
     7
177
   250
178
   179
179
     2
271
     2
272
     2
274
     3
278
    44
340
1B8
371
    25
372
    25
  0
DIMSTYLE
105
1F3
330
A
100
AcDbSymbolTableRecord
100
AcDbDimStyleTableRecord
  2
STANDARD-JIS
 70
     0
 41
2.5
 42
0.0
 43
5.999999999999999
 44
3.174999999999999
 45
0.00000001
 46
10.0
 73
     0
 74
     0
 77
     1
140
4.5
143
0.03937
147
0.8
171
     3
172
     1
176
   250
177
   250
178
   250
271
     2
272
     2
274
     3
340
1BB
371
    25
372
    25
  0
DIMSTYLE
105
1F4
330
A
100
AcDbSymbolTableRecord
100
AcDbDimStyleTableRecord
  2
STANDARD-JIS$7
 70
     0
 41
2.5
 42
0.0
 43
5.999999999999999
 44
3.174999999999999
 45
0.00000001
 46
10.0
 73
     0
 74
     0
 77
     1
140
4.5
143
0.03937
147
0.8
171
     3
172
     1
176
     7
177
   250
178
   250
271
     2
272
     2
274
     3
340
1BB
371
    25
372
    25
  0
DIMSTYLE
105
1F5
330
A
100
AcDbSymbolTableRecord
100
AcDbDimStyleTableRecord
  2
STANDARD-JISGroßer Text
 70
     0
 41
5.0
 42
0.0
 43
5.999999999999999
 44
3.174999999999999
 45
0.00000001
 46
10.0
 73
     0
 74
     0
 77
     1
140
6.749999523162841
143
0.03937
146
0.6666666865348816
147
0.8
171
     3
172
     1
176
   250
177
   250
178
   179
271
     2
272
     2
274
     3
340
1BC
371
    25
372
    25
  0
DIMSTYLE
105
1F6
330
A
100
AcDbSymbolTableRecord
100
AcDbDimStyleTableRecord
  2
STANDARD-JISGroßer Text$7
 70
     0
 41
5.0
 42
0.0
 43
5.999999999999999
 44
3.174999999999999
 45
0.00000001
 46
10.0
 73
     0
 74
     0
 77
     1
140
6.749999523162841
143
0.03937
146
0.6666666865348816
147
0.8
171
     3
172
     1
176
     7
177
   250
178
   179
271
     2
272
     2
274
     3
340
1BC
371
    25
372
    25
  0
DIMSTYLE
105
1F7
330
A
100
AcDbSymbolTableRecord
100
AcDbDimStyleTableRecord
  2
Führungslinie-Ursprungsindikator(ANSI)
 70
     0
 41
2.5
340
55
  0
DIMSTYLE
105
1F8
330
A
100
AcDbSymbolTableRecord
100
AcDbDimStyleTableRecord
  2
Führungslinie-Ursprungsindikator(BSI)
 70
     0
 41
2.5
340
55
  0
DIMSTYLE
105
1F9
330
A
100
AcDbSymbolTableRecord
100
AcDbDimStyleTableRecord
  2
Führungslinie-Ursprungsindikator(DIN)
 70
     0
 41
2.5
340
55
  0
DIMSTYLE
105
1FA
330
A
100
AcDbSymbolTableRecord
100
AcDbDimStyleTableRecord
  2
Führungslinie-Ursprungsindikator(GB)
 70
     0
 41
4.0
340
55
  0
DIMSTYLE
105
1FB
330
A
100
AcDbSymbolTableRecord
100
AcDbDimStyleTableRecord
  2
Führungslinie-Ursprungsindikator(ISO)
 70
     0
 41
2.5
340
55
  0
DIMSTYLE
105
1FC
330
A
100
AcDbSymbolTableRecord
100
AcDbDimStyleTableRecord
  2
Führungslinie-Ursprungsindikator(JIS)
 70
     0
 41
2.5
340
55
  0
DIMSTYLE
105
1FD
330
A
100
AcDbSymbolTableRecord
100
AcDbDimStyleTableRecord
  2
Führungslinie-Ursprungsindikator(MSL)
 70
     0
 41
2.5
340
55
  0
DIMSTYLE
105
208
330
A
100
AcDbSymbolTableRecord
100
AcDbDimStyleTableRecord
  2
Führungslinie - Bezugsstelle(ANSI)
 70
     0
 41
2.5
340
55
  0
DIMSTYLE
105
209
330
A
100
AcDbSymbolTableRecord
100
AcDbDimStyleTableRecord
  2
Führungslinie - Bezugsstelle(BSI)
 70
     0
 41
2.5
340
55
  0
DIMSTYLE
105
20A
330
A
100
AcDbSymbolTableRecord
100
AcDbDimStyleTableRecord
  2
Führungslinie - Bezugsstelle(DIN)
 70
     0
 41
2.5
340
55
  0
DIMSTYLE
105
22C
330
A
100
AcDbSymbolTableRecord
100
AcDbDimStyleTableRecord
  2
Führungslinie - Bezugsstelle(GB)
 70
     0
 41
4.0
340
55
  0
DIMSTYLE
105
22D
330
A
100
AcDbSymbolTableRecord
100
AcDbDimStyleTableRecord
  2
Führungslinie - Bezugsstelle(ISO)
 70
     0
 41
2.5
340
55
  0
DIMSTYLE
105
22E
330
A
100
AcDbSymbolTableRecord
100
AcDbDimStyleTableRecord
  2
Führungslinie - Bezugsstelle(JIS)
 70
     0
 41
2.5
340
55
  0
DIMSTYLE
105
22F
330
A
100
AcDbSymbolTableRecord
100
AcDbDimStyleTableRecord
  2
Führungslinie - Bezugsstelle(MSL)
 70
     0
 41
2.5
340
55
  0
DIMSTYLE
105
230
330
A
100
AcDbSymbolTableRecord
100
AcDbDimStyleTableRecord
  2
Führungslinie - Punkt(ANSI)
 70
     0
 41
2.5
340
55
  0
DIMSTYLE
105
231
330
A
100
AcDbSymbolTableRecord
100
AcDbDimStyleTableRecord
  2
Führungslinie - Punkt(BSI)
 70
     0
 41
2.5
340
55
  0
DIMSTYLE
105
232
330
A
100
AcDbSymbolTableRecord
100
AcDbDimStyleTableRecord
  2
Führungslinie - Punkt(DIN)
 70
     0
 41
2.5
340
55
  0
DIMSTYLE
105
233
330
A
100
AcDbSymbolTableRecord
100
AcDbDimStyleTableRecord
  2
Führungslinie - Punkt(GB)
 70
     0
 41
4.0
340
55
  0
DIMSTYLE
105
234
330
A
100
AcDbSymbolTableRecord
100
AcDbDimStyleTableRecord
  2
Führungslinie - Punkt(ISO)
 70
     0
 41
2.5
340
55
  0
DIMSTYLE
105
235
330
A
100
AcDbSymbolTableRecord
100
AcDbDimStyleTableRecord
  2
Führungslinie - Punkt(JIS)
 70
     0
 41
2.5
340
55
  0
DIMSTYLE
105
236
330
A
100
AcDbSymbolTableRecord
100
AcDbDimStyleTableRecord
  2
Führungslinie - Punkt(MSL)
 70
     0
 41
2.5
340
55
  0
DIMSTYLE
105
237
330
A
100
AcDbSymbolTableRecord
100
AcDbDimStyleTableRecord
  2
Führungslinie(ANSI)
 70
     0
 41
2.5
340
55
  0
DIMSTYLE
105
238
330
A
100
AcDbSymbolTableRecord
100
AcDbDimStyleTableRecord
  2
Führungslinie(BSI)
 70
     0
 41
2.5
340
55
  0
DIMSTYLE
105
239
330
A
100
AcDbSymbolTableRecord
100
AcDbDimStyleTableRecord
  2
Führungslinie(DIN)
 70
     0
 41
2.5
340
55
  0
DIMSTYLE
105
23A
330
A
100
AcDbSymbolTableRecord
100
AcDbDimStyleTableRecord
  2
Führungslinie(GB)
 70
     0
 41
4.0
340
55
  0
DIMSTYLE
105
23B
330
A
100
AcDbSymbolTableRecord
100
AcDbDimStyleTableRecord
  2
Führungslinie(ISO)
 70
     0
 41
2.5
340
55
  0
DIMSTYLE
105
23C
330
A
100
AcDbSymbolTableRecord
100
AcDbDimStyleTableRecord
  2
Führungslinie(JIS)
 70
     0
 41
2.5
340
55
  0
DIMSTYLE
105
23D
330
A
100
AcDbSymbolTableRecord
100
AcDbDimStyleTableRecord
  2
Führungslinie(MSL)
 70
     0
 41
2.5
340
55
  0
DIMSTYLE
105
120C
102
{ACAD_REACTORS
330
11FB
102
}
330
A
100
AcDbSymbolTableRecord
100
AcDbDimStyleTableRecord
  2
AM_DIN
 70
     0
  4
"
 41
3.5
 42
1.0
 43
10.0
 44
1.0
 47
0.1
 48
0.1
 50
90.0
 73
     0
 74
     0
 77
     1
 78
     8
 79
     2
140
3.5
141
0.0
143
0.0393701
146
0.71
147
1.5
172
     1
176
   256
177
   256
178
     2
271
     2
272
     3
274
     4
283
     0
284
     8
340
55
345
5B
346
5B
347
5B
371
    -1
372
    -1
1001
ACAD_DSTYLE_DIMJAG
1070
   388
1040
1.5
1001
ACAD_DSTYLE_DIMBREAK
1070
   391
1040
3.75
  0
DIMSTYLE
105
121E
330
A
100
AcDbSymbolTableRecord
100
AcDbDimStyleTableRecord
  2
AM_DIN$3
 70
     0
  4
"
 41
3.5
 42
1.0
 43
10.0
 44
1.0
 47
0.1
 48
0.1
 50
90.0
 73
     0
 77
     1
 78
     8
 79
     2
140
3.5
141
0.0
143
0.0393701
146
0.71
147
1.5
176
   256
177
   256
178
     2
271
     2
272
     3
274
     4
283
     0
284
     8
288
     1
289
     0
340
55
345
5B
346
5B
347
5B
371
    -1
372
    -1
1001
ACAD_DSTYLE_DIMBREAK
1070
   391
1040
3.75
1001
ACAD_DSTYLE_DIMJAG
1070
   388
1040
1.5
  0
DIMSTYLE
105
121F
330
A
100
AcDbSymbolTableRecord
100
AcDbDimStyleTableRecord
  2
AM_DIN$4
 70
     0
  4
"
 41
3.5
 42
1.0
 43
10.0
 44
1.0
 47
0.1
 48
0.1
 50
90.0
 73
     0
 77
     1
 78
     8
 79
     2
140
3.5
141
0.0
143
0.0393701
146
0.71
147
1.5
176
   256
177
   256
178
     2
271
     2
272
     3
274
     4
283
     0
284
     8
288
     1
289
     0
340
55
345
5B
346
5B
347
5B
371
    -1
372
    -1
1001
ACAD_DSTYLE_DIMBREAK
1070
   391
1040
3.75
1001
ACAD_DSTYLE_DIMJAG
1070
   388
1040
1.5
  0
DIMSTYLE
105
1220
330
A
100
AcDbSymbolTableRecord
100
AcDbDimStyleTableRecord
  2
AM_DIN$6
 70
     0
  4
"
 41
3.5
 42
1.0
 43
10.0
 44
1.0
 47
0.1
 48
0.1
 50
90.0
 73
     0
 74
     0
 78
     8
 79
     2
140
3.5
141
0.0
143
0.0393701
146
0.71
147
1.5
172
     1
176
   256
177
   256
178
     2
271
     2
272
     3
274
     4
283
     0
284
     8
340
55
345
5B
346
5B
347
5B
371
    -1
372
    -1
1001
ACAD_DSTYLE_DIMBREAK
1070
   391
1040
3.75
1001
ACAD_DSTYLE_DIMJAG
1070
   388
1040
1.5
  0
DIMSTYLE
105
1221
330
A
100
AcDbSymbolTableRecord
100
AcDbDimStyleTableRecord
  2
AM_DIN$7
 70
     0
  4
"
 41
3.5
 42
1.0
 43
10.0
 44
1.0
 47
0.1
 48
0.1
 50
90.0
 73
     0
 74
     0
 77
     1
 78
     8
 79
     2
140
3.5
141
0.0
143
0.0393701
146
0.71
147
1.5
172
     1
176
   256
177
   256
178
     2
271
     2
272
     3
274
     4
283
     0
284
     8
340
55
345
5B
346
5B
347
5B
371
    -1
372
    -1
1001
ACAD_DSTYLE_DIMBREAK
1070
   391
1040
3.75
1001
ACAD_DSTYLE_DIMJAG
1070
   388
1040
1.5
  0
DIMSTYLE
105
1222
330
A
100
AcDbSymbolTableRecord
100
AcDbDimStyleTableRecord
  2
AM_DIN$SF
 70
     0
  4
"
 41
3.5
 42
1.0
 43
10.0
 44
1.0
 47
0.1
 48
0.1
 50
90.0
 73
     0
 74
     0
 75
     1
 76
     1
 77
     1
 78
     8
 79
     2
140
3.5
141
0.0
143
0.0393701
146
0.71
147
1.5
172
     1
176
   256
177
   256
178
     2
271
     2
272
     3
274
     4
283
     0
284
     8
340
55
345
5B
346
5B
347
5B
371
    -1
372
    -1
1001
ACAD_DSTYLE_DIMBREAK
1070
   391
1040
3.75
1001
ACAD_DSTYLE_DIMJAG
1070
   388
1040
1.5
  0
DIMSTYLE
105
1227
330
A
100
AcDbSymbolTableRecord
100
AcDbDimStyleTableRecord
  2
AM_DIN$SH
 70
     0
  4
"
 41
3.5
 42
1.0
 43
10.0
 44
1.0
 47
0.1
 48
0.1
 50
90.0
 73
     0
 74
     0
 75
     1
 76
     1
 77
     1
 78
     8
 79
     2
140
3.5
141
0.0
143
0.0393701
144
2.0
146
0.71
147
1.5
172
     1
173
     1
176
   256
177
   256
178
     2
271
     2
272
     3
274
     4
283
     0
284
     8
340
55
343
1223
345
5B
346
5B
347
5B
371
    -1
372
    -1
1001
ACAD_DSTYLE_DIMBREAK
1070
   391
1040
3.75
1001
ACAD_DSTYLE_DIMJAG
1070
   388
1040
1.5
  0
ENDTAB
  0
TABLE
  2
BLOCK_RECORD
  5
1
330
0
100
AcDbSymbolTable
 70
    26
  0
BLOCK_RECORD
  5
70
330
1
100
AcDbSymbolTableRecord
100
AcDbBlockTableRecord
  2
*Model_Space
340
73
 70
     0
280
     1
281
     0
  0
BLOCK_RECORD
  5
6C
330
1
100
AcDbSymbolTableRecord
100
AcDbBlockTableRecord
  2
*Paper_Space
340
6F
 70
     0
280
     1
281
     0
  0
BLOCK_RECORD
  5
74
330
1
100
AcDbSymbolTableRecord
100
AcDbBlockTableRecord
  2
*Paper_Space0
340
77
 70
     0
280
     1
281
     0
  0
BLOCK_RECORD
  5
1BE
330
1
100
AcDbSymbolTableRecord
100
AcDbBlockTableRecord
  2
Filled-1
340
0
102
{BLKREFS
331
44C
331
44D
331
52E
331
52F
331
62C
331
62D
331
72C
331
72D
331
80E
331
80F
331
8BA
331
8BB
331
99B
331
99C
331
A9B
331
A9C
331
B99
331
B9A
331
C7B
331
C7C
331
D9F
331
DA0
331
E94
331
E95
331
FD2
331
FD3
102
}
 70
     0
280
     1
281
     0
  0
BLOCK_RECORD
  5
1DD
330
1
100
AcDbSymbolTableRecord
100
AcDbBlockTableRecord
  2
Filled-2
340
0
 70
     0
280
     1
281
     0
  0
BLOCK_RECORD
  5
1FE
330
1
100
AcDbSymbolTableRecord
100
AcDbBlockTableRecord
  2
DatumFilled45
340
0
 70
     0
280
     1
281
     0
  0
BLOCK_RECORD
  5
20B
330
1
100
AcDbSymbolTableRecord
100
AcDbBlockTableRecord
  2
DatumThickLine
340
0
 70
     0
280
     1
281
     0
  0
BLOCK_RECORD
  5
23E
330
1
100
AcDbSymbolTableRecord
100
AcDbBlockTableRecord
  2
ACHTUNG_ Nicht freigegeben...
340
0
 70
     0
280
     1
281
     0
  0
BLOCK_RECORD
  5
243
330
1
100
AcDbSymbolTableRecord
100
AcDbBlockTableRecord
  2
ACHTUNG_ Nur Gültig für Anfrage...
340
0
 70
     0
280
     1
281
     0
  0
BLOCK_RECORD
  5
247
330
1
100
AcDbSymbolTableRecord
100
AcDbBlockTableRecord
  2
Winkeltoleranz
340
0
 70
     0
280
     1
281
     0
  0
BLOCK_RECORD
  5
24D
330
1
100
AcDbSymbolTableRecord
100
AcDbBlockTableRecord
  2
Ränder MSL-A4
340
0
 70
     0
280
     1
281
     0
  0
BLOCK_RECORD
  5
265
330
1
100
AcDbSymbolTableRecord
100
AcDbBlockTableRecord
  2
Schriftfelder MSL-DIN-A
340
0
 70
     0
280
     1
281
     0
  0
BLOCK_RECORD
  5
371
330
1
100
AcDbSymbolTableRecord
100
AcDbBlockTableRecord
  2
*D10
340
0
 70
     0
280
     1
281
     0
  0
BLOCK_RECORD
  5
453
330
1
100
AcDbSymbolTableRecord
100
AcDbBlockTableRecord
  2
*D11
340
0
 70
     0
280
     1
281
     0
  0
BLOCK_RECORD
  5
535
330
1
100
AcDbSymbolTableRecord
100
AcDbBlockTableRecord
  2
*D12
340
0
 70
     0
280
     1
281
     0
  0
BLOCK_RECORD
  5
633
330
1
100
AcDbSymbolTableRecord
100
AcDbBlockTableRecord
  2
*D13
340
0
 70
     0
280
     1
281
     0
  0
BLOCK_RECORD
  5
733
330
1
100
AcDbSymbolTableRecord
100
AcDbBlockTableRecord
  2
*D14
340
0
 70
     0
280
     1
281
     0
  0
BLOCK_RECORD
  5
815
330
1
100
AcDbSymbolTableRecord
100
AcDbBlockTableRecord
  2
*D15
340
0
 70
     0
280
     1
281
     0
  0
BLOCK_RECORD
  5
8C0
330
1
100
AcDbSymbolTableRecord
100
AcDbBlockTableRecord
  2
*D16
340
0
 70
     0
280
     1
281
     0
  0
BLOCK_RECORD
  5
9A2
330
1
100
AcDbSymbolTableRecord
100
AcDbBlockTableRecord
  2
*D17
340
0
 70
     0
280
     1
281
     0
  0
BLOCK_RECORD
  5
AA2
330
1
100
AcDbSymbolTableRecord
100
AcDbBlockTableRecord
  2
*D18
340
0
 70
     0
280
     1
281
     0
  0
BLOCK_RECORD
  5
BA0
330
1
100
AcDbSymbolTableRecord
100
AcDbBlockTableRecord
  2
*D19
340
0
 70
     0
280
     1
281
     0
  0
BLOCK_RECORD
  5
CC4
330
1
100
AcDbSymbolTableRecord
100
AcDbBlockTableRecord
  2
*D20
340
0
 70
     0
280
     1
281
     0
  0
BLOCK_RECORD
  5
DA6
330
1
100
AcDbSymbolTableRecord
100
AcDbBlockTableRecord
  2
*D21
340
0
 70
     0
280
     1
281
     0
  0
BLOCK_RECORD
  5
E9B
330
1
100
AcDbSymbolTableRecord
100
AcDbBlockTableRecord
  2
*D22
340
0
 70
     0
280
     1
281
     0
  0
BLOCK_RECORD
  5
1223
330
1
100
AcDbSymbolTableRecord
100
AcDbBlockTableRecord
  2
GENAXEH
340
0
 70
     0
280
     1
281
     0
  0
BLOCK_RECORD
  5
123B
330
1
100
AcDbSymbolTableRecord
100
AcDbBlockTableRecord
  2
_ACMFILLED30
340
0
 70
     0
280
     1
281
     0
  0
ENDTAB
  0
ENDSEC
  0
SECTION
  2
BLOCKS
  0
BLOCK
  5
71
330
70
100
AcDbEntity
  8
0
100
AcDbBlockBegin
  2
*Model_Space
 70
     0
 10
0.0
 20
0.0
 30
0.0
  3
*Model_Space
  1

  0
ENDBLK
  5
72
330
70
100
AcDbEntity
  8
0
100
AcDbBlockEnd
  0
BLOCK
  5
6D
330
6C
100
AcDbEntity
 67
     1
  8
0
100
AcDbBlockBegin
  2
*Paper_Space
 70
     0
 10
0.0
 20
0.0
 30
0.0
  3
*Paper_Space
  1

  0
ENDBLK
  5
6E
330
6C
100
AcDbEntity
 67
     1
  8
0
100
AcDbBlockEnd
  0
BLOCK
  5
75
330
74
100
AcDbEntity
 67
     1
  8
0
100
AcDbBlockBegin
  2
*Paper_Space0
 70
     0
 10
0.0
 20
0.0
 30
0.0
  3
*Paper_Space0
  1

  0
ENDBLK
  5
76
330
74
100
AcDbEntity
 67
     1
  8
0
100
AcDbBlockEnd
  0
BLOCK
  5
1BF
330
1BE
100
AcDbEntity
  8
0
100
AcDbBlockBegin
  2
Filled-1
 70
     0
 10
0.0
 20
0.0
 30
0.0
  3
Filled-1
  1

  0
LINE
  5
1C1
330
1BE
100
AcDbEntity
  8
0
 62
     0
100
AcDbLine
 10
-1.0
 20
0.0
 30
0.0
 11
0.0
 21
0.0
 31
0.0
  0
POLYLINE
  5
1C3
330
1BE
100
AcDbEntity
  8
0
 62
     0
100
AcDb2dPolyline
 66
     1
 10
0.0
 20
0.0
 30
0.0
 70
   128
  0
VERTEX
  5
1C4
330
1C3
100
AcDbEntity
  8
0
 62
     0
100
AcDbVertex
100
AcDb2dVertex
 10
-1.0
 20
-0.1428571428571428
 30
0.0
  0
VERTEX
  5
1C5
330
1C3
100
AcDbEntity
  8
0
 62
     0
100
AcDbVertex
100
AcDb2dVertex
 10
0.0
 20
0.0
 30
0.0
  0
VERTEX
  5
1C7
330
1C3
100
AcDbEntity
  8
0
 62
     0
100
AcDbVertex
100
AcDb2dVertex
 10
-1.0
 20
0.1428571428571428
 30
0.0
  0
VERTEX
  5
1C8
330
1C3
100
AcDbEntity
  8
0
 62
     0
100
AcDbVertex
100
AcDb2dVertex
 10
-1.0
 20
-0.1428571428571428
 30
0.0
  0
SEQEND
  5
1C6
330
1C3
100
AcDbEntity
  8
0
 62
     0
  0
SOLID
  5
1C9
330
1BE
100
AcDbEntity
  8
0
 62
     0
100
AcDbTrace
 10
-1.0
 20
-0.1428571428571428
 30
0.0
 11
0.0
 21
0.0
 31
0.0
 12
-1.0
 22
0.1428571428571428
 32
0.0
 13
-1.0
 23
-0.1428571428571428
 33
0.0
  0
LINE
  5
1CA
330
1BE
100
AcDbEntity
  8
0
 62
     0
100
AcDbLine
 10
-1.0
 20
-0.1428571428571428
 30
0.0
 11
0.0
 21
0.0
 31
0.0
  0
LINE
  5
1CB
330
1BE
100
AcDbEntity
  8
0
 62
     0
100
AcDbLine
 10
0.0
 20
0.0
 30
0.0
 11
-1.0
 21
0.1428571428571428
 31
0.0
  0
LINE
  5
1CC
330
1BE
100
AcDbEntity
  8
0
 62
     0
100
AcDbLine
 10
-1.0
 20
0.1428571428571428
 30
0.0
 11
-1.0
 21
-0.1428571428571428
 31
0.0
  0
ENDBLK
  5
1C0
330
1BE
100
AcDbEntity
  8
0
100
AcDbBlockEnd
  0
BLOCK
  5
1DE
330
1DD
100
AcDbEntity
  8
0
100
AcDbBlockBegin
  2
Filled-2
 70
     0
 10
0.0
 20
0.0
 30
0.0
  3
Filled-2
  1

  0
LINE
  5
1E0
330
1DD
100
AcDbEntity
  8
0
 62
     0
100
AcDbLine
 10
-1.0
 20
0.0
 30
0.0
 11
0.0
 21
0.0
 31
0.0
  0
POLYLINE
  5
1E1
330
1DD
100
AcDbEntity
  8
0
 62
     0
100
AcDb2dPolyline
 66
     1
 10
0.0
 20
0.0
 30
0.0
 70
   128
  0
VERTEX
  5
1E2
330
1E1
100
AcDbEntity
  8
0
 62
     0
100
AcDbVertex
100
AcDb2dVertex
 10
-1.0
 20
-0.125
 30
0.0
  0
VERTEX
  5
1E3
330
1E1
100
AcDbEntity
  8
0
 62
     0
100
AcDbVertex
100
AcDb2dVertex
 10
0.0
 20
0.0
 30
0.0
  0
VERTEX
  5
1E5
330
1E1
100
AcDbEntity
  8
0
 62
     0
100
AcDbVertex
100
AcDb2dVertex
 10
-1.0
 20
0.125
 30
0.0
  0
VERTEX
  5
1E6
330
1E1
100
AcDbEntity
  8
0
 62
     0
100
AcDbVertex
100
AcDb2dVertex
 10
-1.0
 20
-0.125
 30
0.0
  0
SEQEND
  5
1E4
330
1E1
100
AcDbEntity
  8
0
 62
     0
  0
SOLID
  5
1E7
330
1DD
100
AcDbEntity
  8
0
 62
     0
100
AcDbTrace
 10
-1.0
 20
-0.125
 30
0.0
 11
0.0
 21
0.0
 31
0.0
 12
-1.0
 22
0.125
 32
0.0
 13
-1.0
 23
-0.125
 33
0.0
  0
LINE
  5
1E8
330
1DD
100
AcDbEntity
  8
0
 62
     0
100
AcDbLine
 10
-1.0
 20
-0.125
 30
0.0
 11
0.0
 21
0.0
 31
0.0
  0
LINE
  5
1E9
330
1DD
100
AcDbEntity
  8
0
 62
     0
100
AcDbLine
 10
0.0
 20
0.0
 30
0.0
 11
-1.0
 21
0.125
 31
0.0
  0
LINE
  5
1EA
330
1DD
100
AcDbEntity
  8
0
 62
     0
100
AcDbLine
 10
-1.0
 20
0.125
 30
0.0
 11
-1.0
 21
-0.125
 31
0.0
  0
ENDBLK
  5
1DF
330
1DD
100
AcDbEntity
  8
0
100
AcDbBlockEnd
  0
BLOCK
  5
1FF
330
1FE
100
AcDbEntity
  8
0
100
AcDbBlockBegin
  2
DatumFilled45
 70
     0
 10
0.0
 20
0.0
 30
0.0
  3
DatumFilled45
  1

  0
POLYLINE
  5
201
330
1FE
100
AcDbEntity
  8
0
 62
     0
100
AcDb2dPolyline
 66
     1
 10
0.0
 20
0.0
 30
0.0
 70
   128
  0
VERTEX
  5
202
330
201
100
AcDbEntity
  8
0
 62
     0
100
AcDbVertex
100
AcDb2dVertex
 10
0.0
 20
1.0
 30
0.0
  0
VERTEX
  5
203
330
201
100
AcDbEntity
  8
0
 62
     0
100
AcDbVertex
100
AcDb2dVertex
 10
0.0
 20
-1.0
 30
0.0
  0
VERTEX
  5
205
330
201
100
AcDbEntity
  8
0
 62
     0
100
AcDbVertex
100
AcDb2dVertex
 10
-1.0
 20
0.0
 30
0.0
  0
VERTEX
  5
206
330
201
100
AcDbEntity
  8
0
 62
     0
100
AcDbVertex
100
AcDb2dVertex
 10
0.0
 20
1.0
 30
0.0
  0
SEQEND
  5
204
330
201
100
AcDbEntity
  8
0
 62
     0
  0
SOLID
  5
207
330
1FE
100
AcDbEntity
  8
0
 62
     0
100
AcDbTrace
 10
0.0
 20
1.0
 30
0.0
 11
0.0
 21
-1.0
 31
0.0
 12
-1.0
 22
0.0
 32
0.0
 13
0.0
 23
1.0
 33
0.0
  0
ENDBLK
  5
200
330
1FE
100
AcDbEntity
  8
0
100
AcDbBlockEnd
  0
BLOCK
  5
20C
330
20B
100
AcDbEntity
  8
0
100
AcDbBlockBegin
  2
DatumThickLine
 70
     0
 10
0.0
 20
0.0
 30
0.0
  3
DatumThickLine
  1

  0
POLYLINE
  5
20E
330
20B
100
AcDbEntity
  8
0
 62
     0
100
AcDb2dPolyline
 66
     1
 10
0.0
 20
0.0
 30
0.0
 70
   128
  0
VERTEX
  5
20F
330
20E
100
AcDbEntity
  8
0
 62
     0
100
AcDbVertex
100
AcDb2dVertex
 10
-0.25
 20
1.0
 30
0.0
  0
VERTEX
  5
210
330
20E
100
AcDbEntity
  8
0
 62
     0
100
AcDbVertex
100
AcDb2dVertex
 10
-0.25
 20
-1.0
 30
0.0
  0
VERTEX
  5
212
330
20E
100
AcDbEntity
  8
0
 62
     0
100
AcDbVertex
100
AcDb2dVertex
 10
-0.5
 20
-1.0
 30
0.0
  0
VERTEX
  5
213
330
20E
100
AcDbEntity
  8
0
 62
     0
100
AcDbVertex
100
AcDb2dVertex
 10
-0.25
 20
1.0
 30
0.0
  0
SEQEND
  5
211
330
20E
100
AcDbEntity
  8
0
 62
     0
  0
SOLID
  5
214
330
20B
100
AcDbEntity
  8
0
 62
     0
100
AcDbTrace
 10
-0.25
 20
1.0
 30
0.0
 11
-0.25
 21
-1.0
 31
0.0
 12
-0.5
 22
-1.0
 32
0.0
 13
-0.25
 23
1.0
 33
0.0
  0
POLYLINE
  5
215
330
20B
100
AcDbEntity
  8
0
 62
     0
100
AcDb2dPolyline
 66
     1
 10
0.0
 20
0.0
 30
0.0
 70
   128
  0
VERTEX
  5
216
330
215
100
AcDbEntity
  8
0
 62
     0
100
AcDbVertex
100
AcDb2dVertex
 10
-0.25
 20
1.0
 30
0.0
  0
VERTEX
  5
217
330
215
100
AcDbEntity
  8
0
 62
     0
100
AcDbVertex
100
AcDb2dVertex
 10
-0.5
 20
-1.0
 30
0.0
  0
VERTEX
  5
219
330
215
100
AcDbEntity
  8
0
 62
     0
100
AcDbVertex
100
AcDb2dVertex
 10
-0.5
 20
-1.0
 30
0.0
  0
VERTEX
  5
21A
330
215
100
AcDbEntity
  8
0
 62
     0
100
AcDbVertex
100
AcDb2dVertex
 10
-0.25
 20
1.0
 30
0.0
  0
SEQEND
  5
218
330
215
100
AcDbEntity
  8
0
 62
     0
  0
SOLID
  5
21B
330
20B
100
AcDbEntity
  8
0
 62
     0
100
AcDbTrace
 10
-0.25
 20
1.0
 30
0.0
 11
-0.5
 21
-1.0
 31
0.0
 12
-0.5
 22
-1.0
 32
0.0
 13
-0.25
 23
1.0
 33
0.0
  0
POLYLINE
  5
21C
330
20B
100
AcDbEntity
  8
0
 62
     0
100
AcDb2dPolyline
 66
     1
 10
0.0
 20
0.0
 30
0.0
 70
   128
  0
VERTEX
  5
21D
330
21C
100
AcDbEntity
  8
0
 62
     0
100
AcDbVertex
100
AcDb2dVertex
 10
-0.25
 20
1.0
 30
0.0
  0
VERTEX
  5
21E
330
21C
100
AcDbEntity
  8
0
 62
     0
100
AcDbVertex
100
AcDb2dVertex
 10
-0.5
 20
-1.0
 30
0.0
  0
VERTEX
  5
220
330
21C
100
AcDbEntity
  8
0
 62
     0
100
AcDbVertex
100
AcDb2dVertex
 10
-0.5
 20
1.0
 30
0.0
  0
VERTEX
  5
221
330
21C
100
AcDbEntity
  8
0
 62
     0
100
AcDbVertex
100
AcDb2dVertex
 10
-0.25
 20
1.0
 30
0.0
  0
SEQEND
  5
21F
330
21C
100
AcDbEntity
  8
0
 62
     0
  0
SOLID
  5
222
330
20B
100
AcDbEntity
  8
0
 62
     0
100
AcDbTrace
 10
-0.25
 20
1.0
 30
0.0
 11
-0.5
 21
-1.0
 31
0.0
 12
-0.5
 22
1.0
 32
0.0
 13
-0.25
 23
1.0
 33
0.0
  0
POLYLINE
  5
223
330
20B
100
AcDbEntity
  8
0
 62
     0
100
AcDb2dPolyline
 66
     1
 10
0.0
 20
0.0
 30
0.0
 70
   128
  0
VERTEX
  5
224
330
223
100
AcDbEntity
  8
0
 62
     0
100
AcDbVertex
100
AcDb2dVertex
 10
-0.25
 20
1.0
 30
0.0
  0
VERTEX
  5
225
330
223
100
AcDbEntity
  8
0
 62
     0
100
AcDbVertex
100
AcDb2dVertex
 10
-0.5
 20
1.0
 30
0.0
  0
VERTEX
  5
227
330
223
100
AcDbEntity
  8
0
 62
     0
100
AcDbVertex
100
AcDb2dVertex
 10
-0.25
 20
1.0
 30
0.0
  0
VERTEX
  5
228
330
223
100
AcDbEntity
  8
0
 62
     0
100
AcDbVertex
100
AcDb2dVertex
 10
-0.25
 20
1.0
 30
0.0
  0
SEQEND
  5
226
330
223
100
AcDbEntity
  8
0
 62
     0
  0
SOLID
  5
229
330
20B
100
AcDbEntity
  8
0
 62
     0
100
AcDbTrace
 10
-0.25
 20
1.0
 30
0.0
 11
-0.5
 21
1.0
 31
0.0
 12
-0.25
 22
1.0
 32
0.0
 13
-0.25
 23
1.0
 33
0.0
  0
LINE
  5
22A
330
20B
100
AcDbEntity
  8
0
 62
     0
100
AcDbLine
 10
-1.0
 20
0.0
 30
0.0
 11
-0.5
 21
0.0
 31
0.0
  0
LINE
  5
22B
330
20B
100
AcDbEntity
  8
0
 62
     0
100
AcDbLine
 10
-0.5
 20
0.0
 30
0.0
 11
-1.0
 21
0.0
 31
0.0
  0
ENDBLK
  5
20D
330
20B
100
AcDbEntity
  8
0
100
AcDbBlockEnd
  0
BLOCK
  5
23F
330
23E
100
AcDbEntity
  8
0
100
AcDbBlockBegin
  2
ACHTUNG_ Nicht freigegeben...
 70
     0
 10
0.0
 20
0.0
 30
0.0
  3
ACHTUNG_ Nicht freigegeben...
  1

  0
MTEXT
  5
241
330
23E
100
AcDbEntity
  8
Symbole(MSL)
 62
     7
100
AcDbMText
 10
0.0
 20
-0.9292848594486713
 30
0.0
 40
6.984999775886535
 41
0.0
 46
0.0
 71
     5
 72
     1
  1
\fArial|b0|i1;\H6.9850;ACHTUNG: Zeichnung nicht freigegeben! \PDarf nicht an Kunden wetergeleitet werden!
  7
NORM-MSL
 73
     2
 44
0.9442214965820312
  0
ENDBLK
  5
240
330
23E
100
AcDbEntity
  8
0
100
AcDbBlockEnd
  0
BLOCK
  5
244
330
243
100
AcDbEntity
  8
0
100
AcDbBlockBegin
  2
ACHTUNG_ Nur Gültig für Anfrage...
 70
     0
 10
0.0
 20
0.0
 30
0.0
  3
ACHTUNG_ Nur Gültig für Anfrage...
  1

  0
MTEXT
  5
246
330
243
100
AcDbEntity
  8
Symbole(MSL)
 62
     1
420
 16711680
100
AcDbMText
 10
0.0
 20
-0.9292848594486713
 30
0.0
 40
6.984999775886535
 41
0.0
 46
0.0
 71
     5
 72
     1
  1
\fArial|b0|i1;\H6.9850;ACHTUNG: \PZeichnung nur für Anfrage gültig!
  7
NORM-MSL
 73
     2
 44
0.9442214965820312
  0
ENDBLK
  5
245
330
243
100
AcDbEntity
  8
0
100
AcDbBlockEnd
  0
BLOCK
  5
248
330
247
100
AcDbEntity
  8
0
100
AcDbBlockBegin
  2
Winkeltoleranz
 70
     0
 10
0.0
 20
0.0
 30
0.0
  3
Winkeltoleranz
  1

  0
LINE
  5
24A
330
247
100
AcDbEntity
  8
Sichtbare Kanten(MSL)
100
AcDbLine
 10
-2.5
 20
2.500000000000035
 30
0.0
 11
-2.5
 21
-2.5
 31
0.0
  0
LINE
  5
24B
330
247
100
AcDbEntity
  8
Sichtbare Kanten(MSL)
100
AcDbLine
 10
-2.5
 20
-2.5
 30
0.0
 11
2.5
 21
-2.5
 31
0.0
  0
MTEXT
  5
24C
330
247
100
AcDbEntity
  8
Symbole(MSL)
 62
     7
100
AcDbMText
 10
-0.1770562725969516
 20
-2.381897279270575
 30
0.0
 40
2.5
 41
0.0
 46
0.0
 71
     7
 72
     1
  1
\fArial|b0|i0;\H2.5000;+0.1\P- 0.3
  7
NORM-MSL
 73
     2
 44
0.9442214965820312
  0
ENDBLK
  5
249
330
247
100
AcDbEntity
  8
0
100
AcDbBlockEnd
  0
BLOCK
  5
24E
330
24D
100
AcDbEntity
  8
0
100
AcDbBlockBegin
  2
Ränder MSL-A4
 70
     0
 10
0.0
 20
0.0
 30
0.0
  3
Ränder MSL-A4
  1

  0
LINE
  5
250
330
24D
100
AcDbEntity
  8
Sichtbare Kanten(MSL)
100
AcDbLine
 10
20.00000000000014
 20
9.999999999999989
 30
0.0
 11
203.0000000000002
 21
10.00000000000001
 31
0.0
  0
LINE
  5
251
330
24D
100
AcDbEntity
  8
Sichtbare Kanten(MSL)
100
AcDbLine
 10
203.0000000000002
 20
10.00000000000001
 30
0.0
 11
203.0
 21
287.0
 31
0.0
  0
LINE
  5
252
330
24D
100
AcDbEntity
  8
Sichtbare Kanten(MSL)
100
AcDbLine
 10
203.0
 20
287.0
 30
0.0
 11
20.0
 21
287.0
 31
0.0
  0
LINE
  5
253
330
24D
100
AcDbEntity
  8
Sichtbare Kanten(MSL)
100
AcDbLine
 10
20.00000000000001
 20
287.0
 30
0.0
 11
20.00000000000014
 21
10.0
 31
0.0
  0
LINE
  5
254
330
24D
100
AcDbEntity
  8
Sichtbare Kanten(MSL)
100
AcDbLine
 10
19.00000000000003
 20
256.0
 30
0.0
 11
19.00000000000002
 21
271.0
 31
0.0
  0
LINE
  5
255
330
24D
100
AcDbEntity
  8
Sichtbare Kanten(MSL)
100
AcDbLine
 10
12.94632198267914
 20
271.0
 30
0.0
 11
12.94632198267916
 21
256.0
 31
0.0
  0
LINE
  5
256
330
24D
100
AcDbEntity
  8
Sichtbare Kanten(MSL)
100
AcDbLine
 10
12.94632198267916
 20
256.0
 30
0.0
 11
19.00000000000003
 21
256.0
 31
0.0
  0
LINE
  5
257
330
24D
100
AcDbEntity
  8
Sichtbare Kanten(MSL)
100
AcDbLine
 10
19.00000000000002
 20
265.0000000000001
 30
0.0
 11
12.94632198267915
 21
265.0000000000001
 31
0.0
  0
LINE
  5
258
330
24D
100
AcDbEntity
  8
Sichtbare Kanten(MSL)
100
AcDbLine
 10
19.00000000000001
 20
272.0
 30
0.0
 11
19.0
 21
287.0
 31
0.0
  0
LINE
  5
259
330
24D
100
AcDbEntity
  8
Sichtbare Kanten(MSL)
100
AcDbLine
 10
13.0
 20
287.0
 30
0.0
 11
13.00000000000001
 21
272.0
 31
0.0
  0
LINE
  5
25A
330
24D
100
AcDbEntity
  8
Sichtbare Kanten(MSL)
100
AcDbLine
 10
19.00000000000002
 20
271.0
 30
0.0
 11
12.94632198267914
 21
271.0
 31
0.0
  0
LINE
  5
25B
330
24D
100
AcDbEntity
  8
Sichtbare Kanten(MSL)
100
AcDbLine
 10
13.00000000000001
 20
272.0
 30
0.0
 11
19.00000000000001
 21
272.0
 31
0.0
  0
LINE
  5
25C
330
24D
100
AcDbEntity
  8
Sichtbare Kanten(MSL)
100
AcDbLine
 10
19.00000000000001
 20
281.0000000000001
 30
0.0
 11
13.0
 21
281.0000000000001
 31
0.0
  0
LINE
  5
25D
330
24D
100
AcDbEntity
  8
Sichtbare Kanten(MSL)
100
AcDbLine
 10
19.0
 20
287.0
 30
0.0
 11
13.0
 21
287.0
 31
0.0
  0
MTEXT
  5
25E
330
24D
100
AcDbEntity
  8
Symbole(MSL)
 62
     7
100
AcDbMText
 10
19.79772111726938
 20
9.999999999999753
 30
0.0
 40
2.489199936389923
 41
0.0
 46
0.0
 71
     7
 72
     1
  1
\fArial|b0|i0;\H2.4892;Für dieses Dokument behalten wir uns \P\fArial|b0|i0;\H2.4892;alle Rechte nach SN 210318 vor.
  7
NORM
 11
0.0000000000002967
 21
1.0
 31
0.0
 73
     2
 44
0.9442214369773864
  0
MTEXT
  5
25F
330
24D
100
AcDbEntity
  8
Symbole(MSL)
 62
     7
100
AcDbMText
 10
19.00000000000005
 20
192.0
 30
0.0
 40
2.70000010728836
 41
0.0
 46
0.0
 71
     7
 72
     1
  1
\fArial|b0|i0;\H2.7000;Allgemeintoleranzen EN 22768-1 u.-2
  7
NORM
 11
0.0000000000002967
 21
1.0
 31
0.0
 73
     1
 44
1.0
  0
MTEXT
  5
260
330
24D
100
AcDbEntity
  8
Symbole(MSL)
 62
     7
100
AcDbMText
 10
17.30000000000003
 20
257.5000000000001
 30
0.0
 40
2.489199936389923
 41
0.0
 46
0.0
 71
     7
 72
     1
  1
\fArial|b0|i0;\H2.4892;<30
  7
NORM
 11
0.0000000000002967
 21
1.0
 31
0.0
 73
     1
 44
1.0
  0
MTEXT
  5
261
330
24D
100
AcDbEntity
  8
Symbole(MSL)
 62
     7
100
AcDbMText
 10
17.30000000000002
 20
266.5
 30
0.0
 40
2.489199936389923
 41
0.0
 46
0.0
 71
     7
 72
     1
  1
\fArial|b0|i0;\H2.4892;m
  7
NORM
 11
0.0000000000002967
 21
1.0
 31
0.0
 73
     1
 44
1.0
  0
MTEXT
  5
262
330
24D
100
AcDbEntity
  8
Symbole(MSL)
 62
     7
100
AcDbMText
 10
17.30000000000001
 20
273.5000000000001
 30
0.0
 40
2.489199936389923
 41
5.896671414375306
 46
0.0
 71
     7
 72
     1
  1
\fArial|b0|i0;\H2.4892;>30
  7
NORM
 11
0.0000000000002967
 21
1.0
 31
0.0
 73
     1
 44
1.0
  0
MTEXT
  5
263
330
24D
100
AcDbEntity
  8
Symbole(MSL)
 62
     7
100
AcDbMText
 10
17.3
 20
283.5
 30
0.0
 40
2.5
 41
0.0
 46
0.0
 71
     7
 72
     1
  1
\fArial|b0|i0;\H2.5000;f
  7
NORM
 11
0.0000000000002967
 21
1.0
 31
0.0
 73
     1
 44
1.0
  0
ENDBLK
  5
24F
330
24D
100
AcDbEntity
  8
0
100
AcDbBlockEnd
  0
BLOCK
  5
266
330
265
100
AcDbEntity
  8
0
100
AcDbBlockBegin
  2
Schriftfelder MSL-DIN-A
 70
     2
 10
0.0
 20
0.0
 30
0.0
  3
Schriftfelder MSL-DIN-A
  1

  0
OLE2FRAME
  5
268
330
265
100
AcDbEntity
  8
0
100
AcDbOle2Frame
 70
     2
  1
OLE
1001
ACAD
1000
OLEBEGIN
1070
    70
1070
     1
1070
    71
1070
     1
1070
    40
1040
0.0
1070
    41
1040
10.68528783434909
1070
    42
1040
10.75207071425583
1070
    72
1070
     0
1070
     3
1000

1070
    90
1071
        0
1070
    43
1040
0.0
1070
     4
1000

1070
    91
1071
        0
1070
    44
1040
0.0
1000
OLEEND
  0
LINE
  5
269
330
265
100
AcDbEntity
  8
Sichtbare Kanten(MSL)
100
AcDbLine
 10
193.5
 20
65.4
 30
0.0
 11
10.5
 21
65.4
 31
0.0
  0
LINE
  5
26A
330
265
100
AcDbEntity
  8
Sichtbare Kanten(MSL)
100
AcDbLine
 10
193.5
 20
16.7
 30
0.0
 11
10.5
 21
16.7
 31
0.0
  0
LINE
  5
26B
330
265
100
AcDbEntity
  8
Sichtbare Kanten(MSL)
100
AcDbLine
 10
193.5
 20
52.40000000000001
 30
0.0
 11
10.5
 21
52.40000000000001
 31
0.0
  0
LINE
  5
26C
330
265
100
AcDbEntity
  8
Sichtbare Kanten(MSL)
100
AcDbLine
 10
193.5
 20
58.9
 30
0.0
 11
10.5
 21
58.9
 31
0.0
  0
LINE
  5
26D
330
265
100
AcDbEntity
  8
Sichtbare Kanten(MSL)
100
AcDbLine
 10
193.5
 20
4.0
 30
0.0
 11
10.5
 21
4.0
 31
0.0
  0
LINE
  5
26E
330
265
100
AcDbEntity
  8
Skizziergeometrie(MSL)
  6
Continuous
 62
     7
370
    18
100
AcDbLine
 10
178.0
 20
42.2
 30
0.0
 11
130.5
 21
42.20000000000001
 31
0.0
  0
LINE
  5
26F
330
265
100
AcDbEntity
  8
Skizziergeometrie(MSL)
  6
Continuous
 62
     7
370
    18
100
AcDbLine
 10
178.0
 20
47.3
 30
0.0
 11
130.5
 21
47.30000000000001
 31
0.0
  0
LINE
  5
270
330
265
100
AcDbEntity
  8
Skizziergeometrie(MSL)
  6
Continuous
 62
     7
370
    18
100
AcDbLine
 10
178.0
 20
37.1
 30
0.0
 11
130.5
 21
37.1
 31
0.0
  0
LINE
  5
271
330
265
100
AcDbEntity
  8
Skizziergeometrie(MSL)
  6
Continuous
 62
     7
370
    18
100
AcDbLine
 10
130.5
 20
32.00000000000004
 30
0.0
 11
193.5
 21
32.0
 31
0.0
  0
LINE
  5
272
330
265
100
AcDbEntity
  8
Skizziergeometrie(MSL)
  6
Continuous
 62
     7
370
    18
100
AcDbLine
 10
178.0
 20
26.9
 30
0.0
 11
130.5
 21
26.90000000000001
 31
0.0
  0
LINE
  5
273
330
265
100
AcDbEntity
  8
Skizziergeometrie(MSL)
  6
Continuous
 62
     7
370
    18
100
AcDbLine
 10
178.0
 20
21.8
 30
0.0
 11
130.5
 21
21.8
 31
0.0
  0
LINE
  5
274
330
265
100
AcDbEntity
  8
Skizziergeometrie(MSL)
  6
Continuous
 62
     7
370
    18
100
AcDbLine
 10
178.0
 20
21.8
 30
0.0
 11
130.5
 21
21.8
 31
0.0
  0
LINE
  5
275
330
265
100
AcDbEntity
  8
Sichtbare Kanten(MSL)
100
AcDbLine
 10
10.5
 20
4.0
 30
0.0
 11
10.5
 21
65.4
 31
0.0
  0
LINE
  5
276
330
265
100
AcDbEntity
  8
Sichtbare Kanten(MSL)
100
AcDbLine
 10
130.5
 20
32.00000000000004
 30
0.0
 11
10.5
 21
32.0
 31
0.0
  0
LINE
  5
277
330
265
100
AcDbEntity
  8
Sichtbare Kanten(MSL)
100
AcDbLine
 10
50.0
 20
16.7
 30
0.0
 11
50.00000000000001
 21
4.00000000000001
 31
0.0
  0
LINE
  5
278
330
265
100
AcDbEntity
  8
Skizziergeometrie(MSL)
  6
Continuous
 62
     7
370
    18
100
AcDbLine
 10
50.0
 20
21.79999999999996
 30
0.0
 11
10.5
 21
21.8
 31
0.0
  0
LINE
  5
279
330
265
100
AcDbEntity
  8
Skizziergeometrie(MSL)
  6
Continuous
 62
     7
370
    18
100
AcDbLine
 10
50.0
 20
26.89999999999998
 30
0.0
 11
10.5
 21
26.89999999999999
 31
0.0
  0
LINE
  5
27A
330
265
100
AcDbEntity
  8
Sichtbare Kanten(MSL)
100
AcDbLine
 10
50.0
 20
16.7
 30
0.0
 11
50.0
 21
32.0
 31
0.0
  0
LINE
  5
27B
330
265
100
AcDbEntity
  8
Sichtbare Kanten(MSL)
100
AcDbLine
 10
130.5
 20
16.7
 30
0.0
 11
130.5
 21
52.40000000000001
 31
0.0
  0
LINE
  5
27C
330
265
100
AcDbEntity
  8
Skizziergeometrie(MSL)
  6
Continuous
 62
     7
370
    18
100
AcDbLine
 10
148.3
 20
16.7
 30
0.0
 11
148.3
 21
52.40000000000001
 31
0.0
  0
LINE
  5
27D
330
265
100
AcDbEntity
  8
Skizziergeometrie(MSL)
  6
Continuous
 62
     7
370
    18
100
AcDbLine
 10
161.5
 20
65.40000000000005
 30
0.0
 11
161.5
 21
52.40000000000005
 31
0.0
  0
LINE
  5
27E
330
265
100
AcDbEntity
  8
Sichtbare Kanten(MSL)
100
AcDbLine
 10
193.5
 20
4.0
 30
0.0
 11
193.5
 21
65.4
 31
0.0
  0
LINE
  5
27F
330
265
100
AcDbEntity
  8
Sichtbare Kanten(MSL)
100
AcDbLine
 10
130.5
 20
16.7
 30
0.0
 11
130.5
 21
4.00000000000003
 31
0.0
  0
LINE
  5
280
330
265
100
AcDbEntity
  8
Sichtbare Kanten(MSL)
100
AcDbLine
 10
185.5
 20
16.7
 30
0.0
 11
185.5
 21
4.000000000000046
 31
0.0
  0
LINE
  5
281
330
265
100
AcDbEntity
  8
Sichtbare Kanten(MSL)
100
AcDbLine
 10
193.5
 20
11.6
 30
0.0
 11
185.5
 21
11.6
 31
0.0
  0
LINE
  5
282
330
265
100
AcDbEntity
  8
Sichtbare Kanten(MSL)
100
AcDbLine
 10
178.0
 20
26.9
 30
0.0
 11
193.5
 21
26.90000000000001
 31
0.0
  0
CIRCLE
  5
283
330
265
100
AcDbEntity
  8
Sichtbare Kanten(MSL)
100
AcDbCircle
 10
188.7863742236852
 20
21.8
 30
0.0
 40
2.5
  0
CIRCLE
  5
284
330
265
100
AcDbEntity
  8
Sichtbare Kanten(MSL)
100
AcDbCircle
 10
188.7863742236852
 20
21.8
 30
0.0
 40
1.399999999999999
  0
LINE
  5
285
330
265
100
AcDbEntity
  8
Sichtbare Kanten(MSL)
100
AcDbLine
 10
178.0
 20
26.9
 30
0.0
 11
178.0
 21
16.7
 31
0.0
  0
LINE
  5
286
330
265
100
AcDbEntity
  8
Sichtbare Kanten(MSL)
100
AcDbLine
 10
179.5193396765279
 20
23.16767983953888
 30
0.0
 11
184.5646591694761
 21
24.26832806688241
 31
0.0
  0
LINE
  5
287
330
265
100
AcDbEntity
  8
Sichtbare Kanten(MSL)
100
AcDbLine
 10
179.5193396765279
 20
20.32434200276218
 30
0.0
 11
184.5646591694761
 21
19.40713492617844
 31
0.0
  0
LINE
  5
288
330
265
100
AcDbEntity
  8
Sichtbare Kanten(MSL)
100
AcDbLine
 10
179.5193396765279
 20
23.16767983953888
 30
0.0
 11
179.5193396765279
 21
20.32434200276218
 31
0.0
  0
LINE
  5
289
330
265
100
AcDbEntity
  8
Skizziergeometrie(MSL)
100
AcDbLine
 10
179.5193396765279
 20
23.16767983953888
 30
0.0
 11
179.5193396765279
 21
20.32434200276218
 31
0.0
  0
LINE
  5
28A
330
265
100
AcDbEntity
  8
Sichtbare Kanten(MSL)
100
AcDbLine
 10
184.5646591694761
 20
21.88359178422037
 30
0.0
 11
184.5646591694761
 21
24.26832806688241
 31
0.0
  0
LINE
  5
28B
330
265
100
AcDbEntity
  8
Sichtbare Kanten(MSL)
100
AcDbLine
 10
184.5646591694761
 20
24.26832806688241
 30
0.0
 11
184.5646591694761
 21
19.40713492617844
 31
0.0
  0
LINE
  5
28C
330
265
100
AcDbEntity
  8
Sichtbare Kanten(MSL)
100
AcDbLine
 10
178.0
 20
37.1
 30
0.0
 11
193.5
 21
37.1
 31
0.0
  0
LINE
  5
28D
330
265
100
AcDbEntity
  8
Sichtbare Kanten(MSL)
100
AcDbLine
 10
178.0
 20
52.40000000000001
 30
0.0
 11
178.0
 21
37.1
 31
0.0
  0
LINE
  5
28E
330
265
100
AcDbEntity
  8
Skizzierlinie(DIN)
  6
Continuous
 62
     7
370
    18
100
AcDbLine
 10
10.49999999999997
 20
35.52500000000001
 30
0.0
 11
130.5
 21
35.52500000000001
 31
0.0
  0
LINE
  5
28F
330
265
100
AcDbEntity
  8
Skizzierlinie(DIN)
  6
Continuous
 62
     7
370
    18
100
AcDbLine
 10
130.5
 20
39.77500000000008
 30
0.0
 11
10.49999999999997
 21
39.77500000000008
 31
0.0
  0
LINE
  5
290
330
265
100
AcDbEntity
  8
Skizzierlinie(DIN)
  6
Continuous
 62
     7
370
    18
100
AcDbLine
 10
10.49999999999997
 20
44.02499999999998
 30
0.0
 11
130.5
 21
44.02499999999998
 31
0.0
  0
LINE
  5
291
330
265
100
AcDbEntity
  8
Skizzierlinie(DIN)
  6
Continuous
 62
     7
370
    18
100
AcDbLine
 10
10.49999999999997
 20
48.27500000000002
 30
0.0
 11
130.5
 21
48.27500000000002
 31
0.0
  0
LINE
  5
292
330
265
100
AcDbEntity
  8
Skizzierlinie(DIN)
  6
Continuous
 62
     7
370
    18
100
AcDbLine
 10
17.5
 20
32.0
 30
0.0
 11
17.5
 21
52.40000000000001
 31
0.0
  0
LINE
  5
293
330
265
100
AcDbEntity
  8
Skizzierlinie(DIN)
  6
Continuous
 62
     7
370
    18
100
AcDbLine
 10
104.5
 20
32.00000000000005
 30
0.0
 11
104.5
 21
52.40000000000002
 31
0.0
  0
LINE
  5
294
330
265
100
AcDbEntity
  8
Skizzierlinie(DIN)
  6
Continuous
 62
     7
370
    18
100
AcDbLine
 10
120.5
 20
31.92844166135953
 30
0.0
 11
120.5
 21
52.40000000000003
 31
0.0
  0
LINE
  5
295
330
265
100
AcDbEntity
  8
Mittellinie(DIN)
100
AcDbLine
 10
178.7155080797722
 20
21.8
 30
0.0
 11
192.4781518097803
 21
21.80000000000001
 31
0.0
  0
LINE
  5
296
330
265
100
AcDbEntity
  8
Mittelpunktmarkierung(DIN)
100
AcDbLine
 10
188.7863742236852
 20
25.15535291043369
 30
0.0
 11
188.7863742236852
 21
18.50631197527923
 31
0.0
  0
LINE
  5
297
330
265
100
AcDbEntity
  8
Skizziergeometrie(MSL)
  6
Continuous
 62
     7
370
    18
100
AcDbLine
 10
178.0
 20
42.2
 30
0.0
 11
193.5
 21
42.2
 31
0.0
  0
MTEXT
  5
298
330
265
100
AcDbEntity
  8
Symbole(MSL)
 62
   179
420
  2500185
100
AcDbMText
 10
14.0
 20
32.54477700231397
 30
0.0
 40
2.000000029802322
 41
6.939348698654779
 46
0.0
 71
     8
 72
     1
  1
\fArial|b0|i0;\H2.0000;Ind.
  7
Aktuell-DIN
 73
     1
 44
1.0
  0
MTEXT
  5
299
330
265
100
AcDbEntity
  8
Symbole(MSL)
 62
   179
420
  2500185
100
AcDbMText
 10
18.3
 20
32.03633927358136
 30
0.0
 40
2.006599903106689
 41
25.0
 46
0.0
 71
     7
 72
     1
  1
\fArial|b0|i0;\H2.0066;Änderungen
  7
Aktuell-DIN
 73
     1
 44
1.0
  0
MTEXT
  5
29A
330
265
100
AcDbEntity
  8
Symbole(MSL)
 62
   179
420
  2500185
100
AcDbMText
 10
112.5
 20
32.62940108126624
 30
0.0
 40
2.000000029802322
 41
11.36668657259189
 46
0.0
 71
     8
 72
     1
  1
\fArial|b0|i0;Datum
  7
Aktuell-DIN
 73
     1
 44
1.0
  0
MTEXT
  5
29B
330
265
100
AcDbEntity
  8
Symbole(MSL)
 62
   179
420
  2500185
100
AcDbMText
 10
125.5
 20
32.60063320651014
 30
0.0
 40
2.000000029802322
 41
7.649940282224321
 46
0.0
 71
     8
 72
     1
  1
\fArial|b0|i0;Name
  7
Aktuell-DIN
 73
     1
 44
1.0
  0
MTEXT
  5
29C
330
265
100
AcDbEntity
  8
Symbole(MSL)
 62
     7
100
AcDbMText
 10
23.85928899125401
 20
5.700000000000002
 30
0.0
 40
2.000000029802322
 41
0.0
 46
0.0
 71
     7
 72
     1
  1
\fArial|b0|i0;4245 Kleinlützel
  7
NORM
 73
     1
 44
1.0
  0
MTEXT
  5
29D
330
265
100
AcDbEntity
  8
Symbole(MSL)
 62
     7
100
AcDbMText
 10
23.75676497112405
 20
9.144768392486991
 30
0.0
 40
2.000000029802322
 41
0.0
 46
0.0
 71
     7
 72
     1
  1
\fArial|b0|i0;Beschlägefabrik AG
  7
NORM
 73
     1
 44
1.0
  0
MTEXT
  5
29E
330
265
100
AcDbEntity
  8
Symbole(MSL)
 62
     7
100
AcDbMText
 10
23.85928899125401
 20
13.7
 30
0.0
 40
2.000000029802322
 41
0.0
 46
0.0
 71
     7
 72
     1
  1
\fArial|b0|i0;Schloss- und
  7
NORM
 73
     1
 44
1.0
  0
MTEXT
  5
29F
330
265
100
AcDbEntity
  8
Symbole(MSL)
 62
     7
100
AcDbMText
 10
11.3
 20
17.70704082781659
 30
0.0
 40
2.000000029802322
 41
0.0
 46
0.0
 71
     7
 72
     1
  1
\fArial|b0|i0;Sep.Stückliste anderer Nr.
  7
NORM
 73
     1
 44
1.0
  0
MTEXT
  5
2A0
330
265
100
AcDbEntity
  8
Symbole(MSL)
 62
     7
100
AcDbMText
 10
11.3
 20
23.07136055187773
 30
0.0
 40
2.000000029802322
 41
0.0
 46
0.0
 71
     7
 72
     1
  1
\fArial|b0|i0;Sep.Stückliste gleicher Nr.
  7
NORM
 73
     1
 44
1.0
  0
MTEXT
  5
2A1
330
265
100
AcDbEntity
  8
Symbole(MSL)
 62
     7
100
AcDbMText
 10
11.3
 20
28.03920068984717
 30
0.0
 40
2.000000029802322
 41
0.0
 46
0.0
 71
     7
 72
     1
  1
\fArial|b0|i0;Ohne sep.Stückliste
  7
NORM
 73
     1
 44
1.0
  0
MTEXT
  5
2A2
330
265
100
AcDbEntity
  8
Symbole(MSL)
 62
     7
100
AcDbMText
 10
131.3
 20
28.6
 30
0.0
 40
2.000000029802322
 41
0.0
 46
0.0
 71
     7
 72
     1
  1
Oberfläche
  7
NORM
 73
     1
 44
1.0
  0
MTEXT
  5
2A3
330
265
100
AcDbEntity
  8
Symbole(MSL)
 62
     7
100
AcDbMText
 10
131.3
 20
18.40000000000017
 30
0.0
 40
2.000000029802322
 41
0.0
 46
0.0
 71
     7
 72
     1
  1
Ersatz für
  7
NORM
 73
     1
 44
1.0
  0
MTEXT
  5
2A4
330
265
100
AcDbEntity
  8
Symbole(MSL)
 62
     7
100
AcDbMText
 10
131.3
 20
23.5
 30
0.0
 40
2.000000029802322
 41
0.0
 46
0.0
 71
     7
 72
     1
  1
Ursprung
  7
NORM
 73
     1
 44
1.0
  0
MTEXT
  5
2A5
330
265
100
AcDbEntity
  8
Symbole(MSL)
 62
     7
100
AcDbMText
 10
131.3
 20
33.7
 30
0.0
 40
2.000000029802322
 41
0.0
 46
0.0
 71
     7
 72
     1
  1
Kunde
  7
NORM
 73
     1
 44
1.0
  0
MTEXT
  5
2A6
330
265
100
AcDbEntity
  8
Symbole(MSL)
 62
     7
100
AcDbMText
 10
75.5
 20
54.40000000000002
 30
0.0
 40
2.489199936389923
 41
0.0
 46
0.0
 71
     7
 72
     1
  1
\fArial|b0|i0;\H2.4892;Bezeichnung
  7
NORM
 73
     1
 44
1.0
  0
MTEXT
  5
2A7
330
265
100
AcDbEntity
  8
Symbole(MSL)
 62
     7
100
AcDbMText
 10
131.3
 20
49.00000000000002
 30
0.0
 40
2.000000029802322
 41
0.0
 46
0.0
 71
     7
 72
     1
  1
Gezeichnet
  7
NORM
 73
     1
 44
1.0
  0
MTEXT
  5
2A8
330
265
100
AcDbEntity
  8
Symbole(MSL)
 62
     7
100
AcDbMText
 10
131.3
 20
38.8
 30
0.0
 40
2.000000029802322
 41
0.0
 46
0.0
 71
     7
 72
     1
  1
Freigegeben
  7
NORM
 73
     1
 44
1.0
  0
MTEXT
  5
2A9
330
265
100
AcDbEntity
  8
Symbole(MSL)
 62
     7
100
AcDbMText
 10
131.3
 20
43.9
 30
0.0
 40
2.000000029802322
 41
0.0
 46
0.0
 71
     7
 72
     1
  1
Geprüft
  7
NORM
 73
     1
 44
1.0
  0
MTEXT
  5
2AA
330
265
100
AcDbEntity
  8
Symbole(MSL)
 62
     7
100
AcDbMText
 10
171.0
 20
54.40000000000004
 30
0.0
 40
2.489199936389923
 41
0.0
 46
0.0
 71
     7
 72
     1
  1
\fArial|b0|i0;\H2.4892;Material
  7
NORM
 73
     1
 44
1.0
  0
MTEXT
  5
2AB
330
265
100
AcDbEntity
  8
Symbole(MSL)
 62
     7
100
AcDbMText
 10
187.1993155281755
 20
13.16734989480926
 30
0.0
 40
2.489199936389923
 41
0.0
 46
0.0
 71
     7
 72
     1
  1
\fArial|b0|i0;\H2.4892;Ae
  7
NORM
 73
     1
 44
1.0
  0
MTEXT
  5
2AC
330
265
100
AcDbEntity
  8
Symbole(MSL)
 62
     7
100
AcDbMText
 10
179.6938987369965
 20
48.69389876899635
 30
0.0
 40
2.000000029802322
 41
0.0
 46
0.0
 71
     7
 72
     1
  1
Massstab
  7
NORM
 73
     1
 44
1.0
  0
ATTDEF
  5
2AE
102
{ACAD_XDICTIONARY
360
FDB
102
}
330
265
100
AcDbEntity
  8
Symbole(MSL)
 62
   179
420
  2500185
100
AcDbText
 10
130.7316507590269
 20
8.206833827941519
 30
0.0
 40
4.49999988079071
  1
201.8156 2D
  7
Textstil20
100
AcDbAttributeDefinition
280
     0
  3
BAUTEILNUMMER
  2
BAUTEILNUMMER_001
 70
     0
280
     0
  0
ATTDEF
  5
2B1
102
{ACAD_XDICTIONARY
360
FDE
102
}
330
265
100
AcDbEntity
  8
Symbole(MSL)
 62
   179
420
  2500185
100
AcDbText
 10
49.9837653579983
 20
9.44023004720287
 30
0.0
 40
3.499999940395355
  1
Bügel zu Verstärkungsset Holz
  7
Aktuell-DIN
100
AcDbAttributeDefinition
280
     0
  3
TITEL
  2
TITEL_001
 70
     0
280
     0
  0
ATTDEF
  5
2B3
102
{ACAD_XDICTIONARY
360
FE1
102
}
330
265
100
AcDbEntity
  8
Symbole(MSL)
 62
   179
420
  2500185
100
AcDbText
 10
148.9357489842609
 20
49.08907645246046
 30
0.0
 40
2.006599903106689
  1
22.01.2014
  7
Textstil31
100
AcDbAttributeDefinition
280
     0
  3
EDM_CREATE_DATE
  2
EDM_CREATE_DATE_001
 70
     0
280
     0
  0
ATTDEF
  5
2B4
102
{ACAD_XDICTIONARY
360
FE4
102
}
330
265
100
AcDbEntity
  8
Symbole(MSL)
 62
   179
420
  2500185
100
AcDbText
 10
168.2481484425333
 20
49.08860537248507
 30
0.0
 40
2.006599903106689
  1
Sn
  7
Textstil31
100
AcDbAttributeDefinition
280
     0
  3
EDM_CREATE_BY
  2
EDM_CREATE_BY_001
 70
     0
280
     0
  0
ATTDEF
  5
2B5
102
{ACAD_XDICTIONARY
360
FE7
102
}
330
265
100
AcDbEntity
  8
Symbole(MSL)
 62
   179
420
  2500185
100
AcDbText
 10
168.2481484425333
 20
43.59683888355734
 30
0.0
 40
2.006599903106689
  1
Sn
  7
Textstil31
100
AcDbAttributeDefinition
280
     0
  3
EDM_CHECKED_BY
  2
EDM_CHECKED_BY_001
 70
     0
280
     0
  0
ATTDEF
  5
2B6
102
{ACAD_XDICTIONARY
360
FEA
102
}
330
265
100
AcDbEntity
  8
Symbole(MSL)
 62
   179
420
  2500185
100
AcDbText
 10
148.4895337248361
 20
43.64950839802322
 30
0.0
 40
2.006599903106689
  1
10.02.2016
  7
Textstil31
100
AcDbAttributeDefinition
280
     0
  3
EDM_CHECKED_DATE
  2
EDM_CHECKED_DATE_001
 70
     0
280
     0
  0
ATTDEF
  5
2B7
102
{ACAD_XDICTIONARY
360
FED
102
}
330
265
100
AcDbEntity
  8
Symbole(MSL)
 62
   179
420
  2500185
100
AcDbText
 10
173.4224685217988
 20
60.48054275445273
 30
0.0
 40
2.006599903106689
  1
1.4301
  7
Textstil31
100
AcDbAttributeDefinition
280
     0
  3
AIMD_MATERIAL
  2
AIMD_MATERIAL_001
 70
     0
280
     0
  0
ATTDEF
  5
2B9
102
{ACAD_XDICTIONARY
360
FF0
102
}
330
265
100
AcDbEntity
  8
Symbole(MSL)
 62
   179
420
  2500185
100
AcDbText
 10
149.1
 20
18.22568338421968
 30
0.0
 40
2.000000029802322
  1

  7
Textstil10
 11
149.1
 21
20.22568341402201
 31
0.0
100
AcDbAttributeDefinition
280
     0
  3
AIMD_REPLACEMENT
  2
AIMD_REPLACEMENT
 70
     0
 74
     3
280
     0
  0
ATTDEF
  5
2BA
102
{ACAD_XDICTIONARY
360
FF3
102
}
330
265
100
AcDbEntity
  8
Symbole(MSL)
 62
   179
420
  2500185
100
AcDbText
 10
125.5
 20
36.52978810949181
 30
0.0
 40
2.000000029802322
  1

  7
Textstil10
 72
     1
 11
125.5
 21
37.52978812439297
 31
0.0
100
AcDbAttributeDefinition
280
     0
  3
1AIMD_REVISION_USERNAME
  2
1AIMD_REVISION_USERNAME
 70
     0
 74
     2
280
     0
  0
ATTDEF
  5
2BB
102
{ACAD_XDICTIONARY
360
FF6
102
}
330
265
100
AcDbEntity
  8
Symbole(MSL)
 62
   179
420
  2500185
100
AcDbText
 10
18.3
 20
36.50344421338436
 30
0.0
 40
2.000000029802322
  1

  7
Textstil10
 11
18.3
 21
37.50344422828552
 31
0.0
100
AcDbAttributeDefinition
280
     0
  3
1AIMD_REVISION_DESCRIPTION
  2
1AIMD_REVISION_DESCRIPTION
 70
     0
 74
     2
280
     0
  0
ATTDEF
  5
2BC
102
{ACAD_XDICTIONARY
360
FF9
102
}
330
265
100
AcDbEntity
  8
Symbole(MSL)
 62
   179
420
  2500185
100
AcDbText
 10
14.0
 20
36.57520184743612
 30
0.0
 40
2.000000029802322
  1

  7
Textstil10
 72
     1
 11
14.0
 21
37.57520186233728
 31
0.0
100
AcDbAttributeDefinition
280
     0
  3
1AIMD_REVISION_INDEX
  2
1AIMD_REVISION_INDEX
 70
     0
 74
     2
280
     0
  0
ATTDEF
  5
2BD
102
{ACAD_XDICTIONARY
360
FFC
102
}
330
265
100
AcDbEntity
  8
Symbole(MSL)
 62
   179
420
  2500185
100
AcDbText
 10
125.5
 20
40.80881229513106
 30
0.0
 40
2.000000029802322
  1

  7
Textstil10
 72
     1
 11
125.5
 21
41.80881231003223
 31
0.0
100
AcDbAttributeDefinition
280
     0
  3
2AIMD_REVISION_USERNAME
  2
2AIMD_REVISION_USERNAME
 70
     0
 74
     2
280
     0
  0
ATTDEF
  5
2BE
102
{ACAD_XDICTIONARY
360
FFF
102
}
330
265
100
AcDbEntity
  8
Symbole(MSL)
 62
   179
420
  2500185
100
AcDbText
 10
112.5
 20
40.5506551116835
 30
0.0
 40
2.000000029802322
  1

  7
Textstil10
 72
     1
 11
112.5
 21
41.55065512658466
 31
0.0
100
AcDbAttributeDefinition
280
     0
  3
2AIMD_REVISION_DATE
  2
2AIMD_REVISION_DATE
 70
     0
 74
     2
280
     0
  0
ATTDEF
  5
2BF
102
{ACAD_XDICTIONARY
360
1002
102
}
330
265
100
AcDbEntity
  8
Symbole(MSL)
 62
   179
420
  2500185
100
AcDbText
 10
18.3
 20
40.97394055995201
 30
0.0
 40
2.000000029802322
  1

  7
Textstil10
 11
18.3
 21
41.97394057485317
 31
0.0
100
AcDbAttributeDefinition
280
     0
  3
2AIMD_REVISION_DESCRIPTION
  2
2AIMD_REVISION_DESCRIPTION
 70
     0
 74
     2
280
     0
  0
ATTDEF
  5
2C0
102
{ACAD_XDICTIONARY
360
1005
102
}
330
265
100
AcDbEntity
  8
Symbole(MSL)
 62
   179
420
  2500185
100
AcDbText
 10
14.0
 20
40.93671746542226
 30
0.0
 40
2.000000029802322
  1

  7
Textstil10
 72
     1
 11
14.0
 21
41.93671748032342
 31
0.0
100
AcDbAttributeDefinition
280
     0
  3
2AIMD_REVISION_INDEX
  2
2AIMD_REVISION_INDEX
 70
     0
 74
     2
280
     0
  0
ATTDEF
  5
2C1
102
{ACAD_XDICTIONARY
360
1008
102
}
330
265
100
AcDbEntity
  8
Symbole(MSL)
 62
   179
420
  2500185
100
AcDbText
 10
125.5
 20
45.03595965151095
 30
0.0
 40
2.000000029802322
  1

  7
Textstil10
 72
     1
 11
125.5
 21
46.03595966641211
 31
0.0
100
AcDbAttributeDefinition
280
     0
  3
3AIMD_REVISION_USERNAME
  2
3AIMD_REVISION_USERNAME
 70
     0
 74
     2
280
     0
  0
ATTDEF
  5
2C2
102
{ACAD_XDICTIONARY
360
100B
102
}
330
265
100
AcDbEntity
  8
Symbole(MSL)
 62
   179
420
  2500185
100
AcDbText
 10
112.5
 20
45.05889235840037
 30
0.0
 40
2.000000029802322
  1

  7
Textstil10
 72
     1
 11
112.5
 21
46.05889237330153
 31
0.0
100
AcDbAttributeDefinition
280
     0
  3
3AIMD_REVISION_DATE
  2
3AIMD_REVISION_DATE
 70
     0
 74
     2
280
     0
  0
ATTDEF
  5
2C3
102
{ACAD_XDICTIONARY
360
100E
102
}
330
265
100
AcDbEntity
  8
Symbole(MSL)
 62
   179
420
  2500185
100
AcDbText
 10
18.3
 20
45.07718269061246
 30
0.0
 40
2.000000029802322
  1

  7
Textstil10
 11
18.3
 21
46.07718270551362
 31
0.0
100
AcDbAttributeDefinition
280
     0
  3
3AIMD_REVISION_DESCRIPTION
  2
3AIMD_REVISION_DESCRIPTION
 70
     0
 74
     2
280
     0
  0
ATTDEF
  5
2C4
102
{ACAD_XDICTIONARY
360
1011
102
}
330
265
100
AcDbEntity
  8
Symbole(MSL)
 62
   179
420
  2500185
100
AcDbText
 10
14.0
 20
45.08650417609564
 30
0.0
 40
2.000000029802322
  1

  7
Textstil10
 72
     1
 11
14.0
 21
46.08650419099681
 31
0.0
100
AcDbAttributeDefinition
280
     0
  3
3AIMD_REVISION_INDEX
  2
3AIMD_REVISION_INDEX
 70
     0
 74
     2
280
     0
  0
ATTDEF
  5
2C5
102
{ACAD_XDICTIONARY
360
1014
102
}
330
265
100
AcDbEntity
  8
Symbole(MSL)
 62
   179
420
  2500185
100
AcDbText
 10
125.5
 20
49.28595965151096
 30
0.0
 40
2.000000029802322
  1

  7
Textstil10
 72
     1
 11
125.5
 21
50.28595966641212
 31
0.0
100
AcDbAttributeDefinition
280
     0
  3
4AIMD_REVISION_USERNAME
  2
4AIMD_REVISION_USERNAME
 70
     0
 74
     2
280
     0
  0
ATTDEF
  5
2C6
102
{ACAD_XDICTIONARY
360
1017
102
}
330
265
100
AcDbEntity
  8
Symbole(MSL)
 62
   179
420
  2500185
100
AcDbText
 10
14.0
 20
49.35805764822625
 30
0.0
 40
2.000000029802322
  1

  7
Textstil10
 72
     1
 11
14.0
 21
50.35805766312741
 31
0.0
100
AcDbAttributeDefinition
280
     0
  3
4AIMD_REVISION_INDEX
  2
4AIMD_REVISION_INDEX
 70
     0
 74
     2
280
     0
  0
ATTDEF
  5
2C7
102
{ACAD_XDICTIONARY
360
101A
102
}
330
265
100
AcDbEntity
  8
Symbole(MSL)
 62
   179
420
  2500185
100
AcDbText
 10
112.5
 20
49.30889235840036
 30
0.0
 40
2.000000029802322
  1

  7
Textstil10
 72
     1
 11
112.5
 21
50.30889237330152
 31
0.0
100
AcDbAttributeDefinition
280
     0
  3
4AIMD_REVISION_DATE
  2
4AIMD_REVISION_DATE
 70
     0
 74
     2
280
     0
  0
ATTDEF
  5
2C8
102
{ACAD_XDICTIONARY
360
101D
102
}
330
265
100
AcDbEntity
  8
Symbole(MSL)
 62
   179
420
  2500185
100
AcDbText
 10
149.1
 20
23.06007321009884
 30
0.0
 40
2.006599903106689
  1

  7
Textstil31
 11
149.1
 21
24.06337316165219
 31
0.0
100
AcDbAttributeDefinition
280
     0
  3
AIMD_ORIGIN
  2
AIMD_ORIGIN
 70
     0
 74
     2
280
     0
  0
ATTDEF
  5
2C9
102
{ACAD_XDICTIONARY
360
1020
102
}
330
265
100
AcDbEntity
  8
Symbole(MSL)
 62
   179
420
  2500185
100
AcDbText
 10
182.561357562429
 20
43.46570293164428
 30
0.0
 40
3.499999940395355
  1
1:1
  7
Aktuell-DIN
100
AcDbAttributeDefinition
280
     0
  3
AIMD_SCALE
  2
AIMD_SCALE_001
 70
     0
280
     0
  0
ATTDEF
  5
2CA
102
{ACAD_XDICTIONARY
360
1023
102
}
330
265
100
AcDbEntity
  8
Symbole(MSL)
 62
   179
420
  2500185
100
AcDbText
 10
112.5
 20
36.57471443539237
 30
0.0
 40
2.000000029802322
  1

  7
Textstil10
 72
     1
 11
112.5
 21
37.57471445029354
 31
0.0
100
AcDbAttributeDefinition
280
     0
  3
1AIMD_REVISION_DATE
  2
1AIMD_REVISION_DATE
 70
     0
 74
     2
280
     0
  0
ATTDEF
  5
2CB
102
{ACAD_XDICTIONARY
360
1026
102
}
330
265
100
AcDbEntity
  8
Symbole(MSL)
 62
   179
420
  2500185
100
AcDbText
 10
18.3
 20
49.34949162618623
 30
0.0
 40
2.000000029802322
  1

  7
Textstil10
 11
18.3
 21
50.34949164108739
 31
0.0
100
AcDbAttributeDefinition
280
     0
  3
4AIMD_REVISION_DESCRIPTION
  2
4AIMD_REVISION_DESCRIPTION
 70
     0
 74
     2
280
     0
  0
ATTDEF
  5
2CC
102
{ACAD_XDICTIONARY
360
1029
102
}
330
265
100
AcDbEntity
  8
Symbole(MSL)
 62
     7
100
AcDbText
 10
67.25375130692215
 20
61.4078706243978
 30
0.0
 40
2.000000029802322
  1
Bügel zu Verstärkungsset Holz
  7
NORM
100
AcDbAttributeDefinition
280
     0
  3
TITEL
  2
TITEL_001
 70
     0
280
     0
  0
ATTDEF
  5
2CD
102
{ACAD_XDICTIONARY
360
102C
102
}
330
265
100
AcDbEntity
  8
Symbole(MSL)
 62
   179
420
  2500185
100
AcDbText
 10
189.4833791900584
 20
6.221925567582221
 30
0.0
 40
3.499999940395355
  1

  7
Aktuell-DIN
 72
     1
 11
189.4833791900584
 21
7.971925537779899
 31
0.0
100
AcDbAttributeDefinition
280
     0
  3
AIMD_REV
  2
AIMD_REV
 70
     0
 74
     2
280
     0
  0
ATTDEF
  5
2CF
102
{ACAD_XDICTIONARY
360
102F
102
}
330
265
100
AcDbEntity
  8
Symbole(MSL)
 62
   179
420
  2500185
100
AcDbText
 10
183.7628904612268
 20
38.33391132517058
 30
0.0
 40
2.489199936389923
  1
A4
  7
Textstil32
100
AcDbAttributeDefinition
280
     0
  3
Blattgröße
  2
Blattgröße_001
 70
     0
280
     0
  0
ATTDEF
  5
2D0
102
{ACAD_XDICTIONARY
360
1032
102
}
330
265
100
AcDbEntity
  8
Symbole(MSL)
 62
   179
420
  2500185
100
AcDbText
 10
149.1
 20
33.43703615947212
 30
0.0
 40
2.006599903106689
  1

  7
Textstil31
 11
149.1
 21
34.44033611102547
 31
0.0
100
AcDbAttributeDefinition
280
     0
  3
AIMD_FIRMA
  2
AIMD_FIRMA
 70
     0
 74
     2
280
     0
  0
ATTDEF
  5
2D1
102
{ACAD_XDICTIONARY
360
1035
102
}
330
265
100
AcDbEntity
  8
Symbole(MSL)
 62
   178
420
       64
100
AcDbText
 10
149.1
 20
28.32955554071064
 30
0.0
 40
2.006599903106689
  1

  7
Textstil31
 11
149.1
 21
29.33285549226398
 31
0.0
100
AcDbAttributeDefinition
280
     0
  3
AIMD_OBERFL
  2
AIMD_OBERFL
 70
     0
 74
     2
280
     0
  0
ATTDEF
  5
2D2
102
{ACAD_XDICTIONARY
360
1038
102
}
330
265
100
AcDbEntity
  8
Symbole(MSL)
 62
   179
420
  2500185
100
AcDbText
 10
148.491541598985
 20
38.6232103288193
 30
0.0
 40
2.000000029802322
  1
10.02.2016
  7
NORM
100
AcDbAttributeDefinition
280
     0
  3
EDM_CHECKED_DATE
  2
EDM_CHECKED_DATE_001
 70
     0
280
     0
  0
ATTDEF
  5
2D3
102
{ACAD_XDICTIONARY
360
103B
102
}
330
265
100
AcDbEntity
  8
Symbole(MSL)
 62
   179
420
  2500185
100
AcDbText
 10
168.2481484425333
 20
38.59952379224525
 30
0.0
 40
2.006599903106689
  1
Sn
  7
Textstil31
100
AcDbAttributeDefinition
280
     0
  3
EDM_CHECKED_BY
  2
EDM_CHECKED_BY_001
 70
     0
280
     0
  0
ATTDEF
  5
2D4
102
{ACAD_XDICTIONARY
360
103E
102
}
330
265
100
AcDbEntity
  8
Symbole(MSL)
 62
     7
100
AcDbText
 10
50.63628921945743
 20
28.06562647234671
 30
0.0
 40
2.000000029802322
  1
24413
  7
NORM
100
AcDbAttributeDefinition
280
     0
  3
AIMD_BEZ2
  2
AIMD_BEZ2_001
 70
     0
280
     0
  0
ATTDEF
  5
2D5
102
{ACAD_XDICTIONARY
360
1041
102
}
330
265
100
AcDbEntity
  8
Symbole(MSL)
 62
     7
100
AcDbText
 10
50.79999999999974
 20
23.1055255127211
 30
0.0
 40
2.000000029802322
  1

  7
NORM
 11
50.79999999999974
 21
24.10552552762226
 31
0.0
100
AcDbAttributeDefinition
280
     0
  3
AIMD_BEZ3
  2
AIMD_BEZ3
 70
     0
 74
     2
280
     0
  0
ATTDEF
  5
2D6
102
{ACAD_XDICTIONARY
360
1044
102
}
330
265
100
AcDbEntity
  8
Symbole(MSL)
 62
     7
100
AcDbText
 10
50.79999999999992
 20
18.09884856114829
 30
0.0
 40
2.000000029802322
  1

  7
NORM
 11
50.79999999999992
 21
19.09884857604945
 31
0.0
100
AcDbAttributeDefinition
280
     0
  3
AIMD_BEZ4
  2
AIMD_BEZ4
 70
     0
 74
     2
280
     0
  0
ENDBLK
  5
267
330
265
100
AcDbEntity
  8
0
100
AcDbBlockEnd
  0
BLOCK
  5
372
330
371
100
AcDbEntity
  8
0
100
AcDbBlockBegin
  2
*D10
 70
     1
 10
0.0
 20
0.0
 30
0.0
  3
*D10
  1

  0
LINE
  5
449
330
371
100
AcDbEntity
  8
Bemaßungen(MSL)
  6
Continuous
 62
     5
440
 16777216
370
     0
100
AcDbLine
 10
140.6938424013562
 20
186.1657673419898
 30
0.0
 11
114.0938424013486
 21
186.1657673419898
 31
0.0
  0
LINE
  5
44A
330
371
100
AcDbEntity
  8
Bemaßungen(MSL)
  6
Continuous
 62
     5
440
 16777216
370
     0
100
AcDbLine
 10
140.3938424013489
 20
215.8982656878092
 30
0.0
 11
114.0938424013486
 21
215.8982656878092
 31
0.0
  0
LINE
  5
44B
330
371
100
AcDbEntity
  8
Bemaßungen(MSL)
  6
Continuous
 62
     5
440
 16777216
370
     0
100
AcDbLine
 10
115.0938424013486
 20
189.6657673419898
 30
0.0
 11
115.0938424013486
 21
212.3982656878092
 31
0.0
  0
INSERT
  5
44C
330
371
100
AcDbEntity
  8
Bemaßungen(MSL)
  6
Continuous
 62
     5
440
 16777216
370
     0
100
AcDbBlockReference
  2
Filled-1
 10
115.0938424013486
 20
186.1657673419898
 30
0.0
 41
3.5
 42
3.5
 43
3.5
 50
270.0
  0
INSERT
  5
44D
330
371
100
AcDbEntity
  8
Bemaßungen(MSL)
  6
Continuous
 62
     5
440
 16777216
370
     0
100
AcDbBlockReference
  2
Filled-1
 10
115.0938424013486
 20
215.8982656878092
 30
0.0
 41
3.5
 42
3.5
 43
3.5
 50
90.0
  0
MTEXT
  5
44E
330
371
100
AcDbEntity
  8
Bemaßungen(MSL)
  6
Continuous
 62
     7
440
 16777216
370
     5
100
AcDbMText
 10
110.5198314664933
 20
196.4564707856742
 30
0.0
 40
3.5
 41
0.0
 46
0.0
 71
     1
 72
     1
  1
\A1;29.7
  7
NORMAL-MSL
 11
0.0000000000000001
 21
1.0
 31
0.0
 73
     1
 44
1.0
  0
POINT
  5
44F
330
371
100
AcDbEntity
  8
Defpoints
  6
Continuous
 62
     0
440
 16777216
100
AcDbPoint
 10
140.6938424013562
 20
186.1657673419898
 30
0.0
  0
POINT
  5
450
330
371
100
AcDbEntity
  8
Defpoints
  6
Continuous
 62
     0
440
 16777216
100
AcDbPoint
 10
140.3938424013489
 20
215.8982656878092
 30
0.0
  0
POINT
  5
451
330
371
100
AcDbEntity
  8
Defpoints
  6
Continuous
 62
     0
440
 16777216
100
AcDbPoint
 10
115.0938424013486
 20
215.8982656878092
 30
0.0
  0
ENDBLK
  5
373
330
371
100
AcDbEntity
  8
0
100
AcDbBlockEnd
  0
BLOCK
  5
454
330
453
100
AcDbEntity
  8
0
100
AcDbBlockBegin
  2
*D11
 70
     1
 10
0.0
 20
0.0
 30
0.0
  3
*D11
  1

  0
LINE
  5
52B
330
453
100
AcDbEntity
  8
Bemaßungen(MSL)
  6
Continuous
 62
     5
440
 16777216
370
     0
100
AcDbLine
 10
60.46930911552225
 20
136.1643180625776
 30
0.0
 11
46.36930911552227
 21
136.1643180625776
 31
0.0
  0
LINE
  5
52C
330
453
100
AcDbEntity
  8
Bemaßungen(MSL)
  6
Continuous
 62
     5
440
 16777216
370
     0
100
AcDbLine
 10
60.46930911552225
 20
148.1643180625775
 30
0.0
 11
46.36930911552227
 21
148.1643180625775
 31
0.0
  0
LINE
  5
52D
330
453
100
AcDbEntity
  8
Bemaßungen(MSL)
  6
Continuous
 62
     5
440
 16777216
370
     0
100
AcDbLine
 10
47.36930911552227
 20
139.6643180625776
 30
0.0
 11
47.36930911552227
 21
144.6643180625775
 31
0.0
  0
INSERT
  5
52E
330
453
100
AcDbEntity
  8
Bemaßungen(MSL)
  6
Continuous
 62
     5
440
 16777216
370
     0
100
AcDbBlockReference
  2
Filled-1
 10
47.36930911552227
 20
136.1643180625776
 30
0.0
 41
3.5
 42
3.5
 43
3.5
 50
270.0
  0
INSERT
  5
52F
330
453
100
AcDbEntity
  8
Bemaßungen(MSL)
  6
Continuous
 62
     5
440
 16777216
370
     0
100
AcDbBlockReference
  2
Filled-1
 10
47.36930911552227
 20
148.1643180625775
 30
0.0
 41
3.5
 42
3.5
 43
3.5
 50
90.0
  0
MTEXT
  5
530
330
453
100
AcDbEntity
  8
Bemaßungen(MSL)
  6
Continuous
 62
     7
440
 16777216
370
     5
100
AcDbMText
 10
42.85498440202389
 20
139.8401366029372
 30
0.0
 40
3.5
 41
0.0
 46
0.0
 71
     1
 72
     1
  1
\A1;12
  7
NORMAL-MSL
 11
0.0000000000000001
 21
1.0
 31
0.0
 73
     1
 44
1.0
  0
POINT
  5
531
330
453
100
AcDbEntity
  8
Defpoints
  6
Continuous
 62
     0
440
 16777216
100
AcDbPoint
 10
60.46930911552225
 20
136.1643180625776
 30
0.0
  0
POINT
  5
532
330
453
100
AcDbEntity
  8
Defpoints
  6
Continuous
 62
     0
440
 16777216
100
AcDbPoint
 10
60.46930911552225
 20
148.1643180625775
 30
0.0
  0
POINT
  5
533
330
453
100
AcDbEntity
  8
Defpoints
  6
Continuous
 62
     0
440
 16777216
100
AcDbPoint
 10
47.36930911552227
 20
148.1643180625775
 30
0.0
  0
ENDBLK
  5
455
330
453
100
AcDbEntity
  8
0
100
AcDbBlockEnd
  0
BLOCK
  5
536
330
535
100
AcDbEntity
  8
0
100
AcDbBlockBegin
  2
*D12
 70
     1
 10
0.0
 20
0.0
 30
0.0
  3
*D12
  1

  0
LINE
  5
627
330
535
100
AcDbEntity
  8
Bemaßungen(MSL)
  6
Continuous
 62
     5
440
 16777216
370
     0
100
AcDbLine
 10
140.3938424013556
 20
186.5353835835005
 30
0.0
 11
140.3938424013556
 21
166.3353835835005
 31
0.0
  0
LINE
  5
628
330
535
100
AcDbEntity
  8
Bemaßungen(MSL)
  6
Continuous
 62
     5
440
 16777216
370
     0
100
AcDbLine
 10
144.3938424013556
 20
186.5353835835005
 30
0.0
 11
144.3938424013556
 21
166.3353835835005
 31
0.0
  0
LINE
  5
629
330
535
100
AcDbEntity
  8
Bemaßungen(MSL)
  6
Continuous
 62
     5
440
 16777216
370
     0
100
AcDbLine
 10
136.8938424013556
 20
167.3353835835005
 30
0.0
 11
133.3938424013556
 21
167.3353835835005
 31
0.0
  0
LINE
  5
62A
330
535
100
AcDbEntity
  8
Bemaßungen(MSL)
  6
Continuous
 62
     5
440
 16777216
370
     0
100
AcDbLine
 10
147.8938424013556
 20
167.3353835835005
 30
0.0
 11
155.8147155395943
 21
167.3353835835005
 31
0.0
  0
LINE
  5
62B
330
535
100
AcDbEntity
  8
Bemaßungen(MSL)
  6
Continuous
 62
     5
440
 16777216
370
     0
100
AcDbLine
 10
140.3938424013556
 20
167.3353835835005
 30
0.0
 11
144.3938424013556
 21
167.3353835835005
 31
0.0
  0
INSERT
  5
62C
330
535
100
AcDbEntity
  8
Bemaßungen(MSL)
  6
Continuous
 62
     5
440
 16777216
370
     0
100
AcDbBlockReference
  2
Filled-1
 10
140.3938424013556
 20
167.3353835835005
 30
0.0
 41
3.5
 42
3.5
 43
3.5
  0
INSERT
  5
62D
330
535
100
AcDbEntity
  8
Bemaßungen(MSL)
  6
Continuous
 62
     5
440
 16777216
370
     0
100
AcDbBlockReference
  2
Filled-1
 10
144.3938424013556
 20
167.3353835835005
 30
0.0
 41
3.5
 42
3.5
 43
3.5
 50
180.0
  0
MTEXT
  5
62E
330
535
100
AcDbEntity
  8
Bemaßungen(MSL)
  6
Continuous
 62
     7
440
 16777216
370
     5
100
AcDbMText
 10
152.3938424013556
 20
171.8353836038732
 30
0.0
 40
3.5
 41
0.0
 46
0.0
 71
     1
 72
     1
  1
\A1;4
  7
NORMAL-MSL
 73
     1
 44
1.0
  0
POINT
  5
62F
330
535
100
AcDbEntity
  8
Defpoints
  6
Continuous
 62
     0
440
 16777216
100
AcDbPoint
 10
140.3938424013556
 20
186.5353835835005
 30
0.0
  0
POINT
  5
630
330
535
100
AcDbEntity
  8
Defpoints
  6
Continuous
 62
     0
440
 16777216
100
AcDbPoint
 10
144.3938424013556
 20
186.5353835835005
 30
0.0
  0
POINT
  5
631
330
535
100
AcDbEntity
  8
Defpoints
  6
Continuous
 62
     0
440
 16777216
100
AcDbPoint
 10
144.3938424013556
 20
167.3353835835005
 30
0.0
  0
ENDBLK
  5
537
330
535
100
AcDbEntity
  8
0
100
AcDbBlockEnd
  0
BLOCK
  5
634
330
633
100
AcDbEntity
  8
0
100
AcDbBlockBegin
  2
*D13
 70
     1
 10
0.0
 20
0.0
 30
0.0
  3
*D13
  1

  0
LINE
  5
727
330
633
100
AcDbEntity
  8
Bemaßungen(MSL)
  6
Continuous
 62
     5
440
 16777216
370
     0
100
AcDbLine
 10
142.6938424013556
 20
188.234347989433
 30
0.0
 11
134.3936584404216
 21
188.234347989433
 31
0.0
  0
LINE
  5
728
330
633
100
AcDbEntity
  8
Bemaßungen(MSL)
  6
Continuous
 62
     5
440
 16777216
370
     0
100
AcDbLine
 10
140.6938424013556
 20
186.2355663353948
 30
0.0
 11
134.3936584404216
 21
186.2355663353948
 31
0.0
  0
LINE
  5
729
330
633
100
AcDbEntity
  8
Bemaßungen(MSL)
  6
Continuous
 62
     5
440
 16777216
370
     0
100
AcDbLine
 10
135.3936584404216
 20
191.734347989433
 30
0.0
 11
135.3936584404217
 21
195.234347989433
 31
0.0
  0
LINE
  5
72A
330
633
100
AcDbEntity
  8
Bemaßungen(MSL)
  6
Continuous
 62
     5
440
 16777216
370
     0
100
AcDbLine
 10
135.3936584404216
 20
182.7355663353948
 30
0.0
 11
135.3936584404216
 21
174.9173534978901
 31
0.0
  0
LINE
  5
72B
330
633
100
AcDbEntity
  8
Bemaßungen(MSL)
  6
Continuous
 62
     5
440
 16777216
370
     0
100
AcDbLine
 10
135.3936584404216
 20
188.234347989433
 30
0.0
 11
135.3936584404216
 21
186.2355663353948
 31
0.0
  0
INSERT
  5
72C
330
633
100
AcDbEntity
  8
Bemaßungen(MSL)
  6
Continuous
 62
     5
440
 16777216
370
     0
100
AcDbBlockReference
  2
Filled-1
 10
135.3936584404216
 20
188.234347989433
 30
0.0
 41
3.5
 42
3.5
 43
3.5
 50
270.0
  0
INSERT
  5
72D
330
633
100
AcDbEntity
  8
Bemaßungen(MSL)
  6
Continuous
 62
     5
440
 16777216
370
     0
100
AcDbBlockReference
  2
Filled-1
 10
135.3936584404216
 20
186.2355663353948
 30
0.0
 41
3.5
 42
3.5
 43
3.5
 50
90.0
  0
MTEXT
  5
72E
330
633
100
AcDbEntity
  8
Bemaßungen(MSL)
  6
Continuous
 62
     7
440
 16777216
370
     5
100
AcDbMText
 10
130.8793337269233
 20
175.9173534978901
 30
0.0
 40
3.5
 41
0.0
 46
0.0
 71
     1
 72
     1
  1
\A1;2
  7
NORMAL-MSL
 11
0.0000000000000001
 21
1.0
 31
0.0
 73
     1
 44
1.0
  0
POINT
  5
72F
330
633
100
AcDbEntity
  8
Defpoints
  6
Continuous
 62
     0
440
 16777216
100
AcDbPoint
 10
142.6938424013556
 20
188.234347989433
 30
0.0
  0
POINT
  5
730
330
633
100
AcDbEntity
  8
Defpoints
  6
Continuous
 62
     0
440
 16777216
100
AcDbPoint
 10
140.6938424013556
 20
186.2355663353948
 30
0.0
  0
POINT
  5
731
330
633
100
AcDbEntity
  8
Defpoints
  6
Continuous
 62
     0
440
 16777216
100
AcDbPoint
 10
135.3936584404216
 20
186.2355663353948
 30
0.0
  0
ENDBLK
  5
635
330
633
100
AcDbEntity
  8
0
100
AcDbBlockEnd
  0
BLOCK
  5
734
330
733
100
AcDbEntity
  8
0
100
AcDbBlockBegin
  2
*D14
 70
     1
 10
0.0
 20
0.0
 30
0.0
  3
*D14
  1

  0
LINE
  5
80B
330
733
100
AcDbEntity
  8
Bemaßungen(MSL)
  6
Continuous
 62
     5
440
 16777216
370
     0
100
AcDbLine
 10
140.6938424013485
 20
189.8635134019604
 30
0.0
 11
125.4299698153928
 21
189.8635134019604
 31
0.0
  0
LINE
  5
80C
330
733
100
AcDbEntity
  8
Bemaßungen(MSL)
  6
Continuous
 62
     5
440
 16777216
370
     0
100
AcDbLine
 10
140.3938424013489
 20
215.8982656878092
 30
0.0
 11
125.4299698153928
 21
215.8982656878092
 31
0.0
  0
LINE
  5
80D
330
733
100
AcDbEntity
  8
Bemaßungen(MSL)
  6
Continuous
 62
     5
440
 16777216
370
     0
100
AcDbLine
 10
126.4299698153928
 20
193.3635134019604
 30
0.0
 11
126.4299698153928
 21
212.3982656878092
 31
0.0
  0
INSERT
  5
80E
330
733
100
AcDbEntity
  8
Bemaßungen(MSL)
  6
Continuous
 62
     5
440
 16777216
370
     0
100
AcDbBlockReference
  2
Filled-1
 10
126.4299698153928
 20
189.8635134019604
 30
0.0
 41
3.5
 42
3.5
 43
3.5
 50
270.0
  0
INSERT
  5
80F
330
733
100
AcDbEntity
  8
Bemaßungen(MSL)
  6
Continuous
 62
     5
440
 16777216
370
     0
100
AcDbBlockReference
  2
Filled-1
 10
126.4299698153928
 20
215.8982656878092
 30
0.0
 41
3.5
 42
3.5
 43
3.5
 50
90.0
  0
MTEXT
  5
810
330
733
100
AcDbEntity
  8
Bemaßungen(MSL)
  6
Continuous
 62
     7
440
 16777216
370
     5
100
AcDbMText
 10
121.8559588805374
 20
200.3282640043382
 30
0.0
 40
3.5
 41
0.0
 46
0.0
 71
     1
 72
     1
  1
\A1;26
  7
NORMAL-MSL
 11
0.0000000000000001
 21
1.0
 31
0.0
 73
     1
 44
1.0
  0
POINT
  5
811
330
733
100
AcDbEntity
  8
Defpoints
  6
Continuous
 62
     0
440
 16777216
100
AcDbPoint
 10
140.6938424013485
 20
189.8635134019604
 30
0.0
  0
POINT
  5
812
330
733
100
AcDbEntity
  8
Defpoints
  6
Continuous
 62
     0
440
 16777216
100
AcDbPoint
 10
140.3938424013489
 20
215.8982656878092
 30
0.0
  0
POINT
  5
813
330
733
100
AcDbEntity
  8
Defpoints
  6
Continuous
 62
     0
440
 16777216
100
AcDbPoint
 10
126.4299698153928
 20
215.8982656878092
 30
0.0
  0
ENDBLK
  5
735
330
733
100
AcDbEntity
  8
0
100
AcDbBlockEnd
  0
BLOCK
  5
816
330
815
100
AcDbEntity
  8
0
100
AcDbBlockBegin
  2
*D15
 70
     1
 10
0.0
 20
0.0
 30
0.0
  3
*D15
  1

  0
LINE
  5
8B6
330
815
100
AcDbEntity
  8
Bemaßungen(MSL)
  6
Continuous
 62
     5
440
 16777216
370
     0
100
AcDbLine
 10
77.71673034762312
 20
136.2141007416324
 30
0.0
 11
80.05622713666728
 21
133.6108806637189
 31
0.0
  0
LINE
  5
8B7
330
815
100
AcDbEntity
  8
Bemaßungen(MSL)
  6
Continuous
 62
     5
440
 16777216
370
     0
100
AcDbLine
 10
67.02188788342136
 20
148.1145353835228
 30
0.0
 11
58.36828762821332
 21
157.7436257229882
 31
0.0
  0
LINE
  5
8B8
330
815
100
AcDbEntity
  8
Bemaßungen(MSL)
  6
Continuous
 62
     5
440
 16777216
370
     0
100
AcDbLine
 10
58.36828762821332
 20
157.7436257229882
 30
0.0
 11
54.86828762821332
 21
157.7436257229882
 31
0.0
  0
LINE
  5
8B9
330
815
100
AcDbEntity
  8
Bemaßungen(MSL)
  6
Continuous
 62
     5
440
 16777216
370
     0
100
AcDbLine
 10
75.37723355857898
 20
138.8173208195459
 30
0.0
 11
69.3613846724655
 21
145.5113153056093
 31
0.0
  0
INSERT
  5
8BA
330
815
100
AcDbEntity
  8
Bemaßungen(MSL)
  6
Continuous
 62
     5
440
 16777216
370
     0
100
AcDbBlockReference
  2
Filled-1
 10
75.37723355857898
 20
138.8173208195459
 30
0.0
 41
3.5
 42
3.5
 43
3.5
 50
131.9458260757553
  0
INSERT
  5
8BB
330
815
100
AcDbEntity
  8
Bemaßungen(MSL)
  6
Continuous
 62
     5
440
 16777216
370
     0
100
AcDbBlockReference
  2
Filled-1
 10
69.3613846724655
 20
145.5113153056093
 30
0.0
 41
3.5
 42
3.5
 43
3.5
 50
311.9458260757553
  0
MTEXT
  5
8BC
330
815
100
AcDbEntity
  8
Bemaßungen(MSL)
  6
Continuous
 62
     7
440
 16777216
370
     5
100
AcDbMText
 10
47.7588060101139
 20
159.6285165934413
 30
0.0
 40
3.5
 41
0.0
 46
0.0
 71
     1
 72
     1
  1
\A1;∅9
  7
NORMAL-MSL
 73
     1
 44
1.0
  0
POINT
  5
8BD
330
815
100
AcDbEntity
  8
Defpoints
  6
Continuous
 62
     0
440
 16777216
100
AcDbPoint
 10
69.3613846724655
 20
145.5113153056093
 30
0.0
  0
POINT
  5
8BE
330
815
100
AcDbEntity
  8
Defpoints
  6
Continuous
 62
     0
440
 16777216
100
AcDbPoint
 10
75.37723355857898
 20
138.8173208195459
 30
0.0
  0
ENDBLK
  5
817
330
815
100
AcDbEntity
  8
0
100
AcDbBlockEnd
  0
BLOCK
  5
8C1
330
8C0
100
AcDbEntity
  8
0
100
AcDbBlockBegin
  2
*D16
 70
     1
 10
0.0
 20
0.0
 30
0.0
  3
*D16
  1

  0
LINE
  5
998
330
8C0
100
AcDbEntity
  8
Bemaßungen(MSL)
  6
Continuous
 62
     5
440
 16777216
370
     0
100
AcDbLine
 10
72.36930911552224
 20
142.1643180625776
 30
0.0
 11
72.36930911552224
 21
158.8328506090519
 31
0.0
  0
LINE
  5
999
330
8C0
100
AcDbEntity
  8
Bemaßungen(MSL)
  6
Continuous
 62
     5
440
 16777216
370
     0
100
AcDbLine
 10
86.36802985226234
 20
148.1643180625769
 30
0.0
 11
86.36802985226234
 21
158.8328506090519
 31
0.0
  0
LINE
  5
99A
330
8C0
100
AcDbEntity
  8
Bemaßungen(MSL)
  6
Continuous
 62
     5
440
 16777216
370
     0
100
AcDbLine
 10
75.86930911552224
 20
157.8328506090519
 30
0.0
 11
82.86802985226234
 21
157.8328506090519
 31
0.0
  0
INSERT
  5
99B
330
8C0
100
AcDbEntity
  8
Bemaßungen(MSL)
  6
Continuous
 62
     5
440
 16777216
370
     0
100
AcDbBlockReference
  2
Filled-1
 10
72.36930911552224
 20
157.8328506090519
 30
0.0
 41
3.5
 42
3.5
 43
3.5
 50
180.0
  0
INSERT
  5
99C
330
8C0
100
AcDbEntity
  8
Bemaßungen(MSL)
  6
Continuous
 62
     5
440
 16777216
370
     0
100
AcDbBlockReference
  2
Filled-1
 10
86.36802985226234
 20
157.8328506090519
 30
0.0
 41
3.5
 42
3.5
 43
3.5
  0
MTEXT
  5
99D
330
8C0
100
AcDbEntity
  8
Bemaßungen(MSL)
  6
Continuous
 62
     7
440
 16777216
370
     5
100
AcDbMText
 10
77.0343841360376
 20
162.3471753225502
 30
0.0
 40
3.5
 41
0.0
 46
0.0
 71
     1
 72
     1
  1
\A1;14
  7
NORMAL-MSL
 73
     1
 44
1.0
  0
POINT
  5
99E
330
8C0
100
AcDbEntity
  8
Defpoints
  6
Continuous
 62
     0
440
 16777216
100
AcDbPoint
 10
72.36930911552224
 20
142.1643180625776
 30
0.0
  0
POINT
  5
99F
330
8C0
100
AcDbEntity
  8
Defpoints
  6
Continuous
 62
     0
440
 16777216
100
AcDbPoint
 10
86.36802985226234
 20
148.1643180625769
 30
0.0
  0
POINT
  5
9A0
330
8C0
100
AcDbEntity
  8
Defpoints
  6
Continuous
 62
     0
440
 16777216
100
AcDbPoint
 10
86.36802985226234
 20
157.8328506090519
 30
0.0
  0
ENDBLK
  5
8C2
330
8C0
100
AcDbEntity
  8
0
100
AcDbBlockEnd
  0
BLOCK
  5
9A3
330
9A2
100
AcDbEntity
  8
0
100
AcDbBlockBegin
  2
*D17
 70
     1
 10
0.0
 20
0.0
 30
0.0
  3
*D17
  1

  0
LINE
  5
A96
330
9A2
100
AcDbEntity
  8
Bemaßungen(MSL)
  6
Continuous
 62
     5
440
 16777216
370
     0
100
AcDbLine
 10
72.36930911552224
 20
142.1643180625776
 30
0.0
 11
98.61142719609324
 21
142.1643180625776
 31
0.0
  0
LINE
  5
A97
330
9A2
100
AcDbEntity
  8
Bemaßungen(MSL)
  6
Continuous
 62
     5
440
 16777216
370
     0
100
AcDbLine
 10
84.26930911552224
 20
148.1643180625775
 30
0.0
 11
98.61142719609324
 21
148.1643180625775
 31
0.0
  0
LINE
  5
A98
330
9A2
100
AcDbEntity
  8
Bemaßungen(MSL)
  6
Continuous
 62
     5
440
 16777216
370
     0
100
AcDbLine
 10
97.61142719609324
 20
138.6643180625776
 30
0.0
 11
97.61142719609324
 21
135.1643180625776
 31
0.0
  0
LINE
  5
A99
330
9A2
100
AcDbEntity
  8
Bemaßungen(MSL)
  6
Continuous
 62
     5
440
 16777216
370
     0
100
AcDbLine
 10
97.61142719609324
 20
151.6643180625775
 30
0.0
 11
97.61142719609324
 21
155.1643180625775
 31
0.0
  0
LINE
  5
A9A
330
9A2
100
AcDbEntity
  8
Bemaßungen(MSL)
  6
Continuous
 62
     5
440
 16777216
370
     0
100
AcDbLine
 10
97.61142719609324
 20
142.1643180625776
 30
0.0
 11
97.61142719609324
 21
148.1643180625775
 31
0.0
  0
INSERT
  5
A9B
330
9A2
100
AcDbEntity
  8
Bemaßungen(MSL)
  6
Continuous
 62
     5
440
 16777216
370
     0
100
AcDbBlockReference
  2
Filled-1
 10
97.61142719609324
 20
142.1643180625776
 30
0.0
 41
3.5
 42
3.5
 43
3.5
 50
90.0
  0
INSERT
  5
A9C
330
9A2
100
AcDbEntity
  8
Bemaßungen(MSL)
  6
Continuous
 62
     5
440
 16777216
370
     0
100
AcDbBlockReference
  2
Filled-1
 10
97.61142719609324
 20
148.1643180625775
 30
0.0
 41
3.5
 42
3.5
 43
3.5
 50
270.0
  0
MTEXT
  5
A9D
330
9A2
100
AcDbEntity
  8
Bemaßungen(MSL)
  6
Continuous
 62
     7
440
 16777216
370
     5
100
AcDbMText
 10
93.03741626123789
 20
144.0087928171067
 30
0.0
 40
3.5
 41
0.0
 46
0.0
 71
     1
 72
     1
  1
\A1;6
  7
NORMAL-MSL
 11
0.0000000000000001
 21
1.0
 31
0.0
 73
     1
 44
1.0
  0
POINT
  5
A9E
330
9A2
100
AcDbEntity
  8
Defpoints
  6
Continuous
 62
     0
440
 16777216
100
AcDbPoint
 10
72.36930911552224
 20
142.1643180625776
 30
0.0
  0
POINT
  5
A9F
330
9A2
100
AcDbEntity
  8
Defpoints
  6
Continuous
 62
     0
440
 16777216
100
AcDbPoint
 10
84.26930911552224
 20
148.1643180625775
 30
0.0
  0
POINT
  5
AA0
330
9A2
100
AcDbEntity
  8
Defpoints
  6
Continuous
 62
     0
440
 16777216
100
AcDbPoint
 10
97.61142719609324
 20
148.1643180625775
 30
0.0
  0
ENDBLK
  5
9A4
330
9A2
100
AcDbEntity
  8
0
100
AcDbBlockEnd
  0
BLOCK
  5
AA3
330
AA2
100
AcDbEntity
  8
0
100
AcDbBlockBegin
  2
*D18
 70
     1
 10
0.0
 20
0.0
 30
0.0
  3
*D18
  1

  0
LINE
  5
B94
330
AA2
100
AcDbEntity
  8
Bemaßungen(MSL)
  6
Continuous
 62
     5
440
 16777216
370
     0
100
AcDbLine
 10
150.3938424013485
 20
187.1651581690088
 30
0.0
 11
150.3938424013485
 21
175.5873727095046
 31
0.0
  0
LINE
  5
B95
330
AA2
100
AcDbEntity
  8
Bemaßungen(MSL)
  6
Continuous
 62
     5
440
 16777216
370
     0
100
AcDbLine
 10
152.3938424013485
 20
187.1651581690088
 30
0.0
 11
152.3938424013485
 21
175.5873727095046
 31
0.0
  0
LINE
  5
B96
330
AA2
100
AcDbEntity
  8
Bemaßungen(MSL)
  6
Continuous
 62
     5
440
 16777216
370
     0
100
AcDbLine
 10
146.8938424013485
 20
176.5873727095046
 30
0.0
 11
143.3938424013485
 21
176.5873727095046
 31
0.0
  0
LINE
  5
B97
330
AA2
100
AcDbEntity
  8
Bemaßungen(MSL)
  6
Continuous
 62
     5
440
 16777216
370
     0
100
AcDbLine
 10
155.8938424013485
 20
176.5873727095046
 30
0.0
 11
163.7120552388532
 21
176.5873727095046
 31
0.0
  0
LINE
  5
B98
330
AA2
100
AcDbEntity
  8
Bemaßungen(MSL)
  6
Continuous
 62
     5
440
 16777216
370
     0
100
AcDbLine
 10
150.3938424013485
 20
176.5873727095046
 30
0.0
 11
152.3938424013485
 21
176.5873727095046
 31
0.0
  0
INSERT
  5
B99
330
AA2
100
AcDbEntity
  8
Bemaßungen(MSL)
  6
Continuous
 62
     5
440
 16777216
370
     0
100
AcDbBlockReference
  2
Filled-1
 10
150.3938424013485
 20
176.5873727095046
 30
0.0
 41
3.5
 42
3.5
 43
3.5
  0
INSERT
  5
B9A
330
AA2
100
AcDbEntity
  8
Bemaßungen(MSL)
  6
Continuous
 62
     5
440
 16777216
370
     0
100
AcDbBlockReference
  2
Filled-1
 10
152.3938424013485
 20
176.5873727095046
 30
0.0
 41
3.5
 42
3.5
 43
3.5
 50
180.0
  0
MTEXT
  5
B9B
330
AA2
100
AcDbEntity
  8
Bemaßungen(MSL)
  6
Continuous
 62
     7
440
 16777216
370
     5
100
AcDbMText
 10
160.3938424013485
 20
181.101697423003
 30
0.0
 40
3.5
 41
0.0
 46
0.0
 71
     1
 72
     1
  1
\A1;2
  7
NORMAL-MSL
 73
     1
 44
1.0
  0
POINT
  5
B9C
330
AA2
100
AcDbEntity
  8
Defpoints
  6
Continuous
 62
     0
440
 16777216
100
AcDbPoint
 10
150.3938424013485
 20
187.1651581690088
 30
0.0
  0
POINT
  5
B9D
330
AA2
100
AcDbEntity
  8
Defpoints
  6
Continuous
 62
     0
440
 16777216
100
AcDbPoint
 10
152.3938424013485
 20
187.1651581690088
 30
0.0
  0
POINT
  5
B9E
330
AA2
100
AcDbEntity
  8
Defpoints
  6
Continuous
 62
     0
440
 16777216
100
AcDbPoint
 10
152.3938424013485
 20
176.5873727095046
 30
0.0
  0
ENDBLK
  5
AA4
330
AA2
100
AcDbEntity
  8
0
100
AcDbBlockEnd
  0
BLOCK
  5
BA1
330
BA0
100
AcDbEntity
  8
0
100
AcDbBlockBegin
  2
*D19
 70
     1
 10
0.0
 20
0.0
 30
0.0
  3
*D19
  1

  0
LINE
  5
C78
330
BA0
100
AcDbEntity
  8
Bemaßungen(MSL)
  6
Continuous
 62
     5
440
 16777216
370
     0
100
AcDbLine
 10
152.0938424013485
 20
186.8653409209031
 30
0.0
 11
168.0844228444553
 21
186.8653409209031
 31
0.0
  0
LINE
  5
C79
330
BA0
100
AcDbEntity
  8
Bemaßungen(MSL)
  6
Continuous
 62
     5
440
 16777216
370
     0
100
AcDbLine
 10
152.3938424013488
 20
215.8982656878092
 30
0.0
 11
168.0844228444553
 21
215.8982656878092
 31
0.0
  0
LINE
  5
C7A
330
BA0
100
AcDbEntity
  8
Bemaßungen(MSL)
  6
Continuous
 62
     5
440
 16777216
370
     0
100
AcDbLine
 10
167.0844228444553
 20
190.3653409209031
 30
0.0
 11
167.0844228444553
 21
212.3982656878092
 31
0.0
  0
INSERT
  5
C7B
330
BA0
100
AcDbEntity
  8
Bemaßungen(MSL)
  6
Continuous
 62
     5
440
 16777216
370
     0
100
AcDbBlockReference
  2
Filled-1
 10
167.0844228444553
 20
186.8653409209031
 30
0.0
 41
3.5
 42
3.5
 43
3.5
 50
270.0
  0
INSERT
  5
C7C
330
BA0
100
AcDbEntity
  8
Bemaßungen(MSL)
  6
Continuous
 62
     5
440
 16777216
370
     0
100
AcDbBlockReference
  2
Filled-1
 10
167.0844228444553
 20
215.8982656878092
 30
0.0
 41
3.5
 42
3.5
 43
3.5
 50
90.0
  0
MTEXT
  5
C7D
330
BA0
100
AcDbEntity
  8
Bemaßungen(MSL)
  6
Continuous
 62
     7
440
 16777216
370
     5
100
AcDbMText
 10
162.5104119095999
 20
198.3253166255722
 30
0.0
 40
3.5
 41
0.0
 46
0.0
 71
     1
 72
     1
  1
\A1;29
  7
NORMAL-MSL
 11
0.0000000000000001
 21
1.0
 31
0.0
 73
     1
 44
1.0
  0
POINT
  5
C7E
330
BA0
100
AcDbEntity
  8
Defpoints
  6
Continuous
 62
     0
440
 16777216
100
AcDbPoint
 10
152.0938424013485
 20
186.8653409209031
 30
0.0
  0
POINT
  5
C7F
330
BA0
100
AcDbEntity
  8
Defpoints
  6
Continuous
 62
     0
440
 16777216
100
AcDbPoint
 10
152.3938424013488
 20
215.8982656878092
 30
0.0
  0
POINT
  5
C80
330
BA0
100
AcDbEntity
  8
Defpoints
  6
Continuous
 62
     0
440
 16777216
100
AcDbPoint
 10
167.0844228444553
 20
215.8982656878092
 30
0.0
  0
ENDBLK
  5
BA2
330
BA0
100
AcDbEntity
  8
0
100
AcDbBlockEnd
  0
BLOCK
  5
CC5
330
CC4
100
AcDbEntity
  8
0
100
AcDbBlockBegin
  2
*D20
 70
     1
 10
0.0
 20
0.0
 30
0.0
  3
*D20
  1

  0
LINE
  5
D9C
330
CC4
100
AcDbEntity
  8
Bemaßungen(MSL)
  6
Continuous
 62
     5
440
 16777216
370
     0
100
AcDbLine
 10
58.37058837879941
 20
213.724976744734
 30
0.0
 11
58.37058837879941
 21
227.9951828925366
 31
0.0
  0
LINE
  5
D9D
330
CC4
100
AcDbEntity
  8
Bemaßungen(MSL)
  6
Continuous
 62
     5
440
 16777216
370
     0
100
AcDbLine
 10
86.36802985227959
 20
213.724976744734
 30
0.0
 11
86.36802985227959
 21
227.9951828925366
 31
0.0
  0
LINE
  5
D9E
330
CC4
100
AcDbEntity
  8
Bemaßungen(MSL)
  6
Continuous
 62
     5
440
 16777216
370
     0
100
AcDbLine
 10
61.87058837879941
 20
226.9951828925365
 30
0.0
 11
82.86802985227959
 21
226.9951828925365
 31
0.0
  0
INSERT
  5
D9F
330
CC4
100
AcDbEntity
  8
Bemaßungen(MSL)
  6
Continuous
 62
     5
440
 16777216
370
     0
100
AcDbBlockReference
  2
Filled-1
 10
58.37058837879941
 20
226.9951828925365
 30
0.0
 41
3.5
 42
3.5
 43
3.5
 50
180.0
  0
INSERT
  5
DA0
330
CC4
100
AcDbEntity
  8
Bemaßungen(MSL)
  6
Continuous
 62
     5
440
 16777216
370
     0
100
AcDbBlockReference
  2
Filled-1
 10
86.36802985227959
 20
226.9951828925365
 30
0.0
 41
3.5
 42
3.5
 43
3.5
  0
MTEXT
  5
DA1
330
CC4
100
AcDbEntity
  8
Bemaßungen(MSL)
  6
Continuous
 62
     7
440
 16777216
370
     5
100
AcDbMText
 10
69.82906353458687
 20
231.5691938273919
 30
0.0
 40
3.5
 41
0.0
 46
0.0
 71
     1
 72
     1
  1
\A1;28
  7
NORMAL-MSL
 73
     1
 44
1.0
  0
POINT
  5
DA2
330
CC4
100
AcDbEntity
  8
Defpoints
  6
Continuous
 62
     0
440
 16777216
100
AcDbPoint
 10
58.37058837879941
 20
213.724976744734
 30
0.0
  0
POINT
  5
DA3
330
CC4
100
AcDbEntity
  8
Defpoints
  6
Continuous
 62
     0
440
 16777216
100
AcDbPoint
 10
86.36802985227959
 20
213.724976744734
 30
0.0
  0
POINT
  5
DA4
330
CC4
100
AcDbEntity
  8
Defpoints
  6
Continuous
 62
     0
440
 16777216
100
AcDbPoint
 10
86.36802985227959
 20
226.9951828925365
 30
0.0
  0
ENDBLK
  5
CC6
330
CC4
100
AcDbEntity
  8
0
100
AcDbBlockEnd
  0
BLOCK
  5
DA7
330
DA6
100
AcDbEntity
  8
0
100
AcDbBlockBegin
  2
*D21
 70
     1
 10
0.0
 20
0.0
 30
0.0
  3
*D21
  1

  0
LINE
  5
E91
330
DA6
100
AcDbEntity
  8
Bemaßungen(MSL)
  6
Continuous
 62
     5
440
 16777216
370
     0
100
AcDbLine
 10
80.40776291280858
 20
200.6406589453948
 30
0.0
 11
76.90989501824174
 21
200.7628071838536
 31
0.0
  0
LINE
  5
E92
330
DA6
100
AcDbEntity
  8
Bemaßungen(MSL)
  6
Continuous
 62
     5
440
 16777216
370
     0
100
AcDbLine
 10
89.40228035598043
 20
200.3265634750723
 30
0.0
 11
97.21573054946572
 21
200.0537117819304
 31
0.0
  0
LINE
  5
E93
330
DA6
100
AcDbEntity
  8
Bemaßungen(MSL)
  6
Continuous
 62
     5
440
 16777216
370
     0
100
AcDbLine
 10
83.90563080737541
 20
200.5185107069361
 30
0.0
 11
85.90441246141358
 21
200.4487117135311
 31
0.0
  0
INSERT
  5
E94
330
DA6
100
AcDbEntity
  8
Bemaßungen(MSL)
  6
Continuous
 62
     5
440
 16777216
370
     0
100
AcDbBlockReference
  2
Filled-1
 10
83.90563080737541
 20
200.5185107069361
 30
0.0
 41
3.5
 42
3.5
 43
3.5
 50
358.0
  0
INSERT
  5
E95
330
DA6
100
AcDbEntity
  8
Bemaßungen(MSL)
  6
Continuous
 62
     5
440
 16777216
370
     0
100
AcDbBlockReference
  2
Filled-1
 10
85.90441246141358
 20
200.4487117135311
 30
0.0
 41
3.5
 42
3.5
 43
3.5
 50
178.0
  0
MTEXT
  5
E96
330
DA6
100
AcDbEntity
  8
Bemaßungen(MSL)
  6
Continuous
 62
     7
440
 16777216
370
     5
100
AcDbMText
 10
94.05708673801928
 20
204.6810904487669
 30
0.0
 40
3.5
 41
0.0
 46
0.0
 71
     1
 72
     1
  1
\A1;2
  7
NORMAL-MSL
 11
0.9993908270190956
 21
-0.0348994967025006
 31
0.0
 73
     1
 44
1.0
  0
POINT
  5
E97
330
DA6
100
AcDbEntity
  8
Defpoints
  6
Continuous
 62
     0
440
 16777216
100
AcDbPoint
 10
83.78977205242172
 20
197.2007500550391
 30
0.0
  0
POINT
  5
E98
330
DA6
100
AcDbEntity
  8
Defpoints
  6
Continuous
 62
     0
440
 16777216
100
AcDbPoint
 10
85.78855370645989
 20
197.1309510616341
 30
0.0
  0
POINT
  5
E99
330
DA6
100
AcDbEntity
  8
Defpoints
  6
Continuous
 62
     0
440
 16777216
100
AcDbPoint
 10
85.90441246141358
 20
200.4487117135311
 30
0.0
  0
ENDBLK
  5
DA8
330
DA6
100
AcDbEntity
  8
0
100
AcDbBlockEnd
  0
BLOCK
  5
E9C
330
E9B
100
AcDbEntity
  8
0
100
AcDbBlockBegin
  2
*D22
 70
     1
 10
0.0
 20
0.0
 30
0.0
  3
*D22
  1

  0
ARC
  5
FD1
330
E9B
100
AcDbEntity
  8
Bemaßungen(MSL)
  6
Continuous
 62
     5
440
 16777216
370
     0
100
AcDbCircle
 10
72.36930911553933
 20
-187.145935909354
 30
0.0
 40
380.8126850643507
100
AcDbArc
 50
88.52659993215972
 51
91.47340006784023
  0
INSERT
  5
FD2
330
E9B
100
AcDbEntity
  8
Bemaßungen(MSL)
  6
Continuous
 62
     5
440
 16777216
370
     0
100
AcDbBlockReference
  2
Filled-1
 10
85.65948016221348
 20
193.4347683564699
 30
0.0
 41
3.5
 42
3.5
 43
3.5
 50
358.2632999660798
  0
INSERT
  5
FD3
330
E9B
100
AcDbEntity
  8
Bemaßungen(MSL)
  6
Continuous
 62
     5
440
 16777216
370
     0
100
AcDbBlockReference
  2
Filled-1
 10
59.07913806886551
 20
193.4347683564699
 30
0.0
 41
3.5
 42
3.5
 43
3.5
 50
181.7367000339201
  0
MTEXT
  5
FD4
330
E9B
100
AcDbEntity
  8
Bemaßungen(MSL)
  6
Continuous
 62
     7
440
 16777216
370
     5
100
AcDbMText
 10
67.46258123334975
 20
198.1414707633161
 30
0.0
 40
3.5
 41
0.0
 46
0.0
 71
     1
 72
     1
  1
\A1;4\U+00B0
  7
NORMAL-MSL
 11
0.9999742922053988
 21
0.0071704203720367
 31
0.0
 73
     1
 44
1.0
  0
POINT
  5
FD5
330
E9B
100
AcDbEntity
  8
Defpoints
  6
Continuous
 62
     0
440
 16777216
100
AcDbPoint
 10
72.36930911553933
 20
-187.145935909354
 30
0.0
  0
POINT
  5
FD6
330
E9B
100
AcDbEntity
  8
Defpoints
  6
Continuous
 62
     0
440
 16777216
100
AcDbPoint
 10
85.54523904016154
 20
190.1633306500661
 30
0.0
  0
POINT
  5
FD7
330
E9B
100
AcDbEntity
  8
Defpoints
  6
Continuous
 62
     0
440
 16777216
100
AcDbPoint
 10
58.37058837879941
 20
213.724976744734
 30
0.0
  0
POINT
  5
FD8
330
E9B
100
AcDbEntity
  8
Defpoints
  6
Continuous
 62
     0
440
 16777216
100
AcDbPoint
 10
76.80016592680698
 20
193.6409711841521
 30
0.0
  0
ENDBLK
  5
E9D
330
E9B
100
AcDbEntity
  8
0
100
AcDbBlockEnd
  0
BLOCK
  5
1225
330
1223
100
AcDbEntity
  8
0
100
AcDbBlockBegin
  2
GENAXEH
 70
     0
 10
0.0
 20
0.0
 30
0.0
  3
GENAXEH
  1

  0
LINE
  5
1224
330
1223
100
AcDbEntity
  8
0
100
AcDbLine
 10
-1.0
 20
0.0
 30
0.0
 11
1.0
 21
0.0
 31
0.0
  0
ENDBLK
  5
1226
330
1223
100
AcDbEntity
  8
0
100
AcDbBlockEnd
  0
BLOCK
  5
123C
330
123B
100
AcDbEntity
  8
0
100
AcDbBlockBegin
  2
_ACMFILLED30
 70
     0
 10
0.0
 20
0.0
 30
0.0
  3
_ACMFILLED30
  1

  0
TRACE
  5
123E
330
123B
100
AcDbEntity
  8
0
 62
     0
100
AcDbTrace
 10
-1.0
 20
-0.26794919
 30
0.0
 11
-1.0
 21
0.26794919
 31
0.0
 12
0.0
 22
0.0
 32
0.0
 13
0.0
 23
0.0
 33
0.0
  0
ENDBLK
  5
123D
330
123B
100
AcDbEntity
  8
0
100
AcDbBlockEnd
  0
ENDSEC
  0
SECTION
  2
ENTITIES
  0
LINE
  5
2FD
330
70
100
AcDbEntity
  8
Sichtbare Kanten(MSL)
100
AcDbLine
 10
59.30854753003569
 20
186.8653409209031
 30
0.0
 11
59.29807768102495
 21
187.1651581690088
 31
0.0
  0
LINE
  5
2FE
330
70
100
AcDbEntity
  8
Sichtbare Kanten(MSL)
100
AcDbLine
 10
59.30854753003569
 20
186.8653409209031
 30
0.0
 11
61.30732918407389
 21
186.9351399143081
 31
0.0
  0
LINE
  5
2FF
330
70
100
AcDbEntity
  8
Sichtbare Kanten(MSL)
100
AcDbLine
 10
61.29685933506313
 20
187.2349571624138
 30
0.0
 11
61.30732918407389
 21
186.9351399143081
 31
0.0
  0
LINE
  5
300
330
70
100
AcDbEntity
  8
Sichtbare Kanten(MSL)
100
AcDbLine
 10
83.53598753711262
 20
189.9333123953654
 30
0.0
 11
83.52551768810187
 21
189.6334951472597
 31
0.0
  0
LINE
  5
301
330
70
100
AcDbEntity
  8
Sichtbare Kanten(MSL)
100
AcDbLine
 10
85.52429934214005
 20
189.5636961538547
 30
0.0
 11
85.53476919115082
 21
189.8635134019604
 31
0.0
  0
LINE
  5
302
330
70
100
AcDbEntity
  8
Sichtbare Kanten(MSL)
100
AcDbLine
 10
83.48712824172912
 20
188.5341652375387
 30
0.0
 11
83.47665839271838
 21
188.234347989433
 31
0.0
  0
LINE
  5
303
330
70
100
AcDbEntity
  8
Sichtbare Kanten(MSL)
100
AcDbLine
 10
85.47544004675655
 20
188.164548996028
 30
0.0
 11
85.4859098957673
 21
188.4643662441337
 31
0.0
  0
LINE
  5
304
330
70
100
AcDbEntity
  8
Sichtbare Kanten(MSL)
100
AcDbLine
 10
85.47544004675655
 20
188.164548996028
 30
0.0
 11
83.47665839271838
 21
188.234347989433
 31
0.0
  0
LINE
  5
305
330
70
100
AcDbEntity
  8
Sichtbare Kanten(MSL)
100
AcDbLine
 10
85.47544004675655
 20
188.1645489960279
 30
0.0
 11
85.4649701977458
 21
187.8647317479222
 31
0.0
  0
LINE
  5
306
330
70
100
AcDbEntity
  8
Sichtbare Kanten(MSL)
100
AcDbLine
 10
83.46618854370762
 20
187.9345307413272
 30
0.0
 11
83.47665839271838
 21
188.2343479894329
 31
0.0
  0
LINE
  5
307
330
70
100
AcDbEntity
  8
Sichtbare Kanten(MSL)
100
AcDbLine
 10
83.5359875371126
 20
189.9333123953654
 30
0.0
 11
83.54645738612335
 21
190.2331296434711
 31
0.0
  0
LINE
  5
308
330
70
100
AcDbEntity
  8
Sichtbare Kanten(MSL)
100
AcDbLine
 10
83.40685939931336
 20
186.2355663353948
 30
0.0
 11
83.41732924832411
 21
186.5353835835005
 31
0.0
  0
LINE
  5
309
330
70
100
AcDbEntity
  8
Sichtbare Kanten(MSL)
100
AcDbLine
 10
85.4161109023623
 20
186.4655845900955
 30
0.0
 11
85.40564105335155
 21
186.1657673419898
 31
0.0
  0
LINE
  5
30A
330
70
100
AcDbEntity
  8
Sichtbare Kanten(MSL)
100
AcDbLine
 10
83.40685939931336
 20
186.2355663353948
 30
0.0
 11
85.40564105335155
 21
186.1657673419898
 31
0.0
  0
LINE
  5
30B
330
70
100
AcDbEntity
  8
Sichtbare Kanten(MSL)
100
AcDbLine
 10
85.54523904016154
 20
190.1633306500661
 30
0.0
 11
85.53476919115079
 21
189.8635134019604
 31
0.0
  0
LINE
  5
30C
330
70
100
AcDbEntity
  8
Sichtbare Kanten(MSL)
100
AcDbLine
 10
83.5359875371126
 20
189.9333123953654
 30
0.0
 11
85.53476919115079
 21
189.8635134019604
 31
0.0
  0
LINE
  5
30D
330
70
100
AcDbEntity
  8
Verdeckte Kanten(MSL)
100
AcDbLine
 10
59.20384903992819
 20
189.8635134019604
 30
0.0
 11
61.20263069396639
 21
189.9333123953654
 31
0.0
  0
LINE
  5
30E
330
70
100
AcDbEntity
  8
Sichtbare Kanten(MSL)
100
AcDbLine
 10
58.37058837879941
 20
213.724976744734
 30
0.0
 11
59.29807768102495
 21
187.1651581690088
 31
0.0
  0
LINE
  5
30F
330
70
100
AcDbEntity
  8
Sichtbare Kanten(MSL)
100
AcDbLine
 10
61.29685933506315
 20
187.2349571624138
 30
0.0
 11
60.3693700328376
 21
213.794775738139
 31
0.0
  0
LINE
  5
310
330
70
100
AcDbEntity
  8
Sichtbare Kanten(MSL)
100
AcDbLine
 10
83.52551768810187
 20
189.6334951472597
 30
0.0
 11
83.48712824172912
 21
188.5341652375387
 31
0.0
  0
LINE
  5
311
330
70
100
AcDbEntity
  8
Sichtbare Kanten(MSL)
100
AcDbLine
 10
85.4859098957673
 20
188.4643662441337
 30
0.0
 11
85.52429934214005
 21
189.5636961538547
 31
0.0
  0
LINE
  5
312
330
70
100
AcDbEntity
  8
Sichtbare Kanten(MSL)
100
AcDbLine
 10
83.46618854370762
 20
187.9345307413273
 30
0.0
 11
83.41732924832411
 21
186.5353835835005
 31
0.0
  0
LINE
  5
313
330
70
100
AcDbEntity
  8
Sichtbare Kanten(MSL)
100
AcDbLine
 10
85.4161109023623
 20
186.4655845900955
 30
0.0
 11
85.4649701977458
 21
187.8647317479223
 31
0.0
  0
LINE
  5
314
330
70
100
AcDbEntity
  8
Sichtbare Kanten(MSL)
100
AcDbLine
 10
84.3692481982414
 20
213.794775738139
 30
0.0
 11
83.54645738612335
 21
190.2331296434711
 31
0.0
  0
LINE
  5
315
330
70
100
AcDbEntity
  8
Sichtbare Kanten(MSL)
100
AcDbLine
 10
85.54523904016154
 20
190.1633306500661
 30
0.0
 11
86.36802985227959
 21
213.724976744734
 31
0.0
  0
LINE
  5
316
330
70
100
AcDbEntity
  8
Sichtbare Kanten(MSL)
100
AcDbLine
 10
60.46930911553951
 20
213.8982656878092
 30
0.0
 11
84.26930911553951
 21
213.8982656878092
 31
0.0
  0
LINE
  5
317
330
70
100
AcDbEntity
  8
Sichtbare Kanten(MSL)
100
AcDbLine
 10
84.26930911553951
 20
215.8982656878092
 30
0.0
 11
60.46930911553951
 21
215.8982656878092
 31
0.0
  0
ARC
  5
318
330
70
100
AcDbEntity
  8
Sichtbare Kanten(MSL)
100
AcDbCircle
 10
84.26930911553951
 20
213.7982656878092
 30
0.0
 40
2.100000000000001
100
AcDbArc
 50
357.9999999999995
 51
90.0
  0
ARC
  5
319
330
70
100
AcDbEntity
  8
Sichtbare Kanten(MSL)
100
AcDbCircle
 10
84.26930911553951
 20
213.7982656878092
 30
0.0
 40
0.1000000000000002
100
AcDbArc
 50
357.9999999999898
 51
89.99999999998985
  0
ARC
  5
31A
330
70
100
AcDbEntity
  8
Sichtbare Kanten(MSL)
100
AcDbCircle
 10
60.46930911553951
 20
213.7982656878092
 30
0.0
 40
2.099999999999999
100
AcDbArc
 50
90.00000000000021
 51
182.0000000000004
  0
ARC
  5
31B
330
70
100
AcDbEntity
  8
Sichtbare Kanten(MSL)
100
AcDbCircle
 10
60.46930911553951
 20
213.7982656878092
 30
0.0
 40
0.0999999999999997
100
AcDbArc
 50
89.99999999999491
 51
182.0000000000101
  0
LINE
  5
31C
330
70
100
AcDbEntity
  8
Verdeckte Kanten(MSL)
100
AcDbLine
 10
67.86930911553949
 20
213.8982656878092
 30
0.0
 11
67.86930911553949
 21
215.8982656878092
 31
0.0
  0
LINE
  5
31D
330
70
100
AcDbEntity
  8
Verdeckte Kanten(MSL)
100
AcDbLine
 10
76.86930911553949
 20
213.8982656878092
 30
0.0
 11
76.86930911553949
 21
215.8982656878092
 31
0.0
  0
ELLIPSE
  5
31E
330
70
100
AcDbEntity
  8
Sichtbare Kanten(MSL)
100
AcDbEllipse
 10
152.0938424013485
 20
187.1651581690088
 30
0.0
 11
0.3000000000000019
 21
-0.0000000000000044
 31
0.0
210
0.0
220
0.0
230
1.0
 40
0.9993908270190953
 41
4.712388980384703
 42
6.283185307179591
  0
ELLIPSE
  5
31F
330
70
100
AcDbEntity
  8
Sichtbare Kanten(MSL)
100
AcDbEllipse
 10
140.6938424013485
 20
190.1633306500661
 30
0.0
 11
-0.3000000000000029
 21
0.0000000000000034
 31
0.0
210
0.0
220
0.0
230
1.0
 40
0.9993908270190953
 41
0.0
 42
1.570796326794908
  0
ELLIPSE
  5
320
330
70
100
AcDbEntity
  8
Sichtbare Kanten(MSL)
100
AcDbEllipse
 10
150.0938424013485
 20
189.5636961538547
 30
0.0
 11
0.3000000000000022
 21
0.0000000000000044
 31
0.0
210
0.0
220
0.0
230
1.0
 40
0.9993908270190953
 41
0.0
 42
1.570796326794822
  0
ELLIPSE
  5
321
330
70
100
AcDbEntity
  8
Sichtbare Kanten(MSL)
100
AcDbEllipse
 10
150.6938424013485
 20
187.1651581690088
 30
0.0
 11
-0.3000000000000029
 21
0.0000000000000026
 31
0.0
210
0.0
220
0.0
230
1.0
 40
0.9993908270190953
 41
0.0
 42
1.570796326794905
  0
ELLIPSE
  5
322
330
70
100
AcDbEntity
  8
Sichtbare Kanten(MSL)
100
AcDbEllipse
 10
142.6938424013556
 20
189.6334951472597
 30
0.0
 11
-0.3000000000000147
 21
-0.0000000000025252
 31
0.0
210
0.0
220
0.0
230
1.0
 40
0.9993908270190958
 41
5.408729020828225
 42
6.283185307171163
  0
ELLIPSE
  5
323
330
70
100
AcDbEntity
  8
Sichtbare Kanten(MSL)
100
AcDbEllipse
 10
142.6938424013562
 20
189.5636961538547
 30
0.0
 11
-0.3000000000000024
 21
0.0000000000000044
 31
0.0
210
0.0
220
0.0
230
1.0
 40
0.9993908270190953
 41
4.712388980384763
 42
6.283185307179611
  0
ELLIPSE
  5
324
330
70
100
AcDbEntity
  8
Sichtbare Kanten(MSL)
100
AcDbEllipse
 10
142.6938424013556
 20
188.5341652375387
 30
0.0
 11
-0.3000000000000035
 21
-0.0000000000000044
 31
0.0
210
0.0
220
0.0
230
1.0
 40
0.9993908270190953
 41
0.0
 42
1.570796326794822
  0
ELLIPSE
  5
325
330
70
100
AcDbEntity
  8
Sichtbare Kanten(MSL)
100
AcDbEllipse
 10
144.0938424013556
 20
187.9345307413272
 30
0.0
 11
0.3000000000000029
 21
-0.0000000000000034
 31
0.0
210
0.0
220
0.0
230
1.0
 40
0.9993908270190953
 41
0.0
 42
1.570796326794908
  0
LINE
  5
326
330
70
100
AcDbEntity
  8
Sichtbare Kanten(MSL)
100
AcDbLine
 10
144.3938424013562
 20
186.4655845900955
 30
0.0
 11
144.3938424013556
 21
186.5353835835005
 31
0.0
  0
ELLIPSE
  5
327
330
70
100
AcDbEntity
  8
Sichtbare Kanten(MSL)
100
AcDbEllipse
 10
140.6938424013556
 20
186.5353835835005
 30
0.0
 11
-0.3000000000000073
 21
0.0000000000000045
 31
0.0
210
0.0
220
0.0
230
1.0
 40
0.9993908270190953
 41
0.0
 42
1.570796326794911
  0
ELLIPSE
  5
328
330
70
100
AcDbEntity
  8
Sichtbare Kanten(MSL)
100
AcDbEllipse
 10
144.0938424013556
 20
186.5353835835005
 30
0.0
 11
0.2999999999999925
 21
0.0000000000000089
 31
0.0
210
0.0
220
0.0
230
1.0
 40
0.9993908270190956
 41
4.7123889803846
 42
6.283185307179567
  0
ELLIPSE
  5
329
330
70
100
AcDbEntity
  8
Sichtbare Kanten(MSL)
100
AcDbEllipse
 10
144.0938424013562
 20
186.4655845900955
 30
0.0
 11
0.2999999999999896
 21
-0.0000000000000082
 31
0.0
210
0.0
220
0.0
230
1.0
 40
0.9993908270190953
 41
4.712388980384599
 42
6.283185307179624
  0
ELLIPSE
  5
32A
330
70
100
AcDbEntity
  8
Sichtbare Kanten(MSL)
100
AcDbEllipse
 10
140.6938424013562
 20
186.4655845900955
 30
0.0
 11
-0.3000000000000035
 21
0.0
 31
0.0
210
0.0
220
0.0
230
1.0
 40
0.9993908270190953
 41
0.0000000000000101
 42
1.570796326794896
  0
LINE
  5
32B
330
70
100
AcDbEntity
  8
Sichtbare Kanten(MSL)
100
AcDbLine
 10
140.3938424013556
 20
186.5353835835005
 30
0.0
 11
140.3938424013562
 21
186.4655845900955
 31
0.0
  0
LINE
  5
32C
330
70
100
AcDbEntity
  8
Verdeckte Kanten(MSL)
100
AcDbLine
 10
150.3938424013491
 20
189.6334951472597
 30
0.0
 11
150.3938424013485
 21
189.5636961538547
 31
0.0
  0
ELLIPSE
  5
32D
330
70
100
AcDbEntity
  8
Verdeckte Kanten(MSL)
100
AcDbEllipse
 10
142.6938424013556
 20
189.6334951472598
 30
0.0
 11
-0.2999999999999802
 21
0.0000000000000101
 31
0.0
210
0.0
220
0.0
230
1.0
 40
0.9993908270190969
 41
4.712388980384663
 42
5.408729020836665
  0
LINE
  5
32E
330
70
100
AcDbEntity
  8
Verdeckte Kanten(MSL)
100
AcDbLine
 10
142.3938424013562
 20
188.4643662441337
 30
0.0
 11
142.3938424013556
 21
188.5341652375387
 31
0.0
  0
LINE
  5
32F
330
70
100
AcDbEntity
  8
Sichtbare Kanten(MSL)
100
AcDbLine
 10
152.0938424013485
 20
186.8653409209031
 30
0.0
 11
150.6938424013485
 21
186.8653409209031
 31
0.0
  0
LINE
  5
330
330
70
100
AcDbEntity
  8
Sichtbare Kanten(MSL)
100
AcDbLine
 10
152.3938424013482
 20
213.724976744734
 30
0.0
 11
152.3938424013485
 21
187.1651581690088
 31
0.0
  0
LINE
  5
331
330
70
100
AcDbEntity
  8
Sichtbare Kanten(MSL)
100
AcDbLine
 10
140.3938424013485
 20
190.1633306500661
 30
0.0
 11
140.3938424013482
 21
213.724976744734
 31
0.0
  0
LINE
  5
332
330
70
100
AcDbEntity
  8
Sichtbare Kanten(MSL)
100
AcDbLine
 10
150.0938424013485
 20
189.8635134019604
 30
0.0
 11
140.6938424013485
 21
189.8635134019604
 31
0.0
  0
LINE
  5
333
330
70
100
AcDbEntity
  8
Sichtbare Kanten(MSL)
100
AcDbLine
 10
150.3938424013485
 20
187.1651581690088
 30
0.0
 11
150.3938424013485
 21
189.5636961538547
 31
0.0
  0
LINE
  5
334
330
70
100
AcDbEntity
  8
Sichtbare Kanten(MSL)
100
AcDbLine
 10
142.3938424013556
 20
189.6334951472597
 30
0.0
 11
142.3938424013556
 21
188.5341652375387
 31
0.0
  0
LINE
  5
335
330
70
100
AcDbEntity
  8
Sichtbare Kanten(MSL)
100
AcDbLine
 10
142.6938424013556
 20
188.234347989433
 30
0.0
 11
144.0938424013556
 21
188.234347989433
 31
0.0
  0
LINE
  5
336
330
70
100
AcDbEntity
  8
Sichtbare Kanten(MSL)
100
AcDbLine
 10
144.3938424013556
 20
187.9345307413273
 30
0.0
 11
144.3938424013556
 21
186.5353835835005
 31
0.0
  0
LINE
  5
337
330
70
100
AcDbEntity
  8
Sichtbare Kanten(MSL)
100
AcDbLine
 10
140.3938424013556
 20
186.5353835835005
 30
0.0
 11
140.3938424013557
 21
190.1633306500661
 31
0.0
  0
LINE
  5
338
330
70
100
AcDbEntity
  8
Sichtbare Kanten(MSL)
100
AcDbLine
 10
144.0938424013556
 20
186.2355663353948
 30
0.0
 11
140.6938424013556
 21
186.2355663353948
 31
0.0
  0
LINE
  5
339
330
70
100
AcDbEntity
  8
Sichtbare Kanten(MSL)
100
AcDbLine
 10
140.6938424013562
 20
186.1657673419898
 30
0.0
 11
144.0938424013562
 21
186.1657673419898
 31
0.0
  0
LINE
  5
33A
330
70
100
AcDbEntity
  8
Verdeckte Kanten(MSL)
100
AcDbLine
 10
152.3938424013488
 20
213.8982656878092
 30
0.0
 11
140.3938424013489
 21
213.8982656878092
 31
0.0
  0
LINE
  5
33B
330
70
100
AcDbEntity
  8
Sichtbare Kanten(MSL)
100
AcDbLine
 10
140.3938424013489
 20
215.8982656878092
 30
0.0
 11
152.3938424013488
 21
215.8982656878092
 31
0.0
  0
LINE
  5
33C
330
70
100
AcDbEntity
  8
Sichtbare Kanten(MSL)
100
AcDbLine
 10
152.3938424013488
 20
215.8982656878092
 30
0.0
 11
152.3938424013482
 21
213.724976744734
 31
0.0
  0
LINE
  5
33D
330
70
100
AcDbEntity
  8
Sichtbare Kanten(MSL)
100
AcDbLine
 10
140.3938424013482
 20
213.724976744734
 30
0.0
 11
140.3938424013489
 21
215.8982656878092
 31
0.0
  0
LINE
  5
33E
330
70
100
AcDbEntity
  8
Verdeckte Kanten(MSL)
100
AcDbLine
 10
141.8938424013523
 20
213.8982656878092
 30
0.0
 11
141.8938424013523
 21
215.8982656878092
 31
0.0
  0
LINE
  5
33F
330
70
100
AcDbEntity
  8
Verdeckte Kanten(MSL)
100
AcDbLine
 10
150.8938424013523
 20
213.8982656878092
 30
0.0
 11
150.8938424013523
 21
215.8982656878092
 31
0.0
  0
CIRCLE
  5
340
330
70
100
AcDbEntity
  8
Sichtbare Kanten(MSL)
100
AcDbCircle
 10
72.36930911552224
 20
142.1643180625776
 30
0.0
 40
4.5
  0
ELLIPSE
  5
341
330
70
100
AcDbEntity
  8
Verdeckte Kanten(MSL)
100
AcDbEllipse
 10
59.29807768100769
 20
136.464318062569
 30
0.0
 11
0.0000000000000044
 21
-0.3000000000000019
 31
0.0
210
0.0
220
0.0
230
1.0
 40
0.0348994967025095
 41
0.0000000004616065
 42
1.570796327025467
  0
ELLIPSE
  5
342
330
70
100
AcDbEntity
  8
Verdeckte Kanten(MSL)
100
AcDbEllipse
 10
61.29685933504588
 20
136.4643180625691
 30
0.0
 11
0.0000000000000025
 21
-0.3000000000000029
 31
0.0
210
0.0
220
0.0
230
1.0
 40
0.0348994967025152
 41
0.0
 42
1.570796326794304
  0
ELLIPSE
  5
343
330
70
100
AcDbEntity
  8
Verdeckte Kanten(MSL)
100
AcDbEllipse
 10
59.19337919090018
 20
147.8643180625699
 30
0.0
 11
0.0000000000000026
 21
0.3000000000000029
 31
0.0
210
0.0
220
0.0
230
1.0
 40
0.0348994967025152
 41
4.712388980384098
 42
6.283185307413904
  0
ELLIPSE
  5
344
330
70
100
AcDbEntity
  8
Verdeckte Kanten(MSL)
100
AcDbEllipse
 10
59.21431888892169
 20
138.4643180625697
 30
0.0
 11
-0.0000000000000044
 21
-0.3000000000000022
 31
0.0
210
0.0
220
0.0
230
1.0
 40
0.0348994967025095
 41
4.712388980639596
 42
6.283185307690086
  0
ELLIPSE
  5
345
330
70
100
AcDbEntity
  8
Verdeckte Kanten(MSL)
100
AcDbEllipse
 10
59.29807768100769
 20
137.864318062569
 30
0.0
 11
0.0000000000000025
 21
0.3000000000000029
 31
0.0
210
0.0
220
0.0
230
1.0
 40
0.0348994967025152
 41
4.712388980384098
 42
6.283185307416183
  0
ELLIPSE
  5
346
330
70
100
AcDbEntity
  8
Verdeckte Kanten(MSL)
100
AcDbEllipse
 10
61.29685933504588
 20
137.864318062569
 30
0.0
 11
0.0000000000000044
 21
0.3000000000000024
 31
0.0
210
0.0
220
0.0
230
1.0
 40
0.0348994967025095
 41
4.712388980640426
 42
6.283185307691783
  0
ELLIPSE
  5
347
330
70
100
AcDbEntity
  8
Verdeckte Kanten(MSL)
100
AcDbEllipse
 10
61.21310054295989
 20
138.4643180625697
 30
0.0
 11
-0.0000000000000025
 21
-0.3000000000000029
 31
0.0
210
0.0
220
0.0
230
1.0
 40
0.0348994967025152
 41
4.712388980384098
 42
6.283185307416943
  0
ELLIPSE
  5
348
330
70
100
AcDbEntity
  8
Verdeckte Kanten(MSL)
100
AcDbEllipse
 10
61.19216084493837
 20
147.8643180625699
 30
0.0
 11
0.0000000000000044
 21
0.2999999999999958
 31
0.0
210
0.0
220
0.0
230
1.0
 40
0.0348994967025091
 41
4.712388980640426
 42
6.283185307691783
  0
LINE
  5
349
330
70
100
AcDbEntity
  8
Verdeckte Kanten(MSL)
100
AcDbLine
 10
61.21310054295989
 20
138.1643180625697
 30
0.0
 11
59.21431888892168
 21
138.1643180625697
 31
0.0
  0
ELLIPSE
  5
34A
330
70
100
AcDbEntity
  8
Verdeckte Kanten(MSL)
100
AcDbEllipse
 10
83.5255176880846
 20
145.8643180625698
 30
0.0
 11
0.0000000000000025
 21
0.3000000000000029
 31
0.0
210
0.0
220
0.0
230
1.0
 40
0.0348994967025152
 41
4.712388980385282
 42
6.283185306927037
  0
LINE
  5
34B
330
70
100
AcDbEntity
  8
Verdeckte Kanten(MSL)
100
AcDbLine
 10
83.5255176880846
 20
146.1643180625698
 30
0.0
 11
85.52429934212282
 21
146.1643180625698
 31
0.0
  0
ELLIPSE
  5
34C
330
70
100
AcDbEntity
  8
Verdeckte Kanten(MSL)
100
AcDbEllipse
 10
85.52429934212279
 20
145.8643180625698
 30
0.0
 11
0.0000000000000044
 21
0.3000000000000024
 31
0.0
210
0.0
220
0.0
230
1.0
 40
0.0348994967025095
 41
4.712388980154118
 42
6.283185306717979
  0
ELLIPSE
  5
34D
330
70
100
AcDbEntity
  8
Verdeckte Kanten(MSL)
100
AcDbEllipse
 10
83.48712824171187
 20
145.8643180625695
 30
0.0
 11
-0.0000000000000044
 21
0.3000000000000035
 31
0.0
210
0.0
220
0.0
230
1.0
 40
0.0348994967025095
 41
0.0
 42
1.570796326539159
  0
ELLIPSE
  5
34E
330
70
100
AcDbEntity
  8
Verdeckte Kanten(MSL)
100
AcDbEllipse
 10
85.48590989575005
 20
145.8643180625694
 30
0.0
 11
-0.0000000000000025
 21
0.3000000000000029
 31
0.0
210
0.0
220
0.0
230
1.0
 40
0.0348994967025152
 41
0.0
 42
1.570796326795488
  0
ELLIPSE
  5
34F
330
70
100
AcDbEntity
  8
Verdeckte Kanten(MSL)
100
AcDbEllipse
 10
85.46497019772855
 20
144.4643180625693
 30
0.0
 11
0.0000000000000022
 21
-0.3000000000000014
 31
0.0
210
0.0
220
0.0
230
1.0
 40
0.0348994967025095
 41
0.0
 42
1.570796326539396
  0
ELLIPSE
  5
350
330
70
100
AcDbEntity
  8
Verdeckte Kanten(MSL)
100
AcDbEllipse
 10
83.46618854369035
 20
144.4643180625693
 30
0.0
 11
0.0000000000000025
 21
-0.3000000000000029
 31
0.0
210
0.0
220
0.0
230
1.0
 40
0.0348994967025078
 41
0.0
 42
1.570796326795488
  0
LINE
  5
351
330
70
100
AcDbEntity
  8
Verdeckte Kanten(MSL)
100
AcDbLine
 10
83.46618854369035
 20
144.1643180625693
 30
0.0
 11
85.46497019772855
 21
144.1643180625693
 31
0.0
  0
ELLIPSE
  5
352
330
70
100
AcDbEntity
  8
Verdeckte Kanten(MSL)
100
AcDbEllipse
 10
83.54645738610612
 20
136.4643180625701
 30
0.0
 11
-0.0000000000000022
 21
-0.299999999999993
 31
0.0
210
0.0
220
0.0
230
1.0
 40
0.0348994967025088
 41
4.712388980153882
 42
6.283185306717767
  0
ELLIPSE
  5
353
330
70
100
AcDbEntity
  8
Verdeckte Kanten(MSL)
100
AcDbEllipse
 10
83.41732924830687
 20
147.8643180625689
 30
0.0
 11
-0.0000000000000023
 21
0.3000000000000073
 31
0.0
210
0.0
220
0.0
230
1.0
 40
0.0348994967025073
 41
0.0
 42
1.570796326795488
  0
ELLIPSE
  5
354
330
70
100
AcDbEntity
  8
Verdeckte Kanten(MSL)
100
AcDbEllipse
 10
83.41732924830685
 20
144.4643180625689
 30
0.0
 11
-0.0000000000000022
 21
-0.2999999999999925
 31
0.0
210
0.0
220
0.0
230
1.0
 40
0.0348994967025082
 41
4.712388980117466
 42
6.283185306644002
  0
ELLIPSE
  5
355
330
70
100
AcDbEntity
  8
Verdeckte Kanten(MSL)
100
AcDbEllipse
 10
85.41611090234503
 20
144.4643180625688
 30
0.0
 11
-0.0000000000000025
 21
-0.2999999999999896
 31
0.0
210
0.0
220
0.0
230
1.0
 40
0.0348994967025093
 41
4.712388980385282
 42
6.28318530695894
  0
ELLIPSE
  5
356
330
70
100
AcDbEntity
  8
Verdeckte Kanten(MSL)
100
AcDbEllipse
 10
85.41611090234505
 20
147.8643180625689
 30
0.0
 11
-0.0000000000000022
 21
0.3000000000000035
 31
0.0
210
0.0
220
0.0
230
1.0
 40
0.0348994967025086
 41
0.0
 42
1.570796326551535
  0
ELLIPSE
  5
357
330
70
100
AcDbEntity
  8
Verdeckte Kanten(MSL)
100
AcDbEllipse
 10
85.54523904014429
 20
136.4643180625701
 30
0.0
 11
-0.0000000000000023
 21
-0.299999999999994
 31
0.0
210
0.0
220
0.0
230
1.0
 40
0.0348994967025088
 41
4.712388980385282
 42
6.28318530695894
  0
LINE
  5
358
330
70
100
AcDbEntity
  8
Verdeckte Kanten(MSL)
100
AcDbLine
 10
59.30854753001844
 20
136.4643180625689
 30
0.0
 11
59.30854753001844
 21
137.8643180625689
 31
0.0
  0
LINE
  5
359
330
70
100
AcDbEntity
  8
Verdeckte Kanten(MSL)
100
AcDbLine
 10
61.30732918405663
 20
137.864318062569
 30
0.0
 11
61.30732918405663
 21
136.4643180625689
 31
0.0
  0
LINE
  5
35A
330
70
100
AcDbEntity
  8
Verdeckte Kanten(MSL)
100
AcDbLine
 10
59.20384903991093
 20
138.4643180625698
 30
0.0
 11
59.20384903991093
 21
147.8643180625698
 31
0.0
  0
LINE
  5
35B
330
70
100
AcDbEntity
  8
Verdeckte Kanten(MSL)
100
AcDbLine
 10
61.21310054295989
 20
138.1643180625697
 30
0.0
 11
61.29685933504589
 21
138.164318062569
 31
0.0
  0
LINE
  5
35C
330
70
100
AcDbEntity
  8
Verdeckte Kanten(MSL)
100
AcDbLine
 10
61.20263069394913
 20
147.8643180625699
 30
0.0
 11
61.20263069394913
 21
138.4643180625698
 31
0.0
  0
LINE
  5
35D
330
70
100
AcDbEntity
  8
Verdeckte Kanten(MSL)
100
AcDbLine
 10
83.5255176880846
 20
146.1643180625698
 30
0.0
 11
83.48712824171187
 21
146.1643180625695
 31
0.0
  0
LINE
  5
35E
330
70
100
AcDbEntity
  8
Verdeckte Kanten(MSL)
100
AcDbLine
 10
83.4766583927011
 20
145.8643180625694
 30
0.0
 11
83.4766583927011
 21
144.4643180625694
 31
0.0
  0
LINE
  5
35F
330
70
100
AcDbEntity
  8
Verdeckte Kanten(MSL)
100
AcDbLine
 10
85.4754400467393
 20
144.4643180625693
 30
0.0
 11
85.4754400467393
 21
145.8643180625693
 31
0.0
  0
LINE
  5
360
330
70
100
AcDbEntity
  8
Verdeckte Kanten(MSL)
100
AcDbLine
 10
83.46618854369035
 20
144.1643180625693
 30
0.0
 11
83.41732924830685
 21
144.1643180625689
 31
0.0
  0
LINE
  5
361
330
70
100
AcDbEntity
  8
Verdeckte Kanten(MSL)
100
AcDbLine
 10
83.53598753709535
 20
136.46431806257
 30
0.0
 11
83.53598753709537
 21
145.8643180625699
 31
0.0
  0
LINE
  5
362
330
70
100
AcDbEntity
  8
Verdeckte Kanten(MSL)
100
AcDbLine
 10
83.40685939929612
 20
144.4643180625688
 30
0.0
 11
83.40685939929612
 21
147.8643180625688
 31
0.0
  0
LINE
  5
363
330
70
100
AcDbEntity
  8
Verdeckte Kanten(MSL)
100
AcDbLine
 10
85.4056410533343
 20
147.8643180625687
 30
0.0
 11
85.4056410533343
 21
144.4643180625688
 31
0.0
  0
LINE
  5
364
330
70
100
AcDbEntity
  8
Verdeckte Kanten(MSL)
100
AcDbLine
 10
85.53476919113355
 20
145.8643180625698
 30
0.0
 11
85.53476919113354
 21
136.46431806257
 31
0.0
  0
LINE
  5
365
330
70
100
AcDbEntity
  8
Sichtbare Kanten(MSL)
100
AcDbLine
 10
84.26930911552222
 20
136.1643180625776
 30
0.0
 11
60.46930911552225
 21
136.1643180625776
 31
0.0
  0
LINE
  5
366
330
70
100
AcDbEntity
  8
Sichtbare Kanten(MSL)
100
AcDbLine
 10
60.46930911552225
 20
148.1643180625775
 30
0.0
 11
84.26930911552224
 21
148.1643180625775
 31
0.0
  0
LINE
  5
367
330
70
100
AcDbEntity
  8
Sichtbare Kanten(MSL)
100
AcDbLine
 10
84.26930911552222
 20
148.1643180625775
 30
0.0
 11
86.36930911552225
 21
148.1643180625769
 31
0.0
  0
LINE
  5
368
330
70
100
AcDbEntity
  8
Sichtbare Kanten(MSL)
100
AcDbLine
 10
86.36930911552225
 20
136.164318062577
 30
0.0
 11
84.26930911552222
 21
136.1643180625776
 31
0.0
  0
LINE
  5
369
330
70
100
AcDbEntity
  8
Sichtbare Kanten(MSL)
100
AcDbLine
 10
86.36930911552225
 20
136.164318062577
 30
0.0
 11
86.36930911552225
 21
148.1643180625769
 31
0.0
  0
LINE
  5
36A
330
70
100
AcDbEntity
  8
Verdeckte Kanten(MSL)
100
AcDbLine
 10
84.36930911552222
 20
136.164318062577
 30
0.0
 11
84.36930911552224
 21
148.1643180625769
 31
0.0
  0
LINE
  5
36B
330
70
100
AcDbEntity
  8
Sichtbare Kanten(MSL)
100
AcDbLine
 10
60.46930911552227
 20
136.1643180625776
 30
0.0
 11
58.36930911552226
 21
136.164318062577
 31
0.0
  0
LINE
  5
36C
330
70
100
AcDbEntity
  8
Sichtbare Kanten(MSL)
100
AcDbLine
 10
58.36930911552226
 20
148.1643180625769
 30
0.0
 11
60.46930911552225
 21
148.1643180625775
 31
0.0
  0
LINE
  5
36D
330
70
100
AcDbEntity
  8
Sichtbare Kanten(MSL)
100
AcDbLine
 10
58.36930911552226
 20
148.1643180625769
 30
0.0
 11
58.36930911552226
 21
136.164318062577
 31
0.0
  0
LINE
  5
36E
330
70
100
AcDbEntity
  8
Verdeckte Kanten(MSL)
100
AcDbLine
 10
60.36930911552225
 20
148.1643180625769
 30
0.0
 11
60.36930911552225
 21
136.164318062577
 31
0.0
  0
DIMENSION
  5
452
330
70
100
AcDbEntity
  8
Bemaßungen(MSL)
  6
Continuous
 62
     5
420
      255
370
     5
100
AcDbDimension
280
     0
  2
*D11
 10
47.36930911552227
 20
148.1643180625775
 30
0.0
 11
47.36930911552224
 21
142.1643180625776
 31
0.0
 70
   160
  1
<>
 42
11.99999999999994
 73
     0
 74
     0
 75
     0
  3
NORMAL-MSL
100
AcDbAlignedDimension
 13
60.46930911552225
 23
136.1643180625776
 33
0.0
 14
60.46930911552225
 24
148.1643180625775
 34
0.0
 50
90.0
100
AcDbRotatedDimension
1001
ACAD
1000
DSTYLE
1002
{
1070
   172
1070
     0
1070
   289
1070
     1
1070
   271
1070
     2
1070
   272
1070
     2
1070
    48
1040
0.0
1070
    47
1040
0.0
1002
}
  0
DIMENSION
  5
732
330
70
100
AcDbEntity
  8
Bemaßungen(MSL)
  6
Continuous
 62
     5
420
      255
370
     5
100
AcDbDimension
280
     0
  2
*D14
 10
126.4299698153928
 20
215.8982656878092
 30
0.0
 11
126.4299698153928
 21
202.8637346875822
 31
0.0
 70
   160
  1
<>
 42
26.03475228584875
 73
     0
 74
     0
 75
     0
  3
NORMAL-MSL
100
AcDbAlignedDimension
 13
140.6938424013485
 23
189.8635134019604
 33
0.0
 14
140.3938424013489
 24
215.8982656878092
 34
0.0
 50
90.0
100
AcDbRotatedDimension
1001
ACAD
1000
DSTYLE
1002
{
1070
   172
1070
     0
1070
   289
1070
     1
1070
   271
1070
     1
1070
   272
1070
     2
1070
    48
1040
0.0
1070
    47
1040
0.0
1002
}
  0
DIMENSION
  5
814
330
70
100
AcDbEntity
  8
Bemaßungen(MSL)
  6
Continuous
 62
     5
420
      255
370
     5
100
AcDbDimension
280
     0
  2
*D15
 10
75.37723355857898
 20
138.8173208195459
 30
0.0
 11
50.81354681916359
 21
157.7436257229882
 31
0.0
 70
   163
  1
<>
 42
8.99999999999995
 73
     0
 74
     0
 75
     0
  3
NORMAL-MSL
100
AcDbDiametricDimension
 15
69.3613846724655
 25
145.5113153056093
 35
0.0
 40
0.0
1001
ACAD
1000
DSTYLE
1002
{
1070
   144
1040
0.9999999999999992
1070
    77
1070
     0
1070
    73
1070
     1
1070
    74
1070
     1
1070
   289
1070
     2
1070
   271
1070
     2
1070
   272
1070
     2
1070
    48
1040
0.0
1070
    47
1040
0.0
1002
}
1001
ACAD_DSTYLE_DIMRADIAL_EXTENSION
1070
   387
1070
     1
1070
   388
1040
0.0
1070
   390
1040
0.0
  0
DIMENSION
  5
8BF
330
70
100
AcDbEntity
  8
Bemaßungen(MSL)
  6
Continuous
 62
     5
420
      255
370
     5
100
AcDbDimension
280
     0
  2
*D16
 10
86.36802985226234
 20
157.8328506090519
 30
0.0
 11
79.36930911552224
 21
157.8328506090519
 31
0.0
 70
   160
  1
<>
 42
13.9987207367401
 73
     0
 74
     0
 75
     0
  3
NORMAL-MSL
100
AcDbAlignedDimension
 13
72.36930911552224
 23
142.1643180625776
 33
0.0
 14
86.36802985226234
 24
148.1643180625769
 34
0.0
 50
180.0
100
AcDbRotatedDimension
1001
ACAD
1000
DSTYLE
1002
{
1070
   172
1070
     0
1070
   289
1070
     1
1070
   271
1070
     2
1070
   272
1070
     2
1070
    48
1040
0.0
1070
    47
1040
0.0
1002
}
  0
LINE
  5
C81
330
70
100
AcDbEntity
  8
Mittelpunktmarkierung(MSL)
  6
Continuous
100
AcDbLine
 10
79.36930911552224
 20
142.1643180625776
 30
0.0
 11
65.36930911552224
 21
142.1643180625776
 31
0.0
  0
LINE
  5
C82
330
70
100
AcDbEntity
  8
Mittelpunktmarkierung(MSL)
  6
Continuous
100
AcDbLine
 10
72.36930911552224
 20
149.1643180625776
 30
0.0
 11
72.36930911552224
 21
135.1643180625776
 31
0.0
  0
LINE
  5
C83
330
70
100
AcDbEntity
  8
Mittellinie(MSL)
  6
Continuous
100
AcDbLine
 10
72.36930911553949
 20
218.3982656878092
 30
0.0
 11
72.36930911553949
 21
183.4682975338019
 31
0.0
  0
LINE
  5
C84
330
70
100
AcDbEntity
  8
Mittellinie(MSL)
  6
Continuous
100
AcDbLine
 10
146.3938424013488
 20
211.3982656878092
 30
0.0
 11
146.3938424013488
 21
218.3982656878092
 31
0.0
  0
ELLIPSE
  5
C85
330
70
100
AcDbEntity
  8
Sichtbare Kanten(MSL)
100
AcDbEllipse
 10
174.4668047658263
 20
109.5281474699623
 30
0.0
 11
4.5
 21
0.0000000000000012
 31
0.0
210
0.0
220
0.0
230
1.0
 40
0.5773502691896258
 41
0.3196872591302755
 42
2.821905394459507
  0
ELLIPSE
  5
C86
330
70
100
AcDbEntity
  8
Sichtbare Kanten(MSL)
100
AcDbEllipse
 10
174.4668047658263
 20
111.1611406318177
 30
0.0
 11
4.5
 21
0.0000000000000019
 31
0.0
210
0.0
220
0.0
230
1.0
 40
0.5773502691896257
 41
0.0
 42
6.283185307179586
  0
ELLIPSE
  5
C87
330
70
100
AcDbEntity
  8
Sichtbare Kanten(MSL)
100
AcDbEllipse
 10
169.2545570327857
 20
80.03733344024642
 30
0.0
 11
0.1576527124657939
 21
-0.2552364046373066
 31
0.0
210
0.0
220
0.0
230
1.0
 40
0.5568493291893492
 41
5.480932579692996
 42
7.051728906487911
  0
ELLIPSE
  5
C88
330
70
100
AcDbEntity
  8
Sichtbare Kanten(MSL)
100
AcDbEllipse
 10
170.6679090944674
 20
80.91032327298542
 30
0.0
 11
0.1576527124657787
 21
-0.255236404637307
 31
0.0
210
0.0
220
0.0
230
1.0
 40
0.5568493291893418
 41
0.0000000000000154
 42
0.7685435993082899
  0
LINE
  5
C89
330
70
100
AcDbEntity
  8
Sichtbare tangentiale Kanten(MSL)
100
AcDbLine
 10
170.8800411288233
 20
80.78784878584627
 30
0.0
 11
169.4666890671416
 21
79.91485895310725
 31
0.0
  0
ELLIPSE
  5
C8A
330
70
100
AcDbEntity
  8
Sichtbare Kanten(MSL)
100
AcDbEllipse
 10
161.119506714924
 20
87.0966185517488
 30
0.0
 11
-0.1576527124657757
 21
0.255236404637319
 31
0.0
210
0.0
220
0.0
230
1.0
 40
0.5568493291893328
 41
0.7685435993086216
 42
2.339339926103553
  0
ELLIPSE
  5
C8B
330
70
100
AcDbEntity
  8
Sichtbare Kanten(MSL)
100
AcDbEllipse
 10
167.7811170605446
 20
82.77803370134563
 30
0.0
 11
-0.1576527124658024
 21
0.2552364046373016
 31
0.0
210
0.0
220
0.0
230
0.9999999999999998
 40
0.5568493291893329
 41
3.910136252897812
 42
5.480932579692834
  0
ELLIPSE
  5
C8C
330
70
100
AcDbEntity
  8
Sichtbare Kanten(MSL)
100
AcDbEllipse
 10
168.2646075391245
 20
80.60888104689583
 30
0.0
 11
-0.1576527124657758
 21
0.2552364046373189
 31
0.0
210
0.0
220
0.0
230
1.0
 40
0.5568493291893329
 41
0.7685435993086216
 42
2.339339926103553
  0
ELLIPSE
  5
C8D
330
70
100
AcDbEntity
  8
Sichtbare Kanten(MSL)
100
AcDbEllipse
 10
179.7391404094265
 20
95.781067039131
 30
0.0
 11
-0.1419359812153873
 21
0.2642994083164527
 31
0.0
210
0.0
220
0.0
230
1.0
 40
0.5971477968208922
 41
5.515860424547635
 42
7.086656751342485
  0
LINE
  5
C8E
330
70
100
AcDbEntity
  8
Sichtbare tangentiale Kanten(MSL)
100
AcDbLine
 10
179.5270083750705
 20
95.90354152627018
 30
0.0
 11
179.7543535541499
 21
96.02563207983127
 31
0.0
  0
LINE
  5
C8F
330
70
100
AcDbEntity
  8
Sichtbare tangentiale Kanten(MSL)
100
AcDbLine
 10
180.5608071062517
 20
95.56002590443638
 30
0.0
 11
179.4998629372143
 21
94.99026998781785
 31
0.0
  0
ELLIPSE
  5
C90
330
70
100
AcDbEntity
  8
Sichtbare Kanten(MSL)
100
AcDbEllipse
 10
179.7119949715703
 20
94.8677955006787
 30
0.0
 11
0.1419359812154104
 21
-0.2642994083164409
 31
0.0
210
0.0
220
0.0
230
1.0
 40
0.5971477968209021
 41
3.945064097752518
 42
5.515860424547444
  0
LINE
  5
C91
330
70
100
AcDbEntity
  8
Sichtbare tangentiale Kanten(MSL)
100
AcDbLine
 10
179.7045916703368
 20
94.61872144473716
 30
0.0
 11
180.9928810184536
 21
95.31056791491678
 31
0.0
  0
LINE
  5
C92
330
70
100
AcDbEntity
  8
Sichtbare tangentiale Kanten(MSL)
100
AcDbLine
 10
181.9828305121148
 20
94.73902030826739
 30
0.0
 11
180.6945411639979
 21
94.04717383808774
 31
0.0
  0
ELLIPSE
  5
C93
330
70
100
AcDbEntity
  8
Sichtbare Kanten(MSL)
100
AcDbEllipse
 10
182.1004899244461
 20
94.55710833595047
 30
0.0
 11
-0.1419359812153897
 21
0.2642994083164554
 31
0.0
210
0.0
220
0.0
230
1.0
 40
0.5971477968208139
 41
3.945064097752384
 42
4.411716818455111
  0
ELLIPSE
  5
C94
330
70
100
AcDbEntity
  8
Sichtbare Kanten(MSL)
100
AcDbEllipse
 10
180.6871378627644
 20
93.79809978214622
 30
0.0
 11
0.1419359812153766
 21
-0.2642994083164583
 31
0.0
210
0.0
220
0.0
230
1.0
 40
0.5971477968208978
 41
0.8034714441631098
 42
2.37426777095799
  0
LINE
  5
C95
330
70
100
AcDbEntity
  8
Sichtbare tangentiale Kanten(MSL)
100
AcDbLine
 10
180.8992698971204
 20
93.67562529500704
 30
0.0
 11
182.3126219588021
 21
94.43463384881129
 31
0.0
  0
LINE
  5
C96
330
70
100
AcDbEntity
  8
Sichtbare tangentiale Kanten(MSL)
100
AcDbLine
 10
182.2780732197124
 20
93.27228825441743
 30
0.0
 11
180.8647211580307
 21
92.51327970061318
 31
0.0
  0
ELLIPSE
  5
C97
330
70
100
AcDbEntity
  8
Sichtbare Kanten(MSL)
100
AcDbEllipse
 10
186.4007507550469
 20
92.44168122065381
 30
0.0
 11
0.1419359812153845
 21
-0.2642994083164429
 31
0.0
210
0.0
220
0.0
230
0.9999999999999998
 40
0.5971477968208895
 41
5.515860424547621
 42
7.086656751342479
  0
ELLIPSE
  5
C98
330
70
100
AcDbEntity
  8
Sichtbare Kanten(MSL)
100
AcDbEllipse
 10
178.2484260676405
 20
94.02379837532949
 30
0.0
 11
-0.1419359812153788
 21
0.2642994083164622
 31
0.0
210
0.0
220
0.0
230
1.0
 40
0.5971477968208974
 41
0.8034714441631098
 42
2.374267770957992
  0
ELLIPSE
  5
C99
330
70
100
AcDbEntity
  8
Sichtbare Kanten(MSL)
100
AcDbEllipse
 10
180.6525891236748
 20
92.63575418775232
 30
0.0
 11
0.141935981215384
 21
-0.2642994083164426
 31
0.0
210
0.0
220
0.0
230
1.0
 40
0.5971477968208882
 41
5.515860424547624
 42
7.086656751342551
  0
ELLIPSE
  5
C9A
330
70
100
AcDbEntity
  8
Sichtbare Kanten(MSL)
100
AcDbEllipse
 10
182.0659411853565
 20
93.39476274155657
 30
0.0
 11
0.1419359812153933
 21
-0.2642994083164433
 31
0.0
210
0.0
220
0.0
230
1.0
 40
0.5971477968208957
 41
0.0000000000000746
 42
0.8034714441630164
  0
ELLIPSE
  5
C9B
330
70
100
AcDbEntity
  8
Sichtbare Kanten(MSL)
100
AcDbEllipse
 10
187.8141028167286
 20
93.20068977445805
 30
0.0
 11
0.1419359812153915
 21
-0.2642994083164458
 31
0.0
210
0.0
220
0.0
230
1.0
 40
0.5971477968208965
 41
0.0000000000003438
 42
0.8034714441630415
  0
LINE
  5
C9C
330
70
100
AcDbEntity
  8
Sichtbare tangentiale Kanten(MSL)
100
AcDbLine
 10
188.0262348510845
 20
93.0782152873189
 30
0.0
 11
186.6128827894029
 21
92.31920673351465
 31
0.0
  0
LINE
  5
C9D
330
70
100
AcDbEntity
  8
Sichtbare Kanten(MSL)
100
AcDbLine
 10
170.8255618069332
 20
80.65508686834812
 30
0.0
 11
169.4122097452515
 21
79.78209703560913
 31
0.0
  0
LINE
  5
C9E
330
70
100
AcDbEntity
  8
Sichtbare Kanten(MSL)
100
AcDbLine
 10
180.7945251048902
 20
92.37145477943588
 30
0.0
 11
182.2078771665718
 21
93.13046333324013
 31
0.0
  0
LINE
  5
C9F
330
70
100
AcDbEntity
  8
Sichtbare Kanten(MSL)
100
AcDbLine
 10
186.5426867362623
 20
92.17738181233736
 30
0.0
 11
187.956038797944
 21
92.93639036614161
 31
0.0
  0
LINE
  5
CA0
330
70
100
AcDbEntity
  8
Sichtbare Kanten(MSL)
100
AcDbLine
 10
169.2619603340192
 20
79.79680798022499
 30
0.0
 11
168.272010840358
 21
80.36835558687441
 31
0.0
  0
LINE
  5
CA1
330
70
100
AcDbEntity
  8
Sichtbare Kanten(MSL)
100
AcDbLine
 10
168.81085509206
 20
101.2222140881904
 30
0.0
 11
169.4666890671416
 21
79.91485895310727
 31
0.0
  0
LINE
  5
CA2
330
70
100
AcDbEntity
  8
Sichtbare Kanten(MSL)
100
AcDbLine
 10
160.9073746805681
 20
87.21909303888795
 30
0.0
 11
160.3255737178214
 21
106.1211935737568
 31
0.0
  0
LINE
  5
CA3
330
70
100
AcDbEntity
  8
Sichtbare Kanten(MSL)
100
AcDbLine
 10
167.7737137593111
 20
83.01855916136705
 30
0.0
 11
161.1269100161575
 21
86.85609309172736
 31
0.0
  0
LINE
  5
CA4
330
70
100
AcDbEntity
  8
Sichtbare Kanten(MSL)
100
AcDbLine
 10
168.0524755047685
 20
80.73135553403501
 30
0.0
 11
167.9932490949005
 21
82.65555921420645
 31
0.0
  0
LINE
  5
CA5
330
70
100
AcDbEntity
  8
Sichtbare Kanten(MSL)
100
AcDbLine
 10
170.8800411288233
 20
80.78784878584627
 30
0.0
 11
170.2242071537416
 21
102.0952039209294
 31
0.0
  0
LINE
  5
CA6
330
70
100
AcDbEntity
  8
Sichtbare Kanten(MSL)
100
AcDbLine
 10
179.5270083750705
 20
95.90354152627018
 30
0.0
 11
179.4998629372143
 21
94.99026998781785
 31
0.0
  0
LINE
  5
CA7
330
70
100
AcDbEntity
  8
Sichtbare Kanten(MSL)
100
AcDbLine
 10
179.7045916703368
 20
94.61872144473716
 30
0.0
 11
180.6945411639979
 21
94.04717383808774
 31
0.0
  0
LINE
  5
CA8
330
70
100
AcDbEntity
  8
Sichtbare Kanten(MSL)
100
AcDbLine
 10
180.8992698971204
 20
93.67562529500704
 30
0.0
 11
180.8647211580307
 21
92.51327970061318
 31
0.0
  0
LINE
  5
CA9
330
70
100
AcDbEntity
  8
Sichtbare Kanten(MSL)
100
AcDbLine
 10
182.2780732197124
 20
93.27228825441743
 30
0.0
 11
182.3126219588021
 21
94.43463384881129
 31
0.0
  0
LINE
  5
CAA
330
70
100
AcDbEntity
  8
Sichtbare Kanten(MSL)
100
AcDbLine
 10
186.3933474538134
 20
92.19260716471229
 30
0.0
 11
179.74654371066
 21
96.03014109507256
 31
0.0
  0
LINE
  5
CAB
330
70
100
AcDbEntity
  8
Sichtbare Kanten(MSL)
100
AcDbLine
 10
187.1946837521496
 20
111.8931131532965
 30
0.0
 11
186.6128827894029
 21
92.31920673351465
 31
0.0
  0
LINE
  5
CAC
330
70
100
AcDbEntity
  8
Sichtbare Kanten(MSL)
100
AcDbLine
 10
178.0362940332846
 20
94.14627286246863
 30
0.0
 11
178.4156452705851
 21
106.9090321128053
 31
0.0
  0
LINE
  5
CAD
330
70
100
AcDbEntity
  8
Sichtbare Kanten(MSL)
100
AcDbLine
 10
178.5080630503224
 20
110.0183033033538
 30
0.0
 11
178.5267984702141
 21
110.6486311631846
 31
0.0
  0
LINE
  5
CAE
330
70
100
AcDbEntity
  8
Sichtbare Kanten(MSL)
100
AcDbLine
 10
180.6451858224413
 20
92.38668013181081
 30
0.0
 11
178.241022766407
 21
93.77472431938796
 31
0.0
  0
LINE
  5
CAF
330
70
100
AcDbEntity
  8
Sichtbare Kanten(MSL)
100
AcDbLine
 10
188.0262348510845
 20
93.0782152873189
 30
0.0
 11
188.6080358138313
 21
112.6521217071008
 31
0.0
  0
LINE
  5
CB0
330
70
100
AcDbEntity
  8
Sichtbare Kanten(MSL)
100
AcDbLine
 10
170.2948747568257
 20
102.2205030706591
 30
0.0
 11
187.1240161490655
 21
111.9368123836991
 31
0.0
  0
LINE
  5
CB1
330
70
100
AcDbEntity
  8
Sichtbare Kanten(MSL)
100
AcDbLine
 10
187.1240161490655
 20
113.5698055455546
 30
0.0
 11
170.2948747568257
 21
103.8534962325146
 31
0.0
  0
LINE
  5
CB2
330
70
100
AcDbEntity
  8
Sichtbare Kanten(MSL)
100
AcDbLine
 10
161.8095933825872
 20
108.7524757180809
 30
0.0
 11
178.638734774827
 21
118.4687850311209
 31
0.0
  0
LINE
  5
CB3
330
70
100
AcDbEntity
  8
Sichtbare tangentiale Kanten(MSL)
100
AcDbLine
 10
168.81085509206
 20
101.2222140881904
 30
0.0
 11
160.3255737178214
 21
106.1211935737568
 31
0.0
  0
LINE
  5
CB4
330
70
100
AcDbEntity
  8
Sichtbare tangentiale Kanten(MSL)
100
AcDbLine
 10
170.2948747568257
 20
103.8534962325146
 30
0.0
 11
170.2948747568257
 21
102.2205030706591
 31
0.0
  0
LINE
  5
CB5
330
70
100
AcDbEntity
  8
Sichtbare tangentiale Kanten(MSL)
100
AcDbLine
 10
161.8095933825872
 20
108.7524757180809
 30
0.0
 11
170.2948747568257
 21
103.8534962325146
 31
0.0
  0
ELLIPSE
  5
CB6
330
70
100
AcDbEntity
  8
Sichtbare Kanten(MSL)
100
AcDbEllipse
 10
170.2948747568257
 20
102.1388534125664
 30
0.0
 11
1.050000000000107
 21
1.818653347947259
 31
0.0
210
0.0
220
0.0
230
1.0
 40
0.5773502691896254
 41
0.7853981633976917
 42
2.391101075232494
  0
LINE
  5
CB7
330
70
100
AcDbEntity
  8
Sichtbare tangentiale Kanten(MSL)
100
AcDbLine
 10
170.2242071537416
 20
102.0952039209294
 30
0.0
 11
168.81085509206
 21
101.2222140881904
 31
0.0
  0
ELLIPSE
  5
CB8
330
70
100
AcDbEntity
  8
Sichtbare Kanten(MSL)
100
AcDbEllipse
 10
170.2948747568257
 20
102.1388534125664
 30
0.0
 11
-0.0499999999999947
 21
-0.0866025403784466
 31
0.0
210
0.0
220
0.0
230
1.0
 40
0.577350269189626
 41
3.926990816987068
 42
5.532693728821739
  0
ELLIPSE
  5
CB9
330
70
100
AcDbEntity
  8
Sichtbare Kanten(MSL)
100
AcDbEllipse
 10
161.8095933825872
 20
107.0378328981327
 30
0.0
 11
-1.0499999999999
 21
-1.818653347947379
 31
0.0
210
0.0
220
0.0
230
1.0
 40
0.5773502691896296
 41
3.926990816986998
 42
5.532693728821776
  0
LINE
  5
CBA
330
70
100
AcDbEntity
  8
Sichtbare tangentiale Kanten(MSL)
100
AcDbLine
 10
187.1946837521496
 20
111.8931131532965
 30
0.0
 11
187.1215053069531
 21
111.9353627483296
 31
0.0
  0
LINE
  5
CBB
330
70
100
AcDbEntity
  8
Sichtbare tangentiale Kanten(MSL)
100
AcDbLine
 10
188.6080358138313
 20
112.6521217071008
 30
0.0
 11
187.1946837521496
 21
111.8931131532965
 31
0.0
  0
ELLIPSE
  5
CBC
330
70
100
AcDbEntity
  8
Sichtbare Kanten(MSL)
100
AcDbEllipse
 10
178.638734774827
 20
116.7541422111726
 30
0.0
 11
1.050000000000006
 21
1.818653347947321
 31
0.0
210
0.0
220
0.0
230
0.9999999999999998
 40
0.5773502691896251
 41
0.0
 42
0.7853981633974492
  0
ELLIPSE
  5
CBD
330
70
100
AcDbEntity
  8
Sichtbare Kanten(MSL)
100
AcDbEllipse
 10
187.1240161490655
 20
111.8551627256063
 30
0.0
 11
1.049999999999999
 21
1.818653347947323
 31
0.0
210
0.0
220
0.0
230
1.0
 40
0.577350269189626
 41
5.462880558742257
 42
7.068583470577033
  0
LINE
  5
CBE
330
70
100
AcDbEntity
  8
Sichtbare tangentiale Kanten(MSL)
100
AcDbLine
 10
187.1240161490655
 20
111.9368123836991
 30
0.0
 11
187.1240161490655
 21
113.5698055455546
 31
0.0
  0
ELLIPSE
  5
CBF
330
70
100
AcDbEntity
  8
Sichtbare Kanten(MSL)
100
AcDbEllipse
 10
187.1240161490655
 20
111.8551627256063
 30
0.0
 11
0.0500000000000001
 21
0.086602540378444
 31
0.0
210
0.0
220
0.0
230
1.0
 40
0.5773502691896259
 41
5.462880558742174
 42
7.068583470577034
  0
LINE
  5
CC0
330
70
100
AcDbEntity
  8
Sichtbare tangentiale Kanten(MSL)
100
AcDbLine
 10
187.1240161490655
 20
113.5698055455546
 30
0.0
 11
178.638734774827
 21
118.4687850311209
 31
0.0
  0
LINE
  5
CC1
330
70
100
AcDbEntity
  8
Sichtbare Kanten(MSL)
100
AcDbLine
 10
188.1740161490655
 20
113.6738160735536
 30
0.0
 11
179.688734774827
 21
118.57279555912
 31
0.0
  0
DIMENSION
  5
CC3
330
70
100
AcDbEntity
  8
Bemaßungen(MSL)
  6
Continuous
 62
     5
420
      255
370
     5
100
AcDbDimension
280
     0
  2
*D20
 10
86.36802985227959
 20
226.9951828925365
 30
0.0
 11
72.36930911553949
 21
226.9951828925365
 31
0.0
 70
   160
  1
<>
 42
27.99744147348018
 73
     0
 74
     0
 75
     0
  3
NORMAL-MSL
100
AcDbAlignedDimension
 13
58.37058837879941
 23
213.724976744734
 33
0.0
 14
86.36802985227959
 24
213.724976744734
 34
0.0
 50
180.0
100
AcDbRotatedDimension
1001
ACAD
1000
DSTYLE
1002
{
1070
   172
1070
     0
1070
   289
1070
     1
1070
   271
1070
     2
1070
   272
1070
     2
1070
    48
1040
0.0
1070
    47
1040
0.0
1002
}
  0
ENDSEC
  0
SECTION
  2
OBJECTS
  0
DICTIONARY
  5
C
330
0
100
AcDbDictionary
281
     1
  3
ACAD_CIP_PREVIOUS_PRODUCT_INFO
350
FD9
  3
ACAD_COLOR
350
63
  3
ACAD_DETAILVIEWSTYLE
350
6A
  3
ACAD_FIELDLIST
350
1238
  3
ACAD_GROUP
350
D
  3
ACAD_LAYOUT
350
62
  3
ACAD_MATERIAL
350
10
  3
ACAD_MLEADERSTYLE
350
66
  3
ACAD_MLINESTYLE
350
5F
  3
ACAD_PLOTSETTINGS
350
61
  3
ACAD_PLOTSTYLENAME
350
E
  3
ACAD_SCALELIST
350
42
  3
ACAD_SECTIONVIEWSTYLE
350
68
  3
ACAD_TABLESTYLE
350
64
  3
ACAD_VISUALSTYLE
350
29
  3
ACDB_RECOMPOSE_DATA
350
12A6
  3
AcDbVariableDictionary
350
10EA
  3
AcmDictionary
350
11F3
  3
AMG
350
11CA
  3
AMGSNAPSETTINGS
350
124C
  0
DICTIONARY
  5
FDB
330
2AE
100
AcDbDictionary
280
     1
281
     1
  3
ACAD_MLATT
360
125B
  3
ACAD_XREC_ROUNDTRIP
360
125A
  0
DICTIONARY
  5
FDE
330
2B1
100
AcDbDictionary
280
     1
281
     1
  3
ACAD_MLATT
360
125D
  3
ACAD_XREC_ROUNDTRIP
360
125C
  0
DICTIONARY
  5
FE1
330
2B3
100
AcDbDictionary
280
     1
281
     1
  3
ACAD_MLATT
360
125F
  3
ACAD_XREC_ROUNDTRIP
360
125E
  0
DICTIONARY
  5
FE4
330
2B4
100
AcDbDictionary
280
     1
281
     1
  3
ACAD_MLATT
360
1261
  3
ACAD_XREC_ROUNDTRIP
360
1260
  0
DICTIONARY
  5
FE7
330
2B5
100
AcDbDictionary
280
     1
281
     1
  3
ACAD_MLATT
360
1263
  3
ACAD_XREC_ROUNDTRIP
360
1262
  0
DICTIONARY
  5
FEA
330
2B6
100
AcDbDictionary
280
     1
281
     1
  3
ACAD_MLATT
360
1265
  3
ACAD_XREC_ROUNDTRIP
360
1264
  0
DICTIONARY
  5
FED
330
2B7
100
AcDbDictionary
280
     1
281
     1
  3
ACAD_MLATT
360
1267
  3
ACAD_XREC_ROUNDTRIP
360
1266
  0
DICTIONARY
  5
FF0
330
2B9
100
AcDbDictionary
280
     1
281
     1
  3
ACAD_MLATT
360
1269
  3
ACAD_XREC_ROUNDTRIP
360
1268
  0
DICTIONARY
  5
FF3
330
2BA
100
AcDbDictionary
280
     1
281
     1
  3
ACAD_MLATT
360
126B
  3
ACAD_XREC_ROUNDTRIP
360
126A
  0
DICTIONARY
  5
FF6
330
2BB
100
AcDbDictionary
280
     1
281
     1
  3
ACAD_MLATT
360
126D
  3
ACAD_XREC_ROUNDTRIP
360
126C
  0
DICTIONARY
  5
FF9
330
2BC
100
AcDbDictionary
280
     1
281
     1
  3
ACAD_MLATT
360
126F
  3
ACAD_XREC_ROUNDTRIP
360
126E
  0
DICTIONARY
  5
FFC
330
2BD
100
AcDbDictionary
280
     1
281
     1
  3
ACAD_MLATT
360
1271
  3
ACAD_XREC_ROUNDTRIP
360
1270
  0
DICTIONARY
  5
FFF
330
2BE
100
AcDbDictionary
280
     1
281
     1
  3
ACAD_MLATT
360
1273
  3
ACAD_XREC_ROUNDTRIP
360
1272
  0
DICTIONARY
  5
1002
330
2BF
100
AcDbDictionary
280
     1
281
     1
  3
ACAD_MLATT
360
1275
  3
ACAD_XREC_ROUNDTRIP
360
1274
  0
DICTIONARY
  5
1005
330
2C0
100
AcDbDictionary
280
     1
281
     1
  3
ACAD_MLATT
360
1277
  3
ACAD_XREC_ROUNDTRIP
360
1276
  0
DICTIONARY
  5
1008
330
2C1
100
AcDbDictionary
280
     1
281
     1
  3
ACAD_MLATT
360
1279
  3
ACAD_XREC_ROUNDTRIP
360
1278
  0
DICTIONARY
  5
100B
330
2C2
100
AcDbDictionary
280
     1
281
     1
  3
ACAD_MLATT
360
127B
  3
ACAD_XREC_ROUNDTRIP
360
127A
  0
DICTIONARY
  5
100E
330
2C3
100
AcDbDictionary
280
     1
281
     1
  3
ACAD_MLATT
360
127D
  3
ACAD_XREC_ROUNDTRIP
360
127C
  0
DICTIONARY
  5
1011
330
2C4
100
AcDbDictionary
280
     1
281
     1
  3
ACAD_MLATT
360
127F
  3
ACAD_XREC_ROUNDTRIP
360
127E
  0
DICTIONARY
  5
1014
330
2C5
100
AcDbDictionary
280
     1
281
     1
  3
ACAD_MLATT
360
1281
  3
ACAD_XREC_ROUNDTRIP
360
1280
  0
DICTIONARY
  5
1017
330
2C6
100
AcDbDictionary
280
     1
281
     1
  3
ACAD_MLATT
360
1283
  3
ACAD_XREC_ROUNDTRIP
360
1282
  0
DICTIONARY
  5
101A
330
2C7
100
AcDbDictionary
280
     1
281
     1
  3
ACAD_MLATT
360
1285
  3
ACAD_XREC_ROUNDTRIP
360
1284
  0
DICTIONARY
  5
101D
330
2C8
100
AcDbDictionary
280
     1
281
     1
  3
ACAD_MLATT
360
1287
  3
ACAD_XREC_ROUNDTRIP
360
1286
  0
DICTIONARY
  5
1020
330
2C9
100
AcDbDictionary
280
     1
281
     1
  3
ACAD_MLATT
360
1289
  3
ACAD_XREC_ROUNDTRIP
360
1288
  0
DICTIONARY
  5
1023
330
2CA
100
AcDbDictionary
280
     1
281
     1
  3
ACAD_MLATT
360
128B
  3
ACAD_XREC_ROUNDTRIP
360
128A
  0
DICTIONARY
  5
1026
330
2CB
100
AcDbDictionary
280
     1
281
     1
  3
ACAD_MLATT
360
128D
  3
ACAD_XREC_ROUNDTRIP
360
128C
  0
DICTIONARY
  5
1029
330
2CC
100
AcDbDictionary
280
     1
281
     1
  3
ACAD_MLATT
360
128F
  3
ACAD_XREC_ROUNDTRIP
360
128E
  0
DICTIONARY
  5
102C
330
2CD
100
AcDbDictionary
280
     1
281
     1
  3
ACAD_MLATT
360
1291
  3
ACAD_XREC_ROUNDTRIP
360
1290
  0
DICTIONARY
  5
102F
330
2CF
100
AcDbDictionary
280
     1
281
     1
  3
ACAD_MLATT
360
1293
  3
ACAD_XREC_ROUNDTRIP
360
1292
  0
DICTIONARY
  5
1032
330
2D0
100
AcDbDictionary
280
     1
281
     1
  3
ACAD_MLATT
360
1295
  3
ACAD_XREC_ROUNDTRIP
360
1294
  0
DICTIONARY
  5
1035
330
2D1
100
AcDbDictionary
280
     1
281
     1
  3
ACAD_MLATT
360
1297
  3
ACAD_XREC_ROUNDTRIP
360
1296
  0
DICTIONARY
  5
1038
330
2D2
100
AcDbDictionary
280
     1
281
     1
  3
ACAD_MLATT
360
1299
  3
ACAD_XREC_ROUNDTRIP
360
1298
  0
DICTIONARY
  5
103B
330
2D3
100
AcDbDictionary
280
     1
281
     1
  3
ACAD_MLATT
360
129B
  3
ACAD_XREC_ROUNDTRIP
360
129A
  0
DICTIONARY
  5
103E
330
2D4
100
AcDbDictionary
280
     1
281
     1
  3
ACAD_MLATT
360
129D
  3
ACAD_XREC_ROUNDTRIP
360
129C
  0
DICTIONARY
  5
1041
330
2D5
100
AcDbDictionary
280
     1
281
     1
  3
ACAD_MLATT
360
129F
  3
ACAD_XREC_ROUNDTRIP
360
129E
  0
DICTIONARY
  5
1044
330
2D6
100
AcDbDictionary
280
     1
281
     1
  3
ACAD_MLATT
360
12A1
  3
ACAD_XREC_ROUNDTRIP
360
12A0
  0
XRECORD
  5
FD9
102
{ACAD_REACTORS
330
C
102
}
330
C
100
AcDbXrecord
280
     1
300
AMECH_PP
300
2014
300
PDSU_F_S
  0
DICTIONARY
  5
63
102
{ACAD_REACTORS
330
C
102
}
330
C
100
AcDbDictionary
281
     1
  0
DICTIONARY
  5
6A
102
{ACAD_REACTORS
330
C
102
}
330
C
100
AcDbDictionary
281
     1
  3
Imperial24
350
6B
  3
Metric50
350
10F2
  0
FIELDLIST
  5
1238
102
{ACAD_REACTORS
330
C
102
}
330
C
100
AcDbIdSet
 90
        6
330
1236
330
1237
330
1239
330
1241
330
1242
330
1243
100
AcDbFieldList
  0
DICTIONARY
  5
D
102
{ACAD_REACTORS
330
C
102
}
330
C
100
AcDbDictionary
281
     1
  0
DICTIONARY
  5
62
102
{ACAD_REACTORS
330
C
102
}
330
C
100
AcDbDictionary
281
     1
  3
Layout1
350
6F
  3
Layout2
350
77
  3
Model
350
73
  0
DICTIONARY
  5
10
102
{ACAD_REACTORS
330
C
102
}
330
C
100
AcDbDictionary
281
     1
  3
ByBlock
350
19
  3
ByLayer
350
11
  3
Global
350
21
  0
DICTIONARY
  5
66
102
{ACAD_REACTORS
330
C
102
}
330
C
100
AcDbDictionary
281
     1
  3
Standard
350
67
  0
DICTIONARY
  5
5F
102
{ACAD_REACTORS
330
C
102
}
330
C
100
AcDbDictionary
281
     1
  3
Standard
350
60
  0
DICTIONARY
  5
61
102
{ACAD_REACTORS
330
C
102
}
330
C
100
AcDbDictionary
281
     1
  0
ACDBDICTIONARYWDFLT
  5
E
102
{ACAD_REACTORS
330
C
102
}
330
C
100
AcDbDictionary
281
     1
  3
Normal
350
F
100
AcDbDictionaryWithDefault
340
F
  0
DICTIONARY
  5
42
102
{ACAD_REACTORS
330
C
102
}
330
C
100
AcDbDictionary
281
     1
  3
A0
350
43
  3
A1
350
44
  3
A2
350
45
  3
A3
350
46
  3
A4
350
47
  3
A5
350
48
  3
A6
350
49
  3
A7
350
4A
  3
A8
350
4B
  3
A9
350
4C
  3
B0
350
4D
  3
B1
350
4E
  3
B2
350
4F
  3
B3
350
50
  3
B4
350
51
  3
B5
350
52
  3
B6
350
53
  0
DICTIONARY
  5
68
102
{ACAD_REACTORS
330
C
102
}
330
C
100
AcDbDictionary
281
     1
  3
Imperial24
350
69
  3
Metric50
350
10F1
  0
DICTIONARY
  5
64
102
{ACAD_REACTORS
330
C
102
}
330
C
100
AcDbDictionary
281
     1
  3
Standard
350
65
  0
DICTIONARY
  5
29
102
{ACAD_REACTORS
330
C
102
}
330
C
100
AcDbDictionary
281
     1
  3
2dWireframe
350
2F
  3
Basic
350
2E
  3
Brighten
350
35
  3
ColorChange
350
39
  3
Conceptual
350
32
  3
Dim
350
34
  3
EdgeColorOff
350
41
  3
Facepattern
350
38
  3
Flat
350
2A
  3
FlatWithEdges
350
2B
  3
Gouraud
350
2C
  3
GouraudWithEdges
350
2D
  3
Hidden
350
31
  3
JitterOff
350
3F
  3
Linepattern
350
37
  3
OverhangOff
350
40
  3
Realistic
350
33
  3
Shaded
350
3E
  3
Shaded with edges
350
3D
  3
Shades of Gray
350
3A
  3
Sketchy
350
3B
  3
Thicken
350
36
  3
Wireframe
350
30
  3
X-Ray
350
3C
  0
XRECORD
  5
12A6
102
{ACAD_REACTORS
330
C
102
}
330
C
100
AcDbXrecord
280
     1
 90
        1
330
65
330
69
330
6B
330
2AE
330
2B1
330
2B3
330
2B4
330
2B5
330
2B6
330
2B7
330
2B9
330
2BA
330
2BB
330
2BC
330
2BD
330
2BE
330
2BF
330
2C0
330
2C1
330
2C2
330
2C3
330
2C4
330
2C5
330
2C6
330
2C7
330
2C8
330
2C9
330
2CA
330
2CB
330
2CC
330
2CD
330
2CF
330
2D0
330
2D1
330
2D2
330
2D3
330
2D4
330
2D5
330
2D6
330
814
330
10F1
330
10F2
  0
DICTIONARY
  5
10EA
102
{ACAD_REACTORS
330
C
102
}
330
C
100
AcDbDictionary
281
     1
  3
CANNOSCALE
350
10EF
  3
CMLEADERSTYLE
350
10EC
  3
CTABLESTYLE
350
10EB
  3
CVIEWDETAILSTYLE
350
10ED
  3
CVIEWSECTIONSTYLE
350
10EE
  0
DICTIONARY
  5
11F3
102
{ACAD_REACTORS
330
C
102
}
330
C
100
AcDbDictionary
281
     1
  3
AcmStdDictionary
350
11FA
  0
DICTIONARY
  5
11CA
102
{ACAD_REACTORS
330
C
102
}
330
C
100
AcDbDictionary
281
     1
  0
DICTIONARY
  5
124C
102
{ACAD_REACTORS
330
C
102
}
330
C
100
AcDbDictionary
281
     1
  0
XRECORD
  5
125B
102
{ACAD_REACTORS
330
FDB
102
}
330
FDB
100
AcDbXrecord
280
     1
 70
     4
 70
     0
 70
     0
 40
1.0
  2
BAUTEILNUMMER
  1
Embedded Object
 10
130.9158253789775
 20
10.42767278684471
 30
0.0
 40
4.49999988079071
 41
54.70195188917251
 46
0.0
 71
     4
 72
     5
  1
201.8156 2D
  7
Textstil20
 73
     1
 44
1.0
  0
XRECORD
  5
125A
102
{ACAD_REACTORS
330
FDB
102
}
330
FDB
100
AcDbXrecord
280
     1
102
ACAD_MATT_HEIGHT
140
4.49999988079071
  0
XRECORD
  5
125D
102
{ACAD_REACTORS
330
FDE
102
}
330
FDE
100
AcDbXrecord
280
     1
 70
     4
 70
     0
 70
     0
 40
1.0
  2
TITEL
  1
Embedded Object
 10
50.34188267795689
 20
10.68647832065878
 30
0.0
 40
3.499999940395355
 41
79.0802469174333
 46
0.0
 71
     4
 72
     5
  1
Bügel zu Verstärkungsset Holz
  7
Aktuell-DIN
 73
     1
 44
1.0
  0
XRECORD
  5
125C
102
{ACAD_REACTORS
330
FDE
102
}
330
FDE
100
AcDbXrecord
280
     1
102
ACAD_MATT_HEIGHT
140
3.499999940395355
  0
XRECORD
  5
125F
102
{ACAD_REACTORS
330
FE1
102
}
330
FE1
100
AcDbXrecord
280
     1
 70
     4
 70
     0
 70
     0
 40
1.0
  2
EDM_CREATE_DATE
  1
Embedded Object
 10
149.0178744918914
 20
50.07937319863898
 30
0.0
 40
2.006599903106689
 41
19.36406890964408
 46
0.0
 71
     4
 72
     5
  1
22.01.2014
  7
Textstil31
 73
     1
 44
1.0
  0
XRECORD
  5
125E
102
{ACAD_REACTORS
330
FE1
102
}
330
FE1
100
AcDbXrecord
280
     1
102
ACAD_MATT_HEIGHT
140
2.006599903106689
  0
XRECORD
  5
1261
102
{ACAD_REACTORS
330
FE4
102
}
330
FE4
100
AcDbXrecord
280
     1
 70
     4
 70
     0
 70
     0
 40
1.0
  2
EDM_CREATE_BY
  1
Embedded Object
 10
168.3740742209001
 20
50.09190532403842
 30
0.0
 40
2.006599903106689
 41
15.92843426507769
 46
0.0
 71
     4
 72
     5
  1
Sn
  7
Textstil31
 73
     1
 44
1.0
  0
XRECORD
  5
1260
102
{ACAD_REACTORS
330
FE4
102
}
330
FE4
100
AcDbXrecord
280
     1
102
ACAD_MATT_HEIGHT
140
2.006599903106689
  0
XRECORD
  5
1263
102
{ACAD_REACTORS
330
FE7
102
}
330
FE7
100
AcDbXrecord
280
     1
 70
     4
 70
     0
 70
     0
 40
1.0
  2
EDM_CHECKED_BY
  1
Embedded Object
 10
168.3740742209001
 20
44.60013883511068
 30
0.0
 40
2.006599903106689
 41
31.83181559697239
 46
0.0
 71
     4
 72
     5
  1
Sn
  7
Textstil31
 73
     1
 44
1.0
  0
XRECORD
  5
1262
102
{ACAD_REACTORS
330
FE7
102
}
330
FE7
100
AcDbXrecord
280
     1
102
ACAD_MATT_HEIGHT
140
2.006599903106689
  0
XRECORD
  5
1265
102
{ACAD_REACTORS
330
FEA
102
}
330
FEA
100
AcDbXrecord
280
     1
 70
     4
 70
     0
 70
     0
 40
1.0
  2
EDM_CHECKED_DATE
  1
Embedded Object
 10
148.7947668615297
 20
44.63980514420173
 30
0.0
 40
2.006599903106689
 41
19.26865427753236
 46
0.0
 71
     4
 72
     5
  1
10.02.2016
  7
Textstil31
 73
     1
 44
1.0
  0
XRECORD
  5
1264
102
{ACAD_REACTORS
330
FEA
102
}
330
FEA
100
AcDbXrecord
280
     1
102
ACAD_MATT_HEIGHT
140
2.006599903106689
  0
XRECORD
  5
1267
102
{ACAD_REACTORS
330
FED
102
}
330
FED
100
AcDbXrecord
280
     1
 70
     4
 70
     0
 70
     0
 40
1.0
  2
AIMD_MATERIAL
  1
Embedded Object
 10
177.6047099978851
 20
61.47015512140098
 30
0.0
 40
2.006599903106689
 41
26.51720840769073
 46
0.0
 71
     5
 72
     5
  1
1.4301
  7
Textstil31
 73
     1
 44
1.0
  0
XRECORD
  5
1266
102
{ACAD_REACTORS
330
FED
102
}
330
FED
100
AcDbXrecord
280
     1
102
ACAD_MATT_HEIGHT
140
2.006599903106689
  0
XRECORD
  5
1269
102
{ACAD_REACTORS
330
FF0
102
}
330
FF0
100
AcDbXrecord
280
     1
 70
     4
 70
     0
 70
     0
 40
1.0
  2
AIMD_REPLACEMENT
  1
Embedded Object
 10
149.1
 20
20.22568341402201
 30
0.0
 40
2.000000029802322
 41
29.0
 46
0.0
 71
     1
 72
     5
  1

  7
Textstil10
 73
     1
 44
1.0
  0
XRECORD
  5
1268
102
{ACAD_REACTORS
330
FF0
102
}
330
FF0
100
AcDbXrecord
280
     1
102
ACAD_MATT_HEIGHT
140
2.000000029802322
  0
XRECORD
  5
126B
102
{ACAD_REACTORS
330
FF3
102
}
330
FF3
100
AcDbXrecord
280
     1
 70
     4
 70
     0
 70
     0
 40
1.0
  2
1AIMD_REVISION_USERNAME
  1
Embedded Object
 10
125.5
 20
37.52978812439297
 30
0.0
 40
2.000000029802322
 41
7.999999999999989
 46
0.0
 71
     5
 72
     5
  1

  7
Textstil10
 73
     1
 44
1.0
  0
XRECORD
  5
126A
102
{ACAD_REACTORS
330
FF3
102
}
330
FF3
100
AcDbXrecord
280
     1
102
ACAD_MATT_HEIGHT
140
2.000000029802322
  0
XRECORD
  5
126D
102
{ACAD_REACTORS
330
FF6
102
}
330
FF6
100
AcDbXrecord
280
     1
 70
     4
 70
     0
 70
     0
 40
1.0
  2
1AIMD_REVISION_DESCRIPTION
  1
Embedded Object
 10
18.3
 20
37.50344422828552
 30
0.0
 40
2.000000029802322
 41
82.96770945006057
 46
0.0
 71
     4
 72
     5
  1

  7
Textstil10
 73
     1
 44
1.0
  0
XRECORD
  5
126C
102
{ACAD_REACTORS
330
FF6
102
}
330
FF6
100
AcDbXrecord
280
     1
102
ACAD_MATT_HEIGHT
140
2.000000029802322
  0
XRECORD
  5
126F
102
{ACAD_REACTORS
330
FF9
102
}
330
FF9
100
AcDbXrecord
280
     1
 70
     4
 70
     0
 70
     0
 40
1.0
  2
1AIMD_REVISION_INDEX
  1
Embedded Object
 10
14.0
 20
37.57520186233728
 30
0.0
 40
2.000000029802322
 41
8.000000000000007
 46
0.0
 71
     5
 72
     5
  1

  7
Textstil10
 73
     1
 44
1.0
  0
XRECORD
  5
126E
102
{ACAD_REACTORS
330
FF9
102
}
330
FF9
100
AcDbXrecord
280
     1
102
ACAD_MATT_HEIGHT
140
2.000000029802322
  0
XRECORD
  5
1271
102
{ACAD_REACTORS
330
FFC
102
}
330
FFC
100
AcDbXrecord
280
     1
 70
     4
 70
     0
 70
     0
 40
1.0
  2
2AIMD_REVISION_USERNAME
  1
Embedded Object
 10
125.5
 20
41.80881231003223
 30
0.0
 40
2.000000029802322
 41
7.999999999999989
 46
0.0
 71
     5
 72
     5
  1

  7
Textstil10
 73
     1
 44
1.0
  0
XRECORD
  5
1270
102
{ACAD_REACTORS
330
FFC
102
}
330
FFC
100
AcDbXrecord
280
     1
102
ACAD_MATT_HEIGHT
140
2.000000029802322
  0
XRECORD
  5
1273
102
{ACAD_REACTORS
330
FFF
102
}
330
FFF
100
AcDbXrecord
280
     1
 70
     4
 70
     0
 70
     0
 40
1.0
  2
2AIMD_REVISION_DATE
  1
Embedded Object
 10
112.5
 20
41.55065512658466
 30
0.0
 40
2.000000029802322
 41
13.0
 46
0.0
 71
     5
 72
     5
  1

  7
Textstil10
 73
     1
 44
1.0
  0
XRECORD
  5
1272
102
{ACAD_REACTORS
330
FFF
102
}
330
FFF
100
AcDbXrecord
280
     1
102
ACAD_MATT_HEIGHT
140
2.000000029802322
  0
XRECORD
  5
1275
102
{ACAD_REACTORS
330
1002
102
}
330
1002
100
AcDbXrecord
280
     1
 70
     4
 70
     0
 70
     0
 40
1.0
  2
2AIMD_REVISION_DESCRIPTION
  1
Embedded Object
 10
18.3
 20
41.97394057485317
 30
0.0
 40
2.000000029802322
 41
82.99495632584736
 46
0.0
 71
     4
 72
     5
  1

  7
Textstil10
 73
     1
 44
1.0
  0
XRECORD
  5
1274
102
{ACAD_REACTORS
330
1002
102
}
330
1002
100
AcDbXrecord
280
     1
102
ACAD_MATT_HEIGHT
140
2.000000029802322
  0
XRECORD
  5
1277
102
{ACAD_REACTORS
330
1005
102
}
330
1005
100
AcDbXrecord
280
     1
 70
     4
 70
     0
 70
     0
 40
1.0
  2
2AIMD_REVISION_INDEX
  1
Embedded Object
 10
14.0
 20
41.93671748032342
 30
0.0
 40
2.000000029802322
 41
8.000000000000007
 46
0.0
 71
     5
 72
     5
  1

  7
Textstil10
 73
     1
 44
1.0
  0
XRECORD
  5
1276
102
{ACAD_REACTORS
330
1005
102
}
330
1005
100
AcDbXrecord
280
     1
102
ACAD_MATT_HEIGHT
140
2.000000029802322
  0
XRECORD
  5
1279
102
{ACAD_REACTORS
330
1008
102
}
330
1008
100
AcDbXrecord
280
     1
 70
     4
 70
     0
 70
     0
 40
1.0
  2
3AIMD_REVISION_USERNAME
  1
Embedded Object
 10
125.5
 20
46.03595966641211
 30
0.0
 40
2.000000029802322
 41
7.999999999999989
 46
0.0
 71
     5
 72
     5
  1

  7
Textstil10
 73
     1
 44
1.0
  0
XRECORD
  5
1278
102
{ACAD_REACTORS
330
1008
102
}
330
1008
100
AcDbXrecord
280
     1
102
ACAD_MATT_HEIGHT
140
2.000000029802322
  0
XRECORD
  5
127B
102
{ACAD_REACTORS
330
100B
102
}
330
100B
100
AcDbXrecord
280
     1
 70
     4
 70
     0
 70
     0
 40
1.0
  2
3AIMD_REVISION_DATE
  1
Embedded Object
 10
112.5
 20
46.05889237330153
 30
0.0
 40
2.000000029802322
 41
13.0
 46
0.0
 71
     5
 72
     5
  1

  7
Textstil10
 73
     1
 44
1.0
  0
XRECORD
  5
127A
102
{ACAD_REACTORS
330
100B
102
}
330
100B
100
AcDbXrecord
280
     1
102
ACAD_MATT_HEIGHT
140
2.000000029802322
  0
XRECORD
  5
127D
102
{ACAD_REACTORS
330
100E
102
}
330
100E
100
AcDbXrecord
280
     1
 70
     4
 70
     0
 70
     0
 40
1.0
  2
3AIMD_REVISION_DESCRIPTION
  1
Embedded Object
 10
18.3
 20
46.07718270551362
 30
0.0
 40
2.000000029802322
 41
83.06691918986146
 46
0.0
 71
     4
 72
     5
  1

  7
Textstil10
 73
     1
 44
1.0
  0
XRECORD
  5
127C
102
{ACAD_REACTORS
330
100E
102
}
330
100E
100
AcDbXrecord
280
     1
102
ACAD_MATT_HEIGHT
140
2.000000029802322
  0
XRECORD
  5
127F
102
{ACAD_REACTORS
330
1011
102
}
330
1011
100
AcDbXrecord
280
     1
 70
     4
 70
     0
 70
     0
 40
1.0
  2
3AIMD_REVISION_INDEX
  1
Embedded Object
 10
14.0
 20
46.08650419099681
 30
0.0
 40
2.000000029802322
 41
8.000000000000007
 46
0.0
 71
     5
 72
     5
  1

  7
Textstil10
 73
     1
 44
1.0
  0
XRECORD
  5
127E
102
{ACAD_REACTORS
330
1011
102
}
330
1011
100
AcDbXrecord
280
     1
102
ACAD_MATT_HEIGHT
140
2.000000029802322
  0
XRECORD
  5
1281
102
{ACAD_REACTORS
330
1014
102
}
330
1014
100
AcDbXrecord
280
     1
 70
     4
 70
     0
 70
     0
 40
1.0
  2
4AIMD_REVISION_USERNAME
  1
Embedded Object
 10
125.5
 20
50.28595966641212
 30
0.0
 40
2.000000029802322
 41
7.999999999999989
 46
0.0
 71
     5
 72
     5
  1

  7
Textstil10
 73
     1
 44
1.0
  0
XRECORD
  5
1280
102
{ACAD_REACTORS
330
1014
102
}
330
1014
100
AcDbXrecord
280
     1
102
ACAD_MATT_HEIGHT
140
2.000000029802322
  0
XRECORD
  5
1283
102
{ACAD_REACTORS
330
1017
102
}
330
1017
100
AcDbXrecord
280
     1
 70
     4
 70
     0
 70
     0
 40
1.0
  2
4AIMD_REVISION_INDEX
  1
Embedded Object
 10
14.0
 20
50.35805766312741
 30
0.0
 40
2.000000029802322
 41
8.000000000000007
 46
0.0
 71
     5
 72
     5
  1

  7
Textstil10
 73
     1
 44
1.0
  0
XRECORD
  5
1282
102
{ACAD_REACTORS
330
1017
102
}
330
1017
100
AcDbXrecord
280
     1
102
ACAD_MATT_HEIGHT
140
2.000000029802322
  0
XRECORD
  5
1285
102
{ACAD_REACTORS
330
101A
102
}
330
101A
100
AcDbXrecord
280
     1
 70
     4
 70
     0
 70
     0
 40
1.0
  2
4AIMD_REVISION_DATE
  1
Embedded Object
 10
112.5
 20
50.30889237330152
 30
0.0
 40
2.000000029802322
 41
13.0
 46
0.0
 71
     5
 72
     5
  1

  7
Textstil10
 73
     1
 44
1.0
  0
XRECORD
  5
1284
102
{ACAD_REACTORS
330
101A
102
}
330
101A
100
AcDbXrecord
280
     1
102
ACAD_MATT_HEIGHT
140
2.000000029802322
  0
XRECORD
  5
1287
102
{ACAD_REACTORS
330
101D
102
}
330
101D
100
AcDbXrecord
280
     1
 70
     4
 70
     0
 70
     0
 40
1.0
  2
AIMD_ORIGIN
  1
Embedded Object
 10
149.1
 20
24.06337316165219
 30
0.0
 40
2.006599903106689
 41
0.0
 46
0.0
 71
     4
 72
     5
  1

  7
Textstil31
 73
     1
 44
1.0
  0
XRECORD
  5
1286
102
{ACAD_REACTORS
330
101D
102
}
330
101D
100
AcDbXrecord
280
     1
102
ACAD_MATT_HEIGHT
140
2.006599903106689
  0
XRECORD
  5
1289
102
{ACAD_REACTORS
330
1020
102
}
330
1020
100
AcDbXrecord
280
     1
 70
     4
 70
     0
 70
     0
 40
1.0
  2
AIMD_SCALE
  1
Embedded Object
 10
185.7772510956572
 20
46.98002756483798
 30
0.0
 40
3.499999940395355
 41
0.0
 46
0.0
 71
     2
 72
     5
  1
1:1
  7
Aktuell-DIN
 73
     1
 44
1.0
  0
XRECORD
  5
1288
102
{ACAD_REACTORS
330
1020
102
}
330
1020
100
AcDbXrecord
280
     1
102
ACAD_MATT_HEIGHT
140
3.499999940395355
  0
XRECORD
  5
128B
102
{ACAD_REACTORS
330
1023
102
}
330
1023
100
AcDbXrecord
280
     1
 70
     4
 70
     0
 70
     0
 40
1.0
  2
1AIMD_REVISION_DATE
  1
Embedded Object
 10
112.5
 20
37.57471445029354
 30
0.0
 40
2.000000029802322
 41
13.0
 46
0.0
 71
     5
 72
     5
  1

  7
Textstil10
 73
     1
 44
1.0
  0
XRECORD
  5
128A
102
{ACAD_REACTORS
330
1023
102
}
330
1023
100
AcDbXrecord
280
     1
102
ACAD_MATT_HEIGHT
140
2.000000029802322
  0
XRECORD
  5
128D
102
{ACAD_REACTORS
330
1026
102
}
330
1026
100
AcDbXrecord
280
     1
 70
     4
 70
     0
 70
     0
 40
1.0
  2
4AIMD_REVISION_DESCRIPTION
  1
Embedded Object
 10
18.3
 20
50.34949164108739
 30
0.0
 40
2.000000029802322
 41
82.92267927108246
 46
0.0
 71
     4
 72
     5
  1

  7
Textstil10
 73
     1
 44
1.0
  0
XRECORD
  5
128C
102
{ACAD_REACTORS
330
1026
102
}
330
1026
100
AcDbXrecord
280
     1
102
ACAD_MATT_HEIGHT
140
2.000000029802322
  0
XRECORD
  5
128F
102
{ACAD_REACTORS
330
1029
102
}
330
1029
100
AcDbXrecord
280
     1
 70
     4
 70
     0
 70
     0
 40
1.0
  2
TITEL
  1
Embedded Object
 10
86.42769429386399
 20
62.12001251768349
 30
0.0
 40
2.000000029802322
 41
80.17531946005505
 46
0.0
 71
     5
 72
     5
  1
Bügel zu Verstärkungsset Holz
  7
NORM
 73
     1
 44
1.0
  0
XRECORD
  5
128E
102
{ACAD_REACTORS
330
1029
102
}
330
1029
100
AcDbXrecord
280
     1
102
ACAD_MATT_HEIGHT
140
2.000000029802322
  0
XRECORD
  5
1291
102
{ACAD_REACTORS
330
102C
102
}
330
102C
100
AcDbXrecord
280
     1
 70
     4
 70
     0
 70
     0
 40
1.0
  2
AIMD_REV
  1
Embedded Object
 10
189.4833791900584
 20
7.971925537779899
 30
0.0
 40
3.499999940395355
 41
8.835954606110973
 46
0.0
 71
     5
 72
     5
  1

  7
Aktuell-DIN
 73
     1
 44
1.0
  0
XRECORD
  5
1290
102
{ACAD_REACTORS
330
102C
102
}
330
102C
100
AcDbXrecord
280
     1
102
ACAD_MATT_HEIGHT
140
3.499999940395355
  0
XRECORD
  5
1293
102
{ACAD_REACTORS
330
102F
102
}
330
102F
100
AcDbXrecord
280
     1
 70
     4
 70
     0
 70
     0
 40
1.0
  2
Blattgröße
  1
Embedded Object
 10
185.8055286082098
 20
39.57851129336555
 30
0.0
 40
2.489199936389923
 41
15.61272158242218
 46
0.0
 71
     5
 72
     5
  1
A4
  7
Textstil32
 73
     1
 44
1.0
  0
XRECORD
  5
1292
102
{ACAD_REACTORS
330
102F
102
}
330
102F
100
AcDbXrecord
280
     1
102
ACAD_MATT_HEIGHT
140
2.489199936389923
  0
XRECORD
  5
1295
102
{ACAD_REACTORS
330
1032
102
}
330
1032
100
AcDbXrecord
280
     1
 70
     4
 70
     0
 70
     0
 40
1.0
  2
AIMD_FIRMA
  1
Embedded Object
 10
149.1
 20
34.44033611102547
 30
0.0
 40
2.006599903106689
 41
52.94720680962109
 46
0.0
 71
     4
 72
     5
  1

  7
Textstil31
 73
     1
 44
1.0
  0
XRECORD
  5
1294
102
{ACAD_REACTORS
330
1032
102
}
330
1032
100
AcDbXrecord
280
     1
102
ACAD_MATT_HEIGHT
140
2.006599903106689
  0
XRECORD
  5
1297
102
{ACAD_REACTORS
330
1035
102
}
330
1035
100
AcDbXrecord
280
     1
 70
     4
 70
     0
 70
     0
 40
1.0
  2
AIMD_OBERFL
  1
Embedded Object
 10
149.1
 20
29.33285549226398
 30
0.0
 40
2.006599903106689
 41
52.33510037251564
 46
0.0
 71
     4
 72
     5
  1

  7
Textstil31
 73
     1
 44
1.0
  0
XRECORD
  5
1296
102
{ACAD_REACTORS
330
1035
102
}
330
1035
100
AcDbXrecord
280
     1
102
ACAD_MATT_HEIGHT
140
2.006599903106689
  0
XRECORD
  5
1299
102
{ACAD_REACTORS
330
1038
102
}
330
1038
100
AcDbXrecord
280
     1
 70
     4
 70
     0
 70
     0
 40
1.0
  2
EDM_CHECKED_DATE
  1
Embedded Object
 10
148.7957707986071
 20
39.61024990696526
 30
0.0
 40
2.000000029802322
 41
19.39355134107019
 46
0.0
 71
     4
 72
     5
  1
10.02.2016
  7
NORM
 73
     1
 44
1.0
  0
XRECORD
  5
1298
102
{ACAD_REACTORS
330
1038
102
}
330
1038
100
AcDbXrecord
280
     1
102
ACAD_MATT_HEIGHT
140
2.000000029802322
  0
XRECORD
  5
129B
102
{ACAD_REACTORS
330
103B
102
}
330
103B
100
AcDbXrecord
280
     1
 70
     4
 70
     0
 70
     0
 40
1.0
  2
EDM_CHECKED_BY
  1
Embedded Object
 10
168.3740742209001
 20
39.60282374379859
 30
0.0
 40
2.006599903106689
 41
31.25263641681158
 46
0.0
 71
     4
 72
     5
  1
Sn
  7
Textstil31
 73
     1
 44
1.0
  0
XRECORD
  5
129A
102
{ACAD_REACTORS
330
103B
102
}
330
103B
100
AcDbXrecord
280
     1
102
ACAD_MATT_HEIGHT
140
2.006599903106689
  0
XRECORD
  5
129D
102
{ACAD_REACTORS
330
103E
102
}
330
103E
100
AcDbXrecord
280
     1
 70
     4
 70
     0
 70
     0
 40
1.0
  2
AIMD_BEZ2
  1
Embedded Object
 10
50.71814460949027
 20
29.0519839222424
 30
0.0
 40
2.000000029802322
 41
62.84993842412557
 46
0.0
 71
     4
 72
     5
  1
24413
  7
NORM
 73
     1
 44
1.0
  0
XRECORD
  5
129C
102
{ACAD_REACTORS
330
103E
102
}
330
103E
100
AcDbXrecord
280
     1
102
ACAD_MATT_HEIGHT
140
2.000000029802322
  0
XRECORD
  5
129F
102
{ACAD_REACTORS
330
1041
102
}
330
1041
100
AcDbXrecord
280
     1
 70
     4
 70
     0
 70
     0
 40
1.0
  2
AIMD_BEZ3
  1
Embedded Object
 10
50.79999999999974
 20
24.10552552762226
 30
0.0
 40
2.000000029802322
 41
62.5576131291296
 46
0.0
 71
     4
 72
     5
  1

  7
NORM
 73
     1
 44
1.0
  0
XRECORD
  5
129E
102
{ACAD_REACTORS
330
1041
102
}
330
1041
100
AcDbXrecord
280
     1
102
ACAD_MATT_HEIGHT
140
2.000000029802322
  0
XRECORD
  5
12A1
102
{ACAD_REACTORS
330
1044
102
}
330
1044
100
AcDbXrecord
280
     1
 70
     4
 70
     0
 70
     0
 40
1.0
  2
AIMD_BEZ4
  1
Embedded Object
 10
50.79999999999992
 20
19.09884857604945
 30
0.0
 40
2.000000029802322
 41
62.7037757766276
 46
0.0
 71
     4
 72
     5
  1

  7
NORM
 73
     1
 44
1.0
  0
XRECORD
  5
12A0
102
{ACAD_REACTORS
330
1044
102
}
330
1044
100
AcDbXrecord
280
     1
102
ACAD_MATT_HEIGHT
140
2.000000029802322
  0
ACDBDETAILVIEWSTYLE
  5
6B
102
{ACAD_XDICTIONARY
360
1257
102
}
102
{ACAD_REACTORS
330
6A
330
122C
102
}
330
6A
100
AcDbModelDocViewStyle
 70
     0
  3
Imperial24
290
     0
100
AcDbDetailViewStyle
 70
     0
 71
     0
 90
        3
 71
     1
340
55
 62
   256
 40
0.24
340
0
 62
   256
 40
0.24
300

 40
0.36
280
     3
 71
     2
340
5D
 90
       25
 62
   256
 71
     3
340
55
 62
   256
 40
0.24
 90
        1
 40
0.75
 90
        1
300
%<\AcVar ViewType \f "%tc1">% %<\AcVar ViewDetailId>%\PVARIA %<\AcVar ViewScale \f "%sn">%
 71
     4
340
5D
 90
       25
 62
   256
340
5D
 90
       25
 62
   256
280
     0
  0
ACDBDETAILVIEWSTYLE
  5
10F2
102
{ACAD_XDICTIONARY
360
12A4
102
}
102
{ACAD_REACTORS
330
6A
330
122D
102
}
330
6A
100
AcDbModelDocViewStyle
 70
     0
  3
Metric50
290
     0
100
AcDbDetailViewStyle
 70
     0
 71
     0
 90
        3
 71
     1
340
55
 62
   256
 40
5.0
340
0
 62
   256
 40
5.0
300

 40
0.0
280
     1
 71
     2
340
5D
 90
       25
 62
   256
 71
     3
340
55
 62
   256
 40
5.0
 90
        0
 40
15.0
 90
        1
300
%<\AcVar ViewDetailId>% (%<\AcVar ViewScale \f "%sn">%)
 71
     4
340
5D
 90
       25
 62
   256
340
5D
 90
       25
 62
   256
280
     0
  0
LAYOUT
  5
6F
102
{ACAD_REACTORS
330
62
102
}
330
62
100
AcDbPlotSettings
  1

  2

  4

  6

 40
0.0
 41
0.0
 42
0.0
 43
0.0
 44
0.0
 45
0.0
 46
0.0
 47
0.0
 48
0.0
 49
0.0
140
0.0
141
0.0
142
1.0
143
1.0
 70
   688
 72
     0
 73
     0
 74
     5
  7

 75
    16
147
1.0
 76
     0
 77
     2
 78
   300
148
0.0
149
0.0
100
AcDbLayout
  1
Layout1
 70
     1
 71
     1
 10
0.0
 20
0.0
 11
210.0
 21
297.0
 12
0.0
 22
0.0
 32
0.0
 14
0.0
 24
0.0
 34
0.0
 15
210.0
 25
297.0
 35
0.0
146
0.0
 13
0.0
 23
0.0
 33
0.0
 16
1.0
 26
0.0
 36
0.0
 17
0.0
 27
1.0
 37
0.0
 76
     0
330
6C
  0
LAYOUT
  5
77
102
{ACAD_REACTORS
330
62
102
}
330
62
100
AcDbPlotSettings
  1

  2

  4

  6

 40
0.0
 41
0.0
 42
0.0
 43
0.0
 44
0.0
 45
0.0
 46
0.0
 47
0.0
 48
0.0
 49
0.0
140
0.0
141
0.0
142
1.0
143
1.0
 70
   688
 72
     0
 73
     0
 74
     5
  7

 75
    16
147
1.0
 76
     0
 77
     2
 78
   300
148
0.0
149
0.0
100
AcDbLayout
  1
Layout2
 70
     1
 71
     2
 10
0.0
 20
0.0
 11
12.0
 21
9.0
 12
0.0
 22
0.0
 32
0.0
 14
0.0
 24
0.0
 34
0.0
 15
0.0
 25
0.0
 35
0.0
146
0.0
 13
0.0
 23
0.0
 33
0.0
 16
1.0
 26
0.0
 36
0.0
 17
0.0
 27
1.0
 37
0.0
 76
     0
330
74
  0
LAYOUT
  5
73
102
{ACAD_REACTORS
330
62
102
}
330
62
100
AcDbPlotSettings
  1

  2

  4

  6

 40
0.0
 41
0.0
 42
0.0
 43
0.0
 44
0.0
 45
0.0
 46
0.0
 47
0.0
 48
0.0
 49
0.0
140
0.0
141
0.0
142
1.0
143
1.0
 70
  1712
 72
     0
 73
     0
 74
     0
  7

 75
     0
147
1.0
 76
     0
 77
     2
 78
   300
148
0.0
149
0.0
100
AcDbLayout
  1
Model
 70
     1
 71
     0
 10
0.0
 20
0.0
 11
12.0
 21
9.0
 12
0.0
 22
0.0
 32
0.0
 14
0.0
 24
0.0
 34
0.0
 15
0.0
 25
0.0
 35
0.0
146
0.0
 13
0.0
 23
0.0
 33
0.0
 16
1.0
 26
0.0
 36
0.0
 17
0.0
 27
1.0
 37
0.0
 76
     0
330
70
331
57
  0
MATERIAL
  5
19
102
{ACAD_XDICTIONARY
360
1A
102
}
102
{ACAD_REACTORS
330
10
102
}
330
10
100
AcDbMaterial
  1
ByBlock
 72
     0
 43
0.0208333333333333
 43
0.0
 43
0.0
 43
0.0
 43
0.0
 43
0.0208333333333333
 43
0.0
 43
0.0
 43
0.0
 43
0.0
 43
1.0
 43
0.0
 43
0.0
 43
0.0
 43
0.0
 43
1.0
 77
     0
 47
0.0208333333333333
 47
0.0
 47
0.0
 47
0.0
 47
0.0
 47
0.0208333333333333
 47
0.0
 47
0.0
 47
0.0
 47
0.0
 47
1.0
 47
0.0
 47
0.0
 47
0.0
 47
0.0
 47
1.0
171
     0
 49
0.0208333333333333
 49
0.0
 49
0.0
 49
0.0
 49
0.0
 49
0.0208333333333333
 49
0.0
 49
0.0
 49
0.0
 49
0.0
 49
1.0
 49
0.0
 49
0.0
 49
0.0
 49
0.0
 49
1.0
175
     0
142
0.0208333333333333
142
0.0
142
0.0
142
0.0
142
0.0
142
0.0208333333333333
142
0.0
142
0.0
142
0.0
142
0.0
142
1.0
142
0.0
142
0.0
142
0.0
142
0.0
142
1.0
179
     0
144
0.0208333333333333
144
0.0
144
0.0
144
0.0
144
0.0
144
0.0208333333333333
144
0.0
144
0.0
144
0.0
144
0.0
144
1.0
144
0.0
144
0.0
144
0.0
144
0.0
144
1.0
147
0.0208333333333333
147
0.0
147
0.0
147
0.0
147
0.0
147
0.0208333333333333
147
0.0
147
0.0
147
0.0
147
0.0
147
1.0
147
0.0
147
0.0
147
0.0
147
0.0
147
1.0
  0
MATERIAL
  5
11
102
{ACAD_XDICTIONARY
360
12
102
}
102
{ACAD_REACTORS
330
10
102
}
330
10
100
AcDbMaterial
  1
ByLayer
 72
     0
 43
0.0208333333333333
 43
0.0
 43
0.0
 43
0.0
 43
0.0
 43
0.0208333333333333
 43
0.0
 43
0.0
 43
0.0
 43
0.0
 43
1.0
 43
0.0
 43
0.0
 43
0.0
 43
0.0
 43
1.0
 77
     0
 47
0.0208333333333333
 47
0.0
 47
0.0
 47
0.0
 47
0.0
 47
0.0208333333333333
 47
0.0
 47
0.0
 47
0.0
 47
0.0
 47
1.0
 47
0.0
 47
0.0
 47
0.0
 47
0.0
 47
1.0
171
     0
 49
0.0208333333333333
 49
0.0
 49
0.0
 49
0.0
 49
0.0
 49
0.0208333333333333
 49
0.0
 49
0.0
 49
0.0
 49
0.0
 49
1.0
 49
0.0
 49
0.0
 49
0.0
 49
0.0
 49
1.0
175
     0
142
0.0208333333333333
142
0.0
142
0.0
142
0.0
142
0.0
142
0.0208333333333333
142
0.0
142
0.0
142
0.0
142
0.0
142
1.0
142
0.0
142
0.0
142
0.0
142
0.0
142
1.0
179
     0
144
0.0208333333333333
144
0.0
144
0.0
144
0.0
144
0.0
144
0.0208333333333333
144
0.0
144
0.0
144
0.0
144
0.0
144
1.0
144
0.0
144
0.0
144
0.0
144
0.0
144
1.0
147
0.0208333333333333
147
0.0
147
0.0
147
0.0
147
0.0
147
0.0208333333333333
147
0.0
147
0.0
147
0.0
147
0.0
147
1.0
147
0.0
147
0.0
147
0.0
147
0.0
147
1.0
  0
MATERIAL
  5
21
102
{ACAD_XDICTIONARY
360
22
102
}
102
{ACAD_REACTORS
330
10
102
}
330
10
100
AcDbMaterial
  1
Global
 72
     0
 43
0.0208333333333333
 43
0.0
 43
0.0
 43
0.0
 43
0.0
 43
0.0208333333333333
 43
0.0
 43
0.0
 43
0.0
 43
0.0
 43
1.0
 43
0.0
 43
0.0
 43
0.0
 43
0.0
 43
1.0
 77
     0
 47
0.0208333333333333
 47
0.0
 47
0.0
 47
0.0
 47
0.0
 47
0.0208333333333333
 47
0.0
 47
0.0
 47
0.0
 47
0.0
 47
1.0
 47
0.0
 47
0.0
 47
0.0
 47
0.0
 47
1.0
171
     0
 49
0.0208333333333333
 49
0.0
 49
0.0
 49
0.0
 49
0.0
 49
0.0208333333333333
 49
0.0
 49
0.0
 49
0.0
 49
0.0
 49
1.0
 49
0.0
 49
0.0
 49
0.0
 49
0.0
 49
1.0
175
     0
142
0.0208333333333333
142
0.0
142
0.0
142
0.0
142
0.0
142
0.0208333333333333
142
0.0
142
0.0
142
0.0
142
0.0
142
1.0
142
0.0
142
0.0
142
0.0
142
0.0
142
1.0
179
     0
144
0.0208333333333333
144
0.0
144
0.0
144
0.0
144
0.0
144
0.0208333333333333
144
0.0
144
0.0
144
0.0
144
0.0
144
1.0
144
0.0
144
0.0
144
0.0
144
0.0
144
1.0
147
0.0208333333333333
147
0.0
147
0.0
147
0.0
147
0.0
147
0.0208333333333333
147
0.0
147
0.0
147
0.0
147
0.0
147
1.0
147
0.0
147
0.0
147
0.0
147
0.0
147
1.0
  0
MLEADERSTYLE
  5
67
102
{ACAD_REACTORS
330
66
102
}
330
66
100
AcDbMLeaderStyle
179
     2
170
     2
171
     1
172
     0
 90
        2
 40
0.0
 41
0.0
173
     1
 91
-1056964608
340
5B
 92
       -2
290
     1
 42
0.09
291
     1
 43
0.36
  3
Standard
 44
0.18
300

342
55
174
     1
178
     6
175
     1
176
     0
 93
-1056964608
 45
0.18
292
     0
297
     0
 46
0.18
 94
-1056964608
 47
1.0
 49
1.0
140
1.0
293
     1
141
0.0
294
     1
177
     0
142
1.0
295
     0
296
     0
143
0.125
271
     0
272
     9
273
     9
298
     1
  0
MLINESTYLE
  5
60
102
{ACAD_REACTORS
330
5F
102
}
330
5F
100
AcDbMlineStyle
  2
STANDARD
 70
     0
  3

 62
   256
 51
90.0
 52
90.0
 71
     2
 49
0.5
 62
   256
  6
BYLAYER
 49
-0.5
 62
   256
  6
BYLAYER
  0
ACDBPLACEHOLDER
  5
F
102
{ACAD_REACTORS
330
E
102
}
330
E
  0
SCALE
  5
43
102
{ACAD_REACTORS
330
42
102
}
330
42
100
AcDbScale
 70
     0
300
1:1
140
1.0
141
1.0
290
     1
  0
SCALE
  5
44
102
{ACAD_REACTORS
330
42
102
}
330
42
100
AcDbScale
 70
     0
300
1/128" = 1'-0"
140
0.0078125
141
12.0
290
     0
  0
SCALE
  5
45
102
{ACAD_REACTORS
330
42
102
}
330
42
100
AcDbScale
 70
     0
300
1/64" = 1'-0"
140
0.015625
141
12.0
290
     0
  0
SCALE
  5
46
102
{ACAD_REACTORS
330
42
102
}
330
42
100
AcDbScale
 70
     0
300
1/32" = 1'-0"
140
0.03125
141
12.0
290
     0
  0
SCALE
  5
47
102
{ACAD_REACTORS
330
42
102
}
330
42
100
AcDbScale
 70
     0
300
1/16" = 1'-0"
140
0.0625
141
12.0
290
     0
  0
SCALE
  5
48
102
{ACAD_REACTORS
330
42
102
}
330
42
100
AcDbScale
 70
     0
300
3/32" = 1'-0"
140
0.09375
141
12.0
290
     0
  0
SCALE
  5
49
102
{ACAD_REACTORS
330
42
102
}
330
42
100
AcDbScale
 70
     0
300
1/8" = 1'-0"
140
0.125
141
12.0
290
     0
  0
SCALE
  5
4A
102
{ACAD_REACTORS
330
42
102
}
330
42
100
AcDbScale
 70
     0
300
3/16" = 1'-0"
140
0.1875
141
12.0
290
     0
  0
SCALE
  5
4B
102
{ACAD_REACTORS
330
42
102
}
330
42
100
AcDbScale
 70
     0
300
1/4" = 1'-0"
140
0.25
141
12.0
290
     0
  0
SCALE
  5
4C
102
{ACAD_REACTORS
330
42
102
}
330
42
100
AcDbScale
 70
     0
300
3/8" = 1'-0"
140
0.375
141
12.0
290
     0
  0
SCALE
  5
4D
102
{ACAD_REACTORS
330
42
102
}
330
42
100
AcDbScale
 70
     0
300
1/2" = 1'-0"
140
0.5
141
12.0
290
     0
  0
SCALE
  5
4E
102
{ACAD_REACTORS
330
42
102
}
330
42
100
AcDbScale
 70
     0
300
3/4" = 1'-0"
140
0.75
141
12.0
290
     0
  0
SCALE
  5
4F
102
{ACAD_REACTORS
330
42
102
}
330
42
100
AcDbScale
 70
     0
300
1" = 1'-0"
140
1.0
141
12.0
290
     0
  0
SCALE
  5
50
102
{ACAD_REACTORS
330
42
102
}
330
42
100
AcDbScale
 70
     0
300
1-1/2" = 1'-0"
140
1.5
141
12.0
290
     0
  0
SCALE
  5
51
102
{ACAD_REACTORS
330
42
102
}
330
42
100
AcDbScale
 70
     0
300
3" = 1'-0"
140
3.0
141
12.0
290
     0
  0
SCALE
  5
52
102
{ACAD_REACTORS
330
42
102
}
330
42
100
AcDbScale
 70
     0
300
6" = 1'-0"
140
6.0
141
12.0
290
     0
  0
SCALE
  5
53
102
{ACAD_REACTORS
330
42
102
}
330
42
100
AcDbScale
 70
     0
300
1'-0" = 1'-0"
140
12.0
141
12.0
290
     0
  0
ACDBSECTIONVIEWSTYLE
  5
69
102
{ACAD_XDICTIONARY
360
1255
102
}
102
{ACAD_REACTORS
330
68
330
122A
102
}
330
68
100
AcDbModelDocViewStyle
 70
     0
  3
Imperial24
290
     0
100
AcDbSectionViewStyle
 70
     0
 71
     0
 90
       78
 71
     1
340
55
 62
   256
 40
0.24
340
0
340
0
 62
   256
 40
0.24
300
I, O, Q, S, X, Z
 40
0.48
 90
        3
 40
0.18
 90
        1
 71
     2
340
5D
 90
       25
 62
   256
340
5D
 90
       50
 62
   256
 40
0.24
 40
0.0
 40
0.24
 71
     3
340
55
 62
   256
 40
0.24
 90
        1
 40
0.75
 90
        1
300
%<\AcVar ViewType \f "%tc1">% %<\AcVar ViewSectionStartId>%-%<\AcVar ViewSectionEndId>%\PVARIA %<\AcVar ViewScale \f "%sn">%
 71
     4
 62
   256
 62
   257
300
ANSI31
 40
1.0
 90
        0
290
     0
290
     0
 90
        6
 40
0.0
 40
1.570796326794896
 40
0.2617993877991494
 40
1.308996938995747
 40
-0.2617993877991494
 40
1.832595714594046
  0
ACDBSECTIONVIEWSTYLE
  5
10F1
102
{ACAD_XDICTIONARY
360
12A2
102
}
102
{ACAD_REACTORS
330
68
330
122B
102
}
330
68
100
AcDbModelDocViewStyle
 70
     0
  3
Metric50
290
     0
100
AcDbSectionViewStyle
 70
     0
 71
     0
 90
      102
 71
     1
340
55
 62
   256
 40
5.0
340
0
340
0
 62
   256
 40
5.0
300
I, O, Q, S, X, Z
 40
10.0
 90
        0
 40
2.5
 90
        0
 71
     2
340
5D
 90
       25
 62
   256
340
5D
 90
       50
 62
   256
 40
5.0
 40
2.5
 40
5.0
 71
     3
340
55
 62
   256
 40
5.0
 90
        0
 40
15.0
 90
        1
300
%<\AcVar ViewSectionStartId>%-%<\AcVar ViewSectionEndId>% (%<\AcVar ViewScale \f "%sn">%)
 71
     4
 62
   256
 62
   257
300
ANSI31
 40
1.0
 90
        0
290
     0
290
     0
 90
        6
 40
0.0
 40
1.570796326794896
 40
0.2617993877991494
 40
1.308996938995747
 40
-0.2617993877991494
 40
1.832595714594046
  0
TABLESTYLE
  5
65
102
{ACAD_XDICTIONARY
360
1253
102
}
102
{ACAD_REACTORS
330
64
102
}
330
64
100
AcDbTableStyle
280
     0
  3
Standard
 70
     0
 71
     0
 40
0.06
 41
0.06
280
     0
281
     0
  7
Standard
140
0.18
170
     2
 62
     0
 63
     7
283
     0
 90
      512
 91
        0
  1

274
    -2
284
     1
 64
     0
275
    -2
285
     1
 65
     0
276
    -2
286
     1
 66
     0
277
    -2
287
     1
 67
     0
278
    -2
288
     1
 68
     0
279
    -2
289
     1
 69
     0
  7
Standard
140
0.25
170
     5
 62
     0
 63
     7
283
     0
 90
      512
 91
        0
  1

274
    -2
284
     1
 64
     0
275
    -2
285
     1
 65
     0
276
    -2
286
     1
 66
     0
277
    -2
287
     1
 67
     0
278
    -2
288
     1
 68
     0
279
    -2
289
     1
 69
     0
  7
Standard
140
0.18
170
     5
 62
     0
 63
     7
283
     0
 90
      512
 91
        0
  1

274
    -2
284
     1
 64
     0
275
    -2
285
     1
 65
     0
276
    -2
286
     1
 66
     0
277
    -2
287
     1
 67
     0
278
    -2
288
     1
 68
     0
279
    -2
289
     1
 69
     0
  0
VISUALSTYLE
  5
2F
102
{ACAD_REACTORS
330
29
102
}
330
29
100
AcDbVisualStyle
  2
2dWireframe
 70
     4
177
     3
291
     0
 70
    58
 90
        0
176
     1
 90
        2
176
     1
 90
        0
176
     1
 90
        0
176
     1
 40
0.6
176
     1
 40
30.0
176
     1
 62
     7
420
 16777215
176
     1
 90
        1
176
     1
 90
        4
176
     1
 62
     7
176
     1
 62
   257
176
     1
 90
        1
176
     1
 90
        1
176
     1
 40
1.0
176
     1
 90
        0
176
     1
 62
   257
176
     1
 40
1.0
176
     1
 90
        1
176
     1
 90
        6
176
     1
 90
        2
176
     1
 62
     7
176
     1
 90
        5
176
     1
 90
        0
176
     1
 90
        0
176
     1
290
     0
176
     1
 90
        1
176
     1
 40
0.0
176
     1
 90
        0
176
     1
290
     1
176
     1
290
     1
176
     1
290
     0
176
     1
290
     0
176
     1
290
     0
176
     1
290
     0
176
     1
290
     0
176
     1
290
     0
176
     1
290
     0
176
     1
 90
       50
176
     1
 40
0.0
176
     1
 40
1.0
176
     1
 90
        0
176
     1
 62
    18
420
        0
176
     1
 90
       50
176
     1
 90
        3
176
     1
 62
     5
420
      255
176
     1
290
     0
176
     1
 90
       50
176
     1
 90
       50
176
     1
 90
       50
176
     1
290
     0
176
     1
 90
       50
176
     1
 62
   256
176
     0
 40
1.0
176
     0
 90
        2
176
     1
  1
strokes_ogs.tif
176
     1
290
     0
176
     1
 40
1.0
176
     1
 40
1.0
176
     1
  0
VISUALSTYLE
  5
2E
102
{ACAD_REACTORS
330
29
102
}
330
29
100
AcDbVisualStyle
  2
Basic
 70
     7
177
     3
291
     1
 70
    58
 90
        1
176
     1
 90
        0
176
     1
 90
        1
176
     1
 90
        0
176
     1
 40
0.6
176
     1
 40
30.0
176
     1
 62
     7
420
 16777215
176
     1
 90
        0
176
     1
 90
        4
176
     1
 62
     7
176
     1
 62
   257
176
     1
 90
        1
176
     1
 90
        1
176
     1
 40
1.0
176
     1
 90
        8
176
     1
 62
     7
176
     1
 40
1.0
176
     1
 90
        1
176
     1
 90
        6
176
     1
 90
        2
176
     1
 62
     7
176
     1
 90
        5
176
     1
 90
        0
176
     1
 90
        0
176
     1
290
     0
176
     1
 90
        1
176
     1
 40
0.0
176
     1
 90
        0
176
     1
290
     0
176
     1
290
     1
176
     1
290
     1
176
     1
290
     0
176
     1
290
     0
176
     1
290
     0
176
     1
290
     0
176
     1
290
     0
176
     1
290
     0
176
     1
 90
       50
176
     1
 40
0.0
176
     1
 40
1.0
176
     1
 90
        0
176
     1
 62
    18
420
        0
176
     1
 90
       50
176
     1
 90
        3
176
     1
 62
     5
420
      255
176
     1
290
     0
176
     1
 90
       50
176
     1
 90
       50
176
     1
 90
       50
176
     1
290
     0
176
     1
 90
       50
176
     1
 62
   256
176
     0
 40
1.0
176
     0
 90
        2
176
     1
  1
strokes_ogs.tif
176
     1
290
     0
176
     1
 40
1.0
176
     1
 40
1.0
176
     1
  0
VISUALSTYLE
  5
35
102
{ACAD_REACTORS
330
29
102
}
330
29
100
AcDbVisualStyle
  2
Brighten
 70
    12
177
     3
291
     1
 70
    58
 90
        2
176
     1
 90
        2
176
     1
 90
        0
176
     1
 90
        0
176
     1
 40
0.6
176
     1
 40
30.0
176
     1
 62
     7
420
 16777215
176
     1
 90
        1
176
     1
 90
        4
176
     1
 62
     7
176
     1
 62
   257
176
     1
 90
        1
176
     1
 90
        1
176
     1
 40
1.0
176
     1
 90
        8
176
     1
 62
     7
176
     1
 40
1.0
176
     1
 90
        1
176
     1
 90
        6
176
     1
 90
        2
176
     1
 62
     7
176
     1
 90
        5
176
     1
 90
        0
176
     1
 90
        0
176
     1
290
     0
176
     1
 90
        1
176
     1
 40
50.0
176
     1
 90
        0
176
     1
290
     0
176
     1
290
     1
176
     1
290
     1
176
     1
290
     0
176
     1
290
     0
176
     1
290
     0
176
     1
290
     0
176
     1
290
     0
176
     1
290
     0
176
     1
 90
       50
176
     1
 40
0.0
176
     1
 40
1.0
176
     1
 90
        0
176
     1
 62
    18
420
        0
176
     1
 90
       50
176
     1
 90
        3
176
     1
 62
     5
420
      255
176
     1
290
     0
176
     1
 90
       50
176
     1
 90
       50
176
     1
 90
       50
176
     1
290
     0
176
     1
 90
       50
176
     1
 62
   256
176
     0
 40
1.0
176
     0
 90
        2
176
     1
  1
strokes_ogs.tif
176
     1
290
     0
176
     1
 40
1.0
176
     1
 40
1.0
176
     1
  0
VISUALSTYLE
  5
39
102
{ACAD_REACTORS
330
29
102
}
330
29
100
AcDbVisualStyle
  2
ColorChange
 70
    16
177
     3
291
     1
 70
    58
 90
        2
176
     1
 90
        2
176
     1
 90
        3
176
     1
 90
        0
176
     1
 40
0.6
176
     1
 40
30.0
176
     1
 62
     8
420
  8421504
176
     1
 90
        1
176
     1
 90
        4
176
     1
 62
     7
176
     1
 62
   257
176
     1
 90
        1
176
     1
 90
        1
176
     1
 40
1.0
176
     1
 90
        8
176
     1
 62
     8
420
  8421504
176
     1
 40
1.0
176
     1
 90
        1
176
     1
 90
        6
176
     1
 90
        2
176
     1
 62
     7
176
     1
 90
        5
176
     1
 90
        0
176
     1
 90
        0
176
     1
290
     0
176
     1
 90
        1
176
     1
 40
0.0
176
     1
 90
        0
176
     1
290
     0
176
     1
290
     1
176
     1
290
     1
176
     1
290
     0
176
     1
290
     0
176
     1
290
     0
176
     1
290
     0
176
     1
290
     0
176
     1
290
     0
176
     1
 90
       50
176
     1
 40
0.0
176
     1
 40
1.0
176
     1
 90
        0
176
     1
 62
    18
420
        0
176
     1
 90
       50
176
     1
 90
        3
176
     1
 62
     5
420
      255
176
     1
290
     0
176
     1
 90
       50
176
     1
 90
       50
176
     1
 90
       50
176
     1
290
     0
176
     1
 90
       50
176
     1
 62
   256
176
     0
 40
1.0
176
     0
 90
        2
176
     1
  1
strokes_ogs.tif
176
     1
290
     0
176
     1
 40
1.0
176
     1
 40
1.0
176
     1
  0
VISUALSTYLE
  5
32
102
{ACAD_REACTORS
330
29
102
}
330
29
100
AcDbVisualStyle
  2
Conceptual
 70
     9
177
     3
291
     0
 70
    58
 90
        3
176
     1
 90
        2
176
     1
 90
        0
176
     1
 90
        0
176
     1
 40
0.6
176
     1
 40
30.0
176
     1
 62
     7
420
 16777215
176
     1
 90
        2
176
     1
 90
        2
176
     1
 62
     7
176
     1
 62
   257
176
     1
 90
        1
176
     1
 90
        1
176
     1
 40
179.0
176
     1
 90
        8
176
     1
 62
     7
176
     1
 40
1.0
176
     1
 90
        1
176
     1
 90
        6
176
     1
 90
        2
176
     1
 62
     7
176
     1
 90
        3
176
     1
 90
        0
176
     1
 90
        0
176
     1
290
     0
176
     1
 90
        1
176
     1
 40
0.0
176
     1
 90
        0
176
     1
290
     0
176
     1
290
     1
176
     1
290
     1
176
     1
290
     0
176
     1
290
     0
176
     1
290
     0
176
     1
290
     0
176
     1
290
     0
176
     1
290
     0
176
     1
 90
       50
176
     1
 40
0.0
176
     1
 40
1.0
176
     1
 90
        0
176
     1
 62
    18
420
        0
176
     1
 90
       50
176
     1
 90
        3
176
     1
 62
     5
420
      255
176
     1
290
     0
176
     1
 90
       50
176
     1
 90
       50
176
     1
 90
       50
176
     1
290
     0
176
     1
 90
       50
176
     1
 62
   256
176
     0
 40
1.0
176
     0
 90
        2
176
     1
  1
strokes_ogs.tif
176
     1
290
     0
176
     1
 40
1.0
176
     1
 40
1.0
176
     1
  0
VISUALSTYLE
  5
34
102
{ACAD_REACTORS
330
29
102
}
330
29
100
AcDbVisualStyle
  2
Dim
 70
    11
177
     3
291
     1
 70
    58
 90
        2
176
     1
 90
        2
176
     1
 90
        0
176
     1
 90
        0
176
     1
 40
0.6
176
     1
 40
30.0
176
     1
 62
     7
420
 16777215
176
     1
 90
        1
176
     1
 90
        4
176
     1
 62
     7
176
     1
 62
   257
176
     1
 90
        1
176
     1
 90
        1
176
     1
 40
1.0
176
     1
 90
        8
176
     1
 62
     7
176
     1
 40
1.0
176
     1
 90
        1
176
     1
 90
        6
176
     1
 90
        2
176
     1
 62
     7
176
     1
 90
        5
176
     1
 90
        0
176
     1
 90
        0
176
     1
290
     0
176
     1
 90
        1
176
     1
 40
-50.0
176
     1
 90
        0
176
     1
290
     0
176
     1
290
     1
176
     1
290
     1
176
     1
290
     0
176
     1
290
     0
176
     1
290
     0
176
     1
290
     0
176
     1
290
     0
176
     1
290
     0
176
     1
 90
       50
176
     1
 40
0.0
176
     1
 40
1.0
176
     1
 90
        0
176
     1
 62
    18
420
        0
176
     1
 90
       50
176
     1
 90
        3
176
     1
 62
     5
420
      255
176
     1
290
     0
176
     1
 90
       50
176
     1
 90
       50
176
     1
 90
       50
176
     1
290
     0
176
     1
 90
       50
176
     1
 62
   256
176
     0
 40
1.0
176
     0
 90
        2
176
     1
  1
strokes_ogs.tif
176
     1
290
     0
176
     1
 40
1.0
176
     1
 40
1.0
176
     1
  0
VISUALSTYLE
  5
41
102
{ACAD_REACTORS
330
29
102
}
330
29
100
AcDbVisualStyle
  2
EdgeColorOff
 70
    22
177
     3
291
     1
 70
    58
 90
        2
176
     0
 90
        2
176
     0
 90
        0
176
     0
 90
        0
176
     0
 40
0.6
176
     0
 40
30.0
176
     0
 62
     7
420
 16777215
176
     0
 90
        1
176
     0
 90
        4
176
     0
 62
     7
176
     0
 62
   257
176
     0
 90
        1
176
     0
 90
        1
176
     0
 40
1.0
176
     0
 90
        8
176
     2
 62
     7
176
     0
 40
1.0
176
     0
 90
        1
176
     0
 90
        6
176
     0
 90
        2
176
     0
 62
     7
176
     0
 90
        5
176
     0
 90
        0
176
     0
 90
        0
176
     0
290
     0
176
     0
 90
        1
176
     0
 40
0.0
176
     0
 90
        0
176
     0
290
     0
176
     0
290
     1
176
     0
290
     1
176
     0
290
     0
176
     0
290
     0
176
     0
290
     0
176
     0
290
     0
176
     0
290
     0
176
     0
290
     0
176
     0
 90
       50
176
     0
 40
0.0
176
     0
 40
1.0
176
     0
 90
        0
176
     0
 62
    18
420
        0
176
     0
 90
       50
176
     0
 90
        3
176
     0
 62
     5
420
      255
176
     0
290
     0
176
     0
 90
       50
176
     0
 90
       50
176
     0
 90
       50
176
     0
290
     0
176
     0
 90
       50
176
     0
 62
   256
176
     0
 40
1.0
176
     0
 90
        2
176
     0
  1
strokes_ogs.tif
176
     0
290
     0
176
     0
 40
1.0
176
     0
 40
1.0
176
     0
  0
VISUALSTYLE
  5
38
102
{ACAD_REACTORS
330
29
102
}
330
29
100
AcDbVisualStyle
  2
Facepattern
 70
    15
177
     3
291
     1
 70
    58
 90
        2
176
     1
 90
        2
176
     1
 90
        0
176
     1
 90
        0
176
     1
 40
0.6
176
     1
 40
30.0
176
     1
 62
     7
420
 16777215
176
     1
 90
        1
176
     1
 90
        4
176
     1
 62
     7
176
     1
 62
   257
176
     1
 90
        1
176
     1
 90
        1
176
     1
 40
1.0
176
     1
 90
        8
176
     1
 62
     7
176
     1
 40
1.0
176
     1
 90
        1
176
     1
 90
        6
176
     1
 90
        2
176
     1
 62
     7
176
     1
 90
        5
176
     1
 90
        0
176
     1
 90
        0
176
     1
290
     0
176
     1
 90
        1
176
     1
 40
0.0
176
     1
 90
        0
176
     1
290
     0
176
     1
290
     1
176
     1
290
     1
176
     1
290
     0
176
     1
290
     0
176
     1
290
     0
176
     1
290
     0
176
     1
290
     0
176
     1
290
     0
176
     1
 90
       50
176
     1
 40
0.0
176
     1
 40
1.0
176
     1
 90
        0
176
     1
 62
    18
420
        0
176
     1
 90
       50
176
     1
 90
        3
176
     1
 62
     5
420
      255
176
     1
290
     0
176
     1
 90
       50
176
     1
 90
       50
176
     1
 90
       50
176
     1
290
     0
176
     1
 90
       50
176
     1
 62
   256
176
     0
 40
1.0
176
     0
 90
        2
176
     1
  1
strokes_ogs.tif
176
     1
290
     0
176
     1
 40
1.0
176
     1
 40
1.0
176
     1
  0
VISUALSTYLE
  5
2A
102
{ACAD_REACTORS
330
29
102
}
330
29
100
AcDbVisualStyle
  2
Flat
 70
     0
177
     3
291
     1
 70
    58
 90
        2
176
     1
 90
        1
176
     1
 90
        1
176
     1
 90
        2
176
     1
 40
0.6
176
     1
 40
30.0
176
     1
 62
     7
420
 16777215
176
     1
 90
        0
176
     1
 90
        0
176
     1
 62
     7
176
     1
 62
   257
176
     1
 90
        1
176
     1
 90
        1
176
     1
 40
1.0
176
     1
 90
        8
176
     1
 62
     7
176
     1
 40
1.0
176
     1
 90
        1
176
     1
 90
        6
176
     1
 90
        2
176
     1
 62
     7
176
     1
 90
        5
176
     1
 90
        0
176
     1
 90
        0
176
     1
290
     0
176
     1
 90
       13
176
     1
 40
0.0
176
     1
 90
        0
176
     1
290
     0
176
     1
290
     1
176
     1
290
     1
176
     1
290
     0
176
     1
290
     0
176
     1
290
     0
176
     1
290
     0
176
     1
290
     0
176
     1
290
     0
176
     1
 90
       50
176
     1
 40
0.0
176
     1
 40
1.0
176
     1
 90
        0
176
     1
 62
    18
420
        0
176
     1
 90
       50
176
     1
 90
        3
176
     1
 62
     5
420
      255
176
     1
290
     0
176
     1
 90
       50
176
     1
 90
       50
176
     1
 90
       50
176
     1
290
     0
176
     1
 90
       50
176
     1
 62
   256
176
     0
 40
1.0
176
     0
 90
        2
176
     1
  1
strokes_ogs.tif
176
     1
290
     0
176
     1
 40
1.0
176
     1
 40
1.0
176
     1
  0
VISUALSTYLE
  5
2B
102
{ACAD_REACTORS
330
29
102
}
330
29
100
AcDbVisualStyle
  2
FlatWithEdges
 70
     1
177
     3
291
     1
 70
    58
 90
        2
176
     1
 90
        1
176
     1
 90
        1
176
     1
 90
        2
176
     1
 40
0.6
176
     1
 40
30.0
176
     1
 62
     7
420
 16777215
176
     1
 90
        1
176
     1
 90
        0
176
     1
 62
     7
176
     1
 62
   257
176
     1
 90
        1
176
     1
 90
        1
176
     1
 40
1.0
176
     1
 90
        0
176
     1
 62
   257
176
     1
 40
1.0
176
     1
 90
        1
176
     1
 90
        6
176
     1
 90
        2
176
     1
 62
     7
176
     1
 90
        5
176
     1
 90
        0
176
     1
 90
        0
176
     1
290
     0
176
     1
 90
       13
176
     1
 40
0.0
176
     1
 90
        0
176
     1
290
     0
176
     1
290
     1
176
     1
290
     1
176
     1
290
     0
176
     1
290
     0
176
     1
290
     0
176
     1
290
     0
176
     1
290
     0
176
     1
290
     0
176
     1
 90
       50
176
     1
 40
0.0
176
     1
 40
1.0
176
     1
 90
        0
176
     1
 62
    18
420
        0
176
     1
 90
       50
176
     1
 90
        3
176
     1
 62
     5
420
      255
176
     1
290
     0
176
     1
 90
       50
176
     1
 90
       50
176
     1
 90
       50
176
     1
290
     0
176
     1
 90
       50
176
     1
 62
   256
176
     0
 40
1.0
176
     0
 90
        2
176
     1
  1
strokes_ogs.tif
176
     1
290
     0
176
     1
 40
1.0
176
     1
 40
1.0
176
     1
  0
VISUALSTYLE
  5
2C
102
{ACAD_REACTORS
330
29
102
}
330
29
100
AcDbVisualStyle
  2
Gouraud
 70
     2
177
     3
291
     1
 70
    58
 90
        2
176
     1
 90
        2
176
     1
 90
        1
176
     1
 90
        2
176
     1
 40
0.6
176
     1
 40
30.0
176
     1
 62
     7
420
 16777215
176
     1
 90
        0
176
     1
 90
        0
176
     1
 62
     7
176
     1
 62
   257
176
     1
 90
        1
176
     1
 90
        1
176
     1
 40
1.0
176
     1
 90
        0
176
     1
 62
     7
176
     1
 40
1.0
176
     1
 90
        1
176
     1
 90
        6
176
     1
 90
        2
176
     1
 62
     7
176
     1
 90
        5
176
     1
 90
        0
176
     1
 90
        0
176
     1
290
     0
176
     1
 90
       13
176
     1
 40
0.0
176
     1
 90
        0
176
     1
290
     0
176
     1
290
     1
176
     1
290
     1
176
     1
290
     0
176
     1
290
     0
176
     1
290
     0
176
     1
290
     0
176
     1
290
     0
176
     1
290
     0
176
     1
 90
       50
176
     1
 40
0.0
176
     1
 40
1.0
176
     1
 90
        0
176
     1
 62
    18
420
        0
176
     1
 90
       50
176
     1
 90
        3
176
     1
 62
     5
420
      255
176
     1
290
     0
176
     1
 90
       50
176
     1
 90
       50
176
     1
 90
       50
176
     1
290
     0
176
     1
 90
       50
176
     1
 62
   256
176
     0
 40
1.0
176
     0
 90
        2
176
     1
  1
strokes_ogs.tif
176
     1
290
     0
176
     1
 40
1.0
176
     1
 40
1.0
176
     1
  0
VISUALSTYLE
  5
2D
102
{ACAD_REACTORS
330
29
102
}
330
29
100
AcDbVisualStyle
  2
GouraudWithEdges
 70
     3
177
     3
291
     1
 70
    58
 90
        2
176
     1
 90
        2
176
     1
 90
        1
176
     1
 90
        2
176
     1
 40
0.6
176
     1
 40
30.0
176
     1
 62
     7
420
 16777215
176
     1
 90
        1
176
     1
 90
        0
176
     1
 62
     7
176
     1
 62
   257
176
     1
 90
        1
176
     1
 90
        1
176
     1
 40
1.0
176
     1
 90
        0
176
     1
 62
   257
176
     1
 40
1.0
176
     1
 90
        1
176
     1
 90
        6
176
     1
 90
        2
176
     1
 62
     7
176
     1
 90
        5
176
     1
 90
        0
176
     1
 90
        0
176
     1
290
     0
176
     1
 90
       13
176
     1
 40
0.0
176
     1
 90
        0
176
     1
290
     0
176
     1
290
     1
176
     1
290
     1
176
     1
290
     0
176
     1
290
     0
176
     1
290
     0
176
     1
290
     0
176
     1
290
     0
176
     1
290
     0
176
     1
 90
       50
176
     1
 40
0.0
176
     1
 40
1.0
176
     1
 90
        0
176
     1
 62
    18
420
        0
176
     1
 90
       50
176
     1
 90
        3
176
     1
 62
     5
420
      255
176
     1
290
     0
176
     1
 90
       50
176
     1
 90
       50
176
     1
 90
       50
176
     1
290
     0
176
     1
 90
       50
176
     1
 62
   256
176
     0
 40
1.0
176
     0
 90
        2
176
     1
  1
strokes_ogs.tif
176
     1
290
     0
176
     1
 40
1.0
176
     1
 40
1.0
176
     1
  0
VISUALSTYLE
  5
31
102
{ACAD_REACTORS
330
29
102
}
330
29
100
AcDbVisualStyle
  2
Hidden
 70
     6
177
     3
291
     0
 70
    58
 90
        1
176
     1
 90
        2
176
     1
 90
        2
176
     1
 90
        0
176
     1
 40
0.6
176
     1
 40
30.0
176
     1
 62
     7
420
 16777215
176
     1
 90
        2
176
     1
 90
        2
176
     1
 62
     7
176
     1
 62
   257
176
     1
 90
        2
176
     1
 90
        1
176
     1
 40
40.0
176
     1
 90
        0
176
     1
 62
   257
176
     1
 40
1.0
176
     1
 90
        1
176
     1
 90
        6
176
     1
 90
        2
176
     1
 62
     7
176
     1
 90
        3
176
     1
 90
        0
176
     1
 90
        0
176
     1
290
     0
176
     1
 90
        1
176
     1
 40
0.0
176
     1
 90
        0
176
     1
290
     0
176
     1
290
     1
176
     1
290
     1
176
     1
290
     0
176
     1
290
     0
176
     1
290
     0
176
     1
290
     0
176
     1
290
     0
176
     1
290
     0
176
     1
 90
       50
176
     1
 40
0.0
176
     1
 40
1.0
176
     1
 90
        0
176
     1
 62
    18
420
        0
176
     1
 90
       50
176
     1
 90
        3
176
     1
 62
     5
420
      255
176
     1
290
     0
176
     1
 90
       50
176
     1
 90
       50
176
     1
 90
       50
176
     1
290
     0
176
     1
 90
       50
176
     1
 62
   256
176
     0
 40
1.0
176
     0
 90
        2
176
     1
  1
strokes_ogs.tif
176
     1
290
     0
176
     1
 40
1.0
176
     1
 40
1.0
176
     1
  0
VISUALSTYLE
  5
3F
102
{ACAD_REACTORS
330
29
102
}
330
29
100
AcDbVisualStyle
  2
JitterOff
 70
    20
177
     3
291
     1
 70
    58
 90
        2
176
     0
 90
        2
176
     0
 90
        0
176
     0
 90
        0
176
     0
 40
0.6
176
     0
 40
30.0
176
     0
 62
     7
420
 16777215
176
     0
 90
        1
176
     0
 90
        4
176
     0
 62
     7
176
     0
 62
   257
176
     0
 90
        1
176
     0
 90
        1
176
     0
 40
1.0
176
     0
 90
       10
176
     2
 62
     7
176
     0
 40
1.0
176
     0
 90
        1
176
     0
 90
        6
176
     0
 90
        2
176
     0
 62
     7
176
     0
 90
        5
176
     0
 90
        0
176
     0
 90
        0
176
     0
290
     0
176
     0
 90
        1
176
     0
 40
0.0
176
     0
 90
        0
176
     0
290
     0
176
     0
290
     1
176
     0
290
     1
176
     0
290
     0
176
     0
290
     0
176
     0
290
     0
176
     0
290
     0
176
     0
290
     0
176
     0
290
     0
176
     0
 90
       50
176
     0
 40
0.0
176
     0
 40
1.0
176
     0
 90
        0
176
     0
 62
    18
420
        0
176
     0
 90
       50
176
     0
 90
        3
176
     0
 62
     5
420
      255
176
     0
290
     0
176
     0
 90
       50
176
     0
 90
       50
176
     0
 90
       50
176
     0
290
     0
176
     0
 90
       50
176
     0
 62
   256
176
     0
 40
1.0
176
     0
 90
        2
176
     0
  1
strokes_ogs.tif
176
     0
290
     0
176
     0
 40
1.0
176
     0
 40
1.0
176
     0
  0
VISUALSTYLE
  5
37
102
{ACAD_REACTORS
330
29
102
}
330
29
100
AcDbVisualStyle
  2
Linepattern
 70
    14
177
     3
291
     1
 70
    58
 90
        2
176
     1
 90
        2
176
     1
 90
        0
176
     1
 90
        0
176
     1
 40
0.6
176
     1
 40
30.0
176
     1
 62
     7
420
 16777215
176
     1
 90
        1
176
     1
 90
        4
176
     1
 62
     7
176
     1
 62
   257
176
     1
 90
        7
176
     1
 90
        7
176
     1
 40
1.0
176
     1
 90
        8
176
     1
 62
     7
176
     1
 40
1.0
176
     1
 90
        1
176
     1
 90
        6
176
     1
 90
        2
176
     1
 62
     7
176
     1
 90
        5
176
     1
 90
        0
176
     1
 90
        0
176
     1
290
     0
176
     1
 90
        1
176
     1
 40
0.0
176
     1
 90
        0
176
     1
290
     0
176
     1
290
     1
176
     1
290
     1
176
     1
290
     0
176
     1
290
     0
176
     1
290
     0
176
     1
290
     0
176
     1
290
     0
176
     1
290
     0
176
     1
 90
       50
176
     1
 40
0.0
176
     1
 40
1.0
176
     1
 90
        0
176
     1
 62
    18
420
        0
176
     1
 90
       50
176
     1
 90
        3
176
     1
 62
     5
420
      255
176
     1
290
     0
176
     1
 90
       50
176
     1
 90
       50
176
     1
 90
       50
176
     1
290
     0
176
     1
 90
       50
176
     1
 62
   256
176
     0
 40
1.0
176
     0
 90
        2
176
     1
  1
strokes_ogs.tif
176
     1
290
     0
176
     1
 40
1.0
176
     1
 40
1.0
176
     1
  0
VISUALSTYLE
  5
40
102
{ACAD_REACTORS
330
29
102
}
330
29
100
AcDbVisualStyle
  2
OverhangOff
 70
    21
177
     3
291
     1
 70
    58
 90
        2
176
     0
 90
        2
176
     0
 90
        0
176
     0
 90
        0
176
     0
 40
0.6
176
     0
 40
30.0
176
     0
 62
     7
420
 16777215
176
     0
 90
        1
176
     0
 90
        4
176
     0
 62
     7
176
     0
 62
   257
176
     0
 90
        1
176
     0
 90
        1
176
     0
 40
1.0
176
     0
 90
        9
176
     2
 62
     7
176
     0
 40
1.0
176
     0
 90
        1
176
     0
 90
        6
176
     0
 90
        2
176
     0
 62
     7
176
     0
 90
        5
176
     0
 90
        0
176
     0
 90
        0
176
     0
290
     0
176
     0
 90
        1
176
     0
 40
0.0
176
     0
 90
        0
176
     0
290
     0
176
     0
290
     1
176
     0
290
     1
176
     0
290
     0
176
     0
290
     0
176
     0
290
     0
176
     0
290
     0
176
     0
290
     0
176
     0
290
     0
176
     0
 90
       50
176
     0
 40
0.0
176
     0
 40
1.0
176
     0
 90
        0
176
     0
 62
    18
420
        0
176
     0
 90
       50
176
     0
 90
        3
176
     0
 62
     5
420
      255
176
     0
290
     0
176
     0
 90
       50
176
     0
 90
       50
176
     0
 90
       50
176
     0
290
     0
176
     0
 90
       50
176
     0
 62
   256
176
     0
 40
1.0
176
     0
 90
        2
176
     0
  1
strokes_ogs.tif
176
     0
290
     0
176
     0
 40
1.0
176
     0
 40
1.0
176
     0
  0
VISUALSTYLE
  5
33
102
{ACAD_REACTORS
330
29
102
}
330
29
100
AcDbVisualStyle
  2
Realistic
 70
     8
177
     3
291
     0
 70
    58
 90
        2
176
     1
 90
        3
176
     1
 90
        0
176
     1
 90
        2
176
     1
 40
0.6
176
     1
 40
30.0
176
     1
 62
     7
420
 16777215
176
     1
 90
        0
176
     1
 90
        0
176
     1
 62
     7
176
     1
 62
   257
176
     1
 90
        1
176
     1
 90
        1
176
     1
 40
1.0
176
     1
 90
        8
176
     1
 62
   257
176
     1
 40
1.0
176
     1
 90
        1
176
     1
 90
        6
176
     1
 90
        2
176
     1
 62
     7
176
     1
 90
        3
176
     1
 90
        0
176
     1
 90
        0
176
     1
290
     0
176
     1
 90
       13
176
     1
 40
0.0
176
     1
 90
        0
176
     1
290
     0
176
     1
290
     1
176
     1
290
     1
176
     1
290
     0
176
     1
290
     0
176
     1
290
     0
176
     1
290
     0
176
     1
290
     0
176
     1
290
     0
176
     1
 90
       50
176
     1
 40
0.0
176
     1
 40
1.0
176
     1
 90
        0
176
     1
 62
    18
420
        0
176
     1
 90
       50
176
     1
 90
        3
176
     1
 62
     5
420
      255
176
     1
290
     0
176
     1
 90
       50
176
     1
 90
       50
176
     1
 90
       50
176
     1
290
     0
176
     1
 90
       50
176
     1
 62
   256
176
     0
 40
1.0
176
     0
 90
        2
176
     1
  1
strokes_ogs.tif
176
     1
290
     0
176
     1
 40
1.0
176
     1
 40
1.0
176
     1
  0
VISUALSTYLE
  5
3E
102
{ACAD_REACTORS
330
29
102
}
330
29
100
AcDbVisualStyle
  2
Shaded
 70
    27
177
     3
291
     0
 70
    58
 90
        2
176
     1
 90
        2
176
     1
 90
        1
176
     1
 90
        2
176
     1
 40
0.6
176
     1
 40
30.0
176
     1
 62
     7
420
 16777215
176
     1
 90
        0
176
     1
 90
        4
176
     1
 62
     7
176
     1
 62
   257
176
     1
 90
        1
176
     1
 90
        1
176
     1
 40
1.0
176
     1
 90
        8
176
     1
 62
   257
176
     1
 40
1.0
176
     1
 90
        1
176
     1
 90
        6
176
     1
 90
        2
176
     1
 62
     8
420
  7895160
176
     1
 90
        3
176
     1
 90
        0
176
     1
 90
        0
176
     1
290
     0
176
     1
 90
        5
176
     1
 40
0.0
176
     1
 90
        0
176
     1
290
     0
176
     1
290
     1
176
     1
290
     1
176
     1
290
     0
176
     1
290
     0
176
     1
290
     0
176
     1
290
     0
176
     1
290
     0
176
     1
290
     0
176
     1
 90
       50
176
     1
 40
0.0
176
     1
 40
1.0
176
     1
 90
        0
176
     1
 62
    18
420
        0
176
     1
 90
       50
176
     1
 90
        3
176
     1
 62
     5
420
      255
176
     1
290
     0
176
     1
 90
       50
176
     1
 90
       50
176
     1
 90
       50
176
     1
290
     0
176
     1
 90
       50
176
     1
 62
   256
176
     0
 40
1.0
176
     0
 90
        2
176
     1
  1
strokes_ogs.tif
176
     1
290
     0
176
     1
 40
1.0
176
     1
 40
1.0
176
     1
  0
VISUALSTYLE
  5
3D
102
{ACAD_REACTORS
330
29
102
}
330
29
100
AcDbVisualStyle
  2
Shaded with edges
 70
    26
177
     3
291
     0
 70
    58
 90
        2
176
     1
 90
        2
176
     1
 90
        1
176
     1
 90
        2
176
     1
 40
0.6
176
     1
 40
30.0
176
     1
 62
     7
420
 16777215
176
     1
 90
        1
176
     1
 90
       10
176
     1
 62
     7
176
     1
 62
   257
176
     1
 90
        2
176
     1
 90
        1
176
     1
 40
1.0
176
     1
 90
        8
176
     1
 62
   257
176
     1
 40
1.0
176
     1
 90
        1
176
     1
 90
        6
176
     1
 90
        2
176
     1
 62
     7
176
     1
 90
        3
176
     1
 90
        0
176
     1
 90
        0
176
     1
290
     0
176
     1
 90
        5
176
     1
 40
0.0
176
     1
 90
        0
176
     1
290
     0
176
     1
290
     1
176
     1
290
     1
176
     1
290
     0
176
     1
290
     0
176
     1
290
     0
176
     1
290
     0
176
     1
290
     0
176
     1
290
     0
176
     1
 90
       50
176
     1
 40
0.0
176
     1
 40
1.0
176
     1
 90
        0
176
     1
 62
    18
420
        0
176
     1
 90
       50
176
     1
 90
        3
176
     1
 62
     5
420
      255
176
     1
290
     0
176
     1
 90
       50
176
     1
 90
       50
176
     1
 90
       50
176
     1
290
     0
176
     1
 90
       50
176
     1
 62
   256
176
     0
 40
1.0
176
     0
 90
        2
176
     1
  1
strokes_ogs.tif
176
     1
290
     0
176
     1
 40
1.0
176
     1
 40
1.0
176
     1
  0
VISUALSTYLE
  5
3A
102
{ACAD_REACTORS
330
29
102
}
330
29
100
AcDbVisualStyle
  2
Shades of Gray
 70
    23
177
     3
291
     0
 70
    58
 90
        2
176
     1
 90
        2
176
     1
 90
        3
176
     1
 90
        0
176
     1
 40
0.6
176
     1
 40
30.0
176
     1
 62
     7
420
 16777215
176
     1
 90
        2
176
     1
 90
        2
176
     1
 62
     7
176
     1
 62
     7
176
     1
 90
        1
176
     1
 90
        1
176
     1
 40
40.0
176
     1
 90
        8
176
     1
 62
     7
176
     1
 40
1.0
176
     1
 90
        1
176
     1
 90
        6
176
     1
 90
        2
176
     1
 62
     7
176
     1
 90
        3
176
     1
 90
        0
176
     1
 90
        0
176
     1
290
     0
176
     1
 90
        1
176
     1
 40
0.0
176
     1
 90
        0
176
     1
290
     0
176
     1
290
     1
176
     1
290
     1
176
     1
290
     0
176
     1
290
     0
176
     1
290
     0
176
     1
290
     0
176
     1
290
     0
176
     1
290
     0
176
     1
 90
       50
176
     1
 40
0.0
176
     1
 40
1.0
176
     1
 90
        0
176
     1
 62
    18
420
        0
176
     1
 90
       50
176
     1
 90
        3
176
     1
 62
     5
420
      255
176
     1
290
     0
176
     1
 90
       50
176
     1
 90
       50
176
     1
 90
       50
176
     1
290
     0
176
     1
 90
       50
176
     1
 62
   256
176
     0
 40
1.0
176
     0
 90
        2
176
     1
  1
strokes_ogs.tif
176
     1
290
     0
176
     1
 40
1.0
176
     1
 40
1.0
176
     1
  0
VISUALSTYLE
  5
3B
102
{ACAD_REACTORS
330
29
102
}
330
29
100
AcDbVisualStyle
  2
Sketchy
 70
    24
177
     3
291
     0
 70
    58
 90
        1
176
     1
 90
        2
176
     1
 90
        2
176
     1
 90
        0
176
     1
 40
0.6
176
     1
 40
30.0
176
     1
 62
     7
420
 16777215
176
     1
 90
        2
176
     1
 90
        2
176
     1
 62
     7
176
     1
 62
     7
176
     1
 90
        1
176
     1
 90
        1
176
     1
 40
40.0
176
     1
 90
       11
176
     1
 62
     7
176
     1
 40
1.0
176
     1
 90
        1
176
     1
 90
        6
176
     1
 90
        2
176
     1
 62
     7
176
     1
 90
        6
176
     1
 90
        0
176
     1
 90
        0
176
     1
290
     0
176
     1
 90
        1
176
     1
 40
0.0
176
     1
 90
        0
176
     1
290
     0
176
     1
290
     1
176
     1
290
     1
176
     1
290
     0
176
     1
290
     0
176
     1
290
     0
176
     1
290
     0
176
     1
290
     0
176
     1
290
     0
176
     1
 90
       50
176
     1
 40
0.0
176
     1
 40
1.0
176
     1
 90
        0
176
     1
 62
    18
420
        0
176
     1
 90
       50
176
     1
 90
        3
176
     1
 62
     5
420
      255
176
     1
290
     0
176
     1
 90
       50
176
     1
 90
       50
176
     1
 90
       50
176
     1
290
     0
176
     1
 90
       50
176
     1
 62
   256
176
     0
 40
1.0
176
     0
 90
        2
176
     1
  1
strokes_ogs.tif
176
     1
290
     0
176
     1
 40
1.0
176
     1
 40
1.0
176
     1
  0
VISUALSTYLE
  5
36
102
{ACAD_REACTORS
330
29
102
}
330
29
100
AcDbVisualStyle
  2
Thicken
 70
    13
177
     3
291
     1
 70
    58
 90
        2
176
     1
 90
        2
176
     1
 90
        0
176
     1
 90
        0
176
     1
 40
0.6
176
     1
 40
30.0
176
     1
 62
     7
420
 16777215
176
     1
 90
        1
176
     1
 90
        4
176
     1
 62
     7
176
     1
 62
   257
176
     1
 90
        1
176
     1
 90
        1
176
     1
 40
1.0
176
     1
 90
       12
176
     1
 62
     7
176
     1
 40
1.0
176
     1
 90
        1
176
     1
 90
        6
176
     1
 90
        2
176
     1
 62
     7
176
     1
 90
        5
176
     1
 90
        0
176
     1
 90
        0
176
     1
290
     0
176
     1
 90
        1
176
     1
 40
0.0
176
     1
 90
        0
176
     1
290
     0
176
     1
290
     1
176
     1
290
     1
176
     1
290
     0
176
     1
290
     0
176
     1
290
     0
176
     1
290
     0
176
     1
290
     0
176
     1
290
     0
176
     1
 90
       50
176
     1
 40
0.0
176
     1
 40
1.0
176
     1
 90
        0
176
     1
 62
    18
420
        0
176
     1
 90
       50
176
     1
 90
        3
176
     1
 62
     5
420
      255
176
     1
290
     0
176
     1
 90
       50
176
     1
 90
       50
176
     1
 90
       50
176
     1
290
     0
176
     1
 90
       50
176
     1
 62
   256
176
     0
 40
1.0
176
     0
 90
        2
176
     1
  1
strokes_ogs.tif
176
     1
290
     0
176
     1
 40
1.0
176
     1
 40
1.0
176
     1
  0
VISUALSTYLE
  5
30
102
{ACAD_REACTORS
330
29
102
}
330
29
100
AcDbVisualStyle
  2
Wireframe
 70
     5
177
     3
291
     0
 70
    58
 90
        0
176
     1
 90
        2
176
     1
 90
        0
176
     1
 90
        0
176
     1
 40
0.6
176
     1
 40
30.0
176
     1
 62
     7
420
 16777215
176
     1
 90
        1
176
     1
 90
        4
176
     1
 62
     7
176
     1
 62
   257
176
     1
 90
        1
176
     1
 90
        1
176
     1
 40
1.0
176
     1
 90
        0
176
     1
 62
   257
176
     1
 40
1.0
176
     1
 90
        1
176
     1
 90
        6
176
     1
 90
        2
176
     1
 62
     7
176
     1
 90
        3
176
     1
 90
        0
176
     1
 90
        0
176
     1
290
     0
176
     1
 90
        1
176
     1
 40
0.0
176
     1
 90
        0
176
     1
290
     0
176
     1
290
     1
176
     1
290
     1
176
     1
290
     0
176
     1
290
     0
176
     1
290
     0
176
     1
290
     0
176
     1
290
     0
176
     1
290
     0
176
     1
 90
       50
176
     1
 40
0.0
176
     1
 40
1.0
176
     1
 90
        0
176
     1
 62
    18
420
        0
176
     1
 90
       50
176
     1
 90
        3
176
     1
 62
     5
420
      255
176
     1
290
     0
176
     1
 90
       50
176
     1
 90
       50
176
     1
 90
       50
176
     1
290
     0
176
     1
 90
       50
176
     1
 62
   256
176
     0
 40
1.0
176
     0
 90
        2
176
     1
  1
strokes_ogs.tif
176
     1
290
     0
176
     1
 40
1.0
176
     1
 40
1.0
176
     1
  0
VISUALSTYLE
  5
3C
102
{ACAD_REACTORS
330
29
102
}
330
29
100
AcDbVisualStyle
  2
X-Ray
 70
    25
177
     3
291
     0
 70
    58
 90
        2
176
     1
 90
        2
176
     1
 90
        1
176
     1
 90
        1
176
     1
 40
0.5
176
     1
 40
30.0
176
     1
 62
     7
420
 16777215
176
     1
 90
        1
176
     1
 90
        0
176
     1
 62
     7
176
     1
 62
   257
176
     1
 90
        1
176
     1
 90
        1
176
     1
 40
1.0
176
     1
 90
        8
176
     1
 62
     7
176
     1
 40
1.0
176
     1
 90
        1
176
     1
 90
        6
176
     1
 90
        2
176
     1
 62
     7
176
     1
 90
        3
176
     1
 90
        0
176
     1
 90
        0
176
     1
290
     0
176
     1
 90
       13
176
     1
 40
0.0
176
     1
 90
        0
176
     1
290
     0
176
     1
290
     1
176
     1
290
     1
176
     1
290
     0
176
     1
290
     0
176
     1
290
     0
176
     1
290
     0
176
     1
290
     0
176
     1
290
     0
176
     1
 90
       50
176
     1
 40
0.0
176
     1
 40
1.0
176
     1
 90
        0
176
     1
 62
    18
420
        0
176
     1
 90
       50
176
     1
 90
        3
176
     1
 62
     5
420
      255
176
     1
290
     0
176
     1
 90
       50
176
     1
 90
       50
176
     1
 90
       50
176
     1
290
     0
176
     1
 90
       50
176
     1
 62
   256
176
     0
 40
1.0
176
     0
 90
        2
176
     1
  1
strokes_ogs.tif
176
     1
290
     0
176
     1
 40
1.0
176
     1
 40
1.0
176
     1
  0
DICTIONARYVAR
  5
10EF
102
{ACAD_REACTORS
330
10EA
102
}
330
10EA
100
DictionaryVariables
280
     0
  1
1:1
  0
DICTIONARYVAR
  5
10EC
102
{ACAD_REACTORS
330
10EA
102
}
330
10EA
100
DictionaryVariables
280
     0
  1
STANDARD
  0
DICTIONARYVAR
  5
10EB
102
{ACAD_REACTORS
330
10EA
102
}
330
10EA
100
DictionaryVariables
280
     0
  1
STANDARD
  0
DICTIONARYVAR
  5
10ED
102
{ACAD_REACTORS
330
10EA
102
}
330
10EA
100
DictionaryVariables
280
     0
  1
Metric50
  0
DICTIONARYVAR
  5
10EE
102
{ACAD_REACTORS
330
10EA
102
}
330
10EA
100
DictionaryVariables
280
     0
  1
Metric50
  0
DICTIONARY
  5
11FA
102
{ACAD_REACTORS
330
11F3
102
}
330
11F3
100
AcDbDictionary
281
     1
  0
DICTIONARY
  5
1257
330
6B
100
AcDbDictionary
280
     1
281
     1
  3
ACAD_XREC_ROUNDTRIP
360
1258
  0
DICTIONARY
  5
12A4
330
10F2
100
AcDbDictionary
280
     1
281
     1
  3
ACAD_XREC_ROUNDTRIP
360
12A5
  0
DICTIONARY
  5
1A
330
19
100
AcDbDictionary
280
     1
281
     1
  3
BUMPTILE
360
1C
  3
DIFFUSETILE
360
1B
  3
OPACITYTILE
360
1F
  3
REFLECTIONTILE
360
1E
  3
REFRACTIONTILE
360
20
  3
SPECULARTILE
360
1D
  0
DICTIONARY
  5
12
330
11
100
AcDbDictionary
280
     1
281
     1
  3
BUMPTILE
360
14
  3
DIFFUSETILE
360
13
  3
FBXASSET
360
1C2
  3
OPACITYTILE
360
17
  3
REFLECTIONTILE
360
16
  3
REFRACTIONTILE
360
18
  3
SPECULARTILE
360
15
  0
DICTIONARY
  5
22
330
21
100
AcDbDictionary
280
     1
281
     1
  3
BUMPTILE
360
24
  3
DIFFUSETILE
360
23
  3
OPACITYTILE
360
27
  3
REFLECTIONTILE
360
26
  3
REFRACTIONTILE
360
28
  3
SPECULARTILE
360
25
  0
DICTIONARY
  5
1255
330
69
100
AcDbDictionary
280
     1
281
     1
  3
ACAD_XREC_ROUNDTRIP
360
1256
  0
DICTIONARY
  5
12A2
330
10F1
100
AcDbDictionary
280
     1
281
     1
  3
ACAD_XREC_ROUNDTRIP
360
12A3
  0
DICTIONARY
  5
1253
330
65
100
AcDbDictionary
280
     1
281
     1
  3
ACAD_ROUNDTRIP_2008_TABLESTYLE_CELLSTYLEMAP
360
1254
  0
XRECORD
  5
1258
102
{ACAD_REACTORS
330
1257
102
}
330
1257
100
AcDbXrecord
280
     1
102
DISPLAYNAME
  1
Imperial24
102
FLAGS
 90
        0
  0
XRECORD
  5
12A5
102
{ACAD_REACTORS
330
12A4
102
}
330
12A4
100
AcDbXrecord
280
     1
102
DISPLAYNAME
  1
Metric50
102
FLAGS
 90
        0
  0
XRECORD
  5
1C
102
{ACAD_REACTORS
330
1A
102
}
330
1A
100
AcDbXrecord
280
     1
270
     1
271
     1
  0
XRECORD
  5
1B
102
{ACAD_REACTORS
330
1A
102
}
330
1A
100
AcDbXrecord
280
     1
270
     1
271
     1
  0
XRECORD
  5
1F
102
{ACAD_REACTORS
330
1A
102
}
330
1A
100
AcDbXrecord
280
     1
270
     1
271
     1
  0
XRECORD
  5
1E
102
{ACAD_REACTORS
330
1A
102
}
330
1A
100
AcDbXrecord
280
     1
270
     1
271
     1
  0
XRECORD
  5
20
102
{ACAD_REACTORS
330
1A
102
}
330
1A
100
AcDbXrecord
280
     1
270
     1
271
     1
  0
XRECORD
  5
1D
102
{ACAD_REACTORS
330
1A
102
}
330
1A
100
AcDbXrecord
280
     1
270
     1
271
     1
  0
XRECORD
  5
14
102
{ACAD_REACTORS
330
12
102
}
330
12
100
AcDbXrecord
280
     1
270
     1
271
     1
  0
XRECORD
  5
13
102
{ACAD_REACTORS
330
12
102
}
330
12
100
AcDbXrecord
280
     1
270
     1
271
     1
  0
XRECORD
  5
1C2
102
{ACAD_REACTORS
330
12
102
}
330
12
100
AcDbXrecord
280
     1
 70
     1
 90
1959938040
 71
     1
  1
458CEB1B-719C-4788-AB50-6F21AA01C9AC
311
504B0304140006080800574032511B378CEDDC000000200100004F00000046373034384632362D414134412D343143362D384243462D3341424643373344303243322F4173736574446174612F446566696E6974696F6E4974657261746F7250726F706572746965732E62696E454E3D4FC3400C3D58100303FFA0EA7E9C73
311
5C4888DAA2D014165A0698582A73714BA424ADEE12896E8CFC6BF0A94158B2FDFCF5FCBE85103F83311427EC5F1C2F383F524BAEB22FF6831A1467DCB93F3CE1815C80C3F09461280BDA605F77E16C59794B758D2DED7A7FF9BF3A6AB0633EACAFC2D139FB5FC30786EDF15B10B03A6A7A6628B0DC6777E83D7553B579FF54
311
F1C37594CEA1909149401A0D46E6265E481D17F3242F921B9D2F9423BFEB9D25AFB482F5C0BCDEB7DB7236E9AA86462D36341D5B472CA91CCF346890702BA3F415D20C746692B7890A9BBF504B030414000608080057403251737C073AF2000000300200004500000046373034384632362D414134412D343143362D384243
311
462D3341424643373344303243322F4173736574446174612F496E7374616E636550726F706572746965732E62696EEB606060F80F0540260323103700495E20ED9E9A975A94991C9C9C919A9BA802143031B57076753274D23537B474D63531B7B0D075743235D0357333327474343074B674746647680469313634717135
311
32B5D435353131D635313332D475727372D13534373670367306EA70B504D9C9A019D37FE8ABC6157B28CD04146A006218DF1EC806820FF660170259020E0C02201108507180B170D0408D100067E05008B20249253390DD00E13F804AF040B86824280C11327043D0543130A4EC74C0104311C0AE15643C283C41E0833D0B
311
9004851A1F10079727962467E83A1525E6A5A4A680DC4B088074DA421581A28B140000504B0304140006080800574032517D09B9F3790100005E0600003D00000046373034384632362D414134412D343143362D384243462D3341424643373344303243322F536368656D61732F436F6D6D6F6E536368656D612E786D6CC5
311
95D16A83301486EFFB14E20B94B15B2DB42B6C42D9458BBB3F9AD32E2C2692448B6FBF18ADCBA22D0E847927497EBFF39FFFC468AB14EA53FE89056C56817DA234D90735B0387C11452178B71A6E56D1DAACFCEC3A1E024AE2704B6AE03912B38667CAA9A682874159658CE6717806A6300C2402119C3571A86565DEAD7C27
311
793C0C92272D29BF74AA2DD78166C9FEB6396090A181B2C4DD4A8BD49D9992D881C29EDDC7210369A2518216720F1AC6709EF84E0886C02DE01B2504C785CE50EE2C69D97BBD013EE11A2F28AD7E47FE8152CDF6F3D91ADA8B0CA269DFA765FB9326EF5098467A7D7E5C3E13791B2B3F029ECB694589B5A02FFED590FFF143
311
4EBC8CD86085932F68F3A59B725CC2FDA87A9C8E5A0EA6714236234C604C5C8B8A695A32345415AA5BFD4B58E5201054B9A4E5E4F42DFCA92F6CAE42927F2CD606894F05D0EFDEBCC8393EDA03B382314FDA9D6989359D1C679BD7A787E3AB3FAB22E340D972B63B53E25CC22E707DE7FAB9C71BAD7FFD4FBE01504B030414
311
000608080057403251317D3058AB040000AB1500003E00000046373034384632362D414134412D343143362D384243462D3341424643373344303243322F536368656D61732F47656E65726963536368656D612E786D6CDD586D4FE33810FECEAFB0F27D4BE18ED5AD4491DA4570FD807A82E5B3E53A6EEB3B3B891CA7D0FB
311
F537633B6ED27437A170D26A2B21F232F1BC3DCFCCD8D7D3B214F6896F84663767C4FDAE9FE7B764CBD424B917993092FBD7C9CDD9F539BC8A6233560A2FF728B254980766419AA986388A4479BB2B82BC0E92AC2804332CE3C22D8E0251BA9244A693649A6EF17D0A8AC54A66D2CA3C4B48512D95E49364C554291262044B
311
F34CED26893515DC3BE3C19CF23C7850FFDFAF367AD5CA29AD64542975A184169965A8C5A99FB71E3DE03BF5C8762758E0BF9D6BB61651775BE1703B16F74F2758005FBD5BF35F466CA57839417BF8F26BAE72D36746C8FDC7E4FC791ED535723DCB7325984F32479BE87247F3E5DF82DB809F802DC59602A8E0EC26B31D59
311
781924435823E6ADB9E6DA5387B29CA6C232A9CAB0AC476858F51918E457BE33B9260BBB1186D43C2A1D3E0F95DCA99C5987CDA60A595A47230FFDDF1312143CB057725BBF449BDDE77D1623C51C87DA3198EAA504069005E7AA2A9188C7A230CFAC58831BC8DE868925432AD551B8F81C4D7C0A2F6ECE42FD21E47A965759
311
5A9242188E945B8B48759971E3385ACA7FE1E945423454055DE9497219AF65096268E216447CC0357B0D5257A03ADC75E5BC43A83CC6E83C38141F1C4BF392F17F568C0BCA2BA58E066F1624C857943816B86E6697952E28D3100C0025532A7FE17996014445CAB06E9793043C5DABBAE48D47975F0E7E31CC53BFCCBBA3FC
311
E9623C1E0F8A7410F4811F16EA363A3D339A387201D1AC18108DC7490266028AEFEB8B597D3175B8090C99418C5D3A9CB698E46E327865F3CAD2BC605C5AE80003F201E8ACCB87FBD833BACFC954AE5615B6B55E0DE8E3E8B78BABE867BC415FE34DCB5FE7E62087831D5462CFA22B96D630DBBBE5DA19B9C3573DC0F22CFC
311
017B0762EA8DDC6DC7BA9BD4B5CA4BA09028A130F5861B630AB10E29BDDF7F3AACB0CA926A6805C7CBC39F72BD51F0678F57FD6345D5889582E652D84D283810C260DB23BC823281530C76806F064A13B975A23D790A15FFDD89BAC47CBE85FA8755F67B1E7BB7A84BDC8E1E74156801DD08B844EDC887F5998148BDFCE39D
311
11E8A215338EFE6FA1005166E93815EB61B8EDC405977055A08F21873ABF7CBCD2EFA4DAB4C0FD695F75165B618C4C05019803B21DCC3F08DCA8250C14DD8E55031A468DFF09DDC19B21E8AE1DFFA5D05DFB2F613FF91AAADAC5E8AA45EB20D3D7700614B2D17858B6A1E6BFA9940DA054EDA885DD6FA92A9872F98EBE086C
311
006F2434D4F6B8425F4C7E8A267C6C7C3638EFF3DCC07143495D1FA6387D0803D33FAD4F0BEABD437B53325370F8405EA4DD9CB87D6AE9362C95D5C059605F53D17AD8C739F30715D552A815954A559A72B7F9B442C36687D9CAD443D6E72B1CB3EBF11185C8B7865077E4E84ECB0D2D2BA9E0700642590C80178C95400C3F
311
3AFB0B1827FD456B94BC738BFA0DAC73BB6F846E1804AECBACB165DDFBFA04B121738C0D08B8E39EAEAFDDD6E8885430000C1F369BEF153A06D59FF68C473F05837EECFD2F34AF3F5903DB5B7792A072CE54C634D0A3E7F0CF49D6DB7E00713CC67410F54BC66DDEA1063C823C41C3B47D9079A0A439DFE83C6EA31AA734F8
311
1051DE1A82AFCF5B87B3FF01504B03041400060808005740325179B77F2750010000C20300004500000046373034384632362D414134412D343143362D384243462D3341424643373344303243322F536368656D61732F52656E6465724D6174657269616C536368656D612E786D6CAD93516BC23010C7DFFD14211F602A63
311
6FADA00E445036DAB95739D39B0DA489A451F1DBAFB9A4B5E2C660D8B7CBFDEF77C9DDBFC9B4AED1E5A2C40A2603465FB259BEB213A89467A80BB46B706825A8A0E29341326C149D7A063506F9DC5495D13D994F75BA4DB662B248F9B23A28AC503B70D2E805EA062E383B1C774A8A947F81AA91338B5018AD2E2977F6D8C4
311
749FD03B5BFDC15C7BB8CAE0F250EADB227F28EFDDE249E2F99FCC7969A4401AA8A0B16FF3122C165B5A689C57CCD494E14CC10E9BAD7AA1D4FB669871E18C2501F709EA78C36C2B69FAA31B0216B48D5E61BB95DF71B2B1D3C17B4ABB78C371C75CF672DE623F80DBC3B6513237CAD8FE0C3EA4765BE14F899FA57CF4F43C
311
7EA160D10F66FD609AF2EB3D3C821138BCCFC3BA8633631482BE6BE9CC7EAF5A974607C7697B1E91626DC7CA9DDF02A1EA333851DE39E1EAF9A00DA5C9F0E69FFD06504B030414000608080057403251D1AB0F1551000000570000004700000046373034384632362D414134412D343143362D384243462D33414246433733
311
44303243322F4173736574446174612F41737365745461626C654F66436F6E74656E74732E62696E536160603031B57076753274D23537B474D63531B7B0D075743235D0357333327474343074B674741602AACB4D2C492DCA4CCC492C28484D2C4ACC4B4E050A82012F90744FCD03CA26072767A4E6260200504B03041400
311
0608080057403251F865834058000000680000004500000046373034384632362D414134412D343143362D384243462D3341424643373344303243322F4173736574446174612F53747265616D56657273696F6E5461626C652E696E66558CBD0A80300C06F73E4B117FB66E451741D041DC5BF98480A492E4FDD18EAEC7DD
311
4555D89EF28DF51A0B1BD8340C4DE7DD848B988C0ACF0649566493F2408C508DDEBB99D5129FF8F1AF8CF5B9503E20FAE5A16B5AF702504B030414000608080057403251D32EE77F340100009A0400003600000046373034384632362D414134412D343143362D384243462D3341424643373344303243322F417373657444
311
6174612F636E782E786D6CCD94314FC3301085FF4AE43DB61B21512AC71582A51348540C6C57E752AC3A76645F10FC7BEC3603A888A943D7F3BBF3F327BF53EBCFC1551F18930DBE650B2E5985DE84CEFA7DCB26EAEB25ABD65AC510E8878C551E066C592933ADF6314CE35CEAB087C995AAB3FE3017EF5342DAC2CEE153FF
311
103CA1A7C42AE320A59625F38E0370982874980EBC0302BEE0115398A2C13C89EC80F3241311083BA61BD9C85ADED58BE5562E57B259DDDCBE2951945AED4270B3DEE6CB62182B73BA9569A94439D66A8A76D694B730FD9747BEB35E89ACD42A51CC4CE60EFA1A73078CA3B30628A313C110529D4508831227B156A230F845
311
E2117BEB6D69D9646340213E677B18C9E2D511F9CFEBE5C96C7C22F006AF97C7B9C3CB537839FEA0D753208F89B9B69C9C3BE4D6F717488938AE911C9AB255F437504B030414000608080057403251F976038C080100004F0300003400000046373034384632362D414134412D343143362D384243462D3341424643373344
311
303243322F536368656D61732F636E782E786D6CCD93BD4E042114855F65423F03333171DC306C616165A35676087757B2C09DF063F4ED85916237B1D3623B387C21E71C2E7CFFE96CF701211AF40B1907463AF00AB5F1C785E474E867D2ED050F88E90C239D970E16526522F831605E9BA4E120B3ADAA35FED4C47B740EFD
311
B37A072749A7AC8C712171DB0E3227D4104F8396490EE31020620E0ACA0DC9386837A800328126626213EBD95D3FCE2F6CDEB1697773FBCA6925057F43B48D373E41C0B5535816BED8619CD663C173308DA9198838F7369436382D84E03185D24123D3D75A48B9AED628994A5574037F18C1698D7A11F8013C04A3AE33F185
311
B97F8BFC045E43782CAF148CB4D799FC378F7F2B806EB35F46A07E05F10D504B030414000608080057403251410A3D5871000000A40000002C00000046373034384632362D414134412D343143362D384243462D3341424643373344303243322F636E782E786D6C55CC4D0E82301086E1AB34B31774E7A22D31F1069E6002
311
0334B633A63FC6E34B0909B07DDE2F9FEE7EC1AB2FC5E4840DDC9A2B28E25E06C7938192C7CB1D54677514C9871928C640062A83D55394F2D968A0118BAFEA1DBF377CA444F98919176EAB9FEAAB9F2960DA5BBB1E2ED3FA6FFF504B0304140006080800574032519FB88A297E000000A300000007000000636E782E786D6C
311
4D8C410E83201405AF42FE9E1691280BC0200DF730150D294243B5E9F10B8D8BAE5E32793362F86C01BD5D7EF91425341702C8C57B9A7D5C251CFB8239A041899CD2FE770314A7CD49A8189458733A9E279ADD321DA1D2E0E3E384B6278C5BDA61AD99C6AC311DE6A3B1B8D5A3357D7B23D4D0625CAB52E6D72B5BF3EA0B50
311
4B03041400060808005740325116E99B5DA600000035010000130000005B436F6E74656E745F54797065735D2E786D6C9590410E82301045AFD2740F4517C6180A0BF5065E60AC53688469D30E066F6F91AD9AB89CF9FFFD3F99BA9DC7413C3026E749CB4D59498164FCCD51A7E5C4B6D84BD136F5E5193089ECA5A465CF1C
311
0E4A25D3E308A9F401292BD6C711388FB15301CC1D3A54DBAADA29E38991B8E0254336F5092D4C038BF39CD76B6FC6A538AEBEA54A4B08617006389FA516557DE4AE8E7E70DE30729138228C5F021CD93F02D4FB0DCD0B504B0304140006080800574032513DEE336E64000000790000001B0000006175746F6465736B2D64
311
657369676E2D7061636B6167652E786D6C35CBC10E83200C00D05F21DCA56CA76D41FC96062B120735B69A7DBE268BB7777961F8D5AF396893C2ADB70FE7ADA196782C2DF776D7A97B5933C430F15651E5469C55D70F80A4992A3ADC954792C525AE70A1E4D6AD9816CC044FEFDF01FE3FDE907802504B0304140006080800
311
57403251E52C7FA4F9000000960100003700000046373034384632362D414134412D343143362D384243462D3341424643373344303243322F4173736574446174612F636F72652E786D6C8550CB6E833010FC15B477834D7825328E6822BEA0A7DE2CE3102BC1467E54FDFCDA814AEDA9A75DCDCECCEE0E3D7F2DCFEC535A
311
A78CEE81E41832A98599949E7B08FE863AC8CE8C5A63FC2F1A649A2FB2870403A3B33561DD2161B4973AA1DA4C7207B973D243269EB1E9C189BB5C78CE838F0CF7C8572E1E7C9639C9371EA321A86997AA29BAA99B9216D8A52EEBA6AB08C2CDB545D5D01ED1508F177424F5DB889B0369BB911649CCA857CBCF766125F772
311
0256E212237C44A47BC7DD0997A7AAFDA0456232EABC8D3FEF4BD377C08674F5957B4E8B6DFAC735ACD3FFAE41697F2877D74DE1809178E46BC06891528AE51561AC2951F60D504B030414000608080057403251020B28DCF8000000940100003500000046373034384632362D414134412D343143362D384243462D334142
311
4643373344303243322F536368656D61732F636F72652E786D6C8550CB6E833010FC15B477834D7825328ED254FC407BEACD320EB1126CE447D5CFAF0D546A4F3DED6A76667677E8F96B7E669FD23A65740F24C790492DCCA8F4D443F037D4417666D41AE37FD120D37C963D2418189DAC09CB0E09A3BDD409D566943BC89D
311
931E32F18C4D0F4EDCE5CC731E7C64B847BE70F1E093CC49BEF1180D418DBB548DD14DDD94B4C0AE7559375D45106E5E5B545DDA23BAD4C3151D49FD32E0E640DA6EA0451233EAD5FCB35D58C9BD1C8195B8C4081F11E9DE7177C2E5A96A3F6891988C3A6FE3CFFBD2F41DB0B7F54E478B6DF6C7332CE3FF9E41697F2877CF
311
4DE1809178E23A60B44819C5B206186BCA937D03504B030414000608080057403251C270AC1902010000D70100002D00000046373034384632362D414134412D343143362D384243462D3341424643373344303243322F636F72652E786D6C9591C16E842010865FC5CC1D45B4ABDD201BD7C627E8A9372AB32ED9158C60D3
311
C72F549BB6B7F604F9F9FE19FE197E7A9FEEC91B2E4E5BD3409E5248D00C56693336B0FA0BA9213909BE58EB7F6090183961035106C1C7C5AEF32E0DD67834513556E12E4AE7D04332DCC3A501375C7192A95C7D20DC2D9DE5709323A679BA71827B3D7D598705A54705825146097D2479FD4CEB2365C7B27AE15924055FB5
311
F105DB9BE1F48A2AB1B30F91403CF06C7B0DD4AAD5CE6815FEA82F1A17107D45CBBA6707D2B6654BCABC3B90FADCF5A468CF7D57154F94752C140966C19D5FC264F62271067FB56FC65FC9D659FD33D9E67020F2EF50591CB3E0D9E70EC21957223E00504B030414000608080057403251DE5A627907010000B20100000800
311
0000636F72652E786D6C8D50CB6EC32010FC15B4776C70FC8C30519ACA5FD0536FD41007C506CBE0A8FDFB42EC4AEDADA74533B33BC3B0D3E734A2875A9CB6A6059A1040CAF4566A33B4B0FA2BAE019D385BACF5BF64808C98540B1106CE86C5AEF30EF5D67865226AAC543B289C531E503F86470BAEBFA9492462F541E1EE
311
C92CFABB185442934DC799D7D3CF6ABF28E195049E918C60D2605ABF91FA48B2635EBDB3342A395B572D772B2D83BBBE6AB500BF145951D639C5A47CAD707EAE1A7C2EBA0B6E68F1D291F240ABBA63695CE6CCF925FC793F12727AE4C423FAB274A338FBB076DC05219444D68C5FC0094B23F127F43ACB7F84D6C61FB2FDE0
311
B6E180D310E84904E3D86018CF7AC38C6DF36F504B01021400140006080800574032511B378CEDDC000000200100004F000000000000000000000000000000000046373034384632362D414134412D343143362D384243462D3341424643373344303243322F4173736574446174612F446566696E6974696F6E4974657261
311
746F7250726F706572746965732E62696E504B0102140014000608080057403251737C073AF20000003002000045000000000000000000000000004901000046373034384632362D414134412D343143362D384243462D3341424643373344303243322F4173736574446174612F496E7374616E636550726F706572746965
311
732E62696E504B01021400140006080800574032517D09B9F3790100005E0600003D000000000000000000000000009E02000046373034384632362D414134412D343143362D384243462D3341424643373344303243322F536368656D61732F436F6D6D6F6E536368656D612E786D6C504B01021400140006080800574032
311
51317D3058AB040000AB1500003E000000000000000000000000007204000046373034384632362D414134412D343143362D384243462D3341424643373344303243322F536368656D61732F47656E65726963536368656D612E786D6C504B010214001400060808005740325179B77F2750010000C2030000450000000000
311
00000000000000007909000046373034384632362D414134412D343143362D384243462D3341424643373344303243322F536368656D61732F52656E6465724D6174657269616C536368656D612E786D6C504B0102140014000608080057403251D1AB0F15510000005700000047000000000000000000000000002C0B0000
311
46373034384632362D414134412D343143362D384243462D3341424643373344303243322F4173736574446174612F41737365745461626C654F66436F6E74656E74732E62696E504B0102140014000608080057403251F865834058000000680000004500000000000000000000000000E20B000046373034384632362D41
311
4134412D343143362D384243462D3341424643373344303243322F4173736574446174612F53747265616D56657273696F6E5461626C652E696E66504B0102140014000608080057403251D32EE77F340100009A04000036000000000000000000000000009D0C000046373034384632362D414134412D343143362D384243
311
462D3341424643373344303243322F4173736574446174612F636E782E786D6C504B0102140014000608080057403251F976038C080100004F0300003400000000000000000000000000250E000046373034384632362D414134412D343143362D384243462D3341424643373344303243322F536368656D61732F636E782E
311
786D6C504B0102140014000608080057403251410A3D5871000000A40000002C000000000000000000000000007F0F000046373034384632362D414134412D343143362D384243462D3341424643373344303243322F636E782E786D6C504B01021400140006080800574032519FB88A297E000000A3000000070000000000
311
00000000000000003A100000636E782E786D6C504B010214001400060808005740325116E99B5DA6000000350100001300000000000000000000000000DD1000005B436F6E74656E745F54797065735D2E786D6C504B01021400140006080800574032513DEE336E64000000790000001B00000000000000000000000000B4
311
1100006175746F6465736B2D64657369676E2D7061636B6167652E786D6C504B0102140014000608080057403251E52C7FA4F90000009601000037000000000000000000000000005112000046373034384632362D414134412D343143362D384243462D3341424643373344303243322F4173736574446174612F636F7265
311
2E786D6C504B0102140014000608080057403251020B28DCF80000009401000035000000000000000000000000009F13000046373034384632362D414134412D343143362D384243462D3341424643373344303243322F536368656D61732F636F72652E786D6C504B0102140014000608080057403251C270AC1902010000
311
D70100002D00000000000000000000000000EA14000046373034384632362D414134412D343143362D384243462D3341424643373344303243322F636F72652E786D6C504B0102140014000608080057403251DE5A627907010000B2010000080000000000000000000000000037160000636F72652E786D6C504B05060000
311
0000110011005A060000641700000000
310
504B030414000608080057403251000000000000000000000000370000006662782F44314338424632462D374645392D344237412D384536452D4532344543463331433543362F617474726962757465732E62696E504B030414000608080057403251000000000000000000000000350000006662782F4431433842463246
310
2D374645392D344237412D384536452D4532344543463331433543362F76657274696365732E62696E504B030414000608080057403251F270F1330600000004000000360000006662782F44314338424632462D374645392D344237412D384536452D4532344543463331433543362F747269616E676C65732E62696E6366
310
60600000504B03041400060808005740325151464CB48900000043010000360000006662782F44314338424632462D374645392D344237412D384536452D4532344543463331433543362F6469726563746F72792E786D6C9D8F310EC2300C45AF127987122606C71DD918B841D4B851A43646695A717C52A85029031293A5
310
A76FBF6FACEF7DA7264E43906840EF0FA03836E242F406C6DCEE4EA06AC22492573150D1F66C60C640E8938CB705396EEDD86DE9B5042FE27813D640EA63BB001C722AF6E55CB61E4863F58284D5D3F53DD715CE1C3985E63FD7F1B7EBDD617E9F1E504B03041400060808005740325123656CC83F070000211C0000340000
310
006662782F44314338424632462D374645392D344237412D384536452D4532344543463331433543362F6F626A656374732E786D6CDD595B6FDB3614FE2B84F6B23DE8E64B62178A0B5F92C1E8D216353AEC4DA065DAE1A21B2829B1F7EB774891B228CBB6D2B540B10488159A3C3CE73BF723EFFD3E0AD10B61194DE23BC3
310
B51C039138483634DEDD1945BE3547067A3F411E4B92BCB6CF40318EC89DC1978D89B7634991CAA50DD9E2226CAE3ECCFE4259406262A020C459766764C11389B0858B3CD990ECD9DAE01C5BBBEDDE72AD72A34E76C770FAD4B82AC58CC439B00AEB3150911CB8FABF20923DF16CBE41DBD6EBB6AD7F619B2D04D719A57196
310
E33838E1AA41A7D78DABBE3B58DCF78663733818F4CDC14DCF35670FB385E9DEF69DF9CD7C3E9EDE8F0D34F1D64912560A4849BC012D1E8C89EBD9FC9B4A7C89421BDF4112C7249068B66DD810499792AC898906AC2B44AB29A494B5B6D0EF28FC996D9D40D158D2D056C2A9CFBAF526EBBF0184AC8B95B28C702BCF7206BA
310
96D897FEE07876B9AAE9856628C23961148728A46B86192808B6960AD2C8706FE1A410C74C6851D1ABF30A867DDD97DAB8DC1661C8FDD798084FF3C11F499E09CEE83F841DB9AFDF063C81B4058DF39114363FA44062ECD962B1FCAEDF935F9640A26D8877602D2026DFD4EF35F09AF358B05C18930F0FEBFD8AC787F6CB53
310
96A484E5DCF284334BBF531AAC9916185F07504A5C75DD1D51F902D07F04E42B5E90079A63743FD80F94EC0CC7D9366111680739C874E08F83F8E3C993675787270869B1F21CA6E0B6DF09534D0CEDEE1AA413EF058C3E617D29DC2AC021D8F4238DB99F83A1A030812588F7DBF5DE982C2198C2229CC221480FBF9ECD1F11
310
7C947420DE3434D4167E3B284A394CD3CF8EBAFA1D6C86D1A0529526E3397C87DF05DFE962F56155B02D0EC8A374EC05D9D298E6904CDB19D240D75CFEEBF2A3F0C81379B45D01DCB34B78E068D1CB4AEA0509C5002B3C0F97AA112B8F14DC3D0C714C922293EB6D812A48C284F9EB835FFA70EB5D7F2A23282F03FFE616D0
310
1ACC20BB078CA61C146322C5AB22A175C489C7416980BB52A9FE1A07CF1C5E3F8088F52D7C80D562D6245A44A98FA3A48879F83E35EFA66856DF113FAE3BEE39E3DE687CA384CD0479E53D2A3454CCF37B229C9EB964AE694B460D45B9F4A30144CB360902A8998ADC4F521CD0BCDD161A42480F05B02FB2BCA1DB6D914150
310
6F85A5C1B1D57787C8A9FDAD2EB9CCBDBCC4A711DE117F8B79866BBD4F03A822AE24684566172659466392890AE524723550712C0804A5DD2AAA2D4648333F2239FE16FB1329AF617E8C6C431F6AA99C57B3D7AD4F3128B3E7398ABC724B625FC87FF0331CA56159A55DC3C0ED356E68C59533CDAF78017BF371EE3B1B228A
310
EE6BD4ABB8A0F0ED447DFCCDE4CFC0C3F00F87475D41A1F4861C795DB3AE3574C7FC670441E566E8F66F9522AE61A5AECA790D121650350507FF95D0DD53B780D6E99E8C845B9F866111F9653EC849042518CE0BD6C95F6F86CE89F2655C683844EDA62D0DA140EE1C3445EDA1AA0F904A141FE78266ED1A108AC6D0A37512
310
E4448A561316BA10FD286FBBAE6BFFED54FF73BCACF729CFE4F09AB04D2BA77A19A12A305530F07029335C654782F2C4AB3B5F241A97EB380C141119DFCA2E415A08232F940F264407D4DA3F64AF380F2090AEC4A739038FD890CDB1A6D0C8C9318731E91FBB1155A7D63B1D08763C7D6885D79207D408A60D98C7D947FE10
310
7EC1A06AA8FC325B563576B9BEE489CD82C1CA918F0BB43EFDBE6A508195CEA73F738CC86B83825C9DF342EE02A9AFCB63BDDAA02025FABABC703C7F2AA2758C29CF8CDC2CF0267DF75EF4927736340AF6F0A1EF8EE60E0C2B06B78E39E83903733A18DE9BBDE1627E3B5DDCDEF4A6F736235952B0806476CF767C553BA5F1
310
4E1946095D978E02A60AD75B3F65CF4D05FF7F3B8AD9E10F7CA877F59A31FEAC1D4555EFF18AACE18C5D3B8AD648BD7E5BF9EF9E44EAF62CF6A6D2B91C16280BBF9CB7201AA984DFBDB650A45529D1CE732D25BE31F39E6D577E7892D1227A6B82D076B4C57CCDFEF9F0A9254DA9F65604B6C17034BF9FB933F3D61DCFCDC1
310
ED68644E6743C7BC79E8B9D3A9E3C214167A23D948C864D835B1FC144154315B9BA3C138384B420A5379B2413B92400B0463870E0196452413AD0D5400328FAB57021D4EBF9443D51CAF43753A78C230990E654A2E02988A42DB7167C875F40BCC41F928524CA7AC67C83CD2DA0D54307A678009E414128CB5867996981E0A
310
EA8D7925A80DC73BDE3495A7AAFF8FC7383A602B47B9AA3D5D70919269D609D38154BC288068577E31F1BE5D74C50EC2393CAE8BBC12E6B870944682A0DE0894C2C1D8EF59C2BB87C073592ED7127B34483A8DE62FDA4149D5CC31DB89F97A0DEFE9E2B3CD47E3CB4F280D8B1D57E7A584AF513279A11116E514CA03C39062
310
A69837E2F377F66796C03BA6083D503002F4EB7E74F39B3D4FA22889CB257B2ADF54A1D513BC77DAD86AE607958BE30E6C51F8C8B93E0CAE3262E14DF60C0BA05A46F970B4845833802A3CD50C406984EB028E69FB970B24930014CECA62EAB52B87470CF51138127F99C3DDA6BEA13681045F00AECA416DF5A0163C9BC114
310
7CF22F504B030414000608080057403251C94BA97E3E01000046050000300000006662782F44314338424632462D374645392D344237412D384536452D4532344543463331433543362F636E782E786D6CCD94C14EC3300C865FA5CABD693B2131A6349338F0041C10B734F54A581A57898BD8DB938C6C80D0108749DB2D72
310
7E4BFF67FFB258BF8FB678031F0CBA9635BC6605388DBD7143CB66DA944B56ACA5F088F44DC60AA74668592A3329068FF3944B3D6CD46C53D51AB7CD4545E44D3713045668AB426859D02F302AAE66C21EC296F78A146FB88780B3D710FBC98C90FBB50745D033B9A8177559DF95CDF2B15EAEEAC5EAE6F659544929458768
310
B3DE38028F53A1313E5C34538B2A7D4B317B93358980C92F67BC334E54F15F8A10DDBA21EB683725DD3459A315C53155A809A88C2250A3A83EC5525489F707F5C3FDD3C141D11B0F9AD0EF2E3480E6D4008EC6784CC2FFF8F7C2BFB1B17B8DB897DAF649D86CEB6CA887B48618D7DFFB8F29526EB0D717FAA3B1F3673E9E12
310
32FAFA900FBECE445CED4F5E5C7ABA80F203504B030414000608080057403251D2E9834C7F000000A30000000B0000006662782F636E782E786D6C4D8CD10E822018465F85FDF75498296D804B82F770898E89D0485A8F1F342FBAFAB6B3EF1CD67D5687DE26BE6CF01CC8E104C8F84718AD9F39A46DC2145027580C61FBBB
310
01F2C36A38140C82CD31A4E78E46330DC915EAAC5F76782792F6BAD2B8D5EA8AEBBEBD61AA1A8555552BA9CF445E64938D6351F2FC7A794B5E7C01504B030414000608080057403251A6D797065F0000008200000007000000636E782E786D6C4DCB3B0E80201045D1AD90E9FD7516806B51190811670C8A61F982B1B0BAC9
310
C97B72CA7B1037C6D3332918DA1E04D2CAC69353902EDB8C20262D23F3F59B81A079470595414B17391D1F19B4730A5583A7ED43BBE4025D9592775E5ADFFA01504B0304140006080800574032514FEB6A7CA0000000F4000000130000005B436F6E74656E745F54797065735D2E786D6C7D8F4B0EC2300C44AF1279DFA6B0
310
400835ED02B8011730C16D239A8F121795DB93D02D6269CFBC19BBED573B8B17C564BC53B0AB1B10E4B47F18372A5878A88E20FAAEBDBD032591BD2E299898C349CAA427B2986A1FC86565F0D122E7318E32A07EE24872DF3407A9BD63725C71C980AEBDD080CBCCE2BAE6F5D69B7110E7CD57AA146008B3D1C8F92C5954F9
310
93BB1BF787F39A89ABC491D09600F9FDA2FB00504B0304140006080800574032513DEE336E64000000790000001B0000006175746F6465736B2D64657369676E2D7061636B6167652E786D6C35CBC10E83200C00D05F21DCA56CA76D41FC96062B120735B69A7DBE268BB7777961F8D5AF396893C2ADB70FE7ADA196782C2D
310
F776D7A97B5933C430F15651E5469C55D70F80A4992A3ADC954792C525AE70A1E4D6AD9816CC044FEFDF01FE3FDE907802504B030414000608080057403251A2F23870F6000000960100003B0000006662782F44314338424632462D374645392D344237412D384536452D4532344543463331433543362F7265736F757263
310
65732F636F72652E786D6C8550CB6E833010FC15B47783792534328E42F8849E7AB3CC86580936F2A3EAE7D70E546A4F3D8D353B33EB1D76FE5A9ED9275AA78CEEA1CC2964A8A599949E7B08FE463AC8CE9C5963FC2F19645A2CD843A281B3D99AB0EE9434DAA34EAC3613EEA4700E3D64F2191F3D3879C745E422F8A8708F
310
7C15F22166CCCB7CD37116829A76AB9A629ABA29B4C0EBA1A98FD76E240949D31E4A72190E23A93B3AB4C3F5D2B5D5C88A64E6CCABE567BBB4283C4EC02B5A5142DF48D9BDD3EE44AB5373FC60455272E6BC8D37EF4BD375C02D3A13AC44C78A6DFA2735ACD3FFA941695F577BEAE670C0CBF8C9D780B322B514E15561C4D4
310
28FF06504B0304140006080800574032517629B581F3000000B1010000310000006662782F44314338424632462D374645392D344237412D384536452D4532344543463331433543362F636F72652E786D6C8D50CB6EC32010FC156BEFD840DCC4893051E3DA5FD0536F08131725068B47D5CF2FC4AED4DE725A343BC3CC0E
310
3B7FCFF7E24B39AFAD698194180A65A41DB5995A88E18A1A28CE9C396BC31F1A1446CCAA850C036793B371D920694D5026A3C68E6A0385F72A4021EFE9D182979F6A16A5882131FCAD5C84BC894995A45C799C053DFF4AA55322A81138C514237C44A479C7CD09D3537DF86055667216A31E372B3D26777DD5CA017F235D73
310
19E8800E437F44F5E5F08A9A7EDFA39ED67D37EC48F7D2ED5995C59CF9E0D2CDDB27F9BA67E5ABF05FE6B88C4F64D626ECE866B82A3C7092F23C169C55B9C0341EEDA699CBE63F504B03041400060808005740325154DE27BE51010000DD0200000C0000006662782F636F72652E786D6C8D52DB8E832014FC15C33B8A97B6
310
6E8334B5FD847DDA378AD4922A1804D3CF5FF012D787ED6E4C80CC396766CE447C7AB54D3070DD0B250B108708045C3255095917C09A3BCC417022582B657EB48140D29617C0C380E05A2BDBCD1053D270E951A92A3E83B4EFB901016BDCA3003D7BF09686D41AD7D13FC38EB227AD791887531FC1D68A6A1E1595631377C1
310
35206999A5874B7E85FE86D96E1FC373B9BFC23447E5AEBC9CF35D72C5911F26D8887651679A53C32B40129420883E609C7FA2FC88926376F8C291EF24B837DAED3C8BFAED00B9DF5E389AF00D9FEDAABFF9AC90264D66BE69A2072476F6C602C191CFC75D6378DB0C9DB0CBCFD05BB3ACF074D0C099513A73954AD9B534D0
310
C672478D82F1C3D15475CC23C16F3CC91B9EF71C2E282A6B678D1AF7BC59E3D5B79E3AAEE1605E8154BAA5CD6A6EB2B89EABD066A5659CA946E9FF4C2FAB2E6146FEC724DF504B030414000608080057403251D743B1A205010000B201000008000000636F72652E786D6C8D50CB6EC32010FC15B4776CFC4ADC0813C5F127
310
F4D41B35C445B1C1E211B57F5F885DA9BDF5B468766667187AFE5C66F490D629A33B28320248EAD108A5A70E82BFE116D099516B8CFF4503A4F9223B4830303A5913D61D1A8DF65227541B2177903B273DA0718E8F0EDCF821179EF1E023C3DDB3958F773EC9ACC8361EA35E2D3FD2D14AEEA50056929260F2828BF695B427
310
529EEAE31BCD1393D11094D8AD9488EEEAA6A40556F57575BCB6034E13D7CDA1C097FE30E0AA257DD35F2F6D530E344F62469DB7F1CFFB9198D323C71FC997E6DB8AD17763E69D10430964F4FC058CD03C2DFE840EABF84768A57D55EE0737850356C440CF45344E0DC6F1AC37CED436FB06504B0102140014000608080057
310
4032510000000000000000000000003700000000000000000000000000000000006662782F44314338424632462D374645392D344237412D384536452D4532344543463331433543362F617474726962757465732E62696E504B01021400140006080800574032510000000000000000000000003500000000000000000000
310
000000550000006662782F44314338424632462D374645392D344237412D384536452D4532344543463331433543362F76657274696365732E62696E504B0102140014000608080057403251F270F13306000000040000003600000000000000000000000000A80000006662782F44314338424632462D374645392D344237
310
412D384536452D4532344543463331433543362F747269616E676C65732E62696E504B010214001400060808005740325151464CB489000000430100003600000000000000000000000000020100006662782F44314338424632462D374645392D344237412D384536452D4532344543463331433543362F6469726563746F
310
72792E786D6C504B010214001400060808005740325123656CC83F070000211C00003400000000000000000000000000DF0100006662782F44314338424632462D374645392D344237412D384536452D4532344543463331433543362F6F626A656374732E786D6C504B0102140014000608080057403251C94BA97E3E0100
310
00460500003000000000000000000000000000700900006662782F44314338424632462D374645392D344237412D384536452D4532344543463331433543362F636E782E786D6C504B0102140014000608080057403251D2E9834C7F000000A30000000B00000000000000000000000000FC0A00006662782F636E782E786D
310
6C504B0102140014000608080057403251A6D797065F000000820000000700000000000000000000000000A40B0000636E782E786D6C504B01021400140006080800574032514FEB6A7CA0000000F40000001300000000000000000000000000280C00005B436F6E74656E745F54797065735D2E786D6C504B010214001400
310
06080800574032513DEE336E64000000790000001B00000000000000000000000000F90C00006175746F6465736B2D64657369676E2D7061636B6167652E786D6C504B0102140014000608080057403251A2F23870F6000000960100003B00000000000000000000000000960D00006662782F44314338424632462D374645
310
392D344237412D384536452D4532344543463331433543362F7265736F75726365732F636F72652E786D6C504B01021400140006080800574032517629B581F3000000B10100003100000000000000000000000000E50E00006662782F44314338424632462D374645392D344237412D384536452D45323445434633314335
310
43362F636F72652E786D6C504B010214001400060808005740325154DE27BE51010000DD0200000C00000000000000000000000000271000006662782F636F72652E786D6C504B0102140014000608080057403251D743B1A205010000B20100000800000000000000000000000000A2110000636F72652E786D6C504B0506
310
000000000E000E0080040000CD1200000000
  0
XRECORD
  5
17
102
{ACAD_REACTORS
330
12
102
}
330
12
100
AcDbXrecord
280
     1
270
     1
271
     1
  0
XRECORD
  5
16
102
{ACAD_REACTORS
330
12
102
}
330
12
100
AcDbXrecord
280
     1
270
     1
271
     1
  0
XRECORD
  5
18
102
{ACAD_REACTORS
330
12
102
}
330
12
100
AcDbXrecord
280
     1
270
     1
271
     1
  0
XRECORD
  5
15
102
{ACAD_REACTORS
330
12
102
}
330
12
100
AcDbXrecord
280
     1
270
     1
271
     1
  0
XRECORD
  5
24
102
{ACAD_REACTORS
330
22
102
}
330
22
100
AcDbXrecord
280
     1
270
     1
271
     1
  0
XRECORD
  5
23
102
{ACAD_REACTORS
330
22
102
}
330
22
100
AcDbXrecord
280
     1
270
     1
271
     1
  0
XRECORD
  5
27
102
{ACAD_REACTORS
330
22
102
}
330
22
100
AcDbXrecord
280
     1
270
     1
271
     1
  0
XRECORD
  5
26
102
{ACAD_REACTORS
330
22
102
}
330
22
100
AcDbXrecord
280
     1
270
     1
271
     1
  0
XRECORD
  5
28
102
{ACAD_REACTORS
330
22
102
}
330
22
100
AcDbXrecord
280
     1
270
     1
271
     1
  0
XRECORD
  5
25
102
{ACAD_REACTORS
330
22
102
}
330
22
100
AcDbXrecord
280
     1
270
     1
271
     1
  0
XRECORD
  5
1256
102
{ACAD_REACTORS
330
1255
102
}
330
1255
100
AcDbXrecord
280
     1
102
DISPLAYNAME
  1
Imperial24
102
FLAGS
 90
        0
  0
XRECORD
  5
12A3
102
{ACAD_REACTORS
330
12A2
102
}
330
12A2
100
AcDbXrecord
280
     1
102
DISPLAYNAME
  1
Metric50
102
FLAGS
 90
        0
  0
CELLSTYLEMAP
  5
1254
102
{ACAD_REACTORS
330
1253
102
}
330
1253
100
AcDbCellStyleMap
 90
        3
300
CELLSTYLE
  1
TABLEFORMAT_BEGIN
 90
        5
170
     1
 91
        0
 92
    32768
 62
   257
 93
        1
300
CONTENTFORMAT
  1
CONTENTFORMAT_BEGIN
 90
        0
 91
        0
 92
      512
 93
        0
300

 40
0.0
140
1.0
 94
        5
 62
     0
340
55
144
0.25
309
CONTENTFORMAT_END
171
     0
 94
        0
309
TABLEFORMAT_END
  1
CELLSTYLE_BEGIN
 90
        1
 91
        1
300
_TITLE
309
CELLSTYLE_END
300
CELLSTYLE
  1
TABLEFORMAT_BEGIN
 90
        5
170
     1
 91
        0
 92
        0
 62
   257
 93
        1
300
CONTENTFORMAT
  1
CONTENTFORMAT_BEGIN
 90
        0
 91
        0
 92
      512
 93
        0
300

 40
0.0
140
1.0
 94
        5
 62
     0
340
55
144
0.18
309
CONTENTFORMAT_END
171
     0
 94
        0
309
TABLEFORMAT_END
  1
CELLSTYLE_BEGIN
 90
        2
 91
        1
300
_HEADER
309
CELLSTYLE_END
300
CELLSTYLE
  1
TABLEFORMAT_BEGIN
 90
        5
170
     1
 91
        0
 92
        0
 62
   257
 93
        1
300
CONTENTFORMAT
  1
CONTENTFORMAT_BEGIN
 90
        0
 91
        0
 92
      512
 93
        0
300

 40
0.0
140
1.0
 94
        2
 62
     0
340
55
144
0.18
309
CONTENTFORMAT_END
171
     0
 94
        0
309
TABLEFORMAT_END
  1
CELLSTYLE_BEGIN
 90
        3
 91
        2
300
_DATA
309
CELLSTYLE_END
  0
ENDSEC
  0
EOF
