  0
SECTION
  2
HEADER
  9
$ACADVER
  1
AC1015
  9
$ACADMAINTVER
 70
    20
  9
$DWGCODEPAGE
  3
ANSI_1252
  9
$INSBASE
 10
0.0
 20
0.0
 30
0.0
  9
$EXTMIN
 10
-13.85151212758777
 20
3.683266408715758
 30
0.0
  9
$EXTMAX
 10
477.5110587501995
 20
457.0337627871167
 30
0.0
  9
$LIMMIN
 10
0.0
 20
0.0
  9
$LIMMAX
 10
600.0
 20
700.0
  9
$ORTHOMODE
 70
     1
  9
$REGENMODE
 70
     1
  9
$FILLMODE
 70
     1
  9
$QTEXTMODE
 70
     0
  9
$MIRRTEXT
 70
     1
  9
$LTSCALE
 40
1.0
  9
$ATTMODE
 70
     1
  9
$TEXTSIZE
 40
10.0
  9
$TRACEWID
 40
0.05
  9
$TEXTSTYLE
  7
ARIAL-STANDARD
  9
$CLAYER
  8
BEMASSUNG
  9
$CELTYPE
  6
BYLAYER
  9
$CECOLOR
 62
   256
  9
$CELTSCALE
 40
1.0
  9
$DISPSILH
 70
     0
  9
$DIMSCALE
 40
1.0
  9
$DIMASZ
 40
3.5
  9
$DIMEXO
 40
1.0
  9
$DIMDLI
 40
0.0
  9
$DIMRND
 40
0.0
  9
$DIMDLE
 40
0.0
  9
$DIMEXE
 40
1.0
  9
$DIMTP
 40
0.0
  9
$DIMTM
 40
0.0
  9
$DIMTXT
 40
3.5
  9
$DIMCEN
 40
1.5
  9
$DIMTSZ
 40
0.0
  9
$DIMTOL
 70
     0
  9
$DIMLIM
 70
     0
  9
$DIMTIH
 70
     0
  9
$DIMTOH
 70
     0
  9
$DIMSE1
 70
     0
  9
$DIMSE2
 70
     0
  9
$DIMTAD
 70
     1
  9
$DIMZIN
 70
     8
  9
$DIMBLK
  1

  9
$DIMASO
 70
     1
  9
$DIMSHO
 70
     1
  9
$DIMPOST
  1

  9
$DIMAPOST
  1

  9
$DIMALT
 70
     0
  9
$DIMALTD
 70
     2
  9
$DIMALTF
 40
25.4
  9
$DIMLFAC
 40
1.0
  9
$DIMTOFL
 70
     1
  9
$DIMTVP
 40
0.0
  9
$DIMTIX
 70
     1
  9
$DIMSOXD
 70
     0
  9
$DIMSAH
 70
     0
  9
$DIMBLK1
  1

  9
$DIMBLK2
  1

  9
$DIMSTYLE
  2
NORMAL
  9
$DIMCLRD
 70
   256
  9
$DIMCLRE
 70
   256
  9
$DIMCLRT
 70
     3
  9
$DIMTFAC
 40
1.0
  9
$DIMGAP
 40
1.0
  9
$DIMJUST
 70
     0
  9
$DIMSD1
 70
     0
  9
$DIMSD2
 70
     0
  9
$DIMTOLJ
 70
     1
  9
$DIMTZIN
 70
     8
  9
$DIMALTZ
 70
     0
  9
$DIMALTTZ
 70
     0
  9
$DIMUPT
 70
     0
  9
$DIMDEC
 70
     2
  9
$DIMTDEC
 70
     2
  9
$DIMALTU
 70
     2
  9
$DIMALTTD
 70
     2
  9
$DIMTXSTY
  7
ARIAL-STANDARD
  9
$DIMAUNIT
 70
     0
  9
$DIMADEC
 70
     0
  9
$DIMALTRND
 40
0.0
  9
$DIMAZIN
 70
     0
  9
$DIMDSEP
 70
    46
  9
$DIMATFIT
 70
     3
  9
$DIMFRAC
 70
     0
  9
$DIMLDRBLK
  1

  9
$DIMLUNIT
 70
     2
  9
$DIMLWD
 70
    -2
  9
$DIMLWE
 70
    -2
  9
$DIMTMOVE
 70
     2
  9
$LUNITS
 70
     2
  9
$LUPREC
 70
     4
  9
$SKETCHINC
 40
0.1
  9
$FILLETRAD
 40
0.0
  9
$AUNITS
 70
     0
  9
$AUPREC
 70
     0
  9
$MENU
  1
.
  9
$ELEVATION
 40
0.0
  9
$PELEVATION
 40
0.0
  9
$THICKNESS
 40
0.0
  9
$LIMCHECK
 70
     0
  9
$CHAMFERA
 40
0.5
  9
$CHAMFERB
 40
0.5
  9
$CHAMFERC
 40
1.0
  9
$CHAMFERD
 40
0.0
  9
$SKPOLY
 70
     0
  9
$TDCREATE
 40
2451247.394468669
  9
$TDUCREATE
 40
2451247.311135336
  9
$TDUPDATE
 40
2454886.398740648
  9
$TDUUPDATE
 40
2454886.315407315
  9
$TDINDWG
 40
0.7458604398
  9
$TDUSRTIMER
 40
0.7458604398
  9
$USRTIMER
 70
     1
  9
$ANGBASE
 50
0.0
  9
$ANGDIR
 70
     0
  9
$PDMODE
 70
     0
  9
$PDSIZE
 40
0.0
  9
$PLINEWID
 40
0.0
  9
$SPLFRAME
 70
     0
  9
$SPLINETYPE
 70
     6
  9
$SPLINESEGS
 70
     8
  9
$HANDSEED
  5
809
  9
$SURFTAB1
 70
     6
  9
$SURFTAB2
 70
     6
  9
$SURFTYPE
 70
     6
  9
$SURFU
 70
     6
  9
$SURFV
 70
     6
  9
$UCSBASE
  2

  9
$UCSNAME
  2

  9
$UCSORG
 10
0.0
 20
0.0
 30
0.0
  9
$UCSXDIR
 10
1.0
 20
0.0
 30
0.0
  9
$UCSYDIR
 10
0.0
 20
1.0
 30
0.0
  9
$UCSORTHOREF
  2

  9
$UCSORTHOVIEW
 70
     0
  9
$UCSORGTOP
 10
0.0
 20
0.0
 30
0.0
  9
$UCSORGBOTTOM
 10
0.0
 20
0.0
 30
0.0
  9
$UCSORGLEFT
 10
0.0
 20
0.0
 30
0.0
  9
$UCSORGRIGHT
 10
0.0
 20
0.0
 30
0.0
  9
$UCSORGFRONT
 10
0.0
 20
0.0
 30
0.0
  9
$UCSORGBACK
 10
0.0
 20
0.0
 30
0.0
  9
$PUCSBASE
  2

  9
$PUCSNAME
  2

  9
$PUCSORG
 10
0.0
 20
0.0
 30
0.0
  9
$PUCSXDIR
 10
1.0
 20
0.0
 30
0.0
  9
$PUCSYDIR
 10
0.0
 20
1.0
 30
0.0
  9
$PUCSORTHOREF
  2

  9
$PUCSORTHOVIEW
 70
     0
  9
$PUCSORGTOP
 10
0.0
 20
0.0
 30
0.0
  9
$PUCSORGBOTTOM
 10
0.0
 20
0.0
 30
0.0
  9
$PUCSORGLEFT
 10
0.0
 20
0.0
 30
0.0
  9
$PUCSORGRIGHT
 10
0.0
 20
0.0
 30
0.0
  9
$PUCSORGFRONT
 10
0.0
 20
0.0
 30
0.0
  9
$PUCSORGBACK
 10
0.0
 20
0.0
 30
0.0
  9
$USERI1
 70
     0
  9
$USERI2
 70
     0
  9
$USERI3
 70
     0
  9
$USERI4
 70
     0
  9
$USERI5
 70
     0
  9
$USERR1
 40
0.0
  9
$USERR2
 40
0.0
  9
$USERR3
 40
0.0
  9
$USERR4
 40
0.0
  9
$USERR5
 40
0.0
  9
$WORLDVIEW
 70
     1
  9
$SHADEDGE
 70
     3
  9
$SHADEDIF
 70
    70
  9
$TILEMODE
 70
     1
  9
$MAXACTVP
 70
    48
  9
$PINSBASE
 10
0.0
 20
0.0
 30
0.0
  9
$PLIMCHECK
 70
     0
  9
$PEXTMIN
 10
1.000000000000000E+20
 20
1.000000000000000E+20
 30
1.000000000000000E+20
  9
$PEXTMAX
 10
-1.000000000000000E+20
 20
-1.000000000000000E+20
 30
-1.000000000000000E+20
  9
$PLIMMIN
 10
0.0
 20
0.0
  9
$PLIMMAX
 10
12.0
 20
9.0
  9
$UNITMODE
 70
     0
  9
$VISRETAIN
 70
     1
  9
$PLINEGEN
 70
     0
  9
$PSLTSCALE
 70
     1
  9
$TREEDEPTH
 70
  3020
  9
$CMLSTYLE
  2
STANDARD
  9
$CMLJUST
 70
     0
  9
$CMLSCALE
 40
1.0
  9
$PROXYGRAPHICS
 70
     1
  9
$MEASUREMENT
 70
     1
  9
$CELWEIGHT
370
    -1
  9
$ENDCAPS
280
     0
  9
$JOINSTYLE
280
     0
  9
$LWDISPLAY
290
     0
  9
$INSUNITS
 70
     0
  9
$HYPERLINKBASE
  1

  9
$STYLESHEET
  1

  9
$XEDIT
290
     1
  9
$CEPSNTYPE
380
     0
  9
$PSTYLEMODE
290
     1
  9
$FINGERPRINTGUID
  2
{F55760C4-D9EC-45C0-9D68-180BF8EA09D9}
  9
$VERSIONGUID
  2
{FA6FC797-F218-4681-9D4F-BAE0DF12F916}
  9
$EXTNAMES
290
     1
  9
$PSVPSCALE
 40
0.0
  9
$OLESTARTUP
290
     0
  0
ENDSEC
  0
SECTION
  2
CLASSES
  0
CLASS
  1
ACDBDICTIONARYWDFLT
  2
AcDbDictionaryWithDefault
  3
ObjectDBX Classes
 90
        0
280
     0
281
     0
  0
CLASS
  1
TABLESTYLE
  2
AcDbTableStyle
  3
ObjectDBX Classes
 90
     4095
280
     0
281
     0
  0
CLASS
  1
ACME_DOCUMENT
  2
AcMeDbDoc
  3
AcMeServices
 90
    33792
280
     0
281
     0
  0
CLASS
  1
AMGSETTINGSOBJ
  2
AmgSettingsObj
  3
"AcadM|Product Description: AutoCAD Mechanical|Company: Autodesk, Inc."
 90
     1024
280
     0
281
     0
  0
CLASS
  1
ACMESCOPE
  2
AcMeScope
  3
AcMeServices
 90
     1024
280
     0
281
     0
  0
CLASS
  1
ACMECOMMANDHISTORY
  2
AcMeCommandHistory
  3
AcMeServices
 90
    33792
280
     0
281
     0
  0
CLASS
  1
ACIMSYSVARMAN
  2
AcImSysVarManager
  3
AcMeServices
 90
     1024
280
     0
281
     0
  0
CLASS
  1
ACIMINTSYSVAR
  2
AcImIntSysVar
  3
AcMeServices
 90
     1024
280
     0
281
     0
  0
CLASS
  1
ACMEDRAWINGMAN
  2
AcMeDrawingMan
  3
AcMeServices
 90
    33792
280
     0
281
     0
  0
CLASS
  1
ACMEVIEW
  2
AcMeView
  3
AcMeServices
 90
    33792
280
     0
281
     0
  0
CLASS
  1
ACDBENTITYCACHE
  2
AcMeEntityCache
  3
AcMeServices
 90
    33792
280
     0
281
     0
  0
CLASS
  1
GSMANAGER
  2
AcMeGSManager
  3
AcMeServices
 90
    33792
280
     1
281
     0
  0
CLASS
  1
AMDTINTERNALREACTOR
  2
AmdtInternalReactor
  3
AcMeServices
 90
     1024
280
     0
281
     0
  0
CLASS
  1
ACMESTATEMGR
  2
AcMeStateMgr
  3
AcMeServices
 90
     1024
280
     0
281
     0
  0
CLASS
  1
ACGREFMASTER
  2
AcGrefMaster
  3
AcAttribServices
 90
     1024
280
     0
281
     0
  0
CLASS
  1
AM_DRAWING_MGR
  2
AcDmDwgMgr
  3
AcMechDwgViewMgmt
 90
     1024
280
     0
281
     0
  0
CLASS
  1
AM_DWG_DOCUMENT
  2
AcDmDwgDocument
  3
AcMechDwgViewMgmt
 90
     1024
280
     0
281
     0
  0
CLASS
  1
AM_DWG_SHEET
  2
AcDmSheet
  3
AcMechDwgViewMgmt
 90
     1024
280
     0
281
     0
  0
CLASS
  1
AM_VIEWDIMPARMAP
  2
AcDmViewDimParMap
  3
AcMechDwgViewMgmt
 90
     1024
280
     0
281
     0
  0
CLASS
  1
ACIMREALSYSVAR
  2
AcImRealSysVar
  3
AcMeServices
 90
     1024
280
     0
281
     0
  0
CLASS
  1
AM_DWGMGR_NAME
  2
AcDmDwgMgrName
  3
AcMechDwgViewMgmt
 90
     1024
280
     0
281
     0
  0
CLASS
  1
ACME_DATABASE
  2
AcMeDbDatabase
  3
AcMeServices
 90
    33792
280
     0
281
     0
  0
CLASS
  1
ACRFINSADJUSTERMGR
  2
AcRfInsAdjusterMgr
  3
AcMeServices
 90
    33792
280
     0
281
     0
  0
CLASS
  1
ACGREFACADMASTER
  2
AcGrefacadMaster
  3
AcGrefServices
 90
    33792
280
     0
281
     0
  0
CLASS
  1
AMDTMENUSTATEMGR
  2
AmdtMenuStateMgr
  3
McadcomServices
 90
    33792
280
     0
281
     0
  0
CLASS
  1
AMDTMCOMMENUSTATE
  2
AmdtMcomMenuState
  3
McadcomServices
 90
    33792
280
     0
281
     0
  0
CLASS
  1
AMIMASTER
  2
AmiMaster
  3
AmiServices
 90
    33792
280
     0
281
     0
  0
CLASS
  1
MAPIAMMOUDLE
  2
MApiAmModule
  3
MApiAmServices
 90
    33792
280
     0
281
     0
  0
CLASS
  1
ACIMSTRSYSVAR
  2
AcImStrSysVar
  3
AcMeServices
 90
     1024
280
     0
281
     0
  0
CLASS
  1
AMDTADMENUSTATE
  2
AmdtAdMenuState
  3
DesignerServices
 90
    33792
280
     1
281
     0
  0
CLASS
  1
ADAPPL
  2
AcAdAppl
  3
DesignerAssemblies
 90
    33792
280
     0
281
     0
  0
CLASS
  1
DEPMGR
  2
AcAdDepMgr
  3
DesignerAssemblies
 90
    33792
280
     0
281
     0
  0
CLASS
  1
PARAMMGR
  2
AcAdParamMgr
  3
DesignerAssemblies
 90
    33792
280
     0
281
     0
  0
CLASS
  1
PARAMSCOPE
  2
AcAdParamScope
  3
DesignerAssemblies
 90
    33792
280
     0
281
     0
  0
CLASS
  1
NAMEDAPPL
  2
AcAdNamedAppl
  3
DesignerAssemblies
 90
    33792
280
     0
281
     0
  0
CLASS
  1
AMDTDMMENUSTATE
  2
AmdtDmMenuState
  3
AcMechDwgViewMgmt
 90
    33792
280
     0
281
     0
  0
CLASS
  1
AMDTAMMENUSTATE
  2
AmdtAmMenuState
  3
DesignerAssemblies
 90
    33792
280
     0
281
     0
  0
CLASS
  1
ACAMPROJECT
  2
AcAmProject
  3
DesignerAssemblies
 90
    33792
280
     0
281
     0
  0
CLASS
  1
ACAMGRCOMPDEF
  2
AcAmGrCompDef
  3
DesignerAssemblies
 90
    33792
280
     0
281
     0
  0
CLASS
  1
ACCMCONTEXT
  2
AcCmContext
  3
DesignerAssemblies
 90
    33792
280
     0
281
     0
  0
CLASS
  1
ACAMCOMPDEF
  2
AcAmCompDef
  3
DesignerAssemblies
 90
    33792
280
     0
281
     0
  0
CLASS
  1
ACAMCOMPDEFMGR
  2
AcAmCompDefMgr
  3
DesignerAssemblies
 90
    33792
280
     0
281
     0
  0
CLASS
  1
AMCONTEXTMGR
  2
AcAmContextMgr
  3
DesignerAssemblies
 90
    33792
280
     0
281
     0
  0
CLASS
  1
ACAMCONTEXTMODELER
  2
AcAmContextModeler
  3
DesignerAssemblies
 90
    33792
280
     0
281
     0
  0
CLASS
  1
ACMDATADICTIONARY
  2
AcmDataDictionary
  3
"AcmSymBB|Product Description: AutoCAD Mechanical|Company: Autodesk, Inc."
 90
    33792
280
     0
281
     0
  0
CLASS
  1
CATALOGSTATE
  2
AcAmCatalogState
  3
DesignerAssemblies
 90
    33792
280
     0
281
     0
  0
CLASS
  1
ACAMGRCOMPDEFSET
  2
AcAmGrCompDefSet
  3
DesignerAssemblies
 90
    33792
280
     0
281
     0
  0
CLASS
  1
AMDTBROWSERDBTAB
  2
AmdtBrowserDbTab
  3
McadcomServices
 90
    33792
280
     0
281
     0
  0
CLASS
  1
CBROWSERAPPOBJECT
  2
CBrowserAppObject
  3
McadcomServices
 90
    33792
280
     0
281
     0
  0
CLASS
  1
DM_PLACEHOLDER
  2
AcDmSelsetPlaceholder
  3
AcMechDwgViewMgmt
 90
    33792
280
     0
281
     0
  0
CLASS
  1
ACMSTANDARDDIN
  2
AcmStandardDIN
  3
"Amdt_StdImp|Product Description: AutoCAD Mechanical|Company: Autodesk, Inc."
 90
     1024
280
     0
281
     0
  0
CLASS
  1
AMGOBJPROPCFG
  2
AmgObjPropCfg
  3
"AmgLay|Product Description: AutoCAD Mechanical|Company: Autodesk, Inc."
 90
     1025
280
     0
281
     0
  0
CLASS
  1
AMDTEDGESTANDARDDIN13715
  2
AmdtEdgeStdDIN13715
  3
"Amdt_StdImp|Product Description: AutoCAD Mechanical|Company: Autodesk, Inc."
 90
     1024
280
     0
281
     0
  0
CLASS
  1
ACMSURFSTANDARDDIN
  2
AcmSurfTextStdDIN
  3
"Amdt_StdImp|Product Description: AutoCAD Mechanical|Company: Autodesk, Inc."
 90
     1024
280
     0
281
     0
  0
CLASS
  1
ACMFCFSTANDARDDIN
  2
AcmFCFStdDIN
  3
"Amdt_StdImp|Product Description: AutoCAD Mechanical|Company: Autodesk, Inc."
 90
     1024
280
     0
281
     0
  0
CLASS
  1
ACMWELDSTANDARDDIN
  2
AcmWeldingStdDIN
  3
"Amdt_StdImp|Product Description: AutoCAD Mechanical|Company: Autodesk, Inc."
 90
     1024
280
     0
281
     0
  0
CLASS
  1
ACMIDSTANDARDDIN
  2
AcmIdStdDIN
  3
"Amdt_StdImp|Product Description: AutoCAD Mechanical|Company: Autodesk, Inc."
 90
     1024
280
     0
281
     0
  0
CLASS
  1
ACMDATUMSTANDARDDIN
  2
AcmDatumStdDIN
  3
"Amdt_StdImp|Product Description: AutoCAD Mechanical|Company: Autodesk, Inc."
 90
     1024
280
     0
281
     0
  0
CLASS
  1
ACMBOMSTANDARDDIN
  2
AcmBOMStdDIN
  3
"Amdt_StdImp|Product Description: AutoCAD Mechanical|Company: Autodesk, Inc."
 90
     1024
280
     0
281
     0
  0
CLASS
  1
ACMDETAILSTANDARDDIN
  2
AmdtDetailSymStdDIN
  3
"Amdt_StdImp|Product Description: AutoCAD Mechanical|Company: Autodesk, Inc."
 90
     1024
280
     0
281
     0
  0
CLASS
  1
ACMSECTIONSTANDARDDIN
  2
AmdtSectionSymStdDIN
  3
"Amdt_StdImp|Product Description: AutoCAD Mechanical|Company: Autodesk, Inc."
 90
     1024
280
     0
281
     0
  0
CLASS
  1
ACMCENTERLINESTANDARDDIN
  2
AmdtCenterLineStdDIN
  3
"Amdt_StdImp|Product Description: AutoCAD Mechanical|Company: Autodesk, Inc."
 90
     1024
280
     0
281
     0
  0
CLASS
  1
ACMTHREADLINESTANDARDDIN
  2
AmdtThreadLineStdDIN
  3
"Amdt_StdImp|Product Description: AutoCAD Mechanical|Company: Autodesk, Inc."
 90
     1024
280
     0
281
     0
  0
CLASS
  1
ACMNOTESTANDARDDIN
  2
AmdtNoteStdDIN
  3
"Amdt_StdImp|Product Description: AutoCAD Mechanical|Company: Autodesk, Inc."
 90
     1024
280
     0
281
     0
  0
CLASS
  1
AMDTNOTETEMPLATEDB
  2
AmdtNoteTemplateDB
  3
AcmSymBB|Product Description: AutoCAD Mechanical|Company: Autodesk, Inc.
 90
     1024
280
     0
281
     0
  0
CLASS
  1
ACAMGLAYSTD
  2
AcAmgLayStd
  3
"AmgLay|Product Description: AutoCAD Mechanical|Company: Autodesk, Inc."
 90
     1024
280
     0
281
     0
  0
CLASS
  1
ACAMGDIMSTD
  2
AcAmgDimStd
  3
"AmgDim|Product Description: AutoCAD Mechanical|Company: Autodesk, Inc."
 90
     1024
280
     0
281
     0
  0
CLASS
  1
ACAMGHOLECHARTSTDDIN
  2
AcAmgHoleChartStdDIN
  3
AmgDim|Product Description: AutoCAD Mechanical|Company: Autodesk, Inc.
 90
     1024
280
     0
281
     0
  0
CLASS
  1
ACAMGTITLESTD
  2
AcAmgTitleStd
  3
"AmgTitle|Product Description: AutoCAD Mechanical|Company: Autodesk, Inc."
 90
     4095
280
     0
281
     0
  0
CLASS
  1
DICTIONARYVAR
  2
AcDbDictionaryVar
  3
ObjectDBX Classes
 90
        0
280
     0
281
     0
  0
CLASS
  1
ACAMGFILTERDAT
  2
AcAmgFilterDat
  3
"AcadM|Product Description: AutoCAD Mechanical|Company: Autodesk, Inc."
 90
    33792
280
     0
281
     0
  0
CLASS
  1
ACMDATAENTRYBLOCK
  2
AcmDataEntryBlock
  3
AcmSymBB|Product Description: AutoCAD Mechanical|Company: Autodesk, Inc.
 90
    33792
280
     0
281
     0
  0
CLASS
  1
PLOTSETTINGS
  2
AcDbPlotSettings
  3
ObjectDBX Classes
 90
    32768
280
     0
281
     0
  0
CLASS
  1
SORTENTSTABLE
  2
AcDbSortentsTable
  3
ObjectDBX Classes
 90
        0
280
     0
281
     0
  0
CLASS
  1
MATERIAL
  2
AcDbMaterial
  3
ObjectDBX Classes
 90
     1153
280
     0
281
     0
  0
CLASS
  1
VISUALSTYLE
  2
AcDbVisualStyle
  3
ObjectDBX Classes
 90
     4095
280
     0
281
     0
  0
CLASS
  1
SCALE
  2
AcDbScale
  3
ObjectDBX Classes
 90
     1153
280
     0
281
     0
  0
CLASS
  1
MLEADERSTYLE
  2
AcDbMLeaderStyle
  3
ACDB_MLEADERSTYLE_CLASS
 90
    36863
280
     0
281
     0
  0
CLASS
  1
ACMTAPERSTANDARDDIN
  2
AcmTaperStdDIN
  3
"Amdt_StdImp|Product Description: AutoCAD Mechanical|Company: Autodesk, Inc."
 90
     1024
280
     0
281
     0
  0
CLASS
  1
ACMANOOTATIONVIEWSTANDARDDIN
  2
AmdtAnViewStdDIN
  3
"Amdt_StdImp|Product Description: AutoCAD Mechanical|Company: Autodesk, Inc."
 90
     1024
280
     0
281
     0
  0
CLASS
  1
CAMSSTRUCTBTNSTATE
  2
StructBtnState
  3
DesignerAssemblies
 90
    33792
280
     0
281
     0
  0
CLASS
  1
CELLSTYLEMAP
  2
AcDbCellStyleMap
  3
ObjectDBX Classes
 90
     1152
280
     0
281
     0
  0
CLASS
  1
ACRFATTGENMGR
  2
AcRfAttGeneralMgr
  3
AcAttribServices
 90
    33792
280
     0
281
     0
  0
CLASS
  1
ACRFMCADAPIATTHOLDER
  2
AcRfMCADAPIAttHolder
  3
AcAttribServices
 90
    33792
280
     0
281
     0
  0
CLASS
  1
AMDTSYSATTR
  2
AmdtSystemAttribute
  3
AcAttribServices
 90
    33792
280
     0
281
     0
  0
CLASS
  1
ACDBPLACEHOLDER
  2
AcDbPlaceHolder
  3
ObjectDBX Classes
 90
        0
280
     0
281
     0
  0
CLASS
  1
LAYOUT
  2
AcDbLayout
  3
ObjectDBX Classes
 90
        0
280
     0
281
     0
  0
ENDSEC
  0
SECTION
  2
TABLES
  0
TABLE
  2
VPORT
  5
2C
330
0
100
AcDbSymbolTable
 70
     1
  0
VPORT
  5
2D
330
2C
100
AcDbSymbolTableRecord
100
AcDbViewportTableRecord
  2
*Active
 70
     0
 10
0.0
 20
0.0
 11
1.0
 21
1.0
 12
231.8239708827002
 22
237.0235619897695
 13
0.0
 23
0.0
 14
10.0
 24
10.0
 15
10.0
 25
10.0
 16
0.0
 26
0.0
 36
1.0
 17
0.0
 27
0.0
 37
0.0
 40
469.617070118616
 41
1.509297520661156
 42
50.0
 43
0.0
 44
0.0
 50
0.0
 51
0.0
 71
     0
 72
  5000
 73
     1
 74
     0
 75
     0
 76
     0
 77
     0
 78
     0
281
     0
 65
     1
110
0.0
120
0.0
130
0.0
111
1.0
121
0.0
131
0.0
112
0.0
122
1.0
132
0.0
 79
     0
146
0.0
  0
ENDTAB
  0
TABLE
  2
LTYPE
  5
27
330
0
100
AcDbSymbolTable
 70
    16
  0
LTYPE
  5
28
330
27
100
AcDbSymbolTableRecord
100
AcDbLinetypeTableRecord
  2
BYBLOCK
 70
     0
  3

 72
    65
 73
     0
 40
0.0
  0
LTYPE
  5
29
330
27
100
AcDbSymbolTableRecord
100
AcDbLinetypeTableRecord
  2
BYLAYER
 70
     0
  3

 72
    65
 73
     0
 40
0.0
  0
LTYPE
  5
15
330
27
100
AcDbSymbolTableRecord
100
AcDbLinetypeTableRecord
  2
CONTINUOUS
 70
     0
  3
Solid line
 72
    65
 73
     0
 40
0.0
  0
LTYPE
  5
A3
330
27
100
AcDbSymbolTableRecord
100
AcDbLinetypeTableRecord
  2
STRICHPUNKT2
 70
     0
  3
Strichpunkt (.5x) _._._._._._._._._._._._._._._
 72
    65
 73
     4
 40
12.7
 49
6.349999999999999
 74
     0
 49
-3.174999999999999
 74
     0
 49
0.0
 74
     0
 49
-3.174999999999999
 74
     0
  0
LTYPE
  5
79B
330
27
100
AcDbSymbolTableRecord
100
AcDbLinetypeTableRecord
  2
AM_ISO02W050
 70
     0
  3
__ __ __ __ __ __ __ __ __ __ __ __ __ __ __
 72
    65
 73
     2
 40
7.5
 49
6.0
 74
     0
 49
-1.5
 74
     0
  0
LTYPE
  5
7B5
330
27
100
AcDbSymbolTableRecord
100
AcDbLinetypeTableRecord
  2
AM_DIN_G_W050
 70
     0
  3
____ . ____ . ____ . ____ . ____ . ____ . ____
 72
    65
 73
     4
 40
13.75
 49
9.75
 74
     0
 49
-1.5
 74
     0
 49
1.0
 74
     0
 49
-1.5
 74
     0
  0
LTYPE
  5
7AD
330
27
100
AcDbSymbolTableRecord
100
AcDbLinetypeTableRecord
  2
ACDINWELD
 70
     0
  3
_ _ _ _ _
 72
    65
 73
     2
 40
2.0
 49
2.0
 74
     0
 49
-1.0
 74
     0
  0
LTYPE
  5
7B0
330
27
100
AcDbSymbolTableRecord
100
AcDbLinetypeTableRecord
  2
ACDINTGB
 70
     0
  3
__ . . __ . .
 72
    65
 73
     6
 40
9.0
 49
4.0
 74
     0
 49
-1.0
 74
     0
 49
1.0
 74
     0
 49
-1.0
 74
     0
 49
1.0
 74
     0
 49
-1.0
 74
     0
  0
LTYPE
  5
7B1
330
27
100
AcDbSymbolTableRecord
100
AcDbLinetypeTableRecord
  2
ACDINTGL
 70
     0
  3
_ _ _ _ _
 72
    65
 73
     2
 40
3.0
 49
2.0
 74
     0
 49
-1.0
 74
     0
  0
LTYPE
  5
796
330
27
100
AcDbSymbolTableRecord
100
AcDbLinetypeTableRecord
  2
gen3
 70
     0
  3
-- -- -- -- -- -- -- -- -- -- -- -- -- -- --
 72
    65
 73
     2
 40
6.25
 49
4.75
 74
     0
 49
-1.5
 74
     0
  0
LTYPE
  5
797
330
27
100
AcDbSymbolTableRecord
100
AcDbLinetypeTableRecord
  2
gen7
 70
     0
  3
____ . ____ . ____ . ____ . ____ . ____ . ____
 72
    65
 73
     4
 40
13.75
 49
9.75
 74
     0
 49
-1.5
 74
     0
 49
1.0
 74
     0
 49
-1.5
 74
     0
  0
LTYPE
  5
798
330
27
100
AcDbSymbolTableRecord
100
AcDbLinetypeTableRecord
  2
gen3a
 70
     0
  3
 - - - - -
 72
    65
 73
     2
 40
3.125
 49
2.25
 74
     0
 49
-0.875
 74
     0
  0
LTYPE
  5
799
330
27
100
AcDbSymbolTableRecord
100
AcDbLinetypeTableRecord
  2
gen7a
 70
     0
  3
__ . __ . __
 72
    65
 73
     4
 40
6.875
 49
4.75
 74
     0
 49
-0.875
 74
     0
 49
0.375
 74
     0
 49
-0.875
 74
     0
  0
LTYPE
  5
79A
330
27
100
AcDbSymbolTableRecord
100
AcDbLinetypeTableRecord
  2
gen4a
 70
     0
  3
_____ . . _____ . . _____ . . ____ .. ____
 72
    65
 73
     6
 40
16.25
 49
9.75
 74
     0
 49
-1.5
 74
     0
 49
1.0
 74
     0
 49
-1.5
 74
     0
 49
1.0
 74
     0
 49
-1.5
 74
     0
  0
LTYPE
  5
79C
330
27
100
AcDbSymbolTableRecord
100
AcDbLinetypeTableRecord
  2
genzigzag
 70
     0
  3
/\/-/\/-/\/-/\/-/\/-/\/
 72
    65
 73
     2
 40
12.0001
 49
0.0001
 74
     4
 75
   135
340
79D
 46
2.0
 50
0.0
 44
0.0
 45
0.0
 49
-12.0
 74
     0
  0
LTYPE
  5
7E5
330
27
100
AcDbSymbolTableRecord
100
AcDbLinetypeTableRecord
  2
HIDDEN
 70
     0
  3
Verdeckt
 72
    65
 73
     2
 40
9.525
 49
6.349999999999999
 74
     0
 49
-3.174999999999999
 74
     0
  0
LTYPE
  5
7E6
330
27
100
AcDbSymbolTableRecord
100
AcDbLinetypeTableRecord
  2
PHANTOM2
 70
     0
  3
Phantom (.5x) ___ _ _ ___ _ _ ___ _ _ ___ _ _
 72
    65
 73
     6
 40
31.75
 49
15.875
 74
     0
 49
-3.174999999999999
 74
     0
 49
3.174999999999999
 74
     0
 49
-3.174999999999999
 74
     0
 49
3.174999999999999
 74
     0
 49
-3.174999999999999
 74
     0
  0
LTYPE
  5
7E7
330
27
100
AcDbSymbolTableRecord
100
AcDbLinetypeTableRecord
  2
CENTER
 70
     0
  3
Mitte ____ _ ____ _ ____ _ ____ _ ____ _ ____
 72
    65
 73
     4
 40
50.8
 49
31.75
 74
     0
 49
-6.349999999999999
 74
     0
 49
6.349999999999999
 74
     0
 49
-6.349999999999999
 74
     0
  0
ENDTAB
  0
TABLE
  2
LAYER
  5
1E
102
{ACAD_XDICTIONARY
360
1F
102
}
330
0
100
AcDbSymbolTable
 70
     5
  0
LAYER
  5
6
102
{ACAD_XDICTIONARY
360
7
102
}
330
1E
100
AcDbSymbolTableRecord
100
AcDbLayerTableRecord
  2
0
 70
     0
 62
     7
  6
CONTINUOUS
370
    -3
390
9
  0
LAYER
  5
51
102
{ACAD_XDICTIONARY
360
52
102
}
330
1E
100
AcDbSymbolTableRecord
100
AcDbLayerTableRecord
  2
BEMASSUNG
 70
     0
 62
     2
  6
CONTINUOUS
370
    -3
390
9
  0
LAYER
  5
A0
102
{ACAD_XDICTIONARY
360
A1
102
}
330
1E
100
AcDbSymbolTableRecord
100
AcDbLayerTableRecord
  2
ACHSEN
 70
     0
 62
     1
  6
STRICHPUNKT2
370
    -3
390
9
  0
LAYER
  5
6B
102
{ACAD_XDICTIONARY
360
6C
102
}
330
1E
100
AcDbSymbolTableRecord
100
AcDbLayerTableRecord
  2
LAYER3
 70
     0
 62
     4
  6
CONTINUOUS
370
    -3
390
9
  0
LAYER
  5
79
330
1E
100
AcDbSymbolTableRecord
100
AcDbLayerTableRecord
  2
DEFPOINTS
 70
     0
 62
     7
  6
CONTINUOUS
290
     0
370
    -3
390
9
  0
ENDTAB
  0
TABLE
  2
STYLE
  5
24
330
0
100
AcDbSymbolTable
 70
     5
  0
STYLE
  5
25
330
24
100
AcDbSymbolTableRecord
100
AcDbTextStyleTableRecord
  2
STANDARD
 70
     0
 40
0.0
 41
1.0
 50
0.0
 71
     0
 42
10.0
  3
txt
  4

  0
STYLE
  5
33
330
24
100
AcDbSymbolTableRecord
100
AcDbTextStyleTableRecord
  2
ARIAL-STANDARD
 70
     0
 40
0.0
 41
1.0
 50
0.0
 71
     0
 42
10.0
  3
arial.ttf
  4

1001
ACAD
1000
Arial
1071
       34
  0
STYLE
  5
79D
330
24
100
AcDbSymbolTableRecord
100
AcDbTextStyleTableRecord
  2

 70
     1
 40
0.0
 41
1.0
 50
0.0
 71
     0
 42
3.5
  3
genltshp.shx
  4

  0
STYLE
  5
7A7
330
24
100
AcDbSymbolTableRecord
100
AcDbTextStyleTableRecord
  2
ACDINTS
 70
     0
 40
1.0
 41
1.0
 50
0.0
 71
     0
 42
3.5
  3
isocp.shx
  4

  0
STYLE
  5
7AB
330
24
100
AcDbSymbolTableRecord
100
AcDbTextStyleTableRecord
  2
ACDINGDT
 70
     0
 40
0.0
 41
1.0
 50
0.0
 71
     0
 42
3.5
  3
AMGDT
  4

  0
ENDTAB
  0
TABLE
  2
VIEW
  5
2A
330
0
100
AcDbSymbolTable
 70
     0
  0
ENDTAB
  0
TABLE
  2
UCS
  5
2B
330
0
100
AcDbSymbolTable
 70
     0
  0
ENDTAB
  0
TABLE
  2
APPID
  5
30
330
0
100
AcDbSymbolTable
 70
     7
  0
APPID
  5
23
330
30
100
AcDbSymbolTableRecord
100
AcDbRegAppTableRecord
  2
ACAD
 70
     0
  0
APPID
  5
19
330
30
100
AcDbSymbolTableRecord
100
AcDbRegAppTableRecord
  2
ACAD_PSEXT
 70
     0
  0
APPID
  5
91
330
30
100
AcDbSymbolTableRecord
100
AcDbRegAppTableRecord
  2
ACAD_DSTYLE_DIMINSPECT
 70
     0
  0
APPID
  5
36
330
30
100
AcDbSymbolTableRecord
100
AcDbRegAppTableRecord
  2
ACAD_DSTYLE_DIMJAG
 70
     0
  0
APPID
  5
35
330
30
100
AcDbSymbolTableRecord
100
AcDbRegAppTableRecord
  2
ACAD_DSTYLE_DIMBREAK
 70
     0
  0
APPID
  5
37
330
30
100
AcDbSymbolTableRecord
100
AcDbRegAppTableRecord
  2
ACAD_DSTYLE_DIMTALN
 70
     0
  0
APPID
  5
7E9
330
30
100
AcDbSymbolTableRecord
100
AcDbRegAppTableRecord
  2
ACATTRIBSERVICES
 70
     0
  0
ENDTAB
  0
TABLE
  2
DIMSTYLE
  5
31
330
0
100
AcDbSymbolTable
 70
     3
100
AcDbDimStyleTable
 71
     3
340
32
340
34
340
38
  0
DIMSTYLE
105
32
330
31
100
AcDbSymbolTableRecord
100
AcDbDimStyleTableRecord
  2
NORMAL
 70
     0
 41
3.5
 42
1.0
 43
0.0
 44
1.0
 73
     0
 74
     0
 77
     1
 78
     8
140
3.5
141
1.5
147
1.0
172
     1
174
     1
176
   256
177
   256
178
     3
271
     2
272
     2
279
     2
284
     8
340
33
  0
DIMSTYLE
105
38
330
31
100
AcDbSymbolTableRecord
100
AcDbDimStyleTableRecord
  2
STANDARD
 70
     0
340
25
  0
DIMSTYLE
105
34
102
{ACAD_REACTORS
330
12D
330
154
330
11E
330
161
330
13A
330
147
330
1F1
330
1FE
330
6F
330
84
330
1D6
330
1E3
330
170
330
FE
330
194
330
1A1
330
1AE
330
1BC
330
20B
330
218
330
186
330
92
330
1C9
330
111
102
}
330
31
100
AcDbSymbolTableRecord
100
AcDbDimStyleTableRecord
  2
Katalog 09
 70
     0
 41
4.0
 42
0.0
 43
8.0
 44
1.0
 73
     0
 74
     0
 77
     1
 78
     8
140
4.349999999999999
141
1.5
143
25.39999999999999
146
0.4285714285714286
147
1.0
172
     1
174
     1
176
     2
177
     2
178
     3
271
     2
272
     2
284
     8
285
     8
286
     8
340
33
1001
ACAD_DSTYLE_DIMBREAK
1070
   391
1040
3.75
1001
ACAD_DSTYLE_DIMJAG
1070
   388
1040
1.5
1001
ACAD_DSTYLE_DIMTALN
1070
   392
1070
     0
  0
ENDTAB
  0
TABLE
  2
BLOCK_RECORD
  5
1
330
0
100
AcDbSymbolTable
 70
    24
  0
BLOCK_RECORD
  5
2
102
{ACAD_XDICTIONARY
360
3
102
}
330
1
100
AcDbSymbolTableRecord
100
AcDbBlockTableRecord
  2
*MODEL_SPACE
340
17
  0
BLOCK_RECORD
  5
1A
330
1
100
AcDbSymbolTableRecord
100
AcDbBlockTableRecord
  2
*PAPER_SPACE
340
1D
  0
BLOCK_RECORD
  5
219
330
1
100
AcDbSymbolTableRecord
100
AcDbBlockTableRecord
  2
*D0
340
0
  0
BLOCK_RECORD
  5
20C
330
1
100
AcDbSymbolTableRecord
100
AcDbBlockTableRecord
  2
*D1
340
0
  0
BLOCK_RECORD
  5
1FF
330
1
100
AcDbSymbolTableRecord
100
AcDbBlockTableRecord
  2
*D2
340
0
  0
BLOCK_RECORD
  5
1F2
330
1
100
AcDbSymbolTableRecord
100
AcDbBlockTableRecord
  2
*D3
340
0
  0
BLOCK_RECORD
  5
1E4
330
1
100
AcDbSymbolTableRecord
100
AcDbBlockTableRecord
  2
*D4
340
0
  0
BLOCK_RECORD
  5
1D7
330
1
100
AcDbSymbolTableRecord
100
AcDbBlockTableRecord
  2
*D5
340
0
  0
BLOCK_RECORD
  5
1CA
330
1
100
AcDbSymbolTableRecord
100
AcDbBlockTableRecord
  2
*D6
340
0
  0
BLOCK_RECORD
  5
1BD
330
1
100
AcDbSymbolTableRecord
100
AcDbBlockTableRecord
  2
*D7
340
0
  0
BLOCK_RECORD
  5
1AF
330
1
100
AcDbSymbolTableRecord
100
AcDbBlockTableRecord
  2
*D8
340
0
  0
BLOCK_RECORD
  5
1A2
330
1
100
AcDbSymbolTableRecord
100
AcDbBlockTableRecord
  2
*D9
340
0
  0
BLOCK_RECORD
  5
195
330
1
100
AcDbSymbolTableRecord
100
AcDbBlockTableRecord
  2
*D10
340
0
  0
BLOCK_RECORD
  5
187
330
1
100
AcDbSymbolTableRecord
100
AcDbBlockTableRecord
  2
*D11
340
0
  0
BLOCK_RECORD
  5
171
330
1
100
AcDbSymbolTableRecord
100
AcDbBlockTableRecord
  2
*D12
340
0
  0
BLOCK_RECORD
  5
162
330
1
100
AcDbSymbolTableRecord
100
AcDbBlockTableRecord
  2
*D13
340
0
  0
BLOCK_RECORD
  5
155
330
1
100
AcDbSymbolTableRecord
100
AcDbBlockTableRecord
  2
*D14
340
0
  0
BLOCK_RECORD
  5
148
330
1
100
AcDbSymbolTableRecord
100
AcDbBlockTableRecord
  2
*D15
340
0
  0
BLOCK_RECORD
  5
13B
330
1
100
AcDbSymbolTableRecord
100
AcDbBlockTableRecord
  2
*D16
340
0
  0
BLOCK_RECORD
  5
12E
330
1
100
AcDbSymbolTableRecord
100
AcDbBlockTableRecord
  2
*D17
340
0
  0
BLOCK_RECORD
  5
11F
330
1
100
AcDbSymbolTableRecord
100
AcDbBlockTableRecord
  2
*D18
340
0
  0
BLOCK_RECORD
  5
112
330
1
100
AcDbSymbolTableRecord
100
AcDbBlockTableRecord
  2
*D19
340
0
  0
BLOCK_RECORD
  5
FF
330
1
100
AcDbSymbolTableRecord
100
AcDbBlockTableRecord
  2
*D20
340
0
  0
BLOCK_RECORD
  5
93
330
1
100
AcDbSymbolTableRecord
100
AcDbBlockTableRecord
  2
*D21
340
0
  0
BLOCK_RECORD
  5
85
330
1
100
AcDbSymbolTableRecord
100
AcDbBlockTableRecord
  2
*D22
340
0
  0
BLOCK_RECORD
  5
70
330
1
100
AcDbSymbolTableRecord
100
AcDbBlockTableRecord
  2
*D23
340
0
  0
ENDTAB
  0
ENDSEC
  0
SECTION
  2
BLOCKS
  0
BLOCK
  5
5
330
2
100
AcDbEntity
  8
0
100
AcDbBlockBegin
  2
*MODEL_SPACE
 70
     0
 10
0.0
 20
0.0
 30
0.0
  3
*MODEL_SPACE
  1

  0
ENDBLK
  5
16
330
2
100
AcDbEntity
  8
0
100
AcDbBlockEnd
  0
BLOCK
  5
1B
330
1A
100
AcDbEntity
 67
     1
  8
0
100
AcDbBlockBegin
  2
*PAPER_SPACE
 70
     0
 10
0.0
 20
0.0
 30
0.0
  3
*PAPER_SPACE
  1

  0
ENDBLK
  5
1C
330
1A
100
AcDbEntity
 67
     1
  8
0
100
AcDbBlockEnd
  0
BLOCK
  5
21A
330
219
100
AcDbEntity
  8
0
100
AcDbBlockBegin
  2
*D0
 70
     1
 10
0.0
 20
0.0
 30
0.0
  3
*D0
  1

  0
LINE
  5
21B
330
219
100
AcDbEntity
  8
BEMASSUNG
  6
Continuous
 62
     2
370
    -2
100
AcDbLine
 10
38.94744493249772
 20
169.0091625543672
 30
0.0
 11
-8.264165606441755
 21
169.0091625543672
 31
0.0
  0
LINE
  5
21C
330
219
100
AcDbEntity
  8
BEMASSUNG
  6
Continuous
 62
     2
370
    -2
100
AcDbLine
 10
19.94744493249781
 20
250.0091625543671
 30
0.0
 11
-8.264165606441737
 21
250.0091625543671
 31
0.0
  0
LINE
  5
21D
330
219
100
AcDbEntity
  8
BEMASSUNG
  6
Continuous
 62
     2
370
    -2
100
AcDbLine
 10
-7.264165606441753
 20
173.0091625543672
 30
0.0
 11
-7.264165606441737
 21
246.0091625543672
 31
0.0
  0
SOLID
  5
21E
330
219
100
AcDbEntity
  8
BEMASSUNG
  6
Continuous
 62
     2
100
AcDbTrace
 10
-7.93083227310842
 20
173.0091625543672
 30
0.0
 11
-6.597498939775086
 21
173.0091625543672
 31
0.0
 12
-7.264165606441754
 22
169.0091625543672
 32
0.0
 13
-7.264165606441754
 23
169.0091625543672
 33
0.0
  0
SOLID
  5
21F
330
219
100
AcDbEntity
  8
BEMASSUNG
  6
Continuous
 62
     2
100
AcDbTrace
 10
-7.930832273108403
 20
246.0091625543672
 30
0.0
 11
-6.59749893977507
 21
246.0091625543672
 31
0.0
 12
-7.264165606441736
 22
250.0091625543671
 32
0.0
 13
-7.264165606441736
 23
250.0091625543671
 33
0.0
  0
MTEXT
  5
220
330
219
100
AcDbEntity
  8
BEMASSUNG
  6
Continuous
 62
     3
100
AcDbMText
 10
-10.48515810303114
 20
209.5091625543672
 30
0.0
 40
4.349999999999999
 41
0.0
 71
     5
 72
     1
  1
\A1;81
  7
ARIAL-STANDARD
 11
0.0000000000000001
 21
1.0
 31
0.0
 73
     1
 44
1.0
1001
ACAD
1000
MTEXTBEGIN
1070
    73
1070
     1
1070
    44
1040
1.0
1070
    74
1070
     0
1000
MTEXTEND
  0
POINT
  5
221
330
219
100
AcDbEntity
  8
DEFPOINTS
  6
Continuous
 62
     0
100
AcDbPoint
 10
38.94744493249772
 20
169.0091625543672
 30
0.0
  0
POINT
  5
222
330
219
100
AcDbEntity
  8
DEFPOINTS
  6
Continuous
 62
     0
100
AcDbPoint
 10
19.94744493249781
 20
250.0091625543671
 30
0.0
  0
POINT
  5
223
330
219
100
AcDbEntity
  8
DEFPOINTS
  6
Continuous
 62
     0
100
AcDbPoint
 10
-7.264165606441736
 20
250.0091625543671
 30
0.0
  0
ENDBLK
  5
224
330
219
100
AcDbEntity
  8
0
100
AcDbBlockEnd
  0
BLOCK
  5
20D
330
20C
100
AcDbEntity
  8
0
100
AcDbBlockBegin
  2
*D1
 70
     1
 10
0.0
 20
0.0
 30
0.0
  3
*D1
  1

  0
LINE
  5
20E
330
20C
100
AcDbEntity
  8
BEMASSUNG
  6
Continuous
 62
     2
370
    -2
100
AcDbLine
 10
38.94744493249772
 20
169.0091625543672
 30
0.0
 11
6.827444932497813
 21
169.0091625543672
 31
0.0
  0
LINE
  5
20F
330
20C
100
AcDbEntity
  8
BEMASSUNG
  6
Continuous
 62
     2
370
    -2
100
AcDbLine
 10
42.44744493249771
 20
204.0091625543672
 30
0.0
 11
6.827444932497829
 21
204.0091625543672
 31
0.0
  0
LINE
  5
210
330
20C
100
AcDbEntity
  8
BEMASSUNG
  6
Continuous
 62
     2
370
    -2
100
AcDbLine
 10
7.827444932497819
 20
173.0091625543672
 30
0.0
 11
7.827444932497825
 21
200.0091625543672
 31
0.0
  0
SOLID
  5
211
330
20C
100
AcDbEntity
  8
BEMASSUNG
  6
Continuous
 62
     2
100
AcDbTrace
 10
7.160778265831152
 20
173.0091625543672
 30
0.0
 11
8.494111599164487
 21
173.0091625543672
 31
0.0
 12
7.827444932497818
 22
169.0091625543672
 32
0.0
 13
7.827444932497818
 23
169.0091625543672
 33
0.0
  0
SOLID
  5
212
330
20C
100
AcDbEntity
  8
BEMASSUNG
  6
Continuous
 62
     2
100
AcDbTrace
 10
7.160778265831158
 20
200.0091625543672
 30
0.0
 11
8.494111599164492
 21
200.0091625543672
 31
0.0
 12
7.827444932497826
 22
204.0091625543672
 32
0.0
 13
7.827444932497826
 23
204.0091625543672
 33
0.0
  0
MTEXT
  5
213
330
20C
100
AcDbEntity
  8
BEMASSUNG
  6
Continuous
 62
     3
100
AcDbMText
 10
4.604968806986196
 20
186.5091625543673
 30
0.0
 40
4.349999999999999
 41
0.0
 71
     5
 72
     1
  1
\A1;35
  7
ARIAL-STANDARD
 11
0.0000000000000001
 21
1.0
 31
0.0
 73
     1
 44
1.0
1001
ACAD
1000
MTEXTBEGIN
1070
    73
1070
     1
1070
    44
1040
1.0
1070
    74
1070
     0
1000
MTEXTEND
  0
POINT
  5
214
330
20C
100
AcDbEntity
  8
DEFPOINTS
  6
Continuous
 62
     0
100
AcDbPoint
 10
38.94744493249772
 20
169.0091625543672
 30
0.0
  0
POINT
  5
215
330
20C
100
AcDbEntity
  8
DEFPOINTS
  6
Continuous
 62
     0
100
AcDbPoint
 10
42.44744493249771
 20
204.0091625543672
 30
0.0
  0
POINT
  5
216
330
20C
100
AcDbEntity
  8
DEFPOINTS
  6
Continuous
 62
     0
100
AcDbPoint
 10
7.827444932497826
 20
204.0091625543672
 30
0.0
  0
ENDBLK
  5
217
330
20C
100
AcDbEntity
  8
0
100
AcDbBlockEnd
  0
BLOCK
  5
200
330
1FF
100
AcDbEntity
  8
0
100
AcDbBlockBegin
  2
*D2
 70
     1
 10
0.0
 20
0.0
 30
0.0
  3
*D2
  1

  0
LINE
  5
201
330
1FF
100
AcDbEntity
  8
BEMASSUNG
  6
Continuous
 62
     2
370
    -2
100
AcDbLine
 10
68.94744493249771
 20
194.5091625543674
 30
0.0
 11
68.94744493249771
 21
155.9657977090482
 31
0.0
  0
LINE
  5
202
330
1FF
100
AcDbEntity
  8
BEMASSUNG
  6
Continuous
 62
     2
370
    -2
100
AcDbLine
 10
84.44744493249771
 20
204.0091625543673
 30
0.0
 11
84.44744493249771
 21
155.9657977090482
 31
0.0
  0
LINE
  5
203
330
1FF
100
AcDbEntity
  8
BEMASSUNG
  6
Continuous
 62
     2
370
    -2
100
AcDbLine
 10
72.94744493249772
 20
156.9657977090482
 30
0.0
 11
80.44744493249771
 21
156.9657977090482
 31
0.0
  0
SOLID
  5
204
330
1FF
100
AcDbEntity
  8
BEMASSUNG
  6
Continuous
 62
     2
100
AcDbTrace
 10
72.94744493249772
 20
157.6324643757148
 30
0.0
 11
72.94744493249772
 21
156.2991310423815
 31
0.0
 12
68.94744493249771
 22
156.9657977090482
 32
0.0
 13
68.94744493249771
 23
156.9657977090482
 33
0.0
  0
SOLID
  5
205
330
1FF
100
AcDbEntity
  8
BEMASSUNG
  6
Continuous
 62
     2
100
AcDbTrace
 10
80.44744493249771
 20
157.6324643757148
 30
0.0
 11
80.44744493249771
 21
156.2991310423815
 31
0.0
 12
84.44744493249771
 22
156.9657977090482
 32
0.0
 13
84.44744493249771
 23
156.9657977090482
 33
0.0
  0
MTEXT
  5
206
330
1FF
100
AcDbEntity
  8
BEMASSUNG
  6
Continuous
 62
     3
100
AcDbMText
 10
76.69744493249772
 20
160.1867902056375
 30
0.0
 40
4.349999999999999
 41
0.0
 71
     5
 72
     1
  1
\A1;15.5
  7
ARIAL-STANDARD
 73
     1
 44
1.0
1001
ACAD
1000
MTEXTBEGIN
1070
    73
1070
     1
1070
    44
1040
1.0
1070
    74
1070
     0
1000
MTEXTEND
  0
POINT
  5
207
330
1FF
100
AcDbEntity
  8
DEFPOINTS
  6
Continuous
 62
     0
100
AcDbPoint
 10
68.94744493249771
 20
194.5091625543674
 30
0.0
  0
POINT
  5
208
330
1FF
100
AcDbEntity
  8
DEFPOINTS
  6
Continuous
 62
     0
100
AcDbPoint
 10
84.44744493249771
 20
204.0091625543673
 30
0.0
  0
POINT
  5
209
330
1FF
100
AcDbEntity
  8
DEFPOINTS
  6
Continuous
 62
     0
100
AcDbPoint
 10
84.44744493249771
 20
156.9657977090482
 30
0.0
  0
ENDBLK
  5
20A
330
1FF
100
AcDbEntity
  8
0
100
AcDbBlockEnd
  0
BLOCK
  5
1F3
330
1F2
100
AcDbEntity
  8
0
100
AcDbBlockBegin
  2
*D3
 70
     1
 10
0.0
 20
0.0
 30
0.0
  3
*D3
  1

  0
LINE
  5
1F4
330
1F2
100
AcDbEntity
  8
BEMASSUNG
  6
Continuous
 62
     2
370
    -2
100
AcDbLine
 10
38.94744493249772
 20
167.5091625543674
 30
0.0
 11
38.94744493249772
 21
155.9657977090482
 31
0.0
  0
LINE
  5
1F5
330
1F2
100
AcDbEntity
  8
BEMASSUNG
  6
Continuous
 62
     2
370
    -2
100
AcDbLine
 10
68.94744493249771
 20
194.5091625543674
 30
0.0
 11
68.94744493249771
 21
155.9657977090482
 31
0.0
  0
LINE
  5
1F6
330
1F2
100
AcDbEntity
  8
BEMASSUNG
  6
Continuous
 62
     2
370
    -2
100
AcDbLine
 10
42.94744493249772
 20
156.9657977090482
 30
0.0
 11
64.94744493249772
 21
156.9657977090482
 31
0.0
  0
SOLID
  5
1F7
330
1F2
100
AcDbEntity
  8
BEMASSUNG
  6
Continuous
 62
     2
100
AcDbTrace
 10
42.94744493249772
 20
157.6324643757148
 30
0.0
 11
42.94744493249772
 21
156.2991310423815
 31
0.0
 12
38.94744493249772
 22
156.9657977090482
 32
0.0
 13
38.94744493249772
 23
156.9657977090482
 33
0.0
  0
SOLID
  5
1F8
330
1F2
100
AcDbEntity
  8
BEMASSUNG
  6
Continuous
 62
     2
100
AcDbTrace
 10
64.94744493249772
 20
157.6324643757148
 30
0.0
 11
64.94744493249772
 21
156.2991310423815
 31
0.0
 12
68.94744493249771
 22
156.9657977090482
 32
0.0
 13
68.94744493249771
 23
156.9657977090482
 33
0.0
  0
MTEXT
  5
1F9
330
1F2
100
AcDbEntity
  8
BEMASSUNG
  6
Continuous
 62
     3
100
AcDbMText
 10
53.94744493249771
 20
160.1407977090482
 30
0.0
 40
4.349999999999999
 41
0.0
 71
     5
 72
     1
  1
\A1;DM
  7
ARIAL-STANDARD
 73
     1
 44
1.0
1001
ACAD
1000
MTEXTBEGIN
1070
    73
1070
     1
1070
    44
1040
1.0
1070
    74
1070
     0
1000
MTEXTEND
  0
POINT
  5
1FA
330
1F2
100
AcDbEntity
  8
DEFPOINTS
  6
Continuous
 62
     0
100
AcDbPoint
 10
38.94744493249772
 20
167.5091625543674
 30
0.0
  0
POINT
  5
1FB
330
1F2
100
AcDbEntity
  8
DEFPOINTS
  6
Continuous
 62
     0
100
AcDbPoint
 10
68.94744493249771
 20
194.5091625543674
 30
0.0
  0
POINT
  5
1FC
330
1F2
100
AcDbEntity
  8
DEFPOINTS
  6
Continuous
 62
     0
100
AcDbPoint
 10
68.94744493249771
 20
156.9657977090482
 30
0.0
  0
ENDBLK
  5
1FD
330
1F2
100
AcDbEntity
  8
0
100
AcDbBlockEnd
  0
BLOCK
  5
1E5
330
1E4
100
AcDbEntity
  8
0
100
AcDbBlockBegin
  2
*D4
 70
     1
 10
0.0
 20
0.0
 30
0.0
  3
*D4
  1

  0
LINE
  5
1E6
330
1E4
100
AcDbEntity
  8
BEMASSUNG
  6
Continuous
 62
     2
370
    -2
100
AcDbLine
 10
84.44744493249771
 20
204.0091625543673
 30
0.0
 11
107.9486649312174
 21
204.0091625543673
 31
0.0
  0
LINE
  5
1E7
330
1E4
100
AcDbEntity
  8
BEMASSUNG
  6
Continuous
 62
     2
370
    -2
100
AcDbLine
 10
82.94744493249771
 20
229.5091625543673
 30
0.0
 11
107.9486649312175
 21
229.5091625543673
 31
0.0
  0
LINE
  5
1E8
330
1E4
100
AcDbEntity
  8
BEMASSUNG
  6
Continuous
 62
     2
370
    -2
100
AcDbLine
 10
106.9486649312174
 20
208.0091625543673
 30
0.0
 11
106.9486649312175
 21
225.5091625543673
 31
0.0
  0
SOLID
  5
1E9
330
1E4
100
AcDbEntity
  8
BEMASSUNG
  6
Continuous
 62
     2
100
AcDbTrace
 10
106.2819982645508
 20
208.0091625543673
 30
0.0
 11
107.6153315978841
 21
208.0091625543673
 31
0.0
 12
106.9486649312174
 22
204.0091625543673
 32
0.0
 13
106.9486649312174
 23
204.0091625543673
 33
0.0
  0
SOLID
  5
1EA
330
1E4
100
AcDbEntity
  8
BEMASSUNG
  6
Continuous
 62
     2
100
AcDbTrace
 10
106.2819982645508
 20
225.5091625543673
 30
0.0
 11
107.6153315978841
 21
225.5091625543673
 31
0.0
 12
106.9486649312175
 22
229.5091625543673
 32
0.0
 13
106.9486649312175
 23
229.5091625543673
 33
0.0
  0
MTEXT
  5
1EB
330
1E4
100
AcDbEntity
  8
BEMASSUNG
  6
Continuous
 62
     3
100
AcDbMText
 10
100.0937706610946
 20
216.7591625543673
 30
0.0
 40
4.349999999999999
 41
0.0
 71
     5
 72
     1
  1
\A1;RZ 25.5\PPZ 27.5
  7
ARIAL-STANDARD
 11
0.0000000000000001
 21
1.0
 31
0.0
 73
     1
 44
1.0
1001
ACAD
1000
MTEXTBEGIN
1070
    73
1070
     1
1070
    44
1040
1.0
1070
    74
1070
     0
1000
MTEXTEND
  0
POINT
  5
1EC
330
1E4
100
AcDbEntity
  8
DEFPOINTS
  6
Continuous
 62
     0
100
AcDbPoint
 10
84.44744493249771
 20
204.0091625543673
 30
0.0
  0
POINT
  5
1ED
330
1E4
100
AcDbEntity
  8
DEFPOINTS
  6
Continuous
 62
     0
100
AcDbPoint
 10
82.94744493249771
 20
229.5091625543673
 30
0.0
  0
POINT
  5
1EE
330
1E4
100
AcDbEntity
  8
DEFPOINTS
  6
Continuous
 62
     0
100
AcDbPoint
 10
106.9486649312175
 20
229.5091625543673
 30
0.0
  0
ENDBLK
  5
1EF
330
1E4
100
AcDbEntity
  8
0
100
AcDbBlockEnd
  0
BLOCK
  5
1D8
330
1D7
100
AcDbEntity
  8
0
100
AcDbBlockBegin
  2
*D5
 70
     1
 10
0.0
 20
0.0
 30
0.0
  3
*D5
  1

  0
LINE
  5
1D9
330
1D7
100
AcDbEntity
  8
BEMASSUNG
  6
Continuous
 62
     2
370
    -2
100
AcDbLine
 10
84.44744493249771
 20
204.0091625543673
 30
0.0
 11
120.414660727635
 21
204.0091625543673
 31
0.0
  0
LINE
  5
1DA
330
1D7
100
AcDbEntity
  8
BEMASSUNG
  6
Continuous
 62
     2
370
    -2
100
AcDbLine
 10
62.44744493249766
 20
404.0091625543672
 30
0.0
 11
120.4146607276351
 21
404.0091625543672
 31
0.0
  0
LINE
  5
1DB
330
1D7
100
AcDbEntity
  8
BEMASSUNG
  6
Continuous
 62
     2
370
    -2
100
AcDbLine
 10
119.414660727635
 20
208.0091625543673
 30
0.0
 11
119.4146607276351
 21
400.0091625543673
 31
0.0
  0
SOLID
  5
1DC
330
1D7
100
AcDbEntity
  8
BEMASSUNG
  6
Continuous
 62
     2
100
AcDbTrace
 10
118.7479940609683
 20
208.0091625543673
 30
0.0
 11
120.0813273943017
 21
208.0091625543673
 31
0.0
 12
119.414660727635
 22
204.0091625543673
 32
0.0
 13
119.414660727635
 23
204.0091625543673
 33
0.0
  0
SOLID
  5
1DD
330
1D7
100
AcDbEntity
  8
BEMASSUNG
  6
Continuous
 62
     2
100
AcDbTrace
 10
118.7479940609684
 20
400.0091625543673
 30
0.0
 11
120.0813273943017
 21
400.0091625543673
 31
0.0
 12
119.4146607276351
 22
404.0091625543672
 32
0.0
 13
119.4146607276351
 23
404.0091625543672
 33
0.0
  0
MTEXT
  5
1DE
330
1D7
100
AcDbEntity
  8
BEMASSUNG
  6
Continuous
 62
     3
100
AcDbMText
 10
116.1936682310456
 20
304.0091625543673
 30
0.0
 40
4.349999999999999
 41
0.0
 71
     5
 72
     1
  1
\A1;200
  7
ARIAL-STANDARD
 11
0.0000000000000001
 21
1.0
 31
0.0
 73
     1
 44
1.0
1001
ACAD
1000
MTEXTBEGIN
1070
    73
1070
     1
1070
    44
1040
1.0
1070
    74
1070
     0
1000
MTEXTEND
  0
POINT
  5
1DF
330
1D7
100
AcDbEntity
  8
DEFPOINTS
  6
Continuous
 62
     0
100
AcDbPoint
 10
84.44744493249771
 20
204.0091625543673
 30
0.0
  0
POINT
  5
1E0
330
1D7
100
AcDbEntity
  8
DEFPOINTS
  6
Continuous
 62
     0
100
AcDbPoint
 10
62.44744493249766
 20
404.0091625543672
 30
0.0
  0
POINT
  5
1E1
330
1D7
100
AcDbEntity
  8
DEFPOINTS
  6
Continuous
 62
     0
100
AcDbPoint
 10
119.4146607276351
 20
404.0091625543672
 30
0.0
  0
ENDBLK
  5
1E2
330
1D7
100
AcDbEntity
  8
0
100
AcDbBlockEnd
  0
BLOCK
  5
1CB
330
1CA
100
AcDbEntity
  8
0
100
AcDbBlockBegin
  2
*D6
 70
     1
 10
0.0
 20
0.0
 30
0.0
  3
*D6
  1

  0
LINE
  5
1CC
330
1CA
100
AcDbEntity
  8
BEMASSUNG
  6
Continuous
 62
     2
370
    -2
100
AcDbLine
 10
26.94595627214404
 20
383.1091625543085
 30
0.0
 11
26.94595627214404
 21
399.055004221936
 31
0.0
  0
LINE
  5
1CD
330
1CA
100
AcDbEntity
  8
BEMASSUNG
  6
Continuous
 62
     2
370
    -2
100
AcDbLine
 10
38.94744493249772
 20
388.463965493016
 30
0.0
 11
38.94744493249772
 21
399.055004221936
 31
0.0
  0
LINE
  5
1CE
330
1CA
100
AcDbEntity
  8
BEMASSUNG
  6
Continuous
 62
     2
370
    -2
100
AcDbLine
 10
30.94595627214405
 20
398.055004221936
 30
0.0
 11
34.94744493249772
 21
398.055004221936
 31
0.0
  0
SOLID
  5
1CF
330
1CA
100
AcDbEntity
  8
BEMASSUNG
  6
Continuous
 62
     2
100
AcDbTrace
 10
30.94595627214405
 20
398.7216708886027
 30
0.0
 11
30.94595627214405
 21
397.3883375552693
 31
0.0
 12
26.94595627214404
 22
398.055004221936
 32
0.0
 13
26.94595627214404
 23
398.055004221936
 33
0.0
  0
SOLID
  5
1D0
330
1CA
100
AcDbEntity
  8
BEMASSUNG
  6
Continuous
 62
     2
100
AcDbTrace
 10
34.94744493249772
 20
398.7216708886027
 30
0.0
 11
34.94744493249772
 21
397.3883375552693
 31
0.0
 12
38.94744493249772
 22
398.055004221936
 32
0.0
 13
38.94744493249772
 23
398.055004221936
 33
0.0
  0
MTEXT
  5
1D1
330
1CA
100
AcDbEntity
  8
BEMASSUNG
  6
Continuous
 62
     3
100
AcDbMText
 10
32.94670060232088
 20
401.2389059954694
 30
0.0
 40
4.349999999999999
 41
0.0
 71
     5
 72
     1
  1
\A1;12
  7
ARIAL-STANDARD
 73
     1
 44
1.0
1001
ACAD
1000
MTEXTBEGIN
1070
    73
1070
     1
1070
    44
1040
1.0
1070
    74
1070
     0
1000
MTEXTEND
  0
POINT
  5
1D2
330
1CA
100
AcDbEntity
  8
DEFPOINTS
  6
Continuous
 62
     0
100
AcDbPoint
 10
26.94595627214404
 20
383.1091625543085
 30
0.0
  0
POINT
  5
1D3
330
1CA
100
AcDbEntity
  8
DEFPOINTS
  6
Continuous
 62
     0
100
AcDbPoint
 10
38.94744493249772
 20
388.463965493016
 30
0.0
  0
POINT
  5
1D4
330
1CA
100
AcDbEntity
  8
DEFPOINTS
  6
Continuous
 62
     0
100
AcDbPoint
 10
38.94744493249772
 20
398.055004221936
 30
0.0
  0
ENDBLK
  5
1D5
330
1CA
100
AcDbEntity
  8
0
100
AcDbBlockEnd
  0
BLOCK
  5
1BE
330
1BD
100
AcDbEntity
  8
0
100
AcDbBlockBegin
  2
*D7
 70
     1
 10
0.0
 20
0.0
 30
0.0
  3
*D7
  1

  0
LINE
  5
1BF
330
1BD
100
AcDbEntity
  8
BEMASSUNG
  6
Continuous
 62
     2
370
    -2
100
AcDbLine
 10
27.97509409195551
 20
351.509162554311
 30
0.0
 11
-8.264165606441743
 21
351.509162554311
 31
0.0
  0
LINE
  5
1C0
330
1BD
100
AcDbEntity
  8
BEMASSUNG
  6
Continuous
 62
     2
370
    -2
100
AcDbLine
 10
27.66052518204704
 20
383.5091625543098
 30
0.0
 11
-8.264165606441736
 21
383.5091625543098
 31
0.0
  0
LINE
  5
1C1
330
1BD
100
AcDbEntity
  8
BEMASSUNG
  6
Continuous
 62
     2
370
    -2
100
AcDbLine
 10
-7.264165606441742
 20
355.509162554311
 30
0.0
 11
-7.264165606441737
 21
379.5091625543098
 31
0.0
  0
SOLID
  5
1C2
330
1BD
100
AcDbEntity
  8
BEMASSUNG
  6
Continuous
 62
     2
100
AcDbTrace
 10
-7.930832273108409
 20
355.509162554311
 30
0.0
 11
-6.597498939775075
 21
355.509162554311
 31
0.0
 12
-7.264165606441743
 22
351.509162554311
 32
0.0
 13
-7.264165606441743
 23
351.509162554311
 33
0.0
  0
SOLID
  5
1C3
330
1BD
100
AcDbEntity
  8
BEMASSUNG
  6
Continuous
 62
     2
100
AcDbTrace
 10
-7.930832273108403
 20
379.5091625543098
 30
0.0
 11
-6.59749893977507
 21
379.5091625543098
 31
0.0
 12
-7.264165606441736
 22
383.5091625543098
 32
0.0
 13
-7.264165606441736
 23
383.5091625543098
 33
0.0
  0
MTEXT
  5
1C4
330
1BD
100
AcDbEntity
  8
BEMASSUNG
  6
Continuous
 62
     3
100
AcDbMText
 10
-10.48664173195339
 20
367.5091625543104
 30
0.0
 40
4.349999999999999
 41
0.0
 71
     5
 72
     1
  1
\A1;32
  7
ARIAL-STANDARD
 11
0.0000000000000001
 21
1.0
 31
0.0
 73
     1
 44
1.0
1001
ACAD
1000
MTEXTBEGIN
1070
    73
1070
     1
1070
    44
1040
1.0
1070
    74
1070
     0
1000
MTEXTEND
  0
POINT
  5
1C5
330
1BD
100
AcDbEntity
  8
DEFPOINTS
  6
Continuous
 62
     0
100
AcDbPoint
 10
27.97509409195551
 20
351.509162554311
 30
0.0
  0
POINT
  5
1C6
330
1BD
100
AcDbEntity
  8
DEFPOINTS
  6
Continuous
 62
     0
100
AcDbPoint
 10
27.66052518204704
 20
383.5091625543098
 30
0.0
  0
POINT
  5
1C7
330
1BD
100
AcDbEntity
  8
DEFPOINTS
  6
Continuous
 62
     0
100
AcDbPoint
 10
-7.264165606441736
 20
383.5091625543098
 30
0.0
  0
ENDBLK
  5
1C8
330
1BD
100
AcDbEntity
  8
0
100
AcDbBlockEnd
  0
BLOCK
  5
1B0
330
1AF
100
AcDbEntity
  8
0
100
AcDbBlockBegin
  2
*D8
 70
     1
 10
0.0
 20
0.0
 30
0.0
  3
*D8
  1

  0
LINE
  5
1B1
330
1AF
100
AcDbEntity
  8
BEMASSUNG
  6
Continuous
 62
     2
370
    -2
100
AcDbLine
 10
19.94744493249781
 20
285.0091625543673
 30
0.0
 11
-8.26416560644175
 21
285.0091625543673
 31
0.0
  0
LINE
  5
1B2
330
1AF
100
AcDbEntity
  8
BEMASSUNG
  6
Continuous
 62
     2
370
    -2
100
AcDbLine
 10
27.97509409195551
 20
351.509162554311
 30
0.0
 11
-8.264165606441736
 21
351.509162554311
 31
0.0
  0
LINE
  5
1B3
330
1AF
100
AcDbEntity
  8
BEMASSUNG
  6
Continuous
 62
     2
370
    -2
100
AcDbLine
 10
-7.26416560644175
 20
289.0091625543673
 30
0.0
 11
-7.264165606441737
 21
347.509162554311
 31
0.0
  0
SOLID
  5
1B4
330
1AF
100
AcDbEntity
  8
BEMASSUNG
  6
Continuous
 62
     2
100
AcDbTrace
 10
-7.930832273108417
 20
289.0091625543673
 30
0.0
 11
-6.597498939775083
 21
289.0091625543673
 31
0.0
 12
-7.264165606441751
 22
285.0091625543673
 32
0.0
 13
-7.264165606441751
 23
285.0091625543673
 33
0.0
  0
SOLID
  5
1B5
330
1AF
100
AcDbEntity
  8
BEMASSUNG
  6
Continuous
 62
     2
100
AcDbTrace
 10
-7.930832273108403
 20
347.509162554311
 30
0.0
 11
-6.59749893977507
 21
347.509162554311
 31
0.0
 12
-7.264165606441736
 22
351.509162554311
 32
0.0
 13
-7.264165606441736
 23
351.509162554311
 33
0.0
  0
MTEXT
  5
1B6
330
1AF
100
AcDbEntity
  8
BEMASSUNG
  6
Continuous
 62
     3
100
AcDbMText
 10
-10.48515810303115
 20
318.2591625543391
 30
0.0
 40
4.349999999999999
 41
0.0
 71
     5
 72
     1
  1
\A1;66.5
  7
ARIAL-STANDARD
 11
0.0000000000000001
 21
1.0
 31
0.0
 73
     1
 44
1.0
1001
ACAD
1000
MTEXTBEGIN
1070
    73
1070
     1
1070
    44
1040
1.0
1070
    74
1070
     0
1000
MTEXTEND
  0
POINT
  5
1B7
330
1AF
100
AcDbEntity
  8
DEFPOINTS
  6
Continuous
 62
     0
100
AcDbPoint
 10
19.94744493249781
 20
285.0091625543673
 30
0.0
  0
POINT
  5
1B8
330
1AF
100
AcDbEntity
  8
DEFPOINTS
  6
Continuous
 62
     0
100
AcDbPoint
 10
27.97509409195551
 20
351.509162554311
 30
0.0
  0
POINT
  5
1B9
330
1AF
100
AcDbEntity
  8
DEFPOINTS
  6
Continuous
 62
     0
100
AcDbPoint
 10
-7.264165606441736
 20
351.509162554311
 30
0.0
  0
ENDBLK
  5
1BA
330
1AF
100
AcDbEntity
  8
0
100
AcDbBlockEnd
  0
BLOCK
  5
1A3
330
1A2
100
AcDbEntity
  8
0
100
AcDbBlockBegin
  2
*D9
 70
     1
 10
0.0
 20
0.0
 30
0.0
  3
*D9
  1

  0
LINE
  5
1A4
330
1A2
100
AcDbEntity
  8
BEMASSUNG
  6
Continuous
 62
     2
370
    -2
100
AcDbLine
 10
19.94744493249781
 20
250.0091625543671
 30
0.0
 11
-8.264165606441745
 21
250.0091625543671
 31
0.0
  0
LINE
  5
1A5
330
1A2
100
AcDbEntity
  8
BEMASSUNG
  6
Continuous
 62
     2
370
    -2
100
AcDbLine
 10
19.94744493249781
 20
285.0091625543673
 30
0.0
 11
-8.264165606441736
 21
285.0091625543673
 31
0.0
  0
LINE
  5
1A6
330
1A2
100
AcDbEntity
  8
BEMASSUNG
  6
Continuous
 62
     2
370
    -2
100
AcDbLine
 10
-7.264165606441742
 20
254.0091625543671
 30
0.0
 11
-7.264165606441737
 21
281.0091625543673
 31
0.0
  0
SOLID
  5
1A7
330
1A2
100
AcDbEntity
  8
BEMASSUNG
  6
Continuous
 62
     2
100
AcDbTrace
 10
-7.930832273108409
 20
254.0091625543671
 30
0.0
 11
-6.597498939775075
 21
254.0091625543671
 31
0.0
 12
-7.264165606441743
 22
250.0091625543671
 32
0.0
 13
-7.264165606441743
 23
250.0091625543671
 33
0.0
  0
SOLID
  5
1A8
330
1A2
100
AcDbEntity
  8
BEMASSUNG
  6
Continuous
 62
     2
100
AcDbTrace
 10
-7.930832273108403
 20
281.0091625543673
 30
0.0
 11
-6.59749893977507
 21
281.0091625543673
 31
0.0
 12
-7.264165606441736
 22
285.0091625543673
 32
0.0
 13
-7.264165606441736
 23
285.0091625543673
 33
0.0
  0
MTEXT
  5
1A9
330
1A2
100
AcDbEntity
  8
BEMASSUNG
  6
Continuous
 62
     3
100
AcDbMText
 10
-10.48664173195338
 20
267.5091625543672
 30
0.0
 40
4.349999999999999
 41
0.0
 71
     5
 72
     1
  1
\A1;35
  7
ARIAL-STANDARD
 11
0.0000000000000001
 21
1.0
 31
0.0
 73
     1
 44
1.0
1001
ACAD
1000
MTEXTBEGIN
1070
    73
1070
     1
1070
    44
1040
1.0
1070
    74
1070
     0
1000
MTEXTEND
  0
POINT
  5
1AA
330
1A2
100
AcDbEntity
  8
DEFPOINTS
  6
Continuous
 62
     0
100
AcDbPoint
 10
19.94744493249781
 20
250.0091625543671
 30
0.0
  0
POINT
  5
1AB
330
1A2
100
AcDbEntity
  8
DEFPOINTS
  6
Continuous
 62
     0
100
AcDbPoint
 10
19.94744493249781
 20
285.0091625543673
 30
0.0
  0
POINT
  5
1AC
330
1A2
100
AcDbEntity
  8
DEFPOINTS
  6
Continuous
 62
     0
100
AcDbPoint
 10
-7.264165606441736
 20
285.0091625543673
 30
0.0
  0
ENDBLK
  5
1AD
330
1A2
100
AcDbEntity
  8
0
100
AcDbBlockEnd
  0
BLOCK
  5
196
330
195
100
AcDbEntity
  8
0
100
AcDbBlockBegin
  2
*D10
 70
     1
 10
0.0
 20
0.0
 30
0.0
  3
*D10
  1

  0
LINE
  5
197
330
195
100
AcDbEntity
  8
BEMASSUNG
  6
Continuous
 62
     2
370
    -2
100
AcDbLine
 10
41.94744493249771
 20
204.0091625543673
 30
0.0
 11
6.827444932497814
 21
204.0091625543673
 31
0.0
  0
LINE
  5
198
330
195
100
AcDbEntity
  8
BEMASSUNG
  6
Continuous
 62
     2
370
    -2
100
AcDbLine
 10
19.94744493249781
 20
250.0091625543671
 30
0.0
 11
6.827444932497825
 21
250.0091625543671
 31
0.0
  0
LINE
  5
199
330
195
100
AcDbEntity
  8
BEMASSUNG
  6
Continuous
 62
     2
370
    -2
100
AcDbLine
 10
7.827444932497816
 20
208.0091625543673
 30
0.0
 11
7.827444932497825
 21
246.0091625543672
 31
0.0
  0
SOLID
  5
19A
330
195
100
AcDbEntity
  8
BEMASSUNG
  6
Continuous
 62
     2
100
AcDbTrace
 10
7.160778265831149
 20
208.0091625543673
 30
0.0
 11
8.494111599164483
 21
208.0091625543673
 31
0.0
 12
7.827444932497815
 22
204.0091625543673
 32
0.0
 13
7.827444932497815
 23
204.0091625543673
 33
0.0
  0
SOLID
  5
19B
330
195
100
AcDbEntity
  8
BEMASSUNG
  6
Continuous
 62
     2
100
AcDbTrace
 10
7.160778265831158
 20
246.0091625543672
 30
0.0
 11
8.494111599164492
 21
246.0091625543672
 31
0.0
 12
7.827444932497826
 22
250.0091625543671
 32
0.0
 13
7.827444932497826
 23
250.0091625543671
 33
0.0
  0
MTEXT
  5
19C
330
195
100
AcDbEntity
  8
BEMASSUNG
  6
Continuous
 62
     3
100
AcDbMText
 10
4.606452435908426
 20
227.0091625543672
 30
0.0
 40
4.349999999999999
 41
0.0
 71
     5
 72
     1
  1
\A1;46
  7
ARIAL-STANDARD
 11
0.0000000000000001
 21
1.0
 31
0.0
 73
     1
 44
1.0
1001
ACAD
1000
MTEXTBEGIN
1070
    73
1070
     1
1070
    44
1040
1.0
1070
    74
1070
     0
1000
MTEXTEND
  0
POINT
  5
19D
330
195
100
AcDbEntity
  8
DEFPOINTS
  6
Continuous
 62
     0
100
AcDbPoint
 10
41.94744493249771
 20
204.0091625543673
 30
0.0
  0
POINT
  5
19E
330
195
100
AcDbEntity
  8
DEFPOINTS
  6
Continuous
 62
     0
100
AcDbPoint
 10
19.94744493249781
 20
250.0091625543671
 30
0.0
  0
POINT
  5
19F
330
195
100
AcDbEntity
  8
DEFPOINTS
  6
Continuous
 62
     0
100
AcDbPoint
 10
7.827444932497826
 20
250.0091625543671
 30
0.0
  0
ENDBLK
  5
1A0
330
195
100
AcDbEntity
  8
0
100
AcDbBlockEnd
  0
BLOCK
  5
188
330
187
100
AcDbEntity
  8
0
100
AcDbBlockBegin
  2
*D11
 70
     1
 10
0.0
 20
0.0
 30
0.0
  3
*D11
  1

  0
LINE
  5
189
330
187
100
AcDbEntity
  8
BEMASSUNG
  6
Continuous
 62
     2
370
    -2
100
AcDbLine
 10
18.94744493249781
 20
250.5091625543675
 30
0.0
 11
18.94744493249781
 21
232.6710498484558
 31
0.0
  0
LINE
  5
18A
330
187
100
AcDbEntity
  8
BEMASSUNG
  6
Continuous
 62
     2
370
    -2
100
AcDbLine
 10
38.94744493249772
 20
234.0902039235827
 30
0.0
 11
38.94744493249772
 21
232.6710498484558
 31
0.0
  0
LINE
  5
18B
330
187
100
AcDbEntity
  8
BEMASSUNG
  6
Continuous
 62
     2
370
    -2
100
AcDbLine
 10
22.94744493249781
 20
233.6710498484558
 30
0.0
 11
34.94744493249772
 21
233.6710498484558
 31
0.0
  0
SOLID
  5
18C
330
187
100
AcDbEntity
  8
BEMASSUNG
  6
Continuous
 62
     2
100
AcDbTrace
 10
22.94744493249781
 20
234.3377165151224
 30
0.0
 11
22.94744493249781
 21
233.0043831817891
 31
0.0
 12
18.94744493249781
 22
233.6710498484558
 32
0.0
 13
18.94744493249781
 23
233.6710498484558
 33
0.0
  0
SOLID
  5
18D
330
187
100
AcDbEntity
  8
BEMASSUNG
  6
Continuous
 62
     2
100
AcDbTrace
 10
34.94744493249772
 20
234.3377165151224
 30
0.0
 11
34.94744493249772
 21
233.0043831817891
 31
0.0
 12
38.94744493249772
 22
233.6710498484558
 32
0.0
 13
38.94744493249772
 23
233.6710498484558
 33
0.0
  0
MTEXT
  5
18E
330
187
100
AcDbEntity
  8
BEMASSUNG
  6
Continuous
 62
     3
100
AcDbMText
 10
28.94744493249776
 20
236.8920423450451
 30
0.0
 40
4.349999999999999
 41
0.0
 71
     5
 72
     1
  1
\A1;20
  7
ARIAL-STANDARD
 73
     1
 44
1.0
1001
ACAD
1000
MTEXTBEGIN
1070
    73
1070
     1
1070
    44
1040
1.0
1070
    74
1070
     0
1000
MTEXTEND
  0
POINT
  5
18F
330
187
100
AcDbEntity
  8
DEFPOINTS
  6
Continuous
 62
     0
100
AcDbPoint
 10
18.94744493249781
 20
250.5091625543675
 30
0.0
  0
POINT
  5
190
330
187
100
AcDbEntity
  8
DEFPOINTS
  6
Continuous
 62
     0
100
AcDbPoint
 10
38.94744493249772
 20
234.0902039235827
 30
0.0
  0
POINT
  5
191
330
187
100
AcDbEntity
  8
DEFPOINTS
  6
Continuous
 62
     0
100
AcDbPoint
 10
38.94744493249772
 20
233.6710498484558
 30
0.0
  0
ENDBLK
  5
192
330
187
100
AcDbEntity
  8
0
100
AcDbBlockEnd
  0
BLOCK
  5
172
330
171
100
AcDbEntity
  8
0
100
AcDbBlockBegin
  2
*D12
 70
     1
 10
0.0
 20
0.0
 30
0.0
  3
*D12
  1

  0
LINE
  5
173
330
171
100
AcDbEntity
  8
BEMASSUNG
  6
Continuous
 62
     2
370
    -2
100
AcDbLine
 10
38.94744493249772
 20
439.0091625543672
 30
0.0
 11
38.94744493249772
 21
451.4464162659708
 31
0.0
  0
LINE
  5
174
330
171
100
AcDbEntity
  8
BEMASSUNG
  6
Continuous
 62
     2
370
    -2
100
AcDbLine
 10
41.94744493249771
 20
439.0091625543672
 30
0.0
 11
41.94744493249771
 21
451.4464162659708
 31
0.0
  0
LINE
  5
175
330
171
100
AcDbEntity
  8
BEMASSUNG
  6
Continuous
 62
     2
370
    -2
100
AcDbLine
 10
34.94744493249772
 20
450.4464162659708
 30
0.0
 11
30.94744493249772
 21
450.4464162659708
 31
0.0
  0
LINE
  5
176
330
171
100
AcDbEntity
  8
BEMASSUNG
  6
Continuous
 62
     2
370
    -2
100
AcDbLine
 10
45.94744493249772
 20
450.4464162659708
 30
0.0
 11
54.79601246319349
 21
450.4464162659708
 31
0.0
  0
LINE
  5
177
330
171
100
AcDbEntity
  8
BEMASSUNG
  6
Continuous
 62
     2
370
    -2
100
AcDbLine
 10
38.94744493249772
 20
450.4464162659708
 30
0.0
 11
41.94744493249771
 21
450.4464162659708
 31
0.0
  0
SOLID
  5
178
330
171
100
AcDbEntity
  8
BEMASSUNG
  6
Continuous
 62
     2
100
AcDbTrace
 10
34.94744493249772
 20
451.1130829326375
 30
0.0
 11
34.94744493249772
 21
449.7797495993041
 31
0.0
 12
38.94744493249772
 22
450.4464162659708
 32
0.0
 13
38.94744493249772
 23
450.4464162659708
 33
0.0
  0
SOLID
  5
179
330
171
100
AcDbEntity
  8
BEMASSUNG
  6
Continuous
 62
     2
100
AcDbTrace
 10
45.94744493249772
 20
451.1130829326375
 30
0.0
 11
45.94744493249772
 21
449.7797495993041
 31
0.0
 12
41.94744493249771
 22
450.4464162659708
 32
0.0
 13
41.94744493249771
 23
450.4464162659708
 33
0.0
  0
MTEXT
  5
17A
330
171
100
AcDbEntity
  8
BEMASSUNG
  6
Continuous
 62
     3
100
AcDbMText
 10
52.3717286978456
 20
453.6688923914824
 30
0.0
 40
4.349999999999999
 41
0.0
 71
     5
 72
     1
  1
\A1;3
  7
ARIAL-STANDARD
 73
     1
 44
1.0
1001
ACAD
1000
MTEXTBEGIN
1070
    73
1070
     1
1070
    44
1040
1.0
1070
    74
1070
     0
1000
MTEXTEND
  0
POINT
  5
17B
330
171
100
AcDbEntity
  8
DEFPOINTS
  6
Continuous
 62
     0
100
AcDbPoint
 10
38.94744493249772
 20
439.0091625543672
 30
0.0
  0
POINT
  5
17C
330
171
100
AcDbEntity
  8
DEFPOINTS
  6
Continuous
 62
     0
100
AcDbPoint
 10
41.94744493249771
 20
439.0091625543672
 30
0.0
  0
POINT
  5
17D
330
171
100
AcDbEntity
  8
DEFPOINTS
  6
Continuous
 62
     0
100
AcDbPoint
 10
41.94744493249771
 20
450.4464162659708
 30
0.0
  0
ENDBLK
  5
17E
330
171
100
AcDbEntity
  8
0
100
AcDbBlockEnd
  0
BLOCK
  5
163
330
162
100
AcDbEntity
  8
0
100
AcDbBlockBegin
  2
*D13
 70
     1
 10
0.0
 20
0.0
 30
0.0
  3
*D13
  1

  0
LINE
  5
164
330
162
100
AcDbEntity
  8
BEMASSUNG
  6
Continuous
 62
     2
370
    -2
100
AcDbLine
 10
155.9979577453339
 20
169.0091625543672
 30
0.0
 11
145.4092561657501
 21
169.0091625543672
 31
0.0
  0
LINE
  5
165
330
162
100
AcDbEntity
  8
BEMASSUNG
  6
Continuous
 62
     2
370
    -2
100
AcDbLine
 10
161.2479577453339
 20
182.0091625543673
 30
0.0
 11
145.4092561657501
 21
182.0091625543673
 31
0.0
  0
LINE
  5
166
330
162
100
AcDbEntity
  8
BEMASSUNG
  6
Continuous
 62
     2
370
    -2
100
AcDbLine
 10
146.4092561657501
 20
173.0091625543672
 30
0.0
 11
146.4092561657501
 21
178.0091625543672
 31
0.0
  0
SOLID
  5
167
330
162
100
AcDbEntity
  8
BEMASSUNG
  6
Continuous
 62
     2
100
AcDbTrace
 10
145.7425894990835
 20
173.0091625543672
 30
0.0
 11
147.0759228324168
 21
173.0091625543672
 31
0.0
 12
146.4092561657501
 22
169.0091625543672
 32
0.0
 13
146.4092561657501
 23
169.0091625543672
 33
0.0
  0
SOLID
  5
168
330
162
100
AcDbEntity
  8
BEMASSUNG
  6
Continuous
 62
     2
100
AcDbTrace
 10
145.7425894990835
 20
178.0091625543672
 30
0.0
 11
147.0759228324168
 21
178.0091625543672
 31
0.0
 12
146.4092561657501
 22
182.0091625543673
 32
0.0
 13
146.4092561657501
 23
182.0091625543673
 33
0.0
  0
MTEXT
  5
169
330
162
100
AcDbEntity
  8
BEMASSUNG
  6
Continuous
 62
     3
100
AcDbMText
 10
143.1867800402385
 20
175.5091625543673
 30
0.0
 40
4.349999999999999
 41
0.0
 71
     5
 72
     1
  1
\A1;13
  7
ARIAL-STANDARD
 11
0.0000000000000001
 21
1.0
 31
0.0
 73
     1
 44
1.0
1001
ACAD
1000
MTEXTBEGIN
1070
    73
1070
     1
1070
    44
1040
1.0
1070
    74
1070
     0
1000
MTEXTEND
  0
POINT
  5
16A
330
162
100
AcDbEntity
  8
DEFPOINTS
  6
Continuous
 62
     0
100
AcDbPoint
 10
155.9979577453339
 20
169.0091625543672
 30
0.0
  0
POINT
  5
16B
330
162
100
AcDbEntity
  8
DEFPOINTS
  6
Continuous
 62
     0
100
AcDbPoint
 10
161.2479577453339
 20
182.0091625543673
 30
0.0
  0
POINT
  5
16C
330
162
100
AcDbEntity
  8
DEFPOINTS
  6
Continuous
 62
     0
100
AcDbPoint
 10
146.4092561657501
 20
182.0091625543673
 30
0.0
  0
ENDBLK
  5
16D
330
162
100
AcDbEntity
  8
0
100
AcDbBlockEnd
  0
BLOCK
  5
156
330
155
100
AcDbEntity
  8
0
100
AcDbBlockBegin
  2
*D14
 70
     1
 10
0.0
 20
0.0
 30
0.0
  3
*D14
  1

  0
LINE
  5
157
330
155
100
AcDbEntity
  8
BEMASSUNG
  6
Continuous
 62
     2
370
    -2
100
AcDbLine
 10
179.9979577453339
 20
169.0091625543672
 30
0.0
 11
198.4569895714983
 21
169.0091625543672
 31
0.0
  0
LINE
  5
158
330
155
100
AcDbEntity
  8
BEMASSUNG
  6
Continuous
 62
     2
370
    -2
100
AcDbLine
 10
179.9979577453343
 20
439.0091625543672
 30
0.0
 11
198.4569895714983
 21
439.0091625543672
 31
0.0
  0
LINE
  5
159
330
155
100
AcDbEntity
  8
BEMASSUNG
  6
Continuous
 62
     2
370
    -2
100
AcDbLine
 10
197.4569895714983
 20
173.0091625543672
 30
0.0
 11
197.4569895714983
 21
435.0091625543672
 31
0.0
  0
SOLID
  5
15A
330
155
100
AcDbEntity
  8
BEMASSUNG
  6
Continuous
 62
     2
100
AcDbTrace
 10
196.7903229048316
 20
173.0091625543672
 30
0.0
 11
198.1236562381649
 21
173.0091625543672
 31
0.0
 12
197.4569895714983
 22
169.0091625543672
 32
0.0
 13
197.4569895714983
 23
169.0091625543672
 33
0.0
  0
SOLID
  5
15B
330
155
100
AcDbEntity
  8
BEMASSUNG
  6
Continuous
 62
     2
100
AcDbTrace
 10
196.7903229048317
 20
435.0091625543672
 30
0.0
 11
198.123656238165
 21
435.0091625543672
 31
0.0
 12
197.4569895714983
 22
439.0091625543672
 32
0.0
 13
197.4569895714983
 23
439.0091625543672
 33
0.0
  0
MTEXT
  5
15C
330
155
100
AcDbEntity
  8
BEMASSUNG
  6
Continuous
 62
     3
100
AcDbMText
 10
194.2359970749089
 20
304.0091625543673
 30
0.0
 40
4.349999999999999
 41
0.0
 71
     5
 72
     1
  1
\A1;270
  7
ARIAL-STANDARD
 11
0.0000000000000001
 21
1.0
 31
0.0
 73
     1
 44
1.0
1001
ACAD
1000
MTEXTBEGIN
1070
    73
1070
     1
1070
    44
1040
1.0
1070
    74
1070
     0
1000
MTEXTEND
  0
POINT
  5
15D
330
155
100
AcDbEntity
  8
DEFPOINTS
  6
Continuous
 62
     0
100
AcDbPoint
 10
179.9979577453339
 20
169.0091625543672
 30
0.0
  0
POINT
  5
15E
330
155
100
AcDbEntity
  8
DEFPOINTS
  6
Continuous
 62
     0
100
AcDbPoint
 10
179.9979577453343
 20
439.0091625543672
 30
0.0
  0
POINT
  5
15F
330
155
100
AcDbEntity
  8
DEFPOINTS
  6
Continuous
 62
     0
100
AcDbPoint
 10
197.4569895714983
 20
439.0091625543672
 30
0.0
  0
ENDBLK
  5
160
330
155
100
AcDbEntity
  8
0
100
AcDbBlockEnd
  0
BLOCK
  5
149
330
148
100
AcDbEntity
  8
0
100
AcDbBlockBegin
  2
*D15
 70
     1
 10
0.0
 20
0.0
 30
0.0
  3
*D15
  1

  0
LINE
  5
14A
330
148
100
AcDbEntity
  8
BEMASSUNG
  6
Continuous
 62
     2
370
    -2
100
AcDbLine
 10
84.44744493249766
 20
126.0774614371606
 30
0.0
 11
98.10082805797515
 21
126.0774614371606
 31
0.0
  0
LINE
  5
14B
330
148
100
AcDbEntity
  8
BEMASSUNG
  6
Continuous
 62
     2
370
    -2
100
AcDbLine
 10
84.44744493249766
 20
143.8774614371601
 30
0.0
 11
98.10082805797515
 21
143.8774614371601
 31
0.0
  0
LINE
  5
14C
330
148
100
AcDbEntity
  8
BEMASSUNG
  6
Continuous
 62
     2
370
    -2
100
AcDbLine
 10
97.10082805797515
 20
130.0774614371607
 30
0.0
 11
97.10082805797515
 21
139.8774614371601
 31
0.0
  0
SOLID
  5
14D
330
148
100
AcDbEntity
  8
BEMASSUNG
  6
Continuous
 62
     2
100
AcDbTrace
 10
96.43416139130849
 20
130.0774614371607
 30
0.0
 11
97.76749472464182
 21
130.0774614371607
 31
0.0
 12
97.10082805797515
 22
126.0774614371606
 32
0.0
 13
97.10082805797515
 23
126.0774614371606
 33
0.0
  0
SOLID
  5
14E
330
148
100
AcDbEntity
  8
BEMASSUNG
  6
Continuous
 62
     2
100
AcDbTrace
 10
96.43416139130849
 20
139.8774614371601
 30
0.0
 11
97.76749472464182
 21
139.8774614371601
 31
0.0
 12
97.10082805797515
 22
143.8774614371601
 32
0.0
 13
97.10082805797515
 23
143.8774614371601
 33
0.0
  0
MTEXT
  5
14F
330
148
100
AcDbEntity
  8
BEMASSUNG
  6
Continuous
 62
     3
100
AcDbMText
 10
93.87983556138577
 20
134.9774614371604
 30
0.0
 40
4.349999999999999
 41
0.0
 71
     5
 72
     1
  1
\A1;17.8
  7
ARIAL-STANDARD
 11
0.0000000000000001
 21
1.0
 31
0.0
 73
     1
 44
1.0
1001
ACAD
1000
MTEXTBEGIN
1070
    73
1070
     1
1070
    44
1040
1.0
1070
    74
1070
     0
1000
MTEXTEND
  0
POINT
  5
150
330
148
100
AcDbEntity
  8
DEFPOINTS
  6
Continuous
 62
     0
100
AcDbPoint
 10
84.44744493249766
 20
126.0774614371606
 30
0.0
  0
POINT
  5
151
330
148
100
AcDbEntity
  8
DEFPOINTS
  6
Continuous
 62
     0
100
AcDbPoint
 10
84.44744493249766
 20
143.8774614371601
 30
0.0
  0
POINT
  5
152
330
148
100
AcDbEntity
  8
DEFPOINTS
  6
Continuous
 62
     0
100
AcDbPoint
 10
97.10082805797515
 20
143.8774614371601
 30
0.0
  0
ENDBLK
  5
153
330
148
100
AcDbEntity
  8
0
100
AcDbBlockEnd
  0
BLOCK
  5
13C
330
13B
100
AcDbEntity
  8
0
100
AcDbBlockBegin
  2
*D16
 70
     1
 10
0.0
 20
0.0
 30
0.0
  3
*D16
  1

  0
LINE
  5
13D
330
13B
100
AcDbEntity
  8
BEMASSUNG
  6
Continuous
 62
     2
370
    -2
100
AcDbLine
 10
155.9979577453339
 20
169.0091625543672
 30
0.0
 11
155.9979577453339
 21
144.4549023877218
 31
0.0
  0
LINE
  5
13E
330
13B
100
AcDbEntity
  8
BEMASSUNG
  6
Continuous
 62
     2
370
    -2
100
AcDbLine
 10
179.9979577453339
 20
169.0091625543672
 30
0.0
 11
179.9979577453339
 21
144.4549023877218
 31
0.0
  0
LINE
  5
13F
330
13B
100
AcDbEntity
  8
BEMASSUNG
  6
Continuous
 62
     2
370
    -2
100
AcDbLine
 10
159.9979577453339
 20
145.4549023877218
 30
0.0
 11
175.9979577453339
 21
145.4549023877218
 31
0.0
  0
SOLID
  5
140
330
13B
100
AcDbEntity
  8
BEMASSUNG
  6
Continuous
 62
     2
100
AcDbTrace
 10
159.9979577453339
 20
146.1215690543884
 30
0.0
 11
159.9979577453339
 21
144.7882357210551
 31
0.0
 12
155.9979577453339
 22
145.4549023877218
 32
0.0
 13
155.9979577453339
 23
145.4549023877218
 33
0.0
  0
SOLID
  5
141
330
13B
100
AcDbEntity
  8
BEMASSUNG
  6
Continuous
 62
     2
100
AcDbTrace
 10
175.9979577453339
 20
146.1215690543884
 30
0.0
 11
175.9979577453339
 21
144.7882357210551
 31
0.0
 12
179.9979577453339
 22
145.4549023877218
 32
0.0
 13
179.9979577453339
 23
145.4549023877218
 33
0.0
  0
MTEXT
  5
142
330
13B
100
AcDbEntity
  8
BEMASSUNG
  6
Continuous
 62
     3
100
AcDbMText
 10
167.9979577453339
 20
148.6388041612552
 30
0.0
 40
4.349999999999999
 41
0.0
 71
     5
 72
     1
  1
\A1;24
  7
ARIAL-STANDARD
 73
     1
 44
1.0
1001
ACAD
1000
MTEXTBEGIN
1070
    73
1070
     1
1070
    44
1040
1.0
1070
    74
1070
     0
1000
MTEXTEND
  0
POINT
  5
143
330
13B
100
AcDbEntity
  8
DEFPOINTS
  6
Continuous
 62
     0
100
AcDbPoint
 10
155.9979577453339
 20
169.0091625543672
 30
0.0
  0
POINT
  5
144
330
13B
100
AcDbEntity
  8
DEFPOINTS
  6
Continuous
 62
     0
100
AcDbPoint
 10
179.9979577453339
 20
169.0091625543672
 30
0.0
  0
POINT
  5
145
330
13B
100
AcDbEntity
  8
DEFPOINTS
  6
Continuous
 62
     0
100
AcDbPoint
 10
179.9979577453339
 20
145.4549023877218
 30
0.0
  0
ENDBLK
  5
146
330
13B
100
AcDbEntity
  8
0
100
AcDbBlockEnd
  0
BLOCK
  5
12F
330
12E
100
AcDbEntity
  8
0
100
AcDbBlockBegin
  2
*D17
 70
     1
 10
0.0
 20
0.0
 30
0.0
  3
*D17
  1

  0
LINE
  5
130
330
12E
100
AcDbEntity
  8
BEMASSUNG
  6
Continuous
 62
     2
370
    -2
100
AcDbLine
 10
160.9979577453664
 20
383.1091625543418
 30
0.0
 11
160.9979577453664
 21
400.4602823015519
 31
0.0
  0
LINE
  5
131
330
12E
100
AcDbEntity
  8
BEMASSUNG
  6
Continuous
 62
     2
370
    -2
100
AcDbLine
 10
174.9979577453755
 20
380.6091625543911
 30
0.0
 11
174.9979577453755
 21
400.4602823015519
 31
0.0
  0
LINE
  5
132
330
12E
100
AcDbEntity
  8
BEMASSUNG
  6
Continuous
 62
     2
370
    -2
100
AcDbLine
 10
164.9979577453664
 20
399.460282301552
 30
0.0
 11
170.9979577453755
 21
399.460282301552
 31
0.0
  0
SOLID
  5
133
330
12E
100
AcDbEntity
  8
BEMASSUNG
  6
Continuous
 62
     2
100
AcDbTrace
 10
164.9979577453664
 20
400.1269489682186
 30
0.0
 11
164.9979577453664
 21
398.7936156348853
 31
0.0
 12
160.9979577453664
 22
399.460282301552
 32
0.0
 13
160.9979577453664
 23
399.460282301552
 33
0.0
  0
SOLID
  5
134
330
12E
100
AcDbEntity
  8
BEMASSUNG
  6
Continuous
 62
     2
100
AcDbTrace
 10
170.9979577453755
 20
400.1269489682186
 30
0.0
 11
170.9979577453755
 21
398.7936156348853
 31
0.0
 12
174.9979577453755
 22
399.460282301552
 32
0.0
 13
174.9979577453755
 23
399.460282301552
 33
0.0
  0
MTEXT
  5
135
330
12E
100
AcDbEntity
  8
BEMASSUNG
  6
Continuous
 62
     3
100
AcDbMText
 10
167.997957745371
 20
402.6441840750853
 30
0.0
 40
4.349999999999999
 41
0.0
 71
     5
 72
     1
  1
\A1;14
  7
ARIAL-STANDARD
 73
     1
 44
1.0
1001
ACAD
1000
MTEXTBEGIN
1070
    73
1070
     1
1070
    44
1040
1.0
1070
    74
1070
     0
1000
MTEXTEND
  0
POINT
  5
136
330
12E
100
AcDbEntity
  8
DEFPOINTS
  6
Continuous
 62
     0
100
AcDbPoint
 10
160.9979577453664
 20
383.1091625543418
 30
0.0
  0
POINT
  5
137
330
12E
100
AcDbEntity
  8
DEFPOINTS
  6
Continuous
 62
     0
100
AcDbPoint
 10
174.9979577453755
 20
380.6091625543911
 30
0.0
  0
POINT
  5
138
330
12E
100
AcDbEntity
  8
DEFPOINTS
  6
Continuous
 62
     0
100
AcDbPoint
 10
174.9979577453755
 20
399.460282301552
 30
0.0
  0
ENDBLK
  5
139
330
12E
100
AcDbEntity
  8
0
100
AcDbBlockEnd
  0
BLOCK
  5
120
330
11F
100
AcDbEntity
  8
0
100
AcDbBlockBegin
  2
*D18
 70
     1
 10
0.0
 20
0.0
 30
0.0
  3
*D18
  1

  0
LINE
  5
121
330
11F
100
AcDbEntity
  8
BEMASSUNG
  6
Continuous
 62
     2
370
    -2
100
AcDbLine
 10
163.9979577453281
 20
284.0091625543673
 30
0.0
 11
163.9979577453281
 21
301.7546239177967
 31
0.0
  0
LINE
  5
122
330
11F
100
AcDbEntity
  8
BEMASSUNG
  6
Continuous
 62
     2
370
    -2
100
AcDbLine
 10
171.9979577453349
 20
284.0091625543669
 30
0.0
 11
171.9979577453349
 21
301.7546239177967
 31
0.0
  0
LINE
  5
123
330
11F
100
AcDbEntity
  8
BEMASSUNG
  6
Continuous
 62
     2
370
    -2
100
AcDbLine
 10
159.9979577453281
 20
300.7546239177967
 30
0.0
 11
155.9979577453281
 21
300.7546239177967
 31
0.0
  0
LINE
  5
124
330
11F
100
AcDbEntity
  8
BEMASSUNG
  6
Continuous
 62
     2
370
    -2
100
AcDbLine
 10
175.9979577453349
 20
300.7546239177967
 30
0.0
 11
179.9979577453349
 21
300.7546239177967
 31
0.0
  0
LINE
  5
125
330
11F
100
AcDbEntity
  8
BEMASSUNG
  6
Continuous
 62
     2
370
    -2
100
AcDbLine
 10
163.9979577453281
 20
300.7546239177967
 30
0.0
 11
171.9979577453349
 21
300.7546239177967
 31
0.0
  0
SOLID
  5
126
330
11F
100
AcDbEntity
  8
BEMASSUNG
  6
Continuous
 62
     2
100
AcDbTrace
 10
159.9979577453281
 20
301.4212905844634
 30
0.0
 11
159.9979577453281
 21
300.08795725113
 31
0.0
 12
163.9979577453281
 22
300.7546239177967
 32
0.0
 13
163.9979577453281
 23
300.7546239177967
 33
0.0
  0
SOLID
  5
127
330
11F
100
AcDbEntity
  8
BEMASSUNG
  6
Continuous
 62
     2
100
AcDbTrace
 10
175.9979577453349
 20
301.4212905844634
 30
0.0
 11
175.9979577453349
 21
300.08795725113
 31
0.0
 12
171.9979577453349
 22
300.7546239177967
 32
0.0
 13
171.9979577453349
 23
300.7546239177967
 33
0.0
  0
MTEXT
  5
128
330
11F
100
AcDbEntity
  8
BEMASSUNG
  6
Continuous
 62
     3
100
AcDbMText
 10
167.9979577453315
 20
303.975616414386
 30
0.0
 40
4.349999999999999
 41
0.0
 71
     5
 72
     1
  1
\A1;8
  7
ARIAL-STANDARD
 73
     1
 44
1.0
1001
ACAD
1000
MTEXTBEGIN
1070
    73
1070
     1
1070
    44
1040
1.0
1070
    74
1070
     0
1000
MTEXTEND
  0
POINT
  5
129
330
11F
100
AcDbEntity
  8
DEFPOINTS
  6
Continuous
 62
     0
100
AcDbPoint
 10
163.9979577453281
 20
284.0091625543673
 30
0.0
  0
POINT
  5
12A
330
11F
100
AcDbEntity
  8
DEFPOINTS
  6
Continuous
 62
     0
100
AcDbPoint
 10
171.9979577453349
 20
284.0091625543669
 30
0.0
  0
POINT
  5
12B
330
11F
100
AcDbEntity
  8
DEFPOINTS
  6
Continuous
 62
     0
100
AcDbPoint
 10
171.9979577453349
 20
300.7546239177967
 30
0.0
  0
ENDBLK
  5
12C
330
11F
100
AcDbEntity
  8
0
100
AcDbBlockEnd
  0
BLOCK
  5
113
330
112
100
AcDbEntity
  8
0
100
AcDbBlockBegin
  2
*D19
 70
     1
 10
0.0
 20
0.0
 30
0.0
  3
*D19
  1

  0
LINE
  5
114
330
112
100
AcDbEntity
  8
BEMASSUNG
  6
Continuous
 62
     2
370
    -2
100
AcDbLine
 10
161.2479577453347
 20
426.0091625543672
 30
0.0
 11
145.4092561657501
 21
426.0091625543672
 31
0.0
  0
LINE
  5
115
330
112
100
AcDbEntity
  8
BEMASSUNG
  6
Continuous
 62
     2
370
    -2
100
AcDbLine
 10
155.9979577453339
 20
439.0091625543672
 30
0.0
 11
145.4092561657501
 21
439.0091625543672
 31
0.0
  0
LINE
  5
116
330
112
100
AcDbEntity
  8
BEMASSUNG
  6
Continuous
 62
     2
370
    -2
100
AcDbLine
 10
146.4092561657501
 20
430.0091625543672
 30
0.0
 11
146.4092561657501
 21
435.0091625543672
 31
0.0
  0
SOLID
  5
117
330
112
100
AcDbEntity
  8
BEMASSUNG
  6
Continuous
 62
     2
100
AcDbTrace
 10
145.7425894990835
 20
430.0091625543672
 30
0.0
 11
147.0759228324168
 21
430.0091625543672
 31
0.0
 12
146.4092561657501
 22
426.0091625543672
 32
0.0
 13
146.4092561657501
 23
426.0091625543672
 33
0.0
  0
SOLID
  5
118
330
112
100
AcDbEntity
  8
BEMASSUNG
  6
Continuous
 62
     2
100
AcDbTrace
 10
145.7425894990835
 20
435.0091625543672
 30
0.0
 11
147.0759228324168
 21
435.0091625543672
 31
0.0
 12
146.4092561657501
 22
439.0091625543672
 32
0.0
 13
146.4092561657501
 23
439.0091625543672
 33
0.0
  0
MTEXT
  5
119
330
112
100
AcDbEntity
  8
BEMASSUNG
  6
Continuous
 62
     3
100
AcDbMText
 10
143.1867800402384
 20
432.5091625543673
 30
0.0
 40
4.349999999999999
 41
0.0
 71
     5
 72
     1
  1
\A1;13
  7
ARIAL-STANDARD
 11
0.0000000000000001
 21
1.0
 31
0.0
 73
     1
 44
1.0
1001
ACAD
1000
MTEXTBEGIN
1070
    73
1070
     1
1070
    44
1040
1.0
1070
    74
1070
     0
1000
MTEXTEND
  0
POINT
  5
11A
330
112
100
AcDbEntity
  8
DEFPOINTS
  6
Continuous
 62
     0
100
AcDbPoint
 10
161.2479577453347
 20
426.0091625543672
 30
0.0
  0
POINT
  5
11B
330
112
100
AcDbEntity
  8
DEFPOINTS
  6
Continuous
 62
     0
100
AcDbPoint
 10
155.9979577453339
 20
439.0091625543672
 30
0.0
  0
POINT
  5
11C
330
112
100
AcDbEntity
  8
DEFPOINTS
  6
Continuous
 62
     0
100
AcDbPoint
 10
146.4092561657501
 20
439.0091625543672
 30
0.0
  0
ENDBLK
  5
11D
330
112
100
AcDbEntity
  8
0
100
AcDbBlockEnd
  0
BLOCK
  5
100
330
FF
100
AcDbEntity
  8
0
100
AcDbBlockBegin
  2
*D20
 70
     1
 10
0.0
 20
0.0
 30
0.0
  3
*D20
  1

  0
LINE
  5
101
330
FF
100
AcDbEntity
  8
BEMASSUNG
  6
Continuous
 62
     2
370
    -2
100
AcDbLine
 10
27.66052518204704
 20
383.5091625543098
 30
0.0
 11
-8.193321060923388
 21
383.5091625543098
 31
0.0
  0
LINE
  5
102
330
FF
100
AcDbEntity
  8
BEMASSUNG
  6
Continuous
 62
     2
370
    -2
100
AcDbLine
 10
38.94744493249766
 20
439.0091625543672
 30
0.0
 11
-8.193321060923375
 21
439.0091625543672
 31
0.0
  0
LINE
  5
103
330
FF
100
AcDbEntity
  8
BEMASSUNG
  6
Continuous
 62
     2
370
    -2
100
AcDbLine
 10
-7.193321060923385
 20
387.5091625543098
 30
0.0
 11
-7.193321060923374
 21
435.0091625543672
 31
0.0
  0
SOLID
  5
104
330
FF
100
AcDbEntity
  8
BEMASSUNG
  6
Continuous
 62
     2
100
AcDbTrace
 10
-7.859987727590052
 20
387.5091625543098
 30
0.0
 11
-6.526654394256718
 21
387.5091625543098
 31
0.0
 12
-7.193321060923386
 22
383.5091625543098
 32
0.0
 13
-7.193321060923386
 23
383.5091625543098
 33
0.0
  0
SOLID
  5
105
330
FF
100
AcDbEntity
  8
BEMASSUNG
  6
Continuous
 62
     2
100
AcDbTrace
 10
-7.859987727590041
 20
435.0091625543672
 30
0.0
 11
-6.526654394256707
 21
435.0091625543672
 31
0.0
 12
-7.193321060923373
 22
439.0091625543672
 32
0.0
 13
-7.193321060923373
 23
439.0091625543672
 33
0.0
  0
MTEXT
  5
106
330
FF
100
AcDbEntity
  8
BEMASSUNG
  6
Continuous
 62
     3
100
AcDbMText
 10
-10.40541178397938
 20
411.2591625543386
 30
0.0
 40
4.349999999999999
 41
0.0
 71
     5
 72
     1
  1
\A1;55.5
  7
ARIAL-STANDARD
 11
0.0000000000000001
 21
1.0
 31
0.0
 73
     1
 44
1.0
1001
ACAD
1000
MTEXTBEGIN
1070
    73
1070
     1
1070
    44
1040
1.0
1070
    74
1070
     0
1000
MTEXTEND
  0
POINT
  5
107
330
FF
100
AcDbEntity
  8
DEFPOINTS
  6
Continuous
 62
     0
100
AcDbPoint
 10
27.66052518204704
 20
383.5091625543098
 30
0.0
  0
POINT
  5
108
330
FF
100
AcDbEntity
  8
DEFPOINTS
  6
Continuous
 62
     0
100
AcDbPoint
 10
38.94744493249766
 20
439.0091625543672
 30
0.0
  0
POINT
  5
109
330
FF
100
AcDbEntity
  8
DEFPOINTS
  6
Continuous
 62
     0
100
AcDbPoint
 10
-7.193321060923373
 20
439.0091625543672
 30
0.0
  0
ENDBLK
  5
10A
330
FF
100
AcDbEntity
  8
0
100
AcDbBlockEnd
  0
BLOCK
  5
94
330
93
100
AcDbEntity
  8
0
100
AcDbBlockBegin
  2
*D21
 70
     1
 10
0.0
 20
0.0
 30
0.0
  3
*D21
  1

  0
LINE
  5
95
330
93
100
AcDbEntity
  8
BEMASSUNG
  6
Continuous
 62
     2
370
    -2
100
AcDbLine
 10
55.27297895151028
 20
323.5091625543609
 30
0.0
 11
30.72004102055076
 21
323.5091625543609
 31
0.0
  0
LINE
  5
96
330
93
100
AcDbEntity
  8
BEMASSUNG
  6
Continuous
 62
     2
370
    -2
100
AcDbLine
 10
61.94744493249769
 20
302.0091625543674
 30
0.0
 11
30.72004102055075
 21
302.0091625543674
 31
0.0
  0
LINE
  5
97
330
93
100
AcDbEntity
  8
BEMASSUNG
  6
Continuous
 62
     2
370
    -2
100
AcDbLine
 10
31.72004102055076
 20
319.5091625543609
 30
0.0
 11
31.72004102055075
 21
306.0091625543674
 31
0.0
  0
SOLID
  5
98
330
93
100
AcDbEntity
  8
BEMASSUNG
  6
Continuous
 62
     2
100
AcDbTrace
 10
31.05337435388409
 20
319.5091625543609
 30
0.0
 11
32.38670768721743
 21
319.5091625543609
 31
0.0
 12
31.72004102055076
 22
323.5091625543609
 32
0.0
 13
31.72004102055076
 23
323.5091625543609
 33
0.0
  0
SOLID
  5
99
330
93
100
AcDbEntity
  8
BEMASSUNG
  6
Continuous
 62
     2
100
AcDbTrace
 10
31.05337435388408
 20
306.0091625543674
 30
0.0
 11
32.38670768721743
 21
306.0091625543674
 31
0.0
 12
31.72004102055075
 22
302.0091625543674
 32
0.0
 13
31.72004102055075
 23
302.0091625543674
 33
0.0
  0
MTEXT
  5
9A
330
93
100
AcDbEntity
  8
BEMASSUNG
  6
Continuous
 62
     3
100
AcDbMText
 10
28.49904852396134
 20
312.7591625543642
 30
0.0
 40
4.349999999999999
 41
0.0
 71
     5
 72
     1
  1
\A1;21.5
  7
ARIAL-STANDARD
 11
0.0000000000000001
 21
1.0
 31
0.0
 73
     1
 44
1.0
1001
ACAD
1000
MTEXTBEGIN
1070
    73
1070
     1
1070
    44
1040
1.0
1070
    74
1070
     0
1000
MTEXTEND
  0
POINT
  5
9B
330
93
100
AcDbEntity
  8
DEFPOINTS
  6
Continuous
 62
     0
100
AcDbPoint
 10
55.27297895151028
 20
323.5091625543609
 30
0.0
  0
POINT
  5
9C
330
93
100
AcDbEntity
  8
DEFPOINTS
  6
Continuous
 62
     0
100
AcDbPoint
 10
61.94744493249769
 20
302.0091625543674
 30
0.0
  0
POINT
  5
9D
330
93
100
AcDbEntity
  8
DEFPOINTS
  6
Continuous
 62
     0
100
AcDbPoint
 10
31.72004102055075
 20
302.0091625543674
 30
0.0
  0
ENDBLK
  5
9E
330
93
100
AcDbEntity
  8
0
100
AcDbBlockEnd
  0
BLOCK
  5
86
330
85
100
AcDbEntity
  8
0
100
AcDbBlockBegin
  2
*D22
 70
     1
 10
0.0
 20
0.0
 30
0.0
  3
*D22
  1

  0
LINE
  5
87
330
85
100
AcDbEntity
  8
BEMASSUNG
  6
Continuous
 62
     2
370
    -2
100
AcDbLine
 10
83.05595627215771
 20
323.5091625543609
 30
0.0
 11
107.942368704279
 21
323.5091625543609
 31
0.0
  0
LINE
  5
88
330
85
100
AcDbEntity
  8
BEMASSUNG
  6
Continuous
 62
     2
370
    -2
100
AcDbLine
 10
83.05595627215771
 20
229.5091625543673
 30
0.0
 11
107.942368704279
 21
229.5091625543673
 31
0.0
  0
LINE
  5
89
330
85
100
AcDbEntity
  8
BEMASSUNG
  6
Continuous
 62
     2
370
    -2
100
AcDbLine
 10
106.942368704279
 20
319.5091625543609
 30
0.0
 11
106.942368704279
 21
233.5091625543673
 31
0.0
  0
SOLID
  5
8A
330
85
100
AcDbEntity
  8
BEMASSUNG
  6
Continuous
 62
     2
100
AcDbTrace
 10
106.2757020376124
 20
319.5091625543609
 30
0.0
 11
107.6090353709457
 21
319.5091625543609
 31
0.0
 12
106.942368704279
 22
323.5091625543609
 32
0.0
 13
106.942368704279
 23
323.5091625543609
 33
0.0
  0
SOLID
  5
8B
330
85
100
AcDbEntity
  8
BEMASSUNG
  6
Continuous
 62
     2
100
AcDbTrace
 10
106.2757020376123
 20
233.5091625543673
 30
0.0
 11
107.6090353709457
 21
233.5091625543673
 31
0.0
 12
106.942368704279
 22
229.5091625543673
 32
0.0
 13
106.942368704279
 23
229.5091625543673
 33
0.0
  0
MTEXT
  5
8C
330
85
100
AcDbEntity
  8
BEMASSUNG
  6
Continuous
 62
     3
100
AcDbMText
 10
100.0874744341562
 20
276.5091625543641
 30
0.0
 40
4.349999999999999
 41
0.0
 71
     5
 72
     1
  1
\A1;RZ 94\PPZ 92
  7
ARIAL-STANDARD
 11
0.0000000000000001
 21
1.0
 31
0.0
 73
     1
 44
1.0
1001
ACAD
1000
MTEXTBEGIN
1070
    73
1070
     1
1070
    44
1040
1.0
1070
    74
1070
     0
1000
MTEXTEND
  0
POINT
  5
8D
330
85
100
AcDbEntity
  8
DEFPOINTS
  6
Continuous
 62
     0
100
AcDbPoint
 10
83.05595627215771
 20
323.5091625543609
 30
0.0
  0
POINT
  5
8E
330
85
100
AcDbEntity
  8
DEFPOINTS
  6
Continuous
 62
     0
100
AcDbPoint
 10
83.05595627215771
 20
229.5091625543673
 30
0.0
  0
POINT
  5
8F
330
85
100
AcDbEntity
  8
DEFPOINTS
  6
Continuous
 62
     0
100
AcDbPoint
 10
106.942368704279
 20
229.5091625543673
 30
0.0
  0
ENDBLK
  5
90
330
85
100
AcDbEntity
  8
0
100
AcDbBlockEnd
  0
BLOCK
  5
71
330
70
100
AcDbEntity
  8
0
100
AcDbBlockBegin
  2
*D23
 70
     1
 10
0.0
 20
0.0
 30
0.0
  3
*D23
  1

  0
LINE
  5
72
330
70
100
AcDbEntity
  8
BEMASSUNG
  6
Continuous
 62
     2
370
    -2
100
AcDbLine
 10
60.51653357431328
 20
404.0091625543672
 30
0.0
 11
107.942368704279
 21
404.0091625543672
 31
0.0
  0
LINE
  5
73
330
70
100
AcDbEntity
  8
BEMASSUNG
  6
Continuous
 62
     2
370
    -2
100
AcDbLine
 10
83.05595627215771
 20
323.5091625543609
 30
0.0
 11
107.942368704279
 21
323.5091625543609
 31
0.0
  0
LINE
  5
74
330
70
100
AcDbEntity
  8
BEMASSUNG
  6
Continuous
 62
     2
370
    -2
100
AcDbLine
 10
106.942368704279
 20
400.0091625543673
 30
0.0
 11
106.942368704279
 21
327.5091625543609
 31
0.0
  0
SOLID
  5
75
330
70
100
AcDbEntity
  8
BEMASSUNG
  6
Continuous
 62
     2
100
AcDbTrace
 10
106.2757020376124
 20
400.0091625543673
 30
0.0
 11
107.6090353709457
 21
400.0091625543673
 31
0.0
 12
106.942368704279
 22
404.0091625543672
 32
0.0
 13
106.942368704279
 23
404.0091625543672
 33
0.0
  0
SOLID
  5
76
330
70
100
AcDbEntity
  8
BEMASSUNG
  6
Continuous
 62
     2
100
AcDbTrace
 10
106.2757020376123
 20
327.5091625543609
 30
0.0
 11
107.6090353709457
 21
327.5091625543609
 31
0.0
 12
106.942368704279
 22
323.5091625543609
 32
0.0
 13
106.942368704279
 23
323.5091625543609
 33
0.0
  0
MTEXT
  5
77
330
70
100
AcDbEntity
  8
BEMASSUNG
  6
Continuous
 62
     3
100
AcDbMText
 10
103.7213762076896
 20
363.7591625543641
 30
0.0
 40
4.349999999999999
 41
0.0
 71
     5
 72
     1
  1
\A1;80.5
  7
ARIAL-STANDARD
 11
0.0000000000000001
 21
1.0
 31
0.0
 73
     1
 44
1.0
1001
ACAD
1000
MTEXTBEGIN
1070
    73
1070
     1
1070
    44
1040
1.0
1070
    74
1070
     0
1000
MTEXTEND
  0
POINT
  5
78
330
70
100
AcDbEntity
  8
DEFPOINTS
  6
Continuous
 62
     0
100
AcDbPoint
 10
60.51653357431328
 20
404.0091625543672
 30
0.0
  0
POINT
  5
7A
330
70
100
AcDbEntity
  8
DEFPOINTS
  6
Continuous
 62
     0
100
AcDbPoint
 10
83.05595627215771
 20
323.5091625543609
 30
0.0
  0
POINT
  5
7B
330
70
100
AcDbEntity
  8
DEFPOINTS
  6
Continuous
 62
     0
100
AcDbPoint
 10
106.942368704279
 20
323.5091625543609
 30
0.0
  0
ENDBLK
  5
7C
330
70
100
AcDbEntity
  8
0
100
AcDbBlockEnd
  0
ENDSEC
  0
SECTION
  2
ENTITIES
  0
CIRCLE
  5
6A
330
2
100
AcDbEntity
  8
LAYER3
100
AcDbCircle
 10
69.05595627215771
 20
323.5091625543609
 30
0.0
 40
3.6
  0
ARC
  5
6E
330
2
100
AcDbEntity
  8
LAYER3
100
AcDbCircle
 10
-5.625684215144019
 20
367.5091625537328
 30
0.0
 40
170.1922146044488
100
AcDbArc
 50
355.3153004151253
 51
4.68469958529303
  0
DIMENSION
  5
6F
330
2
100
AcDbEntity
  8
BEMASSUNG
  6
Continuous
100
AcDbDimension
  2
*D23
 10
106.942368704279
 20
323.5091625543609
 30
0.0
 11
103.7213762076896
 21
363.7591625543641
 31
0.0
 71
     5
 42
80.50000000000636
  3
Katalog 09
100
AcDbAlignedDimension
 13
60.51653357431328
 23
404.0091625543672
 33
0.0
 14
83.05595627215771
 24
323.5091625543609
 34
0.0
 50
90.0
100
AcDbRotatedDimension
  0
LINE
  5
7D
330
2
100
AcDbEntity
  8
LAYER3
100
AcDbLine
 10
27.23744493249764
 20
351.509162554361
 30
0.0
 11
38.94744493249769
 21
351.5091625543129
 31
0.0
  0
LINE
  5
7E
330
2
100
AcDbEntity
  8
LAYER3
100
AcDbLine
 10
26.8374449324976
 20
351.909162554361
 30
0.0
 11
26.83744493249764
 21
383.1091625543614
 31
0.0
  0
LINE
  5
7F
330
2
100
AcDbEntity
  8
LAYER3
100
AcDbLine
 10
38.94744493249767
 20
383.5091625543613
 30
0.0
 11
27.23744493249764
 21
383.5091625543614
 31
0.0
  0
ARC
  5
80
330
2
100
AcDbEntity
  8
LAYER3
100
AcDbCircle
 10
27.23744493249764
 20
383.1091625543614
 30
0.0
 40
0.4000000000000061
100
AcDbArc
 50
89.99999999999674
 51
180.0
  0
ARC
  5
81
330
2
100
AcDbEntity
  8
LAYER3
100
AcDbCircle
 10
27.23744493249764
 20
351.909162554361
 30
0.0
 40
0.4000000000000077
100
AcDbArc
 50
180.0
 51
270.0
  0
LINE
  5
82
330
2
100
AcDbEntity
  8
LAYER3
100
AcDbLine
 10
28.41173532185691
 20
354.009162554361
 30
0.0
 11
38.72173532185684
 21
354.009162554361
 31
0.0
  0
LINE
  5
83
330
2
100
AcDbEntity
  8
LAYER3
100
AcDbLine
 10
38.72173532185684
 20
381.0091625543613
 30
0.0
 11
28.41173532185694
 21
381.0091625543614
 31
0.0
  0
DIMENSION
  5
84
330
2
100
AcDbEntity
  8
BEMASSUNG
  6
Continuous
100
AcDbDimension
  2
*D22
 10
106.942368704279
 20
229.5091625543673
 30
0.0
 11
100.0874744341562
 21
276.5091625543641
 31
0.0
  1
RZ <>\PPZ 92
 71
     5
 42
93.9999999999936
  3
Katalog 09
100
AcDbAlignedDimension
 13
83.05595627215771
 23
323.5091625543609
 33
0.0
 14
83.05595627215771
 24
229.5091625543673
 34
0.0
 50
90.0
100
AcDbRotatedDimension
1001
ACAD_DSTYLE_DIMINSPECT
1070
   396
1000
100%
1070
   395
1000

1070
   394
1070
    33
1070
   393
1070
     0
  0
DIMENSION
  5
92
330
2
100
AcDbEntity
  8
BEMASSUNG
  6
Continuous
100
AcDbDimension
  2
*D21
 10
31.72004102055075
 20
302.0091625543674
 30
0.0
 11
28.49904852396134
 21
312.7591625543642
 31
0.0
 71
     5
 42
21.49999999999352
  3
Katalog 09
100
AcDbAlignedDimension
 13
55.27297895151028
 23
323.5091625543609
 33
0.0
 14
61.94744493249769
 24
302.0091625543674
 34
0.0
 50
90.0
100
AcDbRotatedDimension
  0
LINE
  5
9F
330
2
100
AcDbEntity
  8
ACHSEN
100
AcDbLine
 10
83.05595627215771
 20
323.5091625543609
 30
0.0
 11
55.27297895151028
 21
323.5091625543609
 31
0.0
  0
LINE
  5
A4
330
2
100
AcDbEntity
  8
LAYER3
100
AcDbLine
 10
38.94744493249767
 20
381.0091625543534
 30
0.0
 11
28.52024666150412
 21
381.0091625543141
 31
0.0
  0
LINE
  5
A5
330
2
100
AcDbEntity
  8
LAYER3
100
AcDbLine
 10
27.34595627214934
 20
351.5091625543086
 30
0.0
 11
27.97509409195551
 21
351.509162554311
 31
0.0
  0
LINE
  5
A6
330
2
100
AcDbEntity
  8
LAYER3
100
AcDbLine
 10
28.52024666150864
 20
354.009162554314
 30
0.0
 11
38.94744493249767
 21
354.0091625543534
 31
0.0
  0
CIRCLE
  5
A7
330
2
100
AcDbEntity
  8
LAYER3
100
AcDbCircle
 10
50.05595627215829
 20
323.5091625543642
 30
0.0
 40
3.25
  0
CIRCLE
  5
A8
330
2
100
AcDbEntity
  8
LAYER3
100
AcDbCircle
 10
69.05595627215771
 20
323.5091625543609
 30
0.0
 40
8.05
  0
LINE
  5
A9
330
2
100
AcDbEntity
  8
LAYER3
100
AcDbLine
 10
64.3437570396552
 20
327.7864544848068
 30
0.0
 11
64.77865926285142
 21
318.7969684007052
 31
0.0
  0
LINE
  5
AA
330
2
100
AcDbEntity
  8
LAYER3
100
AcDbLine
 10
64.77865926285142
 20
318.7969684007052
 30
0.0
 11
73.76814534695308
 21
319.2318706239015
 31
0.0
  0
CIRCLE
  5
AB
330
2
100
AcDbEntity
  8
LAYER3
100
AcDbCircle
 10
69.05595119330434
 20
323.5091625543569
 30
0.0
 40
7.099999999999911
  0
LINE
  5
AC
330
2
100
AcDbEntity
  8
LAYER3
100
AcDbLine
 10
73.76814534695308
 20
319.2318706239015
 30
0.0
 11
73.33324312375683
 21
328.221356708003
 31
0.0
  0
LINE
  5
AD
330
2
100
AcDbEntity
  8
LAYER3
100
AcDbLine
 10
73.33324312375683
 20
328.221356708003
 30
0.0
 11
64.3437570396552
 21
327.7864544848068
 31
0.0
  0
LINE
  5
AE
330
2
100
AcDbEntity
  8
LAYER3
100
AcDbLine
 10
175.024871315572
 20
360.509162049566
 30
0.0
 11
174.9979577322935
 21
360.4623139908654
 31
0.0
  0
ELLIPSE
  5
AF
330
2
100
AcDbEntity
  8
LAYER3
100
AcDbEllipse
 10
178.0979577454293
 20
366.0818384031006
 30
0.0
 11
9.999306735481766
 21
9.999306735481766
 31
0.0
210
0.0
220
0.0
230
1.0
 40
0.0117749856410747
 41
4.385421504276057
 42
4.395921882763025
  0
ELLIPSE
  5
B0
330
2
100
AcDbEntity
  8
LAYER3
100
AcDbEllipse
 10
175.547744183056
 20
366.0818384030912
 30
0.0
 11
-9.999306848721406
 21
9.999306848721406
 31
0.0
210
0.0
220
0.0
230
1.0
 40
0.0117749855188255
 41
1.527564389929914
 42
1.537576944810237
  0
ELLIPSE
  5
B1
330
2
100
AcDbEntity
  8
LAYER3
100
AcDbEllipse
 10
178.097957745429
 20
366.0818384031006
 30
0.0
 11
-9.999306863723877
 21
9.999306863723878
 31
0.0
210
0.0
220
0.0
230
1.0
 40
0.0117749855058742
 41
1.26737773689018
 42
1.277878115279776
  0
ELLIPSE
  5
B2
330
2
100
AcDbEntity
  8
LAYER3
100
AcDbEllipse
 10
178.0979577454315
 20
365.6815443952159
 30
0.0
 11
-9.999306697398862
 21
9.999306697398864
 31
0.0
210
0.0
220
0.0
230
1.0
 40
0.011774985680822
 41
-1.254329228113293
 42
-1.243828849594003
  0
LINE
  5
B3
330
2
100
AcDbEntity
  8
LAYER3
100
AcDbLine
 10
175.0979577454327
 20
365.2966670213641
 30
0.0
 11
175.0479577454327
 21
365.2966670213639
 31
0.0
  0
LINE
  5
B4
330
2
100
AcDbEntity
  8
LAYER3
100
AcDbLine
 10
175.0479577454322
 20
365.3665937589491
 30
0.0
 11
175.0979577454322
 21
365.3665937589492
 31
0.0
  0
LINE
  5
B5
330
2
100
AcDbEntity
  8
LAYER3
100
AcDbLine
 10
175.0479577454327
 20
365.2966670213639
 30
0.0
 11
175.0479577454322
 21
365.3665937589491
 31
0.0
  0
ELLIPSE
  5
B6
330
2
100
AcDbEntity
  8
LAYER3
100
AcDbEllipse
 10
175.5981713078023
 20
366.0818384030914
 30
0.0
 11
9.999306836167489
 21
9.999306836167489
 31
0.0
210
0.0
220
0.0
230
0.9999999999999998
 40
0.0117749855337151
 41
4.64055708585947
 42
4.645565383487611
  0
ELLIPSE
  5
B7
330
2
100
AcDbEntity
  8
LAYER3
100
AcDbEllipse
 10
175.5981713078052
 20
365.6815443952069
 30
0.0
 11
9.999306970320013
 21
9.999306970320013
 31
0.0
210
0.0
220
0.0
230
1.0
 40
0.0117749853760268
 41
1.614071040360481
 42
1.619079337922142
  0
LINE
  5
B8
330
2
100
AcDbEntity
  8
LAYER3
100
AcDbLine
 10
174.9979577453813
 20
379.0091625543972
 30
0.0
 11
175.0979577453813
 21
379.0091625543975
 31
0.0
  0
LINE
  5
B9
330
2
100
AcDbEntity
  8
LAYER3
100
AcDbLine
 10
175.0979577454487
 20
360.5091625543976
 30
0.0
 11
174.9979577454488
 21
360.5091625543973
 31
0.0
  0
LINE
  5
BA
330
2
100
AcDbEntity
  8
LAYER3
100
AcDbLine
 10
175.0979577454062
 20
372.1591625543975
 30
0.0
 11
174.9979577454063
 21
372.1591625543972
 31
0.0
  0
LINE
  5
BB
330
2
100
AcDbEntity
  8
LAYER3
100
AcDbLine
 10
174.9979577453983
 20
374.3591625543972
 30
0.0
 11
175.0979577453982
 21
374.3591625543975
 31
0.0
  0
LINE
  5
BC
330
2
100
AcDbEntity
  8
LAYER3
100
AcDbLine
 10
160.9979577453664
 20
383.1091625543404
 30
0.0
 11
160.9979577454803
 21
351.9091625543403
 31
0.0
  0
LINE
  5
BD
330
2
100
AcDbEntity
  8
LAYER3
100
AcDbLine
 10
163.9979577454733
 20
353.8055866021668
 30
0.0
 11
163.9979577454803
 21
351.9091625543506
 31
0.0
  0
LINE
  5
BE
330
2
100
AcDbEntity
  8
LAYER3
100
AcDbLine
 10
163.9979577453664
 20
383.1091625543507
 30
0.0
 11
163.9979577453726
 21
381.4091625543507
 31
0.0
  0
LINE
  5
BF
330
2
100
AcDbEntity
  8
LAYER3
100
AcDbLine
 10
174.5979577453741
 20
381.0091625543912
 30
0.0
 11
164.3979577453741
 21
381.0091625543522
 31
0.0
  0
LINE
  5
C0
330
2
100
AcDbEntity
  8
LAYER3
100
AcDbLine
 10
174.9979577453755
 20
380.6091625543926
 30
0.0
 11
174.9979577454711
 21
354.4091625543926
 31
0.0
  0
ARC
  5
C1
330
2
100
AcDbEntity
  8
LAYER3
100
AcDbCircle
 10
174.5979577454711
 20
354.4091625543911
 30
0.0
 40
0.4000000000000004
100
AcDbArc
 50
270.0000000002084
 51
0.0
  0
ARC
  5
C2
330
2
100
AcDbEntity
  8
LAYER3
100
AcDbCircle
 10
174.5979577453755
 20
380.6091625543911
 30
0.0
 40
0.4000000000000048
100
AcDbArc
 50
0.0
 51
90.00000000020838
  0
ARC
  5
C3
330
2
100
AcDbEntity
  8
LAYER3
100
AcDbCircle
 10
163.5979577454803
 20
351.9091625543492
 30
0.0
 40
0.4000000000000015
100
AcDbArc
 50
270.0000000002052
 51
0.0
  0
LINE
  5
C4
330
2
100
AcDbEntity
  8
LAYER3
100
AcDbLine
 10
161.3979577454817
 20
351.5091625543418
 30
0.0
 11
161.8581193632009
 21
351.5091625543428
 31
0.0
  0
LINE
  5
C5
330
2
100
AcDbEntity
  8
LAYER3
100
AcDbLine
 10
161.8581193632009
 20
351.5091625543428
 30
0.0
 11
162.9688199256758
 21
351.5091625543468
 31
0.0
  0
LINE
  5
C6
330
2
100
AcDbEntity
  8
LAYER3
100
AcDbLine
 10
162.9688199256758
 20
351.5091625543468
 30
0.0
 11
163.5979577454818
 21
351.5091625543492
 31
0.0
  0
ARC
  5
C7
330
2
100
AcDbEntity
  8
LAYER3
100
AcDbCircle
 10
161.3979577454803
 20
351.9091625543418
 30
0.0
 40
0.4000000000000004
100
AcDbArc
 50
180.0
 51
270.0000000002084
  0
ARC
  5
C8
330
2
100
AcDbEntity
  8
LAYER3
100
AcDbCircle
 10
161.3979577453664
 20
383.1091625543418
 30
0.0
 40
0.4000000000000001
100
AcDbArc
 50
90.00000000020838
 51
180.0
  0
LINE
  5
C9
330
2
100
AcDbEntity
  8
LAYER3
100
AcDbLine
 10
163.597957745365
 20
383.5091625543492
 30
0.0
 11
162.968819925559
 21
383.5091625543468
 31
0.0
  0
LINE
  5
CA
330
2
100
AcDbEntity
  8
LAYER3
100
AcDbLine
 10
162.968819925559
 20
383.5091625543468
 30
0.0
 11
161.8581193630841
 21
383.5091625543427
 31
0.0
  0
LINE
  5
CB
330
2
100
AcDbEntity
  8
LAYER3
100
AcDbLine
 10
161.8581193630841
 20
383.5091625543427
 30
0.0
 11
161.397957745365
 21
383.5091625543418
 31
0.0
  0
ARC
  5
CC
330
2
100
AcDbEntity
  8
LAYER3
100
AcDbCircle
 10
163.5979577453664
 20
383.1091625543492
 30
0.0
 40
0.4000000000000007
100
AcDbArc
 50
0.0
 51
90.00000000020838
  0
LINE
  5
CD
330
2
100
AcDbEntity
  8
LAYER3
100
AcDbLine
 10
164.3979577454726
 20
354.0091625543522
 30
0.0
 11
174.5979577454726
 21
354.0091625543912
 31
0.0
  0
ARC
  5
CE
330
2
100
AcDbEntity
  8
LAYER3
100
AcDbCircle
 10
164.3979577453726
 20
381.4091625543522
 30
0.0
 40
0.3999999999999998
100
AcDbArc
 50
180.0
 51
270.0000000002084
  0
ARC
  5
CF
330
2
100
AcDbEntity
  8
LAYER3
100
AcDbCircle
 10
164.3979577454741
 20
353.6091625543522
 30
0.0
 40
0.4000000000000004
100
AcDbArc
 50
90.00000000020838
 51
180.0
  0
LINE
  5
D0
330
2
100
AcDbEntity
  8
LAYER3
100
AcDbLine
 10
162.0479577454817
 20
351.5091625543434
 30
0.0
 11
162.047957745482
 21
351.4091625543449
 31
0.0
  0
LINE
  5
D1
330
2
100
AcDbEntity
  8
LAYER3
100
AcDbLine
 10
164.0979577453664
 20
383.1091625543525
 30
0.0
 11
164.0979577453719
 21
381.6091625543524
 31
0.0
  0
LINE
  5
D2
330
2
100
AcDbEntity
  8
LAYER3
100
AcDbLine
 10
161.3979577453646
 20
383.6091625543426
 30
0.0
 11
163.5979577453645
 21
383.6091625543506
 31
0.0
  0
LINE
  5
D3
330
2
100
AcDbEntity
  8
LAYER3
100
AcDbLine
 10
160.8979577454803
 20
351.9091625543408
 30
0.0
 11
160.8979577453664
 21
383.1091625543407
 31
0.0
  0
LINE
  5
D4
330
2
100
AcDbEntity
  8
LAYER3
100
AcDbLine
 10
163.5979577454821
 20
351.4091625543506
 30
0.0
 11
161.3979577454821
 21
351.4091625543426
 31
0.0
  0
LINE
  5
D5
330
2
100
AcDbEntity
  8
LAYER3
100
AcDbLine
 10
164.0979577454748
 20
353.4091625543525
 30
0.0
 11
164.0979577454803
 21
351.9091625543524
 31
0.0
  0
LINE
  5
D6
330
2
100
AcDbEntity
  8
LAYER3
100
AcDbLine
 10
171.3979577454729
 20
353.909162554379
 30
0.0
 11
164.5979577454729
 21
353.9091625543543
 31
0.0
  0
LINE
  5
D7
330
2
100
AcDbEntity
  8
LAYER3
100
AcDbLine
 10
171.8979577454803
 20
351.9091625543809
 30
0.0
 11
171.8979577454748
 21
353.4091625543809
 31
0.0
  0
LINE
  5
D8
330
2
100
AcDbEntity
  8
LAYER3
100
AcDbLine
 10
174.5979577454821
 20
351.4091625543908
 30
0.0
 11
172.3979577454821
 21
351.4091625543827
 31
0.0
  0
LINE
  5
D9
330
2
100
AcDbEntity
  8
LAYER3
100
AcDbLine
 10
175.0979577453664
 20
383.1091625543926
 30
0.0
 11
175.0979577454802
 21
351.9091625543926
 31
0.0
  0
LINE
  5
DA
330
2
100
AcDbEntity
  8
LAYER3
100
AcDbLine
 10
172.3979577453645
 20
383.6091625543827
 30
0.0
 11
174.5979577453645
 21
383.6091625543908
 31
0.0
  0
LINE
  5
DB
330
2
100
AcDbEntity
  8
LAYER3
100
AcDbLine
 10
171.8979577453718
 20
381.6091625543809
 30
0.0
 11
171.8979577453664
 21
383.1091625543809
 31
0.0
  0
LINE
  5
DC
330
2
100
AcDbEntity
  8
LAYER3
100
AcDbLine
 10
164.5979577453737
 20
381.1091625543543
 30
0.0
 11
171.3979577453736
 21
381.1091625543791
 31
0.0
  0
ARC
  5
DD
330
2
100
AcDbEntity
  8
LAYER3
100
AcDbCircle
 10
163.5979577453664
 20
383.1091625543506
 30
0.0
 40
0.4999999999999997
100
AcDbArc
 50
0.0
 51
90.00000000020838
  0
ARC
  5
DE
330
2
100
AcDbEntity
  8
LAYER3
100
AcDbCircle
 10
161.3979577453664
 20
383.1091625543426
 30
0.0
 40
0.4999999999999982
100
AcDbArc
 50
90.00000000020838
 51
180.0
  0
ARC
  5
DF
330
2
100
AcDbEntity
  8
LAYER3
100
AcDbCircle
 10
161.3979577454803
 20
351.9091625543426
 30
0.0
 40
0.499999999999988
100
AcDbArc
 50
180.0
 51
270.0000000002084
  0
ARC
  5
E0
330
2
100
AcDbEntity
  8
LAYER3
100
AcDbCircle
 10
163.5979577454802
 20
351.9091625543506
 30
0.0
 40
0.4999999999999982
100
AcDbArc
 50
270.0000000002052
 51
0.0
  0
ARC
  5
E1
330
2
100
AcDbEntity
  8
LAYER3
100
AcDbCircle
 10
164.5979577454748
 20
353.4091625543543
 30
0.0
 40
0.4999999999999936
100
AcDbArc
 50
90.00000000020838
 51
180.0
  0
ARC
  5
E2
330
2
100
AcDbEntity
  8
LAYER3
100
AcDbCircle
 10
171.3979577454747
 20
353.4091625543791
 30
0.0
 40
0.5000000000000071
100
AcDbArc
 50
0.0
 51
90.00000000020838
  0
ARC
  5
E3
330
2
100
AcDbEntity
  8
LAYER3
100
AcDbCircle
 10
172.3979577454802
 20
351.9091625543828
 30
0.0
 40
0.4999999999999825
100
AcDbArc
 50
180.0
 51
270.0000000002084
  0
ARC
  5
E4
330
2
100
AcDbEntity
  8
LAYER3
100
AcDbCircle
 10
174.5979577454803
 20
351.9091625543908
 30
0.0
 40
0.4999999999999982
100
AcDbArc
 50
270.0000000002052
 51
0.0
  0
ARC
  5
E5
330
2
100
AcDbEntity
  8
LAYER3
100
AcDbCircle
 10
174.5979577453664
 20
383.1091625543908
 30
0.0
 40
0.5000000000000025
100
AcDbArc
 50
0.0
 51
90.00000000020838
  0
ARC
  5
E6
330
2
100
AcDbEntity
  8
LAYER3
100
AcDbCircle
 10
172.3979577453664
 20
383.1091625543827
 30
0.0
 40
0.499999999999996
100
AcDbArc
 50
90.00000000020838
 51
180.0
  0
ARC
  5
E7
330
2
100
AcDbEntity
  8
LAYER3
100
AcDbCircle
 10
171.3979577453718
 20
381.6091625543791
 30
0.0
 40
0.5000000000000014
100
AcDbArc
 50
270.0000000002052
 51
0.0
  0
ARC
  5
E8
330
2
100
AcDbEntity
  8
LAYER3
100
AcDbCircle
 10
164.5979577453718
 20
381.6091625543543
 30
0.0
 40
0.5000000000000026
100
AcDbArc
 50
180.0
 51
270.0000000002084
  0
LINE
  5
E9
330
2
100
AcDbEntity
  8
LAYER3
100
AcDbLine
 10
163.3679428645267
 20
383.5091625543483
 30
0.0
 11
163.3677523538832
 21
383.6091625543498
 31
0.0
  0
LINE
  5
EA
330
2
100
AcDbEntity
  8
LAYER3
100
AcDbLine
 10
160.9979577453665
 20
383.1091625543404
 30
0.0
 11
160.9979577453654
 21
383.4091625543413
 31
0.0
  0
LINE
  5
EB
330
2
100
AcDbEntity
  8
LAYER3
100
AcDbLine
 10
160.9979577454814
 20
351.609162554341
 30
0.0
 11
160.9979577454803
 21
351.9091625543403
 31
0.0
  0
LINE
  5
EC
330
2
100
AcDbEntity
  8
LAYER3
100
AcDbLine
 10
27.06460222003705
 20
138.8603041493629
 30
0.0
 11
37.94744493245335
 21
127.9774614369532
 31
0.0
  0
ARC
  5
ED
330
2
100
AcDbEntity
  8
LAYER3
100
AcDbCircle
 10
27.34744493251185
 20
139.1431468618378
 30
0.0
 40
0.4000000000003438
100
AcDbArc
 50
180.0
 51
225.0000000000028
  0
LINE
  5
EE
330
2
100
AcDbEntity
  8
LAYER3
100
AcDbLine
 10
26.94744493251156
 20
139.1431468618376
 30
0.0
 11
26.94744493251074
 21
139.2214141693895
 31
0.0
  0
ARC
  5
EF
330
2
100
AcDbEntity
  8
LAYER3
100
AcDbCircle
 10
31.72559027133269
 20
141.5774614369513
 30
0.0
 40
0.4000000000000295
100
AcDbArc
 50
90.00000000001627
 51
96.00000000001484
  0
LINE
  5
F0
330
2
100
AcDbEntity
  8
LAYER3
100
AcDbLine
 10
38.94744493250187
 20
127.9774614369535
 30
0.0
 11
37.94744493245337
 21
127.9774614369532
 31
0.0
  0
LINE
  5
F1
330
2
100
AcDbEntity
  8
LAYER3
100
AcDbLine
 10
38.94744493249767
 20
141.9774614369535
 30
0.0
 11
31.72559027133255
 21
141.9774614369513
 31
0.0
  0
LINE
  5
F2
330
2
100
AcDbEntity
  8
LAYER3
100
AcDbLine
 10
26.94744493251036
 20
139.3070051299263
 30
0.0
 11
26.94744493250869
 21
140.006599256756
 31
0.0
  0
LINE
  5
F3
330
2
100
AcDbEntity
  8
LAYER3
100
AcDbLine
 10
26.94744493250835
 20
141.1172998192308
 30
0.0
 11
26.94744493250869
 21
140.006599256756
 31
0.0
  0
LINE
  5
F4
330
2
100
AcDbEntity
  8
LAYER3
100
AcDbLine
 10
31.68377888602549
 20
141.9752701950986
 30
0.0
 11
27.30563354720118
 21
141.5151085773782
 31
0.0
  0
ARC
  5
F5
330
2
100
AcDbEntity
  8
LAYER3
100
AcDbCircle
 10
27.34744493250835
 20
141.1172998192309
 30
0.0
 40
0.4000000000000036
100
AcDbArc
 50
96.00000000001484
 51
180.0
  0
LINE
  5
F6
330
2
100
AcDbEntity
  8
LAYER3
100
AcDbLine
 10
27.97658275231496
 20
138.9774614369502
 30
0.0
 11
38.94744493249766
 21
138.9774614369535
 31
0.0
  0
LINE
  5
F7
330
2
100
AcDbEntity
  8
LAYER3
100
AcDbLine
 10
27.97658275231498
 20
138.9774614369502
 30
0.0
 11
27.77917748580958
 21
138.9774614369427
 31
0.0
  0
LINE
  5
F8
330
2
100
AcDbEntity
  8
LAYER3
100
AcDbLine
 10
26.94744493251074
 20
139.2214141693896
 30
0.0
 11
26.94744493251074
 21
139.3070051299257
 31
0.0
  0
LINE
  5
F9
330
2
100
AcDbEntity
  8
LAYER3
100
AcDbLine
 10
49.94744493250882
 20
127.8274614371635
 30
0.0
 11
49.94744493250568
 21
138.4274614370384
 31
0.0
  0
ARC
  5
FA
330
2
100
AcDbEntity
  8
LAYER3
100
AcDbCircle
 10
51.44744493250567
 20
138.4274614370389
 30
0.0
 40
1.499999999999994
100
AcDbArc
 50
90.00000000001627
 51
180.0
  0
LINE
  5
FB
330
2
100
AcDbEntity
  8
LAYER3
100
AcDbLine
 10
51.44744493250522
 20
139.9274614370388
 30
0.0
 11
54.44744493250522
 21
139.9274614370398
 31
0.0
  0
ARC
  5
FC
330
2
100
AcDbEntity
  8
LAYER3
100
AcDbCircle
 10
54.44744493250567
 20
138.4274614370397
 30
0.0
 40
1.499999999999993
100
AcDbArc
 50
0.0
 51
90.00000000001627
  0
LINE
  5
FD
330
2
100
AcDbEntity
  8
LAYER3
100
AcDbLine
 10
55.94744493250567
 20
138.4274614370402
 30
0.0
 11
55.94744493250883
 21
127.8274614371635
 31
0.0
  0
DIMENSION
  5
FE
330
2
100
AcDbEntity
  8
BEMASSUNG
  6
Continuous
100
AcDbDimension
  2
*D20
 10
-7.193321060923373
 20
439.0091625543672
 30
0.0
 11
-10.40541178397938
 21
411.2591625543386
 31
0.0
 71
     5
 42
55.50000000005747
  3
Katalog 09
100
AcDbAlignedDimension
 13
27.66052518204704
 23
383.5091625543098
 33
0.0
 14
38.94744493249766
 24
439.0091625543672
 34
0.0
 50
90.0
100
AcDbRotatedDimension
  0
LINE
  5
10B
330
2
100
AcDbEntity
  8
ACHSEN
100
AcDbLine
 10
167.9979577453347
 20
432.7591625543673
 30
0.0
 11
167.9979577453347
 21
419.2591625543673
 31
0.0
  0
LINE
  5
10C
330
2
100
AcDbEntity
  8
ACHSEN
100
AcDbLine
 10
161.2479577453347
 20
426.0091625543672
 30
0.0
 11
174.7479577453347
 21
426.0091625543672
 31
0.0
  0
LINE
  5
10D
330
2
100
AcDbEntity
  8
ACHSEN
100
AcDbLine
 10
167.9979577453339
 20
218.7591625543673
 30
0.0
 11
167.9979577453339
 21
205.2591625543672
 31
0.0
  0
LINE
  5
10E
330
2
100
AcDbEntity
  8
ACHSEN
100
AcDbLine
 10
161.2479577453339
 20
212.0091625543673
 30
0.0
 11
174.7479577453339
 21
212.0091625543673
 31
0.0
  0
LINE
  5
10F
330
2
100
AcDbEntity
  8
ACHSEN
100
AcDbLine
 10
167.9979577453339
 20
188.7591625543672
 30
0.0
 11
167.9979577453339
 21
175.2591625543672
 31
0.0
  0
LINE
  5
110
330
2
100
AcDbEntity
  8
ACHSEN
100
AcDbLine
 10
161.2479577453339
 20
182.0091625543673
 30
0.0
 11
174.7479577453339
 21
182.0091625543673
 31
0.0
  0
DIMENSION
  5
111
330
2
100
AcDbEntity
  8
BEMASSUNG
  6
Continuous
100
AcDbDimension
  2
*D19
 10
146.4092561657501
 20
439.0091625543672
 30
0.0
 11
143.1867800402384
 21
432.5091625543673
 31
0.0
 71
     5
 42
12.99999999999994
  3
Katalog 09
100
AcDbAlignedDimension
 13
161.2479577453347
 23
426.0091625543672
 33
0.0
 14
155.9979577453339
 24
439.0091625543672
 34
0.0
 50
90.0
100
AcDbRotatedDimension
  0
DIMENSION
  5
11E
330
2
100
AcDbEntity
  8
BEMASSUNG
  6
Continuous
100
AcDbDimension
  2
*D18
 10
171.9979577453349
 20
300.7546239177967
 30
0.0
 11
167.9979577453315
 21
303.975616414386
 31
0.0
 71
     5
 42
8.000000000006792
  3
Katalog 09
100
AcDbAlignedDimension
 13
163.9979577453281
 23
284.0091625543673
 33
0.0
 14
171.9979577453349
 24
284.0091625543669
 34
0.0
100
AcDbRotatedDimension
  0
DIMENSION
  5
12D
330
2
100
AcDbEntity
  8
BEMASSUNG
  6
Continuous
100
AcDbDimension
  2
*D17
 10
174.9979577453755
 20
399.460282301552
 30
0.0
 11
167.997957745371
 21
402.6441840750853
 31
0.0
 71
     5
 42
14.00000000000909
  3
Katalog 09
100
AcDbAlignedDimension
 13
160.9979577453664
 23
383.1091625543418
 33
0.0
 14
174.9979577453755
 24
380.6091625543911
 34
0.0
100
AcDbRotatedDimension
  0
DIMENSION
  5
13A
330
2
100
AcDbEntity
  8
BEMASSUNG
  6
Continuous
100
AcDbDimension
  2
*D16
 10
179.9979577453339
 20
145.4549023877218
 30
0.0
 11
167.9979577453339
 21
148.6388041612552
 31
0.0
 71
     5
 42
24.0
  3
Katalog 09
100
AcDbAlignedDimension
 13
155.9979577453339
 23
169.0091625543672
 33
0.0
 14
179.9979577453339
 24
169.0091625543672
 34
0.0
100
AcDbRotatedDimension
  0
DIMENSION
  5
147
330
2
100
AcDbEntity
  8
BEMASSUNG
  6
Continuous
100
AcDbDimension
  2
*D15
 10
97.10082805797515
 20
143.8774614371601
 30
0.0
 11
93.87983556138577
 21
134.9774614371604
 31
0.0
 71
     5
 42
17.79999999999948
  3
Katalog 09
100
AcDbAlignedDimension
 13
84.44744493249766
 23
126.0774614371606
 33
0.0
 14
84.44744493249766
 24
143.8774614371601
 34
0.0
 50
90.0
100
AcDbRotatedDimension
  0
DIMENSION
  5
154
330
2
100
AcDbEntity
  8
BEMASSUNG
  6
Continuous
100
AcDbDimension
  2
*D14
 10
197.4569895714983
 20
439.0091625543672
 30
0.0
 11
194.2359970749089
 21
304.0091625543673
 31
0.0
 71
     5
 42
270.0
  3
Katalog 09
100
AcDbAlignedDimension
 13
179.9979577453339
 23
169.0091625543672
 33
0.0
 14
179.9979577453343
 24
439.0091625543672
 34
0.0
 50
90.0
100
AcDbRotatedDimension
  0
DIMENSION
  5
161
330
2
100
AcDbEntity
  8
BEMASSUNG
  6
Continuous
100
AcDbDimension
  2
*D13
 10
146.4092561657501
 20
182.0091625543673
 30
0.0
 11
143.1867800402385
 21
175.5091625543673
 31
0.0
 71
     5
 42
13.0
  3
Katalog 09
100
AcDbAlignedDimension
 13
155.9979577453339
 23
169.0091625543672
 33
0.0
 14
161.2479577453339
 24
182.0091625543673
 34
0.0
 50
90.0
100
AcDbRotatedDimension
  0
LINE
  5
16E
330
2
100
AcDbEntity
  8
ACHSEN
100
AcDbLine
 10
75.94744493249769
 20
302.0091625543674
 30
0.0
 11
61.94744493249769
 21
302.0091625543674
 31
0.0
  0
LINE
  5
16F
330
2
100
AcDbEntity
  8
ACHSEN
100
AcDbLine
 10
44.94744493249771
 20
426.0091625543671
 30
0.0
 11
35.94744493249772
 21
426.0091625543671
 31
0.0
  0
DIMENSION
  5
170
330
2
100
AcDbEntity
  8
BEMASSUNG
  6
Continuous
100
AcDbDimension
  2
*D12
 10
41.94744493249771
 20
450.4464162659708
 30
0.0
 11
52.3717286978456
 21
450.4464162659708
 31
0.0
 70
   128
 71
     5
 42
3.0
  3
Katalog 09
100
AcDbAlignedDimension
 13
38.94744493249772
 23
439.0091625543672
 33
0.0
 14
41.94744493249771
 24
439.0091625543672
 34
0.0
100
AcDbRotatedDimension
  0
LINE
  5
17F
330
2
100
AcDbEntity
  8
ACHSEN
100
AcDbLine
 10
82.94744493249771
 20
229.5091625543673
 30
0.0
 11
55.16446761185028
 21
229.5091625543673
 31
0.0
  0
LINE
  5
180
330
2
100
AcDbEntity
  8
ACHSEN
100
AcDbLine
 10
82.94744493249771
 20
231.5091625543673
 30
0.0
 11
55.16446761185028
 21
231.5091625543673
 31
0.0
  0
LINE
  5
181
330
2
100
AcDbEntity
  8
ACHSEN
100
AcDbLine
 10
74.04744493249774
 20
211.5091625543672
 30
0.0
 11
74.04744493249774
 21
224.584568703462
 31
0.0
  0
LINE
  5
182
330
2
100
AcDbEntity
  8
ACHSEN
100
AcDbLine
 10
63.8474449324978
 20
211.5091625543672
 30
0.0
 11
63.8474449324978
 21
224.584568703462
 31
0.0
  0
LINE
  5
183
330
2
100
AcDbEntity
  8
ACHSEN
100
AcDbLine
 10
75.94744493249772
 20
210.3091625543675
 30
0.0
 11
61.94744493249771
 21
210.3091625543675
 31
0.0
  0
ARC
  5
184
330
2
100
AcDbEntity
  8
ACHSEN
100
AcDbCircle
 10
68.94744493249771
 20
211.5091625543672
 30
0.0
 40
5.099999999999999
100
AcDbArc
 50
180.0
 51
0.0
  0
ARC
  5
185
330
2
100
AcDbEntity
  8
ACHSEN
100
AcDbCircle
 10
68.94744493249771
 20
231.5091625543673
 30
0.0
 40
8.599999999999999
100
AcDbArc
 50
306.371842409936
 51
233.628157590064
  0
DIMENSION
  5
186
330
2
100
AcDbEntity
  8
BEMASSUNG
  6
Continuous
100
AcDbDimension
  2
*D11
 10
38.94744493249772
 20
233.6710498484558
 30
0.0
 11
28.94744493249776
 21
236.8920423450451
 31
0.0
 71
     5
 42
19.99999999999991
  3
Katalog 09
100
AcDbAlignedDimension
 13
18.94744493249781
 23
250.5091625543675
 33
0.0
 14
38.94744493249772
 24
234.0902039235827
 34
0.0
100
AcDbRotatedDimension
  0
LINE
  5
193
330
2
100
AcDbEntity
  8
ACHSEN
100
AcDbLine
 10
44.94744493249771
 20
212.0091625543675
 30
0.0
 11
35.94744493249772
 21
212.0091625543675
 31
0.0
  0
DIMENSION
  5
194
330
2
100
AcDbEntity
  8
BEMASSUNG
  6
Continuous
100
AcDbDimension
  2
*D10
 10
7.827444932497826
 20
250.0091625543671
 30
0.0
 11
4.606452435908426
 21
227.0091625543672
 31
0.0
 71
     5
 42
45.99999999999988
  3
Katalog 09
100
AcDbAlignedDimension
 13
41.94744493249771
 23
204.0091625543673
 33
0.0
 14
19.94744493249781
 24
250.0091625543671
 34
0.0
 50
90.0
100
AcDbRotatedDimension
  0
DIMENSION
  5
1A1
330
2
100
AcDbEntity
  8
BEMASSUNG
  6
Continuous
100
AcDbDimension
  2
*D9
 10
-7.264165606441736
 20
285.0091625543673
 30
0.0
 11
-10.48664173195338
 21
267.5091625543672
 31
0.0
  1
35
 71
     5
 42
35.00000000000011
  3
Katalog 09
100
AcDbAlignedDimension
 13
19.94744493249781
 23
250.0091625543671
 33
0.0
 14
19.94744493249781
 24
285.0091625543673
 34
0.0
 50
90.0
100
AcDbRotatedDimension
  0
DIMENSION
  5
1AE
330
2
100
AcDbEntity
  8
BEMASSUNG
  6
Continuous
100
AcDbDimension
  2
*D8
 10
-7.264165606441736
 20
351.509162554311
 30
0.0
 11
-10.48515810303115
 21
318.2591625543391
 31
0.0
 71
     5
 42
66.49999999994372
  3
Katalog 09
100
AcDbAlignedDimension
 13
19.94744493249781
 23
285.0091625543673
 33
0.0
 14
27.97509409195551
 24
351.509162554311
 34
0.0
 50
90.0
100
AcDbRotatedDimension
  0
LINE
  5
1BB
330
2
100
AcDbEntity
  8
ACHSEN
100
AcDbLine
 10
69.05595627215771
 20
194.5091625543674
 30
0.0
 11
69.05595627215771
 21
400.5091625543673
 31
0.0
  0
DIMENSION
  5
1BC
330
2
100
AcDbEntity
  8
BEMASSUNG
  6
Continuous
100
AcDbDimension
  2
*D7
 10
-7.264165606441736
 20
383.5091625543098
 30
0.0
 11
-10.48664173195339
 21
367.5091625543104
 31
0.0
  1
32
 71
     5
 42
31.99999999999881
  3
Katalog 09
100
AcDbAlignedDimension
 13
27.97509409195551
 23
351.509162554311
 33
0.0
 14
27.66052518204704
 24
383.5091625543098
 34
0.0
 50
90.0
100
AcDbRotatedDimension
  0
DIMENSION
  5
1C9
330
2
100
AcDbEntity
  8
BEMASSUNG
  6
Continuous
100
AcDbDimension
  2
*D6
 10
38.94744493249772
 20
398.055004221936
 30
0.0
 11
32.94670060232088
 21
401.2389059954694
 31
0.0
 71
     5
 42
12.00148866035367
  3
Katalog 09
100
AcDbAlignedDimension
 13
26.94595627214404
 23
383.1091625543085
 33
0.0
 14
38.94744493249772
 24
388.463965493016
 34
0.0
100
AcDbRotatedDimension
  0
DIMENSION
  5
1D6
330
2
100
AcDbEntity
  8
BEMASSUNG
  6
Continuous
100
AcDbDimension
  2
*D5
 10
119.4146607276351
 20
404.0091625543672
 30
0.0
 11
119.414660727635
 21
304.0091625543673
 31
0.0
 70
   128
 71
     5
 42
200.0
  3
Katalog 09
100
AcDbAlignedDimension
 13
84.44744493249771
 23
204.0091625543673
 33
0.0
 14
62.44744493249766
 24
404.0091625543672
 34
0.0
 50
90.0
100
AcDbRotatedDimension
  0
DIMENSION
  5
1E3
330
2
100
AcDbEntity
  8
BEMASSUNG
  6
Continuous
100
AcDbDimension
  2
*D4
 10
106.9486649312175
 20
229.5091625543673
 30
0.0
 11
100.0937706610946
 21
216.7591625543673
 31
0.0
  1
RZ <>\PPZ 27.5
 71
     5
 42
25.5
  3
Katalog 09
100
AcDbAlignedDimension
 13
84.44744493249771
 23
204.0091625543673
 33
0.0
 14
82.94744493249771
 24
229.5091625543673
 34
0.0
 50
90.0
100
AcDbRotatedDimension
1001
ACAD_DSTYLE_DIMINSPECT
1070
   396
1000
100%
1070
   395
1000

1070
   394
1070
    33
1070
   393
1070
     0
  0
LINE
  5
1F0
330
2
100
AcDbEntity
  8
ACHSEN
100
AcDbLine
 10
44.94744493249771
 20
182.0091625543592
 30
0.0
 11
35.94744493249772
 21
182.0091625543592
 31
0.0
  0
DIMENSION
  5
1F1
330
2
100
AcDbEntity
  8
BEMASSUNG
  6
Continuous
100
AcDbDimension
  2
*D3
 10
68.94744493249771
 20
156.9657977090482
 30
0.0
 11
53.94744493249771
 21
160.1407977090482
 31
0.0
  1
DM
 71
     5
 42
30.0
  3
Katalog 09
100
AcDbAlignedDimension
 13
38.94744493249772
 23
167.5091625543674
 33
0.0
 14
68.94744493249771
 24
194.5091625543674
 34
0.0
100
AcDbRotatedDimension
  0
DIMENSION
  5
1FE
330
2
100
AcDbEntity
  8
BEMASSUNG
  6
Continuous
100
AcDbDimension
  2
*D2
 10
84.44744493249771
 20
156.9657977090482
 30
0.0
 11
76.69744493249772
 21
160.1867902056375
 31
0.0
 71
     5
 42
15.5
  3
Katalog 09
100
AcDbAlignedDimension
 13
68.94744493249771
 23
194.5091625543674
 33
0.0
 14
84.44744493249771
 24
204.0091625543673
 34
0.0
100
AcDbRotatedDimension
  0
DIMENSION
  5
20B
330
2
100
AcDbEntity
  8
BEMASSUNG
  6
Continuous
100
AcDbDimension
  2
*D1
 10
7.827444932497826
 20
204.0091625543672
 30
0.0
 11
4.604968806986196
 21
186.5091625543673
 31
0.0
 71
     5
 42
34.99999999999997
  3
Katalog 09
100
AcDbAlignedDimension
 13
38.94744493249772
 23
169.0091625543672
 33
0.0
 14
42.44744493249771
 24
204.0091625543672
 34
0.0
 50
90.0
100
AcDbRotatedDimension
  0
DIMENSION
  5
218
330
2
100
AcDbEntity
  8
BEMASSUNG
  6
Continuous
100
AcDbDimension
  2
*D0
 10
-7.264165606441736
 20
250.0091625543671
 30
0.0
 11
-10.48515810303114
 21
209.5091625543672
 31
0.0
 71
     5
 42
80.99999999999988
  3
Katalog 09
100
AcDbAlignedDimension
 13
38.94744493249772
 23
169.0091625543672
 33
0.0
 14
19.94744493249781
 24
250.0091625543671
 34
0.0
 50
90.0
100
AcDbRotatedDimension
  0
LINE
  5
225
330
2
100
AcDbEntity
  8
LAYER3
100
AcDbLine
 10
18.54744493249781
 20
137.9774614371279
 30
0.0
 11
18.54744493249782
 21
131.9774614371279
 31
0.0
  0
ARC
  5
226
330
2
100
AcDbEntity
  8
LAYER3
100
AcDbCircle
 10
19.54744493249781
 20
131.9774614371279
 30
0.0
 40
0.9999999999999964
100
AcDbArc
 50
180.0
 51
270.0
  0
ARC
  5
227
330
2
100
AcDbEntity
  8
LAYER3
100
AcDbCircle
 10
19.54744493249781
 20
137.9774614371279
 30
0.0
 40
0.9999999999999989
100
AcDbArc
 50
90.0
 51
180.0
  0
LINE
  5
228
330
2
100
AcDbEntity
  8
LAYER3
100
AcDbLine
 10
19.54744493249781
 20
130.9774614371279
 30
0.0
 11
34.94744493227685
 21
130.9774614371279
 31
0.0
  0
LINE
  5
229
330
2
100
AcDbEntity
  8
LAYER3
100
AcDbLine
 10
26.98337304395281
 20
138.9774614371279
 30
0.0
 11
19.54744493249781
 21
138.9774614371279
 31
0.0
  0
LINE
  5
22A
330
2
100
AcDbEntity
  8
LAYER3
100
AcDbLine
 10
60.86140630518355
 20
128.0774614371571
 30
0.0
 11
60.44744493249772
 21
128.0774614371571
 31
0.0
  0
LINE
  5
22B
330
2
100
AcDbEntity
  8
LAYER3
100
AcDbLine
 10
60.44744493249772
 20
139.8774614371564
 30
0.0
 11
60.86140630518357
 21
139.8774614371564
 31
0.0
  0
LINE
  5
22C
330
2
100
AcDbEntity
  8
LAYER3
100
AcDbLine
 10
77.34744493249769
 20
126.0774614371606
 30
0.0
 11
77.34744493249769
 21
127.8274614371607
 31
0.0
  0
LINE
  5
22D
330
2
100
AcDbEntity
  8
LAYER3
100
AcDbLine
 10
84.44744493249766
 20
127.8274614371607
 30
0.0
 11
84.44744493249766
 21
126.0774614371606
 31
0.0
  0
LINE
  5
22E
330
2
100
AcDbEntity
  8
LAYER3
100
AcDbLine
 10
81.54744493249769
 20
126.0774614371606
 30
0.0
 11
81.54744493249769
 21
127.8274614371607
 31
0.0
  0
LINE
  5
22F
330
2
100
AcDbEntity
  8
LAYER3
100
AcDbLine
 10
81.54744493249769
 20
127.8274614371607
 30
0.0
 11
84.44744493249766
 21
127.8274614371607
 31
0.0
  0
LINE
  5
230
330
2
100
AcDbEntity
  8
LAYER3
100
AcDbLine
 10
69.28594739391058
 20
127.8274614371607
 30
0.0
 11
77.34744493249769
 21
127.8274614371607
 31
0.0
  0
LINE
  5
231
330
2
100
AcDbEntity
  8
LAYER3
100
AcDbLine
 10
69.28594739391058
 20
126.0774614371606
 30
0.0
 11
77.34744493249769
 21
126.0774614371606
 31
0.0
  0
LINE
  5
232
330
2
100
AcDbEntity
  8
LAYER3
100
AcDbLine
 10
81.54744493249769
 20
126.0774614371601
 30
0.0
 11
80.44744493249769
 21
126.0774614371601
 31
0.0
  0
LINE
  5
233
330
2
100
AcDbEntity
  8
LAYER3
100
AcDbLine
 10
84.44744493249766
 20
126.0774614371606
 30
0.0
 11
81.54744493249769
 21
126.0774614371606
 31
0.0
  0
LINE
  5
234
330
2
100
AcDbEntity
  8
LAYER3
100
AcDbLine
 10
62.44744493249766
 20
127.8274614371635
 30
0.0
 11
41.94744493249766
 21
127.8274614371635
 31
0.0
  0
LINE
  5
235
330
2
100
AcDbEntity
  8
LAYER3
100
AcDbLine
 10
41.94744493249766
 20
126.0774614371635
 30
0.0
 11
60.51653357431331
 21
126.0774614371635
 31
0.0
  0
ELLIPSE
  5
236
330
2
100
AcDbEntity
  8
LAYER3
100
AcDbEllipse
 10
60.51653357431328
 20
127.8274614371635
 30
0.0
 11
-1.930911358184373
 21
0.0000000000000014
 31
0.0
210
0.0
220
0.0
230
1.0
 40
0.9063077870366434
 41
1.570796326794897
 42
3.141592653589794
  0
ELLIPSE
  5
237
330
2
100
AcDbEntity
  8
LAYER3
100
AcDbEllipse
 10
64.87627979172017
 20
127.8274614371607
 30
0.0
 11
0.0000000000000934
 21
1.749999999999999
 31
0.0
210
0.0
220
0.0
230
1.0
 40
0.9063077870366507
 41
3.141592653589851
 42
4.712388980384705
  0
LINE
  5
238
330
2
100
AcDbEntity
  8
LAYER3
100
AcDbLine
 10
60.51653357431331
 20
126.0774614371635
 30
0.0
 11
64.87627979172017
 21
126.0774614371607
 31
0.0
  0
LINE
  5
239
330
2
100
AcDbEntity
  8
LAYER3
100
AcDbLine
 10
65.72151631520156
 20
126.0774614371601
 30
0.0
 11
64.87627979172017
 21
126.0774614371601
 31
0.0
  0
LINE
  5
23A
330
2
100
AcDbEntity
  8
LAYER3
100
AcDbLine
 10
69.28594739391058
 20
127.8274614371607
 30
0.0
 11
69.28594739391058
 21
126.0774614371606
 31
0.0
  0
LINE
  5
23B
330
2
100
AcDbEntity
  8
LAYER3
100
AcDbLine
 10
69.28594739391058
 20
126.0774614371606
 30
0.0
 11
65.72151631520156
 21
126.0774614371601
 31
0.0
  0
LINE
  5
23C
330
2
100
AcDbEntity
  8
LAYER3
100
AcDbLine
 10
60.86140630518352
 20
127.8274614371632
 30
0.0
 11
60.86140630518352
 21
141.8774614371633
 31
0.0
  0
LINE
  5
23D
330
2
100
AcDbEntity
  8
LAYER3
100
AcDbLine
 10
66.46231841903432
 20
127.8274614371609
 30
0.0
 11
66.46231841903432
 21
141.8774614371609
 31
0.0
  0
LINE
  5
23E
330
2
100
AcDbEntity
  8
LAYER3
100
AcDbLine
 10
62.44744493249766
 20
127.8274614371635
 30
0.0
 11
62.44744493249766
 21
141.8774614371635
 31
0.0
  0
LINE
  5
23F
330
2
100
AcDbEntity
  8
LAYER3
100
AcDbLine
 10
65.6170818955529
 20
143.8774614371614
 30
0.0
 11
63.29268145597907
 21
143.8774614371629
 31
0.0
  0
ELLIPSE
  5
240
330
2
100
AcDbEntity
  8
LAYER3
100
AcDbEllipse
 10
61.70664282866494
 20
141.8774614371627
 30
0.0
 11
-0.0000000000000231
 21
1.999999999999999
 31
0.0
210
0.0
220
0.0
230
1.0
 40
0.422618261740695
 41
0.0000000000029987
 42
1.570796326796128
  0
LINE
  5
241
330
2
100
AcDbEntity
  8
LAYER3
100
AcDbLine
 10
63.29268145597907
 20
143.8774614371629
 30
0.0
 11
61.70664282866494
 21
143.8774614371627
 31
0.0
  0
ELLIPSE
  5
242
330
2
100
AcDbEntity
  8
LAYER3
100
AcDbEllipse
 10
63.29268145597907
 20
141.8774614371629
 30
0.0
 11
-0.0000000000000375
 21
1.999999999999999
 31
0.0
210
0.0
220
0.0
230
1.0
 40
0.4226182617406949
 41
-0.0000000000000442
 42
1.570796326794348
  0
ELLIPSE
  5
243
330
2
100
AcDbEntity
  8
LAYER3
100
AcDbEllipse
 10
65.6170818955529
 20
141.8774614371614
 30
0.0
 11
-0.0000000000000173
 21
2.0
 31
0.0
210
0.0
220
0.0
230
1.0
 40
0.4226182617406949
 41
-1.570796326793663
 42
0.0000000000030056
  0
ARC
  5
244
330
2
100
AcDbEntity
  8
LAYER3
100
AcDbCircle
 10
40.44744493249766
 20
145.4774614371739
 30
0.0
 40
1.5
100
AcDbArc
 50
0.0
 51
180.0
  0
ARC
  5
245
330
2
100
AcDbEntity
  8
LAYER3
100
AcDbCircle
 10
40.44744493249766
 20
124.4774614371738
 30
0.0
 40
1.5
100
AcDbArc
 50
180.0
 51
0.0
  0
LINE
  5
246
330
2
100
AcDbEntity
  8
LAYER3
100
AcDbLine
 10
38.94744493249766
 20
145.4774614371739
 30
0.0
 11
38.94744493249766
 21
124.4774614371738
 31
0.0
  0
LINE
  5
247
330
2
100
AcDbEntity
  8
LAYER3
100
AcDbLine
 10
41.94744493249766
 20
124.4774614371738
 30
0.0
 11
41.94744493249766
 21
145.4774614371739
 31
0.0
  0
LINE
  5
248
330
2
100
AcDbEntity
  8
LAYER3
100
AcDbLine
 10
43.74744493249764
 20
142.0774614371635
 30
0.0
 11
43.74744493249761
 21
143.8774614371629
 31
0.0
  0
LINE
  5
249
330
2
100
AcDbEntity
  8
LAYER3
100
AcDbLine
 10
60.44744493249766
 20
127.8274614371635
 30
0.0
 11
41.94744493249766
 21
127.8274614371635
 31
0.0
  0
LINE
  5
24A
330
2
100
AcDbEntity
  8
LAYER3
100
AcDbLine
 10
41.94744493249766
 20
142.0774614371635
 30
0.0
 11
43.74744493249764
 21
142.0774614371635
 31
0.0
  0
ARC
  5
24B
330
2
100
AcDbEntity
  8
LAYER3
100
AcDbCircle
 10
43.74744493249766
 20
142.0774614371628
 30
0.0
 40
0.0499999999999965
100
AcDbArc
 50
90.00000000004071
 51
180.0
  0
ARC
  5
24C
330
2
100
AcDbEntity
  8
LAYER3
100
AcDbCircle
 10
43.7474449324977
 20
142.0774614371628
 30
0.0
 40
1.800000000000011
100
AcDbArc
 50
90.00000000000161
 51
180.0
  0
LINE
  5
24D
330
2
100
AcDbEntity
  8
LAYER3
100
AcDbLine
 10
84.44744493249766
 20
142.0774614371607
 30
0.0
 11
84.44744493249766
 21
127.8274614371607
 31
0.0
  0
LINE
  5
24E
330
2
100
AcDbEntity
  8
LAYER3
100
AcDbLine
 10
84.44744493249766
 20
127.8274614371607
 30
0.0
 11
81.54744493249769
 21
127.8274614371607
 31
0.0
  0
LINE
  5
24F
330
2
100
AcDbEntity
  8
LAYER3
100
AcDbLine
 10
75.94744493249766
 20
127.8274614371607
 30
0.0
 11
66.46231841903428
 21
127.8274614371607
 31
0.0
  0
LINE
  5
250
330
2
100
AcDbEntity
  8
LAYER3
100
AcDbLine
 10
75.94744493249766
 20
126.0774614371606
 30
0.0
 11
80.44744493249766
 21
126.0774614371606
 31
0.0
  0
LINE
  5
251
330
2
100
AcDbEntity
  8
LAYER3
100
AcDbLine
 10
84.44744493249766
 20
142.0774614371607
 30
0.0
 11
84.44744493249766
 21
143.8774614371601
 31
0.0
  0
LINE
  5
252
330
2
100
AcDbEntity
  8
LAYER3
100
AcDbLine
 10
65.6170818955529
 20
143.8774614371601
 30
0.0
 11
84.44744493249766
 21
143.8774614371601
 31
0.0
  0
LINE
  5
253
330
2
100
AcDbEntity
  8
LAYER3
100
AcDbLine
 10
43.74744493249764
 20
143.8774614371629
 30
0.0
 11
60.44744493249766
 21
143.8774614371629
 31
0.0
  0
LINE
  5
254
330
2
100
AcDbEntity
  8
LAYER3
100
AcDbLine
 10
42.14744493249767
 20
143.8774614371572
 30
0.0
 11
42.14744493249767
 21
142.9020825622807
 31
0.0
  0
LINE
  5
255
330
2
100
AcDbEntity
  8
LAYER3
100
AcDbLine
 10
43.74744493249766
 20
143.8774614371572
 30
0.0
 11
42.14744493249767
 21
143.8774614371572
 31
0.0
  0
LINE
  5
256
330
2
100
AcDbEntity
  8
LAYER3
100
AcDbLine
 10
60.44744493249766
 20
127.8274614371635
 30
0.0
 11
60.44744493249766
 21
142.0774614371635
 31
0.0
  0
LINE
  5
257
330
2
100
AcDbEntity
  8
LAYER3
100
AcDbLine
 10
60.44744493249766
 20
143.877461437163
 30
0.0
 11
60.44744493249766
 21
142.0774614371635
 31
0.0
  0
LINE
  5
258
330
2
100
AcDbEntity
  8
LAYER3
100
AcDbLine
 10
60.44744493249766
 20
143.8774614371629
 30
0.0
 11
61.70664282866491
 21
143.8774614371621
 31
0.0
  0
LINE
  5
259
330
2
100
AcDbEntity
  8
LAYER3
100
AcDbLine
 10
60.86803571360471
 20
142.1274614371626
 30
0.0
 11
60.44744493249766
 21
142.1274614371629
 31
0.0
  0
LINE
  5
25A
330
2
100
AcDbEntity
  8
LAYER3
100
AcDbLine
 10
164.9979577453281
 20
250.0091625543672
 30
0.0
 11
170.9979577453282
 21
250.0091625543672
 31
0.0
  0
ARC
  5
25B
330
2
100
AcDbEntity
  8
LAYER3
100
AcDbCircle
 10
170.9979577453282
 20
251.0091625543672
 30
0.0
 40
0.9999999999999964
100
AcDbArc
 50
270.0
 51
0.0
  0
ARC
  5
25C
330
2
100
AcDbEntity
  8
LAYER3
100
AcDbCircle
 10
164.9979577453281
 20
251.0091625543672
 30
0.0
 40
1.0
100
AcDbArc
 50
180.0
 51
269.9999999999976
  0
ARC
  5
25D
330
2
100
AcDbEntity
  8
LAYER3
100
AcDbCircle
 10
164.9979577453281
 20
284.0091625543673
 30
0.0
 40
0.9999999999999975
100
AcDbArc
 50
90.0
 51
180.0
  0
ARC
  5
25E
330
2
100
AcDbEntity
  8
LAYER3
100
AcDbCircle
 10
170.9979577453282
 20
284.0091625543673
 30
0.0
 40
0.9999999999999953
100
AcDbArc
 50
0.0
 51
90.00000000000161
  0
LINE
  5
25F
330
2
100
AcDbEntity
  8
LAYER3
100
AcDbLine
 10
171.9979577453282
 20
251.0091625543672
 30
0.0
 11
171.9979577453282
 21
284.0091625543673
 31
0.0
  0
LINE
  5
260
330
2
100
AcDbEntity
  8
LAYER3
100
AcDbLine
 10
170.9979577453282
 20
285.0091625543672
 30
0.0
 11
164.9979577453281
 21
285.0091625543672
 31
0.0
  0
LINE
  5
261
330
2
100
AcDbEntity
  8
LAYER3
100
AcDbLine
 10
163.9979577453281
 20
284.0091625543673
 30
0.0
 11
163.9979577453281
 21
251.0091625543672
 31
0.0
  0
CIRCLE
  5
262
330
2
100
AcDbEntity
  8
LAYER3
100
AcDbCircle
 10
167.9979577453339
 20
242.5091625543673
 30
0.0
 40
4.199999999999989
  0
LINE
  5
263
330
2
100
AcDbEntity
  8
LAYER3
100
AcDbLine
 10
165.9943921366314
 20
241.3324617208398
 30
0.0
 11
167.5341840500128
 21
242.5612582310419
 31
0.0
  0
LINE
  5
264
330
2
100
AcDbEntity
  8
LAYER3
100
AcDbLine
 10
168.0500534220086
 20
242.9729362496884
 30
0.0
 11
169.58984533539
 21
244.2017327598906
 31
0.0
  0
LINE
  5
265
330
2
100
AcDbEntity
  8
LAYER3
100
AcDbLine
 10
169.58984533539
 20
244.2017327598906
 30
0.0
 11
170.0015233540365
 21
243.6858633878949
 31
0.0
  0
LINE
  5
266
330
2
100
AcDbEntity
  8
LAYER3
100
AcDbLine
 10
166.4060701552778
 20
240.8165923488439
 30
0.0
 11
165.9943921366314
 21
241.3324617208398
 31
0.0
  0
LINE
  5
267
330
2
100
AcDbEntity
  8
LAYER3
100
AcDbLine
 10
167.9458620686592
 20
242.0453888590462
 30
0.0
 11
166.4060701552778
 21
240.8165923488439
 31
0.0
  0
LINE
  5
268
330
2
100
AcDbEntity
  8
LAYER3
100
AcDbLine
 10
170.0015233540365
 20
243.6858633878949
 30
0.0
 11
168.4617314406551
 21
242.4570668776926
 31
0.0
  0
LINE
  5
269
330
2
100
AcDbEntity
  8
LAYER3
100
AcDbLine
 10
168.4617314406551
 20
242.4570668776926
 30
0.0
 11
169.6905279508573
 21
240.9172749643112
 31
0.0
  0
LINE
  5
26A
330
2
100
AcDbEntity
  8
LAYER3
100
AcDbLine
 10
166.8212569118064
 20
244.5127281630698
 30
0.0
 11
168.0500534220086
 21
242.9729362496884
 31
0.0
  0
LINE
  5
26B
330
2
100
AcDbEntity
  8
LAYER3
100
AcDbLine
 10
166.3053875398106
 20
244.1010501444234
 30
0.0
 11
166.8212569118064
 21
244.5127281630698
 31
0.0
  0
LINE
  5
26C
330
2
100
AcDbEntity
  8
LAYER3
100
AcDbLine
 10
169.6905279508573
 20
240.9172749643112
 30
0.0
 11
169.1746585788615
 21
240.5055969456648
 31
0.0
  0
LINE
  5
26D
330
2
100
AcDbEntity
  8
LAYER3
100
AcDbLine
 10
169.1746585788615
 20
240.5055969456648
 30
0.0
 11
167.9458620686592
 21
242.0453888590462
 31
0.0
  0
LINE
  5
26E
330
2
100
AcDbEntity
  8
LAYER3
100
AcDbLine
 10
167.5341840500128
 20
242.5612582310419
 30
0.0
 11
166.3053875398105
 21
244.1010501444234
 31
0.0
  0
CIRCLE
  5
26F
330
2
100
AcDbEntity
  8
LAYER3
100
AcDbCircle
 10
167.9979577453339
 20
292.5091625543673
 30
0.0
 40
4.19999999999998
  0
LINE
  5
270
330
2
100
AcDbEntity
  8
LAYER3
100
AcDbLine
 10
166.1873027066695
 20
293.9653316142499
 30
0.0
 11
167.8822282444676
 21
292.961276127078
 31
0.0
  0
LINE
  5
271
330
2
100
AcDbEntity
  8
LAYER3
100
AcDbLine
 10
168.4500713180446
 20
292.6248920552336
 30
0.0
 11
170.1449968558427
 21
291.6208365680617
 31
0.0
  0
LINE
  5
272
330
2
100
AcDbEntity
  8
LAYER3
100
AcDbLine
 10
170.1449968558427
 20
291.6208365680617
 30
0.0
 11
169.8086127839983
 21
291.0529934944847
 31
0.0
  0
LINE
  5
273
330
2
100
AcDbEntity
  8
LAYER3
100
AcDbLine
 10
165.8509186348251
 20
293.3974885406728
 30
0.0
 11
166.1873027066695
 21
293.9653316142499
 31
0.0
  0
LINE
  5
274
330
2
100
AcDbEntity
  8
LAYER3
100
AcDbLine
 10
167.5458441726233
 20
292.393433053501
 30
0.0
 11
165.8509186348251
 21
293.3974885406728
 31
0.0
  0
LINE
  5
275
330
2
100
AcDbEntity
  8
LAYER3
100
AcDbLine
 10
169.8086127839983
 20
291.0529934944847
 30
0.0
 11
168.1136872462003
 21
292.0570489816565
 31
0.0
  0
LINE
  5
276
330
2
100
AcDbEntity
  8
LAYER3
100
AcDbLine
 10
168.1136872462003
 20
292.0570489816565
 30
0.0
 11
167.1096317590284
 21
290.3621234438585
 31
0.0
  0
LINE
  5
277
330
2
100
AcDbEntity
  8
LAYER3
100
AcDbLine
 10
169.4541268052165
 20
294.3198175930317
 30
0.0
 11
168.4500713180446
 21
292.6248920552336
 31
0.0
  0
LINE
  5
278
330
2
100
AcDbEntity
  8
LAYER3
100
AcDbLine
 10
168.8862837316395
 20
294.6562016648761
 30
0.0
 11
169.4541268052165
 21
294.3198175930317
 31
0.0
  0
LINE
  5
279
330
2
100
AcDbEntity
  8
LAYER3
100
AcDbLine
 10
167.1096317590284
 20
290.3621234438585
 30
0.0
 11
166.5417886854514
 21
290.6985075157029
 31
0.0
  0
LINE
  5
27A
330
2
100
AcDbEntity
  8
LAYER3
100
AcDbLine
 10
166.5417886854514
 20
290.6985075157029
 30
0.0
 11
167.5458441726233
 21
292.393433053501
 31
0.0
  0
LINE
  5
27B
330
2
100
AcDbEntity
  8
LAYER3
100
AcDbLine
 10
167.8822282444676
 20
292.961276127078
 30
0.0
 11
168.8862837316395
 21
294.6562016648761
 31
0.0
  0
CIRCLE
  5
27C
330
2
100
AcDbEntity
  8
LAYER3
100
AcDbCircle
 10
167.9979577453339
 20
334.5091625543673
 30
0.0
 40
4.199999999999989
  0
LINE
  5
27D
330
2
100
AcDbEntity
  8
LAYER3
100
AcDbLine
 10
166.3926863152348
 20
332.8292805240725
 30
0.0
 11
167.537622050641
 21
334.432409390318
 31
0.0
  0
LINE
  5
27E
330
2
100
AcDbEntity
  8
LAYER3
100
AcDbLine
 10
167.9212045812847
 20
334.9694982490602
 30
0.0
 11
169.0661403166909
 21
336.5726271153058
 31
0.0
  0
LINE
  5
27F
330
2
100
AcDbEntity
  8
LAYER3
100
AcDbLine
 10
169.0661403166909
 20
336.5726271153058
 30
0.0
 11
169.6032291754331
 21
336.1890445846621
 31
0.0
  0
LINE
  5
280
330
2
100
AcDbEntity
  8
LAYER3
100
AcDbLine
 10
166.9297751739769
 20
332.4456979934287
 30
0.0
 11
166.3926863152348
 21
332.8292805240725
 31
0.0
  0
LINE
  5
281
330
2
100
AcDbEntity
  8
LAYER3
100
AcDbLine
 10
168.0747109093832
 20
334.0488268596743
 30
0.0
 11
166.9297751739769
 21
332.4456979934287
 31
0.0
  0
LINE
  5
282
330
2
100
AcDbEntity
  8
LAYER3
100
AcDbLine
 10
169.6032291754331
 20
336.1890445846621
 30
0.0
 11
168.4582934400269
 21
334.5859157184165
 31
0.0
  0
LINE
  5
283
330
2
100
AcDbEntity
  8
LAYER3
100
AcDbLine
 10
168.4582934400269
 20
334.5859157184165
 30
0.0
 11
170.0614223062724
 21
333.4409799830102
 31
0.0
  0
LINE
  5
284
330
2
100
AcDbEntity
  8
LAYER3
100
AcDbLine
 10
166.3180757150391
 20
336.1144339844664
 30
0.0
 11
167.9212045812847
 21
334.9694982490602
 31
0.0
  0
LINE
  5
285
330
2
100
AcDbEntity
  8
LAYER3
100
AcDbLine
 10
165.9344931843954
 20
335.5773451257242
 30
0.0
 11
166.3180757150391
 21
336.1144339844664
 31
0.0
  0
LINE
  5
286
330
2
100
AcDbEntity
  8
LAYER3
100
AcDbLine
 10
170.0614223062724
 20
333.4409799830102
 30
0.0
 11
169.6778397756287
 21
332.9038911242681
 31
0.0
  0
LINE
  5
287
330
2
100
AcDbEntity
  8
LAYER3
100
AcDbLine
 10
169.6778397756287
 20
332.9038911242681
 30
0.0
 11
168.0747109093832
 21
334.0488268596743
 31
0.0
  0
LINE
  5
288
330
2
100
AcDbEntity
  8
LAYER3
100
AcDbLine
 10
167.537622050641
 20
334.432409390318
 30
0.0
 11
165.9344931843954
 21
335.5773451257242
 31
0.0
  0
CIRCLE
  5
289
330
2
100
AcDbEntity
  8
LAYER3
100
AcDbCircle
 10
167.9979577453339
 20
392.0091625543673
 30
0.0
 40
4.199999999999984
  0
LINE
  5
28A
330
2
100
AcDbEntity
  8
LAYER3
100
AcDbLine
 10
166.3252285401142
 20
390.3964390796188
 30
0.0
 11
167.5348646693102
 21
391.9513282830489
 31
0.0
  0
LINE
  5
28B
330
2
100
AcDbEntity
  8
LAYER3
100
AcDbLine
 10
167.9401234740155
 20
392.4722556303909
 30
0.0
 11
169.1497596032116
 21
394.0271448338211
 31
0.0
  0
LINE
  5
28C
330
2
100
AcDbEntity
  8
LAYER3
100
AcDbLine
 10
169.1497596032116
 20
394.0271448338211
 30
0.0
 11
169.6706869505537
 21
393.6218860291158
 31
0.0
  0
LINE
  5
28D
330
2
100
AcDbEntity
  8
LAYER3
100
AcDbLine
 10
166.8461558874562
 20
389.9911802749135
 30
0.0
 11
166.3252285401142
 21
390.3964390796188
 31
0.0
  0
LINE
  5
28E
330
2
100
AcDbEntity
  8
LAYER3
100
AcDbLine
 10
168.0557920166523
 20
391.5460694783436
 30
0.0
 11
166.8461558874562
 21
389.9911802749135
 31
0.0
  0
LINE
  5
28F
330
2
100
AcDbEntity
  8
LAYER3
100
AcDbLine
 10
169.6706869505537
 20
393.6218860291158
 30
0.0
 11
168.4610508213576
 21
392.0669968256857
 31
0.0
  0
LINE
  5
290
330
2
100
AcDbEntity
  8
LAYER3
100
AcDbLine
 10
168.4610508213576
 20
392.0669968256857
 30
0.0
 11
170.0159400247877
 21
390.8573606964896
 31
0.0
  0
LINE
  5
291
330
2
100
AcDbEntity
  8
LAYER3
100
AcDbLine
 10
166.3852342705854
 20
393.681891759587
 30
0.0
 11
167.9401234740155
 21
392.4722556303909
 31
0.0
  0
LINE
  5
292
330
2
100
AcDbEntity
  8
LAYER3
100
AcDbLine
 10
165.9799754658801
 20
393.1609644122449
 30
0.0
 11
166.3852342705854
 21
393.681891759587
 31
0.0
  0
LINE
  5
293
330
2
100
AcDbEntity
  8
LAYER3
100
AcDbLine
 10
170.0159400247877
 20
390.8573606964896
 30
0.0
 11
169.6106812200824
 21
390.3364333491475
 31
0.0
  0
LINE
  5
294
330
2
100
AcDbEntity
  8
LAYER3
100
AcDbLine
 10
169.6106812200824
 20
390.3364333491475
 30
0.0
 11
168.0557920166523
 21
391.5460694783436
 31
0.0
  0
LINE
  5
295
330
2
100
AcDbEntity
  8
LAYER3
100
AcDbLine
 10
167.5348646693102
 20
391.9513282830489
 30
0.0
 11
165.9799754658801
 21
393.1609644122449
 31
0.0
  0
POLYLINE
  5
296
330
2
100
AcDbEntity
  8
LAYER3
100
AcDb2dPolyline
 66
     1
 10
0.0
 20
0.0
 30
0.0
 70
   128
  0
VERTEX
  5
297
330
296
100
AcDbEntity
  8
LAYER3
100
AcDbVertex
100
AcDb2dVertex
 10
165.0856600891017
 20
184.3468254753497
 30
0.0
  0
VERTEX
  5
298
330
296
100
AcDbEntity
  8
LAYER3
100
AcDbVertex
100
AcDb2dVertex
 10
165.1153977404498
 20
184.3438500114825
 30
0.0
  0
VERTEX
  5
299
330
296
100
AcDbEntity
  8
LAYER3
100
AcDbVertex
100
AcDb2dVertex
 10
165.1453076492213
 20
184.3417519279864
 30
0.0
  0
VERTEX
  5
29A
330
296
100
AcDbEntity
  8
LAYER3
100
AcDbVertex
100
AcDb2dVertex
 10
165.1753576289081
 20
184.3405502983477
 30
0.0
  0
VERTEX
  5
29B
330
296
100
AcDbEntity
  8
LAYER3
100
AcDbVertex
100
AcDb2dVertex
 10
165.2055145989322
 20
184.3402451225665
 30
0.0
  0
VERTEX
  5
29C
330
296
100
AcDbEntity
  8
LAYER3
100
AcDbVertex
100
AcDb2dVertex
 10
165.2357460747623
 20
184.3408554741289
 30
0.0
  0
VERTEX
  5
29D
330
296
100
AcDbEntity
  8
LAYER3
100
AcDbVertex
100
AcDb2dVertex
 10
165.2660198698901
 20
184.3423813530352
 30
0.0
  0
VERTEX
  5
29E
330
296
100
AcDbEntity
  8
LAYER3
100
AcDbVertex
100
AcDb2dVertex
 10
165.2963026057147
 20
184.3448418327715
 30
0.0
  0
VERTEX
  5
29F
330
296
100
AcDbEntity
  8
LAYER3
100
AcDbVertex
100
AcDb2dVertex
 10
165.3269608508014
 20
184.3482941337969
 30
0.0
  0
VERTEX
  5
2A0
330
296
100
AcDbEntity
  8
LAYER3
100
AcDbVertex
100
AcDb2dVertex
 10
165.3584201823139
 20
184.3528717705157
 30
0.0
  0
VERTEX
  5
2A1
330
296
100
AcDbEntity
  8
LAYER3
100
AcDbVertex
100
AcDb2dVertex
 10
165.3905599008465
 20
184.3585938164141
 30
0.0
  0
VERTEX
  5
2A2
330
296
100
AcDbEntity
  8
LAYER3
100
AcDbVertex
100
AcDb2dVertex
 10
165.4232575188541
 20
184.3655174919512
 30
0.0
  0
VERTEX
  5
2A3
330
296
100
AcDbEntity
  8
LAYER3
100
AcDbVertex
100
AcDb2dVertex
 10
165.4563896547222
 20
184.3736809440996
 30
0.0
  0
VERTEX
  5
2A4
330
296
100
AcDbEntity
  8
LAYER3
100
AcDbVertex
100
AcDb2dVertex
 10
165.4898341189289
 20
184.3831413933184
 30
0.0
  0
VERTEX
  5
2A5
330
296
100
AcDbEntity
  8
LAYER3
100
AcDbVertex
100
AcDb2dVertex
 10
165.5234675298596
 20
184.3939179130938
 30
0.0
  0
VERTEX
  5
2A6
330
296
100
AcDbEntity
  8
LAYER3
100
AcDbVertex
100
AcDb2dVertex
 10
165.5571673999691
 20
184.4060486503985
 30
0.0
  0
VERTEX
  5
2A7
330
296
100
AcDbEntity
  8
LAYER3
100
AcDbVertex
100
AcDb2dVertex
 10
165.590811837759
 20
184.4196098991778
 30
0.0
  0
VERTEX
  5
2A8
330
296
100
AcDbEntity
  8
LAYER3
100
AcDbVertex
100
AcDb2dVertex
 10
165.6242843161488
 20
184.4346016594317
 30
0.0
  0
VERTEX
  5
2A9
330
296
100
AcDbEntity
  8
LAYER3
100
AcDbVertex
100
AcDb2dVertex
 10
165.657463241663
 20
184.4509667107012
 30
0.0
  0
VERTEX
  5
2AA
330
296
100
AcDbEntity
  8
LAYER3
100
AcDbVertex
100
AcDb2dVertex
 10
165.6902255307103
 20
184.4686478325274
 30
0.0
  0
VERTEX
  5
2AB
330
296
100
AcDbEntity
  8
LAYER3
100
AcDbVertex
100
AcDb2dVertex
 10
165.7224486957455
 20
184.4875687309649
 30
0.0
  0
VERTEX
  5
2AC
330
296
100
AcDbEntity
  8
LAYER3
100
AcDbVertex
100
AcDb2dVertex
 10
165.7540099512005
 20
184.5076721855547
 30
0.0
  0
VERTEX
  5
2AD
330
296
100
AcDbEntity
  8
LAYER3
100
AcDbVertex
100
AcDb2dVertex
 10
165.7847865115071
 20
184.5289009758379
 30
0.0
  0
VERTEX
  5
2AE
330
296
100
AcDbEntity
  8
LAYER3
100
AcDbVertex
100
AcDb2dVertex
 10
165.8146555910969
 20
184.5511978813555
 30
0.0
  0
VERTEX
  5
2AF
330
296
100
AcDbEntity
  8
LAYER3
100
AcDbVertex
100
AcDb2dVertex
 10
165.8434944044018
 20
184.5744675346758
 30
0.0
  0
SEQEND
  5
2B0
330
296
100
AcDbEntity
  8
LAYER3
  0
ARC
  5
2B1
330
2
100
AcDbEntity
  8
LAYER3
100
AcDbCircle
 10
167.9979577453402
 20
182.0091625543592
 30
0.0
 40
3.350000000009969
100
AcDbArc
 50
121.9748830508349
 51
130.0251169491639
  0
POLYLINE
  5
2B2
330
2
100
AcDbEntity
  8
LAYER3
100
AcDb2dPolyline
 66
     1
 10
0.0
 20
0.0
 30
0.0
 70
   128
  0
VERTEX
  5
2B3
330
2B2
100
AcDbEntity
  8
LAYER3
100
AcDbVertex
100
AcDb2dVertex
 10
166.2239737997914
 20
184.8508995720293
 30
0.0
  0
VERTEX
  5
2B4
330
2B2
100
AcDbEntity
  8
LAYER3
100
AcDbVertex
100
AcDb2dVertex
 10
166.2550245414639
 20
184.8711365410235
 30
0.0
  0
VERTEX
  5
2B5
330
2B2
100
AcDbEntity
  8
LAYER3
100
AcDbVertex
100
AcDb2dVertex
 10
166.2854497323895
 20
184.8926514336016
 30
0.0
  0
VERTEX
  5
2B6
330
2B2
100
AcDbEntity
  8
LAYER3
100
AcDbVertex
100
AcDb2dVertex
 10
166.3151507268811
 20
184.9153679558184
 30
0.0
  0
VERTEX
  5
2B7
330
2B2
100
AcDbEntity
  8
LAYER3
100
AcDbVertex
100
AcDb2dVertex
 10
166.3440285812283
 20
184.9391716667559
 30
0.0
  0
VERTEX
  5
2B8
330
2B2
100
AcDbEntity
  8
LAYER3
100
AcDbVertex
100
AcDb2dVertex
 10
166.3719843517208
 20
184.9639671989825
 30
0.0
  0
VERTEX
  5
2B9
330
2B2
100
AcDbEntity
  8
LAYER3
100
AcDbVertex
100
AcDb2dVertex
 10
166.3989196906948
 20
184.9896591850664
 30
0.0
  0
VERTEX
  5
2BA
330
2B2
100
AcDbEntity
  8
LAYER3
100
AcDbVertex
100
AcDb2dVertex
 10
166.4247359524632
 20
185.0161522575762
 30
0.0
  0
VERTEX
  5
2BB
330
2B2
100
AcDbEntity
  8
LAYER3
100
AcDbVertex
100
AcDb2dVertex
 10
166.4493338952923
 20
185.0433701225665
 30
0.0
  0
VERTEX
  5
2BC
330
2B2
100
AcDbEntity
  8
LAYER3
100
AcDbVertex
100
AcDb2dVertex
 10
166.4726229201222
 20
185.0711792656328
 30
0.0
  0
VERTEX
  5
2BD
330
2B2
100
AcDbEntity
  8
LAYER3
100
AcDbVertex
100
AcDb2dVertex
 10
166.4945869336987
 20
185.0994652458575
 30
0.0
  0
VERTEX
  5
2BE
330
2B2
100
AcDbEntity
  8
LAYER3
100
AcDbVertex
100
AcDb2dVertex
 10
166.5152298103237
 20
185.1281326958086
 30
0.0
  0
VERTEX
  5
2BF
330
2B2
100
AcDbEntity
  8
LAYER3
100
AcDbVertex
100
AcDb2dVertex
 10
166.5345530401134
 20
185.1570099541094
 30
0.0
  0
VERTEX
  5
2C0
330
2B2
100
AcDbEntity
  8
LAYER3
100
AcDbVertex
100
AcDb2dVertex
 10
166.5525596033001
 20
185.1860016533282
 30
0.0
  0
VERTEX
  5
2C1
330
2B2
100
AcDbEntity
  8
LAYER3
100
AcDbVertex
100
AcDb2dVertex
 10
166.5692506919765
 20
185.2149552055743
 30
0.0
  0
VERTEX
  5
2C2
330
2B2
100
AcDbEntity
  8
LAYER3
100
AcDbVertex
100
AcDb2dVertex
 10
166.5846286903286
 20
185.2437561699297
 30
0.0
  0
VERTEX
  5
2C3
330
2B2
100
AcDbEntity
  8
LAYER3
100
AcDbVertex
100
AcDb2dVertex
 10
166.5986947904491
 20
185.2722710319903
 30
0.0
  0
VERTEX
  5
2C4
330
2B2
100
AcDbEntity
  8
LAYER3
100
AcDbVertex
100
AcDb2dVertex
 10
166.6114519725704
 20
185.3003472038653
 30
0.0
  0
VERTEX
  5
2C5
330
2B2
100
AcDbEntity
  8
LAYER3
100
AcDbVertex
100
AcDb2dVertex
 10
166.6231422315502
 20
185.3284043022539
 30
0.0
  0
VERTEX
  5
2C6
330
2B2
100
AcDbEntity
  8
LAYER3
100
AcDbVertex
100
AcDb2dVertex
 10
166.6339497457408
 20
185.3567093559649
 30
0.0
  0
VERTEX
  5
2C7
330
2B2
100
AcDbEntity
  8
LAYER3
100
AcDbVertex
100
AcDb2dVertex
 10
166.6438721309566
 20
185.3852814384844
 30
0.0
  0
VERTEX
  5
2C8
330
2B2
100
AcDbEntity
  8
LAYER3
100
AcDbVertex
100
AcDb2dVertex
 10
166.6529064069652
 20
185.4140442558672
 30
0.0
  0
VERTEX
  5
2C9
330
2B2
100
AcDbEntity
  8
LAYER3
100
AcDbVertex
100
AcDb2dVertex
 10
166.6610495935344
 20
185.4429978081133
 30
0.0
  0
VERTEX
  5
2CA
330
2B2
100
AcDbEntity
  8
LAYER3
100
AcDbVertex
100
AcDb2dVertex
 10
166.6682993064784
 20
185.47210394825
 30
0.0
  0
VERTEX
  5
2CB
330
2B2
100
AcDbEntity
  8
LAYER3
100
AcDbVertex
100
AcDb2dVertex
 10
166.674652565565
 20
185.5013054558184
 30
0.0
  0
SEQEND
  5
2CC
330
2B2
100
AcDbEntity
  8
LAYER3
  0
POLYLINE
  5
2CD
330
2
100
AcDbEntity
  8
LAYER3
100
AcDb2dPolyline
 66
     1
 10
0.0
 20
0.0
 30
0.0
 70
   128
  0
VERTEX
  5
2CE
330
2CD
100
AcDbEntity
  8
LAYER3
100
AcDbVertex
100
AcDb2dVertex
 10
166.674652565565
 20
185.5013054558184
 30
0.0
  0
VERTEX
  5
2CF
330
2CD
100
AcDbEntity
  8
LAYER3
100
AcDbVertex
100
AcDb2dVertex
 10
166.7075573097132
 20
185.6306809135821
 30
0.0
  0
VERTEX
  5
2D0
330
2CD
100
AcDbEntity
  8
LAYER3
100
AcDbVertex
100
AcDb2dVertex
 10
166.7536370645426
 20
185.7575577446367
 30
0.0
  0
VERTEX
  5
2D1
330
2CD
100
AcDbEntity
  8
LAYER3
100
AcDbVertex
100
AcDb2dVertex
 10
166.8127410303019
 20
185.8804482170489
 30
0.0
  0
VERTEX
  5
2D2
330
2CD
100
AcDbEntity
  8
LAYER3
100
AcDbVertex
100
AcDb2dVertex
 10
166.8850933204554
 20
185.9983223625567
 30
0.0
  0
VERTEX
  5
2D3
330
2CD
100
AcDbEntity
  8
LAYER3
100
AcDbVertex
100
AcDb2dVertex
 10
166.9756303916834
 20
186.1156243034747
 30
0.0
  0
VERTEX
  5
2D4
330
2CD
100
AcDbEntity
  8
LAYER3
100
AcDbVertex
100
AcDb2dVertex
 10
167.0846198688409
 20
186.2282913872149
 30
0.0
  0
VERTEX
  5
2D5
330
2CD
100
AcDbEntity
  8
LAYER3
100
AcDbVertex
100
AcDb2dVertex
 10
167.2095607410333
 20
186.3298004814532
 30
0.0
  0
VERTEX
  5
2D6
330
2CD
100
AcDbEntity
  8
LAYER3
100
AcDbVertex
100
AcDb2dVertex
 10
167.3448245416543
 20
186.4156311699297
 30
0.0
  0
VERTEX
  5
2D7
330
2CD
100
AcDbEntity
  8
LAYER3
100
AcDbVertex
100
AcDb2dVertex
 10
167.4910430799386
 20
186.4852303215411
 30
0.0
  0
VERTEX
  5
2D8
330
2CD
100
AcDbEntity
  8
LAYER3
100
AcDbVertex
100
AcDb2dVertex
 10
167.6548479686638
 20
186.5398186394122
 30
0.0
  0
VERTEX
  5
2D9
330
2CD
100
AcDbEntity
  8
LAYER3
100
AcDbVertex
100
AcDb2dVertex
 10
167.8275250087639
 20
186.5731972404864
 30
0.0
  0
VERTEX
  5
2DA
330
2CD
100
AcDbEntity
  8
LAYER3
100
AcDbVertex
100
AcDb2dVertex
 10
167.9979579339882
 20
186.584164495125
 30
0.0
  0
VERTEX
  5
2DB
330
2CD
100
AcDbEntity
  8
LAYER3
100
AcDbVertex
100
AcDb2dVertex
 10
168.1683902631661
 20
186.5731972404864
 30
0.0
  0
VERTEX
  5
2DC
330
2CD
100
AcDbEntity
  8
LAYER3
100
AcDbVertex
100
AcDb2dVertex
 10
168.3410673032662
 20
186.5398186394122
 30
0.0
  0
VERTEX
  5
2DD
330
2CD
100
AcDbEntity
  8
LAYER3
100
AcDbVertex
100
AcDb2dVertex
 10
168.5048721919915
 20
186.4852303215411
 30
0.0
  0
VERTEX
  5
2DE
330
2CD
100
AcDbEntity
  8
LAYER3
100
AcDbVertex
100
AcDb2dVertex
 10
168.6510907302758
 20
186.4156311699297
 30
0.0
  0
VERTEX
  5
2DF
330
2CD
100
AcDbEntity
  8
LAYER3
100
AcDbVertex
100
AcDb2dVertex
 10
168.7863545308969
 20
186.3298004814532
 30
0.0
  0
VERTEX
  5
2E0
330
2CD
100
AcDbEntity
  8
LAYER3
100
AcDbVertex
100
AcDb2dVertex
 10
168.9112954030893
 20
186.2282913872149
 30
0.0
  0
VERTEX
  5
2E1
330
2CD
100
AcDbEntity
  8
LAYER3
100
AcDbVertex
100
AcDb2dVertex
 10
169.0202848802469
 20
186.1156243034747
 30
0.0
  0
VERTEX
  5
2E2
330
2CD
100
AcDbEntity
  8
LAYER3
100
AcDbVertex
100
AcDb2dVertex
 10
169.110821951475
 20
185.9983223625567
 30
0.0
  0
VERTEX
  5
2E3
330
2CD
100
AcDbEntity
  8
LAYER3
100
AcDbVertex
100
AcDb2dVertex
 10
169.1831742416284
 20
185.8804482170489
 30
0.0
  0
VERTEX
  5
2E4
330
2CD
100
AcDbEntity
  8
LAYER3
100
AcDbVertex
100
AcDb2dVertex
 10
169.2422788034342
 20
185.7575577446367
 30
0.0
  0
VERTEX
  5
2E5
330
2CD
100
AcDbEntity
  8
LAYER3
100
AcDbVertex
100
AcDb2dVertex
 10
169.2883585582636
 20
185.6306809135821
 30
0.0
  0
VERTEX
  5
2E6
330
2CD
100
AcDbEntity
  8
LAYER3
100
AcDbVertex
100
AcDb2dVertex
 10
169.3212633024119
 20
185.5013054558184
 30
0.0
  0
SEQEND
  5
2E7
330
2CD
100
AcDbEntity
  8
LAYER3
  0
POLYLINE
  5
2E8
330
2
100
AcDbEntity
  8
LAYER3
100
AcDb2dPolyline
 66
     1
 10
0.0
 20
0.0
 30
0.0
 70
   128
  0
VERTEX
  5
2E9
330
2E8
100
AcDbEntity
  8
LAYER3
100
AcDbVertex
100
AcDb2dVertex
 10
169.3212633024119
 20
185.5013054558184
 30
0.0
  0
VERTEX
  5
2EA
330
2E8
100
AcDbEntity
  8
LAYER3
100
AcDbVertex
100
AcDb2dVertex
 10
169.3276165614986
 20
185.47210394825
 30
0.0
  0
VERTEX
  5
2EB
330
2E8
100
AcDbEntity
  8
LAYER3
100
AcDbVertex
100
AcDb2dVertex
 10
169.3348656783961
 20
185.4429978081133
 30
0.0
  0
VERTEX
  5
2EC
330
2E8
100
AcDbEntity
  8
LAYER3
100
AcDbVertex
100
AcDb2dVertex
 10
169.3430094610118
 20
185.4140442558672
 30
0.0
  0
VERTEX
  5
2ED
330
2E8
100
AcDbEntity
  8
LAYER3
100
AcDbVertex
100
AcDb2dVertex
 10
169.352043140974
 20
185.3852814384844
 30
0.0
  0
VERTEX
  5
2EE
330
2E8
100
AcDbEntity
  8
LAYER3
100
AcDbVertex
100
AcDb2dVertex
 10
169.3619655261898
 20
185.3567093559649
 30
0.0
  0
VERTEX
  5
2EF
330
2E8
100
AcDbEntity
  8
LAYER3
100
AcDbVertex
100
AcDb2dVertex
 10
169.3727730403804
 20
185.3284043022539
 30
0.0
  0
VERTEX
  5
2F0
330
2E8
100
AcDbEntity
  8
LAYER3
100
AcDbVertex
100
AcDb2dVertex
 10
169.3844632993602
 20
185.3003472038653
 30
0.0
  0
VERTEX
  5
2F1
330
2E8
100
AcDbEntity
  8
LAYER3
100
AcDbVertex
100
AcDb2dVertex
 10
169.397221077528
 20
185.2722710319903
 30
0.0
  0
VERTEX
  5
2F2
330
2E8
100
AcDbEntity
  8
LAYER3
100
AcDbVertex
100
AcDb2dVertex
 10
169.4112871776485
 20
185.2437561699297
 30
0.0
  0
VERTEX
  5
2F3
330
2E8
100
AcDbEntity
  8
LAYER3
100
AcDbVertex
100
AcDb2dVertex
 10
169.4266645799541
 20
185.2149552055743
 30
0.0
  0
VERTEX
  5
2F4
330
2E8
100
AcDbEntity
  8
LAYER3
100
AcDbVertex
100
AcDb2dVertex
 10
169.4433556686306
 20
185.1860016533282
 30
0.0
  0
VERTEX
  5
2F5
330
2E8
100
AcDbEntity
  8
LAYER3
100
AcDbVertex
100
AcDb2dVertex
 10
169.4613622318172
 20
185.1570099541094
 30
0.0
  0
VERTEX
  5
2F6
330
2E8
100
AcDbEntity
  8
LAYER3
100
AcDbVertex
100
AcDb2dVertex
 10
169.4806860576534
 20
185.1281326958086
 30
0.0
  0
VERTEX
  5
2F7
330
2E8
100
AcDbEntity
  8
LAYER3
100
AcDbVertex
100
AcDb2dVertex
 10
169.5013283382321
 20
185.0994652458575
 30
0.0
  0
VERTEX
  5
2F8
330
2E8
100
AcDbEntity
  8
LAYER3
100
AcDbVertex
100
AcDb2dVertex
 10
169.5232926498318
 20
185.0711792656328
 30
0.0
  0
VERTEX
  5
2F9
330
2E8
100
AcDbEntity
  8
LAYER3
100
AcDbVertex
100
AcDb2dVertex
 10
169.5465813766384
 20
185.0433701225665
 30
0.0
  0
VERTEX
  5
2FA
330
2E8
100
AcDbEntity
  8
LAYER3
100
AcDbVertex
100
AcDb2dVertex
 10
169.5711796174908
 20
185.0161522575762
 30
0.0
  0
VERTEX
  5
2FB
330
2E8
100
AcDbEntity
  8
LAYER3
100
AcDbVertex
100
AcDb2dVertex
 10
169.5969955812359
 20
184.9896591850664
 30
0.0
  0
VERTEX
  5
2FC
330
2E8
100
AcDbEntity
  8
LAYER3
100
AcDbVertex
100
AcDb2dVertex
 10
169.6239309202099
 20
184.9639671989825
 30
0.0
  0
VERTEX
  5
2FD
330
2E8
100
AcDbEntity
  8
LAYER3
100
AcDbVertex
100
AcDb2dVertex
 10
169.6518872867489
 20
184.9391716667559
 30
0.0
  0
VERTEX
  5
2FE
330
2E8
100
AcDbEntity
  8
LAYER3
100
AcDbVertex
100
AcDb2dVertex
 10
169.6807651410962
 20
184.9153679558184
 30
0.0
  0
VERTEX
  5
2FF
330
2E8
100
AcDbEntity
  8
LAYER3
100
AcDbVertex
100
AcDb2dVertex
 10
169.7104655395413
 20
184.8926514336016
 30
0.0
  0
VERTEX
  5
300
330
2E8
100
AcDbEntity
  8
LAYER3
100
AcDbVertex
100
AcDb2dVertex
 10
169.7408907304669
 20
184.8711365410235
 30
0.0
  0
VERTEX
  5
301
330
2E8
100
AcDbEntity
  8
LAYER3
100
AcDbVertex
100
AcDb2dVertex
 10
169.7719417701626
 20
184.8508995720293
 30
0.0
  0
SEQEND
  5
302
330
2E8
100
AcDbEntity
  8
LAYER3
  0
ARC
  5
303
330
2
100
AcDbEntity
  8
LAYER3
100
AcDbCircle
 10
167.9979577453335
 20
182.009162554366
 30
0.0
 40
3.3500000000015
100
AcDbArc
 50
49.97488305082847
 51
58.02511694917186
  0
POLYLINE
  5
304
330
2
100
AcDbEntity
  8
LAYER3
100
AcDb2dPolyline
 66
     1
 10
0.0
 20
0.0
 30
0.0
 70
   128
  0
VERTEX
  5
305
330
304
100
AcDbEntity
  8
LAYER3
100
AcDbVertex
100
AcDb2dVertex
 10
170.1524208675289
 20
184.5744675346758
 30
0.0
  0
VERTEX
  5
306
330
304
100
AcDbEntity
  8
LAYER3
100
AcDbVertex
100
AcDb2dVertex
 10
170.1812599788571
 20
184.5511978813555
 30
0.0
  0
VERTEX
  5
307
330
304
100
AcDbEntity
  8
LAYER3
100
AcDbVertex
100
AcDb2dVertex
 10
170.2111290584469
 20
184.5289009758379
 30
0.0
  0
VERTEX
  5
308
330
304
100
AcDbEntity
  8
LAYER3
100
AcDbVertex
100
AcDb2dVertex
 10
170.2419053207302
 20
184.5076721855547
 30
0.0
  0
VERTEX
  5
309
330
304
100
AcDbEntity
  8
LAYER3
100
AcDbVertex
100
AcDb2dVertex
 10
170.2734665761853
 20
184.4875687309649
 30
0.0
  0
VERTEX
  5
30A
330
304
100
AcDbEntity
  8
LAYER3
100
AcDbVertex
100
AcDb2dVertex
 10
170.3056900392437
 20
184.4686478325274
 30
0.0
  0
VERTEX
  5
30B
330
304
100
AcDbEntity
  8
LAYER3
100
AcDbVertex
100
AcDb2dVertex
 10
170.338452328291
 20
184.4509667107012
 30
0.0
  0
VERTEX
  5
30C
330
304
100
AcDbEntity
  8
LAYER3
100
AcDbVertex
100
AcDb2dVertex
 10
170.3716312538052
 20
184.4346016594317
 30
0.0
  0
VERTEX
  5
30D
330
304
100
AcDbEntity
  8
LAYER3
100
AcDbVertex
100
AcDb2dVertex
 10
170.4051034341717
 20
184.4196098991778
 30
0.0
  0
VERTEX
  5
30E
330
304
100
AcDbEntity
  8
LAYER3
100
AcDbVertex
100
AcDb2dVertex
 10
170.4387478719616
 20
184.4060486503985
 30
0.0
  0
VERTEX
  5
30F
330
304
100
AcDbEntity
  8
LAYER3
100
AcDbVertex
100
AcDb2dVertex
 10
170.4724477420712
 20
184.3939179130938
 30
0.0
  0
VERTEX
  5
310
330
304
100
AcDbEntity
  8
LAYER3
100
AcDbVertex
100
AcDb2dVertex
 10
170.506081451025
 20
184.3831413933184
 30
0.0
  0
VERTEX
  5
311
330
304
100
AcDbEntity
  8
LAYER3
100
AcDbVertex
100
AcDb2dVertex
 10
170.5395256172085
 20
184.3736809440996
 30
0.0
  0
VERTEX
  5
312
330
304
100
AcDbEntity
  8
LAYER3
100
AcDbVertex
100
AcDb2dVertex
 10
170.5726580510997
 20
184.3655174919512
 30
0.0
  0
VERTEX
  5
313
330
304
100
AcDbEntity
  8
LAYER3
100
AcDbVertex
100
AcDb2dVertex
 10
170.6053553710842
 20
184.3585938164141
 30
0.0
  0
VERTEX
  5
314
330
304
100
AcDbEntity
  8
LAYER3
100
AcDbVertex
100
AcDb2dVertex
 10
170.63749538764
 20
184.3528717705157
 30
0.0
  0
VERTEX
  5
315
330
304
100
AcDbEntity
  8
LAYER3
100
AcDbVertex
100
AcDb2dVertex
 10
170.6689547191524
 20
184.3482941337969
 30
0.0
  0
VERTEX
  5
316
330
304
100
AcDbEntity
  8
LAYER3
100
AcDbVertex
100
AcDb2dVertex
 10
170.6996129642391
 20
184.3448418327715
 30
0.0
  0
VERTEX
  5
317
330
304
100
AcDbEntity
  8
LAYER3
100
AcDbVertex
100
AcDb2dVertex
 10
170.7298957000637
 20
184.3423813530352
 30
0.0
  0
VERTEX
  5
318
330
304
100
AcDbEntity
  8
LAYER3
100
AcDbVertex
100
AcDb2dVertex
 10
170.7601694951915
 20
184.3408554741289
 30
0.0
  0
VERTEX
  5
319
330
304
100
AcDbEntity
  8
LAYER3
100
AcDbVertex
100
AcDb2dVertex
 10
170.7904009710216
 20
184.3402451225665
 30
0.0
  0
VERTEX
  5
31A
330
304
100
AcDbEntity
  8
LAYER3
100
AcDbVertex
100
AcDb2dVertex
 10
170.8205579410457
 20
184.3405502983477
 30
0.0
  0
VERTEX
  5
31B
330
304
100
AcDbEntity
  8
LAYER3
100
AcDbVertex
100
AcDb2dVertex
 10
170.8506076227092
 20
184.3417519279864
 30
0.0
  0
VERTEX
  5
31C
330
304
100
AcDbEntity
  8
LAYER3
100
AcDbVertex
100
AcDb2dVertex
 10
170.8805178295039
 20
184.3438500114825
 30
0.0
  0
VERTEX
  5
31D
330
304
100
AcDbEntity
  8
LAYER3
100
AcDbVertex
100
AcDb2dVertex
 10
170.9102551828288
 20
184.3468254753497
 30
0.0
  0
SEQEND
  5
31E
330
304
100
AcDbEntity
  8
LAYER3
  0
POLYLINE
  5
31F
330
2
100
AcDbEntity
  8
LAYER3
100
AcDb2dPolyline
 66
     1
 10
0.0
 20
0.0
 30
0.0
 70
   128
  0
VERTEX
  5
320
330
31F
100
AcDbEntity
  8
LAYER3
100
AcDbVertex
100
AcDb2dVertex
 10
170.9102551828288
 20
184.3468254753497
 30
0.0
  0
VERTEX
  5
321
330
31F
100
AcDbEntity
  8
LAYER3
100
AcDbVertex
100
AcDb2dVertex
 10
171.0434667955302
 20
184.3555229851153
 30
0.0
  0
VERTEX
  5
322
330
31F
100
AcDbEntity
  8
LAYER3
100
AcDbVertex
100
AcDb2dVertex
 10
171.1783807168864
 20
184.3509072014239
 30
0.0
  0
VERTEX
  5
323
330
31F
100
AcDbEntity
  8
LAYER3
100
AcDbVertex
100
AcDb2dVertex
 10
171.3135151754282
 20
184.3326538750078
 30
0.0
  0
VERTEX
  5
324
330
31F
100
AcDbEntity
  8
LAYER3
100
AcDbVertex
100
AcDb2dVertex
 10
171.4479856382273
 20
184.300286168709
 30
0.0
  0
VERTEX
  5
325
330
31F
100
AcDbEntity
  8
LAYER3
100
AcDbVertex
100
AcDb2dVertex
 10
171.5875278602502
 20
184.2504280754473
 30
0.0
  0
VERTEX
  5
326
330
31F
100
AcDbEntity
  8
LAYER3
100
AcDbVertex
100
AcDb2dVertex
 10
171.7283593307397
 20
184.1815918632891
 30
0.0
  0
VERTEX
  5
327
330
31F
100
AcDbEntity
  8
LAYER3
100
AcDbVertex
100
AcDb2dVertex
 10
171.8635033260247
 20
184.0941208549883
 30
0.0
  0
VERTEX
  5
328
330
31F
100
AcDbEntity
  8
LAYER3
100
AcDbVertex
100
AcDb2dVertex
 10
171.986927856054
 20
183.9920014091875
 30
0.0
  0
VERTEX
  5
329
330
31F
100
AcDbEntity
  8
LAYER3
100
AcDbVertex
100
AcDb2dVertex
 10
172.0983050952813
 20
183.8744515129473
 30
0.0
  0
VERTEX
  5
32A
330
31F
100
AcDbEntity
  8
LAYER3
100
AcDbVertex
100
AcDb2dVertex
 10
172.2008489261528
 20
183.7355393120196
 30
0.0
  0
VERTEX
  5
32B
330
31F
100
AcDbEntity
  8
LAYER3
100
AcDbVertex
100
AcDb2dVertex
 10
172.2859452854057
 20
183.5816162773516
 30
0.0
  0
VERTEX
  5
32C
330
31F
100
AcDbEntity
  8
LAYER3
100
AcDbVertex
100
AcDb2dVertex
 10
172.3490415702721
 20
183.4229057976153
 30
0.0
  0
VERTEX
  5
32D
330
31F
100
AcDbEntity
  8
LAYER3
100
AcDbVertex
100
AcDb2dVertex
 10
172.3912786136528
 20
183.2574433037188
 30
0.0
  0
VERTEX
  5
32E
330
31F
100
AcDbEntity
  8
LAYER3
100
AcDbVertex
100
AcDb2dVertex
 10
172.4129031787773
 20
183.0829018303301
 30
0.0
  0
VERTEX
  5
32F
330
31F
100
AcDbEntity
  8
LAYER3
100
AcDbVertex
100
AcDb2dVertex
 10
172.411595452871
 20
182.9102295586016
 30
0.0
  0
VERTEX
  5
330
330
31F
100
AcDbEntity
  8
LAYER3
100
AcDbVertex
100
AcDb2dVertex
 10
172.3905871997735
 20
182.7496689506914
 30
0.0
  0
VERTEX
  5
331
330
31F
100
AcDbEntity
  8
LAYER3
100
AcDbVertex
100
AcDb2dVertex
 10
172.3507593761346
 20
182.5945061394121
 30
0.0
  0
VERTEX
  5
332
330
31F
100
AcDbEntity
  8
LAYER3
100
AcDbVertex
100
AcDb2dVertex
 10
172.2928331981561
 20
182.4443024345782
 30
0.0
  0
VERTEX
  5
333
330
31F
100
AcDbEntity
  8
LAYER3
100
AcDbVertex
100
AcDb2dVertex
 10
172.2193597446344
 20
182.3058479973223
 30
0.0
  0
VERTEX
  5
334
330
31F
100
AcDbEntity
  8
LAYER3
100
AcDbVertex
100
AcDb2dVertex
 10
172.1357737670801
 20
182.1834915825274
 30
0.0
  0
VERTEX
  5
335
330
31F
100
AcDbEntity
  8
LAYER3
100
AcDbVertex
100
AcDb2dVertex
 10
172.0460199008844
 20
182.0782440849688
 30
0.0
  0
VERTEX
  5
336
330
31F
100
AcDbEntity
  8
LAYER3
100
AcDbVertex
100
AcDb2dVertex
 10
171.9474135528468
 20
181.9840592094805
 30
0.0
  0
VERTEX
  5
337
330
31F
100
AcDbEntity
  8
LAYER3
100
AcDbVertex
100
AcDb2dVertex
 10
171.8409787307642
 20
181.9010323234942
 30
0.0
  0
VERTEX
  5
338
330
31F
100
AcDbEntity
  8
LAYER3
100
AcDbVertex
100
AcDb2dVertex
 10
171.7281030307674
 20
181.829754705086
 30
0.0
  0
SEQEND
  5
339
330
31F
100
AcDbEntity
  8
LAYER3
  0
POLYLINE
  5
33A
330
2
100
AcDbEntity
  8
LAYER3
100
AcDb2dPolyline
 66
     1
 10
0.0
 20
0.0
 30
0.0
 70
   128
  0
VERTEX
  5
33B
330
33A
100
AcDbEntity
  8
LAYER3
100
AcDbVertex
100
AcDb2dVertex
 10
171.7281030307674
 20
181.829754705086
 30
0.0
  0
VERTEX
  5
33C
330
33A
100
AcDbEntity
  8
LAYER3
100
AcDbVertex
100
AcDb2dVertex
 10
171.7022918353938
 20
181.8146866508867
 30
0.0
  0
VERTEX
  5
33D
330
33A
100
AcDbEntity
  8
LAYER3
100
AcDbVertex
100
AcDb2dVertex
 10
171.6768621097469
 20
181.7987984367754
 30
0.0
  0
VERTEX
  5
33E
330
33A
100
AcDbEntity
  8
LAYER3
100
AcDbVertex
100
AcDb2dVertex
 10
171.6518448482418
 20
181.7821091362383
 30
0.0
  0
VERTEX
  5
33F
330
33A
100
AcDbEntity
  8
LAYER3
100
AcDbVertex
100
AcDb2dVertex
 10
171.6272722373867
 20
181.7646378227618
 30
0.0
  0
VERTEX
  5
340
330
33A
100
AcDbEntity
  8
LAYER3
100
AcDbVertex
100
AcDb2dVertex
 10
171.6031728874111
 20
181.7463654228594
 30
0.0
  0
VERTEX
  5
341
330
33A
100
AcDbEntity
  8
LAYER3
100
AcDbVertex
100
AcDb2dVertex
 10
171.5795777927303
 20
181.7273300835039
 30
0.0
  0
VERTEX
  5
342
330
33A
100
AcDbEntity
  8
LAYER3
100
AcDbVertex
100
AcDb2dVertex
 10
171.5565203319454
 20
181.7075508781817
 30
0.0
  0
VERTEX
  5
343
330
33A
100
AcDbEntity
  8
LAYER3
100
AcDbVertex
100
AcDb2dVertex
 10
171.5337465892696
 20
181.6867417045977
 30
0.0
  0
VERTEX
  5
344
330
33A
100
AcDbEntity
  8
LAYER3
100
AcDbVertex
100
AcDb2dVertex
 10
171.5109811912441
 20
181.6645592399981
 30
0.0
  0
VERTEX
  5
345
330
33A
100
AcDbEntity
  8
LAYER3
100
AcDbVertex
100
AcDb2dVertex
 10
171.4883451352978
 20
181.6410225578692
 30
0.0
  0
VERTEX
  5
346
330
33A
100
AcDbEntity
  8
LAYER3
100
AcDbVertex
100
AcDb2dVertex
 10
171.4659629951381
 20
181.6162079521563
 30
0.0
  0
VERTEX
  5
347
330
33A
100
AcDbEntity
  8
LAYER3
100
AcDbVertex
100
AcDb2dVertex
 10
171.4439593444729
 20
181.5901154228594
 30
0.0
  0
VERTEX
  5
348
330
33A
100
AcDbEntity
  8
LAYER3
100
AcDbVertex
100
AcDb2dVertex
 10
171.4224575649166
 20
181.5628212639239
 30
0.0
  0
VERTEX
  5
349
330
33A
100
AcDbEntity
  8
LAYER3
100
AcDbVertex
100
AcDb2dVertex
 10
171.401582230177
 20
181.5343254753497
 30
0.0
  0
VERTEX
  5
34A
330
33A
100
AcDbEntity
  8
LAYER3
100
AcDbVertex
100
AcDb2dVertex
 10
171.3814567218685
 20
181.5047043510821
 30
0.0
  0
VERTEX
  5
34B
330
33A
100
AcDbEntity
  8
LAYER3
100
AcDbVertex
100
AcDb2dVertex
 10
171.362205613699
 20
181.4739578911211
 30
0.0
  0
VERTEX
  5
34C
330
33A
100
AcDbEntity
  8
LAYER3
100
AcDbVertex
100
AcDb2dVertex
 10
171.3439355979824
 20
181.4421623894121
 30
0.0
  0
VERTEX
  5
34D
330
33A
100
AcDbEntity
  8
LAYER3
100
AcDbVertex
100
AcDb2dVertex
 10
171.3267122398282
 20
181.4094132133868
 30
0.0
  0
VERTEX
  5
34E
330
33A
100
AcDbEntity
  8
LAYER3
100
AcDbVertex
100
AcDb2dVertex
 10
171.3105969320202
 20
181.3758629509356
 30
0.0
  0
VERTEX
  5
34F
330
33A
100
AcDbEntity
  8
LAYER3
100
AcDbVertex
100
AcDb2dVertex
 10
171.2956516633892
 20
181.3416069694903
 30
0.0
  0
VERTEX
  5
350
330
33A
100
AcDbEntity
  8
LAYER3
100
AcDbVertex
100
AcDb2dVertex
 10
171.2819378267193
 20
181.3067787834551
 30
0.0
  0
VERTEX
  5
351
330
33A
100
AcDbEntity
  8
LAYER3
100
AcDbVertex
100
AcDb2dVertex
 10
171.269517410841
 20
181.2715119072344
 30
0.0
  0
VERTEX
  5
352
330
33A
100
AcDbEntity
  8
LAYER3
100
AcDbVertex
100
AcDb2dVertex
 10
171.2584518085385
 20
181.2359398552325
 30
0.0
  0
VERTEX
  5
353
330
33A
100
AcDbEntity
  8
LAYER3
100
AcDbVertex
100
AcDb2dVertex
 10
171.2488036046887
 20
181.2001579948809
 30
0.0
  0
SEQEND
  5
354
330
33A
100
AcDbEntity
  8
LAYER3
  0
POLYLINE
  5
355
330
2
100
AcDbEntity
  8
LAYER3
100
AcDb2dPolyline
 66
     1
 10
0.0
 20
0.0
 30
0.0
 70
   128
  0
VERTEX
  5
356
330
355
100
AcDbEntity
  8
LAYER3
100
AcDbVertex
100
AcDb2dVertex
 10
164.2678125391864
 20
181.829754705086
 30
0.0
  0
VERTEX
  5
357
330
355
100
AcDbEntity
  8
LAYER3
100
AcDbVertex
100
AcDb2dVertex
 10
164.1549371372126
 20
181.9010323234942
 30
0.0
  0
VERTEX
  5
358
330
355
100
AcDbEntity
  8
LAYER3
100
AcDbVertex
100
AcDb2dVertex
 10
164.0485020171069
 20
181.9840592094805
 30
0.0
  0
VERTEX
  5
359
330
355
100
AcDbEntity
  8
LAYER3
100
AcDbVertex
100
AcDb2dVertex
 10
163.9498961161039
 20
182.0782440849688
 30
0.0
  0
VERTEX
  5
35A
330
355
100
AcDbEntity
  8
LAYER3
100
AcDbVertex
100
AcDb2dVertex
 10
163.8601418028734
 20
182.1834915825274
 30
0.0
  0
VERTEX
  5
35B
330
355
100
AcDbEntity
  8
LAYER3
100
AcDbVertex
100
AcDb2dVertex
 10
163.7765552292726
 20
182.3058479973223
 30
0.0
  0
VERTEX
  5
35C
330
355
100
AcDbEntity
  8
LAYER3
100
AcDbVertex
100
AcDb2dVertex
 10
163.7030828188321
 20
182.4443024345782
 30
0.0
  0
VERTEX
  5
35D
330
355
100
AcDbEntity
  8
LAYER3
100
AcDbVertex
100
AcDb2dVertex
 10
163.6451555977723
 20
182.5945061394121
 30
0.0
  0
VERTEX
  5
35E
330
355
100
AcDbEntity
  8
LAYER3
100
AcDbVertex
100
AcDb2dVertex
 10
163.605328668203
 20
182.7496689506914
 30
0.0
  0
VERTEX
  5
35F
330
355
100
AcDbEntity
  8
LAYER3
100
AcDbVertex
100
AcDb2dVertex
 10
163.5843202660939
 20
182.9102295586016
 30
0.0
  0
VERTEX
  5
360
330
355
100
AcDbEntity
  8
LAYER3
100
AcDbVertex
100
AcDb2dVertex
 10
163.5830126891991
 20
183.0829018303301
 30
0.0
  0
VERTEX
  5
361
330
355
100
AcDbEntity
  8
LAYER3
100
AcDbVertex
100
AcDb2dVertex
 10
163.6046372543236
 20
183.2574433037188
 30
0.0
  0
VERTEX
  5
362
330
355
100
AcDbEntity
  8
LAYER3
100
AcDbVertex
100
AcDb2dVertex
 10
163.6468741486927
 20
183.4229057976153
 30
0.0
  0
VERTEX
  5
363
330
355
100
AcDbEntity
  8
LAYER3
100
AcDbVertex
100
AcDb2dVertex
 10
163.7099702845475
 20
183.5816162773516
 30
0.0
  0
VERTEX
  5
364
330
355
100
AcDbEntity
  8
LAYER3
100
AcDbVertex
100
AcDb2dVertex
 10
163.7950661967655
 20
183.7355393120196
 30
0.0
  0
VERTEX
  5
365
330
355
100
AcDbEntity
  8
LAYER3
100
AcDbVertex
100
AcDb2dVertex
 10
163.8976106236836
 20
183.8744515129473
 30
0.0
  0
VERTEX
  5
366
330
355
100
AcDbEntity
  8
LAYER3
100
AcDbVertex
100
AcDb2dVertex
 10
164.0089871178529
 20
183.9920014091875
 30
0.0
  0
VERTEX
  5
367
330
355
100
AcDbEntity
  8
LAYER3
100
AcDbVertex
100
AcDb2dVertex
 10
164.1324116478822
 20
184.0941208549883
 30
0.0
  0
VERTEX
  5
368
330
355
100
AcDbEntity
  8
LAYER3
100
AcDbVertex
100
AcDb2dVertex
 10
164.2675565372369
 20
184.1815918632891
 30
0.0
  0
VERTEX
  5
369
330
355
100
AcDbEntity
  8
LAYER3
100
AcDbVertex
100
AcDb2dVertex
 10
164.4083880077265
 20
184.2504280754473
 30
0.0
  0
VERTEX
  5
36A
330
355
100
AcDbEntity
  8
LAYER3
100
AcDbVertex
100
AcDb2dVertex
 10
164.5479299317263
 20
184.300286168709
 30
0.0
  0
VERTEX
  5
36B
330
355
100
AcDbEntity
  8
LAYER3
100
AcDbVertex
100
AcDb2dVertex
 10
164.6824003945253
 20
184.3326538750078
 30
0.0
  0
VERTEX
  5
36C
330
355
100
AcDbEntity
  8
LAYER3
100
AcDbVertex
100
AcDb2dVertex
 10
164.817534555044
 20
184.3509072014239
 30
0.0
  0
VERTEX
  5
36D
330
355
100
AcDbEntity
  8
LAYER3
100
AcDbVertex
100
AcDb2dVertex
 10
164.9524484764002
 20
184.3555229851153
 30
0.0
  0
VERTEX
  5
36E
330
355
100
AcDbEntity
  8
LAYER3
100
AcDbVertex
100
AcDb2dVertex
 10
165.0856600891017
 20
184.3468254753497
 30
0.0
  0
SEQEND
  5
36F
330
355
100
AcDbEntity
  8
LAYER3
  0
POLYLINE
  5
370
330
2
100
AcDbEntity
  8
LAYER3
100
AcDb2dPolyline
 66
     1
 10
0.0
 20
0.0
 30
0.0
 70
   128
  0
VERTEX
  5
371
330
370
100
AcDbEntity
  8
LAYER3
100
AcDbVertex
100
AcDb2dVertex
 10
164.7471119652653
 20
181.2001579948809
 30
0.0
  0
VERTEX
  5
372
330
370
100
AcDbEntity
  8
LAYER3
100
AcDbVertex
100
AcDb2dVertex
 10
164.7374637614155
 20
181.2359398552325
 30
0.0
  0
VERTEX
  5
373
330
370
100
AcDbEntity
  8
LAYER3
100
AcDbVertex
100
AcDb2dVertex
 10
164.726398159113
 20
181.2715119072344
 30
0.0
  0
VERTEX
  5
374
330
370
100
AcDbEntity
  8
LAYER3
100
AcDbVertex
100
AcDb2dVertex
 10
164.7139780412579
 20
181.3067787834551
 30
0.0
  0
VERTEX
  5
375
330
370
100
AcDbEntity
  8
LAYER3
100
AcDbVertex
100
AcDb2dVertex
 10
164.700264204588
 20
181.3416069694903
 30
0.0
  0
VERTEX
  5
376
330
370
100
AcDbEntity
  8
LAYER3
100
AcDbVertex
100
AcDb2dVertex
 10
164.6853186379338
 20
181.3758629509356
 30
0.0
  0
VERTEX
  5
377
330
370
100
AcDbEntity
  8
LAYER3
100
AcDbVertex
100
AcDb2dVertex
 10
164.6692033301258
 20
181.4094132133868
 30
0.0
  0
VERTEX
  5
378
330
370
100
AcDbEntity
  8
LAYER3
100
AcDbVertex
100
AcDb2dVertex
 10
164.6519796739483
 20
181.4421623894121
 30
0.0
  0
VERTEX
  5
379
330
370
100
AcDbEntity
  8
LAYER3
100
AcDbVertex
100
AcDb2dVertex
 10
164.6337096582318
 20
181.4739578911211
 30
0.0
  0
VERTEX
  5
37A
330
370
100
AcDbEntity
  8
LAYER3
100
AcDbVertex
100
AcDb2dVertex
 10
164.6144588480854
 20
181.5047043510821
 30
0.0
  0
VERTEX
  5
37B
330
370
100
AcDbEntity
  8
LAYER3
100
AcDbVertex
100
AcDb2dVertex
 10
164.594333339777
 20
181.5343254753497
 30
0.0
  0
VERTEX
  5
37C
330
370
100
AcDbEntity
  8
LAYER3
100
AcDbVertex
100
AcDb2dVertex
 10
164.5734577070141
 20
181.5628212639239
 30
0.0
  0
VERTEX
  5
37D
330
370
100
AcDbEntity
  8
LAYER3
100
AcDbVertex
100
AcDb2dVertex
 10
164.5519559274578
 20
181.5901154228594
 30
0.0
  0
VERTEX
  5
37E
330
370
100
AcDbEntity
  8
LAYER3
100
AcDbVertex
100
AcDb2dVertex
 10
164.5299522767925
 20
181.6162079521563
 30
0.0
  0
VERTEX
  5
37F
330
370
100
AcDbEntity
  8
LAYER3
100
AcDbVertex
100
AcDb2dVertex
 10
164.5075707326793
 20
181.6410225578692
 30
0.0
  0
VERTEX
  5
380
330
370
100
AcDbEntity
  8
LAYER3
100
AcDbVertex
100
AcDb2dVertex
 10
164.484934676733
 20
181.6645592399981
 30
0.0
  0
VERTEX
  5
381
330
370
100
AcDbEntity
  8
LAYER3
100
AcDbVertex
100
AcDb2dVertex
 10
164.462168682661
 20
181.6867417045977
 30
0.0
  0
VERTEX
  5
382
330
370
100
AcDbEntity
  8
LAYER3
100
AcDbVertex
100
AcDb2dVertex
 10
164.4393949399852
 20
181.7075508781817
 30
0.0
  0
VERTEX
  5
383
330
370
100
AcDbEntity
  8
LAYER3
100
AcDbVertex
100
AcDb2dVertex
 10
164.4163371811771
 20
181.7273300835039
 30
0.0
  0
VERTEX
  5
384
330
370
100
AcDbEntity
  8
LAYER3
100
AcDbVertex
100
AcDb2dVertex
 10
164.392742980566
 20
181.7463654228594
 30
0.0
  0
VERTEX
  5
385
330
370
100
AcDbEntity
  8
LAYER3
100
AcDbVertex
100
AcDb2dVertex
 10
164.3686436305904
 20
181.7646378227618
 30
0.0
  0
VERTEX
  5
386
330
370
100
AcDbEntity
  8
LAYER3
100
AcDbVertex
100
AcDb2dVertex
 10
164.3440701256656
 20
181.7821091362383
 30
0.0
  0
VERTEX
  5
387
330
370
100
AcDbEntity
  8
LAYER3
100
AcDbVertex
100
AcDb2dVertex
 10
164.3190531621837
 20
181.7987984367754
 30
0.0
  0
VERTEX
  5
388
330
370
100
AcDbEntity
  8
LAYER3
100
AcDbVertex
100
AcDb2dVertex
 10
164.2936234365367
 20
181.8146866508867
 30
0.0
  0
VERTEX
  5
389
330
370
100
AcDbEntity
  8
LAYER3
100
AcDbVertex
100
AcDb2dVertex
 10
164.2678125391864
 20
181.829754705086
 30
0.0
  0
SEQEND
  5
38A
330
370
100
AcDbEntity
  8
LAYER3
  0
ARC
  5
38B
330
2
100
AcDbEntity
  8
LAYER3
100
AcDbCircle
 10
167.9979577453335
 20
182.009162554367
 30
0.0
 40
3.349999999999185
100
AcDbArc
 50
193.9748830508235
 51
202.0251169491772
  0
POLYLINE
  5
38C
330
2
100
AcDbEntity
  8
LAYER3
100
AcDb2dPolyline
 66
     1
 10
0.0
 20
0.0
 30
0.0
 70
   128
  0
VERTEX
  5
38D
330
38C
100
AcDbEntity
  8
LAYER3
100
AcDbVertex
100
AcDb2dVertex
 10
164.8747535239124
 20
179.9617737480547
 30
0.0
  0
VERTEX
  5
38E
330
38C
100
AcDbEntity
  8
LAYER3
100
AcDbVertex
100
AcDb2dVertex
 10
164.886779059019
 20
179.9891442009356
 30
0.0
  0
VERTEX
  5
38F
330
38C
100
AcDbEntity
  8
LAYER3
100
AcDbVertex
100
AcDb2dVertex
 10
164.8980148325824
 20
180.0169342705157
 30
0.0
  0
VERTEX
  5
390
330
38C
100
AcDbEntity
  8
LAYER3
100
AcDbVertex
100
AcDb2dVertex
 10
164.9084435592556
 20
180.045143956795
 30
0.0
  0
VERTEX
  5
391
330
38C
100
AcDbEntity
  8
LAYER3
100
AcDbVertex
100
AcDb2dVertex
 10
164.918047357645
 20
180.0737351128008
 30
0.0
  0
VERTEX
  5
392
330
38C
100
AcDbEntity
  8
LAYER3
100
AcDbVertex
100
AcDb2dVertex
 10
164.9268095384502
 20
180.1026695915606
 30
0.0
  0
VERTEX
  5
393
330
38C
100
AcDbEntity
  8
LAYER3
100
AcDbVertex
100
AcDb2dVertex
 10
164.9347119222545
 20
180.1319473930743
 30
0.0
  0
VERTEX
  5
394
330
38C
100
AcDbEntity
  8
LAYER3
100
AcDbVertex
100
AcDb2dVertex
 10
164.9417375217342
 20
180.1614922233965
 30
0.0
  0
VERTEX
  5
395
330
38C
100
AcDbEntity
  8
LAYER3
100
AcDbVertex
100
AcDb2dVertex
 10
164.9479277621174
 20
180.1917236992266
 30
0.0
  0
VERTEX
  5
396
330
38C
100
AcDbEntity
  8
LAYER3
100
AcDbVertex
100
AcDb2dVertex
 10
164.9533046971225
 20
180.2230614372637
 30
0.0
  0
VERTEX
  5
397
330
38C
100
AcDbEntity
  8
LAYER3
100
AcDbVertex
100
AcDb2dVertex
 10
164.9577905426883
 20
180.2553909965899
 30
0.0
  0
VERTEX
  5
398
330
38C
100
AcDbEntity
  8
LAYER3
100
AcDbVertex
100
AcDb2dVertex
 10
164.9613075147533
 20
180.2886360832598
 30
0.0
  0
VERTEX
  5
399
330
38C
100
AcDbEntity
  8
LAYER3
100
AcDbVertex
100
AcDb2dVertex
 10
164.963777829256
 20
180.3226631828692
 30
0.0
  0
VERTEX
  5
39A
330
38C
100
AcDbEntity
  8
LAYER3
100
AcDbVertex
100
AcDb2dVertex
 10
164.9651240001583
 20
180.3573960014727
 30
0.0
  0
VERTEX
  5
39B
330
38C
100
AcDbEntity
  8
LAYER3
100
AcDbVertex
100
AcDb2dVertex
 10
164.9652679453755
 20
180.3927010246661
 30
0.0
  0
VERTEX
  5
39C
330
38C
100
AcDbEntity
  8
LAYER3
100
AcDbVertex
100
AcDb2dVertex
 10
164.9641318808461
 20
180.4285210319903
 30
0.0
  0
VERTEX
  5
39D
330
38C
100
AcDbEntity
  8
LAYER3
100
AcDbVertex
100
AcDb2dVertex
 10
164.9616359363461
 20
180.4647034355547
 30
0.0
  0
VERTEX
  5
39E
330
38C
100
AcDbEntity
  8
LAYER3
100
AcDbVertex
100
AcDb2dVertex
 10
164.9577249775792
 20
180.5011719414141
 30
0.0
  0
VERTEX
  5
39F
330
38C
100
AcDbEntity
  8
LAYER3
100
AcDbVertex
100
AcDb2dVertex
 10
164.9524145017529
 20
180.5377739616778
 30
0.0
  0
VERTEX
  5
3A0
330
38C
100
AcDbEntity
  8
LAYER3
100
AcDbVertex
100
AcDb2dVertex
 10
164.9457274566555
 20
180.5743950554278
 30
0.0
  0
VERTEX
  5
3A1
330
38C
100
AcDbEntity
  8
LAYER3
100
AcDbVertex
100
AcDb2dVertex
 10
164.9376864920521
 20
180.6109017082598
 30
0.0
  0
VERTEX
  5
3A2
330
38C
100
AcDbEntity
  8
LAYER3
100
AcDbVertex
100
AcDb2dVertex
 10
164.9283145557309
 20
180.6471222587969
 30
0.0
  0
VERTEX
  5
3A3
330
38C
100
AcDbEntity
  8
LAYER3
100
AcDbVertex
100
AcDb2dVertex
 10
164.91763459548
 20
180.6829613396075
 30
0.0
  0
VERTEX
  5
3A4
330
38C
100
AcDbEntity
  8
LAYER3
100
AcDbVertex
100
AcDb2dVertex
 10
164.9056695590878
 20
180.7182472893145
 30
0.0
  0
VERTEX
  5
3A5
330
38C
100
AcDbEntity
  8
LAYER3
100
AcDbVertex
100
AcDb2dVertex
 10
164.8924423943425
 20
180.752865667
 30
0.0
  0
SEQEND
  5
3A6
330
38C
100
AcDbEntity
  8
LAYER3
  0
POLYLINE
  5
3A7
330
2
100
AcDbEntity
  8
LAYER3
100
AcDb2dPolyline
 66
     1
 10
0.0
 20
0.0
 30
0.0
 70
   128
  0
VERTEX
  5
3A8
330
3A7
100
AcDbEntity
  8
LAYER3
100
AcDbVertex
100
AcDb2dVertex
 10
167.0159064422511
 20
178.4061402031329
 30
0.0
  0
VERTEX
  5
3A9
330
3A7
100
AcDbEntity
  8
LAYER3
100
AcDbVertex
100
AcDb2dVertex
 10
166.9132410179041
 20
178.3208244987872
 30
0.0
  0
VERTEX
  5
3AA
330
3A7
100
AcDbEntity
  8
LAYER3
100
AcDbVertex
100
AcDb2dVertex
 10
166.8013809810541
 20
178.2452553459551
 30
0.0
  0
VERTEX
  5
3AB
330
3A7
100
AcDbEntity
  8
LAYER3
100
AcDbVertex
100
AcDb2dVertex
 10
166.6813348422907
 20
178.1805771538165
 30
0.0
  0
VERTEX
  5
3AC
330
3A7
100
AcDbEntity
  8
LAYER3
100
AcDbVertex
100
AcDb2dVertex
 10
166.5535108934305
 20
178.1277435966875
 30
0.0
  0
VERTEX
  5
3AD
330
3A7
100
AcDbEntity
  8
LAYER3
100
AcDbVertex
100
AcDb2dVertex
 10
166.4113144765756
 20
178.0860489555743
 30
0.0
  0
VERTEX
  5
3AE
330
3A7
100
AcDbEntity
  8
LAYER3
100
AcDbVertex
100
AcDb2dVertex
 10
166.2569169889352
 20
178.0589646049883
 30
0.0
  0
VERTEX
  5
3AF
330
3A7
100
AcDbEntity
  8
LAYER3
100
AcDbVertex
100
AcDb2dVertex
 10
166.0961748848817
 20
178.050286168709
 30
0.0
  0
VERTEX
  5
3B0
330
3A7
100
AcDbEntity
  8
LAYER3
100
AcDbVertex
100
AcDb2dVertex
 10
165.9362967501542
 20
178.0603569694903
 30
0.0
  0
VERTEX
  5
3B1
330
3A7
100
AcDbEntity
  8
LAYER3
100
AcDbVertex
100
AcDb2dVertex
 10
165.7770942340752
 20
178.0899971672442
 30
0.0
  0
VERTEX
  5
3B2
330
3A7
100
AcDbEntity
  8
LAYER3
100
AcDbVertex
100
AcDb2dVertex
 10
165.61248140439
 20
178.1421059318926
 30
0.0
  0
VERTEX
  5
3B3
330
3A7
100
AcDbEntity
  8
LAYER3
100
AcDbVertex
100
AcDb2dVertex
 10
165.4531689177414
 20
178.2166069694903
 30
0.0
  0
VERTEX
  5
3B4
330
3A7
100
AcDbEntity
  8
LAYER3
100
AcDbVertex
100
AcDb2dVertex
 10
165.3088401447197
 20
178.307911748543
 30
0.0
  0
VERTEX
  5
3B5
330
3A7
100
AcDbEntity
  8
LAYER3
100
AcDbVertex
100
AcDb2dVertex
 10
165.1774032603165
 20
178.4169548698809
 30
0.0
  0
VERTEX
  5
3B6
330
3A7
100
AcDbEntity
  8
LAYER3
100
AcDbVertex
100
AcDb2dVertex
 10
165.0573180805108
 20
178.5454529472735
 30
0.0
  0
VERTEX
  5
3B7
330
3A7
100
AcDbEntity
  8
LAYER3
100
AcDbVertex
100
AcDb2dVertex
 10
164.9568893204591
 20
178.6859101005938
 30
0.0
  0
VERTEX
  5
3B8
330
3A7
100
AcDbEntity
  8
LAYER3
100
AcDbVertex
100
AcDb2dVertex
 10
164.8795052061936
 20
178.8281601616289
 30
0.0
  0
VERTEX
  5
3B9
330
3A7
100
AcDbEntity
  8
LAYER3
100
AcDbVertex
100
AcDb2dVertex
 10
164.8205219398401
 20
178.9771050163653
 30
0.0
  0
VERTEX
  5
3BA
330
3A7
100
AcDbEntity
  8
LAYER3
100
AcDbVertex
100
AcDb2dVertex
 10
164.7791050563714
 20
179.1326492973711
 30
0.0
  0
VERTEX
  5
3BB
330
3A7
100
AcDbEntity
  8
LAYER3
100
AcDbVertex
100
AcDb2dVertex
 10
164.75715445384
 20
179.2878693291094
 30
0.0
  0
VERTEX
  5
3BC
330
3A7
100
AcDbEntity
  8
LAYER3
100
AcDbVertex
100
AcDb2dVertex
 10
164.7528590451143
 20
179.4359940239336
 30
0.0
  0
VERTEX
  5
3BD
330
3A7
100
AcDbEntity
  8
LAYER3
100
AcDbVertex
100
AcDb2dVertex
 10
164.7636138091944
 20
179.5738762565997
 30
0.0
  0
VERTEX
  5
3BE
330
3A7
100
AcDbEntity
  8
LAYER3
100
AcDbVertex
100
AcDb2dVertex
 10
164.788027275648
 20
179.7080391594317
 30
0.0
  0
VERTEX
  5
3BF
330
3A7
100
AcDbEntity
  8
LAYER3
100
AcDbVertex
100
AcDb2dVertex
 10
164.8253290544413
 20
179.8377770134356
 30
0.0
  0
VERTEX
  5
3C0
330
3A7
100
AcDbEntity
  8
LAYER3
100
AcDbVertex
100
AcDb2dVertex
 10
164.8747535239124
 20
179.9617737480547
 30
0.0
  0
SEQEND
  5
3C1
330
3A7
100
AcDbEntity
  8
LAYER3
  0
POLYLINE
  5
3C2
330
2
100
AcDbEntity
  8
LAYER3
100
AcDb2dPolyline
 66
     1
 10
0.0
 20
0.0
 30
0.0
 70
   128
  0
VERTEX
  5
3C3
330
3C2
100
AcDbEntity
  8
LAYER3
100
AcDbVertex
100
AcDb2dVertex
 10
167.762808669653
 20
178.6674278923418
 30
0.0
  0
VERTEX
  5
3C4
330
3C2
100
AcDbEntity
  8
LAYER3
100
AcDbVertex
100
AcDb2dVertex
 10
167.7257947812939
 20
178.6693161674883
 30
0.0
  0
VERTEX
  5
3C5
330
3C2
100
AcDbEntity
  8
LAYER3
100
AcDbVertex
100
AcDb2dVertex
 10
167.6885305534268
 20
178.6697739311602
 30
0.0
  0
VERTEX
  5
3C6
330
3C2
100
AcDbEntity
  8
LAYER3
100
AcDbVertex
100
AcDb2dVertex
 10
167.651153672781
 20
178.6688584038165
 30
0.0
  0
VERTEX
  5
3C7
330
3C2
100
AcDbEntity
  8
LAYER3
100
AcDbVertex
100
AcDb2dVertex
 10
167.6138000379467
 20
178.6665886589434
 30
0.0
  0
VERTEX
  5
3C8
330
3C2
100
AcDbEntity
  8
LAYER3
100
AcDbVertex
100
AcDb2dVertex
 10
167.5766073356533
 20
178.6629456230547
 30
0.0
  0
VERTEX
  5
3C9
330
3C2
100
AcDbEntity
  8
LAYER3
100
AcDbVertex
100
AcDb2dVertex
 10
167.5397120605374
 20
178.6579865166094
 30
0.0
  0
VERTEX
  5
3CA
330
3C2
100
AcDbEntity
  8
LAYER3
100
AcDbVertex
100
AcDb2dVertex
 10
167.5032513032818
 20
178.6517304130938
 30
0.0
  0
VERTEX
  5
3CB
330
3C2
100
AcDbEntity
  8
LAYER3
100
AcDbVertex
100
AcDb2dVertex
 10
167.4673621545697
 20
178.6441773125079
 30
0.0
  0
VERTEX
  5
3CC
330
3C2
100
AcDbEntity
  8
LAYER3
100
AcDbVertex
100
AcDb2dVertex
 10
167.432175148573
 20
178.6353844353106
 30
0.0
  0
VERTEX
  5
3CD
330
3C2
100
AcDbEntity
  8
LAYER3
100
AcDbVertex
100
AcDb2dVertex
 10
167.397773135748
 20
178.6253899284746
 30
0.0
  0
VERTEX
  5
3CE
330
3C2
100
AcDbEntity
  8
LAYER3
100
AcDbVertex
100
AcDb2dVertex
 10
167.3642282377147
 20
178.6143463798907
 30
0.0
  0
VERTEX
  5
3CF
330
3C2
100
AcDbEntity
  8
LAYER3
100
AcDbVertex
100
AcDb2dVertex
 10
167.3316161523723
 20
178.6023300835039
 30
0.0
  0
VERTEX
  5
3D0
330
3C2
100
AcDbEntity
  8
LAYER3
100
AcDbVertex
100
AcDb2dVertex
 10
167.3000107894802
 20
178.5894554802325
 30
0.0
  0
VERTEX
  5
3D1
330
3C2
100
AcDbEntity
  8
LAYER3
100
AcDbVertex
100
AcDb2dVertex
 10
167.2694866548443
 20
178.5758560844805
 30
0.0
  0
VERTEX
  5
3D2
330
3C2
100
AcDbEntity
  8
LAYER3
100
AcDbVertex
100
AcDb2dVertex
 10
167.2401194463634
 20
178.5615891167071
 30
0.0
  0
VERTEX
  5
3D3
330
3C2
100
AcDbEntity
  8
LAYER3
100
AcDbVertex
100
AcDb2dVertex
 10
167.2119830737972
 20
178.5467880913165
 30
0.0
  0
VERTEX
  5
3D4
330
3C2
100
AcDbEntity
  8
LAYER3
100
AcDbVertex
100
AcDb2dVertex
 10
167.1851508508586
 20
178.5315674492266
 30
0.0
  0
VERTEX
  5
3D5
330
3C2
100
AcDbEntity
  8
LAYER3
100
AcDbVertex
100
AcDb2dVertex
 10
167.1592097173595
 20
178.5157555290606
 30
0.0
  0
VERTEX
  5
3D6
330
3C2
100
AcDbEntity
  8
LAYER3
100
AcDbVertex
100
AcDb2dVertex
 10
167.133820522871
 20
178.4991997429278
 30
0.0
  0
VERTEX
  5
3D7
330
3C2
100
AcDbEntity
  8
LAYER3
100
AcDbVertex
100
AcDb2dVertex
 10
167.1090041290187
 20
178.4819191643145
 30
0.0
  0
VERTEX
  5
3D8
330
3C2
100
AcDbEntity
  8
LAYER3
100
AcDbVertex
100
AcDb2dVertex
 10
167.0847825895213
 20
178.4639519401934
 30
0.0
  0
VERTEX
  5
3D9
330
3C2
100
AcDbEntity
  8
LAYER3
100
AcDbVertex
100
AcDb2dVertex
 10
167.0611779580974
 20
178.4453171440508
 30
0.0
  0
VERTEX
  5
3DA
330
3C2
100
AcDbEntity
  8
LAYER3
100
AcDbVertex
100
AcDb2dVertex
 10
167.038211692419
 20
178.4260338493731
 30
0.0
  0
VERTEX
  5
3DB
330
3C2
100
AcDbEntity
  8
LAYER3
100
AcDbVertex
100
AcDb2dVertex
 10
167.0159064422511
 20
178.4061402031329
 30
0.0
  0
SEQEND
  5
3DC
330
3C2
100
AcDbEntity
  8
LAYER3
  0
ARC
  5
3DD
330
2
100
AcDbEntity
  8
LAYER3
100
AcDbCircle
 10
167.9979577453342
 20
182.0091625543759
 30
0.0
 40
3.350000000008677
100
AcDbArc
 50
265.9748830508374
 51
274.0251169491707
  0
POLYLINE
  5
3DE
330
2
100
AcDbEntity
  8
LAYER3
100
AcDb2dPolyline
 66
     1
 10
0.0
 20
0.0
 30
0.0
 70
   128
  0
VERTEX
  5
3DF
330
3DE
100
AcDbEntity
  8
LAYER3
100
AcDbVertex
100
AcDb2dVertex
 10
168.9800088296794
 20
178.4061402031329
 30
0.0
  0
VERTEX
  5
3E0
330
3DE
100
AcDbEntity
  8
LAYER3
100
AcDbVertex
100
AcDb2dVertex
 10
168.9577035795116
 20
178.4260338493731
 30
0.0
  0
VERTEX
  5
3E1
330
3DE
100
AcDbEntity
  8
LAYER3
100
AcDbVertex
100
AcDb2dVertex
 10
168.9347379098796
 20
178.4453171440508
 30
0.0
  0
VERTEX
  5
3E2
330
3DE
100
AcDbEntity
  8
LAYER3
100
AcDbVertex
100
AcDb2dVertex
 10
168.9111332784557
 20
178.4639519401934
 30
0.0
  0
VERTEX
  5
3E3
330
3DE
100
AcDbEntity
  8
LAYER3
100
AcDbVertex
100
AcDb2dVertex
 10
168.8869117389583
 20
178.4819191643145
 30
0.0
  0
VERTEX
  5
3E4
330
3DE
100
AcDbEntity
  8
LAYER3
100
AcDbVertex
100
AcDb2dVertex
 10
168.8620953451061
 20
178.4991997429278
 30
0.0
  0
VERTEX
  5
3E5
330
3DE
100
AcDbEntity
  8
LAYER3
100
AcDbVertex
100
AcDb2dVertex
 10
168.8367055545711
 20
178.5157555290606
 30
0.0
  0
VERTEX
  5
3E6
330
3DE
100
AcDbEntity
  8
LAYER3
100
AcDbVertex
100
AcDb2dVertex
 10
168.810764421072
 20
178.5315674492266
 30
0.0
  0
VERTEX
  5
3E7
330
3DE
100
AcDbEntity
  8
LAYER3
100
AcDbVertex
100
AcDb2dVertex
 10
168.7839321981335
 20
178.5467880913165
 30
0.0
  0
VERTEX
  5
3E8
330
3DE
100
AcDbEntity
  8
LAYER3
100
AcDbVertex
100
AcDb2dVertex
 10
168.7557964216137
 20
178.5615891167071
 30
0.0
  0
VERTEX
  5
3E9
330
3DE
100
AcDbEntity
  8
LAYER3
100
AcDbVertex
100
AcDb2dVertex
 10
168.7264286170864
 20
178.5758560844805
 30
0.0
  0
VERTEX
  5
3EA
330
3DE
100
AcDbEntity
  8
LAYER3
100
AcDbVertex
100
AcDb2dVertex
 10
168.6959050784969
 20
178.5894554802325
 30
0.0
  0
VERTEX
  5
3EB
330
3DE
100
AcDbEntity
  8
LAYER3
100
AcDbVertex
100
AcDb2dVertex
 10
168.6642997156048
 20
178.6023300835039
 30
0.0
  0
VERTEX
  5
3EC
330
3DE
100
AcDbEntity
  8
LAYER3
100
AcDbVertex
100
AcDb2dVertex
 10
168.6316870342159
 20
178.6143463798907
 30
0.0
  0
VERTEX
  5
3ED
330
3DE
100
AcDbEntity
  8
LAYER3
100
AcDbVertex
100
AcDb2dVertex
 10
168.5981427322293
 20
178.6253899284746
 30
0.0
  0
VERTEX
  5
3EE
330
3DE
100
AcDbEntity
  8
LAYER3
100
AcDbVertex
100
AcDb2dVertex
 10
168.5637401233578
 20
178.6353844353106
 30
0.0
  0
VERTEX
  5
3EF
330
3DE
100
AcDbEntity
  8
LAYER3
100
AcDbVertex
100
AcDb2dVertex
 10
168.5285537134076
 20
178.6441773125079
 30
0.0
  0
VERTEX
  5
3F0
330
3DE
100
AcDbEntity
  8
LAYER3
100
AcDbVertex
100
AcDb2dVertex
 10
168.4926639686489
 20
178.6517304130938
 30
0.0
  0
VERTEX
  5
3F1
330
3DE
100
AcDbEntity
  8
LAYER3
100
AcDbVertex
100
AcDb2dVertex
 10
168.4562032113934
 20
178.6579865166094
 30
0.0
  0
VERTEX
  5
3F2
330
3DE
100
AcDbEntity
  8
LAYER3
100
AcDbVertex
100
AcDb2dVertex
 10
168.4193079362774
 20
178.6629456230547
 30
0.0
  0
VERTEX
  5
3F3
330
3DE
100
AcDbEntity
  8
LAYER3
100
AcDbVertex
100
AcDb2dVertex
 10
168.382115233984
 20
178.6665886589434
 30
0.0
  0
VERTEX
  5
3F4
330
3DE
100
AcDbEntity
  8
LAYER3
100
AcDbVertex
100
AcDb2dVertex
 10
168.3447615991497
 20
178.6688584038165
 30
0.0
  0
VERTEX
  5
3F5
330
3DE
100
AcDbEntity
  8
LAYER3
100
AcDbVertex
100
AcDb2dVertex
 10
168.307384718504
 20
178.6697739311602
 30
0.0
  0
VERTEX
  5
3F6
330
3DE
100
AcDbEntity
  8
LAYER3
100
AcDbVertex
100
AcDb2dVertex
 10
168.2701204906369
 20
178.6693161674883
 30
0.0
  0
VERTEX
  5
3F7
330
3DE
100
AcDbEntity
  8
LAYER3
100
AcDbVertex
100
AcDb2dVertex
 10
168.2331066022778
 20
178.6674278923418
 30
0.0
  0
SEQEND
  5
3F8
330
3DE
100
AcDbEntity
  8
LAYER3
  0
POLYLINE
  5
3F9
330
2
100
AcDbEntity
  8
LAYER3
100
AcDb2dPolyline
 66
     1
 10
0.0
 20
0.0
 30
0.0
 70
   128
  0
VERTEX
  5
3FA
330
3F9
100
AcDbEntity
  8
LAYER3
100
AcDbVertex
100
AcDb2dVertex
 10
171.1211620460414
 20
179.9617737480547
 30
0.0
  0
VERTEX
  5
3FB
330
3F9
100
AcDbEntity
  8
LAYER3
100
AcDbVertex
100
AcDb2dVertex
 10
171.1705868135356
 20
179.8377770134356
 30
0.0
  0
VERTEX
  5
3FC
330
3F9
100
AcDbEntity
  8
LAYER3
100
AcDbVertex
100
AcDb2dVertex
 10
171.2078885923289
 20
179.7080391594317
 30
0.0
  0
VERTEX
  5
3FD
330
3F9
100
AcDbEntity
  8
LAYER3
100
AcDbVertex
100
AcDb2dVertex
 10
171.2323014627359
 20
179.5738762565997
 30
0.0
  0
VERTEX
  5
3FE
330
3F9
100
AcDbEntity
  8
LAYER3
100
AcDbVertex
100
AcDb2dVertex
 10
171.2430565248392
 20
179.4359940239336
 30
0.0
  0
VERTEX
  5
3FF
330
3F9
100
AcDbEntity
  8
LAYER3
100
AcDbVertex
100
AcDb2dVertex
 10
171.2387608180902
 20
179.2878693291094
 30
0.0
  0
VERTEX
  5
400
330
3F9
100
AcDbEntity
  8
LAYER3
100
AcDbVertex
100
AcDb2dVertex
 10
171.2168102155588
 20
179.1326492973711
 30
0.0
  0
VERTEX
  5
401
330
3F9
100
AcDbEntity
  8
LAYER3
100
AcDbVertex
100
AcDb2dVertex
 10
171.1753933320901
 20
178.9771050163653
 30
0.0
  0
VERTEX
  5
402
330
3F9
100
AcDbEntity
  8
LAYER3
100
AcDbVertex
100
AcDb2dVertex
 10
171.1164103637597
 20
178.8281601616289
 30
0.0
  0
VERTEX
  5
403
330
3F9
100
AcDbEntity
  8
LAYER3
100
AcDbVertex
100
AcDb2dVertex
 10
171.0390262494942
 20
178.6859101005938
 30
0.0
  0
VERTEX
  5
404
330
3F9
100
AcDbEntity
  8
LAYER3
100
AcDbVertex
100
AcDb2dVertex
 10
170.9385971914192
 20
178.5454529472735
 30
0.0
  0
VERTEX
  5
405
330
3F9
100
AcDbEntity
  8
LAYER3
100
AcDbVertex
100
AcDb2dVertex
 10
170.8185123096367
 20
178.4169548698809
 30
0.0
  0
VERTEX
  5
406
330
3F9
100
AcDbEntity
  8
LAYER3
100
AcDbVertex
100
AcDb2dVertex
 10
170.6870751272103
 20
178.307911748543
 30
0.0
  0
VERTEX
  5
407
330
3F9
100
AcDbEntity
  8
LAYER3
100
AcDbVertex
100
AcDb2dVertex
 10
170.5427466522118
 20
178.2166069694903
 30
0.0
  0
VERTEX
  5
408
330
3F9
100
AcDbEntity
  8
LAYER3
100
AcDbVertex
100
AcDb2dVertex
 10
170.3834341655632
 20
178.1421059318926
 30
0.0
  0
VERTEX
  5
409
330
3F9
100
AcDbEntity
  8
LAYER3
100
AcDbVertex
100
AcDb2dVertex
 10
170.2188210378548
 20
178.0899971672442
 30
0.0
  0
VERTEX
  5
40A
330
3F9
100
AcDbEntity
  8
LAYER3
100
AcDbVertex
100
AcDb2dVertex
 10
170.0596188197991
 20
178.0603569694903
 30
0.0
  0
VERTEX
  5
40B
330
3F9
100
AcDbEntity
  8
LAYER3
100
AcDbVertex
100
AcDb2dVertex
 10
169.8997406850717
 20
178.050286168709
 30
0.0
  0
VERTEX
  5
40C
330
3F9
100
AcDbEntity
  8
LAYER3
100
AcDbVertex
100
AcDb2dVertex
 10
169.738998282995
 20
178.0589646049883
 30
0.0
  0
VERTEX
  5
40D
330
3F9
100
AcDbEntity
  8
LAYER3
100
AcDbVertex
100
AcDb2dVertex
 10
169.5846007953546
 20
178.0860489555743
 30
0.0
  0
VERTEX
  5
40E
330
3F9
100
AcDbEntity
  8
LAYER3
100
AcDbVertex
100
AcDb2dVertex
 10
169.4424043784998
 20
178.1277435966875
 30
0.0
  0
VERTEX
  5
40F
330
3F9
100
AcDbEntity
  8
LAYER3
100
AcDbVertex
100
AcDb2dVertex
 10
169.3145810256861
 20
178.1805771538165
 30
0.0
  0
VERTEX
  5
410
330
3F9
100
AcDbEntity
  8
LAYER3
100
AcDbVertex
100
AcDb2dVertex
 10
169.1945348869227
 20
178.2452553459551
 30
0.0
  0
VERTEX
  5
411
330
3F9
100
AcDbEntity
  8
LAYER3
100
AcDbVertex
100
AcDb2dVertex
 10
169.0826748500727
 20
178.3208244987872
 30
0.0
  0
VERTEX
  5
412
330
3F9
100
AcDbEntity
  8
LAYER3
100
AcDbVertex
100
AcDb2dVertex
 10
168.9800088296794
 20
178.4061402031329
 30
0.0
  0
SEQEND
  5
413
330
3F9
100
AcDbEntity
  8
LAYER3
  0
POLYLINE
  5
414
330
2
100
AcDbEntity
  8
LAYER3
100
AcDb2dPolyline
 66
     1
 10
0.0
 20
0.0
 30
0.0
 70
   128
  0
VERTEX
  5
415
330
414
100
AcDbEntity
  8
LAYER3
100
AcDbVertex
100
AcDb2dVertex
 10
171.1034731756115
 20
180.752865667
 30
0.0
  0
VERTEX
  5
416
330
414
100
AcDbEntity
  8
LAYER3
100
AcDbVertex
100
AcDb2dVertex
 10
171.090245712843
 20
180.7182472893145
 30
0.0
  0
VERTEX
  5
417
330
414
100
AcDbEntity
  8
LAYER3
100
AcDbVertex
100
AcDb2dVertex
 10
171.0782806764508
 20
180.6829613396075
 30
0.0
  0
VERTEX
  5
418
330
414
100
AcDbEntity
  8
LAYER3
100
AcDbVertex
100
AcDb2dVertex
 10
171.0676007161999
 20
180.6471222587969
 30
0.0
  0
VERTEX
  5
419
330
414
100
AcDbEntity
  8
LAYER3
100
AcDbVertex
100
AcDb2dVertex
 10
171.0582290779019
 20
180.6109017082598
 30
0.0
  0
VERTEX
  5
41A
330
414
100
AcDbEntity
  8
LAYER3
100
AcDbVertex
100
AcDb2dVertex
 10
171.0501878152752
 20
180.5743950554278
 30
0.0
  0
VERTEX
  5
41B
330
414
100
AcDbEntity
  8
LAYER3
100
AcDbVertex
100
AcDb2dVertex
 10
171.0435007701779
 20
180.5377739616778
 30
0.0
  0
VERTEX
  5
41C
330
414
100
AcDbEntity
  8
LAYER3
100
AcDbVertex
100
AcDb2dVertex
 10
171.0381905923748
 20
180.5011719414141
 30
0.0
  0
VERTEX
  5
41D
330
414
100
AcDbEntity
  8
LAYER3
100
AcDbVertex
100
AcDb2dVertex
 10
171.0342793355847
 20
180.4647034355547
 30
0.0
  0
VERTEX
  5
41E
330
414
100
AcDbEntity
  8
LAYER3
100
AcDbVertex
100
AcDb2dVertex
 10
171.0317836891079
 20
180.4285210319903
 30
0.0
  0
VERTEX
  5
41F
330
414
100
AcDbEntity
  8
LAYER3
100
AcDbVertex
100
AcDb2dVertex
 10
171.0306476245785
 20
180.3927010246661
 30
0.0
  0
VERTEX
  5
420
330
414
100
AcDbEntity
  8
LAYER3
100
AcDbVertex
100
AcDb2dVertex
 10
171.0307912717724
 20
180.3573960014727
 30
0.0
  0
VERTEX
  5
421
330
414
100
AcDbEntity
  8
LAYER3
100
AcDbVertex
100
AcDb2dVertex
 10
171.0321377406978
 20
180.3226631828692
 30
0.0
  0
VERTEX
  5
422
330
414
100
AcDbEntity
  8
LAYER3
100
AcDbVertex
100
AcDb2dVertex
 10
171.0346077571773
 20
180.2886360832598
 30
0.0
  0
VERTEX
  5
423
330
414
100
AcDbEntity
  8
LAYER3
100
AcDbVertex
100
AcDb2dVertex
 10
171.0381250272655
 20
180.2553909965899
 30
0.0
  0
VERTEX
  5
424
330
414
100
AcDbEntity
  8
LAYER3
100
AcDbVertex
100
AcDb2dVertex
 10
171.0426108728313
 20
180.2230614372637
 30
0.0
  0
VERTEX
  5
425
330
414
100
AcDbEntity
  8
LAYER3
100
AcDbVertex
100
AcDb2dVertex
 10
171.0479878078365
 20
180.1917236992266
 30
0.0
  0
VERTEX
  5
426
330
414
100
AcDbEntity
  8
LAYER3
100
AcDbVertex
100
AcDb2dVertex
 10
171.0541783462429
 20
180.1614922233965
 30
0.0
  0
VERTEX
  5
427
330
414
100
AcDbEntity
  8
LAYER3
100
AcDbVertex
100
AcDb2dVertex
 10
171.0612033496761
 20
180.1319473930743
 30
0.0
  0
VERTEX
  5
428
330
414
100
AcDbEntity
  8
LAYER3
100
AcDbVertex
100
AcDb2dVertex
 10
171.0691063295269
 20
180.1026695915606
 30
0.0
  0
VERTEX
  5
429
330
414
100
AcDbEntity
  8
LAYER3
100
AcDbVertex
100
AcDb2dVertex
 10
171.0778682123089
 20
180.0737351128008
 30
0.0
  0
VERTEX
  5
42A
330
414
100
AcDbEntity
  8
LAYER3
100
AcDbVertex
100
AcDb2dVertex
 10
171.0874723087215
 20
180.045143956795
 30
0.0
  0
VERTEX
  5
42B
330
414
100
AcDbEntity
  8
LAYER3
100
AcDbVertex
100
AcDb2dVertex
 10
171.0979007373714
 20
180.0169342705157
 30
0.0
  0
VERTEX
  5
42C
330
414
100
AcDbEntity
  8
LAYER3
100
AcDbVertex
100
AcDb2dVertex
 10
171.1091362129115
 20
179.9891442009356
 30
0.0
  0
VERTEX
  5
42D
330
414
100
AcDbEntity
  8
LAYER3
100
AcDbVertex
100
AcDb2dVertex
 10
171.1211620460414
 20
179.9617737480547
 30
0.0
  0
SEQEND
  5
42E
330
414
100
AcDbEntity
  8
LAYER3
  0
ARC
  5
42F
330
2
100
AcDbEntity
  8
LAYER3
100
AcDbCircle
 10
167.9979577453303
 20
182.0091625543685
 30
0.0
 40
3.35000000000417
100
AcDbArc
 50
337.9748830508281
 51
346.0251169491698
  0
POLYLINE
  5
430
330
2
100
AcDbEntity
  8
LAYER3
100
AcDb2dPolyline
 66
     1
 10
0.0
 20
0.0
 30
0.0
 70
   128
  0
VERTEX
  5
431
330
430
100
AcDbEntity
  8
LAYER3
100
AcDbVertex
100
AcDb2dVertex
 10
167.0159064422511
 20
215.6121796318438
 30
0.0
  0
VERTEX
  5
432
330
430
100
AcDbEntity
  8
LAYER3
100
AcDbVertex
100
AcDb2dVertex
 10
167.038211692419
 20
215.5922859856036
 30
0.0
  0
VERTEX
  5
433
330
430
100
AcDbEntity
  8
LAYER3
100
AcDbVertex
100
AcDb2dVertex
 10
167.0611779580974
 20
215.5730217644122
 30
0.0
  0
VERTEX
  5
434
330
430
100
AcDbEntity
  8
LAYER3
100
AcDbVertex
100
AcDb2dVertex
 10
167.0847825895213
 20
215.5543869682696
 30
0.0
  0
VERTEX
  5
435
330
430
100
AcDbEntity
  8
LAYER3
100
AcDbVertex
100
AcDb2dVertex
 10
167.1090041290187
 20
215.5364197441485
 30
0.0
  0
VERTEX
  5
436
330
430
100
AcDbEntity
  8
LAYER3
100
AcDbVertex
100
AcDb2dVertex
 10
167.133820522871
 20
215.5191391655352
 30
0.0
  0
VERTEX
  5
437
330
430
100
AcDbEntity
  8
LAYER3
100
AcDbVertex
100
AcDb2dVertex
 10
167.1592097173595
 20
215.5025833794024
 30
0.0
  0
VERTEX
  5
438
330
430
100
AcDbEntity
  8
LAYER3
100
AcDbVertex
100
AcDb2dVertex
 10
167.1851508508586
 20
215.4867523857501
 30
0.0
  0
VERTEX
  5
439
330
430
100
AcDbEntity
  8
LAYER3
100
AcDbVertex
100
AcDb2dVertex
 10
167.2119830737972
 20
215.4715317436602
 30
0.0
  0
VERTEX
  5
43A
330
430
100
AcDbEntity
  8
LAYER3
100
AcDbVertex
100
AcDb2dVertex
 10
167.2401194463634
 20
215.4567307182696
 30
0.0
  0
VERTEX
  5
43B
330
430
100
AcDbEntity
  8
LAYER3
100
AcDbVertex
100
AcDb2dVertex
 10
167.2694866548443
 20
215.4424828239825
 30
0.0
  0
VERTEX
  5
43C
330
430
100
AcDbEntity
  8
LAYER3
100
AcDbVertex
100
AcDb2dVertex
 10
167.3000107894802
 20
215.4288643547442
 30
0.0
  0
VERTEX
  5
43D
330
430
100
AcDbEntity
  8
LAYER3
100
AcDbVertex
100
AcDb2dVertex
 10
167.3316161523723
 20
215.4159897514727
 30
0.0
  0
VERTEX
  5
43E
330
430
100
AcDbEntity
  8
LAYER3
100
AcDbVertex
100
AcDb2dVertex
 10
167.3642282377147
 20
215.4039925285723
 30
0.0
  0
VERTEX
  5
43F
330
430
100
AcDbEntity
  8
LAYER3
100
AcDbVertex
100
AcDb2dVertex
 10
167.397773135748
 20
215.392929906502
 30
0.0
  0
VERTEX
  5
440
330
430
100
AcDbEntity
  8
LAYER3
100
AcDbVertex
100
AcDb2dVertex
 10
167.432175148573
 20
215.3829544731524
 30
0.0
  0
VERTEX
  5
441
330
430
100
AcDbEntity
  8
LAYER3
100
AcDbVertex
100
AcDb2dVertex
 10
167.4673621545697
 20
215.3741425224688
 30
0.0
  0
VERTEX
  5
442
330
430
100
AcDbEntity
  8
LAYER3
100
AcDbVertex
100
AcDb2dVertex
 10
167.5032513032818
 20
215.3665894218829
 30
0.0
  0
VERTEX
  5
443
330
430
100
AcDbEntity
  8
LAYER3
100
AcDbVertex
100
AcDb2dVertex
 10
167.5397120605374
 20
215.3603333183673
 30
0.0
  0
VERTEX
  5
444
330
430
100
AcDbEntity
  8
LAYER3
100
AcDbVertex
100
AcDb2dVertex
 10
167.5766073356533
 20
215.3553742119219
 30
0.0
  0
VERTEX
  5
445
330
430
100
AcDbEntity
  8
LAYER3
100
AcDbVertex
100
AcDb2dVertex
 10
167.6138000379467
 20
215.3517502495196
 30
0.0
  0
VERTEX
  5
446
330
430
100
AcDbEntity
  8
LAYER3
100
AcDbVertex
100
AcDb2dVertex
 10
167.651153672781
 20
215.3494614311602
 30
0.0
  0
VERTEX
  5
447
330
430
100
AcDbEntity
  8
LAYER3
100
AcDbVertex
100
AcDb2dVertex
 10
167.6885305534268
 20
215.3485459038165
 30
0.0
  0
VERTEX
  5
448
330
430
100
AcDbEntity
  8
LAYER3
100
AcDbVertex
100
AcDb2dVertex
 10
167.7257947812939
 20
215.3490227409747
 30
0.0
  0
VERTEX
  5
449
330
430
100
AcDbEntity
  8
LAYER3
100
AcDbVertex
100
AcDb2dVertex
 10
167.762808669653
 20
215.3508919426348
 30
0.0
  0
SEQEND
  5
44A
330
430
100
AcDbEntity
  8
LAYER3
  0
ARC
  5
44B
330
2
100
AcDbEntity
  8
LAYER3
100
AcDbCircle
 10
167.9979577453343
 20
212.009162554369
 30
0.0
 40
3.349999999998267
100
AcDbArc
 50
85.97488305082274
 51
94.02511694917727
  0
POLYLINE
  5
44C
330
2
100
AcDbEntity
  8
LAYER3
100
AcDb2dPolyline
 66
     1
 10
0.0
 20
0.0
 30
0.0
 70
   128
  0
VERTEX
  5
44D
330
44C
100
AcDbEntity
  8
LAYER3
100
AcDbVertex
100
AcDb2dVertex
 10
168.2331066022778
 20
215.3508919426348
 30
0.0
  0
VERTEX
  5
44E
330
44C
100
AcDbEntity
  8
LAYER3
100
AcDbVertex
100
AcDb2dVertex
 10
168.2701204906369
 20
215.3490227409747
 30
0.0
  0
VERTEX
  5
44F
330
44C
100
AcDbEntity
  8
LAYER3
100
AcDbVertex
100
AcDb2dVertex
 10
168.307384718504
 20
215.3485459038165
 30
0.0
  0
VERTEX
  5
450
330
44C
100
AcDbEntity
  8
LAYER3
100
AcDbVertex
100
AcDb2dVertex
 10
168.3447615991497
 20
215.3494614311602
 30
0.0
  0
VERTEX
  5
451
330
44C
100
AcDbEntity
  8
LAYER3
100
AcDbVertex
100
AcDb2dVertex
 10
168.382115233984
 20
215.3517502495196
 30
0.0
  0
VERTEX
  5
452
330
44C
100
AcDbEntity
  8
LAYER3
100
AcDbVertex
100
AcDb2dVertex
 10
168.4193079362774
 20
215.3553742119219
 30
0.0
  0
VERTEX
  5
453
330
44C
100
AcDbEntity
  8
LAYER3
100
AcDbVertex
100
AcDb2dVertex
 10
168.4562032113934
 20
215.3603333183673
 30
0.0
  0
VERTEX
  5
454
330
44C
100
AcDbEntity
  8
LAYER3
100
AcDbVertex
100
AcDb2dVertex
 10
168.4926639686489
 20
215.3665894218829
 30
0.0
  0
VERTEX
  5
455
330
44C
100
AcDbEntity
  8
LAYER3
100
AcDbVertex
100
AcDb2dVertex
 10
168.5285537134076
 20
215.3741425224688
 30
0.0
  0
VERTEX
  5
456
330
44C
100
AcDbEntity
  8
LAYER3
100
AcDbVertex
100
AcDb2dVertex
 10
168.5637401233578
 20
215.3829544731524
 30
0.0
  0
VERTEX
  5
457
330
44C
100
AcDbEntity
  8
LAYER3
100
AcDbVertex
100
AcDb2dVertex
 10
168.5981427322293
 20
215.392929906502
 30
0.0
  0
VERTEX
  5
458
330
44C
100
AcDbEntity
  8
LAYER3
100
AcDbVertex
100
AcDb2dVertex
 10
168.6316870342159
 20
215.4039925285723
 30
0.0
  0
VERTEX
  5
459
330
44C
100
AcDbEntity
  8
LAYER3
100
AcDbVertex
100
AcDb2dVertex
 10
168.6642997156048
 20
215.4159897514727
 30
0.0
  0
VERTEX
  5
45A
330
44C
100
AcDbEntity
  8
LAYER3
100
AcDbVertex
100
AcDb2dVertex
 10
168.6959050784969
 20
215.4288643547442
 30
0.0
  0
VERTEX
  5
45B
330
44C
100
AcDbEntity
  8
LAYER3
100
AcDbVertex
100
AcDb2dVertex
 10
168.7264286170864
 20
215.4424828239825
 30
0.0
  0
VERTEX
  5
45C
330
44C
100
AcDbEntity
  8
LAYER3
100
AcDbVertex
100
AcDb2dVertex
 10
168.7557964216137
 20
215.4567307182696
 30
0.0
  0
VERTEX
  5
45D
330
44C
100
AcDbEntity
  8
LAYER3
100
AcDbVertex
100
AcDb2dVertex
 10
168.7839321981335
 20
215.4715317436602
 30
0.0
  0
VERTEX
  5
45E
330
44C
100
AcDbEntity
  8
LAYER3
100
AcDbVertex
100
AcDb2dVertex
 10
168.810764421072
 20
215.4867523857501
 30
0.0
  0
VERTEX
  5
45F
330
44C
100
AcDbEntity
  8
LAYER3
100
AcDbVertex
100
AcDb2dVertex
 10
168.8367055545711
 20
215.5025833794024
 30
0.0
  0
VERTEX
  5
460
330
44C
100
AcDbEntity
  8
LAYER3
100
AcDbVertex
100
AcDb2dVertex
 10
168.8620953451061
 20
215.5191391655352
 30
0.0
  0
VERTEX
  5
461
330
44C
100
AcDbEntity
  8
LAYER3
100
AcDbVertex
100
AcDb2dVertex
 10
168.8869117389583
 20
215.5364197441485
 30
0.0
  0
VERTEX
  5
462
330
44C
100
AcDbEntity
  8
LAYER3
100
AcDbVertex
100
AcDb2dVertex
 10
168.9111332784557
 20
215.5543869682696
 30
0.0
  0
VERTEX
  5
463
330
44C
100
AcDbEntity
  8
LAYER3
100
AcDbVertex
100
AcDb2dVertex
 10
168.9347379098796
 20
215.5730217644122
 30
0.0
  0
VERTEX
  5
464
330
44C
100
AcDbEntity
  8
LAYER3
100
AcDbVertex
100
AcDb2dVertex
 10
168.9577035795116
 20
215.5922859856036
 30
0.0
  0
VERTEX
  5
465
330
44C
100
AcDbEntity
  8
LAYER3
100
AcDbVertex
100
AcDb2dVertex
 10
168.9800088296794
 20
215.6121796318438
 30
0.0
  0
SEQEND
  5
466
330
44C
100
AcDbEntity
  8
LAYER3
  0
POLYLINE
  5
467
330
2
100
AcDbEntity
  8
LAYER3
100
AcDb2dPolyline
 66
     1
 10
0.0
 20
0.0
 30
0.0
 70
   128
  0
VERTEX
  5
468
330
467
100
AcDbEntity
  8
LAYER3
100
AcDbVertex
100
AcDb2dVertex
 10
168.9800088296794
 20
215.6121796318438
 30
0.0
  0
VERTEX
  5
469
330
467
100
AcDbEntity
  8
LAYER3
100
AcDbVertex
100
AcDb2dVertex
 10
169.0826748500727
 20
215.6975144096759
 30
0.0
  0
VERTEX
  5
46A
330
467
100
AcDbEntity
  8
LAYER3
100
AcDbVertex
100
AcDb2dVertex
 10
169.1945348869227
 20
215.7730835625079
 30
0.0
  0
VERTEX
  5
46B
330
467
100
AcDbEntity
  8
LAYER3
100
AcDbVertex
100
AcDb2dVertex
 10
169.3145810256861
 20
215.8377426811602
 30
0.0
  0
VERTEX
  5
46C
330
467
100
AcDbEntity
  8
LAYER3
100
AcDbVertex
100
AcDb2dVertex
 10
169.4424043784998
 20
215.8905953117755
 30
0.0
  0
VERTEX
  5
46D
330
467
100
AcDbEntity
  8
LAYER3
100
AcDbVertex
100
AcDb2dVertex
 10
169.5846007953546
 20
215.9322708794024
 30
0.0
  0
VERTEX
  5
46E
330
467
100
AcDbEntity
  8
LAYER3
100
AcDbVertex
100
AcDb2dVertex
 10
169.738998282995
 20
215.9593552299884
 30
0.0
  0
VERTEX
  5
46F
330
467
100
AcDbEntity
  8
LAYER3
100
AcDbVertex
100
AcDb2dVertex
 10
169.8997406850717
 20
215.9680336662677
 30
0.0
  0
VERTEX
  5
470
330
467
100
AcDbEntity
  8
LAYER3
100
AcDbVertex
100
AcDb2dVertex
 10
170.0596188197991
 20
215.9579628654864
 30
0.0
  0
VERTEX
  5
471
330
467
100
AcDbEntity
  8
LAYER3
100
AcDbVertex
100
AcDb2dVertex
 10
170.2188210378548
 20
215.9283417412188
 30
0.0
  0
VERTEX
  5
472
330
467
100
AcDbEntity
  8
LAYER3
100
AcDbVertex
100
AcDb2dVertex
 10
170.3834341655632
 20
215.876213903084
 30
0.0
  0
VERTEX
  5
473
330
467
100
AcDbEntity
  8
LAYER3
100
AcDbVertex
100
AcDb2dVertex
 10
170.5427466522118
 20
215.8017128654864
 30
0.0
  0
VERTEX
  5
474
330
467
100
AcDbEntity
  8
LAYER3
100
AcDbVertex
100
AcDb2dVertex
 10
170.6870751272103
 20
215.7104080864336
 30
0.0
  0
VERTEX
  5
475
330
467
100
AcDbEntity
  8
LAYER3
100
AcDbVertex
100
AcDb2dVertex
 10
170.8185123096367
 20
215.6013649650958
 30
0.0
  0
VERTEX
  5
476
330
467
100
AcDbEntity
  8
LAYER3
100
AcDbVertex
100
AcDb2dVertex
 10
170.9385971914192
 20
215.4728668877032
 30
0.0
  0
VERTEX
  5
477
330
467
100
AcDbEntity
  8
LAYER3
100
AcDbVertex
100
AcDb2dVertex
 10
171.0390262494942
 20
215.3324288078692
 30
0.0
  0
VERTEX
  5
478
330
467
100
AcDbEntity
  8
LAYER3
100
AcDbVertex
100
AcDb2dVertex
 10
171.1164103637597
 20
215.1901596733477
 30
0.0
  0
VERTEX
  5
479
330
467
100
AcDbEntity
  8
LAYER3
100
AcDbVertex
100
AcDb2dVertex
 10
171.1753933320901
 20
215.0412338920977
 30
0.0
  0
VERTEX
  5
47A
330
467
100
AcDbEntity
  8
LAYER3
100
AcDbVertex
100
AcDb2dVertex
 10
171.2168102155588
 20
214.8856705376055
 30
0.0
  0
VERTEX
  5
47B
330
467
100
AcDbEntity
  8
LAYER3
100
AcDbVertex
100
AcDb2dVertex
 10
171.2387608180902
 20
214.7304505058673
 30
0.0
  0
VERTEX
  5
47C
330
467
100
AcDbEntity
  8
LAYER3
100
AcDbVertex
100
AcDb2dVertex
 10
171.2430565248392
 20
214.5823448845294
 30
0.0
  0
VERTEX
  5
47D
330
467
100
AcDbEntity
  8
LAYER3
100
AcDbVertex
100
AcDb2dVertex
 10
171.2323014627359
 20
214.444443578377
 30
0.0
  0
VERTEX
  5
47E
330
467
100
AcDbEntity
  8
LAYER3
100
AcDbVertex
100
AcDb2dVertex
 10
171.2078885923289
 20
214.310280675545
 30
0.0
  0
VERTEX
  5
47F
330
467
100
AcDbEntity
  8
LAYER3
100
AcDbVertex
100
AcDb2dVertex
 10
171.1705868135356
 20
214.1805428215411
 30
0.0
  0
VERTEX
  5
480
330
467
100
AcDbEntity
  8
LAYER3
100
AcDbVertex
100
AcDb2dVertex
 10
171.1211620460414
 20
214.0565460869219
 30
0.0
  0
SEQEND
  5
481
330
467
100
AcDbEntity
  8
LAYER3
  0
POLYLINE
  5
482
330
2
100
AcDbEntity
  8
LAYER3
100
AcDb2dPolyline
 66
     1
 10
0.0
 20
0.0
 30
0.0
 70
   128
  0
VERTEX
  5
483
330
482
100
AcDbEntity
  8
LAYER3
100
AcDbVertex
100
AcDb2dVertex
 10
171.1211620460414
 20
214.0565460869219
 30
0.0
  0
VERTEX
  5
484
330
482
100
AcDbEntity
  8
LAYER3
100
AcDbVertex
100
AcDb2dVertex
 10
171.1091362129115
 20
214.0291756340411
 30
0.0
  0
VERTEX
  5
485
330
482
100
AcDbEntity
  8
LAYER3
100
AcDbVertex
100
AcDb2dVertex
 10
171.0979007373714
 20
214.001385564461
 30
0.0
  0
VERTEX
  5
486
330
482
100
AcDbEntity
  8
LAYER3
100
AcDbVertex
100
AcDb2dVertex
 10
171.0874723087215
 20
213.9731758781817
 30
0.0
  0
VERTEX
  5
487
330
482
100
AcDbEntity
  8
LAYER3
100
AcDbVertex
100
AcDb2dVertex
 10
171.0778682123089
 20
213.9445847221758
 30
0.0
  0
VERTEX
  5
488
330
482
100
AcDbEntity
  8
LAYER3
100
AcDbVertex
100
AcDb2dVertex
 10
171.0691063295269
 20
213.9156502434161
 30
0.0
  0
VERTEX
  5
489
330
482
100
AcDbEntity
  8
LAYER3
100
AcDbVertex
100
AcDb2dVertex
 10
171.0612033496761
 20
213.8863915153887
 30
0.0
  0
VERTEX
  5
48A
330
482
100
AcDbEntity
  8
LAYER3
100
AcDbVertex
100
AcDb2dVertex
 10
171.0541783462429
 20
213.8568276115802
 30
0.0
  0
VERTEX
  5
48B
330
482
100
AcDbEntity
  8
LAYER3
100
AcDbVertex
100
AcDb2dVertex
 10
171.0479878078365
 20
213.8265961357501
 30
0.0
  0
VERTEX
  5
48C
330
482
100
AcDbEntity
  8
LAYER3
100
AcDbVertex
100
AcDb2dVertex
 10
171.0426108728313
 20
213.7952774711993
 30
0.0
  0
VERTEX
  5
48D
330
482
100
AcDbEntity
  8
LAYER3
100
AcDbVertex
100
AcDb2dVertex
 10
171.0381250272655
 20
213.7629288383868
 30
0.0
  0
VERTEX
  5
48E
330
482
100
AcDbEntity
  8
LAYER3
100
AcDbVertex
100
AcDb2dVertex
 10
171.0346077571773
 20
213.7297028252032
 30
0.0
  0
VERTEX
  5
48F
330
482
100
AcDbEntity
  8
LAYER3
100
AcDbVertex
100
AcDb2dVertex
 10
171.0321377406978
 20
213.6956566521075
 30
0.0
  0
VERTEX
  5
490
330
482
100
AcDbEntity
  8
LAYER3
100
AcDbVertex
100
AcDb2dVertex
 10
171.0307912717724
 20
213.660923833504
 30
0.0
  0
VERTEX
  5
491
330
482
100
AcDbEntity
  8
LAYER3
100
AcDbVertex
100
AcDb2dVertex
 10
171.0306476245785
 20
213.6256188103106
 30
0.0
  0
VERTEX
  5
492
330
482
100
AcDbEntity
  8
LAYER3
100
AcDbVertex
100
AcDb2dVertex
 10
171.0317836891079
 20
213.5898178764727
 30
0.0
  0
VERTEX
  5
493
330
482
100
AcDbEntity
  8
LAYER3
100
AcDbVertex
100
AcDb2dVertex
 10
171.0342793355847
 20
213.553616399422
 30
0.0
  0
VERTEX
  5
494
330
482
100
AcDbEntity
  8
LAYER3
100
AcDbVertex
100
AcDb2dVertex
 10
171.0381905923748
 20
213.5171669670489
 30
0.0
  0
VERTEX
  5
495
330
482
100
AcDbEntity
  8
LAYER3
100
AcDbVertex
100
AcDb2dVertex
 10
171.0435007701779
 20
213.4805458732989
 30
0.0
  0
VERTEX
  5
496
330
482
100
AcDbEntity
  8
LAYER3
100
AcDbVertex
100
AcDb2dVertex
 10
171.0501878152752
 20
213.4439247795489
 30
0.0
  0
VERTEX
  5
497
330
482
100
AcDbEntity
  8
LAYER3
100
AcDbVertex
100
AcDb2dVertex
 10
171.0582290779019
 20
213.4074372002032
 30
0.0
  0
VERTEX
  5
498
330
482
100
AcDbEntity
  8
LAYER3
100
AcDbVertex
100
AcDb2dVertex
 10
171.0676007161999
 20
213.3711975761797
 30
0.0
  0
VERTEX
  5
499
330
482
100
AcDbEntity
  8
LAYER3
100
AcDbVertex
100
AcDb2dVertex
 10
171.0782806764508
 20
213.3353775688555
 30
0.0
  0
VERTEX
  5
49A
330
482
100
AcDbEntity
  8
LAYER3
100
AcDbVertex
100
AcDb2dVertex
 10
171.090245712843
 20
213.3000725456622
 30
0.0
  0
VERTEX
  5
49B
330
482
100
AcDbEntity
  8
LAYER3
100
AcDbVertex
100
AcDb2dVertex
 10
171.1034731756115
 20
213.2654541679766
 30
0.0
  0
SEQEND
  5
49C
330
482
100
AcDbEntity
  8
LAYER3
  0
ARC
  5
49D
330
2
100
AcDbEntity
  8
LAYER3
100
AcDbCircle
 10
167.997957745335
 20
212.0091625543675
 30
0.0
 40
3.349999999999319
100
AcDbArc
 50
13.97488305082517
 51
22.02511694917543
  0
POLYLINE
  5
49E
330
2
100
AcDbEntity
  8
LAYER3
100
AcDb2dPolyline
 66
     1
 10
0.0
 20
0.0
 30
0.0
 70
   128
  0
VERTEX
  5
49F
330
49E
100
AcDbEntity
  8
LAYER3
100
AcDbVertex
100
AcDb2dVertex
 10
171.2488036046887
 20
212.8181809135821
 30
0.0
  0
VERTEX
  5
4A0
330
49E
100
AcDbEntity
  8
LAYER3
100
AcDbVertex
100
AcDb2dVertex
 10
171.2584518085385
 20
212.7823990532305
 30
0.0
  0
VERTEX
  5
4A1
330
49E
100
AcDbEntity
  8
LAYER3
100
AcDbVertex
100
AcDb2dVertex
 10
171.269517410841
 20
212.7468079277423
 30
0.0
  0
VERTEX
  5
4A2
330
49E
100
AcDbEntity
  8
LAYER3
100
AcDbVertex
100
AcDb2dVertex
 10
171.2819378267193
 20
212.7115410515215
 30
0.0
  0
VERTEX
  5
4A3
330
49E
100
AcDbEntity
  8
LAYER3
100
AcDbVertex
100
AcDb2dVertex
 10
171.2956516633892
 20
212.6767128654864
 30
0.0
  0
VERTEX
  5
4A4
330
49E
100
AcDbEntity
  8
LAYER3
100
AcDbVertex
100
AcDb2dVertex
 10
171.3105969320202
 20
212.6424759575274
 30
0.0
  0
VERTEX
  5
4A5
330
49E
100
AcDbEntity
  8
LAYER3
100
AcDbVertex
100
AcDb2dVertex
 10
171.3267122398282
 20
212.6089066215899
 30
0.0
  0
VERTEX
  5
4A6
330
49E
100
AcDbEntity
  8
LAYER3
100
AcDbVertex
100
AcDb2dVertex
 10
171.3439355979824
 20
212.5761765190508
 30
0.0
  0
VERTEX
  5
4A7
330
49E
100
AcDbEntity
  8
LAYER3
100
AcDbVertex
100
AcDb2dVertex
 10
171.362205613699
 20
212.5443810173419
 30
0.0
  0
VERTEX
  5
4A8
330
49E
100
AcDbEntity
  8
LAYER3
100
AcDbVertex
100
AcDb2dVertex
 10
171.3814567218685
 20
212.5136345573809
 30
0.0
  0
VERTEX
  5
4A9
330
49E
100
AcDbEntity
  8
LAYER3
100
AcDbVertex
100
AcDb2dVertex
 10
171.401582230177
 20
212.483994359627
 30
0.0
  0
VERTEX
  5
4AA
330
49E
100
AcDbEntity
  8
LAYER3
100
AcDbVertex
100
AcDb2dVertex
 10
171.4224575649166
 20
212.4554985710528
 30
0.0
  0
VERTEX
  5
4AB
330
49E
100
AcDbEntity
  8
LAYER3
100
AcDbVertex
100
AcDb2dVertex
 10
171.4439593444729
 20
212.4282044121172
 30
0.0
  0
VERTEX
  5
4AC
330
49E
100
AcDbEntity
  8
LAYER3
100
AcDbVertex
100
AcDb2dVertex
 10
171.4659629951381
 20
212.4021118828204
 30
0.0
  0
VERTEX
  5
4AD
330
49E
100
AcDbEntity
  8
LAYER3
100
AcDbVertex
100
AcDb2dVertex
 10
171.4883451352978
 20
212.3772972771075
 30
0.0
  0
VERTEX
  5
4AE
330
49E
100
AcDbEntity
  8
LAYER3
100
AcDbVertex
100
AcDb2dVertex
 10
171.5109811912441
 20
212.3537796684649
 30
0.0
  0
VERTEX
  5
4AF
330
49E
100
AcDbEntity
  8
LAYER3
100
AcDbVertex
100
AcDb2dVertex
 10
171.5337465892696
 20
212.331578130379
 30
0.0
  0
VERTEX
  5
4B0
330
49E
100
AcDbEntity
  8
LAYER3
100
AcDbVertex
100
AcDb2dVertex
 10
171.5565203319454
 20
212.310768956795
 30
0.0
  0
VERTEX
  5
4B1
330
49E
100
AcDbEntity
  8
LAYER3
100
AcDbVertex
100
AcDb2dVertex
 10
171.5795777927303
 20
212.2909897514727
 30
0.0
  0
VERTEX
  5
4B2
330
49E
100
AcDbEntity
  8
LAYER3
100
AcDbVertex
100
AcDb2dVertex
 10
171.6031728874111
 20
212.2719544121173
 30
0.0
  0
VERTEX
  5
4B3
330
49E
100
AcDbEntity
  8
LAYER3
100
AcDbVertex
100
AcDb2dVertex
 10
171.6272722373867
 20
212.2537010857012
 30
0.0
  0
VERTEX
  5
4B4
330
49E
100
AcDbEntity
  8
LAYER3
100
AcDbVertex
100
AcDb2dVertex
 10
171.6518448482418
 20
212.2362106987384
 30
0.0
  0
VERTEX
  5
4B5
330
49E
100
AcDbEntity
  8
LAYER3
100
AcDbVertex
100
AcDb2dVertex
 10
171.6768621097469
 20
212.2195213982013
 30
0.0
  0
VERTEX
  5
4B6
330
49E
100
AcDbEntity
  8
LAYER3
100
AcDbVertex
100
AcDb2dVertex
 10
171.7022918353938
 20
212.2036331840899
 30
0.0
  0
VERTEX
  5
4B7
330
49E
100
AcDbEntity
  8
LAYER3
100
AcDbVertex
100
AcDb2dVertex
 10
171.7281030307674
 20
212.1885651298907
 30
0.0
  0
SEQEND
  5
4B8
330
49E
100
AcDbEntity
  8
LAYER3
  0
POLYLINE
  5
4B9
330
2
100
AcDbEntity
  8
LAYER3
100
AcDb2dPolyline
 66
     1
 10
0.0
 20
0.0
 30
0.0
 70
   128
  0
VERTEX
  5
4BA
330
4B9
100
AcDbEntity
  8
LAYER3
100
AcDbVertex
100
AcDb2dVertex
 10
171.7281030307674
 20
212.1885651298907
 30
0.0
  0
VERTEX
  5
4BB
330
4B9
100
AcDbEntity
  8
LAYER3
100
AcDbVertex
100
AcDb2dVertex
 10
171.8409787307642
 20
212.1172875114825
 30
0.0
  0
VERTEX
  5
4BC
330
4B9
100
AcDbEntity
  8
LAYER3
100
AcDbVertex
100
AcDb2dVertex
 10
171.9474135528468
 20
212.0342606254962
 30
0.0
  0
VERTEX
  5
4BD
330
4B9
100
AcDbEntity
  8
LAYER3
100
AcDbVertex
100
AcDb2dVertex
 10
172.0460199008844
 20
211.9400757500079
 30
0.0
  0
VERTEX
  5
4BE
330
4B9
100
AcDbEntity
  8
LAYER3
100
AcDbVertex
100
AcDb2dVertex
 10
172.1357737670801
 20
211.8348473259356
 30
0.0
  0
VERTEX
  5
4BF
330
4B9
100
AcDbEntity
  8
LAYER3
100
AcDbVertex
100
AcDb2dVertex
 10
172.2193597446344
 20
211.7124909111407
 30
0.0
  0
VERTEX
  5
4C0
330
4B9
100
AcDbEntity
  8
LAYER3
100
AcDbVertex
100
AcDb2dVertex
 10
172.2928331981561
 20
211.5740174003985
 30
0.0
  0
VERTEX
  5
4C1
330
4B9
100
AcDbEntity
  8
LAYER3
100
AcDbVertex
100
AcDb2dVertex
 10
172.3507593761346
 20
211.4238136955645
 30
0.0
  0
VERTEX
  5
4C2
330
4B9
100
AcDbEntity
  8
LAYER3
100
AcDbVertex
100
AcDb2dVertex
 10
172.3905871997735
 20
211.2686508842852
 30
0.0
  0
VERTEX
  5
4C3
330
4B9
100
AcDbEntity
  8
LAYER3
100
AcDbVertex
100
AcDb2dVertex
 10
172.411595452871
 20
211.1080902763751
 30
0.0
  0
VERTEX
  5
4C4
330
4B9
100
AcDbEntity
  8
LAYER3
100
AcDbVertex
100
AcDb2dVertex
 10
172.4129031787773
 20
210.9354180046465
 30
0.0
  0
VERTEX
  5
4C5
330
4B9
100
AcDbEntity
  8
LAYER3
100
AcDbVertex
100
AcDb2dVertex
 10
172.3912786136528
 20
210.7608956047442
 30
0.0
  0
VERTEX
  5
4C6
330
4B9
100
AcDbEntity
  8
LAYER3
100
AcDbVertex
100
AcDb2dVertex
 10
172.3490415702721
 20
210.5954140373614
 30
0.0
  0
VERTEX
  5
4C7
330
4B9
100
AcDbEntity
  8
LAYER3
100
AcDbVertex
100
AcDb2dVertex
 10
172.2859452854057
 20
210.4367035576251
 30
0.0
  0
VERTEX
  5
4C8
330
4B9
100
AcDbEntity
  8
LAYER3
100
AcDbVertex
100
AcDb2dVertex
 10
172.2008489261528
 20
210.2827995964434
 30
0.0
  0
VERTEX
  5
4C9
330
4B9
100
AcDbEntity
  8
LAYER3
100
AcDbVertex
100
AcDb2dVertex
 10
172.0983050952813
 20
210.1438683220294
 30
0.0
  0
VERTEX
  5
4CA
330
4B9
100
AcDbEntity
  8
LAYER3
100
AcDbVertex
100
AcDb2dVertex
 10
171.986927856054
 20
210.0263184257891
 30
0.0
  0
VERTEX
  5
4CB
330
4B9
100
AcDbEntity
  8
LAYER3
100
AcDbVertex
100
AcDb2dVertex
 10
171.8635033260247
 20
209.9241989799883
 30
0.0
  0
VERTEX
  5
4CC
330
4B9
100
AcDbEntity
  8
LAYER3
100
AcDbVertex
100
AcDb2dVertex
 10
171.7283593307397
 20
209.8367470451739
 30
0.0
  0
VERTEX
  5
4CD
330
4B9
100
AcDbEntity
  8
LAYER3
100
AcDbVertex
100
AcDb2dVertex
 10
171.5875278602502
 20
209.7679108330157
 30
0.0
  0
VERTEX
  5
4CE
330
4B9
100
AcDbEntity
  8
LAYER3
100
AcDbVertex
100
AcDb2dVertex
 10
171.4479856382273
 20
209.718052739754
 30
0.0
  0
VERTEX
  5
4CF
330
4B9
100
AcDbEntity
  8
LAYER3
100
AcDbVertex
100
AcDb2dVertex
 10
171.3135151754282
 20
209.6856659599688
 30
0.0
  0
VERTEX
  5
4D0
330
4B9
100
AcDbEntity
  8
LAYER3
100
AcDbVertex
100
AcDb2dVertex
 10
171.1783807168864
 20
209.6674317070391
 30
0.0
  0
VERTEX
  5
4D1
330
4B9
100
AcDbEntity
  8
LAYER3
100
AcDbVertex
100
AcDb2dVertex
 10
171.0434667955302
 20
209.6628159233477
 30
0.0
  0
VERTEX
  5
4D2
330
4B9
100
AcDbEntity
  8
LAYER3
100
AcDbVertex
100
AcDb2dVertex
 10
170.9102551828288
 20
209.671494359627
 30
0.0
  0
SEQEND
  5
4D3
330
4B9
100
AcDbEntity
  8
LAYER3
  0
POLYLINE
  5
4D4
330
2
100
AcDbEntity
  8
LAYER3
100
AcDb2dPolyline
 66
     1
 10
0.0
 20
0.0
 30
0.0
 70
   128
  0
VERTEX
  5
4D5
330
4D4
100
AcDbEntity
  8
LAYER3
100
AcDbVertex
100
AcDb2dVertex
 10
170.9102551828288
 20
209.671494359627
 30
0.0
  0
VERTEX
  5
4D6
330
4D4
100
AcDbEntity
  8
LAYER3
100
AcDbVertex
100
AcDb2dVertex
 10
170.8805178295039
 20
209.6744698234942
 30
0.0
  0
VERTEX
  5
4D7
330
4D4
100
AcDbEntity
  8
LAYER3
100
AcDbVertex
100
AcDb2dVertex
 10
170.8506076227092
 20
209.6765679069903
 30
0.0
  0
VERTEX
  5
4D8
330
4D4
100
AcDbEntity
  8
LAYER3
100
AcDbVertex
100
AcDb2dVertex
 10
170.8205579410457
 20
209.677769536629
 30
0.0
  0
VERTEX
  5
4D9
330
4D4
100
AcDbEntity
  8
LAYER3
100
AcDbVertex
100
AcDb2dVertex
 10
170.7904009710216
 20
209.6780747124102
 30
0.0
  0
VERTEX
  5
4DA
330
4D4
100
AcDbEntity
  8
LAYER3
100
AcDbVertex
100
AcDb2dVertex
 10
170.7601694951915
 20
209.6774643608477
 30
0.0
  0
VERTEX
  5
4DB
330
4D4
100
AcDbEntity
  8
LAYER3
100
AcDbVertex
100
AcDb2dVertex
 10
170.7298957000637
 20
209.6759384819415
 30
0.0
  0
VERTEX
  5
4DC
330
4D4
100
AcDbEntity
  8
LAYER3
100
AcDbVertex
100
AcDb2dVertex
 10
170.6996129642391
 20
209.6734780022051
 30
0.0
  0
VERTEX
  5
4DD
330
4D4
100
AcDbEntity
  8
LAYER3
100
AcDbVertex
100
AcDb2dVertex
 10
170.6689547191524
 20
209.6700257011797
 30
0.0
  0
VERTEX
  5
4DE
330
4D4
100
AcDbEntity
  8
LAYER3
100
AcDbVertex
100
AcDb2dVertex
 10
170.63749538764
 20
209.6654671379473
 30
0.0
  0
VERTEX
  5
4DF
330
4D4
100
AcDbEntity
  8
LAYER3
100
AcDbVertex
100
AcDb2dVertex
 10
170.6053553710842
 20
209.6597450920489
 30
0.0
  0
VERTEX
  5
4E0
330
4D4
100
AcDbEntity
  8
LAYER3
100
AcDbVertex
100
AcDb2dVertex
 10
170.5726580510997
 20
209.6528023430255
 30
0.0
  0
VERTEX
  5
4E1
330
4D4
100
AcDbEntity
  8
LAYER3
100
AcDbVertex
100
AcDb2dVertex
 10
170.5395256172085
 20
209.644638890877
 30
0.0
  0
VERTEX
  5
4E2
330
4D4
100
AcDbEntity
  8
LAYER3
100
AcDbVertex
100
AcDb2dVertex
 10
170.506081451025
 20
209.6351975151446
 30
0.0
  0
VERTEX
  5
4E3
330
4D4
100
AcDbEntity
  8
LAYER3
100
AcDbVertex
100
AcDb2dVertex
 10
170.4724477420712
 20
209.6244209953692
 30
0.0
  0
VERTEX
  5
4E4
330
4D4
100
AcDbEntity
  8
LAYER3
100
AcDbVertex
100
AcDb2dVertex
 10
170.4387478719616
 20
209.6122711845782
 30
0.0
  0
VERTEX
  5
4E5
330
4D4
100
AcDbEntity
  8
LAYER3
100
AcDbVertex
100
AcDb2dVertex
 10
170.4051034341717
 20
209.5987099357989
 30
0.0
  0
VERTEX
  5
4E6
330
4D4
100
AcDbEntity
  8
LAYER3
100
AcDbVertex
100
AcDb2dVertex
 10
170.3716312538052
 20
209.583718175545
 30
0.0
  0
VERTEX
  5
4E7
330
4D4
100
AcDbEntity
  8
LAYER3
100
AcDbVertex
100
AcDb2dVertex
 10
170.338452328291
 20
209.5673531242755
 30
0.0
  0
VERTEX
  5
4E8
330
4D4
100
AcDbEntity
  8
LAYER3
100
AcDbVertex
100
AcDb2dVertex
 10
170.3056900392437
 20
209.5496910759356
 30
0.0
  0
VERTEX
  5
4E9
330
4D4
100
AcDbEntity
  8
LAYER3
100
AcDbVertex
100
AcDb2dVertex
 10
170.2734665761853
 20
209.5307511040118
 30
0.0
  0
VERTEX
  5
4EA
330
4D4
100
AcDbEntity
  8
LAYER3
100
AcDbVertex
100
AcDb2dVertex
 10
170.2419053207302
 20
209.5106476494219
 30
0.0
  0
VERTEX
  5
4EB
330
4D4
100
AcDbEntity
  8
LAYER3
100
AcDbVertex
100
AcDb2dVertex
 10
170.2111290584469
 20
209.4894188591387
 30
0.0
  0
VERTEX
  5
4EC
330
4D4
100
AcDbEntity
  8
LAYER3
100
AcDbVertex
100
AcDb2dVertex
 10
170.1812599788571
 20
209.4671410271075
 30
0.0
  0
VERTEX
  5
4ED
330
4D4
100
AcDbEntity
  8
LAYER3
100
AcDbVertex
100
AcDb2dVertex
 10
170.1524208675289
 20
209.4438523003009
 30
0.0
  0
SEQEND
  5
4EE
330
4D4
100
AcDbEntity
  8
LAYER3
  0
POLYLINE
  5
4EF
330
2
100
AcDbEntity
  8
LAYER3
100
AcDb2dPolyline
 66
     1
 10
0.0
 20
0.0
 30
0.0
 70
   128
  0
VERTEX
  5
4F0
330
4EF
100
AcDbEntity
  8
LAYER3
100
AcDbVertex
100
AcDb2dVertex
 10
164.8747535239124
 20
214.0565460869219
 30
0.0
  0
VERTEX
  5
4F1
330
4EF
100
AcDbEntity
  8
LAYER3
100
AcDbVertex
100
AcDb2dVertex
 10
164.8253290544413
 20
214.1805428215411
 30
0.0
  0
VERTEX
  5
4F2
330
4EF
100
AcDbEntity
  8
LAYER3
100
AcDbVertex
100
AcDb2dVertex
 10
164.788027275648
 20
214.310280675545
 30
0.0
  0
VERTEX
  5
4F3
330
4EF
100
AcDbEntity
  8
LAYER3
100
AcDbVertex
100
AcDb2dVertex
 10
164.7636138091944
 20
214.444443578377
 30
0.0
  0
VERTEX
  5
4F4
330
4EF
100
AcDbEntity
  8
LAYER3
100
AcDbVertex
100
AcDb2dVertex
 10
164.7528590451143
 20
214.5823448845294
 30
0.0
  0
VERTEX
  5
4F5
330
4EF
100
AcDbEntity
  8
LAYER3
100
AcDbVertex
100
AcDb2dVertex
 10
164.75715445384
 20
214.7304505058673
 30
0.0
  0
VERTEX
  5
4F6
330
4EF
100
AcDbEntity
  8
LAYER3
100
AcDbVertex
100
AcDb2dVertex
 10
164.7791050563714
 20
214.8856705376055
 30
0.0
  0
VERTEX
  5
4F7
330
4EF
100
AcDbEntity
  8
LAYER3
100
AcDbVertex
100
AcDb2dVertex
 10
164.8205219398401
 20
215.0412338920977
 30
0.0
  0
VERTEX
  5
4F8
330
4EF
100
AcDbEntity
  8
LAYER3
100
AcDbVertex
100
AcDb2dVertex
 10
164.8795052061936
 20
215.1901596733477
 30
0.0
  0
VERTEX
  5
4F9
330
4EF
100
AcDbEntity
  8
LAYER3
100
AcDbVertex
100
AcDb2dVertex
 10
164.9568893204591
 20
215.3324288078692
 30
0.0
  0
VERTEX
  5
4FA
330
4EF
100
AcDbEntity
  8
LAYER3
100
AcDbVertex
100
AcDb2dVertex
 10
165.0573180805108
 20
215.4728668877032
 30
0.0
  0
VERTEX
  5
4FB
330
4EF
100
AcDbEntity
  8
LAYER3
100
AcDbVertex
100
AcDb2dVertex
 10
165.1774032603165
 20
215.6013649650958
 30
0.0
  0
VERTEX
  5
4FC
330
4EF
100
AcDbEntity
  8
LAYER3
100
AcDbVertex
100
AcDb2dVertex
 10
165.3088401447197
 20
215.7104080864336
 30
0.0
  0
VERTEX
  5
4FD
330
4EF
100
AcDbEntity
  8
LAYER3
100
AcDbVertex
100
AcDb2dVertex
 10
165.4531689177414
 20
215.8017128654864
 30
0.0
  0
VERTEX
  5
4FE
330
4EF
100
AcDbEntity
  8
LAYER3
100
AcDbVertex
100
AcDb2dVertex
 10
165.61248140439
 20
215.876213903084
 30
0.0
  0
VERTEX
  5
4FF
330
4EF
100
AcDbEntity
  8
LAYER3
100
AcDbVertex
100
AcDb2dVertex
 10
165.7770942340752
 20
215.9283417412188
 30
0.0
  0
VERTEX
  5
500
330
4EF
100
AcDbEntity
  8
LAYER3
100
AcDbVertex
100
AcDb2dVertex
 10
165.9362967501542
 20
215.9579628654864
 30
0.0
  0
VERTEX
  5
501
330
4EF
100
AcDbEntity
  8
LAYER3
100
AcDbVertex
100
AcDb2dVertex
 10
166.0961748848817
 20
215.9680336662677
 30
0.0
  0
VERTEX
  5
502
330
4EF
100
AcDbEntity
  8
LAYER3
100
AcDbVertex
100
AcDb2dVertex
 10
166.2569169889352
 20
215.9593552299884
 30
0.0
  0
VERTEX
  5
503
330
4EF
100
AcDbEntity
  8
LAYER3
100
AcDbVertex
100
AcDb2dVertex
 10
166.4113144765756
 20
215.9322708794024
 30
0.0
  0
VERTEX
  5
504
330
4EF
100
AcDbEntity
  8
LAYER3
100
AcDbVertex
100
AcDb2dVertex
 10
166.5535108934305
 20
215.8905953117755
 30
0.0
  0
VERTEX
  5
505
330
4EF
100
AcDbEntity
  8
LAYER3
100
AcDbVertex
100
AcDb2dVertex
 10
166.6813348422907
 20
215.8377426811602
 30
0.0
  0
VERTEX
  5
506
330
4EF
100
AcDbEntity
  8
LAYER3
100
AcDbVertex
100
AcDb2dVertex
 10
166.8013809810541
 20
215.7730835625079
 30
0.0
  0
VERTEX
  5
507
330
4EF
100
AcDbEntity
  8
LAYER3
100
AcDbVertex
100
AcDb2dVertex
 10
166.9132410179041
 20
215.6975144096759
 30
0.0
  0
VERTEX
  5
508
330
4EF
100
AcDbEntity
  8
LAYER3
100
AcDbVertex
100
AcDb2dVertex
 10
167.0159064422511
 20
215.6121796318438
 30
0.0
  0
SEQEND
  5
509
330
4EF
100
AcDbEntity
  8
LAYER3
  0
POLYLINE
  5
50A
330
2
100
AcDbEntity
  8
LAYER3
100
AcDb2dPolyline
 66
     1
 10
0.0
 20
0.0
 30
0.0
 70
   128
  0
VERTEX
  5
50B
330
50A
100
AcDbEntity
  8
LAYER3
100
AcDbVertex
100
AcDb2dVertex
 10
164.8924423943425
 20
213.2654541679766
 30
0.0
  0
VERTEX
  5
50C
330
50A
100
AcDbEntity
  8
LAYER3
100
AcDbVertex
100
AcDb2dVertex
 10
164.9056695590878
 20
213.3000725456622
 30
0.0
  0
VERTEX
  5
50D
330
50A
100
AcDbEntity
  8
LAYER3
100
AcDbVertex
100
AcDb2dVertex
 10
164.91763459548
 20
213.3353775688555
 30
0.0
  0
VERTEX
  5
50E
330
50A
100
AcDbEntity
  8
LAYER3
100
AcDbVertex
100
AcDb2dVertex
 10
164.9283145557309
 20
213.3711975761797
 30
0.0
  0
VERTEX
  5
50F
330
50A
100
AcDbEntity
  8
LAYER3
100
AcDbVertex
100
AcDb2dVertex
 10
164.9376864920521
 20
213.4074372002032
 30
0.0
  0
VERTEX
  5
510
330
50A
100
AcDbEntity
  8
LAYER3
100
AcDbVertex
100
AcDb2dVertex
 10
164.9457274566555
 20
213.4439247795489
 30
0.0
  0
VERTEX
  5
511
330
50A
100
AcDbEntity
  8
LAYER3
100
AcDbVertex
100
AcDb2dVertex
 10
164.9524145017529
 20
213.4805458732989
 30
0.0
  0
VERTEX
  5
512
330
50A
100
AcDbEntity
  8
LAYER3
100
AcDbVertex
100
AcDb2dVertex
 10
164.9577249775792
 20
213.5171669670489
 30
0.0
  0
VERTEX
  5
513
330
50A
100
AcDbEntity
  8
LAYER3
100
AcDbVertex
100
AcDb2dVertex
 10
164.9616359363461
 20
213.553616399422
 30
0.0
  0
VERTEX
  5
514
330
50A
100
AcDbEntity
  8
LAYER3
100
AcDbVertex
100
AcDb2dVertex
 10
164.9641318808461
 20
213.5898178764727
 30
0.0
  0
VERTEX
  5
515
330
50A
100
AcDbEntity
  8
LAYER3
100
AcDbVertex
100
AcDb2dVertex
 10
164.9652679453755
 20
213.6256188103106
 30
0.0
  0
VERTEX
  5
516
330
50A
100
AcDbEntity
  8
LAYER3
100
AcDbVertex
100
AcDb2dVertex
 10
164.9651240001583
 20
213.660923833504
 30
0.0
  0
VERTEX
  5
517
330
50A
100
AcDbEntity
  8
LAYER3
100
AcDbVertex
100
AcDb2dVertex
 10
164.963777829256
 20
213.6956566521075
 30
0.0
  0
VERTEX
  5
518
330
50A
100
AcDbEntity
  8
LAYER3
100
AcDbVertex
100
AcDb2dVertex
 10
164.9613075147533
 20
213.7297028252032
 30
0.0
  0
VERTEX
  5
519
330
50A
100
AcDbEntity
  8
LAYER3
100
AcDbVertex
100
AcDb2dVertex
 10
164.9577905426883
 20
213.7629288383868
 30
0.0
  0
VERTEX
  5
51A
330
50A
100
AcDbEntity
  8
LAYER3
100
AcDbVertex
100
AcDb2dVertex
 10
164.9533046971225
 20
213.7952774711993
 30
0.0
  0
VERTEX
  5
51B
330
50A
100
AcDbEntity
  8
LAYER3
100
AcDbVertex
100
AcDb2dVertex
 10
164.9479277621174
 20
213.8265961357501
 30
0.0
  0
VERTEX
  5
51C
330
50A
100
AcDbEntity
  8
LAYER3
100
AcDbVertex
100
AcDb2dVertex
 10
164.9417375217342
 20
213.8568276115802
 30
0.0
  0
VERTEX
  5
51D
330
50A
100
AcDbEntity
  8
LAYER3
100
AcDbVertex
100
AcDb2dVertex
 10
164.9347119222545
 20
213.8863915153887
 30
0.0
  0
VERTEX
  5
51E
330
50A
100
AcDbEntity
  8
LAYER3
100
AcDbVertex
100
AcDb2dVertex
 10
164.9268095384502
 20
213.9156502434161
 30
0.0
  0
VERTEX
  5
51F
330
50A
100
AcDbEntity
  8
LAYER3
100
AcDbVertex
100
AcDb2dVertex
 10
164.918047357645
 20
213.9445847221758
 30
0.0
  0
VERTEX
  5
520
330
50A
100
AcDbEntity
  8
LAYER3
100
AcDbVertex
100
AcDb2dVertex
 10
164.9084435592556
 20
213.9731758781817
 30
0.0
  0
VERTEX
  5
521
330
50A
100
AcDbEntity
  8
LAYER3
100
AcDbVertex
100
AcDb2dVertex
 10
164.8980148325824
 20
214.001385564461
 30
0.0
  0
VERTEX
  5
522
330
50A
100
AcDbEntity
  8
LAYER3
100
AcDbVertex
100
AcDb2dVertex
 10
164.886779059019
 20
214.0291756340411
 30
0.0
  0
VERTEX
  5
523
330
50A
100
AcDbEntity
  8
LAYER3
100
AcDbVertex
100
AcDb2dVertex
 10
164.8747535239124
 20
214.0565460869219
 30
0.0
  0
SEQEND
  5
524
330
50A
100
AcDbEntity
  8
LAYER3
  0
ARC
  5
525
330
2
100
AcDbEntity
  8
LAYER3
100
AcDbCircle
 10
167.9979577453337
 20
212.0091625543674
 30
0.0
 40
3.349999999999479
100
AcDbArc
 50
157.9748830508228
 51
166.0251169491765
  0
POLYLINE
  5
526
330
2
100
AcDbEntity
  8
LAYER3
100
AcDb2dPolyline
 66
     1
 10
0.0
 20
0.0
 30
0.0
 70
   128
  0
VERTEX
  5
527
330
526
100
AcDbEntity
  8
LAYER3
100
AcDbVertex
100
AcDb2dVertex
 10
164.2678125391864
 20
212.1885651298907
 30
0.0
  0
VERTEX
  5
528
330
526
100
AcDbEntity
  8
LAYER3
100
AcDbVertex
100
AcDb2dVertex
 10
164.2936234365367
 20
212.2036331840899
 30
0.0
  0
VERTEX
  5
529
330
526
100
AcDbEntity
  8
LAYER3
100
AcDbVertex
100
AcDb2dVertex
 10
164.3190531621837
 20
212.2195213982013
 30
0.0
  0
VERTEX
  5
52A
330
526
100
AcDbEntity
  8
LAYER3
100
AcDbVertex
100
AcDb2dVertex
 10
164.3440701256656
 20
212.2362106987384
 30
0.0
  0
VERTEX
  5
52B
330
526
100
AcDbEntity
  8
LAYER3
100
AcDbVertex
100
AcDb2dVertex
 10
164.3686436305904
 20
212.2537010857012
 30
0.0
  0
VERTEX
  5
52C
330
526
100
AcDbEntity
  8
LAYER3
100
AcDbVertex
100
AcDb2dVertex
 10
164.392742980566
 20
212.2719544121173
 30
0.0
  0
VERTEX
  5
52D
330
526
100
AcDbEntity
  8
LAYER3
100
AcDbVertex
100
AcDb2dVertex
 10
164.4163371811771
 20
212.2909897514727
 30
0.0
  0
VERTEX
  5
52E
330
526
100
AcDbEntity
  8
LAYER3
100
AcDbVertex
100
AcDb2dVertex
 10
164.4393949399852
 20
212.310768956795
 30
0.0
  0
VERTEX
  5
52F
330
526
100
AcDbEntity
  8
LAYER3
100
AcDbVertex
100
AcDb2dVertex
 10
164.462168682661
 20
212.331578130379
 30
0.0
  0
VERTEX
  5
530
330
526
100
AcDbEntity
  8
LAYER3
100
AcDbVertex
100
AcDb2dVertex
 10
164.484934676733
 20
212.3537796684649
 30
0.0
  0
VERTEX
  5
531
330
526
100
AcDbEntity
  8
LAYER3
100
AcDbVertex
100
AcDb2dVertex
 10
164.5075707326793
 20
212.3772972771075
 30
0.0
  0
VERTEX
  5
532
330
526
100
AcDbEntity
  8
LAYER3
100
AcDbVertex
100
AcDb2dVertex
 10
164.5299522767925
 20
212.4021118828204
 30
0.0
  0
VERTEX
  5
533
330
526
100
AcDbEntity
  8
LAYER3
100
AcDbVertex
100
AcDb2dVertex
 10
164.5519559274578
 20
212.4282044121172
 30
0.0
  0
VERTEX
  5
534
330
526
100
AcDbEntity
  8
LAYER3
100
AcDbVertex
100
AcDb2dVertex
 10
164.5734577070141
 20
212.4554985710528
 30
0.0
  0
VERTEX
  5
535
330
526
100
AcDbEntity
  8
LAYER3
100
AcDbVertex
100
AcDb2dVertex
 10
164.594333339777
 20
212.483994359627
 30
0.0
  0
VERTEX
  5
536
330
526
100
AcDbEntity
  8
LAYER3
100
AcDbVertex
100
AcDb2dVertex
 10
164.6144588480854
 20
212.5136345573809
 30
0.0
  0
VERTEX
  5
537
330
526
100
AcDbEntity
  8
LAYER3
100
AcDbVertex
100
AcDb2dVertex
 10
164.6337096582318
 20
212.5443810173419
 30
0.0
  0
VERTEX
  5
538
330
526
100
AcDbEntity
  8
LAYER3
100
AcDbVertex
100
AcDb2dVertex
 10
164.6519796739483
 20
212.5761765190508
 30
0.0
  0
VERTEX
  5
539
330
526
100
AcDbEntity
  8
LAYER3
100
AcDbVertex
100
AcDb2dVertex
 10
164.6692033301258
 20
212.6089066215899
 30
0.0
  0
VERTEX
  5
53A
330
526
100
AcDbEntity
  8
LAYER3
100
AcDbVertex
100
AcDb2dVertex
 10
164.6853186379338
 20
212.6424759575274
 30
0.0
  0
VERTEX
  5
53B
330
526
100
AcDbEntity
  8
LAYER3
100
AcDbVertex
100
AcDb2dVertex
 10
164.700264204588
 20
212.6767128654864
 30
0.0
  0
VERTEX
  5
53C
330
526
100
AcDbEntity
  8
LAYER3
100
AcDbVertex
100
AcDb2dVertex
 10
164.7139780412579
 20
212.7115410515215
 30
0.0
  0
VERTEX
  5
53D
330
526
100
AcDbEntity
  8
LAYER3
100
AcDbVertex
100
AcDb2dVertex
 10
164.726398159113
 20
212.7468079277423
 30
0.0
  0
VERTEX
  5
53E
330
526
100
AcDbEntity
  8
LAYER3
100
AcDbVertex
100
AcDb2dVertex
 10
164.7374637614155
 20
212.7823990532305
 30
0.0
  0
VERTEX
  5
53F
330
526
100
AcDbEntity
  8
LAYER3
100
AcDbVertex
100
AcDb2dVertex
 10
164.7471119652653
 20
212.8181809135821
 30
0.0
  0
SEQEND
  5
540
330
526
100
AcDbEntity
  8
LAYER3
  0
POLYLINE
  5
541
330
2
100
AcDbEntity
  8
LAYER3
100
AcDb2dPolyline
 66
     1
 10
0.0
 20
0.0
 30
0.0
 70
   128
  0
VERTEX
  5
542
330
541
100
AcDbEntity
  8
LAYER3
100
AcDbVertex
100
AcDb2dVertex
 10
165.0856600891017
 20
209.671494359627
 30
0.0
  0
VERTEX
  5
543
330
541
100
AcDbEntity
  8
LAYER3
100
AcDbVertex
100
AcDb2dVertex
 10
164.9524484764002
 20
209.6628159233477
 30
0.0
  0
VERTEX
  5
544
330
541
100
AcDbEntity
  8
LAYER3
100
AcDbVertex
100
AcDb2dVertex
 10
164.817534555044
 20
209.6674317070391
 30
0.0
  0
VERTEX
  5
545
330
541
100
AcDbEntity
  8
LAYER3
100
AcDbVertex
100
AcDb2dVertex
 10
164.6824003945253
 20
209.6856659599688
 30
0.0
  0
VERTEX
  5
546
330
541
100
AcDbEntity
  8
LAYER3
100
AcDbVertex
100
AcDb2dVertex
 10
164.5479299317263
 20
209.718052739754
 30
0.0
  0
VERTEX
  5
547
330
541
100
AcDbEntity
  8
LAYER3
100
AcDbVertex
100
AcDb2dVertex
 10
164.4083880077265
 20
209.7679108330157
 30
0.0
  0
VERTEX
  5
548
330
541
100
AcDbEntity
  8
LAYER3
100
AcDbVertex
100
AcDb2dVertex
 10
164.2675565372369
 20
209.8367470451739
 30
0.0
  0
VERTEX
  5
549
330
541
100
AcDbEntity
  8
LAYER3
100
AcDbVertex
100
AcDb2dVertex
 10
164.1324116478822
 20
209.9241989799883
 30
0.0
  0
VERTEX
  5
54A
330
541
100
AcDbEntity
  8
LAYER3
100
AcDbVertex
100
AcDb2dVertex
 10
164.0089871178529
 20
210.0263184257891
 30
0.0
  0
VERTEX
  5
54B
330
541
100
AcDbEntity
  8
LAYER3
100
AcDbVertex
100
AcDb2dVertex
 10
163.8976106236836
 20
210.1438683220294
 30
0.0
  0
VERTEX
  5
54C
330
541
100
AcDbEntity
  8
LAYER3
100
AcDbVertex
100
AcDb2dVertex
 10
163.7950661967655
 20
210.2827995964434
 30
0.0
  0
VERTEX
  5
54D
330
541
100
AcDbEntity
  8
LAYER3
100
AcDbVertex
100
AcDb2dVertex
 10
163.7099702845475
 20
210.4367035576251
 30
0.0
  0
VERTEX
  5
54E
330
541
100
AcDbEntity
  8
LAYER3
100
AcDbVertex
100
AcDb2dVertex
 10
163.6468741486927
 20
210.5954140373614
 30
0.0
  0
VERTEX
  5
54F
330
541
100
AcDbEntity
  8
LAYER3
100
AcDbVertex
100
AcDb2dVertex
 10
163.6046372543236
 20
210.7608956047442
 30
0.0
  0
VERTEX
  5
550
330
541
100
AcDbEntity
  8
LAYER3
100
AcDbVertex
100
AcDb2dVertex
 10
163.5830126891991
 20
210.9354180046465
 30
0.0
  0
VERTEX
  5
551
330
541
100
AcDbEntity
  8
LAYER3
100
AcDbVertex
100
AcDb2dVertex
 10
163.5843202660939
 20
211.1080902763751
 30
0.0
  0
VERTEX
  5
552
330
541
100
AcDbEntity
  8
LAYER3
100
AcDbVertex
100
AcDb2dVertex
 10
163.605328668203
 20
211.2686508842852
 30
0.0
  0
VERTEX
  5
553
330
541
100
AcDbEntity
  8
LAYER3
100
AcDbVertex
100
AcDb2dVertex
 10
163.6451555977723
 20
211.4238136955645
 30
0.0
  0
VERTEX
  5
554
330
541
100
AcDbEntity
  8
LAYER3
100
AcDbVertex
100
AcDb2dVertex
 10
163.7030828188321
 20
211.5740174003985
 30
0.0
  0
VERTEX
  5
555
330
541
100
AcDbEntity
  8
LAYER3
100
AcDbVertex
100
AcDb2dVertex
 10
163.7765552292726
 20
211.7124909111407
 30
0.0
  0
VERTEX
  5
556
330
541
100
AcDbEntity
  8
LAYER3
100
AcDbVertex
100
AcDb2dVertex
 10
163.8601418028734
 20
211.8348473259356
 30
0.0
  0
VERTEX
  5
557
330
541
100
AcDbEntity
  8
LAYER3
100
AcDbVertex
100
AcDb2dVertex
 10
163.9498961161039
 20
211.9400757500079
 30
0.0
  0
VERTEX
  5
558
330
541
100
AcDbEntity
  8
LAYER3
100
AcDbVertex
100
AcDb2dVertex
 10
164.0485020171069
 20
212.0342606254962
 30
0.0
  0
VERTEX
  5
559
330
541
100
AcDbEntity
  8
LAYER3
100
AcDbVertex
100
AcDb2dVertex
 10
164.1549371372126
 20
212.1172875114825
 30
0.0
  0
VERTEX
  5
55A
330
541
100
AcDbEntity
  8
LAYER3
100
AcDbVertex
100
AcDb2dVertex
 10
164.2678125391864
 20
212.1885651298907
 30
0.0
  0
SEQEND
  5
55B
330
541
100
AcDbEntity
  8
LAYER3
  0
POLYLINE
  5
55C
330
2
100
AcDbEntity
  8
LAYER3
100
AcDb2dPolyline
 66
     1
 10
0.0
 20
0.0
 30
0.0
 70
   128
  0
VERTEX
  5
55D
330
55C
100
AcDbEntity
  8
LAYER3
100
AcDbVertex
100
AcDb2dVertex
 10
165.8434944044018
 20
209.4438523003009
 30
0.0
  0
VERTEX
  5
55E
330
55C
100
AcDbEntity
  8
LAYER3
100
AcDbVertex
100
AcDb2dVertex
 10
165.8146555910969
 20
209.4671410271075
 30
0.0
  0
VERTEX
  5
55F
330
55C
100
AcDbEntity
  8
LAYER3
100
AcDbVertex
100
AcDb2dVertex
 10
165.7847865115071
 20
209.4894188591387
 30
0.0
  0
VERTEX
  5
560
330
55C
100
AcDbEntity
  8
LAYER3
100
AcDbVertex
100
AcDb2dVertex
 10
165.7540099512005
 20
209.5106476494219
 30
0.0
  0
VERTEX
  5
561
330
55C
100
AcDbEntity
  8
LAYER3
100
AcDbVertex
100
AcDb2dVertex
 10
165.7224486957455
 20
209.5307511040118
 30
0.0
  0
VERTEX
  5
562
330
55C
100
AcDbEntity
  8
LAYER3
100
AcDbVertex
100
AcDb2dVertex
 10
165.6902255307103
 20
209.5496910759356
 30
0.0
  0
VERTEX
  5
563
330
55C
100
AcDbEntity
  8
LAYER3
100
AcDbVertex
100
AcDb2dVertex
 10
165.657463241663
 20
209.5673531242755
 30
0.0
  0
VERTEX
  5
564
330
55C
100
AcDbEntity
  8
LAYER3
100
AcDbVertex
100
AcDb2dVertex
 10
165.6242843161488
 20
209.583718175545
 30
0.0
  0
VERTEX
  5
565
330
55C
100
AcDbEntity
  8
LAYER3
100
AcDbVertex
100
AcDb2dVertex
 10
165.590811837759
 20
209.5987099357989
 30
0.0
  0
VERTEX
  5
566
330
55C
100
AcDbEntity
  8
LAYER3
100
AcDbVertex
100
AcDb2dVertex
 10
165.5571673999691
 20
209.6122711845782
 30
0.0
  0
VERTEX
  5
567
330
55C
100
AcDbEntity
  8
LAYER3
100
AcDbVertex
100
AcDb2dVertex
 10
165.5234675298596
 20
209.6244209953692
 30
0.0
  0
VERTEX
  5
568
330
55C
100
AcDbEntity
  8
LAYER3
100
AcDbVertex
100
AcDb2dVertex
 10
165.4898341189289
 20
209.6351975151446
 30
0.0
  0
VERTEX
  5
569
330
55C
100
AcDbEntity
  8
LAYER3
100
AcDbVertex
100
AcDb2dVertex
 10
165.4563896547222
 20
209.644638890877
 30
0.0
  0
VERTEX
  5
56A
330
55C
100
AcDbEntity
  8
LAYER3
100
AcDbVertex
100
AcDb2dVertex
 10
165.4232575188541
 20
209.6528023430255
 30
0.0
  0
VERTEX
  5
56B
330
55C
100
AcDbEntity
  8
LAYER3
100
AcDbVertex
100
AcDb2dVertex
 10
165.3905599008465
 20
209.6597450920489
 30
0.0
  0
VERTEX
  5
56C
330
55C
100
AcDbEntity
  8
LAYER3
100
AcDbVertex
100
AcDb2dVertex
 10
165.3584201823139
 20
209.6654671379473
 30
0.0
  0
VERTEX
  5
56D
330
55C
100
AcDbEntity
  8
LAYER3
100
AcDbVertex
100
AcDb2dVertex
 10
165.3269608508014
 20
209.6700257011797
 30
0.0
  0
VERTEX
  5
56E
330
55C
100
AcDbEntity
  8
LAYER3
100
AcDbVertex
100
AcDb2dVertex
 10
165.2963026057147
 20
209.6734780022051
 30
0.0
  0
VERTEX
  5
56F
330
55C
100
AcDbEntity
  8
LAYER3
100
AcDbVertex
100
AcDb2dVertex
 10
165.2660198698901
 20
209.6759384819415
 30
0.0
  0
VERTEX
  5
570
330
55C
100
AcDbEntity
  8
LAYER3
100
AcDbVertex
100
AcDb2dVertex
 10
165.2357460747623
 20
209.6774643608477
 30
0.0
  0
VERTEX
  5
571
330
55C
100
AcDbEntity
  8
LAYER3
100
AcDbVertex
100
AcDb2dVertex
 10
165.2055145989322
 20
209.6780747124102
 30
0.0
  0
VERTEX
  5
572
330
55C
100
AcDbEntity
  8
LAYER3
100
AcDbVertex
100
AcDb2dVertex
 10
165.1753576289081
 20
209.677769536629
 30
0.0
  0
VERTEX
  5
573
330
55C
100
AcDbEntity
  8
LAYER3
100
AcDbVertex
100
AcDb2dVertex
 10
165.1453076492214
 20
209.6765679069903
 30
0.0
  0
VERTEX
  5
574
330
55C
100
AcDbEntity
  8
LAYER3
100
AcDbVertex
100
AcDb2dVertex
 10
165.1153977404498
 20
209.6744698234942
 30
0.0
  0
VERTEX
  5
575
330
55C
100
AcDbEntity
  8
LAYER3
100
AcDbVertex
100
AcDb2dVertex
 10
165.0856600891017
 20
209.671494359627
 30
0.0
  0
SEQEND
  5
576
330
55C
100
AcDbEntity
  8
LAYER3
  0
ARC
  5
577
330
2
100
AcDbEntity
  8
LAYER3
100
AcDbCircle
 10
167.997957745337
 20
212.009162554371
 30
0.0
 40
3.350000000004513
100
AcDbArc
 50
229.974883050831
 51
238.0251169491719
  0
POLYLINE
  5
578
330
2
100
AcDbEntity
  8
LAYER3
100
AcDb2dPolyline
 66
     1
 10
0.0
 20
0.0
 30
0.0
 70
   128
  0
VERTEX
  5
579
330
578
100
AcDbEntity
  8
LAYER3
100
AcDbVertex
100
AcDb2dVertex
 10
166.674652565565
 20
208.5170143791583
 30
0.0
  0
VERTEX
  5
57A
330
578
100
AcDbEntity
  8
LAYER3
100
AcDbVertex
100
AcDb2dVertex
 10
166.6682993064784
 20
208.546234960213
 30
0.0
  0
VERTEX
  5
57B
330
578
100
AcDbEntity
  8
LAYER3
100
AcDbVertex
100
AcDb2dVertex
 10
166.6610495935344
 20
208.5753220268633
 30
0.0
  0
VERTEX
  5
57C
330
578
100
AcDbEntity
  8
LAYER3
100
AcDbVertex
100
AcDb2dVertex
 10
166.6529064069652
 20
208.6042755791094
 30
0.0
  0
VERTEX
  5
57D
330
578
100
AcDbEntity
  8
LAYER3
100
AcDbVertex
100
AcDb2dVertex
 10
166.6438721309566
 20
208.6330383964923
 30
0.0
  0
VERTEX
  5
57E
330
578
100
AcDbEntity
  8
LAYER3
100
AcDbVertex
100
AcDb2dVertex
 10
166.6339497457408
 20
208.6616104790118
 30
0.0
  0
VERTEX
  5
57F
330
578
100
AcDbEntity
  8
LAYER3
100
AcDbVertex
100
AcDb2dVertex
 10
166.6231422315502
 20
208.689934606209
 30
0.0
  0
VERTEX
  5
580
330
578
100
AcDbEntity
  8
LAYER3
100
AcDbVertex
100
AcDb2dVertex
 10
166.6114519725704
 20
208.7179726311114
 30
0.0
  0
VERTEX
  5
581
330
578
100
AcDbEntity
  8
LAYER3
100
AcDbVertex
100
AcDb2dVertex
 10
166.5986947904491
 20
208.7460678764727
 30
0.0
  0
VERTEX
  5
582
330
578
100
AcDbEntity
  8
LAYER3
100
AcDbVertex
100
AcDb2dVertex
 10
166.5846286903286
 20
208.774563665047
 30
0.0
  0
VERTEX
  5
583
330
578
100
AcDbEntity
  8
LAYER3
100
AcDbVertex
100
AcDb2dVertex
 10
166.5692506919765
 20
208.8033646294024
 30
0.0
  0
VERTEX
  5
584
330
578
100
AcDbEntity
  8
LAYER3
100
AcDbVertex
100
AcDb2dVertex
 10
166.5525596033001
 20
208.8323181816485
 30
0.0
  0
VERTEX
  5
585
330
578
100
AcDbEntity
  8
LAYER3
100
AcDbVertex
100
AcDb2dVertex
 10
166.5345530401134
 20
208.8613098808672
 30
0.0
  0
VERTEX
  5
586
330
578
100
AcDbEntity
  8
LAYER3
100
AcDbVertex
100
AcDb2dVertex
 10
166.5152298103237
 20
208.8902062126543
 30
0.0
  0
VERTEX
  5
587
330
578
100
AcDbEntity
  8
LAYER3
100
AcDbVertex
100
AcDb2dVertex
 10
166.4945869336987
 20
208.9188545891192
 30
0.0
  0
VERTEX
  5
588
330
578
100
AcDbEntity
  8
LAYER3
100
AcDbVertex
100
AcDb2dVertex
 10
166.4726229201222
 20
208.9471596428301
 30
0.0
  0
VERTEX
  5
589
330
578
100
AcDbEntity
  8
LAYER3
100
AcDbVertex
100
AcDb2dVertex
 10
166.4493338952923
 20
208.9749687858966
 30
0.0
  0
VERTEX
  5
58A
330
578
100
AcDbEntity
  8
LAYER3
100
AcDbVertex
100
AcDb2dVertex
 10
166.4247359524632
 20
209.0021675774004
 30
0.0
  0
VERTEX
  5
58B
330
578
100
AcDbEntity
  8
LAYER3
100
AcDbVertex
100
AcDb2dVertex
 10
166.3989196906948
 20
209.0286606499102
 30
0.0
  0
VERTEX
  5
58C
330
578
100
AcDbEntity
  8
LAYER3
100
AcDbVertex
100
AcDb2dVertex
 10
166.3719843517208
 20
209.0543526359942
 30
0.0
  0
VERTEX
  5
58D
330
578
100
AcDbEntity
  8
LAYER3
100
AcDbVertex
100
AcDb2dVertex
 10
166.3440285812283
 20
209.0791481682208
 30
0.0
  0
VERTEX
  5
58E
330
578
100
AcDbEntity
  8
LAYER3
100
AcDbVertex
100
AcDb2dVertex
 10
166.3151507268811
 20
209.1029518791583
 30
0.0
  0
VERTEX
  5
58F
330
578
100
AcDbEntity
  8
LAYER3
100
AcDbVertex
100
AcDb2dVertex
 10
166.2854497323895
 20
209.125668401375
 30
0.0
  0
VERTEX
  5
590
330
578
100
AcDbEntity
  8
LAYER3
100
AcDbVertex
100
AcDb2dVertex
 10
166.2550245414639
 20
209.1471832939532
 30
0.0
  0
VERTEX
  5
591
330
578
100
AcDbEntity
  8
LAYER3
100
AcDbVertex
100
AcDb2dVertex
 10
166.2239737997914
 20
209.1674202629473
 30
0.0
  0
SEQEND
  5
592
330
578
100
AcDbEntity
  8
LAYER3
  0
POLYLINE
  5
593
330
2
100
AcDbEntity
  8
LAYER3
100
AcDb2dPolyline
 66
     1
 10
0.0
 20
0.0
 30
0.0
 70
   128
  0
VERTEX
  5
594
330
593
100
AcDbEntity
  8
LAYER3
100
AcDbVertex
100
AcDb2dVertex
 10
169.3212633024119
 20
208.5170143791583
 30
0.0
  0
VERTEX
  5
595
330
593
100
AcDbEntity
  8
LAYER3
100
AcDbVertex
100
AcDb2dVertex
 10
169.2883585582636
 20
208.3876389213946
 30
0.0
  0
VERTEX
  5
596
330
593
100
AcDbEntity
  8
LAYER3
100
AcDbVertex
100
AcDb2dVertex
 10
169.2422788034342
 20
208.2607620903399
 30
0.0
  0
VERTEX
  5
597
330
593
100
AcDbEntity
  8
LAYER3
100
AcDbVertex
100
AcDb2dVertex
 10
169.1831742416284
 20
208.1378716179278
 30
0.0
  0
VERTEX
  5
598
330
593
100
AcDbEntity
  8
LAYER3
100
AcDbVertex
100
AcDb2dVertex
 10
169.110821951475
 20
208.01999747242
 30
0.0
  0
VERTEX
  5
599
330
593
100
AcDbEntity
  8
LAYER3
100
AcDbVertex
100
AcDb2dVertex
 10
169.0202848802469
 20
207.902695531502
 30
0.0
  0
VERTEX
  5
59A
330
593
100
AcDbEntity
  8
LAYER3
100
AcDbVertex
100
AcDb2dVertex
 10
168.9112954030893
 20
207.7900284477618
 30
0.0
  0
VERTEX
  5
59B
330
593
100
AcDbEntity
  8
LAYER3
100
AcDbVertex
100
AcDb2dVertex
 10
168.7863545308969
 20
207.6885193535235
 30
0.0
  0
VERTEX
  5
59C
330
593
100
AcDbEntity
  8
LAYER3
100
AcDbVertex
100
AcDb2dVertex
 10
168.6510907302758
 20
207.602688665047
 30
0.0
  0
VERTEX
  5
59D
330
593
100
AcDbEntity
  8
LAYER3
100
AcDbVertex
100
AcDb2dVertex
 10
168.5048721919915
 20
207.5330895134356
 30
0.0
  0
VERTEX
  5
59E
330
593
100
AcDbEntity
  8
LAYER3
100
AcDbVertex
100
AcDb2dVertex
 10
168.3410673032662
 20
207.4785011955645
 30
0.0
  0
VERTEX
  5
59F
330
593
100
AcDbEntity
  8
LAYER3
100
AcDbVertex
100
AcDb2dVertex
 10
168.1683902631661
 20
207.4451225944903
 30
0.0
  0
VERTEX
  5
5A0
330
593
100
AcDbEntity
  8
LAYER3
100
AcDbVertex
100
AcDb2dVertex
 10
167.9979579339882
 20
207.4341553398516
 30
0.0
  0
VERTEX
  5
5A1
330
593
100
AcDbEntity
  8
LAYER3
100
AcDbVertex
100
AcDb2dVertex
 10
167.8275250087639
 20
207.4451225944903
 30
0.0
  0
VERTEX
  5
5A2
330
593
100
AcDbEntity
  8
LAYER3
100
AcDbVertex
100
AcDb2dVertex
 10
167.6548479686638
 20
207.4785011955645
 30
0.0
  0
VERTEX
  5
5A3
330
593
100
AcDbEntity
  8
LAYER3
100
AcDbVertex
100
AcDb2dVertex
 10
167.4910430799386
 20
207.5330895134356
 30
0.0
  0
VERTEX
  5
5A4
330
593
100
AcDbEntity
  8
LAYER3
100
AcDbVertex
100
AcDb2dVertex
 10
167.3448245416543
 20
207.602688665047
 30
0.0
  0
VERTEX
  5
5A5
330
593
100
AcDbEntity
  8
LAYER3
100
AcDbVertex
100
AcDb2dVertex
 10
167.2095607410333
 20
207.6885193535235
 30
0.0
  0
VERTEX
  5
5A6
330
593
100
AcDbEntity
  8
LAYER3
100
AcDbVertex
100
AcDb2dVertex
 10
167.0846198688409
 20
207.7900284477618
 30
0.0
  0
VERTEX
  5
5A7
330
593
100
AcDbEntity
  8
LAYER3
100
AcDbVertex
100
AcDb2dVertex
 10
166.9756303916834
 20
207.902695531502
 30
0.0
  0
VERTEX
  5
5A8
330
593
100
AcDbEntity
  8
LAYER3
100
AcDbVertex
100
AcDb2dVertex
 10
166.8850933204554
 20
208.01999747242
 30
0.0
  0
VERTEX
  5
5A9
330
593
100
AcDbEntity
  8
LAYER3
100
AcDbVertex
100
AcDb2dVertex
 10
166.8127410303019
 20
208.1378716179278
 30
0.0
  0
VERTEX
  5
5AA
330
593
100
AcDbEntity
  8
LAYER3
100
AcDbVertex
100
AcDb2dVertex
 10
166.7536370645426
 20
208.2607620903399
 30
0.0
  0
VERTEX
  5
5AB
330
593
100
AcDbEntity
  8
LAYER3
100
AcDbVertex
100
AcDb2dVertex
 10
166.7075573097132
 20
208.3876389213946
 30
0.0
  0
VERTEX
  5
5AC
330
593
100
AcDbEntity
  8
LAYER3
100
AcDbVertex
100
AcDb2dVertex
 10
166.674652565565
 20
208.5170143791583
 30
0.0
  0
SEQEND
  5
5AD
330
593
100
AcDbEntity
  8
LAYER3
  0
POLYLINE
  5
5AE
330
2
100
AcDbEntity
  8
LAYER3
100
AcDb2dPolyline
 66
     1
 10
0.0
 20
0.0
 30
0.0
 70
   128
  0
VERTEX
  5
5AF
330
5AE
100
AcDbEntity
  8
LAYER3
100
AcDbVertex
100
AcDb2dVertex
 10
169.7719417701626
 20
209.1674202629473
 30
0.0
  0
VERTEX
  5
5B0
330
5AE
100
AcDbEntity
  8
LAYER3
100
AcDbVertex
100
AcDb2dVertex
 10
169.7408907304669
 20
209.1471832939532
 30
0.0
  0
VERTEX
  5
5B1
330
5AE
100
AcDbEntity
  8
LAYER3
100
AcDbVertex
100
AcDb2dVertex
 10
169.7104655395413
 20
209.125668401375
 30
0.0
  0
VERTEX
  5
5B2
330
5AE
100
AcDbEntity
  8
LAYER3
100
AcDbVertex
100
AcDb2dVertex
 10
169.6807651410962
 20
209.1029518791583
 30
0.0
  0
VERTEX
  5
5B3
330
5AE
100
AcDbEntity
  8
LAYER3
100
AcDbVertex
100
AcDb2dVertex
 10
169.6518872867489
 20
209.0791481682208
 30
0.0
  0
VERTEX
  5
5B4
330
5AE
100
AcDbEntity
  8
LAYER3
100
AcDbVertex
100
AcDb2dVertex
 10
169.6239309202099
 20
209.0543526359942
 30
0.0
  0
VERTEX
  5
5B5
330
5AE
100
AcDbEntity
  8
LAYER3
100
AcDbVertex
100
AcDb2dVertex
 10
169.5969955812359
 20
209.0286606499102
 30
0.0
  0
VERTEX
  5
5B6
330
5AE
100
AcDbEntity
  8
LAYER3
100
AcDbVertex
100
AcDb2dVertex
 10
169.5711796174908
 20
209.0021675774004
 30
0.0
  0
VERTEX
  5
5B7
330
5AE
100
AcDbEntity
  8
LAYER3
100
AcDbVertex
100
AcDb2dVertex
 10
169.5465813766384
 20
208.9749687858966
 30
0.0
  0
VERTEX
  5
5B8
330
5AE
100
AcDbEntity
  8
LAYER3
100
AcDbVertex
100
AcDb2dVertex
 10
169.5232926498318
 20
208.9471596428301
 30
0.0
  0
VERTEX
  5
5B9
330
5AE
100
AcDbEntity
  8
LAYER3
100
AcDbVertex
100
AcDb2dVertex
 10
169.5013283382321
 20
208.9188545891192
 30
0.0
  0
VERTEX
  5
5BA
330
5AE
100
AcDbEntity
  8
LAYER3
100
AcDbVertex
100
AcDb2dVertex
 10
169.4806860576534
 20
208.8902062126543
 30
0.0
  0
VERTEX
  5
5BB
330
5AE
100
AcDbEntity
  8
LAYER3
100
AcDbVertex
100
AcDb2dVertex
 10
169.4613622318172
 20
208.8613098808672
 30
0.0
  0
VERTEX
  5
5BC
330
5AE
100
AcDbEntity
  8
LAYER3
100
AcDbVertex
100
AcDb2dVertex
 10
169.4433556686306
 20
208.8323181816485
 30
0.0
  0
VERTEX
  5
5BD
330
5AE
100
AcDbEntity
  8
LAYER3
100
AcDbVertex
100
AcDb2dVertex
 10
169.4266645799541
 20
208.8033646294024
 30
0.0
  0
VERTEX
  5
5BE
330
5AE
100
AcDbEntity
  8
LAYER3
100
AcDbVertex
100
AcDb2dVertex
 10
169.4112871776485
 20
208.774563665047
 30
0.0
  0
VERTEX
  5
5BF
330
5AE
100
AcDbEntity
  8
LAYER3
100
AcDbVertex
100
AcDb2dVertex
 10
169.397221077528
 20
208.7460678764727
 30
0.0
  0
VERTEX
  5
5C0
330
5AE
100
AcDbEntity
  8
LAYER3
100
AcDbVertex
100
AcDb2dVertex
 10
169.3844632993602
 20
208.7179726311114
 30
0.0
  0
VERTEX
  5
5C1
330
5AE
100
AcDbEntity
  8
LAYER3
100
AcDbVertex
100
AcDb2dVertex
 10
169.3727730403804
 20
208.689934606209
 30
0.0
  0
VERTEX
  5
5C2
330
5AE
100
AcDbEntity
  8
LAYER3
100
AcDbVertex
100
AcDb2dVertex
 10
169.3619655261898
 20
208.6616104790118
 30
0.0
  0
VERTEX
  5
5C3
330
5AE
100
AcDbEntity
  8
LAYER3
100
AcDbVertex
100
AcDb2dVertex
 10
169.352043140974
 20
208.6330383964923
 30
0.0
  0
VERTEX
  5
5C4
330
5AE
100
AcDbEntity
  8
LAYER3
100
AcDbVertex
100
AcDb2dVertex
 10
169.3430094610118
 20
208.6042755791094
 30
0.0
  0
VERTEX
  5
5C5
330
5AE
100
AcDbEntity
  8
LAYER3
100
AcDbVertex
100
AcDb2dVertex
 10
169.3348656783962
 20
208.5753220268633
 30
0.0
  0
VERTEX
  5
5C6
330
5AE
100
AcDbEntity
  8
LAYER3
100
AcDbVertex
100
AcDb2dVertex
 10
169.3276165614986
 20
208.546234960213
 30
0.0
  0
VERTEX
  5
5C7
330
5AE
100
AcDbEntity
  8
LAYER3
100
AcDbVertex
100
AcDb2dVertex
 10
169.3212633024119
 20
208.5170143791583
 30
0.0
  0
SEQEND
  5
5C8
330
5AE
100
AcDbEntity
  8
LAYER3
  0
ARC
  5
5C9
330
2
100
AcDbEntity
  8
LAYER3
100
AcDbCircle
 10
167.9979577453327
 20
212.0091625543699
 30
0.0
 40
3.350000000003067
100
AcDbArc
 50
301.9748830508252
 51
310.025116949169
  0
POLYLINE
  5
5CA
330
2
100
AcDbEntity
  8
LAYER3
100
AcDb2dPolyline
 66
     1
 10
0.0
 20
0.0
 30
0.0
 70
   128
  0
VERTEX
  5
5CB
330
5CA
100
AcDbEntity
  8
LAYER3
100
AcDbVertex
100
AcDb2dVertex
 10
167.0159064422511
 20
429.6121805855181
 30
0.0
  0
VERTEX
  5
5CC
330
5CA
100
AcDbEntity
  8
LAYER3
100
AcDbVertex
100
AcDb2dVertex
 10
167.038211692419
 20
429.5922893234636
 30
0.0
  0
VERTEX
  5
5CD
330
5CA
100
AcDbEntity
  8
LAYER3
100
AcDbVertex
100
AcDb2dVertex
 10
167.0611779580974
 20
429.5730131813432
 30
0.0
  0
VERTEX
  5
5CE
330
5CA
100
AcDbEntity
  8
LAYER3
100
AcDbVertex
100
AcDb2dVertex
 10
167.0847825895213
 20
429.5543783852007
 30
0.0
  0
VERTEX
  5
5CF
330
5CA
100
AcDbEntity
  8
LAYER3
100
AcDbVertex
100
AcDb2dVertex
 10
167.1090041290187
 20
429.5364111610796
 30
0.0
  0
VERTEX
  5
5D0
330
5CA
100
AcDbEntity
  8
LAYER3
100
AcDbVertex
100
AcDb2dVertex
 10
167.133820522871
 20
429.5191353508378
 30
0.0
  0
VERTEX
  5
5D1
330
5CA
100
AcDbEntity
  8
LAYER3
100
AcDbVertex
100
AcDb2dVertex
 10
167.1592097173595
 20
429.5025747963335
 30
0.0
  0
VERTEX
  5
5D2
330
5CA
100
AcDbEntity
  8
LAYER3
100
AcDbVertex
100
AcDb2dVertex
 10
167.1851508508587
 20
429.4867604919817
 30
0.0
  0
VERTEX
  5
5D3
330
5CA
100
AcDbEntity
  8
LAYER3
100
AcDbVertex
100
AcDb2dVertex
 10
167.2119830737972
 20
429.4715326973345
 30
0.0
  0
VERTEX
  5
5D4
330
5CA
100
AcDbEntity
  8
LAYER3
100
AcDbVertex
100
AcDb2dVertex
 10
167.2401194463634
 20
429.4567364403154
 30
0.0
  0
VERTEX
  5
5D5
330
5CA
100
AcDbEntity
  8
LAYER3
100
AcDbVertex
100
AcDb2dVertex
 10
167.2694866548443
 20
429.4424790092851
 30
0.0
  0
VERTEX
  5
5D6
330
5CA
100
AcDbEntity
  8
LAYER3
100
AcDbVertex
100
AcDb2dVertex
 10
167.3000107894802
 20
429.4288629242327
 30
0.0
  0
VERTEX
  5
5D7
330
5CA
100
AcDbEntity
  8
LAYER3
100
AcDbVertex
100
AcDb2dVertex
 10
167.3316161523724
 20
429.4159954735185
 30
0.0
  0
VERTEX
  5
5D8
330
5CA
100
AcDbEntity
  8
LAYER3
100
AcDbVertex
100
AcDb2dVertex
 10
167.3642282377148
 20
429.4039839455034
 30
0.0
  0
VERTEX
  5
5D9
330
5CA
100
AcDbEntity
  8
LAYER3
100
AcDbVertex
100
AcDb2dVertex
 10
167.397773135748
 20
429.3929332443621
 30
0.0
  0
VERTEX
  5
5DA
330
5CA
100
AcDbEntity
  8
LAYER3
100
AcDbVertex
100
AcDb2dVertex
 10
167.432175148573
 20
429.382950658455
 30
0.0
  0
VERTEX
  5
5DB
330
5CA
100
AcDbEntity
  8
LAYER3
100
AcDbVertex
100
AcDb2dVertex
 10
167.4673621545697
 20
429.3741410919572
 30
0.0
  0
VERTEX
  5
5DC
330
5CA
100
AcDbEntity
  8
LAYER3
100
AcDbVertex
100
AcDb2dVertex
 10
167.5032513032818
 20
429.3665927597429
 30
0.0
  0
VERTEX
  5
5DD
330
5CA
100
AcDbEntity
  8
LAYER3
100
AcDbVertex
100
AcDb2dVertex
 10
167.5397120605374
 20
429.36032950367
 30
0.0
  0
VERTEX
  5
5DE
330
5CA
100
AcDbEntity
  8
LAYER3
100
AcDbVertex
100
AcDb2dVertex
 10
167.5766073356533
 20
429.3553727814104
 30
0.0
  0
VERTEX
  5
5DF
330
5CA
100
AcDbEntity
  8
LAYER3
100
AcDbVertex
100
AcDb2dVertex
 10
167.6138000379468
 20
429.3517416664506
 30
0.0
  0
VERTEX
  5
5E0
330
5CA
100
AcDbEntity
  8
LAYER3
100
AcDbVertex
100
AcDb2dVertex
 10
167.651153672781
 20
429.3494600006487
 30
0.0
  0
VERTEX
  5
5E1
330
5CA
100
AcDbEntity
  8
LAYER3
100
AcDbVertex
100
AcDb2dVertex
 10
167.6885305534268
 20
429.3485444733049
 30
0.0
  0
VERTEX
  5
5E2
330
5CA
100
AcDbEntity
  8
LAYER3
100
AcDbVertex
100
AcDb2dVertex
 10
167.7257947812939
 20
429.3490189262773
 30
0.0
  0
VERTEX
  5
5E3
330
5CA
100
AcDbEntity
  8
LAYER3
100
AcDbVertex
100
AcDb2dVertex
 10
167.762808669653
 20
429.3509000488665
 30
0.0
  0
SEQEND
  5
5E4
330
5CA
100
AcDbEntity
  8
LAYER3
  0
ARC
  5
5E5
330
2
100
AcDbEntity
  8
LAYER3
100
AcDbCircle
 10
167.9979577453343
 20
426.0091625543671
 30
0.0
 40
3.350000000000092
100
AcDbArc
 50
85.97488305082515
 51
94.02511694917485
  0
POLYLINE
  5
5E6
330
2
100
AcDbEntity
  8
LAYER3
100
AcDb2dPolyline
 66
     1
 10
0.0
 20
0.0
 30
0.0
 70
   128
  0
VERTEX
  5
5E7
330
5E6
100
AcDbEntity
  8
LAYER3
100
AcDbVertex
100
AcDb2dVertex
 10
168.2331066022778
 20
429.3509000488665
 30
0.0
  0
VERTEX
  5
5E8
330
5E6
100
AcDbEntity
  8
LAYER3
100
AcDbVertex
100
AcDb2dVertex
 10
168.2701204906369
 20
429.3490189262773
 30
0.0
  0
VERTEX
  5
5E9
330
5E6
100
AcDbEntity
  8
LAYER3
100
AcDbVertex
100
AcDb2dVertex
 10
168.307384718504
 20
429.3485444733049
 30
0.0
  0
VERTEX
  5
5EA
330
5E6
100
AcDbEntity
  8
LAYER3
100
AcDbVertex
100
AcDb2dVertex
 10
168.3447615991498
 20
429.3494600006487
 30
0.0
  0
VERTEX
  5
5EB
330
5E6
100
AcDbEntity
  8
LAYER3
100
AcDbVertex
100
AcDb2dVertex
 10
168.3821152339841
 20
429.3517416664506
 30
0.0
  0
VERTEX
  5
5EC
330
5E6
100
AcDbEntity
  8
LAYER3
100
AcDbVertex
100
AcDb2dVertex
 10
168.4193079362774
 20
429.3553727814104
 30
0.0
  0
VERTEX
  5
5ED
330
5E6
100
AcDbEntity
  8
LAYER3
100
AcDbVertex
100
AcDb2dVertex
 10
168.4562032113934
 20
429.36032950367
 30
0.0
  0
VERTEX
  5
5EE
330
5E6
100
AcDbEntity
  8
LAYER3
100
AcDbVertex
100
AcDb2dVertex
 10
168.4926639686489
 20
429.3665927597429
 30
0.0
  0
VERTEX
  5
5EF
330
5E6
100
AcDbEntity
  8
LAYER3
100
AcDbVertex
100
AcDb2dVertex
 10
168.5285537134076
 20
429.3741410919572
 30
0.0
  0
VERTEX
  5
5F0
330
5E6
100
AcDbEntity
  8
LAYER3
100
AcDbVertex
100
AcDb2dVertex
 10
168.5637401233578
 20
429.382950658455
 30
0.0
  0
VERTEX
  5
5F1
330
5E6
100
AcDbEntity
  8
LAYER3
100
AcDbVertex
100
AcDb2dVertex
 10
168.5981427322293
 20
429.3929332443621
 30
0.0
  0
VERTEX
  5
5F2
330
5E6
100
AcDbEntity
  8
LAYER3
100
AcDbVertex
100
AcDb2dVertex
 10
168.631687034216
 20
429.4039839455034
 30
0.0
  0
VERTEX
  5
5F3
330
5E6
100
AcDbEntity
  8
LAYER3
100
AcDbVertex
100
AcDb2dVertex
 10
168.6642997156048
 20
429.4159954735185
 30
0.0
  0
VERTEX
  5
5F4
330
5E6
100
AcDbEntity
  8
LAYER3
100
AcDbVertex
100
AcDb2dVertex
 10
168.695905078497
 20
429.4288629242327
 30
0.0
  0
VERTEX
  5
5F5
330
5E6
100
AcDbEntity
  8
LAYER3
100
AcDbVertex
100
AcDb2dVertex
 10
168.7264286170864
 20
429.4424790092851
 30
0.0
  0
VERTEX
  5
5F6
330
5E6
100
AcDbEntity
  8
LAYER3
100
AcDbVertex
100
AcDb2dVertex
 10
168.7557964216137
 20
429.4567364403154
 30
0.0
  0
VERTEX
  5
5F7
330
5E6
100
AcDbEntity
  8
LAYER3
100
AcDbVertex
100
AcDb2dVertex
 10
168.7839321981335
 20
429.4715326973345
 30
0.0
  0
VERTEX
  5
5F8
330
5E6
100
AcDbEntity
  8
LAYER3
100
AcDbVertex
100
AcDb2dVertex
 10
168.810764421072
 20
429.4867604919817
 30
0.0
  0
VERTEX
  5
5F9
330
5E6
100
AcDbEntity
  8
LAYER3
100
AcDbVertex
100
AcDb2dVertex
 10
168.8367055545711
 20
429.5025747963335
 30
0.0
  0
VERTEX
  5
5FA
330
5E6
100
AcDbEntity
  8
LAYER3
100
AcDbVertex
100
AcDb2dVertex
 10
168.8620953451061
 20
429.5191353508378
 30
0.0
  0
VERTEX
  5
5FB
330
5E6
100
AcDbEntity
  8
LAYER3
100
AcDbVertex
100
AcDb2dVertex
 10
168.8869117389583
 20
429.5364111610796
 30
0.0
  0
VERTEX
  5
5FC
330
5E6
100
AcDbEntity
  8
LAYER3
100
AcDbVertex
100
AcDb2dVertex
 10
168.9111332784557
 20
429.5543783852007
 30
0.0
  0
VERTEX
  5
5FD
330
5E6
100
AcDbEntity
  8
LAYER3
100
AcDbVertex
100
AcDb2dVertex
 10
168.9347379098796
 20
429.5730131813432
 30
0.0
  0
VERTEX
  5
5FE
330
5E6
100
AcDbEntity
  8
LAYER3
100
AcDbVertex
100
AcDb2dVertex
 10
168.9577035795116
 20
429.5922893234636
 30
0.0
  0
VERTEX
  5
5FF
330
5E6
100
AcDbEntity
  8
LAYER3
100
AcDbVertex
100
AcDb2dVertex
 10
168.9800088296794
 20
429.6121805855181
 30
0.0
  0
SEQEND
  5
600
330
5E6
100
AcDbEntity
  8
LAYER3
  0
POLYLINE
  5
601
330
2
100
AcDbEntity
  8
LAYER3
100
AcDb2dPolyline
 66
     1
 10
0.0
 20
0.0
 30
0.0
 70
   128
  0
VERTEX
  5
602
330
601
100
AcDbEntity
  8
LAYER3
100
AcDbVertex
100
AcDb2dVertex
 10
168.9800088296794
 20
429.6121805855181
 30
0.0
  0
VERTEX
  5
603
330
601
100
AcDbEntity
  8
LAYER3
100
AcDbVertex
100
AcDb2dVertex
 10
169.0826748500728
 20
429.6975082107927
 30
0.0
  0
VERTEX
  5
604
330
601
100
AcDbEntity
  8
LAYER3
100
AcDbVertex
100
AcDb2dVertex
 10
169.1945348869227
 20
429.7730749794389
 30
0.0
  0
VERTEX
  5
605
330
601
100
AcDbEntity
  8
LAYER3
100
AcDbVertex
100
AcDb2dVertex
 10
169.3145810256861
 20
429.8377507873919
 30
0.0
  0
VERTEX
  5
606
330
601
100
AcDbEntity
  8
LAYER3
100
AcDbVertex
100
AcDb2dVertex
 10
169.4424043784998
 20
429.8905914970781
 30
0.0
  0
VERTEX
  5
607
330
601
100
AcDbEntity
  8
LAYER3
100
AcDbVertex
100
AcDb2dVertex
 10
169.5846007953546
 20
429.9322766014483
 30
0.0
  0
VERTEX
  5
608
330
601
100
AcDbEntity
  8
LAYER3
100
AcDbVertex
100
AcDb2dVertex
 10
169.738998282995
 20
429.9593633362199
 30
0.0
  0
VERTEX
  5
609
330
601
100
AcDbEntity
  8
LAYER3
100
AcDbVertex
100
AcDb2dVertex
 10
169.8997406850717
 20
429.9680417724992
 30
0.0
  0
VERTEX
  5
60A
330
601
100
AcDbEntity
  8
LAYER3
100
AcDbVertex
100
AcDb2dVertex
 10
170.0596188197991
 20
429.957970971718
 30
0.0
  0
VERTEX
  5
60B
330
601
100
AcDbEntity
  8
LAYER3
100
AcDbVertex
100
AcDb2dVertex
 10
170.2188210378548
 20
429.9283331581499
 30
0.0
  0
VERTEX
  5
60C
330
601
100
AcDbEntity
  8
LAYER3
100
AcDbVertex
100
AcDb2dVertex
 10
170.3834341655633
 20
429.8762220093157
 30
0.0
  0
VERTEX
  5
60D
330
601
100
AcDbEntity
  8
LAYER3
100
AcDbVertex
100
AcDb2dVertex
 10
170.5427466522118
 20
429.801720971718
 30
0.0
  0
VERTEX
  5
60E
330
601
100
AcDbEntity
  8
LAYER3
100
AcDbVertex
100
AcDb2dVertex
 10
170.6870751272103
 20
429.7104161926653
 30
0.0
  0
VERTEX
  5
60F
330
601
100
AcDbEntity
  8
LAYER3
100
AcDbVertex
100
AcDb2dVertex
 10
170.8185123096368
 20
429.60136591877
 30
0.0
  0
VERTEX
  5
610
330
601
100
AcDbEntity
  8
LAYER3
100
AcDbVertex
100
AcDb2dVertex
 10
170.9385971914193
 20
429.472872609749
 30
0.0
  0
VERTEX
  5
611
330
601
100
AcDbEntity
  8
LAYER3
100
AcDbVertex
100
AcDb2dVertex
 10
171.0390262494942
 20
429.3324202248003
 30
0.0
  0
VERTEX
  5
612
330
601
100
AcDbEntity
  8
LAYER3
100
AcDbVertex
100
AcDb2dVertex
 10
171.1164103637597
 20
429.1901677795793
 30
0.0
  0
VERTEX
  5
613
330
601
100
AcDbEntity
  8
LAYER3
100
AcDbVertex
100
AcDb2dVertex
 10
171.1753933320901
 20
429.0412276932146
 30
0.0
  0
VERTEX
  5
614
330
601
100
AcDbEntity
  8
LAYER3
100
AcDbVertex
100
AcDb2dVertex
 10
171.2168102155588
 20
428.885669107094
 30
0.0
  0
VERTEX
  5
615
330
601
100
AcDbEntity
  8
LAYER3
100
AcDbVertex
100
AcDb2dVertex
 10
171.2387608180902
 20
428.7304586120988
 30
0.0
  0
VERTEX
  5
616
330
601
100
AcDbEntity
  8
LAYER3
100
AcDbVertex
100
AcDb2dVertex
 10
171.2430565248392
 20
428.582341069832
 30
0.0
  0
VERTEX
  5
617
330
601
100
AcDbEntity
  8
LAYER3
100
AcDbVertex
100
AcDb2dVertex
 10
171.232301462736
 20
428.4444445320513
 30
0.0
  0
VERTEX
  5
618
330
601
100
AcDbEntity
  8
LAYER3
100
AcDbVertex
100
AcDb2dVertex
 10
171.2078885923289
 20
428.3102887817766
 30
0.0
  0
VERTEX
  5
619
330
601
100
AcDbEntity
  8
LAYER3
100
AcDbVertex
100
AcDb2dVertex
 10
171.1705868135356
 20
428.1805509277727
 30
0.0
  0
VERTEX
  5
61A
330
601
100
AcDbEntity
  8
LAYER3
100
AcDbVertex
100
AcDb2dVertex
 10
171.1211620460414
 20
428.0565422722246
 30
0.0
  0
SEQEND
  5
61B
330
601
100
AcDbEntity
  8
LAYER3
  0
POLYLINE
  5
61C
330
2
100
AcDbEntity
  8
LAYER3
100
AcDb2dPolyline
 66
     1
 10
0.0
 20
0.0
 30
0.0
 70
   128
  0
VERTEX
  5
61D
330
61C
100
AcDbEntity
  8
LAYER3
100
AcDbVertex
100
AcDb2dVertex
 10
171.1211620460414
 20
428.0565422722246
 30
0.0
  0
VERTEX
  5
61E
330
61C
100
AcDbEntity
  8
LAYER3
100
AcDbVertex
100
AcDb2dVertex
 10
171.1091362129116
 20
428.0291813560869
 30
0.0
  0
VERTEX
  5
61F
330
61C
100
AcDbEntity
  8
LAYER3
100
AcDbVertex
100
AcDb2dVertex
 10
171.0979007373714
 20
428.0013841339495
 30
0.0
  0
VERTEX
  5
620
330
61C
100
AcDbEntity
  8
LAYER3
100
AcDbVertex
100
AcDb2dVertex
 10
171.0874723087215
 20
427.9731768318559
 30
0.0
  0
VERTEX
  5
621
330
61C
100
AcDbEntity
  8
LAYER3
100
AcDbVertex
100
AcDb2dVertex
 10
171.0778682123089
 20
427.9445880600359
 30
0.0
  0
VERTEX
  5
622
330
61C
100
AcDbEntity
  8
LAYER3
100
AcDbVertex
100
AcDb2dVertex
 10
171.0691063295269
 20
427.9156464287187
 30
0.0
  0
VERTEX
  5
623
330
61C
100
AcDbEntity
  8
LAYER3
100
AcDbVertex
100
AcDb2dVertex
 10
171.0612033496761
 20
427.8863829323198
 30
0.0
  0
VERTEX
  5
624
330
61C
100
AcDbEntity
  8
LAYER3
100
AcDbVertex
100
AcDb2dVertex
 10
171.0541783462429
 20
427.8568237968828
 30
0.0
  0
VERTEX
  5
625
330
61C
100
AcDbEntity
  8
LAYER3
100
AcDbVertex
100
AcDb2dVertex
 10
171.0479878078365
 20
427.8265994736101
 30
0.0
  0
VERTEX
  5
626
330
61C
100
AcDbEntity
  8
LAYER3
100
AcDbVertex
100
AcDb2dVertex
 10
171.0426108728313
 20
427.7952688881303
 30
0.0
  0
VERTEX
  5
627
330
61C
100
AcDbEntity
  8
LAYER3
100
AcDbVertex
100
AcDb2dVertex
 10
171.0381250272655
 20
427.7629321762468
 30
0.0
  0
VERTEX
  5
628
330
61C
100
AcDbEntity
  8
LAYER3
100
AcDbVertex
100
AcDb2dVertex
 10
171.0346077571774
 20
427.7296942421343
 30
0.0
  0
VERTEX
  5
629
330
61C
100
AcDbEntity
  8
LAYER3
100
AcDbVertex
100
AcDb2dVertex
 10
171.0321377406979
 20
427.6956599899675
 30
0.0
  0
VERTEX
  5
62A
330
61C
100
AcDbEntity
  8
LAYER3
100
AcDbVertex
100
AcDb2dVertex
 10
171.0307912717724
 20
427.6609319397356
 30
0.0
  0
VERTEX
  5
62B
330
61C
100
AcDbEntity
  8
LAYER3
100
AcDbVertex
100
AcDb2dVertex
 10
171.0306476245785
 20
427.6256149956132
 30
0.0
  0
VERTEX
  5
62C
330
61C
100
AcDbEntity
  8
LAYER3
100
AcDbVertex
100
AcDb2dVertex
 10
171.0317836891079
 20
427.5898116775896
 30
0.0
  0
VERTEX
  5
62D
330
61C
100
AcDbEntity
  8
LAYER3
100
AcDbVertex
100
AcDb2dVertex
 10
171.0342793355847
 20
427.5536245056535
 30
0.0
  0
VERTEX
  5
62E
330
61C
100
AcDbEntity
  8
LAYER3
100
AcDbVertex
100
AcDb2dVertex
 10
171.0381905923748
 20
427.5171583839799
 30
0.0
  0
VERTEX
  5
62F
330
61C
100
AcDbEntity
  8
LAYER3
100
AcDbVertex
100
AcDb2dVertex
 10
171.0435007701779
 20
427.4805468269732
 30
0.0
  0
VERTEX
  5
630
330
61C
100
AcDbEntity
  8
LAYER3
100
AcDbVertex
100
AcDb2dVertex
 10
171.0501878152752
 20
427.4439257332232
 30
0.0
  0
VERTEX
  5
631
330
61C
100
AcDbEntity
  8
LAYER3
100
AcDbVertex
100
AcDb2dVertex
 10
171.0582290779019
 20
427.4074310013201
 30
0.0
  0
VERTEX
  5
632
330
61C
100
AcDbEntity
  8
LAYER3
100
AcDbVertex
100
AcDb2dVertex
 10
171.0676007162
 20
427.3712009140398
 30
0.0
  0
VERTEX
  5
633
330
61C
100
AcDbEntity
  8
LAYER3
100
AcDbVertex
100
AcDb2dVertex
 10
171.0782806764508
 20
427.3353713699724
 30
0.0
  0
VERTEX
  5
634
330
61C
100
AcDbEntity
  8
LAYER3
100
AcDbVertex
100
AcDb2dVertex
 10
171.090245712843
 20
427.3000758835222
 30
0.0
  0
VERTEX
  5
635
330
61C
100
AcDbEntity
  8
LAYER3
100
AcDbVertex
100
AcDb2dVertex
 10
171.1034731756116
 20
427.2654551216509
 30
0.0
  0
SEQEND
  5
636
330
61C
100
AcDbEntity
  8
LAYER3
  0
ARC
  5
637
330
2
100
AcDbEntity
  8
LAYER3
100
AcDbCircle
 10
167.9979577453347
 20
426.0091625543672
 30
0.0
 40
3.349999999999622
100
AcDbArc
 50
13.97488305082517
 51
22.02511694917543
  0
POLYLINE
  5
638
330
2
100
AcDbEntity
  8
LAYER3
100
AcDb2dPolyline
 66
     1
 10
0.0
 20
0.0
 30
0.0
 70
   128
  0
VERTEX
  5
639
330
638
100
AcDbEntity
  8
LAYER3
100
AcDbVertex
100
AcDb2dVertex
 10
171.2488036046887
 20
426.8181747146989
 30
0.0
  0
VERTEX
  5
63A
330
638
100
AcDbEntity
  8
LAYER3
100
AcDbVertex
100
AcDb2dVertex
 10
171.2584518085385
 20
426.7823928543474
 30
0.0
  0
VERTEX
  5
63B
330
638
100
AcDbEntity
  8
LAYER3
100
AcDbVertex
100
AcDb2dVertex
 10
171.2695174108411
 20
426.7468064972307
 30
0.0
  0
VERTEX
  5
63C
330
638
100
AcDbEntity
  8
LAYER3
100
AcDbVertex
100
AcDb2dVertex
 10
171.2819378267194
 20
426.7115420051958
 30
0.0
  0
VERTEX
  5
63D
330
638
100
AcDbEntity
  8
LAYER3
100
AcDbVertex
100
AcDb2dVertex
 10
171.2956516633893
 20
426.676720971718
 30
0.0
  0
VERTEX
  5
63E
330
638
100
AcDbEntity
  8
LAYER3
100
AcDbVertex
100
AcDb2dVertex
 10
171.3105969320202
 20
426.6424697586443
 30
0.0
  0
VERTEX
  5
63F
330
638
100
AcDbEntity
  8
LAYER3
100
AcDbVertex
100
AcDb2dVertex
 10
171.3267122398282
 20
426.6089123436358
 30
0.0
  0
VERTEX
  5
640
330
638
100
AcDbEntity
  8
LAYER3
100
AcDbVertex
100
AcDb2dVertex
 10
171.3439355979824
 20
426.5761727043535
 30
0.0
  0
VERTEX
  5
641
330
638
100
AcDbEntity
  8
LAYER3
100
AcDbVertex
100
AcDb2dVertex
 10
171.362205613699
 20
426.544372434273
 30
0.0
  0
VERTEX
  5
642
330
638
100
AcDbEntity
  8
LAYER3
100
AcDbVertex
100
AcDb2dVertex
 10
171.3814567218685
 20
426.5136283584978
 30
0.0
  0
VERTEX
  5
643
330
638
100
AcDbEntity
  8
LAYER3
100
AcDbVertex
100
AcDb2dVertex
 10
171.401582230177
 20
426.4839953133012
 30
0.0
  0
VERTEX
  5
644
330
638
100
AcDbEntity
  8
LAYER3
100
AcDbVertex
100
AcDb2dVertex
 10
171.4224575649167
 20
426.4555066772844
 30
0.0
  0
VERTEX
  5
645
330
638
100
AcDbEntity
  8
LAYER3
100
AcDbVertex
100
AcDb2dVertex
 10
171.4439593444729
 20
426.4282029816057
 30
0.0
  0
VERTEX
  5
646
330
638
100
AcDbEntity
  8
LAYER3
100
AcDbVertex
100
AcDb2dVertex
 10
171.4659629951382
 20
426.402119989052
 30
0.0
  0
VERTEX
  5
647
330
638
100
AcDbEntity
  8
LAYER3
100
AcDbVertex
100
AcDb2dVertex
 10
171.4883451352978
 20
426.3772982307817
 30
0.0
  0
VERTEX
  5
648
330
638
100
AcDbEntity
  8
LAYER3
100
AcDbVertex
100
AcDb2dVertex
 10
171.5109811912441
 20
426.3537734695818
 30
0.0
  0
VERTEX
  5
649
330
638
100
AcDbEntity
  8
LAYER3
100
AcDbVertex
100
AcDb2dVertex
 10
171.5337465892696
 20
426.3315862366106
 30
0.0
  0
VERTEX
  5
64A
330
638
100
AcDbEntity
  8
LAYER3
100
AcDbVertex
100
AcDb2dVertex
 10
171.5565203319454
 20
426.3107746788408
 30
0.0
  0
VERTEX
  5
64B
330
638
100
AcDbEntity
  8
LAYER3
100
AcDbVertex
100
AcDb2dVertex
 10
171.5795777927303
 20
426.2909907051469
 30
0.0
  0
VERTEX
  5
64C
330
638
100
AcDbEntity
  8
LAYER3
100
AcDbVertex
100
AcDb2dVertex
 10
171.6031728874111
 20
426.2719601341631
 30
0.0
  0
VERTEX
  5
64D
330
638
100
AcDbEntity
  8
LAYER3
100
AcDbVertex
100
AcDb2dVertex
 10
171.6272722373867
 20
426.2536972710039
 30
0.0
  0
VERTEX
  5
64E
330
638
100
AcDbEntity
  8
LAYER3
100
AcDbVertex
100
AcDb2dVertex
 10
171.6518448482418
 20
426.2362140365984
 30
0.0
  0
VERTEX
  5
64F
330
638
100
AcDbEntity
  8
LAYER3
100
AcDbVertex
100
AcDb2dVertex
 10
171.6768621097469
 20
426.2195223518755
 30
0.0
  0
VERTEX
  5
650
330
638
100
AcDbEntity
  8
LAYER3
100
AcDbVertex
100
AcDb2dVertex
 10
171.7022918353939
 20
426.20363652195
 30
0.0
  0
VERTEX
  5
651
330
638
100
AcDbEntity
  8
LAYER3
100
AcDbVertex
100
AcDb2dVertex
 10
171.7281030307674
 20
426.1885708519365
 30
0.0
  0
SEQEND
  5
652
330
638
100
AcDbEntity
  8
LAYER3
  0
POLYLINE
  5
653
330
2
100
AcDbEntity
  8
LAYER3
100
AcDb2dPolyline
 66
     1
 10
0.0
 20
0.0
 30
0.0
 70
   128
  0
VERTEX
  5
654
330
653
100
AcDbEntity
  8
LAYER3
100
AcDbVertex
100
AcDb2dVertex
 10
171.7281030307674
 20
426.1885708519365
 30
0.0
  0
VERTEX
  5
655
330
653
100
AcDbEntity
  8
LAYER3
100
AcDbVertex
100
AcDb2dVertex
 10
171.8409787307643
 20
426.1172980018999
 30
0.0
  0
VERTEX
  5
656
330
653
100
AcDbEntity
  8
LAYER3
100
AcDbVertex
100
AcDb2dVertex
 10
171.9474135528468
 20
426.0342639633562
 30
0.0
  0
VERTEX
  5
657
330
653
100
AcDbEntity
  8
LAYER3
100
AcDbVertex
100
AcDb2dVertex
 10
172.0460199008845
 20
425.9400790878679
 30
0.0
  0
VERTEX
  5
658
330
653
100
AcDbEntity
  8
LAYER3
100
AcDbVertex
100
AcDb2dVertex
 10
172.1357737670801
 20
425.8348387428667
 30
0.0
  0
VERTEX
  5
659
330
653
100
AcDbEntity
  8
LAYER3
100
AcDbVertex
100
AcDb2dVertex
 10
172.2193597446344
 20
425.7124847122575
 30
0.0
  0
VERTEX
  5
65A
330
653
100
AcDbEntity
  8
LAYER3
100
AcDbVertex
100
AcDb2dVertex
 10
172.2928331981561
 20
425.5740135857012
 30
0.0
  0
VERTEX
  5
65B
330
653
100
AcDbEntity
  8
LAYER3
100
AcDbVertex
100
AcDb2dVertex
 10
172.3507593761346
 20
425.4238218017961
 30
0.0
  0
VERTEX
  5
65C
330
653
100
AcDbEntity
  8
LAYER3
100
AcDbVertex
100
AcDb2dVertex
 10
172.3905871997735
 20
425.268656606331
 30
0.0
  0
VERTEX
  5
65D
330
653
100
AcDbEntity
  8
LAYER3
100
AcDbVertex
100
AcDb2dVertex
 10
172.411595452871
 20
425.1080864616778
 30
0.0
  0
VERTEX
  5
65E
330
653
100
AcDbEntity
  8
LAYER3
100
AcDbVertex
100
AcDb2dVertex
 10
172.4129031787774
 20
424.9354261108782
 30
0.0
  0
VERTEX
  5
65F
330
653
100
AcDbEntity
  8
LAYER3
100
AcDbVertex
100
AcDb2dVertex
 10
172.3912786136528
 20
424.7608894058611
 30
0.0
  0
VERTEX
  5
660
330
653
100
AcDbEntity
  8
LAYER3
100
AcDbVertex
100
AcDb2dVertex
 10
172.3490415702721
 20
424.595410222664
 30
0.0
  0
VERTEX
  5
661
330
653
100
AcDbEntity
  8
LAYER3
100
AcDbVertex
100
AcDb2dVertex
 10
172.2859452854057
 20
424.4367068954851
 30
0.0
  0
VERTEX
  5
662
330
653
100
AcDbEntity
  8
LAYER3
100
AcDbVertex
100
AcDb2dVertex
 10
172.2008489261529
 20
424.2827933975603
 30
0.0
  0
VERTEX
  5
663
330
653
100
AcDbEntity
  8
LAYER3
100
AcDbVertex
100
AcDb2dVertex
 10
172.0983050952813
 20
424.143876428261
 30
0.0
  0
VERTEX
  5
664
330
653
100
AcDbEntity
  8
LAYER3
100
AcDbVertex
100
AcDb2dVertex
 10
171.986927856054
 20
424.0263217636492
 30
0.0
  0
VERTEX
  5
665
330
653
100
AcDbEntity
  8
LAYER3
100
AcDbVertex
100
AcDb2dVertex
 10
171.8635033260247
 20
423.9241999336626
 30
0.0
  0
VERTEX
  5
666
330
653
100
AcDbEntity
  8
LAYER3
100
AcDbVertex
100
AcDb2dVertex
 10
171.7283593307397
 20
423.8367408462908
 30
0.0
  0
VERTEX
  5
667
330
653
100
AcDbEntity
  8
LAYER3
100
AcDbVertex
100
AcDb2dVertex
 10
171.5875278602502
 20
423.7679022499468
 30
0.0
  0
VERTEX
  5
668
330
653
100
AcDbEntity
  8
LAYER3
100
AcDbVertex
100
AcDb2dVertex
 10
171.4479856382273
 20
423.7180465408709
 30
0.0
  0
VERTEX
  5
669
330
653
100
AcDbEntity
  8
LAYER3
100
AcDbVertex
100
AcDb2dVertex
 10
171.3135151754283
 20
423.6856621452715
 30
0.0
  0
VERTEX
  5
66A
330
653
100
AcDbEntity
  8
LAYER3
100
AcDbVertex
100
AcDb2dVertex
 10
171.1783807168864
 20
423.6674231239702
 30
0.0
  0
VERTEX
  5
66B
330
653
100
AcDbEntity
  8
LAYER3
100
AcDbVertex
100
AcDb2dVertex
 10
171.0434667955302
 20
423.6628097244646
 30
0.0
  0
VERTEX
  5
66C
330
653
100
AcDbEntity
  8
LAYER3
100
AcDbVertex
100
AcDb2dVertex
 10
170.9102551828288
 20
423.6714953133013
 30
0.0
  0
SEQEND
  5
66D
330
653
100
AcDbEntity
  8
LAYER3
  0
POLYLINE
  5
66E
330
2
100
AcDbEntity
  8
LAYER3
100
AcDb2dPolyline
 66
     1
 10
0.0
 20
0.0
 30
0.0
 70
   128
  0
VERTEX
  5
66F
330
66E
100
AcDbEntity
  8
LAYER3
100
AcDbVertex
100
AcDb2dVertex
 10
170.9102551828288
 20
423.6714953133013
 30
0.0
  0
VERTEX
  5
670
330
66E
100
AcDbEntity
  8
LAYER3
100
AcDbVertex
100
AcDb2dVertex
 10
170.880517829504
 20
423.6744755455401
 30
0.0
  0
VERTEX
  5
671
330
66E
100
AcDbEntity
  8
LAYER3
100
AcDbVertex
100
AcDb2dVertex
 10
170.8506076227092
 20
423.6765712448503
 30
0.0
  0
VERTEX
  5
672
330
66E
100
AcDbEntity
  8
LAYER3
100
AcDbVertex
100
AcDb2dVertex
 10
170.8205579410457
 20
423.677772874489
 30
0.0
  0
VERTEX
  5
673
330
66E
100
AcDbEntity
  8
LAYER3
100
AcDbVertex
100
AcDb2dVertex
 10
170.7904009710216
 20
423.6780732818987
 30
0.0
  0
VERTEX
  5
674
330
66E
100
AcDbEntity
  8
LAYER3
100
AcDbVertex
100
AcDb2dVertex
 10
170.7601694951915
 20
423.6774629303361
 30
0.0
  0
VERTEX
  5
675
330
66E
100
AcDbEntity
  8
LAYER3
100
AcDbVertex
100
AcDb2dVertex
 10
170.7298957000637
 20
423.6759346672442
 30
0.0
  0
VERTEX
  5
676
330
66E
100
AcDbEntity
  8
LAYER3
100
AcDbVertex
100
AcDb2dVertex
 10
170.6996129642391
 20
423.673483724251
 30
0.0
  0
VERTEX
  5
677
330
66E
100
AcDbEntity
  8
LAYER3
100
AcDbVertex
100
AcDb2dVertex
 10
170.6689547191524
 20
423.6700314232256
 30
0.0
  0
VERTEX
  5
678
330
66E
100
AcDbEntity
  8
LAYER3
100
AcDbVertex
100
AcDb2dVertex
 10
170.63749538764
 20
423.66546332325
 30
0.0
  0
VERTEX
  5
679
330
66E
100
AcDbEntity
  8
LAYER3
100
AcDbVertex
100
AcDb2dVertex
 10
170.6053553710842
 20
423.6597365089799
 30
0.0
  0
VERTEX
  5
67A
330
66E
100
AcDbEntity
  8
LAYER3
100
AcDbVertex
100
AcDb2dVertex
 10
170.5726580510998
 20
423.652810449257
 30
0.0
  0
VERTEX
  5
67B
330
66E
100
AcDbEntity
  8
LAYER3
100
AcDbVertex
100
AcDb2dVertex
 10
170.5395256172085
 20
423.6446422287371
 30
0.0
  0
VERTEX
  5
67C
330
66E
100
AcDbEntity
  8
LAYER3
100
AcDbVertex
100
AcDb2dVertex
 10
170.506081451025
 20
423.6351913162614
 30
0.0
  0
VERTEX
  5
67D
330
66E
100
AcDbEntity
  8
LAYER3
100
AcDbVertex
100
AcDb2dVertex
 10
170.4724477420712
 20
423.624414796486
 30
0.0
  0
VERTEX
  5
67E
330
66E
100
AcDbEntity
  8
LAYER3
100
AcDbVertex
100
AcDb2dVertex
 10
170.4387478719616
 20
423.6122697540666
 30
0.0
  0
VERTEX
  5
67F
330
66E
100
AcDbEntity
  8
LAYER3
100
AcDbVertex
100
AcDb2dVertex
 10
170.4051034341717
 20
423.5987132736589
 30
0.0
  0
VERTEX
  5
680
330
66E
100
AcDbEntity
  8
LAYER3
100
AcDbVertex
100
AcDb2dVertex
 10
170.3716312538052
 20
423.5837262817766
 30
0.0
  0
VERTEX
  5
681
330
66E
100
AcDbEntity
  8
LAYER3
100
AcDbVertex
100
AcDb2dVertex
 10
170.338452328291
 20
423.567361230507
 30
0.0
  0
VERTEX
  5
682
330
66E
100
AcDbEntity
  8
LAYER3
100
AcDbVertex
100
AcDb2dVertex
 10
170.3056900392437
 20
423.5496848770525
 30
0.0
  0
VERTEX
  5
683
330
66E
100
AcDbEntity
  8
LAYER3
100
AcDbVertex
100
AcDb2dVertex
 10
170.2734665761853
 20
423.5307615944292
 30
0.0
  0
VERTEX
  5
684
330
66E
100
AcDbEntity
  8
LAYER3
100
AcDbVertex
100
AcDb2dVertex
 10
170.2419053207303
 20
423.510650987282
 30
0.0
  0
VERTEX
  5
685
330
66E
100
AcDbEntity
  8
LAYER3
100
AcDbVertex
100
AcDb2dVertex
 10
170.211129058447
 20
423.4894221969987
 30
0.0
  0
VERTEX
  5
686
330
66E
100
AcDbEntity
  8
LAYER3
100
AcDbVertex
100
AcDb2dVertex
 10
170.1812599788571
 20
423.4671372124101
 30
0.0
  0
VERTEX
  5
687
330
66E
100
AcDbEntity
  8
LAYER3
100
AcDbVertex
100
AcDb2dVertex
 10
170.152420867529
 20
423.4438580223467
 30
0.0
  0
SEQEND
  5
688
330
66E
100
AcDbEntity
  8
LAYER3
  0
POLYLINE
  5
689
330
2
100
AcDbEntity
  8
LAYER3
100
AcDb2dPolyline
 66
     1
 10
0.0
 20
0.0
 30
0.0
 70
   128
  0
VERTEX
  5
68A
330
689
100
AcDbEntity
  8
LAYER3
100
AcDbVertex
100
AcDb2dVertex
 10
164.8747535239124
 20
428.0565422722246
 30
0.0
  0
VERTEX
  5
68B
330
689
100
AcDbEntity
  8
LAYER3
100
AcDbVertex
100
AcDb2dVertex
 10
164.8253290544414
 20
428.1805509277727
 30
0.0
  0
VERTEX
  5
68C
330
689
100
AcDbEntity
  8
LAYER3
100
AcDbVertex
100
AcDb2dVertex
 10
164.788027275648
 20
428.3102887817766
 30
0.0
  0
VERTEX
  5
68D
330
689
100
AcDbEntity
  8
LAYER3
100
AcDbVertex
100
AcDb2dVertex
 10
164.7636138091944
 20
428.4444445320513
 30
0.0
  0
VERTEX
  5
68E
330
689
100
AcDbEntity
  8
LAYER3
100
AcDbVertex
100
AcDb2dVertex
 10
164.7528590451143
 20
428.582341069832
 30
0.0
  0
VERTEX
  5
68F
330
689
100
AcDbEntity
  8
LAYER3
100
AcDbVertex
100
AcDb2dVertex
 10
164.75715445384
 20
428.7304586120988
 30
0.0
  0
VERTEX
  5
690
330
689
100
AcDbEntity
  8
LAYER3
100
AcDbVertex
100
AcDb2dVertex
 10
164.7791050563715
 20
428.885669107094
 30
0.0
  0
VERTEX
  5
691
330
689
100
AcDbEntity
  8
LAYER3
100
AcDbVertex
100
AcDb2dVertex
 10
164.8205219398401
 20
429.0412276932146
 30
0.0
  0
VERTEX
  5
692
330
689
100
AcDbEntity
  8
LAYER3
100
AcDbVertex
100
AcDb2dVertex
 10
164.8795052061936
 20
429.1901677795793
 30
0.0
  0
VERTEX
  5
693
330
689
100
AcDbEntity
  8
LAYER3
100
AcDbVertex
100
AcDb2dVertex
 10
164.9568893204591
 20
429.3324202248003
 30
0.0
  0
VERTEX
  5
694
330
689
100
AcDbEntity
  8
LAYER3
100
AcDbVertex
100
AcDb2dVertex
 10
165.0573180805108
 20
429.472872609749
 30
0.0
  0
VERTEX
  5
695
330
689
100
AcDbEntity
  8
LAYER3
100
AcDbVertex
100
AcDb2dVertex
 10
165.1774032603166
 20
429.60136591877
 30
0.0
  0
VERTEX
  5
696
330
689
100
AcDbEntity
  8
LAYER3
100
AcDbVertex
100
AcDb2dVertex
 10
165.3088401447197
 20
429.7104161926653
 30
0.0
  0
VERTEX
  5
697
330
689
100
AcDbEntity
  8
LAYER3
100
AcDbVertex
100
AcDb2dVertex
 10
165.4531689177415
 20
429.801720971718
 30
0.0
  0
VERTEX
  5
698
330
689
100
AcDbEntity
  8
LAYER3
100
AcDbVertex
100
AcDb2dVertex
 10
165.61248140439
 20
429.8762220093157
 30
0.0
  0
VERTEX
  5
699
330
689
100
AcDbEntity
  8
LAYER3
100
AcDbVertex
100
AcDb2dVertex
 10
165.7770942340752
 20
429.9283331581499
 30
0.0
  0
VERTEX
  5
69A
330
689
100
AcDbEntity
  8
LAYER3
100
AcDbVertex
100
AcDb2dVertex
 10
165.9362967501542
 20
429.957970971718
 30
0.0
  0
VERTEX
  5
69B
330
689
100
AcDbEntity
  8
LAYER3
100
AcDbVertex
100
AcDb2dVertex
 10
166.0961748848817
 20
429.9680417724992
 30
0.0
  0
VERTEX
  5
69C
330
689
100
AcDbEntity
  8
LAYER3
100
AcDbVertex
100
AcDb2dVertex
 10
166.2569169889352
 20
429.9593633362199
 30
0.0
  0
VERTEX
  5
69D
330
689
100
AcDbEntity
  8
LAYER3
100
AcDbVertex
100
AcDb2dVertex
 10
166.4113144765756
 20
429.9322766014483
 30
0.0
  0
VERTEX
  5
69E
330
689
100
AcDbEntity
  8
LAYER3
100
AcDbVertex
100
AcDb2dVertex
 10
166.5535108934305
 20
429.8905914970781
 30
0.0
  0
VERTEX
  5
69F
330
689
100
AcDbEntity
  8
LAYER3
100
AcDbVertex
100
AcDb2dVertex
 10
166.6813348422907
 20
429.8377507873919
 30
0.0
  0
VERTEX
  5
6A0
330
689
100
AcDbEntity
  8
LAYER3
100
AcDbVertex
100
AcDb2dVertex
 10
166.8013809810542
 20
429.7730749794389
 30
0.0
  0
VERTEX
  5
6A1
330
689
100
AcDbEntity
  8
LAYER3
100
AcDbVertex
100
AcDb2dVertex
 10
166.9132410179042
 20
429.6975082107927
 30
0.0
  0
VERTEX
  5
6A2
330
689
100
AcDbEntity
  8
LAYER3
100
AcDbVertex
100
AcDb2dVertex
 10
167.0159064422511
 20
429.6121805855181
 30
0.0
  0
SEQEND
  5
6A3
330
689
100
AcDbEntity
  8
LAYER3
  0
POLYLINE
  5
6A4
330
2
100
AcDbEntity
  8
LAYER3
100
AcDb2dPolyline
 66
     1
 10
0.0
 20
0.0
 30
0.0
 70
   128
  0
VERTEX
  5
6A5
330
6A4
100
AcDbEntity
  8
LAYER3
100
AcDbVertex
100
AcDb2dVertex
 10
164.8924423943425
 20
427.2654551216509
 30
0.0
  0
VERTEX
  5
6A6
330
6A4
100
AcDbEntity
  8
LAYER3
100
AcDbVertex
100
AcDb2dVertex
 10
164.9056695590878
 20
427.3000758835222
 30
0.0
  0
VERTEX
  5
6A7
330
6A4
100
AcDbEntity
  8
LAYER3
100
AcDbVertex
100
AcDb2dVertex
 10
164.91763459548
 20
427.3353713699724
 30
0.0
  0
VERTEX
  5
6A8
330
6A4
100
AcDbEntity
  8
LAYER3
100
AcDbVertex
100
AcDb2dVertex
 10
164.9283145557309
 20
427.3712009140398
 30
0.0
  0
VERTEX
  5
6A9
330
6A4
100
AcDbEntity
  8
LAYER3
100
AcDbVertex
100
AcDb2dVertex
 10
164.9376864920521
 20
427.4074310013201
 30
0.0
  0
VERTEX
  5
6AA
330
6A4
100
AcDbEntity
  8
LAYER3
100
AcDbVertex
100
AcDb2dVertex
 10
164.9457274566555
 20
427.4439257332232
 30
0.0
  0
VERTEX
  5
6AB
330
6A4
100
AcDbEntity
  8
LAYER3
100
AcDbVertex
100
AcDb2dVertex
 10
164.9524145017529
 20
427.4805468269732
 30
0.0
  0
VERTEX
  5
6AC
330
6A4
100
AcDbEntity
  8
LAYER3
100
AcDbVertex
100
AcDb2dVertex
 10
164.9577249775792
 20
427.5171583839799
 30
0.0
  0
VERTEX
  5
6AD
330
6A4
100
AcDbEntity
  8
LAYER3
100
AcDbVertex
100
AcDb2dVertex
 10
164.9616359363461
 20
427.5536245056535
 30
0.0
  0
VERTEX
  5
6AE
330
6A4
100
AcDbEntity
  8
LAYER3
100
AcDbVertex
100
AcDb2dVertex
 10
164.9641318808461
 20
427.5898116775896
 30
0.0
  0
VERTEX
  5
6AF
330
6A4
100
AcDbEntity
  8
LAYER3
100
AcDbVertex
100
AcDb2dVertex
 10
164.9652679453755
 20
427.6256149956132
 30
0.0
  0
VERTEX
  5
6B0
330
6A4
100
AcDbEntity
  8
LAYER3
100
AcDbVertex
100
AcDb2dVertex
 10
164.9651240001583
 20
427.6609319397356
 30
0.0
  0
VERTEX
  5
6B1
330
6A4
100
AcDbEntity
  8
LAYER3
100
AcDbVertex
100
AcDb2dVertex
 10
164.9637778292561
 20
427.6956599899675
 30
0.0
  0
VERTEX
  5
6B2
330
6A4
100
AcDbEntity
  8
LAYER3
100
AcDbVertex
100
AcDb2dVertex
 10
164.9613075147534
 20
427.7296942421343
 30
0.0
  0
VERTEX
  5
6B3
330
6A4
100
AcDbEntity
  8
LAYER3
100
AcDbVertex
100
AcDb2dVertex
 10
164.9577905426883
 20
427.7629321762468
 30
0.0
  0
VERTEX
  5
6B4
330
6A4
100
AcDbEntity
  8
LAYER3
100
AcDbVertex
100
AcDb2dVertex
 10
164.9533046971225
 20
427.7952688881303
 30
0.0
  0
VERTEX
  5
6B5
330
6A4
100
AcDbEntity
  8
LAYER3
100
AcDbVertex
100
AcDb2dVertex
 10
164.9479277621174
 20
427.8265994736101
 30
0.0
  0
VERTEX
  5
6B6
330
6A4
100
AcDbEntity
  8
LAYER3
100
AcDbVertex
100
AcDb2dVertex
 10
164.9417375217342
 20
427.8568237968828
 30
0.0
  0
VERTEX
  5
6B7
330
6A4
100
AcDbEntity
  8
LAYER3
100
AcDbVertex
100
AcDb2dVertex
 10
164.9347119222545
 20
427.8863829323198
 30
0.0
  0
VERTEX
  5
6B8
330
6A4
100
AcDbEntity
  8
LAYER3
100
AcDbVertex
100
AcDb2dVertex
 10
164.9268095384502
 20
427.9156464287187
 30
0.0
  0
VERTEX
  5
6B9
330
6A4
100
AcDbEntity
  8
LAYER3
100
AcDbVertex
100
AcDb2dVertex
 10
164.918047357645
 20
427.9445880600359
 30
0.0
  0
VERTEX
  5
6BA
330
6A4
100
AcDbEntity
  8
LAYER3
100
AcDbVertex
100
AcDb2dVertex
 10
164.9084435592556
 20
427.9731768318559
 30
0.0
  0
VERTEX
  5
6BB
330
6A4
100
AcDbEntity
  8
LAYER3
100
AcDbVertex
100
AcDb2dVertex
 10
164.8980148325824
 20
428.0013841339495
 30
0.0
  0
VERTEX
  5
6BC
330
6A4
100
AcDbEntity
  8
LAYER3
100
AcDbVertex
100
AcDb2dVertex
 10
164.886779059019
 20
428.0291813560869
 30
0.0
  0
VERTEX
  5
6BD
330
6A4
100
AcDbEntity
  8
LAYER3
100
AcDbVertex
100
AcDb2dVertex
 10
164.8747535239124
 20
428.0565422722246
 30
0.0
  0
SEQEND
  5
6BE
330
6A4
100
AcDbEntity
  8
LAYER3
  0
ARC
  5
6BF
330
2
100
AcDbEntity
  8
LAYER3
100
AcDbCircle
 10
167.9979577453343
 20
426.0091625543672
 30
0.0
 40
3.349999999999992
100
AcDbArc
 50
157.9748830508245
 51
166.0251169491765
  0
POLYLINE
  5
6C0
330
2
100
AcDbEntity
  8
LAYER3
100
AcDb2dPolyline
 66
     1
 10
0.0
 20
0.0
 30
0.0
 70
   128
  0
VERTEX
  5
6C1
330
6C0
100
AcDbEntity
  8
LAYER3
100
AcDbVertex
100
AcDb2dVertex
 10
164.2678125391864
 20
426.1885708519365
 30
0.0
  0
VERTEX
  5
6C2
330
6C0
100
AcDbEntity
  8
LAYER3
100
AcDbVertex
100
AcDb2dVertex
 10
164.2936234365367
 20
426.20363652195
 30
0.0
  0
VERTEX
  5
6C3
330
6C0
100
AcDbEntity
  8
LAYER3
100
AcDbVertex
100
AcDb2dVertex
 10
164.3190531621837
 20
426.2195223518755
 30
0.0
  0
VERTEX
  5
6C4
330
6C0
100
AcDbEntity
  8
LAYER3
100
AcDbVertex
100
AcDb2dVertex
 10
164.3440701256656
 20
426.2362140365984
 30
0.0
  0
VERTEX
  5
6C5
330
6C0
100
AcDbEntity
  8
LAYER3
100
AcDbVertex
100
AcDb2dVertex
 10
164.3686436305904
 20
426.2536972710039
 30
0.0
  0
VERTEX
  5
6C6
330
6C0
100
AcDbEntity
  8
LAYER3
100
AcDbVertex
100
AcDb2dVertex
 10
164.392742980566
 20
426.2719601341631
 30
0.0
  0
VERTEX
  5
6C7
330
6C0
100
AcDbEntity
  8
LAYER3
100
AcDbVertex
100
AcDb2dVertex
 10
164.4163371811771
 20
426.2909907051469
 30
0.0
  0
VERTEX
  5
6C8
330
6C0
100
AcDbEntity
  8
LAYER3
100
AcDbVertex
100
AcDb2dVertex
 10
164.4393949399852
 20
426.3107746788408
 30
0.0
  0
VERTEX
  5
6C9
330
6C0
100
AcDbEntity
  8
LAYER3
100
AcDbVertex
100
AcDb2dVertex
 10
164.462168682661
 20
426.3315862366106
 30
0.0
  0
VERTEX
  5
6CA
330
6C0
100
AcDbEntity
  8
LAYER3
100
AcDbVertex
100
AcDb2dVertex
 10
164.484934676733
 20
426.3537734695818
 30
0.0
  0
VERTEX
  5
6CB
330
6C0
100
AcDbEntity
  8
LAYER3
100
AcDbVertex
100
AcDb2dVertex
 10
164.5075707326793
 20
426.3772982307817
 30
0.0
  0
VERTEX
  5
6CC
330
6C0
100
AcDbEntity
  8
LAYER3
100
AcDbVertex
100
AcDb2dVertex
 10
164.5299522767926
 20
426.402119989052
 30
0.0
  0
VERTEX
  5
6CD
330
6C0
100
AcDbEntity
  8
LAYER3
100
AcDbVertex
100
AcDb2dVertex
 10
164.5519559274579
 20
426.4282029816057
 30
0.0
  0
VERTEX
  5
6CE
330
6C0
100
AcDbEntity
  8
LAYER3
100
AcDbVertex
100
AcDb2dVertex
 10
164.5734577070141
 20
426.4555066772844
 30
0.0
  0
VERTEX
  5
6CF
330
6C0
100
AcDbEntity
  8
LAYER3
100
AcDbVertex
100
AcDb2dVertex
 10
164.594333339777
 20
426.4839953133012
 30
0.0
  0
VERTEX
  5
6D0
330
6C0
100
AcDbEntity
  8
LAYER3
100
AcDbVertex
100
AcDb2dVertex
 10
164.6144588480854
 20
426.5136283584978
 30
0.0
  0
VERTEX
  5
6D1
330
6C0
100
AcDbEntity
  8
LAYER3
100
AcDbVertex
100
AcDb2dVertex
 10
164.6337096582318
 20
426.544372434273
 30
0.0
  0
VERTEX
  5
6D2
330
6C0
100
AcDbEntity
  8
LAYER3
100
AcDbVertex
100
AcDb2dVertex
 10
164.6519796739483
 20
426.5761727043535
 30
0.0
  0
VERTEX
  5
6D3
330
6C0
100
AcDbEntity
  8
LAYER3
100
AcDbVertex
100
AcDb2dVertex
 10
164.6692033301258
 20
426.6089123436358
 30
0.0
  0
VERTEX
  5
6D4
330
6C0
100
AcDbEntity
  8
LAYER3
100
AcDbVertex
100
AcDb2dVertex
 10
164.6853186379338
 20
426.6424697586443
 30
0.0
  0
VERTEX
  5
6D5
330
6C0
100
AcDbEntity
  8
LAYER3
100
AcDbVertex
100
AcDb2dVertex
 10
164.700264204588
 20
426.676720971718
 30
0.0
  0
VERTEX
  5
6D6
330
6C0
100
AcDbEntity
  8
LAYER3
100
AcDbVertex
100
AcDb2dVertex
 10
164.7139780412579
 20
426.7115420051958
 30
0.0
  0
VERTEX
  5
6D7
330
6C0
100
AcDbEntity
  8
LAYER3
100
AcDbVertex
100
AcDb2dVertex
 10
164.726398159113
 20
426.7468064972307
 30
0.0
  0
VERTEX
  5
6D8
330
6C0
100
AcDbEntity
  8
LAYER3
100
AcDbVertex
100
AcDb2dVertex
 10
164.7374637614156
 20
426.7823928543474
 30
0.0
  0
VERTEX
  5
6D9
330
6C0
100
AcDbEntity
  8
LAYER3
100
AcDbVertex
100
AcDb2dVertex
 10
164.7471119652653
 20
426.8181747146989
 30
0.0
  0
SEQEND
  5
6DA
330
6C0
100
AcDbEntity
  8
LAYER3
  0
POLYLINE
  5
6DB
330
2
100
AcDbEntity
  8
LAYER3
100
AcDb2dPolyline
 66
     1
 10
0.0
 20
0.0
 30
0.0
 70
   128
  0
VERTEX
  5
6DC
330
6DB
100
AcDbEntity
  8
LAYER3
100
AcDbVertex
100
AcDb2dVertex
 10
165.0856600891017
 20
423.6714953133013
 30
0.0
  0
VERTEX
  5
6DD
330
6DB
100
AcDbEntity
  8
LAYER3
100
AcDbVertex
100
AcDb2dVertex
 10
164.9524484764003
 20
423.6628097244646
 30
0.0
  0
VERTEX
  5
6DE
330
6DB
100
AcDbEntity
  8
LAYER3
100
AcDbVertex
100
AcDb2dVertex
 10
164.817534555044
 20
423.6674231239702
 30
0.0
  0
VERTEX
  5
6DF
330
6DB
100
AcDbEntity
  8
LAYER3
100
AcDbVertex
100
AcDb2dVertex
 10
164.6824003945254
 20
423.6856621452715
 30
0.0
  0
VERTEX
  5
6E0
330
6DB
100
AcDbEntity
  8
LAYER3
100
AcDbVertex
100
AcDb2dVertex
 10
164.5479299317263
 20
423.7180465408709
 30
0.0
  0
VERTEX
  5
6E1
330
6DB
100
AcDbEntity
  8
LAYER3
100
AcDbVertex
100
AcDb2dVertex
 10
164.4083880077265
 20
423.7679022499468
 30
0.0
  0
VERTEX
  5
6E2
330
6DB
100
AcDbEntity
  8
LAYER3
100
AcDbVertex
100
AcDb2dVertex
 10
164.2675565372369
 20
423.8367408462908
 30
0.0
  0
VERTEX
  5
6E3
330
6DB
100
AcDbEntity
  8
LAYER3
100
AcDbVertex
100
AcDb2dVertex
 10
164.1324116478822
 20
423.9241999336626
 30
0.0
  0
VERTEX
  5
6E4
330
6DB
100
AcDbEntity
  8
LAYER3
100
AcDbVertex
100
AcDb2dVertex
 10
164.0089871178529
 20
424.0263217636492
 30
0.0
  0
VERTEX
  5
6E5
330
6DB
100
AcDbEntity
  8
LAYER3
100
AcDbVertex
100
AcDb2dVertex
 10
163.8976106236836
 20
424.143876428261
 30
0.0
  0
VERTEX
  5
6E6
330
6DB
100
AcDbEntity
  8
LAYER3
100
AcDbVertex
100
AcDb2dVertex
 10
163.7950661967656
 20
424.2827933975603
 30
0.0
  0
VERTEX
  5
6E7
330
6DB
100
AcDbEntity
  8
LAYER3
100
AcDbVertex
100
AcDb2dVertex
 10
163.7099702845475
 20
424.4367068954851
 30
0.0
  0
VERTEX
  5
6E8
330
6DB
100
AcDbEntity
  8
LAYER3
100
AcDbVertex
100
AcDb2dVertex
 10
163.6468741486927
 20
424.595410222664
 30
0.0
  0
VERTEX
  5
6E9
330
6DB
100
AcDbEntity
  8
LAYER3
100
AcDbVertex
100
AcDb2dVertex
 10
163.6046372543237
 20
424.7608894058611
 30
0.0
  0
VERTEX
  5
6EA
330
6DB
100
AcDbEntity
  8
LAYER3
100
AcDbVertex
100
AcDb2dVertex
 10
163.5830126891991
 20
424.9354261108782
 30
0.0
  0
VERTEX
  5
6EB
330
6DB
100
AcDbEntity
  8
LAYER3
100
AcDbVertex
100
AcDb2dVertex
 10
163.5843202660939
 20
425.1080864616778
 30
0.0
  0
VERTEX
  5
6EC
330
6DB
100
AcDbEntity
  8
LAYER3
100
AcDbVertex
100
AcDb2dVertex
 10
163.605328668203
 20
425.268656606331
 30
0.0
  0
VERTEX
  5
6ED
330
6DB
100
AcDbEntity
  8
LAYER3
100
AcDbVertex
100
AcDb2dVertex
 10
163.6451555977723
 20
425.4238218017961
 30
0.0
  0
VERTEX
  5
6EE
330
6DB
100
AcDbEntity
  8
LAYER3
100
AcDbVertex
100
AcDb2dVertex
 10
163.7030828188322
 20
425.5740135857012
 30
0.0
  0
VERTEX
  5
6EF
330
6DB
100
AcDbEntity
  8
LAYER3
100
AcDbVertex
100
AcDb2dVertex
 10
163.7765552292726
 20
425.7124847122575
 30
0.0
  0
VERTEX
  5
6F0
330
6DB
100
AcDbEntity
  8
LAYER3
100
AcDbVertex
100
AcDb2dVertex
 10
163.8601418028734
 20
425.8348387428667
 30
0.0
  0
VERTEX
  5
6F1
330
6DB
100
AcDbEntity
  8
LAYER3
100
AcDbVertex
100
AcDb2dVertex
 10
163.949896116104
 20
425.9400790878679
 30
0.0
  0
VERTEX
  5
6F2
330
6DB
100
AcDbEntity
  8
LAYER3
100
AcDbVertex
100
AcDb2dVertex
 10
164.0485020171069
 20
426.0342639633562
 30
0.0
  0
VERTEX
  5
6F3
330
6DB
100
AcDbEntity
  8
LAYER3
100
AcDbVertex
100
AcDb2dVertex
 10
164.1549371372127
 20
426.1172980018999
 30
0.0
  0
VERTEX
  5
6F4
330
6DB
100
AcDbEntity
  8
LAYER3
100
AcDbVertex
100
AcDb2dVertex
 10
164.2678125391864
 20
426.1885708519365
 30
0.0
  0
SEQEND
  5
6F5
330
6DB
100
AcDbEntity
  8
LAYER3
  0
POLYLINE
  5
6F6
330
2
100
AcDbEntity
  8
LAYER3
100
AcDb2dPolyline
 66
     1
 10
0.0
 20
0.0
 30
0.0
 70
   128
  0
VERTEX
  5
6F7
330
6F6
100
AcDbEntity
  8
LAYER3
100
AcDbVertex
100
AcDb2dVertex
 10
165.8434944044018
 20
423.4438580223467
 30
0.0
  0
VERTEX
  5
6F8
330
6F6
100
AcDbEntity
  8
LAYER3
100
AcDbVertex
100
AcDb2dVertex
 10
165.8146555910969
 20
423.4671372124101
 30
0.0
  0
VERTEX
  5
6F9
330
6F6
100
AcDbEntity
  8
LAYER3
100
AcDbVertex
100
AcDb2dVertex
 10
165.7847865115071
 20
423.4894221969987
 30
0.0
  0
VERTEX
  5
6FA
330
6F6
100
AcDbEntity
  8
LAYER3
100
AcDbVertex
100
AcDb2dVertex
 10
165.7540099512005
 20
423.510650987282
 30
0.0
  0
VERTEX
  5
6FB
330
6F6
100
AcDbEntity
  8
LAYER3
100
AcDbVertex
100
AcDb2dVertex
 10
165.7224486957455
 20
423.5307615944292
 30
0.0
  0
VERTEX
  5
6FC
330
6F6
100
AcDbEntity
  8
LAYER3
100
AcDbVertex
100
AcDb2dVertex
 10
165.6902255307103
 20
423.5496848770525
 30
0.0
  0
VERTEX
  5
6FD
330
6F6
100
AcDbEntity
  8
LAYER3
100
AcDbVertex
100
AcDb2dVertex
 10
165.657463241663
 20
423.567361230507
 30
0.0
  0
VERTEX
  5
6FE
330
6F6
100
AcDbEntity
  8
LAYER3
100
AcDbVertex
100
AcDb2dVertex
 10
165.6242843161488
 20
423.5837262817766
 30
0.0
  0
VERTEX
  5
6FF
330
6F6
100
AcDbEntity
  8
LAYER3
100
AcDbVertex
100
AcDb2dVertex
 10
165.590811837759
 20
423.5987132736589
 30
0.0
  0
VERTEX
  5
700
330
6F6
100
AcDbEntity
  8
LAYER3
100
AcDbVertex
100
AcDb2dVertex
 10
165.5571673999691
 20
423.6122697540666
 30
0.0
  0
VERTEX
  5
701
330
6F6
100
AcDbEntity
  8
LAYER3
100
AcDbVertex
100
AcDb2dVertex
 10
165.5234675298596
 20
423.624414796486
 30
0.0
  0
VERTEX
  5
702
330
6F6
100
AcDbEntity
  8
LAYER3
100
AcDbVertex
100
AcDb2dVertex
 10
165.4898341189289
 20
423.6351913162614
 30
0.0
  0
VERTEX
  5
703
330
6F6
100
AcDbEntity
  8
LAYER3
100
AcDbVertex
100
AcDb2dVertex
 10
165.4563896547222
 20
423.6446422287371
 30
0.0
  0
VERTEX
  5
704
330
6F6
100
AcDbEntity
  8
LAYER3
100
AcDbVertex
100
AcDb2dVertex
 10
165.4232575188542
 20
423.652810449257
 30
0.0
  0
VERTEX
  5
705
330
6F6
100
AcDbEntity
  8
LAYER3
100
AcDbVertex
100
AcDb2dVertex
 10
165.3905599008465
 20
423.6597365089799
 30
0.0
  0
VERTEX
  5
706
330
6F6
100
AcDbEntity
  8
LAYER3
100
AcDbVertex
100
AcDb2dVertex
 10
165.3584201823139
 20
423.66546332325
 30
0.0
  0
VERTEX
  5
707
330
6F6
100
AcDbEntity
  8
LAYER3
100
AcDbVertex
100
AcDb2dVertex
 10
165.3269608508014
 20
423.6700314232256
 30
0.0
  0
VERTEX
  5
708
330
6F6
100
AcDbEntity
  8
LAYER3
100
AcDbVertex
100
AcDb2dVertex
 10
165.2963026057148
 20
423.673483724251
 30
0.0
  0
VERTEX
  5
709
330
6F6
100
AcDbEntity
  8
LAYER3
100
AcDbVertex
100
AcDb2dVertex
 10
165.2660198698902
 20
423.6759346672442
 30
0.0
  0
VERTEX
  5
70A
330
6F6
100
AcDbEntity
  8
LAYER3
100
AcDbVertex
100
AcDb2dVertex
 10
165.2357460747623
 20
423.6774629303361
 30
0.0
  0
VERTEX
  5
70B
330
6F6
100
AcDbEntity
  8
LAYER3
100
AcDbVertex
100
AcDb2dVertex
 10
165.2055145989322
 20
423.6780732818987
 30
0.0
  0
VERTEX
  5
70C
330
6F6
100
AcDbEntity
  8
LAYER3
100
AcDbVertex
100
AcDb2dVertex
 10
165.1753576289081
 20
423.677772874489
 30
0.0
  0
VERTEX
  5
70D
330
6F6
100
AcDbEntity
  8
LAYER3
100
AcDbVertex
100
AcDb2dVertex
 10
165.1453076492214
 20
423.6765712448503
 30
0.0
  0
VERTEX
  5
70E
330
6F6
100
AcDbEntity
  8
LAYER3
100
AcDbVertex
100
AcDb2dVertex
 10
165.1153977404498
 20
423.6744755455401
 30
0.0
  0
VERTEX
  5
70F
330
6F6
100
AcDbEntity
  8
LAYER3
100
AcDbVertex
100
AcDb2dVertex
 10
165.0856600891017
 20
423.6714953133013
 30
0.0
  0
SEQEND
  5
710
330
6F6
100
AcDbEntity
  8
LAYER3
  0
ARC
  5
711
330
2
100
AcDbEntity
  8
LAYER3
100
AcDbCircle
 10
167.9979577453338
 20
426.0091625543665
 30
0.0
 40
3.349999999999126
100
AcDbArc
 50
229.9748830508233
 51
238.0251169491747
  0
POLYLINE
  5
712
330
2
100
AcDbEntity
  8
LAYER3
100
AcDb2dPolyline
 66
     1
 10
0.0
 20
0.0
 30
0.0
 70
   128
  0
VERTEX
  5
713
330
712
100
AcDbEntity
  8
LAYER3
100
AcDbVertex
100
AcDb2dVertex
 10
166.674652565565
 20
422.5170248695757
 30
0.0
  0
VERTEX
  5
714
330
712
100
AcDbEntity
  8
LAYER3
100
AcDbVertex
100
AcDb2dVertex
 10
166.6682993064785
 20
422.546226377144
 30
0.0
  0
VERTEX
  5
715
330
712
100
AcDbEntity
  8
LAYER3
100
AcDbVertex
100
AcDb2dVertex
 10
166.6610495935344
 20
422.5753205963518
 30
0.0
  0
VERTEX
  5
716
330
712
100
AcDbEntity
  8
LAYER3
100
AcDbVertex
100
AcDb2dVertex
 10
166.6529064069652
 20
422.6042717644121
 30
0.0
  0
VERTEX
  5
717
330
712
100
AcDbEntity
  8
LAYER3
100
AcDbVertex
100
AcDb2dVertex
 10
166.6438721309566
 20
422.6330441185381
 30
0.0
  0
VERTEX
  5
718
330
712
100
AcDbEntity
  8
LAYER3
100
AcDbVertex
100
AcDb2dVertex
 10
166.6339497457408
 20
422.6616090485002
 30
0.0
  0
VERTEX
  5
719
330
712
100
AcDbEntity
  8
LAYER3
100
AcDbVertex
100
AcDb2dVertex
 10
166.6231422315502
 20
422.6899284073259
 30
0.0
  0
VERTEX
  5
71A
330
712
100
AcDbEntity
  8
LAYER3
100
AcDbVertex
100
AcDb2dVertex
 10
166.6114519725704
 20
422.7179712005998
 30
0.0
  0
VERTEX
  5
71B
330
712
100
AcDbEntity
  8
LAYER3
100
AcDbVertex
100
AcDb2dVertex
 10
166.5986947904491
 20
422.7460616775896
 30
0.0
  0
VERTEX
  5
71C
330
712
100
AcDbEntity
  8
LAYER3
100
AcDbVertex
100
AcDb2dVertex
 10
166.5846286903286
 20
422.7745693870928
 30
0.0
  0
VERTEX
  5
71D
330
712
100
AcDbEntity
  8
LAYER3
100
AcDbVertex
100
AcDb2dVertex
 10
166.5692506919765
 20
422.8033679672624
 30
0.0
  0
VERTEX
  5
71E
330
712
100
AcDbEntity
  8
LAYER3
100
AcDbVertex
100
AcDb2dVertex
 10
166.5525596033001
 20
422.8323239036943
 30
0.0
  0
VERTEX
  5
71F
330
712
100
AcDbEntity
  8
LAYER3
100
AcDbVertex
100
AcDb2dVertex
 10
166.5345530401135
 20
422.8613108345415
 30
0.0
  0
VERTEX
  5
720
330
712
100
AcDbEntity
  8
LAYER3
100
AcDbVertex
100
AcDb2dVertex
 10
166.5152298103238
 20
422.8901976295855
 30
0.0
  0
VERTEX
  5
721
330
712
100
AcDbEntity
  8
LAYER3
100
AcDbVertex
100
AcDb2dVertex
 10
166.4945869336987
 20
422.9188555427935
 30
0.0
  0
VERTEX
  5
722
330
712
100
AcDbEntity
  8
LAYER3
100
AcDbVertex
100
AcDb2dVertex
 10
166.4726229201222
 20
422.947153443947
 30
0.0
  0
VERTEX
  5
723
330
712
100
AcDbEntity
  8
LAYER3
100
AcDbVertex
100
AcDb2dVertex
 10
166.4493338952923
 20
422.9749602028276
 30
0.0
  0
VERTEX
  5
724
330
712
100
AcDbEntity
  8
LAYER3
100
AcDbVertex
100
AcDb2dVertex
 10
166.4247359524632
 20
423.0021637627031
 30
0.0
  0
VERTEX
  5
725
330
712
100
AcDbEntity
  8
LAYER3
100
AcDbVertex
100
AcDb2dVertex
 10
166.3989196906948
 20
423.0286616035844
 30
0.0
  0
VERTEX
  5
726
330
712
100
AcDbEntity
  8
LAYER3
100
AcDbVertex
100
AcDb2dVertex
 10
166.3719843517208
 20
423.05435835804
 30
0.0
  0
VERTEX
  5
727
330
712
100
AcDbEntity
  8
LAYER3
100
AcDbVertex
100
AcDb2dVertex
 10
166.3440285812283
 20
423.0791562744524
 30
0.0
  0
VERTEX
  5
728
330
712
100
AcDbEntity
  8
LAYER3
100
AcDbVertex
100
AcDb2dVertex
 10
166.3151507268811
 20
423.1029599853899
 30
0.0
  0
VERTEX
  5
729
330
712
100
AcDbEntity
  8
LAYER3
100
AcDbVertex
100
AcDb2dVertex
 10
166.2854497323895
 20
423.1256693550493
 30
0.0
  0
VERTEX
  5
72A
330
712
100
AcDbEntity
  8
LAYER3
100
AcDbVertex
100
AcDb2dVertex
 10
166.2550245414639
 20
423.1471890159991
 30
0.0
  0
VERTEX
  5
72B
330
712
100
AcDbEntity
  8
LAYER3
100
AcDbVertex
100
AcDb2dVertex
 10
166.2239737997914
 20
423.1674236008074
 30
0.0
  0
SEQEND
  5
72C
330
712
100
AcDbEntity
  8
LAYER3
  0
POLYLINE
  5
72D
330
2
100
AcDbEntity
  8
LAYER3
100
AcDb2dPolyline
 66
     1
 10
0.0
 20
0.0
 30
0.0
 70
   128
  0
VERTEX
  5
72E
330
72D
100
AcDbEntity
  8
LAYER3
100
AcDbVertex
100
AcDb2dVertex
 10
169.3212633024119
 20
422.5170248695757
 30
0.0
  0
VERTEX
  5
72F
330
72D
100
AcDbEntity
  8
LAYER3
100
AcDbVertex
100
AcDb2dVertex
 10
169.2883585582637
 20
422.3876470276263
 30
0.0
  0
VERTEX
  5
730
330
72D
100
AcDbEntity
  8
LAYER3
100
AcDbVertex
100
AcDb2dVertex
 10
169.2422788034342
 20
422.2607630440141
 30
0.0
  0
VERTEX
  5
731
330
72D
100
AcDbEntity
  8
LAYER3
100
AcDbVertex
100
AcDb2dVertex
 10
169.1831742416285
 20
422.1378797241595
 30
0.0
  0
VERTEX
  5
732
330
72D
100
AcDbEntity
  8
LAYER3
100
AcDbVertex
100
AcDb2dVertex
 10
169.110821951475
 20
422.0199960419084
 30
0.0
  0
VERTEX
  5
733
330
72D
100
AcDbEntity
  8
LAYER3
100
AcDbVertex
100
AcDb2dVertex
 10
169.0202848802469
 20
421.9026917168047
 30
0.0
  0
VERTEX
  5
734
330
72D
100
AcDbEntity
  8
LAYER3
100
AcDbVertex
100
AcDb2dVertex
 10
168.9112954030893
 20
421.7900246330644
 30
0.0
  0
VERTEX
  5
735
330
72D
100
AcDbEntity
  8
LAYER3
100
AcDbVertex
100
AcDb2dVertex
 10
168.7863545308969
 20
421.6885203071978
 30
0.0
  0
VERTEX
  5
736
330
72D
100
AcDbEntity
  8
LAYER3
100
AcDbVertex
100
AcDb2dVertex
 10
168.6510907302758
 20
421.6026943870928
 30
0.0
  0
VERTEX
  5
737
330
72D
100
AcDbEntity
  8
LAYER3
100
AcDbVertex
100
AcDb2dVertex
 10
168.5048721919915
 20
421.5330952354815
 30
0.0
  0
VERTEX
  5
738
330
72D
100
AcDbEntity
  8
LAYER3
100
AcDbVertex
100
AcDb2dVertex
 10
168.3410673032662
 20
421.4784973808672
 30
0.0
  0
VERTEX
  5
739
330
72D
100
AcDbEntity
  8
LAYER3
100
AcDbVertex
100
AcDb2dVertex
 10
168.1683902631661
 20
421.4451283165361
 30
0.0
  0
VERTEX
  5
73A
330
72D
100
AcDbEntity
  8
LAYER3
100
AcDbVertex
100
AcDb2dVertex
 10
167.9979579339882
 20
421.4341634460833
 30
0.0
  0
VERTEX
  5
73B
330
72D
100
AcDbEntity
  8
LAYER3
100
AcDbVertex
100
AcDb2dVertex
 10
167.8275250087639
 20
421.4451283165361
 30
0.0
  0
VERTEX
  5
73C
330
72D
100
AcDbEntity
  8
LAYER3
100
AcDbVertex
100
AcDb2dVertex
 10
167.6548479686639
 20
421.4784973808672
 30
0.0
  0
VERTEX
  5
73D
330
72D
100
AcDbEntity
  8
LAYER3
100
AcDbVertex
100
AcDb2dVertex
 10
167.4910430799386
 20
421.5330952354815
 30
0.0
  0
VERTEX
  5
73E
330
72D
100
AcDbEntity
  8
LAYER3
100
AcDbVertex
100
AcDb2dVertex
 10
167.3448245416543
 20
421.6026943870928
 30
0.0
  0
VERTEX
  5
73F
330
72D
100
AcDbEntity
  8
LAYER3
100
AcDbVertex
100
AcDb2dVertex
 10
167.2095607410333
 20
421.6885203071978
 30
0.0
  0
VERTEX
  5
740
330
72D
100
AcDbEntity
  8
LAYER3
100
AcDbVertex
100
AcDb2dVertex
 10
167.0846198688409
 20
421.7900246330644
 30
0.0
  0
VERTEX
  5
741
330
72D
100
AcDbEntity
  8
LAYER3
100
AcDbVertex
100
AcDb2dVertex
 10
166.9756303916834
 20
421.9026917168047
 30
0.0
  0
VERTEX
  5
742
330
72D
100
AcDbEntity
  8
LAYER3
100
AcDbVertex
100
AcDb2dVertex
 10
166.8850933204554
 20
422.0199960419084
 30
0.0
  0
VERTEX
  5
743
330
72D
100
AcDbEntity
  8
LAYER3
100
AcDbVertex
100
AcDb2dVertex
 10
166.8127410303019
 20
422.1378797241595
 30
0.0
  0
VERTEX
  5
744
330
72D
100
AcDbEntity
  8
LAYER3
100
AcDbVertex
100
AcDb2dVertex
 10
166.7536370645426
 20
422.2607630440141
 30
0.0
  0
VERTEX
  5
745
330
72D
100
AcDbEntity
  8
LAYER3
100
AcDbVertex
100
AcDb2dVertex
 10
166.7075573097133
 20
422.3876470276263
 30
0.0
  0
VERTEX
  5
746
330
72D
100
AcDbEntity
  8
LAYER3
100
AcDbVertex
100
AcDb2dVertex
 10
166.674652565565
 20
422.5170248695757
 30
0.0
  0
SEQEND
  5
747
330
72D
100
AcDbEntity
  8
LAYER3
  0
POLYLINE
  5
748
330
2
100
AcDbEntity
  8
LAYER3
100
AcDb2dPolyline
 66
     1
 10
0.0
 20
0.0
 30
0.0
 70
   128
  0
VERTEX
  5
749
330
748
100
AcDbEntity
  8
LAYER3
100
AcDbVertex
100
AcDb2dVertex
 10
169.7719417701627
 20
423.1674236008074
 30
0.0
  0
VERTEX
  5
74A
330
748
100
AcDbEntity
  8
LAYER3
100
AcDbVertex
100
AcDb2dVertex
 10
169.7408907304669
 20
423.1471890159991
 30
0.0
  0
VERTEX
  5
74B
330
748
100
AcDbEntity
  8
LAYER3
100
AcDbVertex
100
AcDb2dVertex
 10
169.7104655395413
 20
423.1256693550493
 30
0.0
  0
VERTEX
  5
74C
330
748
100
AcDbEntity
  8
LAYER3
100
AcDbVertex
100
AcDb2dVertex
 10
169.6807651410962
 20
423.1029599853899
 30
0.0
  0
VERTEX
  5
74D
330
748
100
AcDbEntity
  8
LAYER3
100
AcDbVertex
100
AcDb2dVertex
 10
169.651887286749
 20
423.0791562744524
 30
0.0
  0
VERTEX
  5
74E
330
748
100
AcDbEntity
  8
LAYER3
100
AcDbVertex
100
AcDb2dVertex
 10
169.6239309202099
 20
423.05435835804
 30
0.0
  0
VERTEX
  5
74F
330
748
100
AcDbEntity
  8
LAYER3
100
AcDbVertex
100
AcDb2dVertex
 10
169.5969955812359
 20
423.0286616035844
 30
0.0
  0
VERTEX
  5
750
330
748
100
AcDbEntity
  8
LAYER3
100
AcDbVertex
100
AcDb2dVertex
 10
169.5711796174908
 20
423.0021637627031
 30
0.0
  0
VERTEX
  5
751
330
748
100
AcDbEntity
  8
LAYER3
100
AcDbVertex
100
AcDb2dVertex
 10
169.5465813766384
 20
422.9749602028276
 30
0.0
  0
VERTEX
  5
752
330
748
100
AcDbEntity
  8
LAYER3
100
AcDbVertex
100
AcDb2dVertex
 10
169.5232926498318
 20
422.947153443947
 30
0.0
  0
VERTEX
  5
753
330
748
100
AcDbEntity
  8
LAYER3
100
AcDbVertex
100
AcDb2dVertex
 10
169.5013283382321
 20
422.9188555427935
 30
0.0
  0
VERTEX
  5
754
330
748
100
AcDbEntity
  8
LAYER3
100
AcDbVertex
100
AcDb2dVertex
 10
169.4806860576535
 20
422.8901976295855
 30
0.0
  0
VERTEX
  5
755
330
748
100
AcDbEntity
  8
LAYER3
100
AcDbVertex
100
AcDb2dVertex
 10
169.4613622318173
 20
422.8613108345415
 30
0.0
  0
VERTEX
  5
756
330
748
100
AcDbEntity
  8
LAYER3
100
AcDbVertex
100
AcDb2dVertex
 10
169.4433556686306
 20
422.8323239036943
 30
0.0
  0
VERTEX
  5
757
330
748
100
AcDbEntity
  8
LAYER3
100
AcDbVertex
100
AcDb2dVertex
 10
169.4266645799541
 20
422.8033679672624
 30
0.0
  0
VERTEX
  5
758
330
748
100
AcDbEntity
  8
LAYER3
100
AcDbVertex
100
AcDb2dVertex
 10
169.4112871776485
 20
422.7745693870928
 30
0.0
  0
VERTEX
  5
759
330
748
100
AcDbEntity
  8
LAYER3
100
AcDbVertex
100
AcDb2dVertex
 10
169.397221077528
 20
422.7460616775896
 30
0.0
  0
VERTEX
  5
75A
330
748
100
AcDbEntity
  8
LAYER3
100
AcDbVertex
100
AcDb2dVertex
 10
169.3844632993602
 20
422.7179712005998
 30
0.0
  0
VERTEX
  5
75B
330
748
100
AcDbEntity
  8
LAYER3
100
AcDbVertex
100
AcDb2dVertex
 10
169.3727730403804
 20
422.6899284073259
 30
0.0
  0
VERTEX
  5
75C
330
748
100
AcDbEntity
  8
LAYER3
100
AcDbVertex
100
AcDb2dVertex
 10
169.3619655261898
 20
422.6616090485002
 30
0.0
  0
VERTEX
  5
75D
330
748
100
AcDbEntity
  8
LAYER3
100
AcDbVertex
100
AcDb2dVertex
 10
169.352043140974
 20
422.6330441185381
 30
0.0
  0
VERTEX
  5
75E
330
748
100
AcDbEntity
  8
LAYER3
100
AcDbVertex
100
AcDb2dVertex
 10
169.3430094610118
 20
422.6042717644121
 30
0.0
  0
VERTEX
  5
75F
330
748
100
AcDbEntity
  8
LAYER3
100
AcDbVertex
100
AcDb2dVertex
 10
169.3348656783962
 20
422.5753205963518
 30
0.0
  0
VERTEX
  5
760
330
748
100
AcDbEntity
  8
LAYER3
100
AcDbVertex
100
AcDb2dVertex
 10
169.3276165614986
 20
422.546226377144
 30
0.0
  0
VERTEX
  5
761
330
748
100
AcDbEntity
  8
LAYER3
100
AcDbVertex
100
AcDb2dVertex
 10
169.3212633024119
 20
422.5170248695757
 30
0.0
  0
SEQEND
  5
762
330
748
100
AcDbEntity
  8
LAYER3
  0
ARC
  5
763
330
2
100
AcDbEntity
  8
LAYER3
100
AcDbCircle
 10
167.9979577453344
 20
426.0091625543671
 30
0.0
 40
3.349999999999836
100
AcDbArc
 50
301.9748830508222
 51
310.0251169491766
  0
CIRCLE
  5
764
330
2
100
AcDbEntity
  8
LAYER3
100
AcDbCircle
 10
167.9979577453339
 20
242.5091625543672
 30
0.0
 40
4.0
  0
CIRCLE
  5
765
330
2
100
AcDbEntity
  8
LAYER3
100
AcDbCircle
 10
167.9979577453339
 20
334.5091625543673
 30
0.0
 40
4.0
  0
CIRCLE
  5
766
330
2
100
AcDbEntity
  8
LAYER3
100
AcDbCircle
 10
167.9979577453339
 20
392.0091625543673
 30
0.0
 40
4.0
  0
CIRCLE
  5
767
330
2
100
AcDbEntity
  8
LAYER3
100
AcDbCircle
 10
167.9979577453339
 20
292.5091625543672
 30
0.0
 40
4.0
  0
CIRCLE
  5
768
330
2
100
AcDbEntity
  8
LAYER3
100
AcDbCircle
 10
167.9979577453339
 20
182.0091625543673
 30
0.0
 40
4.75
  0
CIRCLE
  5
769
330
2
100
AcDbEntity
  8
LAYER3
100
AcDbCircle
 10
167.9979577453339
 20
426.0091625543672
 30
0.0
 40
4.75
  0
CIRCLE
  5
76A
330
2
100
AcDbEntity
  8
LAYER3
100
AcDbCircle
 10
167.9979577453339
 20
212.0091625543673
 30
0.0
 40
4.75
  0
LINE
  5
76B
330
2
100
AcDbEntity
  8
LAYER3
100
AcDbLine
 10
157.4979577453339
 20
439.0091625543672
 30
0.0
 11
179.9979577453343
 21
439.0091625543672
 31
0.0
  0
LINE
  5
76C
330
2
100
AcDbEntity
  8
LAYER3
100
AcDbLine
 10
178.4979577453339
 20
169.0091625543672
 30
0.0
 11
157.4979577453339
 21
169.0091625543672
 31
0.0
  0
LINE
  5
76D
330
2
100
AcDbEntity
  8
LAYER3
100
AcDbLine
 10
155.9979577453343
 20
169.0091625543672
 30
0.0
 11
155.9979577453343
 21
439.0091625543672
 31
0.0
  0
LINE
  5
76E
330
2
100
AcDbEntity
  8
LAYER3
100
AcDbLine
 10
179.9979577453343
 20
439.0091625543672
 30
0.0
 11
179.9979577453343
 21
169.0091625543672
 31
0.0
  0
LINE
  5
76F
330
2
100
AcDbEntity
  8
LAYER3
100
AcDbLine
 10
155.9979577453343
 20
439.0091625543672
 30
0.0
 11
157.4979577453339
 21
439.0091625543672
 31
0.0
  0
LINE
  5
770
330
2
100
AcDbEntity
  8
LAYER3
100
AcDbLine
 10
173.4979577453339
 20
439.0091625543672
 30
0.0
 11
174.9979577453343
 21
439.0091625543672
 31
0.0
  0
LINE
  5
771
330
2
100
AcDbEntity
  8
LAYER3
100
AcDbLine
 10
179.9979577453344
 20
169.0091625543672
 30
0.0
 11
178.497957745334
 21
169.0091625543672
 31
0.0
  0
LINE
  5
772
330
2
100
AcDbEntity
  8
LAYER3
100
AcDbLine
 10
157.4979577453339
 20
169.0091625543672
 30
0.0
 11
155.9979577453343
 21
169.0091625543672
 31
0.0
  0
LINE
  5
773
330
2
100
AcDbEntity
  8
LAYER3
100
AcDbLine
 10
19.94744493249782
 20
250.0091625543672
 30
0.0
 11
38.94744493249772
 21
250.0091625543672
 31
0.0
  0
LINE
  5
774
330
2
100
AcDbEntity
  8
LAYER3
100
AcDbLine
 10
18.94744493249782
 20
284.0091625543673
 30
0.0
 11
18.94744493249781
 21
251.0091625543672
 31
0.0
  0
ARC
  5
775
330
2
100
AcDbEntity
  8
LAYER3
100
AcDbCircle
 10
19.94744493249781
 20
251.0091625543672
 30
0.0
 40
0.9999999999999964
100
AcDbArc
 50
180.0
 51
270.0
  0
ARC
  5
776
330
2
100
AcDbEntity
  8
LAYER3
100
AcDbCircle
 10
19.94744493249782
 20
284.0091625543673
 30
0.0
 40
1.000000000000007
100
AcDbArc
 50
90.00000000000078
 51
180.0
  0
LINE
  5
777
330
2
100
AcDbEntity
  8
LAYER3
100
AcDbLine
 10
38.94744493249772
 20
285.0091625543672
 30
0.0
 11
19.94744493249781
 21
285.0091625543672
 31
0.0
  0
LINE
  5
778
330
2
100
AcDbEntity
  8
LAYER3
100
AcDbLine
 10
84.44744493249766
 20
394.5091625543673
 30
0.0
 11
65.44475236866015
 21
394.5091625543673
 31
0.0
  0
LINE
  5
779
330
2
100
AcDbEntity
  8
LAYER3
100
AcDbLine
 10
84.44744493249766
 20
394.5091625543673
 30
0.0
 11
84.44744493249771
 21
204.0091625543673
 31
0.0
  0
LINE
  5
77A
330
2
100
AcDbEntity
  8
LAYER3
100
AcDbLine
 10
84.44744493249771
 20
204.0091625543673
 30
0.0
 11
41.94744493249777
 21
204.0091625543673
 31
0.0
  0
LINE
  5
77B
330
2
100
AcDbEntity
  8
LAYER3
100
AcDbLine
 10
41.94744493249766
 20
404.0091625543672
 30
0.0
 11
60.51653357431331
 21
404.0091625543672
 31
0.0
  0
CIRCLE
  5
77C
330
2
100
AcDbEntity
  8
LAYER3
100
AcDbCircle
 10
58.94744493249771
 20
216.5091625543672
 30
0.0
 40
2.6
  0
CIRCLE
  5
77D
330
2
100
AcDbEntity
  8
LAYER3
100
AcDbCircle
 10
78.94744493249771
 20
216.5091625543672
 30
0.0
 40
2.6
  0
LINE
  5
77E
330
2
100
AcDbEntity
  8
LAYER3
100
AcDbLine
 10
74.04744493249774
 20
219.6501565192742
 30
0.0
 11
74.04744493249774
 21
210.3091625543673
 31
0.0
  0
ARC
  5
77F
330
2
100
AcDbEntity
  8
LAYER3
100
AcDbCircle
 10
68.94744493249771
 20
229.5091625543673
 30
0.0
 40
11.10000000000001
100
AcDbArc
 50
297.3522329091273
 51
242.6477670908719
  0
LINE
  5
780
330
2
100
AcDbEntity
  8
LAYER3
100
AcDbLine
 10
63.84744493249775
 20
210.3091625543673
 30
0.0
 11
63.84744493249773
 21
219.6501565192742
 31
0.0
  0
ARC
  5
781
330
2
100
AcDbEntity
  8
LAYER3
100
AcDbCircle
 10
68.94744493249771
 20
210.3091625543673
 30
0.0
 40
5.099999999999997
100
AcDbArc
 50
180.0
 51
0.0
  0
ARC
  5
782
330
2
100
AcDbEntity
  8
LAYER3
100
AcDbCircle
 10
65.29889805346087
 20
393.7533488324362
 30
0.0
 40
1.000000000000001
100
AcDbArc
 50
115.0000000000008
 51
295.0000000000009
  0
LINE
  5
783
330
2
100
AcDbEntity
  8
LAYER3
100
AcDbLine
 10
69.28594739391058
 20
394.5091625543673
 30
0.0
 11
65.72151631520156
 21
392.8470410453995
 31
0.0
  0
LINE
  5
784
330
2
100
AcDbEntity
  8
LAYER3
100
AcDbLine
 10
60.51653357431328
 20
404.0091625543672
 30
0.0
 11
62.44744493249766
 21
404.0091625543672
 31
0.0
  0
LINE
  5
785
330
2
100
AcDbEntity
  8
LAYER3
100
AcDbLine
 10
66.46231841903432
 20
395.3992385775191
 30
0.0
 11
64.87627979172017
 21
394.6596566194728
 31
0.0
  0
LINE
  5
786
330
2
100
AcDbEntity
  8
LAYER3
100
AcDbLine
 10
66.46231841903432
 20
395.3992385775191
 30
0.0
 11
62.44744493249766
 21
404.0091625543672
 31
0.0
  0
LINE
  5
787
330
2
100
AcDbEntity
  8
LAYER3
100
AcDbLine
 10
72.38230711977536
 20
240.0284992820736
 30
0.0
 11
72.24713422884263
 21
240.1073723346834
 31
0.0
  0
LINE
  5
788
330
2
100
AcDbEntity
  8
LAYER3
100
AcDbLine
 10
72.38230711977536
 20
240.0284992820736
 30
0.0
 11
72.39987372042574
 21
240.0586049786988
 31
0.0
  0
ARC
  5
789
330
2
100
AcDbEntity
  8
LAYER3
100
AcDbCircle
 10
79.52182456799533
 20
234.5397408807167
 30
0.0
 40
2.000000000000579
100
AcDbArc
 50
137.9278257205183
 51
140.8865097776454
  0
ARC
  5
78A
330
2
100
AcDbEntity
  8
LAYER3
100
AcDbCircle
 10
74.48757248314905
 20
241.0124764651671
 30
0.0
 40
1.999999999999596
100
AcDbArc
 50
269.9845122790364
 51
275.2134808376987
  0
ARC
  5
78B
330
2
100
AcDbEntity
  8
LAYER3
100
AcDbCircle
 10
68.94744493249766
 20
231.5094776372964
 30
0.0
 40
9.000000000001366
100
AcDbArc
 50
88.87569012320991
 51
91.12430987694484
  0
CIRCLE
  5
78C
330
2
100
AcDbEntity
  8
LAYER3
100
AcDbCircle
 10
68.94744493249769
 20
302.0091625543672
 30
0.0
 40
4.75
  0
CIRCLE
  5
78D
330
2
100
AcDbEntity
  8
LAYER3
100
AcDbCircle
 10
68.94744493249769
 20
302.0091625543672
 30
0.0
 40
5.099999999999999
  0
LINE
  5
78E
330
2
100
AcDbEntity
  8
LAYER3
100
AcDbLine
 10
38.94744493249766
 20
439.0091625543672
 30
0.0
 11
38.94744493249773
 21
169.0091625543672
 31
0.0
  0
LINE
  5
78F
330
2
100
AcDbEntity
  8
LAYER3
100
AcDbLine
 10
38.94744493249766
 20
439.0091625543672
 30
0.0
 11
41.94744493249766
 21
439.0091625543672
 31
0.0
  0
LINE
  5
790
330
2
100
AcDbEntity
  8
LAYER3
100
AcDbLine
 10
41.94744493249771
 20
169.0091625543672
 30
0.0
 11
41.94744493249766
 21
439.0091625543672
 31
0.0
  0
LINE
  5
791
330
2
100
AcDbEntity
  8
LAYER3
100
AcDbLine
 10
41.94744493249774
 20
169.0091625543672
 30
0.0
 11
38.94744493249773
 21
169.0091625543672
 31
0.0
  0
LINE
  5
792
330
2
100
AcDbEntity
  8
LAYER3
100
AcDbLine
 10
65.44475236866015
 20
394.5091625543673
 30
0.0
 11
65.44475236866015
 21
392.7640427530362
 31
0.0
  0
ENDSEC
  0
SECTION
  2
OBJECTS
  0
DICTIONARY
  5
B
330
0
100
AcDbDictionary
281
     1
  3
ACAD_2007HEADERVARS_RT
350
7F8
  3
ACAD_COLOR
350
4D
  3
ACAD_GROUP
350
3A
  3
ACAD_LAYOUT
350
18
  3
ACAD_MATERIAL
350
D
  3
ACAD_MLEADERSTYLE
350
50
  3
ACAD_MLINESTYLE
350
3B
  3
ACAD_PLOTSETTINGS
350
3C
  3
ACAD_PLOTSTYLENAME
350
A
  3
ACAD_SCALELIST
350
4E
  3
ACAD_TABLESTYLE
350
4F
  3
ACAD_VISUALSTYLE
350
2F
  3
ACDB_RECOMPOSE_DATA
350
7F7
  3
AcDbVariableDictionary
350
7EC
  3
AcmDictionary
350
7A4
  3
AMG
350
795
  0
DICTIONARY
  5
1F
330
1E
100
AcDbDictionary
280
     1
281
     1
  3
ACAD_LAYERFILTERS
360
20
  3
ACAD_LAYERSTATES
360
21
  3
ACLYDICTIONARY
360
22
  0
DICTIONARY
  5
7
330
6
100
AcDbDictionary
280
     1
281
     1
  3
ADSK_XREC_LAYER_RECONCILED
360
8
  0
DICTIONARY
  5
52
330
51
100
AcDbDictionary
280
     1
281
     1
  3
ADSK_XREC_LAYER_RECONCILED
360
53
  0
DICTIONARY
  5
A1
330
A0
100
AcDbDictionary
280
     1
281
     1
  3
ADSK_XREC_LAYER_RECONCILED
360
A2
  0
DICTIONARY
  5
6C
330
6B
100
AcDbDictionary
280
     1
281
     1
  3
ADSK_XREC_LAYER_RECONCILED
360
6D
  0
DICTIONARY
  5
3
330
2
100
AcDbDictionary
280
     1
281
     1
  3
ACAD_SORTENTS
360
793
  0
DICTIONARY
  5
7F8
102
{ACAD_REACTORS
330
B
102
}
330
B
100
AcDbDictionary
281
     1
  3
DIMJOGANG
350
7F9
  3
INTERFEREVPVS
350
7FA
  0
DICTIONARY
  5
4D
102
{ACAD_REACTORS
330
B
102
}
330
B
100
AcDbDictionary
281
     1
  0
DICTIONARY
  5
3A
102
{ACAD_REACTORS
330
B
102
}
330
B
100
AcDbDictionary
281
     1
  0
DICTIONARY
  5
18
102
{ACAD_REACTORS
330
B
102
}
330
B
100
AcDbDictionary
281
     1
  3
Layout1
350
1D
  3
Model
350
17
  0
DICTIONARY
  5
D
102
{ACAD_REACTORS
330
B
102
}
330
B
100
AcDbDictionary
281
     1
  3
ByBlock
350
45
  3
ByLayer
350
3D
  3
Global
350
C
  0
DICTIONARY
  5
50
102
{ACAD_REACTORS
330
B
102
}
330
B
100
AcDbDictionary
281
     1
  0
DICTIONARY
  5
3B
102
{ACAD_REACTORS
330
B
102
}
330
B
100
AcDbDictionary
281
     1
  3
STANDARD
350
54
  0
DICTIONARY
  5
3C
102
{ACAD_REACTORS
330
B
102
}
330
B
100
AcDbDictionary
281
     1
  0
ACDBDICTIONARYWDFLT
  5
A
102
{ACAD_REACTORS
330
B
102
}
330
B
100
AcDbDictionary
281
     1
  3
Normal
350
9
100
AcDbDictionaryWithDefault
340
9
  0
DICTIONARY
  5
4E
102
{ACAD_REACTORS
330
B
102
}
330
B
100
AcDbDictionary
281
     1
  3
A0
350
59
  3
A1
350
5A
  3
A2
350
5B
  3
A3
350
5C
  3
A4
350
5D
  3
A5
350
5E
  3
A6
350
5F
  3
A7
350
60
  3
A8
350
61
  3
A9
350
62
  3
B0
350
63
  3
B1
350
64
  3
B2
350
65
  3
B3
350
66
  3
B4
350
67
  3
B5
350
68
  3
B6
350
69
  0
DICTIONARY
  5
4F
102
{ACAD_REACTORS
330
B
102
}
330
B
100
AcDbDictionary
281
     1
  3
Standard
350
55
  0
DICTIONARY
  5
2F
102
{ACAD_REACTORS
330
B
102
}
330
B
100
AcDbDictionary
281
     1
  3
2dWireframe
350
2E
  3
3dWireframe
350
58
  3
Realistic
350
57
  0
XRECORD
  5
7F7
102
{ACAD_REACTORS
330
B
102
}
330
B
100
AcDbXrecord
280
     1
 90
        1
330
55
  0
DICTIONARY
  5
7EC
102
{ACAD_REACTORS
330
B
102
}
330
B
100
AcDbDictionary
281
     1
  3
CANNOSCALE
350
7EF
  3
CMLEADERSTYLE
350
7EE
  3
CTABLESTYLE
350
7ED
  3
DIMASSOC
350
7F4
  3
HIDETEXT
350
7F2
  3
INDEXCTL
350
7F1
  3
SORTENTS
350
7F0
  3
XCLIPFRAME
350
7F3
  0
DICTIONARY
  5
7A4
102
{ACAD_REACTORS
330
B
102
}
330
B
100
AcDbDictionary
281
     1
  3
AcmStdDictionary
350
7A5
  0
DICTIONARY
  5
795
102
{ACAD_REACTORS
330
B
102
}
330
B
100
AcDbDictionary
281
     1
  3
AcMgSettings
350
79F
  0
DICTIONARY
  5
20
102
{ACAD_REACTORS
330
1F
102
}
330
1F
100
AcDbDictionary
281
     1
  0
DICTIONARY
  5
21
102
{ACAD_REACTORS
330
1F
102
}
330
1F
100
AcDbDictionary
281
     1
  0
DICTIONARY
  5
22
102
{ACAD_REACTORS
330
1F
102
}
330
1F
100
AcDbDictionary
281
     1
1001
ACAD
1000
<All
  0
XRECORD
  5
8
102
{ACAD_REACTORS
330
7
102
}
330
7
100
AcDbXrecord
280
     1
290
     1
  0
XRECORD
  5
53
102
{ACAD_REACTORS
330
52
102
}
330
52
100
AcDbXrecord
280
     1
290
     1
  0
XRECORD
  5
A2
102
{ACAD_REACTORS
330
A1
102
}
330
A1
100
AcDbXrecord
280
     1
290
     1
  0
XRECORD
  5
6D
102
{ACAD_REACTORS
330
6C
102
}
330
6C
100
AcDbXrecord
280
     1
290
     1
  0
SORTENTSTABLE
  5
793
102
{ACAD_REACTORS
330
3
102
}
330
3
100
AcDbSortentsTable
330
2
331
B5
  5
774
331
B1
  5
778
331
77F
  5
AA
331
AD
  5
77C
331
EC
  5
44B
331
77B
  5
AE
331
A9
  5
780
331
E8
  5
49D
331
653
  5
D2
331
257
  5
240
331
218
  5
273
331
253
  5
244
331
55C
  5
DF
331
296
  5
10D
331
292
  5
111
331
2CD
  5
FE
331
28E
  5
147
331
28A
  5
16F
331
304
  5
FB
331
E4
  5
4EF
331
777
  5
B2
331
A5
  5
784
331
E0
  5
541
331
773
  5
B6
331
76F
  5
BA
331
DC
  5
593
331
76B
  5
BE
331
D8
  5
5E5
331
49D
  5
E8
331
6E
  5
791
331
6A
  5
792
331
4D4
  5
E5
331
24F
  5
248
331
24B
  5
24C
331
593
  5
DC
331
247
  5
250
331
243
  5
254
331
1C9
  5
27A
331
5CA
  5
D9
331
601
  5
D6
331
286
  5
181
331
282
  5
185
331
27E
  5
1A1
331
27A
  5
1C9
331
D4
  5
637
331
10F
  5
294
331
767
  5
C2
331
D0
  5
689
331
10B
  5
2B2
331
763
  5
C6
331
CC
  5
6DB
331
637
  5
D4
331
C8
  5
72D
331
792
  5
6A
331
66E
  5
D1
331
23F
  5
258
331
186
  5
281
331
23B
  5
25C
331
182
  5
285
331
237
  5
260
331
233
  5
264
331
1F0
  5
277
331
276
  5
1F1
331
272
  5
225
331
2B1
  5
10C
331
2E8
  5
FD
331
26E
  5
229
331
26A
  5
22D
331
C4
  5
765
331
81
  5
78B
331
C0
  5
769
331
FB
  5
304
331
13A
  5
28F
331
78E
  5
7E
331
7D
  5
78F
331
BC
  5
76D
331
78A
  5
82
331
F7
  5
370
331
B8
  5
771
331
786
  5
9F
331
F3
  5
3C2
331
782
  5
A7
331
22F
  5
268
331
355
  5
F8
331
577
  5
DE
331
22B
  5
26C
331
16E
  5
28B
331
38C
  5
F5
331
5AE
  5
DB
331
227
  5
270
331
5E5
  5
D8
331
266
  5
231
331
31F
  5
FA
331
262
  5
235
331
25E
  5
239
331
25A
  5
23D
331
B4
  5
775
331
B0
  5
779
331
EF
  5
414
331
77E
  5
AB
331
AC
  5
77D
331
EB
  5
44C
331
77A
  5
AF
331
161
  5
28C
331
A8
  5
781
331
4EF
  5
E4
331
526
  5
E1
331
689
  5
D0
331
6C0
  5
CD
331
1A1
  5
27E
331
256
  5
241
331
252
  5
245
331
295
  5
10E
331
291
  5
11E
331
28D
  5
154
331
289
  5
170
331
303
  5
FC
331
E7
  5
49E
331
E3
  5
50A
331
11E
  5
291
331
776
  5
B3
331
A4
  5
785
331
DF
  5
55C
331
772
  5
B7
331
76E
  5
BB
331
DB
  5
5AE
331
76A
  5
BF
331
24E
  5
249
331
370
  5
F7
331
20B
  5
274
331
24A
  5
24D
331
246
  5
251
331
242
  5
255
331
5C9
  5
DA
331
285
  5
182
331
33A
  5
F9
331
281
  5
186
331
27D
  5
1AE
331
279
  5
1D6
331
D7
  5
5E6
331
D3
  5
638
331
10E
  5
295
331
766
  5
C3
331
CF
  5
6A4
331
CB
  5
6F6
331
791
  5
6E
331
50A
  5
E3
331
3A7
  5
F4
331
6A4
  5
CF
331
3DE
  5
F1
331
23E
  5
259
331
185
  5
282
331
181
  5
286
331
23A
  5
25D
331
1BC
  5
27B
331
236
  5
261
331
232
  5
265
331
275
  5
1FE
331
271
  5
226
331
26D
  5
22A
331
269
  5
22E
331
C7
  5
748
331
C3
  5
766
331
FE
  5
2CD
331
84
  5
788
331
80
  5
78C
331
BF
  5
76A
331
FA
  5
31F
331
78D
  5
7F
331
BB
  5
76E
331
789
  5
83
331
F6
  5
38B
331
785
  5
A4
331
F2
  5
3DD
331
6DB
  5
CC
331
781
  5
A8
331
22E
  5
269
331
22A
  5
26D
331
38B
  5
F6
331
226
  5
271
331
3C2
  5
F3
331
1E3
  5
278
331
265
  5
232
331
261
  5
236
331
25D
  5
23A
331
259
  5
23E
331
B7
  5
772
331
B3
  5
776
331
12D
  5
290
331
AF
  5
77A
331
EE
  5
42F
331
77D
  5
AC
331
AB
  5
77E
331
EA
  5
467
331
779
  5
B0
331
525
  5
E2
331
3F9
  5
F0
331
255
  5
242
331
251
  5
246
331
430
  5
ED
331
294
  5
10F
331
290
  5
12D
331
28C
  5
161
331
288
  5
17F
331
E6
  5
4B9
331
A7
  5
782
331
E2
  5
525
331
775
  5
B4
331
9F
  5
786
331
DE
  5
577
331
771
  5
B8
331
76D
  5
BC
331
154
  5
28D
331
DA
  5
5C9
331
6BF
  5
CE
331
111
  5
292
331
769
  5
C0
331
6F6
  5
CB
331
24D
  5
24A
331
194
  5
27F
331
249
  5
24E
331
245
  5
252
331
241
  5
256
331
284
  5
183
331
280
  5
193
331
27C
  5
1BB
331
278
  5
1E3
331
D6
  5
601
331
D2
  5
653
331
10D
  5
296
331
765
  5
C4
331
CE
  5
6BF
331
CA
  5
711
331
790
  5
6F
331
44C
  5
EB
331
3DD
  5
F2
331
1FE
  5
275
331
23D
  5
25A
331
184
  5
283
331
180
  5
287
331
239
  5
25E
331
235
  5
262
331
414
  5
EF
331
1BB
  5
27C
331
231
  5
266
331
274
  5
20B
331
270
  5
227
331
26C
  5
22B
331
268
  5
22F
331
C6
  5
763
331
C2
  5
767
331
FD
  5
2E8
331
83
  5
789
331
7F
  5
78D
331
BE
  5
76B
331
712
  5
C9
331
F9
  5
33A
331
78C
  5
80
331
BA
  5
76F
331
788
  5
84
331
F5
  5
38C
331
F1
  5
3DE
331
784
  5
A5
331
780
  5
A9
331
22D
  5
26A
331
170
  5
289
331
229
  5
26E
331
225
  5
272
331
264
  5
233
331
260
  5
237
331
25C
  5
23B
331
258
  5
23F
331
B6
  5
773
331
B2
  5
777
331
AE
  5
77B
331
ED
  5
430
331
77C
  5
AD
331
AA
  5
77F
331
E9
  5
482
331
778
  5
B1
331
254
  5
243
331
250
  5
247
331
293
  5
110
331
28F
  5
13A
331
28B
  5
16E
331
E5
  5
4D4
331
A6
  5
783
331
E1
  5
526
331
774
  5
B5
331
DD
  5
578
331
770
  5
B9
331
76C
  5
BD
331
D9
  5
5CA
331
72D
  5
C8
331
110
  5
293
331
467
  5
EA
331
768
  5
C1
331
49E
  5
E7
331
6F
  5
790
331
1D6
  5
279
331
638
  5
D3
331
42F
  5
EE
331
24C
  5
24B
331
193
  5
280
331
248
  5
24F
331
244
  5
253
331
240
  5
257
331
287
  5
180
331
283
  5
184
331
27F
  5
194
331
27B
  5
1BC
331
D5
  5
61C
331
92
  5
787
331
D1
  5
66E
331
10C
  5
2B1
331
764
  5
C5
331
CD
  5
6C0
331
147
  5
28E
331
C9
  5
712
331
44B
  5
EC
331
23C
  5
25B
331
183
  5
284
331
17F
  5
288
331
238
  5
25F
331
234
  5
263
331
541
  5
E0
331
1F1
  5
276
331
230
  5
267
331
578
  5
DD
331
277
  5
1F0
331
273
  5
218
331
2B2
  5
10B
331
26F
  5
228
331
26B
  5
22C
331
C5
  5
764
331
C1
  5
768
331
FC
  5
303
331
78F
  5
7D
331
82
  5
78A
331
7E
  5
78E
331
BD
  5
76C
331
711
  5
CA
331
F8
  5
355
331
78B
  5
81
331
B9
  5
770
331
787
  5
92
331
F4
  5
3A7
331
F0
  5
3F9
331
748
  5
C7
331
783
  5
A6
331
482
  5
E9
331
4B9
  5
E6
331
61C
  5
D5
331
22C
  5
26B
331
16F
  5
28A
331
1AE
  5
27D
331
228
  5
26F
331
5E6
  5
D7
331
267
  5
230
331
263
  5
234
331
25F
  5
238
331
25B
  5
23C
  0
XRECORD
  5
7F9
102
{ACAD_REACTORS
330
7F8
102
}
330
7F8
100
AcDbXrecord
280
     1
 40
1.570796326794896
  0
XRECORD
  5
7FA
102
{ACAD_REACTORS
330
7F8
102
}
330
7F8
100
AcDbXrecord
280
     1
340
58
  0
LAYOUT
  5
1D
102
{ACAD_XDICTIONARY
360
7FE
102
}
102
{ACAD_REACTORS
330
18
102
}
330
18
100
AcDbPlotSettings
  1

  2
\\mslklsv1\MSLKLP05
  4

  6

 40
0.0
 41
0.0
 42
0.0
 43
0.0
 44
0.0
 45
0.0
 46
0.0
 47
0.0
 48
0.0
 49
0.0
140
0.0
141
0.0
142
1.0
143
1.0
 70
   688
 72
     0
 73
     0
 74
     5
  7
monochrome.ctb
 75
    16
147
1.0
148
0.0
149
0.0
100
AcDbLayout
  1
Layout1
 70
     1
 71
     1
 10
0.0
 20
0.0
 11
12.0
 21
9.0
 12
0.0
 22
0.0
 32
0.0
 14
1.000000000000000E+20
 24
1.000000000000000E+20
 34
1.000000000000000E+20
 15
-1.000000000000000E+20
 25
-1.000000000000000E+20
 35
-1.000000000000000E+20
146
0.0
 13
0.0
 23
0.0
 33
0.0
 16
1.0
 26
0.0
 36
0.0
 17
0.0
 27
1.0
 37
0.0
 76
     0
330
1A
  0
LAYOUT
  5
17
102
{ACAD_XDICTIONARY
360
7FC
102
}
102
{ACAD_REACTORS
330
18
102
}
330
18
100
AcDbPlotSettings
  1

  2
\\mslklsv1\MSLKLP05
  4
A4
  6

 40
6.805083274841308
 41
5.027085304260253
 42
6.805084228515625
 43
5.027069091796875
 44
209.9733276367187
 45
296.9683227539062
 46
0.0
 47
0.0
 48
0.0
 49
0.0
140
0.0
141
0.0
142
1.0
143
5.211535630019419
 70
 11952
 72
     1
 73
     1
 74
     0
  7
monochrome.ctb
 75
     0
147
0.1918820230720122
148
1217.818285113836
149
22.1189732997434
100
AcDbLayout
  1
Model
 70
     1
 71
     0
 10
0.0
 20
0.0
 11
12.0
 21
9.0
 12
0.0
 22
0.0
 32
0.0
 14
0.0
 24
0.0
 34
0.0
 15
0.0
 25
0.0
 35
0.0
146
0.0
 13
0.0
 23
0.0
 33
0.0
 16
1.0
 26
0.0
 36
0.0
 17
0.0
 27
1.0
 37
0.0
 76
     0
330
2
331
2D
1001
ACAD_PSEXT
1000
\\mslklsv1\MSLKLP05
1000
HP LaserJet 5000 Series PCL
1000
CAD
1000
HP LaserJet 5000N
1070
     0
  0
MATERIAL
  5
45
102
{ACAD_XDICTIONARY
360
46
102
}
102
{ACAD_REACTORS
330
D
102
}
330
D
100
AcDbMaterial
  1
ByBlock
 72
     0
 43
0.0208333333333333
 43
0.0
 43
0.0
 43
0.0
 43
0.0
 43
0.0208333333333333
 43
0.0
 43
0.0
 43
0.0
 43
0.0
 43
1.0
 43
0.0
 43
0.0
 43
0.0
 43
0.0
 43
1.0
 77
     0
 47
0.0208333333333333
 47
0.0
 47
0.0
 47
0.0
 47
0.0
 47
0.0208333333333333
 47
0.0
 47
0.0
 47
0.0
 47
0.0
 47
1.0
 47
0.0
 47
0.0
 47
0.0
 47
0.0
 47
1.0
171
     0
 49
0.0208333333333333
 49
0.0
 49
0.0
 49
0.0
 49
0.0
 49
0.0208333333333333
 49
0.0
 49
0.0
 49
0.0
 49
0.0
 49
1.0
 49
0.0
 49
0.0
 49
0.0
 49
0.0
 49
1.0
175
     0
142
0.0208333333333333
142
0.0
142
0.0
142
0.0
142
0.0
142
0.0208333333333333
142
0.0
142
0.0
142
0.0
142
0.0
142
1.0
142
0.0
142
0.0
142
0.0
142
0.0
142
1.0
179
     0
144
0.0208333333333333
144
0.0
144
0.0
144
0.0
144
0.0
144
0.0208333333333333
144
0.0
144
0.0
144
0.0
144
0.0
144
1.0
144
0.0
144
0.0
144
0.0
144
0.0
144
1.0
147
0.0208333333333333
147
0.0
147
0.0
147
0.0
147
0.0
147
0.0208333333333333
147
0.0
147
0.0
147
0.0
147
0.0
147
1.0
147
0.0
147
0.0
147
0.0
147
0.0
147
1.0
  0
MATERIAL
  5
3D
102
{ACAD_XDICTIONARY
360
3E
102
}
102
{ACAD_REACTORS
330
D
102
}
330
D
100
AcDbMaterial
  1
ByLayer
 72
     0
 43
0.0208333333333333
 43
0.0
 43
0.0
 43
0.0
 43
0.0
 43
0.0208333333333333
 43
0.0
 43
0.0
 43
0.0
 43
0.0
 43
1.0
 43
0.0
 43
0.0
 43
0.0
 43
0.0
 43
1.0
 77
     0
 47
0.0208333333333333
 47
0.0
 47
0.0
 47
0.0
 47
0.0
 47
0.0208333333333333
 47
0.0
 47
0.0
 47
0.0
 47
0.0
 47
1.0
 47
0.0
 47
0.0
 47
0.0
 47
0.0
 47
1.0
171
     0
 49
0.0208333333333333
 49
0.0
 49
0.0
 49
0.0
 49
0.0
 49
0.0208333333333333
 49
0.0
 49
0.0
 49
0.0
 49
0.0
 49
1.0
 49
0.0
 49
0.0
 49
0.0
 49
0.0
 49
1.0
175
     0
142
0.0208333333333333
142
0.0
142
0.0
142
0.0
142
0.0
142
0.0208333333333333
142
0.0
142
0.0
142
0.0
142
0.0
142
1.0
142
0.0
142
0.0
142
0.0
142
0.0
142
1.0
179
     0
144
0.0208333333333333
144
0.0
144
0.0
144
0.0
144
0.0
144
0.0208333333333333
144
0.0
144
0.0
144
0.0
144
0.0
144
1.0
144
0.0
144
0.0
144
0.0
144
0.0
144
1.0
147
0.0208333333333333
147
0.0
147
0.0
147
0.0
147
0.0
147
0.0208333333333333
147
0.0
147
0.0
147
0.0
147
0.0
147
1.0
147
0.0
147
0.0
147
0.0
147
0.0
147
1.0
  0
MATERIAL
  5
C
102
{ACAD_XDICTIONARY
360
E
102
}
102
{ACAD_REACTORS
330
D
102
}
330
D
100
AcDbMaterial
  1
Global
 72
     0
 43
0.0208333333333333
 43
0.0
 43
0.0
 43
0.0
 43
0.0
 43
0.0208333333333333
 43
0.0
 43
0.0
 43
0.0
 43
0.0
 43
1.0
 43
0.0
 43
0.0
 43
0.0
 43
0.0
 43
1.0
 77
     0
 47
0.0208333333333333
 47
0.0
 47
0.0
 47
0.0
 47
0.0
 47
0.0208333333333333
 47
0.0
 47
0.0
 47
0.0
 47
0.0
 47
1.0
 47
0.0
 47
0.0
 47
0.0
 47
0.0
 47
1.0
171
     0
 49
0.0208333333333333
 49
0.0
 49
0.0
 49
0.0
 49
0.0
 49
0.0208333333333333
 49
0.0
 49
0.0
 49
0.0
 49
0.0
 49
1.0
 49
0.0
 49
0.0
 49
0.0
 49
0.0
 49
1.0
175
     0
142
0.0208333333333333
142
0.0
142
0.0
142
0.0
142
0.0
142
0.0208333333333333
142
0.0
142
0.0
142
0.0
142
0.0
142
1.0
142
0.0
142
0.0
142
0.0
142
0.0
142
1.0
179
     0
144
0.0208333333333333
144
0.0
144
0.0
144
0.0
144
0.0
144
0.0208333333333333
144
0.0
144
0.0
144
0.0
144
0.0
144
1.0
144
0.0
144
0.0
144
0.0
144
0.0
144
1.0
147
0.0208333333333333
147
0.0
147
0.0
147
0.0
147
0.0
147
0.0208333333333333
147
0.0
147
0.0
147
0.0
147
0.0
147
1.0
147
0.0
147
0.0
147
0.0
147
0.0
147
1.0
  0
MLINESTYLE
  5
54
102
{ACAD_REACTORS
330
3B
102
}
330
3B
100
AcDbMlineStyle
  2
STANDARD
 70
     0
  3

 62
     0
 51
90.0
 52
90.0
 71
     2
 49
0.5
 62
   256
  6
BYLAYER
 49
-0.5
 62
   256
  6
BYLAYER
  0
ACDBPLACEHOLDER
  5
9
102
{ACAD_REACTORS
330
A
102
}
330
A
  0
SCALE
  5
59
102
{ACAD_REACTORS
330
4E
102
}
330
4E
100
AcDbScale
 70
     0
300
1:1
140
1.0
141
1.0
290
     1
  0
SCALE
  5
5A
102
{ACAD_REACTORS
330
4E
102
}
330
4E
100
AcDbScale
 70
     0
300
1:2
140
1.0
141
2.0
290
     0
  0
SCALE
  5
5B
102
{ACAD_REACTORS
330
4E
102
}
330
4E
100
AcDbScale
 70
     0
300
1:4
140
1.0
141
4.0
290
     0
  0
SCALE
  5
5C
102
{ACAD_REACTORS
330
4E
102
}
330
4E
100
AcDbScale
 70
     0
300
1:5
140
1.0
141
5.0
290
     0
  0
SCALE
  5
5D
102
{ACAD_REACTORS
330
4E
102
}
330
4E
100
AcDbScale
 70
     0
300
1:8
140
1.0
141
8.0
290
     0
  0
SCALE
  5
5E
102
{ACAD_REACTORS
330
4E
102
}
330
4E
100
AcDbScale
 70
     0
300
1:10
140
1.0
141
10.0
290
     0
  0
SCALE
  5
5F
102
{ACAD_REACTORS
330
4E
102
}
330
4E
100
AcDbScale
 70
     0
300
1:16
140
1.0
141
16.0
290
     0
  0
SCALE
  5
60
102
{ACAD_REACTORS
330
4E
102
}
330
4E
100
AcDbScale
 70
     0
300
1:20
140
1.0
141
20.0
290
     0
  0
SCALE
  5
61
102
{ACAD_REACTORS
330
4E
102
}
330
4E
100
AcDbScale
 70
     0
300
1:30
140
1.0
141
30.0
290
     0
  0
SCALE
  5
62
102
{ACAD_REACTORS
330
4E
102
}
330
4E
100
AcDbScale
 70
     0
300
1:40
140
1.0
141
40.0
290
     0
  0
SCALE
  5
63
102
{ACAD_REACTORS
330
4E
102
}
330
4E
100
AcDbScale
 70
     0
300
1:50
140
1.0
141
50.0
290
     0
  0
SCALE
  5
64
102
{ACAD_REACTORS
330
4E
102
}
330
4E
100
AcDbScale
 70
     0
300
1:100
140
1.0
141
100.0
290
     0
  0
SCALE
  5
65
102
{ACAD_REACTORS
330
4E
102
}
330
4E
100
AcDbScale
 70
     0
300
2:1
140
2.0
141
1.0
290
     0
  0
SCALE
  5
66
102
{ACAD_REACTORS
330
4E
102
}
330
4E
100
AcDbScale
 70
     0
300
4:1
140
4.0
141
1.0
290
     0
  0
SCALE
  5
67
102
{ACAD_REACTORS
330
4E
102
}
330
4E
100
AcDbScale
 70
     0
300
8:1
140
8.0
141
1.0
290
     0
  0
SCALE
  5
68
102
{ACAD_REACTORS
330
4E
102
}
330
4E
100
AcDbScale
 70
     0
300
10:1
140
10.0
141
1.0
290
     0
  0
SCALE
  5
69
102
{ACAD_REACTORS
330
4E
102
}
330
4E
100
AcDbScale
 70
     0
300
100:1
140
100.0
141
1.0
290
     0
  0
TABLESTYLE
  5
55
102
{ACAD_XDICTIONARY
360
56
102
}
102
{ACAD_REACTORS
330
4F
102
}
330
4F
100
AcDbTableStyle
  3
Standard
 70
     0
 71
     0
 40
1.5
 41
1.5
280
     0
281
     0
  7
STANDARD
140
4.5
170
     2
 62
     0
 63
     7
283
     0
274
    -2
284
     1
 64
     0
275
    -2
285
     1
 65
     0
276
    -2
286
     1
 66
     0
277
    -2
287
     1
 67
     0
278
    -2
288
     1
 68
     0
279
    -2
289
     1
 69
     0
  7
STANDARD
140
6.0
170
     5
 62
     0
 63
     7
283
     0
274
    -2
284
     1
 64
     0
275
    -2
285
     1
 65
     0
276
    -2
286
     1
 66
     0
277
    -2
287
     1
 67
     0
278
    -2
288
     1
 68
     0
279
    -2
289
     1
 69
     0
  7
STANDARD
140
4.5
170
     5
 62
     0
 63
     7
283
     0
274
    -2
284
     1
 64
     0
275
    -2
285
     1
 65
     0
276
    -2
286
     1
 66
     0
277
    -2
287
     1
 67
     0
278
    -2
288
     1
 68
     0
279
    -2
289
     1
 69
     0
  0
VISUALSTYLE
  5
2E
102
{ACAD_XDICTIONARY
360
800
102
}
102
{ACAD_REACTORS
330
2F
102
}
330
2F
100
AcDbVisualStyle
  2
2dWireframe
 70
     4
 71
     0
 72
     2
 73
     0
 90
        0
 40
-0.6
 41
-30.0
 62
     5
 63
     7
 74
     1
 91
        4
 64
     7
 65
   257
 75
     1
175
     1
 42
1.0
 92
        0
 66
   257
 43
1.0
 76
     1
 77
     6
 78
     2
 67
     7
 79
     5
170
     0
171
     0
290
     0
174
     0
 93
        1
 44
0.0
173
     0
291
     0
 45
0.0
1001
ACAD
1000
AcDbSavedByObjectVersion
1070
     0
  0
VISUALSTYLE
  5
58
102
{ACAD_XDICTIONARY
360
807
102
}
102
{ACAD_REACTORS
330
2F
102
}
330
2F
100
AcDbVisualStyle
  2
3dWireframe
 70
     5
 71
     0
 72
     2
 73
     0
 90
        0
 40
-0.6
 41
-30.0
 62
     5
 63
     7
 74
     1
 91
        4
 64
     7
 65
   257
 75
     1
175
     1
 42
1.0
 92
        0
 66
   257
 43
1.0
 76
     1
 77
     6
 78
     2
 67
     7
 79
     5
170
     0
171
     0
290
     0
174
     0
 93
        1
 44
0.0
173
     0
291
     0
 45
0.0
1001
ACAD
1000
AcDbSavedByObjectVersion
1070
     0
  0
VISUALSTYLE
  5
57
102
{ACAD_XDICTIONARY
360
805
102
}
102
{ACAD_REACTORS
330
2F
102
}
330
2F
100
AcDbVisualStyle
  2
Realistic
 70
     8
 71
     2
 72
     2
 73
     0
 90
        0
 40
-0.6
 41
-30.0
 62
     5
 63
     7
 74
     1
 91
        0
 64
     7
 65
   257
 75
     1
175
     1
 42
1.0
 92
        8
 66
     8
 43
1.0
 76
     1
 77
     6
 78
     2
 67
     7
 79
     5
170
     0
171
     0
290
     0
174
     0
 93
       13
 44
0.0
173
     0
291
     0
 45
0.0
1001
ACAD
1000
AcDbSavedByObjectVersion
1070
     0
  0
DICTIONARYVAR
  5
7EF
102
{ACAD_REACTORS
330
7EC
102
}
330
7EC
100
DictionaryVariables
280
     0
  1
1:1
  0
DICTIONARYVAR
  5
7EE
102
{ACAD_REACTORS
330
7EC
102
}
330
7EC
100
DictionaryVariables
280
     0
  1
STANDARD
  0
DICTIONARYVAR
  5
7ED
102
{ACAD_REACTORS
330
7EC
102
}
330
7EC
100
DictionaryVariables
280
     0
  1
STANDARD
  0
DICTIONARYVAR
  5
7F4
102
{ACAD_REACTORS
330
7EC
102
}
330
7EC
100
DictionaryVariables
280
     0
  1
1
  0
DICTIONARYVAR
  5
7F2
102
{ACAD_REACTORS
330
7EC
102
}
330
7EC
100
DictionaryVariables
280
     0
  1
1
  0
DICTIONARYVAR
  5
7F1
102
{ACAD_REACTORS
330
7EC
102
}
330
7EC
100
DictionaryVariables
280
     0
  1
0
  0
DICTIONARYVAR
  5
7F0
102
{ACAD_REACTORS
330
7EC
102
}
330
7EC
100
DictionaryVariables
280
     0
  1
127
  0
DICTIONARYVAR
  5
7F3
102
{ACAD_REACTORS
330
7EC
102
}
330
7EC
100
DictionaryVariables
280
     0
  1
0
  0
DICTIONARY
  5
7A5
102
{ACAD_REACTORS
330
7A4
102
}
330
7A4
100
AcDbDictionary
281
     1
  0
DICTIONARY
  5
79F
102
{ACAD_REACTORS
330
795
102
}
330
795
100
AcDbDictionary
281
     1
  3
DWGSETTINGS
350
79E
  3
TRANSSETTINGS
350
7A0
  0
DICTIONARY
  5
7FE
330
1D
100
AcDbDictionary
280
     1
281
     1
  3
ACAD_XREC_ROUNDTRIP
360
7FF
  0
DICTIONARY
  5
7FC
330
17
100
AcDbDictionary
280
     1
281
     1
  3
ACAD_XREC_ROUNDTRIP
360
7FD
  0
DICTIONARY
  5
46
330
45
100
AcDbDictionary
280
     1
281
     1
  3
ACAD_XREC_ROUNDTRIP
360
803
  3
BUMPTILE
360
47
  3
DIFFUSETILE
360
48
  3
OPACITYTILE
360
49
  3
REFLECTIONTILE
360
4A
  3
REFRACTIONTILE
360
4B
  3
SPECULARTILE
360
4C
  0
DICTIONARY
  5
3E
330
3D
100
AcDbDictionary
280
     1
281
     1
  3
ACAD_XREC_ROUNDTRIP
360
802
  3
BUMPTILE
360
3F
  3
DIFFUSETILE
360
40
  3
OPACITYTILE
360
41
  3
REFLECTIONTILE
360
42
  3
REFRACTIONTILE
360
43
  3
SPECULARTILE
360
44
  0
DICTIONARY
  5
E
330
C
100
AcDbDictionary
280
     1
281
     1
  3
ACAD_XREC_ROUNDTRIP
360
7FB
  3
BUMPTILE
360
F
  3
DIFFUSETILE
360
10
  3
OPACITYTILE
360
11
  3
REFLECTIONTILE
360
12
  3
REFRACTIONTILE
360
13
  3
SPECULARTILE
360
14
  0
DICTIONARY
  5
56
330
55
100
AcDbDictionary
280
     1
281
     1
  3
ACAD_ROUNDTRIP_2008_TABLESTYLE_CELLSTYLEMAP
360
7F5
  3
ACAD_XREC_ROUNDTRIP
360
804
  0
DICTIONARY
  5
800
330
2E
100
AcDbDictionary
280
     1
281
     1
  3
ACAD_XREC_ROUNDTRIP
360
801
  0
DICTIONARY
  5
807
330
58
100
AcDbDictionary
280
     1
281
     1
  3
ACAD_XREC_ROUNDTRIP
360
808
  0
DICTIONARY
  5
805
330
57
100
AcDbDictionary
280
     1
281
     1
  3
ACAD_XREC_ROUNDTRIP
360
806
  0
XRECORD
  5
7FF
102
{ACAD_REACTORS
330
7FE
102
}
330
7FE
100
AcDbXrecord
280
     1
102
SHADEPLOT
 70
     0
102
SHADEPLOTRESLEVEL
 70
     2
102
SHADEPLOTCUSTOMDPI
 70
   300
  0
XRECORD
  5
7FD
102
{ACAD_REACTORS
330
7FC
102
}
330
7FC
100
AcDbXrecord
280
     1
102
SHADEPLOT
 70
     0
102
SHADEPLOTRESLEVEL
 70
     2
102
SHADEPLOTCUSTOMDPI
 70
   300
  0
XRECORD
  5
803
102
{ACAD_REACTORS
330
46
102
}
330
46
100
AcDbXrecord
280
     1
102
MATERIAL
148
0.0
149
0.0
149
0.0
 93
        0
 94
      127
282
     0
 72
     0
 77
     0
171
     0
175
     0
179
     0
273
     0
  0
XRECORD
  5
47
102
{ACAD_REACTORS
330
46
102
}
330
46
100
AcDbXrecord
280
     1
270
     1
271
     1
  0
XRECORD
  5
48
102
{ACAD_REACTORS
330
46
102
}
330
46
100
AcDbXrecord
280
     1
270
     1
271
     1
  0
XRECORD
  5
49
102
{ACAD_REACTORS
330
46
102
}
330
46
100
AcDbXrecord
280
     1
270
     1
271
     1
  0
XRECORD
  5
4A
102
{ACAD_REACTORS
330
46
102
}
330
46
100
AcDbXrecord
280
     1
270
     1
271
     1
  0
XRECORD
  5
4B
102
{ACAD_REACTORS
330
46
102
}
330
46
100
AcDbXrecord
280
     1
270
     1
271
     1
  0
XRECORD
  5
4C
102
{ACAD_REACTORS
330
46
102
}
330
46
100
AcDbXrecord
280
     1
270
     1
271
     1
  0
XRECORD
  5
802
102
{ACAD_REACTORS
330
3E
102
}
330
3E
100
AcDbXrecord
280
     1
102
MATERIAL
148
0.0
149
0.0
149
0.0
 93
        0
 94
      127
282
     0
 72
     0
 77
     0
171
     0
175
     0
179
     0
273
     0
  0
XRECORD
  5
3F
102
{ACAD_REACTORS
330
3E
102
}
330
3E
100
AcDbXrecord
280
     1
270
     1
271
     1
  0
XRECORD
  5
40
102
{ACAD_REACTORS
330
3E
102
}
330
3E
100
AcDbXrecord
280
     1
270
     1
271
     1
  0
XRECORD
  5
41
102
{ACAD_REACTORS
330
3E
102
}
330
3E
100
AcDbXrecord
280
     1
270
     1
271
     1
  0
XRECORD
  5
42
102
{ACAD_REACTORS
330
3E
102
}
330
3E
100
AcDbXrecord
280
     1
270
     1
271
     1
  0
XRECORD
  5
43
102
{ACAD_REACTORS
330
3E
102
}
330
3E
100
AcDbXrecord
280
     1
270
     1
271
     1
  0
XRECORD
  5
44
102
{ACAD_REACTORS
330
3E
102
}
330
3E
100
AcDbXrecord
280
     1
270
     1
271
     1
  0
XRECORD
  5
7FB
102
{ACAD_REACTORS
330
E
102
}
330
E
100
AcDbXrecord
280
     1
102
MATERIAL
148
0.0
149
0.0
149
0.0
 93
        0
 94
      127
282
     0
 72
     0
 77
     0
171
     0
175
     0
179
     0
273
     0
  0
XRECORD
  5
F
102
{ACAD_REACTORS
330
E
102
}
330
E
100
AcDbXrecord
280
     1
270
     1
271
     1
  0
XRECORD
  5
10
102
{ACAD_REACTORS
330
E
102
}
330
E
100
AcDbXrecord
280
     1
270
     1
271
     1
  0
XRECORD
  5
11
102
{ACAD_REACTORS
330
E
102
}
330
E
100
AcDbXrecord
280
     1
270
     1
271
     1
  0
XRECORD
  5
12
102
{ACAD_REACTORS
330
E
102
}
330
E
100
AcDbXrecord
280
     1
270
     1
271
     1
  0
XRECORD
  5
13
102
{ACAD_REACTORS
330
E
102
}
330
E
100
AcDbXrecord
280
     1
270
     1
271
     1
  0
XRECORD
  5
14
102
{ACAD_REACTORS
330
E
102
}
330
E
100
AcDbXrecord
280
     1
270
     1
271
     1
  0
CELLSTYLEMAP
  5
7F5
102
{ACAD_REACTORS
330
56
102
}
330
56
100
AcDbCellStyleMap
 90
        3
300
CELLSTYLE
  1
TABLEFORMAT_BEGIN
 90
        5
170
     1
 91
        0
 92
    32768
 62
   257
 93
        1
300
CONTENTFORMAT
  1
CONTENTFORMAT_BEGIN
 90
        0
 91
        0
 92
        4
 93
        0
300

 40
0.0
140
1.0
 94
        5
 62
     0
340
25
144
6.0
309
CONTENTFORMAT_END
171
     1
301
MARGIN
  1
CELLMARGIN_BEGIN
 40
1.5
 40
1.5
 40
1.5
 40
1.5
 40
0.18
 40
0.18
309
CELLMARGIN_END
 94
        6
 95
        1
302
GRIDFORMAT
  1
GRIDFORMAT_BEGIN
 90
        0
 91
        1
 62
     0
 92
       -2
340
0
 93
        0
 40
0.045
309
GRIDFORMAT_END
 95
        2
302
GRIDFORMAT
  1
GRIDFORMAT_BEGIN
 90
        0
 91
        1
 62
     0
 92
       -2
340
0
 93
        0
 40
0.045
309
GRIDFORMAT_END
 95
        4
302
GRIDFORMAT
  1
GRIDFORMAT_BEGIN
 90
        0
 91
        1
 62
     0
 92
       -2
340
0
 93
        0
 40
0.045
309
GRIDFORMAT_END
 95
        8
302
GRIDFORMAT
  1
GRIDFORMAT_BEGIN
 90
        0
 91
        1
 62
     0
 92
       -2
340
0
 93
        0
 40
0.045
309
GRIDFORMAT_END
 95
       16
302
GRIDFORMAT
  1
GRIDFORMAT_BEGIN
 90
        0
 91
        1
 62
     0
 92
       -2
340
0
 93
        0
 40
0.045
309
GRIDFORMAT_END
 95
       32
302
GRIDFORMAT
  1
GRIDFORMAT_BEGIN
 90
        0
 91
        1
 62
     0
 92
       -2
340
0
 93
        0
 40
0.045
309
GRIDFORMAT_END
309
TABLEFORMAT_END
  1
CELLSTYLE_BEGIN
 90
        1
 91
        1
300
_TITLE
309
CELLSTYLE_END
300
CELLSTYLE
  1
TABLEFORMAT_BEGIN
 90
        5
170
     1
 91
        0
 92
        0
 62
   257
 93
        1
300
CONTENTFORMAT
  1
CONTENTFORMAT_BEGIN
 90
        0
 91
        0
 92
        4
 93
        0
300

 40
0.0
140
1.0
 94
        5
 62
     0
340
25
144
4.5
309
CONTENTFORMAT_END
171
     1
301
MARGIN
  1
CELLMARGIN_BEGIN
 40
1.5
 40
1.5
 40
1.5
 40
1.5
 40
0.18
 40
0.18
309
CELLMARGIN_END
 94
        6
 95
        1
302
GRIDFORMAT
  1
GRIDFORMAT_BEGIN
 90
        0
 91
        1
 62
     0
 92
       -2
340
0
 93
        0
 40
0.045
309
GRIDFORMAT_END
 95
        2
302
GRIDFORMAT
  1
GRIDFORMAT_BEGIN
 90
        0
 91
        1
 62
     0
 92
       -2
340
0
 93
        0
 40
0.045
309
GRIDFORMAT_END
 95
        4
302
GRIDFORMAT
  1
GRIDFORMAT_BEGIN
 90
        0
 91
        1
 62
     0
 92
       -2
340
0
 93
        0
 40
0.045
309
GRIDFORMAT_END
 95
        8
302
GRIDFORMAT
  1
GRIDFORMAT_BEGIN
 90
        0
 91
        1
 62
     0
 92
       -2
340
0
 93
        0
 40
0.045
309
GRIDFORMAT_END
 95
       16
302
GRIDFORMAT
  1
GRIDFORMAT_BEGIN
 90
        0
 91
        1
 62
     0
 92
       -2
340
0
 93
        0
 40
0.045
309
GRIDFORMAT_END
 95
       32
302
GRIDFORMAT
  1
GRIDFORMAT_BEGIN
 90
        0
 91
        1
 62
     0
 92
       -2
340
0
 93
        0
 40
0.045
309
GRIDFORMAT_END
309
TABLEFORMAT_END
  1
CELLSTYLE_BEGIN
 90
        2
 91
        1
300
_HEADER
309
CELLSTYLE_END
300
CELLSTYLE
  1
TABLEFORMAT_BEGIN
 90
        5
170
     1
 91
        0
 92
        0
 62
   257
 93
        1
300
CONTENTFORMAT
  1
CONTENTFORMAT_BEGIN
 90
        0
 91
        0
 92
        4
 93
        0
300

 40
0.0
140
1.0
 94
        2
 62
     0
340
25
144
4.5
309
CONTENTFORMAT_END
171
     1
301
MARGIN
  1
CELLMARGIN_BEGIN
 40
1.5
 40
1.5
 40
1.5
 40
1.5
 40
0.18
 40
0.18
309
CELLMARGIN_END
 94
        6
 95
        1
302
GRIDFORMAT
  1
GRIDFORMAT_BEGIN
 90
        0
 91
        1
 62
     0
 92
       -2
340
0
 93
        0
 40
0.045
309
GRIDFORMAT_END
 95
        2
302
GRIDFORMAT
  1
GRIDFORMAT_BEGIN
 90
        0
 91
        1
 62
     0
 92
       -2
340
0
 93
        0
 40
0.045
309
GRIDFORMAT_END
 95
        4
302
GRIDFORMAT
  1
GRIDFORMAT_BEGIN
 90
        0
 91
        1
 62
     0
 92
       -2
340
0
 93
        0
 40
0.045
309
GRIDFORMAT_END
 95
        8
302
GRIDFORMAT
  1
GRIDFORMAT_BEGIN
 90
        0
 91
        1
 62
     0
 92
       -2
340
0
 93
        0
 40
0.045
309
GRIDFORMAT_END
 95
       16
302
GRIDFORMAT
  1
GRIDFORMAT_BEGIN
 90
        0
 91
        1
 62
     0
 92
       -2
340
0
 93
        0
 40
0.045
309
GRIDFORMAT_END
 95
       32
302
GRIDFORMAT
  1
GRIDFORMAT_BEGIN
 90
        0
 91
        1
 62
     0
 92
       -2
340
0
 93
        0
 40
0.045
309
GRIDFORMAT_END
309
TABLEFORMAT_END
  1
CELLSTYLE_BEGIN
 90
        3
 91
        2
300
_DATA
309
CELLSTYLE_END
  0
XRECORD
  5
804
102
{ACAD_REACTORS
330
56
102
}
330
56
100
AcDbXrecord
280
     1
102
ACAD_ROUNDTRIP_PRE2007_TABLESTYLE
 90
        4
 91
        0
  1

 92
        4
 93
        0
  2

 94
        4
 95
        0
  3

  0
XRECORD
  5
801
102
{ACAD_REACTORS
330
800
102
}
330
800
100
AcDbXrecord
280
     1
102
RTVSPropertyOp0
 70
     1
102
RTVSPropertyOp1
 70
     1
102
RTVSPropertyOp2
 70
     1
102
RTVSPropertyOp3
 70
     1
102
RTVSPropertyOp4
 70
     1
102
RTVSPropertyOp5
 70
     1
102
RTVSPropertyOp6
 70
     1
102
RTVSPropertyOp7
 70
     1
102
RTVSPropertyOp8
 70
     1
102
RTVSPropertyOp9
 70
     1
102
RTVSPropertyOp10
 70
     1
102
RTVSPropertyOp11
 70
     1
102
RTVSPropertyOp12
 70
     1
102
RTVSPropertyOp13
 70
     1
102
RTVSPropertyOp14
 70
     1
102
RTVSPropertyOp15
 70
     1
102
RTVSPropertyOp16
 70
     1
102
RTVSPropertyOp17
 70
     1
102
RTVSPropertyOp18
 70
     1
102
RTVSPropertyOp19
 70
     1
102
RTVSPropertyOp20
 70
     1
102
RTVSPropertyOp21
 70
     1
102
RTVSPropertyOp22
 70
     1
102
RTVSPropertyOp23
 70
     1
102
RTVSPropertyOp24
 70
     1
102
RTVSPropertyOp25
 70
     1
102
RTVSPropertyOp26
 70
     1
102
RTVSPropertyOp27
 70
     1
102
RTVSPropertyOp28
 70
     1
102
RTVSPropertyOp29
 70
     1
102
RTVSPropertyOp30
 70
     1
102
RTVSPropertyOp31
 70
     1
102
RTVSPropertyOp32
 70
     1
  0
XRECORD
  5
808
102
{ACAD_REACTORS
330
807
102
}
330
807
100
AcDbXrecord
280
     1
102
RTVSPropertyOp0
 70
     1
102
RTVSPropertyOp1
 70
     1
102
RTVSPropertyOp2
 70
     1
102
RTVSPropertyOp3
 70
     1
102
RTVSPropertyOp4
 70
     1
102
RTVSPropertyOp5
 70
     1
102
RTVSPropertyOp6
 70
     1
102
RTVSPropertyOp7
 70
     1
102
RTVSPropertyOp8
 70
     1
102
RTVSPropertyOp9
 70
     1
102
RTVSPropertyOp10
 70
     1
102
RTVSPropertyOp11
 70
     1
102
RTVSPropertyOp12
 70
     1
102
RTVSPropertyOp13
 70
     1
102
RTVSPropertyOp14
 70
     1
102
RTVSPropertyOp15
 70
     1
102
RTVSPropertyOp16
 70
     1
102
RTVSPropertyOp17
 70
     1
102
RTVSPropertyOp18
 70
     1
102
RTVSPropertyOp19
 70
     1
102
RTVSPropertyOp20
 70
     1
102
RTVSPropertyOp21
 70
     1
102
RTVSPropertyOp22
 70
     1
102
RTVSPropertyOp23
 70
     1
102
RTVSPropertyOp24
 70
     1
102
RTVSPropertyOp25
 70
     1
102
RTVSPropertyOp26
 70
     1
102
RTVSPropertyOp27
 70
     1
102
RTVSPropertyOp28
 70
     1
102
RTVSPropertyOp29
 70
     1
102
RTVSPropertyOp30
 70
     1
102
RTVSPropertyOp31
 70
     1
102
RTVSPropertyOp32
 70
     1
  0
XRECORD
  5
806
102
{ACAD_REACTORS
330
805
102
}
330
805
100
AcDbXrecord
280
     1
102
RTVSPropertyOp0
 70
     1
102
RTVSPropertyOp1
 70
     1
102
RTVSPropertyOp2
 70
     1
102
RTVSPropertyOp3
 70
     1
102
RTVSPropertyOp4
 70
     1
102
RTVSPropertyOp5
 70
     1
102
RTVSPropertyOp6
 70
     1
102
RTVSPropertyOp7
 70
     1
102
RTVSPropertyOp8
 70
     1
102
RTVSPropertyOp9
 70
     1
102
RTVSPropertyOp10
 70
     1
102
RTVSPropertyOp11
 70
     1
102
RTVSPropertyOp12
 70
     1
102
RTVSPropertyOp13
 70
     1
102
RTVSPropertyOp14
 70
     1
102
RTVSPropertyOp15
 70
     1
102
RTVSPropertyOp16
 70
     1
102
RTVSPropertyOp17
 70
     1
102
RTVSPropertyOp18
 70
     1
102
RTVSPropertyOp19
 70
     1
102
RTVSPropertyOp20
 70
     1
102
RTVSPropertyOp21
 70
     1
102
RTVSPropertyOp22
 70
     1
102
RTVSPropertyOp23
 70
     1
102
RTVSPropertyOp24
 70
     1
102
RTVSPropertyOp25
 70
     1
102
RTVSPropertyOp26
 70
     1
102
RTVSPropertyOp27
 70
     1
102
RTVSPropertyOp28
 70
     1
102
RTVSPropertyOp29
 70
     1
102
RTVSPropertyOp30
 70
     1
102
RTVSPropertyOp31
 70
     1
102
RTVSPropertyOp32
 70
     1
  0
ENDSEC
  0
EOF
