  0
SECTION
  2
HEADER
  9
$ACADVER
  1
AC1024
  9
$ACADMAINTVER
 70
   157
  9
$DWGCODEPAGE
  3
ANSI_1252
  9
$INSBASE
 10
0.0
 20
0.0
 30
0.0
  9
$EXTMIN
 10
-213.9671862790431
 20
3.683266408715758
 30
0.0
  9
$EXTMAX
 10
379.222772601253
 20
536.9071875531227
 30
0.0
  9
$LIMMIN
 10
0.0
 20
0.0
  9
$LIMMAX
 10
600.0
 20
700.0
  9
$ORTHOMODE
 70
     1
  9
$REGENMODE
 70
     1
  9
$FILLMODE
 70
     1
  9
$QTEXTMODE
 70
     0
  9
$MIRRTEXT
 70
     1
  9
$LTSCALE
 40
1.0
  9
$ATTMODE
 70
     1
  9
$TEXTSIZE
 40
10.0
  9
$TRACEWID
 40
0.05
  9
$TEXTSTYLE
  7
ARIAL-STANDARD
  9
$CLAYER
  8
ACHSEN
  9
$CELTYPE
  6
BYLAYER
  9
$CECOLOR
 62
   256
  9
$CELTSCALE
 40
1.0
  9
$DISPSILH
 70
     0
  9
$DIMSCALE
 40
1.0
  9
$DIMASZ
 40
4.0
  9
$DIMEXO
 40
0.0
  9
$DIMDLI
 40
8.0
  9
$DIMRND
 40
0.0
  9
$DIMDLE
 40
0.0
  9
$DIMEXE
 40
1.0
  9
$DIMTP
 40
0.0
  9
$DIMTM
 40
0.0
  9
$DIMTXT
 40
4.349999999999999
  9
$DIMCEN
 40
1.5
  9
$DIMTSZ
 40
0.0
  9
$DIMTOL
 70
     0
  9
$DIMLIM
 70
     0
  9
$DIMTIH
 70
     0
  9
$DIMTOH
 70
     0
  9
$DIMSE1
 70
     0
  9
$DIMSE2
 70
     0
  9
$DIMTAD
 70
     1
  9
$DIMZIN
 70
     8
  9
$DIMBLK
  1

  9
$DIMASO
 70
     1
  9
$DIMSHO
 70
     1
  9
$DIMPOST
  1

  9
$DIMAPOST
  1

  9
$DIMALT
 70
     0
  9
$DIMALTD
 70
     2
  9
$DIMALTF
 40
25.39999999999999
  9
$DIMLFAC
 40
1.0
  9
$DIMTOFL
 70
     1
  9
$DIMTVP
 40
0.0
  9
$DIMTIX
 70
     1
  9
$DIMSOXD
 70
     0
  9
$DIMSAH
 70
     0
  9
$DIMBLK1
  1

  9
$DIMBLK2
  1

  9
$DIMSTYLE
  2
Katalog 09
  9
$DIMCLRD
 70
     2
  9
$DIMCLRE
 70
     2
  9
$DIMCLRT
 70
     3
  9
$DIMTFAC
 40
0.4285714285714286
  9
$DIMGAP
 40
1.0
  9
$DIMJUST
 70
     0
  9
$DIMSD1
 70
     0
  9
$DIMSD2
 70
     0
  9
$DIMTOLJ
 70
     1
  9
$DIMTZIN
 70
     8
  9
$DIMALTZ
 70
     8
  9
$DIMALTTZ
 70
     8
  9
$DIMUPT
 70
     0
  9
$DIMDEC
 70
     2
  9
$DIMTDEC
 70
     2
  9
$DIMALTU
 70
     2
  9
$DIMALTTD
 70
     2
  9
$DIMTXSTY
  7
ARIAL-STANDARD
  9
$DIMAUNIT
 70
     0
  9
$DIMADEC
 70
     0
  9
$DIMALTRND
 40
0.0
  9
$DIMAZIN
 70
     0
  9
$DIMDSEP
 70
    46
  9
$DIMATFIT
 70
     3
  9
$DIMFRAC
 70
     0
  9
$DIMLDRBLK
  1

  9
$DIMLUNIT
 70
     2
  9
$DIMLWD
 70
    -2
  9
$DIMLWE
 70
    -2
  9
$DIMTMOVE
 70
     2
  9
$DIMFXL
 40
1.0
  9
$DIMFXLON
 70
     0
  9
$DIMJOGANG
 40
0.7853981633974483
  9
$DIMTFILL
 70
     0
  9
$DIMTFILLCLR
 70
     0
  9
$DIMARCSYM
 70
     0
  9
$DIMLTYPE
  6

  9
$DIMLTEX1
  6

  9
$DIMLTEX2
  6

  9
$DIMTXTDIRECTION
 70
     0
  9
$LUNITS
 70
     2
  9
$LUPREC
 70
     4
  9
$SKETCHINC
 40
0.1
  9
$FILLETRAD
 40
0.0
  9
$AUNITS
 70
     0
  9
$AUPREC
 70
     0
  9
$MENU
  1
.
  9
$ELEVATION
 40
0.0
  9
$PELEVATION
 40
0.0
  9
$THICKNESS
 40
0.0
  9
$LIMCHECK
 70
     0
  9
$CHAMFERA
 40
0.5
  9
$CHAMFERB
 40
0.5
  9
$CHAMFERC
 40
1.0
  9
$CHAMFERD
 40
0.0
  9
$SKPOLY
 70
     0
  9
$TDCREATE
 40
2451247.394468669
  9
$TDUCREATE
 40
2451247.311135336
  9
$TDUPDATE
 40
2454900.393358982
  9
$TDUUPDATE
 40
2454900.310025648
  9
$TDINDWG
 40
0.3522416667
  9
$TDUSRTIMER
 40
0.3522416667
  9
$USRTIMER
 70
     1
  9
$ANGBASE
 50
0.0
  9
$ANGDIR
 70
     0
  9
$PDMODE
 70
     0
  9
$PDSIZE
 40
0.0
  9
$PLINEWID
 40
0.0
  9
$SPLFRAME
 70
     0
  9
$SPLINETYPE
 70
     6
  9
$SPLINESEGS
 70
     8
  9
$HANDSEED
  5
7E9
  9
$SURFTAB1
 70
     6
  9
$SURFTAB2
 70
     6
  9
$SURFTYPE
 70
     6
  9
$SURFU
 70
     6
  9
$SURFV
 70
     6
  9
$UCSBASE
  2

  9
$UCSNAME
  2

  9
$UCSORG
 10
0.0
 20
0.0
 30
0.0
  9
$UCSXDIR
 10
1.0
 20
0.0
 30
0.0
  9
$UCSYDIR
 10
0.0
 20
1.0
 30
0.0
  9
$UCSORTHOREF
  2

  9
$UCSORTHOVIEW
 70
     0
  9
$UCSORGTOP
 10
0.0
 20
0.0
 30
0.0
  9
$UCSORGBOTTOM
 10
0.0
 20
0.0
 30
0.0
  9
$UCSORGLEFT
 10
0.0
 20
0.0
 30
0.0
  9
$UCSORGRIGHT
 10
0.0
 20
0.0
 30
0.0
  9
$UCSORGFRONT
 10
0.0
 20
0.0
 30
0.0
  9
$UCSORGBACK
 10
0.0
 20
0.0
 30
0.0
  9
$PUCSBASE
  2

  9
$PUCSNAME
  2

  9
$PUCSORG
 10
0.0
 20
0.0
 30
0.0
  9
$PUCSXDIR
 10
1.0
 20
0.0
 30
0.0
  9
$PUCSYDIR
 10
0.0
 20
1.0
 30
0.0
  9
$PUCSORTHOREF
  2

  9
$PUCSORTHOVIEW
 70
     0
  9
$PUCSORGTOP
 10
0.0
 20
0.0
 30
0.0
  9
$PUCSORGBOTTOM
 10
0.0
 20
0.0
 30
0.0
  9
$PUCSORGLEFT
 10
0.0
 20
0.0
 30
0.0
  9
$PUCSORGRIGHT
 10
0.0
 20
0.0
 30
0.0
  9
$PUCSORGFRONT
 10
0.0
 20
0.0
 30
0.0
  9
$PUCSORGBACK
 10
0.0
 20
0.0
 30
0.0
  9
$USERI1
 70
     0
  9
$USERI2
 70
     0
  9
$USERI3
 70
     0
  9
$USERI4
 70
     0
  9
$USERI5
 70
     0
  9
$USERR1
 40
0.0
  9
$USERR2
 40
0.0
  9
$USERR3
 40
0.0
  9
$USERR4
 40
0.0
  9
$USERR5
 40
0.0
  9
$WORLDVIEW
 70
     1
  9
$SHADEDGE
 70
     3
  9
$SHADEDIF
 70
    70
  9
$TILEMODE
 70
     1
  9
$MAXACTVP
 70
    48
  9
$PINSBASE
 10
0.0
 20
0.0
 30
0.0
  9
$PLIMCHECK
 70
     0
  9
$PEXTMIN
 10
1.000000000000000E+20
 20
1.000000000000000E+20
 30
1.000000000000000E+20
  9
$PEXTMAX
 10
-1.000000000000000E+20
 20
-1.000000000000000E+20
 30
-1.000000000000000E+20
  9
$PLIMMIN
 10
0.0
 20
0.0
  9
$PLIMMAX
 10
12.0
 20
9.0
  9
$UNITMODE
 70
     0
  9
$VISRETAIN
 70
     1
  9
$PLINEGEN
 70
     0
  9
$PSLTSCALE
 70
     1
  9
$TREEDEPTH
 70
  3020
  9
$CMLSTYLE
  2
STANDARD
  9
$CMLJUST
 70
     0
  9
$CMLSCALE
 40
1.0
  9
$PROXYGRAPHICS
 70
     1
  9
$MEASUREMENT
 70
     1
  9
$CELWEIGHT
370
    -1
  9
$ENDCAPS
280
     0
  9
$JOINSTYLE
280
     0
  9
$LWDISPLAY
290
     0
  9
$INSUNITS
 70
     0
  9
$HYPERLINKBASE
  1

  9
$STYLESHEET
  1

  9
$XEDIT
290
     1
  9
$CEPSNTYPE
380
     0
  9
$PSTYLEMODE
290
     1
  9
$FINGERPRINTGUID
  2
{E7356E19-F919-4C0D-89D5-9860F0E89AC1}
  9
$VERSIONGUID
  2
{6F8C7A71-B17D-4A16-93FE-F91D46FAE162}
  9
$EXTNAMES
290
     1
  9
$PSVPSCALE
 40
0.0
  9
$OLESTARTUP
290
     0
  9
$SORTENTS
280
   127
  9
$INDEXCTL
280
     0
  9
$HIDETEXT
280
     1
  9
$XCLIPFRAME
280
     0
  9
$HALOGAP
280
     0
  9
$OBSCOLOR
 70
   257
  9
$OBSLTYPE
280
     0
  9
$INTERSECTIONDISPLAY
280
     0
  9
$INTERSECTIONCOLOR
 70
   257
  9
$DIMASSOC
280
     1
  9
$PROJECTNAME
  1

  9
$CAMERADISPLAY
290
     0
  9
$LENSLENGTH
 40
50.0
  9
$CAMERAHEIGHT
 40
0.0
  9
$STEPSPERSEC
 40
2.0
  9
$STEPSIZE
 40
6.0
  9
$3DDWFPREC
 40
2.0
  9
$PSOLWIDTH
 40
0.25
  9
$PSOLHEIGHT
 40
4.0
  9
$LOFTANG1
 40
1.570796326794896
  9
$LOFTANG2
 40
1.570796326794896
  9
$LOFTMAG1
 40
0.0
  9
$LOFTMAG2
 40
0.0
  9
$LOFTPARAM
 70
     7
  9
$LOFTNORMALS
280
     1
  9
$LATITUDE
 40
37.795
  9
$LONGITUDE
 40
-122.394
  9
$NORTHDIRECTION
 40
0.0
  9
$TIMEZONE
 70
 -8000
  9
$LIGHTGLYPHDISPLAY
280
     1
  9
$TILEMODELIGHTSYNCH
280
     1
  9
$CMATERIAL
347
41
  9
$SOLIDHIST
280
     1
  9
$SHOWHIST
280
     1
  9
$DWFFRAME
280
     2
  9
$DGNFRAME
280
     0
  9
$REALWORLDSCALE
290
     1
  9
$INTERFERECOLOR
 62
     1
  9
$INTERFEREOBJVS
345
5C
  9
$INTERFEREVPVS
346
5D
  9
$CSHADOW
280
     0
  9
$SHADOWPLANELOCATION
 40
0.0
  0
ENDSEC
  0
SECTION
  2
CLASSES
  0
CLASS
  1
ACDBDICTIONARYWDFLT
  2
AcDbDictionaryWithDefault
  3
ObjectDBX Classes
 90
        0
 91
        1
280
     0
281
     0
  0
CLASS
  1
TABLESTYLE
  2
AcDbTableStyle
  3
ObjectDBX Classes
 90
     4095
 91
        1
280
     0
281
     0
  0
CLASS
  1
ACME_DOCUMENT
  2
AcMeDbDoc
  3
AcMeServices
 90
     1024
 91
        0
280
     0
281
     0
  0
CLASS
  1
AMGSETTINGSOBJ
  2
AmgSettingsObj
  3
"AcadM|Product Description: AutoCAD Mechanical|Company: Autodesk, Inc."
 90
     1024
 91
        2
280
     0
281
     0
  0
CLASS
  1
ACMESCOPE
  2
AcMeScope
  3
AcMeServices
 90
     1024
 91
        1
280
     0
281
     0
  0
CLASS
  1
ACMECOMMANDHISTORY
  2
AcMeCommandHistory
  3
AcMeServices
 90
     1024
 91
        0
280
     0
281
     0
  0
CLASS
  1
ACIMSYSVARMAN
  2
AcImSysVarManager
  3
AcMeServices
 90
     1024
 91
        2
280
     0
281
     0
  0
CLASS
  1
ACIMINTSYSVAR
  2
AcImIntSysVar
  3
AcMeServices
 90
     1024
 91
       25
280
     0
281
     0
  0
CLASS
  1
ACMEDRAWINGMAN
  2
AcMeDrawingMan
  3
AcMeServices
 90
     1024
 91
        0
280
     0
281
     0
  0
CLASS
  1
ACMEVIEW
  2
AcMeView
  3
AcMeServices
 90
     1024
 91
        0
280
     0
281
     0
  0
CLASS
  1
ACDBENTITYCACHE
  2
AcMeEntityCache
  3
AcMeServices
 90
     1024
 91
        0
280
     0
281
     0
  0
CLASS
  1
GSMANAGER
  2
AcMeGSManager
  3
AcMeServices
 90
     1024
 91
        0
280
     1
281
     0
  0
CLASS
  1
AMDTINTERNALREACTOR
  2
AmdtInternalReactor
  3
AcMeServices
 90
     1024
 91
        1
280
     0
281
     0
  0
CLASS
  1
ACMESTATEMGR
  2
AcMeStateMgr
  3
AcMeServices
 90
     1024
 91
        1
280
     0
281
     0
  0
CLASS
  1
ACGREFMASTER
  2
AcGrefMaster
  3
AcAttribServices
 90
     1024
 91
        1
280
     0
281
     0
  0
CLASS
  1
AM_DRAWING_MGR
  2
AcDmDwgMgr
  3
AcMechDwgViewMgmt
 90
     1024
 91
        1
280
     0
281
     0
  0
CLASS
  1
AM_DWG_DOCUMENT
  2
AcDmDwgDocument
  3
AcMechDwgViewMgmt
 90
     1024
 91
        1
280
     0
281
     0
  0
CLASS
  1
AM_DWG_SHEET
  2
AcDmSheet
  3
AcMechDwgViewMgmt
 90
     1024
 91
        1
280
     0
281
     0
  0
CLASS
  1
AM_VIEWDIMPARMAP
  2
AcDmViewDimParMap
  3
AcMechDwgViewMgmt
 90
     1024
 91
        1
280
     0
281
     0
  0
CLASS
  1
ACIMREALSYSVAR
  2
AcImRealSysVar
  3
AcMeServices
 90
     1024
 91
        1
280
     0
281
     0
  0
CLASS
  1
AM_DWGMGR_NAME
  2
AcDmDwgMgrName
  3
AcMechDwgViewMgmt
 90
     1024
 91
        1
280
     0
281
     0
  0
CLASS
  1
ACME_DATABASE
  2
AcMeDbDatabase
  3
AcMeServices
 90
     1024
 91
        0
280
     0
281
     0
  0
CLASS
  1
ACRFINSADJUSTERMGR
  2
AcRfInsAdjusterMgr
  3
AcMeServices
 90
     1024
 91
        0
280
     0
281
     0
  0
CLASS
  1
ACGREFACADMASTER
  2
AcGrefacadMaster
  3
AcGrefServices
 90
     1024
 91
        0
280
     0
281
     0
  0
CLASS
  1
AMDTMENUSTATEMGR
  2
AmdtMenuStateMgr
  3
McadcomServices
 90
     1024
 91
        0
280
     0
281
     0
  0
CLASS
  1
AMDTMCOMMENUSTATE
  2
AmdtMcomMenuState
  3
McadcomServices
 90
     1024
 91
        0
280
     0
281
     0
  0
CLASS
  1
AMIMASTER
  2
AmiMaster
  3
AmiServices
 90
     1024
 91
        0
280
     0
281
     0
  0
CLASS
  1
MAPIAMMOUDLE
  2
MApiAmModule
  3
MApiAmServices
 90
     1024
 91
        0
280
     0
281
     0
  0
CLASS
  1
ACIMSTRSYSVAR
  2
AcImStrSysVar
  3
AcMeServices
 90
     1024
 91
        1
280
     0
281
     0
  0
CLASS
  1
AMDTADMENUSTATE
  2
AmdtAdMenuState
  3
DesignerServices
 90
     1024
 91
        0
280
     1
281
     0
  0
CLASS
  1
ADAPPL
  2
AcAdAppl
  3
DesignerAssemblies
 90
     1024
 91
        0
280
     0
281
     0
  0
CLASS
  1
DEPMGR
  2
AcAdDepMgr
  3
DesignerAssemblies
 90
     1024
 91
        0
280
     0
281
     0
  0
CLASS
  1
PARAMMGR
  2
AcAdParamMgr
  3
DesignerAssemblies
 90
     1024
 91
        0
280
     0
281
     0
  0
CLASS
  1
PARAMSCOPE
  2
AcAdParamScope
  3
DesignerAssemblies
 90
     1024
 91
        0
280
     0
281
     0
  0
CLASS
  1
NAMEDAPPL
  2
AcAdNamedAppl
  3
DesignerAssemblies
 90
     1024
 91
        0
280
     0
281
     0
  0
CLASS
  1
AMDTDMMENUSTATE
  2
AmdtDmMenuState
  3
AcMechDwgViewMgmt
 90
     1024
 91
        0
280
     1
281
     0
  0
CLASS
  1
AMDTAMMENUSTATE
  2
AmdtAmMenuState
  3
DesignerAssemblies
 90
     1024
 91
        0
280
     0
281
     0
  0
CLASS
  1
ACAMPROJECT
  2
AcAmProject
  3
DesignerAssemblies
 90
     1024
 91
        0
280
     0
281
     0
  0
CLASS
  1
ACAMGRCOMPDEF
  2
AcAmGrCompDef
  3
DesignerAssemblies
 90
     1024
 91
        0
280
     0
281
     0
  0
CLASS
  1
ACCMCONTEXT
  2
AcCmContext
  3
DesignerAssemblies
 90
     1024
 91
        0
280
     0
281
     0
  0
CLASS
  1
ACAMCOMPDEF
  2
AcAmCompDef
  3
DesignerAssemblies
 90
     1024
 91
        0
280
     0
281
     0
  0
CLASS
  1
ACAMCOMPDEFMGR
  2
AcAmCompDefMgr
  3
DesignerAssemblies
 90
     1024
 91
        0
280
     0
281
     0
  0
CLASS
  1
AMCONTEXTMGR
  2
AcAmContextMgr
  3
DesignerAssemblies
 90
     1024
 91
        0
280
     0
281
     0
  0
CLASS
  1
ACAMCONTEXTMODELER
  2
AcAmContextModeler
  3
DesignerAssemblies
 90
     1024
 91
        0
280
     0
281
     0
  0
CLASS
  1
ACMDATADICTIONARY
  2
AcmDataDictionary
  3
"AcmSymBB|Product Description: AutoCAD Mechanical|Company: Autodesk, Inc."
 90
     1024
 91
        0
280
     0
281
     0
  0
CLASS
  1
CATALOGSTATE
  2
AcAmCatalogState
  3
DesignerAssemblies
 90
     1024
 91
        0
280
     0
281
     0
  0
CLASS
  1
ACAMGRCOMPDEFSET
  2
AcAmGrCompDefSet
  3
DesignerAssemblies
 90
     1024
 91
        0
280
     0
281
     0
  0
CLASS
  1
AMDTBROWSERDBTAB
  2
AmdtBrowserDbTab
  3
McadcomServices
 90
     1024
 91
        0
280
     0
281
     0
  0
CLASS
  1
CBROWSERAPPOBJECT
  2
CBrowserAppObject
  3
McadcomServices
 90
     1024
 91
        0
280
     0
281
     0
  0
CLASS
  1
DM_PLACEHOLDER
  2
AcDmSelsetPlaceholder
  3
McadcomServices
 90
     1024
 91
        0
280
     0
281
     0
  0
CLASS
  1
ACMSTANDARDDIN
  2
AcmStandardDIN
  3
"Amdt_StdImp|Product Description: AutoCAD Mechanical|Company: Autodesk, Inc."
 90
     1024
 91
        1
280
     0
281
     0
  0
CLASS
  1
AMGOBJPROPCFG
  2
AmgObjPropCfg
  3
"AmgLay|Product Description: AutoCAD Mechanical|Company: Autodesk, Inc."
 90
     1024
 91
        1
280
     0
281
     0
  0
CLASS
  1
AMDTEDGESTANDARDDIN13715
  2
AmdtEdgeStdDIN13715
  3
"Amdt_StdImp|Product Description: AutoCAD Mechanical|Company: Autodesk, Inc."
 90
     1024
 91
        1
280
     0
281
     0
  0
CLASS
  1
ACMSURFSTANDARDDIN
  2
AcmSurfTextStdDIN
  3
"Amdt_StdImp|Product Description: AutoCAD Mechanical|Company: Autodesk, Inc."
 90
     1024
 91
        1
280
     0
281
     0
  0
CLASS
  1
ACMFCFSTANDARDDIN
  2
AcmFCFStdDIN
  3
"Amdt_StdImp|Product Description: AutoCAD Mechanical|Company: Autodesk, Inc."
 90
     1024
 91
        1
280
     0
281
     0
  0
CLASS
  1
ACMWELDSTANDARDDIN
  2
AcmWeldingStdDIN
  3
"Amdt_StdImp|Product Description: AutoCAD Mechanical|Company: Autodesk, Inc."
 90
     1024
 91
        1
280
     0
281
     0
  0
CLASS
  1
ACMIDSTANDARDDIN
  2
AcmIdStdDIN
  3
"Amdt_StdImp|Product Description: AutoCAD Mechanical|Company: Autodesk, Inc."
 90
     1024
 91
        1
280
     0
281
     0
  0
CLASS
  1
ACMDATUMSTANDARDDIN
  2
AcmDatumStdDIN
  3
"Amdt_StdImp|Product Description: AutoCAD Mechanical|Company: Autodesk, Inc."
 90
     1024
 91
        1
280
     0
281
     0
  0
CLASS
  1
ACMBOMSTANDARDDIN
  2
AcmBOMStdDIN
  3
"Amdt_StdImp|Product Description: AutoCAD Mechanical|Company: Autodesk, Inc."
 90
     1024
 91
        1
280
     0
281
     0
  0
CLASS
  1
ACMDETAILSTANDARDDIN
  2
AmdtDetailSymStdDIN
  3
"Amdt_StdImp|Product Description: AutoCAD Mechanical|Company: Autodesk, Inc."
 90
     1024
 91
        1
280
     0
281
     0
  0
CLASS
  1
ACMSECTIONSTANDARDDIN
  2
AmdtSectionSymStdDIN
  3
"Amdt_StdImp|Product Description: AutoCAD Mechanical|Company: Autodesk, Inc."
 90
     1024
 91
        1
280
     0
281
     0
  0
CLASS
  1
ACMCENTERLINESTANDARDDIN
  2
AmdtCenterLineStdDIN
  3
"Amdt_StdImp|Product Description: AutoCAD Mechanical|Company: Autodesk, Inc."
 90
     1024
 91
        1
280
     0
281
     0
  0
CLASS
  1
ACMTHREADLINESTANDARDDIN
  2
AmdtThreadLineStdDIN
  3
"Amdt_StdImp|Product Description: AutoCAD Mechanical|Company: Autodesk, Inc."
 90
     1024
 91
        1
280
     0
281
     0
  0
CLASS
  1
ACMNOTESTANDARDDIN
  2
AmdtNoteStdDIN
  3
"Amdt_StdImp|Product Description: AutoCAD Mechanical|Company: Autodesk, Inc."
 90
     1024
 91
        1
280
     0
281
     0
  0
CLASS
  1
AMDTNOTETEMPLATEDB
  2
AmdtNoteTemplateDB
  3
AcmSymBB|Product Description: AutoCAD Mechanical|Company: Autodesk, Inc.
 90
     1024
 91
        6
280
     0
281
     0
  0
CLASS
  1
ACAMGLAYSTD
  2
AcAmgLayStd
  3
"AmgLay|Product Description: AutoCAD Mechanical|Company: Autodesk, Inc."
 90
     1024
 91
        1
280
     0
281
     0
  0
CLASS
  1
ACAMGDIMSTD
  2
AcAmgDimStd
  3
"AmgDim|Product Description: AutoCAD Mechanical|Company: Autodesk, Inc."
 90
     1024
 91
        1
280
     0
281
     0
  0
CLASS
  1
ACAMGHOLECHARTSTDDIN
  2
AcAmgHoleChartStdDIN
  3
AmgDim|Product Description: AutoCAD Mechanical|Company: Autodesk, Inc.
 90
     1024
 91
        1
280
     0
281
     0
  0
CLASS
  1
ACAMGTITLESTD
  2
AcAmgTitleStd
  3
"AmgTitle|Product Description: AutoCAD Mechanical|Company: Autodesk, Inc."
 90
     1024
 91
        1
280
     0
281
     0
  0
CLASS
  1
DICTIONARYVAR
  2
AcDbDictionaryVar
  3
ObjectDBX Classes
 90
        0
 91
        9
280
     0
281
     0
  0
CLASS
  1
ACAMGFILTERDAT
  2
AcAmgFilterDat
  3
"AcadM|Product Description: AutoCAD Mechanical|Company: Autodesk, Inc."
 90
     1024
 91
        0
280
     0
281
     0
  0
CLASS
  1
ACMDATAENTRYBLOCK
  2
AcmDataEntryBlock
  3
AcmSymBB|Product Description: AutoCAD Mechanical|Company: Autodesk, Inc.
 90
     1024
 91
        0
280
     0
281
     0
  0
CLASS
  1
PLOTSETTINGS
  2
AcDbPlotSettings
  3
ObjectDBX Classes
 90
        0
 91
        0
280
     0
281
     0
  0
CLASS
  1
SORTENTSTABLE
  2
AcDbSortentsTable
  3
ObjectDBX Classes
 90
        0
 91
        2
280
     0
281
     0
  0
CLASS
  1
MATERIAL
  2
AcDbMaterial
  3
ObjectDBX Classes
 90
     1153
 91
        3
280
     0
281
     0
  0
CLASS
  1
VISUALSTYLE
  2
AcDbVisualStyle
  3
ObjectDBX Classes
 90
     4095
 91
        3
280
     0
281
     0
  0
CLASS
  1
SCALE
  2
AcDbScale
  3
ObjectDBX Classes
 90
     1153
 91
       17
280
     0
281
     0
  0
CLASS
  1
MLEADERSTYLE
  2
AcDbMLeaderStyle
  3
ACDB_MLEADERSTYLE_CLASS
 90
     4095
 91
        0
280
     0
281
     0
  0
CLASS
  1
ACMTAPERSTANDARDDIN
  2
AcmTaperStdDIN
  3
"Amdt_StdImp|Product Description: AutoCAD Mechanical|Company: Autodesk, Inc."
 90
     1024
 91
        1
280
     0
281
     0
  0
CLASS
  1
ACMANOOTATIONVIEWSTANDARDDIN
  2
AmdtAnViewStdDIN
  3
"Amdt_StdImp|Product Description: AutoCAD Mechanical|Company: Autodesk, Inc."
 90
     1024
 91
        1
280
     0
281
     0
  0
CLASS
  1
CAMSSTRUCTBTNSTATE
  2
StructBtnState
  3
DesignerAssemblies
 90
     1024
 91
        0
280
     0
281
     0
  0
CLASS
  1
CELLSTYLEMAP
  2
AcDbCellStyleMap
  3
ObjectDBX Classes
 90
     1152
 91
        1
280
     0
281
     0
  0
CLASS
  1
ACDBSECTIONVIEWSTYLE
  2
AcDbSectionViewStyle
  3
ObjectDBX Classes
 90
     1025
 91
        2
280
     0
281
     0
  0
CLASS
  1
ACDBDETAILVIEWSTYLE
  2
AcDbDetailViewStyle
  3
ObjectDBX Classes
 90
     1025
 91
        2
280
     0
281
     0
  0
CLASS
  1
ACMSECTIONSTANDARDCUSTOM
  2
AmdtSectionSymStdCustom
  3
"Amdt_StdImp|Product Description: AutoCAD Mechanical|Company: Autodesk, Inc."
 90
     1024
 91
        1
280
     0
281
     0
  0
CLASS
  1
ACMDETAILTANDARDCUSTOM
  2
AmdtDetailSymStdCustom
  3
"Amdt_StdImp|Product Description: AutoCAD Mechanical|Company: Autodesk, Inc."
 90
     1024
 91
        1
280
     0
281
     0
  0
CLASS
  1
FIELD
  2
AcDbField
  3
ObjectDBX Classes
 90
     1152
 91
        6
280
     0
281
     0
  0
CLASS
  1
FIELDLIST
  2
AcDbFieldList
  3
ObjectDBX Classes
 90
     1152
 91
        1
280
     0
281
     0
  0
ENDSEC
  0
SECTION
  2
TABLES
  0
TABLE
  2
VPORT
  5
2C
330
0
100
AcDbSymbolTable
 70
     1
  0
VPORT
  5
2D
330
2C
100
AcDbSymbolTableRecord
100
AcDbViewportTableRecord
  2
*Active
 70
     0
 10
0.0
 20
0.0
 11
1.0
 21
1.0
 12
146.0768406095493
 22
287.9948294396868
 13
0.0
 23
0.0
 14
10.0
 24
10.0
 15
10.0
 25
10.0
 16
0.0
 26
0.0
 36
1.0
 17
0.0
 27
0.0
 37
0.0
 40
774.1770897192776
 41
2.056924384027187
 42
50.0
 43
0.0
 44
0.0
 50
0.0
 51
0.0
 71
     0
 72
  5000
 73
     1
 74
     0
 75
     0
 76
     0
 77
     0
 78
     0
281
     0
 65
     1
110
0.0
120
0.0
130
0.0
111
1.0
121
0.0
131
0.0
112
0.0
122
1.0
132
0.0
 79
     0
146
0.0
348
2E
 60
     3
 61
     5
292
     1
282
     1
141
0.0
142
0.0
 63
   250
421
  3355443
1001
ACAD_NAV_VCDISPLAY
1070
     3
  0
ENDTAB
  0
TABLE
  2
LTYPE
  5
27
330
0
100
AcDbSymbolTable
 70
    14
  0
LTYPE
  5
28
330
27
100
AcDbSymbolTableRecord
100
AcDbLinetypeTableRecord
  2
BYBLOCK
 70
     0
  3

 72
    65
 73
     0
 40
0.0
  0
LTYPE
  5
29
330
27
100
AcDbSymbolTableRecord
100
AcDbLinetypeTableRecord
  2
BYLAYER
 70
     0
  3

 72
    65
 73
     0
 40
0.0
  0
LTYPE
  5
1E
330
27
100
AcDbSymbolTableRecord
100
AcDbLinetypeTableRecord
  2
CONTINUOUS
 70
     0
  3
Solid line
 72
    65
 73
     0
 40
0.0
  0
LTYPE
  5
58
330
27
100
AcDbSymbolTableRecord
100
AcDbLinetypeTableRecord
  2
STRICHPUNKT2
 70
     0
  3
Strichpunkt (.5x) _._._._._._._._._._._._._._._
 72
    65
 73
     4
 40
12.7
 49
6.349999999999999
 74
     0
 49
-3.174999999999999
 74
     0
 49
0.0
 74
     0
 49
-3.174999999999999
 74
     0
  0
LTYPE
  5
765
330
27
100
AcDbSymbolTableRecord
100
AcDbLinetypeTableRecord
  2
AM_ISO02W050
 70
     0
  3
__ __ __ __ __ __ __ __ __ __ __ __ __ __ __
 72
    65
 73
     2
 40
7.5
 49
6.0
 74
     0
 49
-1.5
 74
     0
  0
LTYPE
  5
797
330
27
100
AcDbSymbolTableRecord
100
AcDbLinetypeTableRecord
  2
AM_DIN_G_W050
 70
     0
  3
____ . ____ . ____ . ____ . ____ . ____ . ____
 72
    65
 73
     4
 40
13.75
 49
9.75
 74
     0
 49
-1.5
 74
     0
 49
1.0
 74
     0
 49
-1.5
 74
     0
  0
LTYPE
  5
777
330
27
100
AcDbSymbolTableRecord
100
AcDbLinetypeTableRecord
  2
ACDINWELD
 70
     0
  3
_ _ _ _ _
 72
    65
 73
     2
 40
2.0
 49
2.0
 74
     0
 49
-1.0
 74
     0
  0
LTYPE
  5
77A
330
27
100
AcDbSymbolTableRecord
100
AcDbLinetypeTableRecord
  2
ACDINTGB
 70
     0
  3
__ . . __ . .
 72
    65
 73
     6
 40
9.0
 49
4.0
 74
     0
 49
-1.0
 74
     0
 49
1.0
 74
     0
 49
-1.0
 74
     0
 49
1.0
 74
     0
 49
-1.0
 74
     0
  0
LTYPE
  5
77B
330
27
100
AcDbSymbolTableRecord
100
AcDbLinetypeTableRecord
  2
ACDINTGL
 70
     0
  3
_ _ _ _ _
 72
    65
 73
     2
 40
3.0
 49
2.0
 74
     0
 49
-1.0
 74
     0
  0
LTYPE
  5
760
330
27
100
AcDbSymbolTableRecord
100
AcDbLinetypeTableRecord
  2
gen3
 70
     0
  3
-- -- -- -- -- -- -- -- -- -- -- -- -- -- --
 72
    65
 73
     2
 40
6.25
 49
4.75
 74
     0
 49
-1.5
 74
     0
  0
LTYPE
  5
761
330
27
100
AcDbSymbolTableRecord
100
AcDbLinetypeTableRecord
  2
gen7
 70
     0
  3
____ . ____ . ____ . ____ . ____ . ____ . ____
 72
    65
 73
     4
 40
13.75
 49
9.75
 74
     0
 49
-1.5
 74
     0
 49
1.0
 74
     0
 49
-1.5
 74
     0
  0
LTYPE
  5
762
330
27
100
AcDbSymbolTableRecord
100
AcDbLinetypeTableRecord
  2
gen3a
 70
     0
  3
 - - - - -
 72
    65
 73
     2
 40
3.125
 49
2.25
 74
     0
 49
-0.875
 74
     0
  0
LTYPE
  5
763
330
27
100
AcDbSymbolTableRecord
100
AcDbLinetypeTableRecord
  2
gen7a
 70
     0
  3
__ . __ . __
 72
    65
 73
     4
 40
6.875
 49
4.75
 74
     0
 49
-0.875
 74
     0
 49
0.375
 74
     0
 49
-0.875
 74
     0
  0
LTYPE
  5
764
330
27
100
AcDbSymbolTableRecord
100
AcDbLinetypeTableRecord
  2
gen4a
 70
     0
  3
_____ . . _____ . . _____ . . ____ .. ____
 72
    65
 73
     6
 40
16.25
 49
9.75
 74
     0
 49
-1.5
 74
     0
 49
1.0
 74
     0
 49
-1.5
 74
     0
 49
1.0
 74
     0
 49
-1.5
 74
     0
  0
LTYPE
  5
766
330
27
100
AcDbSymbolTableRecord
100
AcDbLinetypeTableRecord
  2
genzigzag
 70
     0
  3
/\/-/\/-/\/-/\/-/\/-/\/
 72
    65
 73
     2
 40
12.0001
 49
0.0001
 74
     4
 75
   135
340
767
 46
2.0
 50
0.0
 44
0.0
 45
0.0
 49
-12.0
 74
     0
  0
LTYPE
  5
86
330
27
100
AcDbSymbolTableRecord
100
AcDbLinetypeTableRecord
  2
VERDECKT2
 70
     0
  3
Verdeckt (.5x) _ _ _ _ _ _ _ _ _ _ _ _ _ _ _ _ 
 72
    65
 73
     2
 40
4.762499999999999
 49
3.174999999999999
 74
     0
 49
-1.587499999999999
 74
     0
  0
ENDTAB
  0
TABLE
  2
LAYER
  5
F
102
{ACAD_XDICTIONARY
360
1F
102
}
330
0
100
AcDbSymbolTable
 70
     9
  0
LAYER
  5
10
102
{ACAD_XDICTIONARY
360
11
102
}
330
F
100
AcDbSymbolTableRecord
100
AcDbLayerTableRecord
  2
0
 70
     0
 62
     7
  6
CONTINUOUS
370
    -3
390
13
347
15
  0
LAYER
  5
AD
102
{ACAD_XDICTIONARY
360
AE
102
}
330
F
100
AcDbSymbolTableRecord
100
AcDbLayerTableRecord
  2
UMRISS03
 70
     0
 62
     3
  6
CONTINUOUS
370
    -3
390
13
347
15
  0
LAYER
  5
89
102
{ACAD_XDICTIONARY
360
8A
102
}
330
F
100
AcDbSymbolTableRecord
100
AcDbLayerTableRecord
  2
UMRISS05
 70
     0
 62
     4
  6
CONTINUOUS
370
    -3
390
13
347
15
  0
LAYER
  5
70
102
{ACAD_XDICTIONARY
360
71
102
}
330
F
100
AcDbSymbolTableRecord
100
AcDbLayerTableRecord
  2
TEXT03
 70
     0
 62
     3
  6
CONTINUOUS
370
    -3
390
13
347
15
  0
LAYER
  5
9D
102
{ACAD_XDICTIONARY
360
9E
102
}
330
F
100
AcDbSymbolTableRecord
100
AcDbLayerTableRecord
  2
BEMASSUNG
 70
     0
 62
     2
  6
CONTINUOUS
370
    -3
390
13
347
15
  0
LAYER
  5
55
102
{ACAD_XDICTIONARY
360
56
102
}
330
F
100
AcDbSymbolTableRecord
100
AcDbLayerTableRecord
  2
ACHSEN
 70
     0
 62
     1
  6
STRICHPUNKT2
370
    -3
390
13
347
15
  0
LAYER
  5
97
102
{ACAD_XDICTIONARY
360
98
102
}
330
F
100
AcDbSymbolTableRecord
100
AcDbLayerTableRecord
  2
LAYER3
 70
     0
 62
     4
  6
CONTINUOUS
370
    -3
390
13
347
15
  0
LAYER
  5
7F
330
F
100
AcDbSymbolTableRecord
100
AcDbLayerTableRecord
  2
DEFPOINTS
 70
     0
 62
     7
  6
CONTINUOUS
290
     0
370
    -3
390
13
347
15
  0
LAYER
  5
84
102
{ACAD_XDICTIONARY
360
85
102
}
330
F
100
AcDbSymbolTableRecord
100
AcDbLayerTableRecord
  2
AVERDECKTE
 70
     0
 62
    13
  6
VERDECKT2
370
    -3
390
13
347
15
  0
ENDTAB
  0
TABLE
  2
STYLE
  5
24
330
0
100
AcDbSymbolTable
 70
     6
  0
STYLE
  5
25
330
24
100
AcDbSymbolTableRecord
100
AcDbTextStyleTableRecord
  2
STANDARD
 70
     0
 40
0.0
 41
1.0
 50
0.0
 71
     0
 42
10.0
  3
txt
  4

  0
STYLE
  5
34
330
24
100
AcDbSymbolTableRecord
100
AcDbTextStyleTableRecord
  2
ARIAL-STANDARD
 70
     0
 40
0.0
 41
1.0
 50
0.0
 71
     0
 42
10.0
  3
arial.ttf
  4

1001
ACAD
1000
Arial
1071
       34
  0
STYLE
  5
39
330
24
100
AcDbSymbolTableRecord
100
AcDbTextStyleTableRecord
  2
WMF
 70
     0
 40
6.5
 41
1.0
 50
0.0
 71
     0
 42
6.5
  3
arial.ttf
  4

1001
ACAD
1000
Arial
1071
       34
  0
STYLE
  5
767
330
24
100
AcDbSymbolTableRecord
100
AcDbTextStyleTableRecord
  2

 70
     1
 40
0.0
 41
1.0
 50
0.0
 71
     0
 42
3.5
  3
genltshp.shx
  4

  0
STYLE
  5
771
330
24
100
AcDbSymbolTableRecord
100
AcDbTextStyleTableRecord
  2
ACDINTS
 70
     0
 40
1.0
 41
1.0
 50
0.0
 71
     0
 42
3.5
  3
isocp.shx
  4

  0
STYLE
  5
775
330
24
100
AcDbSymbolTableRecord
100
AcDbTextStyleTableRecord
  2
ACDINGDT
 70
     0
 40
0.0
 41
1.0
 50
0.0
 71
     0
 42
3.5
  3
AMGDT
  4

  0
ENDTAB
  0
TABLE
  2
VIEW
  5
2A
330
0
100
AcDbSymbolTable
 70
     0
  0
ENDTAB
  0
TABLE
  2
UCS
  5
2B
330
0
100
AcDbSymbolTable
 70
     0
  0
ENDTAB
  0
TABLE
  2
APPID
  5
31
330
0
100
AcDbSymbolTable
 70
    13
  0
APPID
  5
23
330
31
100
AcDbSymbolTableRecord
100
AcDbRegAppTableRecord
  2
ACAD
 70
     0
  0
APPID
  5
3A
330
31
100
AcDbSymbolTableRecord
100
AcDbRegAppTableRecord
  2
ACAD_DSTYLE_DIMJOGGED_JOGANGLE_SYMBOL
 70
     0
  0
APPID
  5
A
330
31
100
AcDbSymbolTableRecord
100
AcDbRegAppTableRecord
  2
ACAD_PSEXT
 70
     0
  0
APPID
  5
16C
330
31
100
AcDbSymbolTableRecord
100
AcDbRegAppTableRecord
  2
ACAD_DSTYLE_DIMINSPECT
 70
     0
  0
APPID
  5
36
330
31
100
AcDbSymbolTableRecord
100
AcDbRegAppTableRecord
  2
ACAD_DSTYLE_DIMJAG
 70
     0
  0
APPID
  5
35
330
31
100
AcDbSymbolTableRecord
100
AcDbRegAppTableRecord
  2
ACAD_DSTYLE_DIMBREAK
 70
     0
  0
APPID
  5
37
330
31
100
AcDbSymbolTableRecord
100
AcDbRegAppTableRecord
  2
ACAD_DSTYLE_DIMTALN
 70
     0
  0
APPID
  5
30
330
31
100
AcDbSymbolTableRecord
100
AcDbRegAppTableRecord
  2
ACAD_NAV_VCDISPLAY
 70
     0
  0
APPID
  5
7AA
330
31
100
AcDbSymbolTableRecord
100
AcDbRegAppTableRecord
  2
AD_DRAW
 70
     0
  0
APPID
  5
7AB
330
31
100
AcDbSymbolTableRecord
100
AcDbRegAppTableRecord
  2
MCAD_NO_VIS
 70
     0
  0
APPID
  5
7AC
330
31
100
AcDbSymbolTableRecord
100
AcDbRegAppTableRecord
  2
ACADM_DIM_EDIT
 70
     0
  0
APPID
  5
7AD
330
31
100
AcDbSymbolTableRecord
100
AcDbRegAppTableRecord
  2
AMDT_DM_ADJ
 70
     0
  0
APPID
  5
7CF
330
31
100
AcDbSymbolTableRecord
100
AcDbRegAppTableRecord
  2
ACATTRIBSERVICES
 70
     0
  0
ENDTAB
  0
TABLE
  2
DIMSTYLE
  5
32
330
0
100
AcDbSymbolTable
 70
     4
100
AcDbDimStyleTable
 71
     4
340
33
340
38
340
3B
340
3C
  0
DIMSTYLE
105
3C
330
32
100
AcDbSymbolTableRecord
100
AcDbDimStyleTableRecord
  2
NORMAL
 70
     0
 41
3.5
 42
1.0
 43
0.0
 44
1.0
 73
     0
 74
     0
 77
     1
 78
     8
140
3.5
141
1.5
147
1.0
172
     1
174
     1
176
   256
177
   256
178
     3
271
     2
272
     2
279
     2
284
     8
340
34
  0
DIMSTYLE
105
3B
330
32
100
AcDbSymbolTableRecord
100
AcDbDimStyleTableRecord
  2
STANDARD
 70
     0
340
25
  0
DIMSTYLE
105
38
330
32
100
AcDbSymbolTableRecord
100
AcDbDimStyleTableRecord
  2
WMF
 70
     0
 40
1.9
 41
2.799999999999999
 42
1.0
 43
0.0
 44
1.0
 50
90.0
 73
     0
 74
     0
 77
     1
 78
     8
140
3.5
141
1.5
146
0.5
147
1.0
172
     1
176
     7
177
     7
178
     7
271
     2
272
     2
284
     8
285
     8
286
     8
340
39
1001
ACAD_DSTYLE_DIMJOGGED_JOGANGLE_SYMBOL
1070
   384
1040
1.570796326794896
  0
DIMSTYLE
105
33
102
{ACAD_REACTORS
330
15F
330
9C
330
137
330
144
330
152
330
11C
330
12A
330
1AF
330
1BC
330
1A2
330
EC
330
DF
330
106
330
16D
330
17A
330
187
330
F9
330
C3
330
D2
330
B6
330
195
330
73
102
}
330
32
100
AcDbSymbolTableRecord
100
AcDbDimStyleTableRecord
  2
Katalog 09
 70
     0
 41
4.0
 42
0.0
 43
8.0
 44
1.0
 73
     0
 74
     0
 77
     1
 78
     8
140
4.349999999999999
141
1.5
143
25.39999999999999
146
0.4285714285714286
147
1.0
172
     1
174
     1
176
     2
177
     2
178
     3
271
     2
272
     2
279
     2
284
     8
285
     8
286
     8
340
34
1001
ACAD_DSTYLE_DIMBREAK
1070
   391
1040
3.75
1001
ACAD_DSTYLE_DIMJAG
1070
   388
1040
1.5
1001
ACAD_DSTYLE_DIMTALN
1070
   392
1070
     0
  0
ENDTAB
  0
TABLE
  2
BLOCK_RECORD
  5
1
330
0
100
AcDbSymbolTable
 70
    24
  0
BLOCK_RECORD
  5
2
102
{ACAD_XDICTIONARY
360
3
102
}
330
1
100
AcDbSymbolTableRecord
100
AcDbBlockTableRecord
  2
*MODEL_SPACE
340
7
 70
     0
280
     1
281
     0
  0
BLOCK_RECORD
  5
B
330
1
100
AcDbSymbolTableRecord
100
AcDbBlockTableRecord
  2
*PAPER_SPACE
340
E
 70
     0
280
     1
281
     0
  0
BLOCK_RECORD
  5
1BD
330
1
100
AcDbSymbolTableRecord
100
AcDbBlockTableRecord
  2
*D0
340
0
 70
     0
280
     1
281
     0
  0
BLOCK_RECORD
  5
1B0
330
1
100
AcDbSymbolTableRecord
100
AcDbBlockTableRecord
  2
*D1
340
0
 70
     0
280
     1
281
     0
  0
BLOCK_RECORD
  5
1A3
330
1
100
AcDbSymbolTableRecord
100
AcDbBlockTableRecord
  2
*D2
340
0
 70
     0
280
     1
281
     0
  0
BLOCK_RECORD
  5
196
330
1
100
AcDbSymbolTableRecord
100
AcDbBlockTableRecord
  2
*D3
340
0
 70
     0
280
     1
281
     0
  0
BLOCK_RECORD
  5
188
330
1
100
AcDbSymbolTableRecord
100
AcDbBlockTableRecord
  2
*D4
340
0
 70
     0
280
     1
281
     0
  0
BLOCK_RECORD
  5
17B
330
1
100
AcDbSymbolTableRecord
100
AcDbBlockTableRecord
  2
*D5
340
0
 70
     0
280
     1
281
     0
  0
BLOCK_RECORD
  5
16E
330
1
100
AcDbSymbolTableRecord
100
AcDbBlockTableRecord
  2
*D6
340
0
 70
     0
280
     1
281
     0
  0
BLOCK_RECORD
  5
160
330
1
100
AcDbSymbolTableRecord
100
AcDbBlockTableRecord
  2
*D7
340
0
 70
     0
280
     1
281
     0
  0
BLOCK_RECORD
  5
153
330
1
100
AcDbSymbolTableRecord
100
AcDbBlockTableRecord
  2
*D8
340
0
 70
     0
280
     1
281
     0
  0
BLOCK_RECORD
  5
145
330
1
100
AcDbSymbolTableRecord
100
AcDbBlockTableRecord
  2
*D9
340
0
 70
     0
280
     1
281
     0
  0
BLOCK_RECORD
  5
138
330
1
100
AcDbSymbolTableRecord
100
AcDbBlockTableRecord
  2
*D10
340
0
 70
     0
280
     1
281
     0
  0
BLOCK_RECORD
  5
12B
330
1
100
AcDbSymbolTableRecord
100
AcDbBlockTableRecord
  2
*D11
340
0
 70
     0
280
     1
281
     0
  0
BLOCK_RECORD
  5
11D
330
1
100
AcDbSymbolTableRecord
100
AcDbBlockTableRecord
  2
*D12
340
0
 70
     0
280
     1
281
     0
  0
BLOCK_RECORD
  5
107
330
1
100
AcDbSymbolTableRecord
100
AcDbBlockTableRecord
  2
*D13
340
0
 70
     0
280
     1
281
     0
  0
BLOCK_RECORD
  5
FA
330
1
100
AcDbSymbolTableRecord
100
AcDbBlockTableRecord
  2
*D14
340
0
 70
     0
280
     1
281
     0
  0
BLOCK_RECORD
  5
ED
330
1
100
AcDbSymbolTableRecord
100
AcDbBlockTableRecord
  2
*D15
340
0
 70
     0
280
     1
281
     0
  0
BLOCK_RECORD
  5
E0
330
1
100
AcDbSymbolTableRecord
100
AcDbBlockTableRecord
  2
*D16
340
0
 70
     0
280
     1
281
     0
  0
BLOCK_RECORD
  5
D3
330
1
100
AcDbSymbolTableRecord
100
AcDbBlockTableRecord
  2
*D17
340
0
 70
     0
280
     1
281
     0
  0
BLOCK_RECORD
  5
C4
330
1
100
AcDbSymbolTableRecord
100
AcDbBlockTableRecord
  2
*D18
340
0
 70
     0
280
     1
281
     0
  0
BLOCK_RECORD
  5
B7
330
1
100
AcDbSymbolTableRecord
100
AcDbBlockTableRecord
  2
*D19
340
0
 70
     0
280
     1
281
     0
  0
BLOCK_RECORD
  5
A0
330
1
100
AcDbSymbolTableRecord
100
AcDbBlockTableRecord
  2
*D20
340
0
 70
     0
280
     1
281
     0
  0
BLOCK_RECORD
  5
74
330
1
100
AcDbSymbolTableRecord
100
AcDbBlockTableRecord
  2
*D21
340
0
 70
     0
280
     1
281
     0
  0
BLOCK_RECORD
  5
785
330
1
100
AcDbSymbolTableRecord
100
AcDbBlockTableRecord
  2
_ACMFILLED15
340
0
 70
     0
280
     1
281
     0
  0
BLOCK_RECORD
  5
793
330
1
100
AcDbSymbolTableRecord
100
AcDbBlockTableRecord
  2
_ACMFILLED30
340
0
 70
     0
280
     1
281
     0
  0
ENDTAB
  0
ENDSEC
  0
SECTION
  2
BLOCKS
  0
BLOCK
  5
5
330
2
100
AcDbEntity
  8
0
100
AcDbBlockBegin
  2
*MODEL_SPACE
 70
     0
 10
0.0
 20
0.0
 30
0.0
  3
*MODEL_SPACE
  1

  0
ENDBLK
  5
6
330
2
100
AcDbEntity
  8
0
100
AcDbBlockEnd
  0
BLOCK
  5
C
330
B
100
AcDbEntity
 67
     1
  8
0
100
AcDbBlockBegin
  2
*PAPER_SPACE
 70
     0
 10
0.0
 20
0.0
 30
0.0
  3
*PAPER_SPACE
  1

  0
ENDBLK
  5
D
330
B
100
AcDbEntity
 67
     1
  8
0
100
AcDbBlockEnd
  0
BLOCK
  5
1BE
330
1BD
100
AcDbEntity
  8
0
100
AcDbBlockBegin
  2
*D0
 70
     1
 10
0.0
 20
0.0
 30
0.0
  3
*D0
  1

  0
LINE
  5
1BF
330
1BD
100
AcDbEntity
  8
BEMASSUNG
  6
Continuous
 62
     2
440
 16777216
370
    -2
100
AcDbLine
 10
75.42242998026444
 20
207.6176662535118
 30
0.0
 11
28.21081944132497
 21
207.6176662535118
 31
0.0
  0
LINE
  5
1C0
330
1BD
100
AcDbEntity
  8
BEMASSUNG
  6
Continuous
 62
     2
440
 16777216
370
    -2
100
AcDbLine
 10
56.42242998026453
 20
288.6176662535117
 30
0.0
 11
28.21081944132499
 21
288.6176662535117
 31
0.0
  0
LINE
  5
1C1
330
1BD
100
AcDbEntity
  8
BEMASSUNG
  6
Continuous
 62
     2
440
 16777216
370
    -2
100
AcDbLine
 10
29.21081944132497
 20
211.6176662535118
 30
0.0
 11
29.21081944132499
 21
284.6176662535117
 31
0.0
  0
SOLID
  5
1C2
330
1BD
100
AcDbEntity
  8
BEMASSUNG
  6
Continuous
 62
     2
440
 16777216
100
AcDbTrace
 10
28.5441527746583
 20
211.6176662535118
 30
0.0
 11
29.87748610799164
 21
211.6176662535118
 31
0.0
 12
29.21081944132497
 22
207.6176662535118
 32
0.0
 13
29.21081944132497
 23
207.6176662535118
 33
0.0
  0
SOLID
  5
1C3
330
1BD
100
AcDbEntity
  8
BEMASSUNG
  6
Continuous
 62
     2
440
 16777216
100
AcDbTrace
 10
28.54415277465832
 20
284.6176662535117
 30
0.0
 11
29.87748610799166
 21
284.6176662535117
 31
0.0
 12
29.21081944132499
 22
288.6176662535117
 32
0.0
 13
29.21081944132499
 23
288.6176662535117
 33
0.0
  0
MTEXT
  5
1C4
330
1BD
100
AcDbEntity
  8
BEMASSUNG
  6
Continuous
 62
     3
440
 16777216
100
AcDbMText
 10
25.98982694473558
 20
248.1176662535117
 30
0.0
 40
4.349999999999999
 41
0.0
 46
0.0
 71
     5
 72
     1
  1
\A1;81
  7
ARIAL-STANDARD
 11
0.0000000000000001
 21
1.0
 31
0.0
 73
     1
 44
1.0
  0
POINT
  5
1C5
330
1BD
100
AcDbEntity
  8
DEFPOINTS
  6
Continuous
 62
     0
440
 16777216
100
AcDbPoint
 10
75.42242998026444
 20
207.6176662535118
 30
0.0
  0
POINT
  5
1C6
330
1BD
100
AcDbEntity
  8
DEFPOINTS
  6
Continuous
 62
     0
440
 16777216
100
AcDbPoint
 10
56.42242998026453
 20
288.6176662535117
 30
0.0
  0
POINT
  5
1C7
330
1BD
100
AcDbEntity
  8
DEFPOINTS
  6
Continuous
 62
     0
440
 16777216
100
AcDbPoint
 10
29.21081944132499
 20
288.6176662535117
 30
0.0
  0
ENDBLK
  5
1C8
330
1BD
100
AcDbEntity
  8
0
100
AcDbBlockEnd
  0
BLOCK
  5
1B1
330
1B0
100
AcDbEntity
  8
0
100
AcDbBlockBegin
  2
*D1
 70
     1
 10
0.0
 20
0.0
 30
0.0
  3
*D1
  1

  0
LINE
  5
1B2
330
1B0
100
AcDbEntity
  8
BEMASSUNG
  6
Continuous
 62
     2
440
 16777216
370
    -2
100
AcDbLine
 10
75.42242998026444
 20
207.6176662535118
 30
0.0
 11
43.30242998026453
 21
207.6176662535118
 31
0.0
  0
LINE
  5
1B3
330
1B0
100
AcDbEntity
  8
BEMASSUNG
  6
Continuous
 62
     2
440
 16777216
370
    -2
100
AcDbLine
 10
81.42242998026487
 20
242.6176662535118
 30
0.0
 11
43.30242998026455
 21
242.6176662535118
 31
0.0
  0
LINE
  5
1B4
330
1B0
100
AcDbEntity
  8
BEMASSUNG
  6
Continuous
 62
     2
440
 16777216
370
    -2
100
AcDbLine
 10
44.30242998026454
 20
211.6176662535118
 30
0.0
 11
44.30242998026454
 21
238.6176662535118
 31
0.0
  0
SOLID
  5
1B5
330
1B0
100
AcDbEntity
  8
BEMASSUNG
  6
Continuous
 62
     2
440
 16777216
100
AcDbTrace
 10
43.63576331359787
 20
211.6176662535118
 30
0.0
 11
44.9690966469312
 21
211.6176662535118
 31
0.0
 12
44.30242998026453
 22
207.6176662535118
 32
0.0
 13
44.30242998026453
 23
207.6176662535118
 33
0.0
  0
SOLID
  5
1B6
330
1B0
100
AcDbEntity
  8
BEMASSUNG
  6
Continuous
 62
     2
440
 16777216
100
AcDbTrace
 10
43.63576331359787
 20
238.6176662535118
 30
0.0
 11
44.9690966469312
 21
238.6176662535118
 31
0.0
 12
44.30242998026455
 22
242.6176662535118
 32
0.0
 13
44.30242998026455
 23
242.6176662535118
 33
0.0
  0
MTEXT
  5
1B7
330
1B0
100
AcDbEntity
  8
BEMASSUNG
  6
Continuous
 62
     3
440
 16777216
100
AcDbMText
 10
41.0799538547529
 20
225.1176662535118
 30
0.0
 40
4.349999999999999
 41
0.0
 46
0.0
 71
     5
 72
     1
  1
\A1;35
  7
ARIAL-STANDARD
 11
0.0000000000000001
 21
1.0
 31
0.0
 73
     1
 44
1.0
  0
POINT
  5
1B8
330
1B0
100
AcDbEntity
  8
DEFPOINTS
  6
Continuous
 62
     0
440
 16777216
100
AcDbPoint
 10
75.42242998026444
 20
207.6176662535118
 30
0.0
  0
POINT
  5
1B9
330
1B0
100
AcDbEntity
  8
DEFPOINTS
  6
Continuous
 62
     0
440
 16777216
100
AcDbPoint
 10
81.42242998026487
 20
242.6176662535118
 30
0.0
  0
POINT
  5
1BA
330
1B0
100
AcDbEntity
  8
DEFPOINTS
  6
Continuous
 62
     0
440
 16777216
100
AcDbPoint
 10
44.30242998026455
 20
242.6176662535118
 30
0.0
  0
ENDBLK
  5
1BB
330
1B0
100
AcDbEntity
  8
0
100
AcDbBlockEnd
  0
BLOCK
  5
1A4
330
1A3
100
AcDbEntity
  8
0
100
AcDbBlockBegin
  2
*D2
 70
     1
 10
0.0
 20
0.0
 30
0.0
  3
*D2
  1

  0
LINE
  5
1A5
330
1A3
100
AcDbEntity
  8
BEMASSUNG
  6
Continuous
 62
     2
440
 16777216
370
    -2
100
AcDbLine
 10
105.4224299802644
 20
233.1176662535119
 30
0.0
 11
105.4224299802644
 21
194.5743014081927
 31
0.0
  0
LINE
  5
1A6
330
1A3
100
AcDbEntity
  8
BEMASSUNG
  6
Continuous
 62
     2
440
 16777216
370
    -2
100
AcDbLine
 10
120.9224299802644
 20
242.6176662535118
 30
0.0
 11
120.9224299802644
 21
194.5743014081927
 31
0.0
  0
LINE
  5
1A7
330
1A3
100
AcDbEntity
  8
BEMASSUNG
  6
Continuous
 62
     2
440
 16777216
370
    -2
100
AcDbLine
 10
109.4224299802644
 20
195.5743014081927
 30
0.0
 11
116.9224299802644
 21
195.5743014081927
 31
0.0
  0
SOLID
  5
1A8
330
1A3
100
AcDbEntity
  8
BEMASSUNG
  6
Continuous
 62
     2
440
 16777216
100
AcDbTrace
 10
109.4224299802644
 20
196.2409680748594
 30
0.0
 11
109.4224299802644
 21
194.9076347415261
 31
0.0
 12
105.4224299802644
 22
195.5743014081927
 32
0.0
 13
105.4224299802644
 23
195.5743014081927
 33
0.0
  0
SOLID
  5
1A9
330
1A3
100
AcDbEntity
  8
BEMASSUNG
  6
Continuous
 62
     2
440
 16777216
100
AcDbTrace
 10
116.9224299802644
 20
196.2409680748594
 30
0.0
 11
116.9224299802644
 21
194.9076347415261
 31
0.0
 12
120.9224299802644
 22
195.5743014081927
 32
0.0
 13
120.9224299802644
 23
195.5743014081927
 33
0.0
  0
MTEXT
  5
1AA
330
1A3
100
AcDbEntity
  8
BEMASSUNG
  6
Continuous
 62
     3
440
 16777216
100
AcDbMText
 10
113.1724299802644
 20
198.7952939047821
 30
0.0
 40
4.349999999999999
 41
0.0
 46
0.0
 71
     5
 72
     1
  1
\A1;15.5
  7
ARIAL-STANDARD
 73
     1
 44
1.0
  0
POINT
  5
1AB
330
1A3
100
AcDbEntity
  8
DEFPOINTS
  6
Continuous
 62
     0
440
 16777216
100
AcDbPoint
 10
105.4224299802644
 20
233.1176662535119
 30
0.0
  0
POINT
  5
1AC
330
1A3
100
AcDbEntity
  8
DEFPOINTS
  6
Continuous
 62
     0
440
 16777216
100
AcDbPoint
 10
120.9224299802644
 20
242.6176662535118
 30
0.0
  0
POINT
  5
1AD
330
1A3
100
AcDbEntity
  8
DEFPOINTS
  6
Continuous
 62
     0
440
 16777216
100
AcDbPoint
 10
120.9224299802644
 20
195.5743014081927
 30
0.0
  0
ENDBLK
  5
1AE
330
1A3
100
AcDbEntity
  8
0
100
AcDbBlockEnd
  0
BLOCK
  5
197
330
196
100
AcDbEntity
  8
0
100
AcDbBlockBegin
  2
*D3
 70
     1
 10
0.0
 20
0.0
 30
0.0
  3
*D3
  1

  0
LINE
  5
198
330
196
100
AcDbEntity
  8
BEMASSUNG
  6
Continuous
 62
     2
440
 16777216
370
    -2
100
AcDbLine
 10
75.42242998026444
 20
207.6176662535118
 30
0.0
 11
75.42242998026444
 21
194.5743014081927
 31
0.0
  0
LINE
  5
199
330
196
100
AcDbEntity
  8
BEMASSUNG
  6
Continuous
 62
     2
440
 16777216
370
    -2
100
AcDbLine
 10
105.4224299802644
 20
240.8036100165502
 30
0.0
 11
105.4224299802644
 21
194.5743014081927
 31
0.0
  0
LINE
  5
19A
330
196
100
AcDbEntity
  8
BEMASSUNG
  6
Continuous
 62
     2
440
 16777216
370
    -2
100
AcDbLine
 10
79.42242998026443
 20
195.5743014081927
 30
0.0
 11
101.4224299802644
 21
195.5743014081927
 31
0.0
  0
SOLID
  5
19B
330
196
100
AcDbEntity
  8
BEMASSUNG
  6
Continuous
 62
     2
440
 16777216
100
AcDbTrace
 10
79.42242998026443
 20
196.2409680748594
 30
0.0
 11
79.42242998026443
 21
194.9076347415261
 31
0.0
 12
75.42242998026444
 22
195.5743014081927
 32
0.0
 13
75.42242998026444
 23
195.5743014081927
 33
0.0
  0
SOLID
  5
19C
330
196
100
AcDbEntity
  8
BEMASSUNG
  6
Continuous
 62
     2
440
 16777216
100
AcDbTrace
 10
101.4224299802644
 20
196.2409680748594
 30
0.0
 11
101.4224299802644
 21
194.9076347415261
 31
0.0
 12
105.4224299802644
 22
195.5743014081927
 32
0.0
 13
105.4224299802644
 23
195.5743014081927
 33
0.0
  0
MTEXT
  5
19D
330
196
100
AcDbEntity
  8
BEMASSUNG
  6
Continuous
 62
     3
440
 16777216
100
AcDbMText
 10
90.42242998026443
 20
198.7493014081927
 30
0.0
 40
4.349999999999999
 41
0.0
 46
0.0
 71
     5
 72
     1
  1
\A1;DM
  7
ARIAL-STANDARD
 73
     1
 44
1.0
  0
POINT
  5
19E
330
196
100
AcDbEntity
  8
DEFPOINTS
  6
Continuous
 62
     0
440
 16777216
100
AcDbPoint
 10
75.42242998026444
 20
207.6176662535118
 30
0.0
  0
POINT
  5
19F
330
196
100
AcDbEntity
  8
DEFPOINTS
  6
Continuous
 62
     0
440
 16777216
100
AcDbPoint
 10
105.4224299802644
 20
240.8036100165502
 30
0.0
  0
POINT
  5
1A0
330
196
100
AcDbEntity
  8
DEFPOINTS
  6
Continuous
 62
     0
440
 16777216
100
AcDbPoint
 10
105.4224299802644
 20
195.5743014081927
 30
0.0
  0
ENDBLK
  5
1A1
330
196
100
AcDbEntity
  8
0
100
AcDbBlockEnd
  0
BLOCK
  5
189
330
188
100
AcDbEntity
  8
0
100
AcDbBlockBegin
  2
*D4
 70
     1
 10
0.0
 20
0.0
 30
0.0
  3
*D4
  1

  0
LINE
  5
18A
330
188
100
AcDbEntity
  8
BEMASSUNG
  6
Continuous
 62
     2
440
 16777216
370
    -2
100
AcDbLine
 10
120.9224299802644
 20
242.6176662535118
 30
0.0
 11
147.5615923091479
 21
242.6176662535118
 31
0.0
  0
LINE
  5
18B
330
188
100
AcDbEntity
  8
BEMASSUNG
  6
Continuous
 62
     2
440
 16777216
370
    -2
100
AcDbLine
 10
119.4224299802644
 20
270.1176662535118
 30
0.0
 11
147.5615923091479
 21
270.1176662535118
 31
0.0
  0
LINE
  5
18C
330
188
100
AcDbEntity
  8
BEMASSUNG
  6
Continuous
 62
     2
440
 16777216
370
    -2
100
AcDbLine
 10
146.5615923091479
 20
246.6176662535118
 30
0.0
 11
146.5615923091479
 21
266.1176662535118
 31
0.0
  0
SOLID
  5
18D
330
188
100
AcDbEntity
  8
BEMASSUNG
  6
Continuous
 62
     2
440
 16777216
100
AcDbTrace
 10
145.8949256424812
 20
246.6176662535118
 30
0.0
 11
147.2282589758145
 21
246.6176662535118
 31
0.0
 12
146.5615923091479
 22
242.6176662535118
 32
0.0
 13
146.5615923091479
 23
242.6176662535118
 33
0.0
  0
SOLID
  5
18E
330
188
100
AcDbEntity
  8
BEMASSUNG
  6
Continuous
 62
     2
440
 16777216
100
AcDbTrace
 10
145.8949256424812
 20
266.1176662535118
 30
0.0
 11
147.2282589758145
 21
266.1176662535118
 31
0.0
 12
146.5615923091479
 22
270.1176662535118
 32
0.0
 13
146.5615923091479
 23
270.1176662535118
 33
0.0
  0
MTEXT
  5
18F
330
188
100
AcDbEntity
  8
BEMASSUNG
  6
Continuous
 62
     3
440
 16777216
100
AcDbMText
 10
143.3405998125585
 20
256.3676662535118
 30
0.0
 40
4.349999999999999
 41
0.0
 46
0.0
 71
     5
 72
     1
  1
\A1;PZ 27.5 
  7
ARIAL-STANDARD
 11
0.0000000000000001
 21
1.0
 31
0.0
 73
     1
 44
1.0
  0
POINT
  5
190
330
188
100
AcDbEntity
  8
DEFPOINTS
  6
Continuous
 62
     0
440
 16777216
100
AcDbPoint
 10
120.9224299802644
 20
242.6176662535118
 30
0.0
  0
POINT
  5
191
330
188
100
AcDbEntity
  8
DEFPOINTS
  6
Continuous
 62
     0
440
 16777216
100
AcDbPoint
 10
119.4224299802644
 20
270.1176662535118
 30
0.0
  0
POINT
  5
192
330
188
100
AcDbEntity
  8
DEFPOINTS
  6
Continuous
 62
     0
440
 16777216
100
AcDbPoint
 10
146.5615923091479
 20
270.1176662535118
 30
0.0
  0
ENDBLK
  5
193
330
188
100
AcDbEntity
  8
0
100
AcDbBlockEnd
  0
BLOCK
  5
17C
330
17B
100
AcDbEntity
  8
0
100
AcDbBlockBegin
  2
*D5
 70
     1
 10
0.0
 20
0.0
 30
0.0
  3
*D5
  1

  0
LINE
  5
17D
330
17B
100
AcDbEntity
  8
BEMASSUNG
  6
Continuous
 62
     2
440
 16777216
370
    -2
100
AcDbLine
 10
120.9224299802644
 20
242.6176662535118
 30
0.0
 11
134.7717141336786
 21
242.6176662535118
 31
0.0
  0
LINE
  5
17E
330
17B
100
AcDbEntity
  8
BEMASSUNG
  6
Continuous
 62
     2
440
 16777216
370
    -2
100
AcDbLine
 10
119.4224299802644
 20
268.1176662535118
 30
0.0
 11
134.7717141336786
 21
268.1176662535118
 31
0.0
  0
LINE
  5
17F
330
17B
100
AcDbEntity
  8
BEMASSUNG
  6
Continuous
 62
     2
440
 16777216
370
    -2
100
AcDbLine
 10
133.7717141336786
 20
246.6176662535118
 30
0.0
 11
133.7717141336786
 21
264.1176662535118
 31
0.0
  0
SOLID
  5
180
330
17B
100
AcDbEntity
  8
BEMASSUNG
  6
Continuous
 62
     2
440
 16777216
100
AcDbTrace
 10
133.1050474670119
 20
246.6176662535118
 30
0.0
 11
134.4383808003452
 21
246.6176662535118
 31
0.0
 12
133.7717141336786
 22
242.6176662535118
 32
0.0
 13
133.7717141336786
 23
242.6176662535118
 33
0.0
  0
SOLID
  5
181
330
17B
100
AcDbEntity
  8
BEMASSUNG
  6
Continuous
 62
     2
440
 16777216
100
AcDbTrace
 10
133.1050474670119
 20
264.1176662535118
 30
0.0
 11
134.4383808003452
 21
264.1176662535118
 31
0.0
 12
133.7717141336786
 22
268.1176662535118
 32
0.0
 13
133.7717141336786
 23
268.1176662535118
 33
0.0
  0
MTEXT
  5
182
330
17B
100
AcDbEntity
  8
BEMASSUNG
  6
Continuous
 62
     3
440
 16777216
100
AcDbMText
 10
130.5507216370892
 20
255.3676662535118
 30
0.0
 40
4.349999999999999
 41
0.0
 46
0.0
 71
     5
 72
     1
  1
\A1;RZ 25.5 
  7
ARIAL-STANDARD
 11
0.0000000000000001
 21
1.0
 31
0.0
 73
     1
 44
1.0
  0
POINT
  5
183
330
17B
100
AcDbEntity
  8
DEFPOINTS
  6
Continuous
 62
     0
440
 16777216
100
AcDbPoint
 10
120.9224299802644
 20
242.6176662535118
 30
0.0
  0
POINT
  5
184
330
17B
100
AcDbEntity
  8
DEFPOINTS
  6
Continuous
 62
     0
440
 16777216
100
AcDbPoint
 10
119.4224299802644
 20
268.1176662535118
 30
0.0
  0
POINT
  5
185
330
17B
100
AcDbEntity
  8
DEFPOINTS
  6
Continuous
 62
     0
440
 16777216
100
AcDbPoint
 10
133.7717141336786
 20
268.1176662535118
 30
0.0
  0
ENDBLK
  5
186
330
17B
100
AcDbEntity
  8
0
100
AcDbBlockEnd
  0
BLOCK
  5
16F
330
16E
100
AcDbEntity
  8
0
100
AcDbBlockBegin
  2
*D6
 70
     1
 10
0.0
 20
0.0
 30
0.0
  3
*D6
  1

  0
LINE
  5
170
330
16E
100
AcDbEntity
  8
BEMASSUNG
  6
Continuous
 62
     2
440
 16777216
370
    -2
100
AcDbLine
 10
120.9224299802644
 20
242.6176662535118
 30
0.0
 11
157.6492393451862
 21
242.6176662535118
 31
0.0
  0
LINE
  5
171
330
16E
100
AcDbEntity
  8
BEMASSUNG
  6
Continuous
 62
     2
440
 16777216
370
    -2
100
AcDbLine
 10
98.92242998026439
 20
442.6176662535118
 30
0.0
 11
157.6492393451862
 21
442.6176662535117
 31
0.0
  0
LINE
  5
172
330
16E
100
AcDbEntity
  8
BEMASSUNG
  6
Continuous
 62
     2
440
 16777216
370
    -2
100
AcDbLine
 10
156.6492393451862
 20
246.6176662535118
 30
0.0
 11
156.6492393451862
 21
438.6176662535117
 31
0.0
  0
SOLID
  5
173
330
16E
100
AcDbEntity
  8
BEMASSUNG
  6
Continuous
 62
     2
440
 16777216
100
AcDbTrace
 10
155.9825726785195
 20
246.6176662535118
 30
0.0
 11
157.3159060118528
 21
246.6176662535118
 31
0.0
 12
156.6492393451862
 22
242.6176662535118
 32
0.0
 13
156.6492393451862
 23
242.6176662535118
 33
0.0
  0
SOLID
  5
174
330
16E
100
AcDbEntity
  8
BEMASSUNG
  6
Continuous
 62
     2
440
 16777216
100
AcDbTrace
 10
155.9825726785196
 20
438.6176662535117
 30
0.0
 11
157.3159060118529
 21
438.6176662535117
 31
0.0
 12
156.6492393451862
 22
442.6176662535117
 32
0.0
 13
156.6492393451862
 23
442.6176662535117
 33
0.0
  0
MTEXT
  5
175
330
16E
100
AcDbEntity
  8
BEMASSUNG
  6
Continuous
 62
     3
440
 16777216
100
AcDbMText
 10
153.4282468485968
 20
342.6176662535118
 30
0.0
 40
4.349999999999999
 41
0.0
 46
0.0
 71
     5
 72
     1
  1
\A1;200
  7
ARIAL-STANDARD
 11
0.0000000000000001
 21
1.0
 31
0.0
 73
     1
 44
1.0
  0
POINT
  5
176
330
16E
100
AcDbEntity
  8
DEFPOINTS
  6
Continuous
 62
     0
440
 16777216
100
AcDbPoint
 10
120.9224299802644
 20
242.6176662535118
 30
0.0
  0
POINT
  5
177
330
16E
100
AcDbEntity
  8
DEFPOINTS
  6
Continuous
 62
     0
440
 16777216
100
AcDbPoint
 10
98.92242998026439
 20
442.6176662535118
 30
0.0
  0
POINT
  5
178
330
16E
100
AcDbEntity
  8
DEFPOINTS
  6
Continuous
 62
     0
440
 16777216
100
AcDbPoint
 10
156.6492393451862
 20
442.6176662535117
 30
0.0
  0
ENDBLK
  5
179
330
16E
100
AcDbEntity
  8
0
100
AcDbBlockEnd
  0
BLOCK
  5
161
330
160
100
AcDbEntity
  8
0
100
AcDbBlockBegin
  2
*D7
 70
     1
 10
0.0
 20
0.0
 30
0.0
  3
*D7
  1

  0
LINE
  5
162
330
160
100
AcDbEntity
  8
BEMASSUNG
  6
Continuous
 62
     2
440
 16777216
370
    -2
100
AcDbLine
 10
61.93813064548246
 20
406.1176662535117
 30
0.0
 11
61.93813064548246
 21
427.1127295349888
 31
0.0
  0
LINE
  5
163
330
160
100
AcDbEntity
  8
BEMASSUNG
  6
Continuous
 62
     2
440
 16777216
370
    -2
100
AcDbLine
 10
75.42242998026444
 20
427.0724691921605
 30
0.0
 11
75.42242998026444
 21
425.1127295349887
 31
0.0
  0
LINE
  5
164
330
160
100
AcDbEntity
  8
BEMASSUNG
  6
Continuous
 62
     2
440
 16777216
370
    -2
100
AcDbLine
 10
65.93813064548246
 20
426.1127295349888
 30
0.0
 11
71.42242998026444
 21
426.1127295349888
 31
0.0
  0
MTEXT
  5
165
330
160
100
AcDbEntity
  8
BEMASSUNG
  6
Continuous
 62
     3
440
 16777216
100
AcDbMText
 10
68.68028031287344
 20
429.9806575158008
 30
0.0
 40
4.349999999999999
 41
0.0
 46
0.0
 71
     5
 72
     1
  1
\A1;13.5
  7
ARIAL-STANDARD
 73
     1
 44
1.0
  0
SOLID
  5
166
330
160
100
AcDbEntity
  8
BEMASSUNG
  6
Continuous
 62
     2
440
 16777216
100
AcDbTrace
 10
65.93813064548246
 20
426.7793962016555
 30
0.0
 11
65.93813064548246
 21
425.4460628683221
 31
0.0
 12
61.93813064548246
 22
426.1127295349888
 32
0.0
 13
61.93813064548246
 23
426.1127295349888
 33
0.0
  0
SOLID
  5
167
330
160
100
AcDbEntity
  8
BEMASSUNG
  6
Continuous
 62
     2
440
 16777216
100
AcDbTrace
 10
71.42242998026444
 20
426.7793962016555
 30
0.0
 11
71.42242998026444
 21
425.4460628683221
 31
0.0
 12
75.42242998026444
 22
426.1127295349888
 32
0.0
 13
75.42242998026444
 23
426.1127295349888
 33
0.0
  0
POINT
  5
168
330
160
100
AcDbEntity
  8
DEFPOINTS
  6
Continuous
 62
     0
440
 16777216
100
AcDbPoint
 10
61.93813064548246
 20
406.1176662535117
 30
0.0
  0
POINT
  5
169
330
160
100
AcDbEntity
  8
DEFPOINTS
  6
Continuous
 62
     0
440
 16777216
100
AcDbPoint
 10
75.42242998026444
 20
427.0724691921605
 30
0.0
  0
POINT
  5
16A
330
160
100
AcDbEntity
  8
DEFPOINTS
  6
Continuous
 62
     0
440
 16777216
100
AcDbPoint
 10
75.42242998026444
 20
426.1127295349888
 30
0.0
  0
ENDBLK
  5
16B
330
160
100
AcDbEntity
  8
0
100
AcDbBlockEnd
  0
BLOCK
  5
154
330
153
100
AcDbEntity
  8
0
100
AcDbBlockBegin
  2
*D8
 70
     1
 10
0.0
 20
0.0
 30
0.0
  3
*D8
  1

  0
LINE
  5
155
330
153
100
AcDbEntity
  8
BEMASSUNG
  6
Continuous
 62
     2
440
 16777216
370
    -2
100
AcDbLine
 10
64.08813064548247
 20
391.1176662535119
 30
0.0
 11
28.21081944132498
 21
391.1176662535119
 31
0.0
  0
LINE
  5
156
330
153
100
AcDbEntity
  8
BEMASSUNG
  6
Continuous
 62
     2
440
 16777216
370
    -2
100
AcDbLine
 10
64.62242998026448
 20
421.1176662535118
 30
0.0
 11
28.21081944132499
 21
421.1176662535118
 31
0.0
  0
LINE
  5
157
330
153
100
AcDbEntity
  8
BEMASSUNG
  6
Continuous
 62
     2
440
 16777216
370
    -2
100
AcDbLine
 10
29.21081944132498
 20
395.1176662535118
 30
0.0
 11
29.21081944132499
 21
417.1176662535118
 31
0.0
  0
SOLID
  5
158
330
153
100
AcDbEntity
  8
BEMASSUNG
  6
Continuous
 62
     2
440
 16777216
100
AcDbTrace
 10
28.54415277465832
 20
395.1176662535118
 30
0.0
 11
29.87748610799165
 21
395.1176662535118
 31
0.0
 12
29.21081944132498
 22
391.1176662535119
 32
0.0
 13
29.21081944132498
 23
391.1176662535119
 33
0.0
  0
SOLID
  5
159
330
153
100
AcDbEntity
  8
BEMASSUNG
  6
Continuous
 62
     2
440
 16777216
100
AcDbTrace
 10
28.54415277465832
 20
417.1176662535118
 30
0.0
 11
29.87748610799166
 21
417.1176662535118
 31
0.0
 12
29.21081944132499
 22
421.1176662535118
 32
0.0
 13
29.21081944132499
 23
421.1176662535118
 33
0.0
  0
MTEXT
  5
15A
330
153
100
AcDbEntity
  8
BEMASSUNG
  6
Continuous
 62
     3
440
 16777216
100
AcDbMText
 10
25.98834331581332
 20
406.1176662535118
 30
0.0
 40
4.349999999999999
 41
0.0
 46
0.0
 71
     5
 72
     1
  1
\A1;30
  7
ARIAL-STANDARD
 11
0.0000000000000001
 21
1.0
 31
0.0
 73
     1
 44
1.0
  0
POINT
  5
15B
330
153
100
AcDbEntity
  8
DEFPOINTS
  6
Continuous
 62
     0
440
 16777216
100
AcDbPoint
 10
64.08813064548247
 20
391.1176662535119
 30
0.0
  0
POINT
  5
15C
330
153
100
AcDbEntity
  8
DEFPOINTS
  6
Continuous
 62
     0
440
 16777216
100
AcDbPoint
 10
64.62242998026448
 20
421.1176662535118
 30
0.0
  0
POINT
  5
15D
330
153
100
AcDbEntity
  8
DEFPOINTS
  6
Continuous
 62
     0
440
 16777216
100
AcDbPoint
 10
29.21081944132499
 20
421.1176662535118
 30
0.0
  0
ENDBLK
  5
15E
330
153
100
AcDbEntity
  8
0
100
AcDbBlockEnd
  0
BLOCK
  5
146
330
145
100
AcDbEntity
  8
0
100
AcDbBlockBegin
  2
*D9
 70
     1
 10
0.0
 20
0.0
 30
0.0
  3
*D9
  1

  0
LINE
  5
147
330
145
100
AcDbEntity
  8
BEMASSUNG
  6
Continuous
 62
     2
440
 16777216
370
    -2
100
AcDbLine
 10
56.42242998026453
 20
323.6176662535118
 30
0.0
 11
28.21081944132497
 21
323.6176662535118
 31
0.0
  0
LINE
  5
148
330
145
100
AcDbEntity
  8
BEMASSUNG
  6
Continuous
 62
     2
440
 16777216
370
    -2
100
AcDbLine
 10
64.08813064548247
 20
391.1176662535119
 30
0.0
 11
28.21081944132499
 21
391.1176662535119
 31
0.0
  0
LINE
  5
149
330
145
100
AcDbEntity
  8
BEMASSUNG
  6
Continuous
 62
     2
440
 16777216
370
    -2
100
AcDbLine
 10
29.21081944132497
 20
327.6176662535118
 30
0.0
 11
29.21081944132499
 21
387.1176662535118
 31
0.0
  0
SOLID
  5
14A
330
145
100
AcDbEntity
  8
BEMASSUNG
  6
Continuous
 62
     2
440
 16777216
100
AcDbTrace
 10
28.54415277465831
 20
327.6176662535118
 30
0.0
 11
29.87748610799164
 21
327.6176662535118
 31
0.0
 12
29.21081944132497
 22
323.6176662535118
 32
0.0
 13
29.21081944132497
 23
323.6176662535118
 33
0.0
  0
SOLID
  5
14B
330
145
100
AcDbEntity
  8
BEMASSUNG
  6
Continuous
 62
     2
440
 16777216
100
AcDbTrace
 10
28.54415277465832
 20
387.1176662535118
 30
0.0
 11
29.87748610799166
 21
387.1176662535118
 31
0.0
 12
29.21081944132499
 22
391.1176662535119
 32
0.0
 13
29.21081944132499
 23
391.1176662535119
 33
0.0
  0
MTEXT
  5
14C
330
145
100
AcDbEntity
  8
BEMASSUNG
  6
Continuous
 62
     3
440
 16777216
100
AcDbMText
 10
25.98982694473557
 20
357.3676662535119
 30
0.0
 40
4.349999999999999
 41
0.0
 46
0.0
 71
     5
 72
     1
  1
\A1;67.5
  7
ARIAL-STANDARD
 11
0.0000000000000001
 21
1.0
 31
0.0
 73
     1
 44
1.0
  0
POINT
  5
14D
330
145
100
AcDbEntity
  8
DEFPOINTS
  6
Continuous
 62
     0
440
 16777216
100
AcDbPoint
 10
56.42242998026453
 20
323.6176662535118
 30
0.0
  0
POINT
  5
14E
330
145
100
AcDbEntity
  8
DEFPOINTS
  6
Continuous
 62
     0
440
 16777216
100
AcDbPoint
 10
64.08813064548247
 20
391.1176662535119
 30
0.0
  0
POINT
  5
14F
330
145
100
AcDbEntity
  8
DEFPOINTS
  6
Continuous
 62
     0
440
 16777216
100
AcDbPoint
 10
29.21081944132499
 20
391.1176662535119
 30
0.0
  0
ENDBLK
  5
150
330
145
100
AcDbEntity
  8
0
100
AcDbBlockEnd
  0
BLOCK
  5
139
330
138
100
AcDbEntity
  8
0
100
AcDbBlockBegin
  2
*D10
 70
     1
 10
0.0
 20
0.0
 30
0.0
  3
*D10
  1

  0
LINE
  5
13A
330
138
100
AcDbEntity
  8
BEMASSUNG
  6
Continuous
 62
     2
440
 16777216
370
    -2
100
AcDbLine
 10
56.42242998026453
 20
288.6176662535117
 30
0.0
 11
28.21081944132498
 21
288.6176662535117
 31
0.0
  0
LINE
  5
13B
330
138
100
AcDbEntity
  8
BEMASSUNG
  6
Continuous
 62
     2
440
 16777216
370
    -2
100
AcDbLine
 10
56.42242998026453
 20
323.6176662535118
 30
0.0
 11
28.21081944132499
 21
323.6176662535118
 31
0.0
  0
LINE
  5
13C
330
138
100
AcDbEntity
  8
BEMASSUNG
  6
Continuous
 62
     2
440
 16777216
370
    -2
100
AcDbLine
 10
29.21081944132498
 20
292.6176662535117
 30
0.0
 11
29.21081944132499
 21
319.6176662535118
 31
0.0
  0
SOLID
  5
13D
330
138
100
AcDbEntity
  8
BEMASSUNG
  6
Continuous
 62
     2
440
 16777216
100
AcDbTrace
 10
28.54415277465831
 20
292.6176662535117
 30
0.0
 11
29.87748610799165
 21
292.6176662535117
 31
0.0
 12
29.21081944132498
 22
288.6176662535117
 32
0.0
 13
29.21081944132498
 23
288.6176662535117
 33
0.0
  0
SOLID
  5
13E
330
138
100
AcDbEntity
  8
BEMASSUNG
  6
Continuous
 62
     2
440
 16777216
100
AcDbTrace
 10
28.54415277465832
 20
319.6176662535118
 30
0.0
 11
29.87748610799166
 21
319.6176662535118
 31
0.0
 12
29.21081944132499
 22
323.6176662535118
 32
0.0
 13
29.21081944132499
 23
323.6176662535118
 33
0.0
  0
MTEXT
  5
13F
330
138
100
AcDbEntity
  8
BEMASSUNG
  6
Continuous
 62
     3
440
 16777216
100
AcDbMText
 10
25.98834331581334
 20
306.1176662535117
 30
0.0
 40
4.349999999999999
 41
0.0
 46
0.0
 71
     5
 72
     1
  1
\A1;35
  7
ARIAL-STANDARD
 11
0.0000000000000001
 21
1.0
 31
0.0
 73
     1
 44
1.0
  0
POINT
  5
140
330
138
100
AcDbEntity
  8
DEFPOINTS
  6
Continuous
 62
     0
440
 16777216
100
AcDbPoint
 10
56.42242998026453
 20
288.6176662535117
 30
0.0
  0
POINT
  5
141
330
138
100
AcDbEntity
  8
DEFPOINTS
  6
Continuous
 62
     0
440
 16777216
100
AcDbPoint
 10
56.42242998026453
 20
323.6176662535118
 30
0.0
  0
POINT
  5
142
330
138
100
AcDbEntity
  8
DEFPOINTS
  6
Continuous
 62
     0
440
 16777216
100
AcDbPoint
 10
29.21081944132499
 20
323.6176662535118
 30
0.0
  0
ENDBLK
  5
143
330
138
100
AcDbEntity
  8
0
100
AcDbBlockEnd
  0
BLOCK
  5
12C
330
12B
100
AcDbEntity
  8
0
100
AcDbBlockBegin
  2
*D11
 70
     1
 10
0.0
 20
0.0
 30
0.0
  3
*D11
  1

  0
LINE
  5
12D
330
12B
100
AcDbEntity
  8
BEMASSUNG
  6
Continuous
 62
     2
440
 16777216
370
    -2
100
AcDbLine
 10
78.42242998026444
 20
242.6176662535118
 30
0.0
 11
43.30242998026454
 21
242.6176662535118
 31
0.0
  0
LINE
  5
12E
330
12B
100
AcDbEntity
  8
BEMASSUNG
  6
Continuous
 62
     2
440
 16777216
370
    -2
100
AcDbLine
 10
56.42242998026453
 20
288.6176662535117
 30
0.0
 11
43.30242998026455
 21
288.6176662535117
 31
0.0
  0
LINE
  5
12F
330
12B
100
AcDbEntity
  8
BEMASSUNG
  6
Continuous
 62
     2
440
 16777216
370
    -2
100
AcDbLine
 10
44.30242998026454
 20
246.6176662535118
 30
0.0
 11
44.30242998026455
 21
284.6176662535117
 31
0.0
  0
SOLID
  5
130
330
12B
100
AcDbEntity
  8
BEMASSUNG
  6
Continuous
 62
     2
440
 16777216
100
AcDbTrace
 10
43.63576331359787
 20
246.6176662535118
 30
0.0
 11
44.9690966469312
 21
246.6176662535118
 31
0.0
 12
44.30242998026454
 22
242.6176662535118
 32
0.0
 13
44.30242998026454
 23
242.6176662535118
 33
0.0
  0
SOLID
  5
131
330
12B
100
AcDbEntity
  8
BEMASSUNG
  6
Continuous
 62
     2
440
 16777216
100
AcDbTrace
 10
43.63576331359788
 20
284.6176662535117
 30
0.0
 11
44.96909664693121
 21
284.6176662535117
 31
0.0
 12
44.30242998026455
 22
288.6176662535117
 32
0.0
 13
44.30242998026455
 23
288.6176662535117
 33
0.0
  0
MTEXT
  5
132
330
12B
100
AcDbEntity
  8
BEMASSUNG
  6
Continuous
 62
     3
440
 16777216
100
AcDbMText
 10
41.08143748367513
 20
265.6176662535117
 30
0.0
 40
4.349999999999999
 41
0.0
 46
0.0
 71
     5
 72
     1
  1
\A1;46
  7
ARIAL-STANDARD
 11
0.0000000000000001
 21
1.0
 31
0.0
 73
     1
 44
1.0
  0
POINT
  5
133
330
12B
100
AcDbEntity
  8
DEFPOINTS
  6
Continuous
 62
     0
440
 16777216
100
AcDbPoint
 10
78.42242998026444
 20
242.6176662535118
 30
0.0
  0
POINT
  5
134
330
12B
100
AcDbEntity
  8
DEFPOINTS
  6
Continuous
 62
     0
440
 16777216
100
AcDbPoint
 10
56.42242998026453
 20
288.6176662535117
 30
0.0
  0
POINT
  5
135
330
12B
100
AcDbEntity
  8
DEFPOINTS
  6
Continuous
 62
     0
440
 16777216
100
AcDbPoint
 10
44.30242998026455
 20
288.6176662535117
 30
0.0
  0
ENDBLK
  5
136
330
12B
100
AcDbEntity
  8
0
100
AcDbBlockEnd
  0
BLOCK
  5
11E
330
11D
100
AcDbEntity
  8
0
100
AcDbBlockBegin
  2
*D12
 70
     1
 10
0.0
 20
0.0
 30
0.0
  3
*D12
  1

  0
LINE
  5
11F
330
11D
100
AcDbEntity
  8
BEMASSUNG
  6
Continuous
 62
     2
440
 16777216
370
    -2
100
AcDbLine
 10
55.42242998026453
 20
289.117666253512
 30
0.0
 11
55.42242998026453
 21
271.2795535476003
 31
0.0
  0
LINE
  5
120
330
11D
100
AcDbEntity
  8
BEMASSUNG
  6
Continuous
 62
     2
440
 16777216
370
    -2
100
AcDbLine
 10
75.42242998026444
 20
272.6987076227272
 30
0.0
 11
75.42242998026444
 21
271.2795535476003
 31
0.0
  0
LINE
  5
121
330
11D
100
AcDbEntity
  8
BEMASSUNG
  6
Continuous
 62
     2
440
 16777216
370
    -2
100
AcDbLine
 10
59.42242998026453
 20
272.2795535476003
 30
0.0
 11
71.42242998026444
 21
272.2795535476003
 31
0.0
  0
SOLID
  5
122
330
11D
100
AcDbEntity
  8
BEMASSUNG
  6
Continuous
 62
     2
440
 16777216
100
AcDbTrace
 10
59.42242998026453
 20
272.946220214267
 30
0.0
 11
59.42242998026453
 21
271.6128868809336
 31
0.0
 12
55.42242998026453
 22
272.2795535476003
 32
0.0
 13
55.42242998026453
 23
272.2795535476003
 33
0.0
  0
SOLID
  5
123
330
11D
100
AcDbEntity
  8
BEMASSUNG
  6
Continuous
 62
     2
440
 16777216
100
AcDbTrace
 10
71.42242998026444
 20
272.946220214267
 30
0.0
 11
71.42242998026444
 21
271.6128868809336
 31
0.0
 12
75.42242998026444
 22
272.2795535476003
 32
0.0
 13
75.42242998026444
 23
272.2795535476003
 33
0.0
  0
MTEXT
  5
124
330
11D
100
AcDbEntity
  8
BEMASSUNG
  6
Continuous
 62
     3
440
 16777216
100
AcDbMText
 10
65.42242998026448
 20
275.5005460441897
 30
0.0
 40
4.349999999999999
 41
0.0
 46
0.0
 71
     5
 72
     1
  1
\A1;20
  7
ARIAL-STANDARD
 73
     1
 44
1.0
  0
POINT
  5
125
330
11D
100
AcDbEntity
  8
DEFPOINTS
  6
Continuous
 62
     0
440
 16777216
100
AcDbPoint
 10
55.42242998026453
 20
289.117666253512
 30
0.0
  0
POINT
  5
126
330
11D
100
AcDbEntity
  8
DEFPOINTS
  6
Continuous
 62
     0
440
 16777216
100
AcDbPoint
 10
75.42242998026444
 20
272.6987076227272
 30
0.0
  0
POINT
  5
127
330
11D
100
AcDbEntity
  8
DEFPOINTS
  6
Continuous
 62
     0
440
 16777216
100
AcDbPoint
 10
75.42242998026444
 20
272.2795535476003
 30
0.0
  0
ENDBLK
  5
128
330
11D
100
AcDbEntity
  8
0
100
AcDbBlockEnd
  0
BLOCK
  5
108
330
107
100
AcDbEntity
  8
0
100
AcDbBlockBegin
  2
*D13
 70
     1
 10
0.0
 20
0.0
 30
0.0
  3
*D13
  1

  0
LINE
  5
109
330
107
100
AcDbEntity
  8
BEMASSUNG
  6
Continuous
 62
     2
440
 16777216
370
    -2
100
AcDbLine
 10
190.4544542250237
 20
207.6176662535118
 30
0.0
 11
179.8657526454399
 21
207.6176662535118
 31
0.0
  0
LINE
  5
10A
330
107
100
AcDbEntity
  8
BEMASSUNG
  6
Continuous
 62
     2
440
 16777216
370
    -2
100
AcDbLine
 10
195.7044542250237
 20
220.6176662535118
 30
0.0
 11
179.8657526454399
 21
220.6176662535118
 31
0.0
  0
LINE
  5
10B
330
107
100
AcDbEntity
  8
BEMASSUNG
  6
Continuous
 62
     2
440
 16777216
370
    -2
100
AcDbLine
 10
180.8657526454399
 20
211.6176662535118
 30
0.0
 11
180.8657526454399
 21
216.6176662535118
 31
0.0
  0
SOLID
  5
10C
330
107
100
AcDbEntity
  8
BEMASSUNG
  6
Continuous
 62
     2
440
 16777216
100
AcDbTrace
 10
180.1990859787733
 20
211.6176662535118
 30
0.0
 11
181.5324193121066
 21
211.6176662535118
 31
0.0
 12
180.8657526454399
 22
207.6176662535118
 32
0.0
 13
180.8657526454399
 23
207.6176662535118
 33
0.0
  0
SOLID
  5
10D
330
107
100
AcDbEntity
  8
BEMASSUNG
  6
Continuous
 62
     2
440
 16777216
100
AcDbTrace
 10
180.1990859787733
 20
216.6176662535118
 30
0.0
 11
181.5324193121066
 21
216.6176662535118
 31
0.0
 12
180.8657526454399
 22
220.6176662535118
 32
0.0
 13
180.8657526454399
 23
220.6176662535118
 33
0.0
  0
MTEXT
  5
10E
330
107
100
AcDbEntity
  8
BEMASSUNG
  6
Continuous
 62
     3
440
 16777216
100
AcDbMText
 10
177.6432765199283
 20
214.1176662535118
 30
0.0
 40
4.349999999999999
 41
0.0
 46
0.0
 71
     5
 72
     1
  1
\A1;13
  7
ARIAL-STANDARD
 11
0.0000000000000001
 21
1.0
 31
0.0
 73
     1
 44
1.0
  0
POINT
  5
10F
330
107
100
AcDbEntity
  8
DEFPOINTS
  6
Continuous
 62
     0
440
 16777216
100
AcDbPoint
 10
190.4544542250237
 20
207.6176662535118
 30
0.0
  0
POINT
  5
110
330
107
100
AcDbEntity
  8
DEFPOINTS
  6
Continuous
 62
     0
440
 16777216
100
AcDbPoint
 10
195.7044542250237
 20
220.6176662535118
 30
0.0
  0
POINT
  5
111
330
107
100
AcDbEntity
  8
DEFPOINTS
  6
Continuous
 62
     0
440
 16777216
100
AcDbPoint
 10
180.8657526454399
 20
220.6176662535118
 30
0.0
  0
ENDBLK
  5
112
330
107
100
AcDbEntity
  8
0
100
AcDbBlockEnd
  0
BLOCK
  5
FB
330
FA
100
AcDbEntity
  8
0
100
AcDbBlockBegin
  2
*D14
 70
     1
 10
0.0
 20
0.0
 30
0.0
  3
*D14
  1

  0
LINE
  5
FC
330
FA
100
AcDbEntity
  8
BEMASSUNG
  6
Continuous
 62
     2
440
 16777216
370
    -2
100
AcDbLine
 10
214.4544542250238
 20
207.6176662535118
 30
0.0
 11
232.9134860511881
 21
207.6176662535118
 31
0.0
  0
LINE
  5
FD
330
FA
100
AcDbEntity
  8
BEMASSUNG
  6
Continuous
 62
     2
440
 16777216
370
    -2
100
AcDbLine
 10
214.4544542250242
 20
477.6176662535117
 30
0.0
 11
232.9134860511882
 21
477.6176662535117
 31
0.0
  0
LINE
  5
FE
330
FA
100
AcDbEntity
  8
BEMASSUNG
  6
Continuous
 62
     2
440
 16777216
370
    -2
100
AcDbLine
 10
231.9134860511881
 20
211.6176662535118
 30
0.0
 11
231.9134860511882
 21
473.6176662535117
 31
0.0
  0
SOLID
  5
FF
330
FA
100
AcDbEntity
  8
BEMASSUNG
  6
Continuous
 62
     2
440
 16777216
100
AcDbTrace
 10
231.2468193845214
 20
211.6176662535118
 30
0.0
 11
232.5801527178548
 21
211.6176662535118
 31
0.0
 12
231.9134860511881
 22
207.6176662535118
 32
0.0
 13
231.9134860511881
 23
207.6176662535118
 33
0.0
  0
SOLID
  5
100
330
FA
100
AcDbEntity
  8
BEMASSUNG
  6
Continuous
 62
     2
440
 16777216
100
AcDbTrace
 10
231.2468193845215
 20
473.6176662535117
 30
0.0
 11
232.5801527178548
 21
473.6176662535117
 31
0.0
 12
231.9134860511882
 22
477.6176662535117
 32
0.0
 13
231.9134860511882
 23
477.6176662535117
 33
0.0
  0
MTEXT
  5
101
330
FA
100
AcDbEntity
  8
BEMASSUNG
  6
Continuous
 62
     3
440
 16777216
100
AcDbMText
 10
228.6924935545987
 20
342.6176662535119
 30
0.0
 40
4.349999999999999
 41
0.0
 46
0.0
 71
     5
 72
     1
  1
\A1;270
  7
ARIAL-STANDARD
 11
0.0000000000000001
 21
1.0
 31
0.0
 73
     1
 44
1.0
  0
POINT
  5
102
330
FA
100
AcDbEntity
  8
DEFPOINTS
  6
Continuous
 62
     0
440
 16777216
100
AcDbPoint
 10
214.4544542250238
 20
207.6176662535118
 30
0.0
  0
POINT
  5
103
330
FA
100
AcDbEntity
  8
DEFPOINTS
  6
Continuous
 62
     0
440
 16777216
100
AcDbPoint
 10
214.4544542250242
 20
477.6176662535117
 30
0.0
  0
POINT
  5
104
330
FA
100
AcDbEntity
  8
DEFPOINTS
  6
Continuous
 62
     0
440
 16777216
100
AcDbPoint
 10
231.9134860511882
 20
477.6176662535117
 30
0.0
  0
ENDBLK
  5
105
330
FA
100
AcDbEntity
  8
0
100
AcDbBlockEnd
  0
BLOCK
  5
EE
330
ED
100
AcDbEntity
  8
0
100
AcDbBlockBegin
  2
*D15
 70
     1
 10
0.0
 20
0.0
 30
0.0
  3
*D15
  1

  0
LINE
  5
EF
330
ED
100
AcDbEntity
  8
BEMASSUNG
  6
Continuous
 62
     2
440
 16777216
370
    -2
100
AcDbLine
 10
120.9224299802644
 20
150.0259418207177
 30
0.0
 11
134.5758131057418
 21
150.0259418207177
 31
0.0
  0
LINE
  5
F0
330
ED
100
AcDbEntity
  8
BEMASSUNG
  6
Continuous
 62
     2
440
 16777216
370
    -2
100
AcDbLine
 10
120.9224299802644
 20
167.8259418207171
 30
0.0
 11
134.5758131057418
 21
167.8259418207171
 31
0.0
  0
LINE
  5
F1
330
ED
100
AcDbEntity
  8
BEMASSUNG
  6
Continuous
 62
     2
440
 16777216
370
    -2
100
AcDbLine
 10
133.5758131057418
 20
154.0259418207177
 30
0.0
 11
133.5758131057418
 21
163.8259418207171
 31
0.0
  0
SOLID
  5
F2
330
ED
100
AcDbEntity
  8
BEMASSUNG
  6
Continuous
 62
     2
440
 16777216
100
AcDbTrace
 10
132.9091464390752
 20
154.0259418207177
 30
0.0
 11
134.2424797724085
 21
154.0259418207177
 31
0.0
 12
133.5758131057418
 22
150.0259418207177
 32
0.0
 13
133.5758131057418
 23
150.0259418207177
 33
0.0
  0
SOLID
  5
F3
330
ED
100
AcDbEntity
  8
BEMASSUNG
  6
Continuous
 62
     2
440
 16777216
100
AcDbTrace
 10
132.9091464390752
 20
163.8259418207171
 30
0.0
 11
134.2424797724085
 21
163.8259418207171
 31
0.0
 12
133.5758131057418
 22
167.8259418207171
 32
0.0
 13
133.5758131057418
 23
167.8259418207171
 33
0.0
  0
MTEXT
  5
F4
330
ED
100
AcDbEntity
  8
BEMASSUNG
  6
Continuous
 62
     3
440
 16777216
100
AcDbMText
 10
130.3548206091525
 20
158.9259418207174
 30
0.0
 40
4.349999999999999
 41
0.0
 46
0.0
 71
     5
 72
     1
  1
\A1;17.8
  7
ARIAL-STANDARD
 11
0.0000000000000001
 21
1.0
 31
0.0
 73
     1
 44
1.0
  0
POINT
  5
F5
330
ED
100
AcDbEntity
  8
DEFPOINTS
  6
Continuous
 62
     0
440
 16777216
100
AcDbPoint
 10
120.9224299802644
 20
150.0259418207177
 30
0.0
  0
POINT
  5
F6
330
ED
100
AcDbEntity
  8
DEFPOINTS
  6
Continuous
 62
     0
440
 16777216
100
AcDbPoint
 10
120.9224299802644
 20
167.8259418207171
 30
0.0
  0
POINT
  5
F7
330
ED
100
AcDbEntity
  8
DEFPOINTS
  6
Continuous
 62
     0
440
 16777216
100
AcDbPoint
 10
133.5758131057418
 20
167.8259418207171
 30
0.0
  0
ENDBLK
  5
F8
330
ED
100
AcDbEntity
  8
0
100
AcDbBlockEnd
  0
BLOCK
  5
E1
330
E0
100
AcDbEntity
  8
0
100
AcDbBlockBegin
  2
*D16
 70
     1
 10
0.0
 20
0.0
 30
0.0
  3
*D16
  1

  0
LINE
  5
E2
330
E0
100
AcDbEntity
  8
BEMASSUNG
  6
Continuous
 62
     2
440
 16777216
370
    -2
100
AcDbLine
 10
190.4544542250237
 20
207.6176662535118
 30
0.0
 11
190.4544542250237
 21
183.0634060868663
 31
0.0
  0
LINE
  5
E3
330
E0
100
AcDbEntity
  8
BEMASSUNG
  6
Continuous
 62
     2
440
 16777216
370
    -2
100
AcDbLine
 10
214.4544542250238
 20
207.6176662535118
 30
0.0
 11
214.4544542250238
 21
183.0634060868663
 31
0.0
  0
LINE
  5
E4
330
E0
100
AcDbEntity
  8
BEMASSUNG
  6
Continuous
 62
     2
440
 16777216
370
    -2
100
AcDbLine
 10
194.4544542250237
 20
184.0634060868663
 30
0.0
 11
210.4544542250238
 21
184.0634060868663
 31
0.0
  0
SOLID
  5
E5
330
E0
100
AcDbEntity
  8
BEMASSUNG
  6
Continuous
 62
     2
440
 16777216
100
AcDbTrace
 10
194.4544542250237
 20
184.730072753533
 30
0.0
 11
194.4544542250237
 21
183.3967394201996
 31
0.0
 12
190.4544542250237
 22
184.0634060868663
 32
0.0
 13
190.4544542250237
 23
184.0634060868663
 33
0.0
  0
SOLID
  5
E6
330
E0
100
AcDbEntity
  8
BEMASSUNG
  6
Continuous
 62
     2
440
 16777216
100
AcDbTrace
 10
210.4544542250238
 20
184.730072753533
 30
0.0
 11
210.4544542250238
 21
183.3967394201996
 31
0.0
 12
214.4544542250238
 22
184.0634060868663
 32
0.0
 13
214.4544542250238
 23
184.0634060868663
 33
0.0
  0
MTEXT
  5
E7
330
E0
100
AcDbEntity
  8
BEMASSUNG
  6
Continuous
 62
     3
440
 16777216
100
AcDbMText
 10
202.4544542250238
 20
187.2473078603997
 30
0.0
 40
4.349999999999999
 41
0.0
 46
0.0
 71
     5
 72
     1
  1
\A1;24
  7
ARIAL-STANDARD
 73
     1
 44
1.0
  0
POINT
  5
E8
330
E0
100
AcDbEntity
  8
DEFPOINTS
  6
Continuous
 62
     0
440
 16777216
100
AcDbPoint
 10
190.4544542250237
 20
207.6176662535118
 30
0.0
  0
POINT
  5
E9
330
E0
100
AcDbEntity
  8
DEFPOINTS
  6
Continuous
 62
     0
440
 16777216
100
AcDbPoint
 10
214.4544542250238
 20
207.6176662535118
 30
0.0
  0
POINT
  5
EA
330
E0
100
AcDbEntity
  8
DEFPOINTS
  6
Continuous
 62
     0
440
 16777216
100
AcDbPoint
 10
214.4544542250238
 20
184.0634060868663
 30
0.0
  0
ENDBLK
  5
EB
330
E0
100
AcDbEntity
  8
0
100
AcDbBlockEnd
  0
BLOCK
  5
D4
330
D3
100
AcDbEntity
  8
0
100
AcDbBlockBegin
  2
*D17
 70
     1
 10
0.0
 20
0.0
 30
0.0
  3
*D17
  1

  0
LINE
  5
D5
330
D3
100
AcDbEntity
  8
BEMASSUNG
  6
Continuous
 62
     2
440
 16777216
370
    -2
100
AcDbLine
 10
195.5544542250241
 20
403.9676662535115
 30
0.0
 11
195.5544542250241
 21
439.0687860006964
 31
0.0
  0
LINE
  5
D6
330
D3
100
AcDbEntity
  8
BEMASSUNG
  6
Continuous
 62
     2
440
 16777216
370
    -2
100
AcDbLine
 10
209.3544542250239
 20
403.9676662535115
 30
0.0
 11
209.3544542250239
 21
439.0687860006964
 31
0.0
  0
LINE
  5
D7
330
D3
100
AcDbEntity
  8
BEMASSUNG
  6
Continuous
 62
     2
440
 16777216
370
    -2
100
AcDbLine
 10
199.5544542250241
 20
438.0687860006965
 30
0.0
 11
205.3544542250238
 21
438.0687860006965
 31
0.0
  0
SOLID
  5
D8
330
D3
100
AcDbEntity
  8
BEMASSUNG
  6
Continuous
 62
     2
440
 16777216
100
AcDbTrace
 10
199.5544542250241
 20
438.7354526673632
 30
0.0
 11
199.5544542250241
 21
437.4021193340298
 31
0.0
 12
195.5544542250241
 22
438.0687860006965
 32
0.0
 13
195.5544542250241
 23
438.0687860006965
 33
0.0
  0
SOLID
  5
D9
330
D3
100
AcDbEntity
  8
BEMASSUNG
  6
Continuous
 62
     2
440
 16777216
100
AcDbTrace
 10
205.3544542250238
 20
438.7354526673632
 30
0.0
 11
205.3544542250238
 21
437.4021193340298
 31
0.0
 12
209.3544542250239
 22
438.0687860006965
 32
0.0
 13
209.3544542250239
 23
438.0687860006965
 33
0.0
  0
MTEXT
  5
DA
330
D3
100
AcDbEntity
  8
BEMASSUNG
  6
Continuous
 62
     3
440
 16777216
100
AcDbMText
 10
202.454454225024
 20
441.2912621262081
 30
0.0
 40
4.349999999999999
 41
0.0
 46
0.0
 71
     5
 72
     1
  1
\A1;13.8
  7
ARIAL-STANDARD
 73
     1
 44
1.0
  0
POINT
  5
DB
330
D3
100
AcDbEntity
  8
DEFPOINTS
  6
Continuous
 62
     0
440
 16777216
100
AcDbPoint
 10
195.5544542250241
 20
403.9676662535115
 30
0.0
  0
POINT
  5
DC
330
D3
100
AcDbEntity
  8
DEFPOINTS
  6
Continuous
 62
     0
440
 16777216
100
AcDbPoint
 10
209.3544542250239
 20
403.9676662535115
 30
0.0
  0
POINT
  5
DD
330
D3
100
AcDbEntity
  8
DEFPOINTS
  6
Continuous
 62
     0
440
 16777216
100
AcDbPoint
 10
209.3544542250239
 20
438.0687860006965
 30
0.0
  0
ENDBLK
  5
DE
330
D3
100
AcDbEntity
  8
0
100
AcDbBlockEnd
  0
BLOCK
  5
C5
330
C4
100
AcDbEntity
  8
0
100
AcDbBlockBegin
  2
*D18
 70
     1
 10
0.0
 20
0.0
 30
0.0
  3
*D18
  1

  0
LINE
  5
C6
330
C4
100
AcDbEntity
  8
BEMASSUNG
  6
Continuous
 62
     2
440
 16777216
370
    -2
100
AcDbLine
 10
198.4544542250179
 20
322.6176662535118
 30
0.0
 11
198.4544542250179
 21
340.3631276169412
 31
0.0
  0
LINE
  5
C7
330
C4
100
AcDbEntity
  8
BEMASSUNG
  6
Continuous
 62
     2
440
 16777216
370
    -2
100
AcDbLine
 10
206.4544542250247
 20
322.6176662535114
 30
0.0
 11
206.4544542250247
 21
340.3631276169412
 31
0.0
  0
LINE
  5
C8
330
C4
100
AcDbEntity
  8
BEMASSUNG
  6
Continuous
 62
     2
440
 16777216
370
    -2
100
AcDbLine
 10
194.4544542250179
 20
339.3631276169412
 30
0.0
 11
190.4544542250179
 21
339.3631276169412
 31
0.0
  0
LINE
  5
C9
330
C4
100
AcDbEntity
  8
BEMASSUNG
  6
Continuous
 62
     2
440
 16777216
370
    -2
100
AcDbLine
 10
210.4544542250248
 20
339.3631276169412
 30
0.0
 11
214.4544542250248
 21
339.3631276169412
 31
0.0
  0
LINE
  5
CA
330
C4
100
AcDbEntity
  8
BEMASSUNG
  6
Continuous
 62
     2
440
 16777216
370
    -2
100
AcDbLine
 10
198.4544542250179
 20
339.3631276169412
 30
0.0
 11
206.4544542250247
 21
339.3631276169412
 31
0.0
  0
SOLID
  5
CB
330
C4
100
AcDbEntity
  8
BEMASSUNG
  6
Continuous
 62
     2
440
 16777216
100
AcDbTrace
 10
194.4544542250179
 20
340.0297942836079
 30
0.0
 11
194.4544542250179
 21
338.6964609502745
 31
0.0
 12
198.4544542250179
 22
339.3631276169412
 32
0.0
 13
198.4544542250179
 23
339.3631276169412
 33
0.0
  0
SOLID
  5
CC
330
C4
100
AcDbEntity
  8
BEMASSUNG
  6
Continuous
 62
     2
440
 16777216
100
AcDbTrace
 10
210.4544542250248
 20
340.0297942836079
 30
0.0
 11
210.4544542250248
 21
338.6964609502745
 31
0.0
 12
206.4544542250247
 22
339.3631276169412
 32
0.0
 13
206.4544542250247
 23
339.3631276169412
 33
0.0
  0
MTEXT
  5
CD
330
C4
100
AcDbEntity
  8
BEMASSUNG
  6
Continuous
 62
     3
440
 16777216
100
AcDbMText
 10
202.4544542250213
 20
342.5841201135306
 30
0.0
 40
4.349999999999999
 41
0.0
 46
0.0
 71
     5
 72
     1
  1
\A1;8
  7
ARIAL-STANDARD
 73
     1
 44
1.0
  0
POINT
  5
CE
330
C4
100
AcDbEntity
  8
DEFPOINTS
  6
Continuous
 62
     0
440
 16777216
100
AcDbPoint
 10
198.4544542250179
 20
322.6176662535118
 30
0.0
  0
POINT
  5
CF
330
C4
100
AcDbEntity
  8
DEFPOINTS
  6
Continuous
 62
     0
440
 16777216
100
AcDbPoint
 10
206.4544542250247
 20
322.6176662535114
 30
0.0
  0
POINT
  5
D0
330
C4
100
AcDbEntity
  8
DEFPOINTS
  6
Continuous
 62
     0
440
 16777216
100
AcDbPoint
 10
206.4544542250247
 20
339.3631276169412
 30
0.0
  0
ENDBLK
  5
D1
330
C4
100
AcDbEntity
  8
0
100
AcDbBlockEnd
  0
BLOCK
  5
B8
330
B7
100
AcDbEntity
  8
0
100
AcDbBlockBegin
  2
*D19
 70
     1
 10
0.0
 20
0.0
 30
0.0
  3
*D19
  1

  0
LINE
  5
B9
330
B7
100
AcDbEntity
  8
BEMASSUNG
  6
Continuous
 62
     2
440
 16777216
370
    -2
100
AcDbLine
 10
195.7044542250245
 20
464.6176662535118
 30
0.0
 11
179.8657526454399
 21
464.6176662535118
 31
0.0
  0
LINE
  5
BA
330
B7
100
AcDbEntity
  8
BEMASSUNG
  6
Continuous
 62
     2
440
 16777216
370
    -2
100
AcDbLine
 10
190.4544542250237
 20
477.6176662535117
 30
0.0
 11
179.8657526454399
 21
477.6176662535117
 31
0.0
  0
LINE
  5
BB
330
B7
100
AcDbEntity
  8
BEMASSUNG
  6
Continuous
 62
     2
440
 16777216
370
    -2
100
AcDbLine
 10
180.8657526454399
 20
468.6176662535118
 30
0.0
 11
180.8657526454399
 21
473.6176662535117
 31
0.0
  0
SOLID
  5
BC
330
B7
100
AcDbEntity
  8
BEMASSUNG
  6
Continuous
 62
     2
440
 16777216
100
AcDbTrace
 10
180.1990859787733
 20
468.6176662535118
 30
0.0
 11
181.5324193121066
 21
468.6176662535118
 31
0.0
 12
180.8657526454399
 22
464.6176662535118
 32
0.0
 13
180.8657526454399
 23
464.6176662535118
 33
0.0
  0
SOLID
  5
BD
330
B7
100
AcDbEntity
  8
BEMASSUNG
  6
Continuous
 62
     2
440
 16777216
100
AcDbTrace
 10
180.1990859787733
 20
473.6176662535117
 30
0.0
 11
181.5324193121066
 21
473.6176662535117
 31
0.0
 12
180.8657526454399
 22
477.6176662535117
 32
0.0
 13
180.8657526454399
 23
477.6176662535117
 33
0.0
  0
MTEXT
  5
BE
330
B7
100
AcDbEntity
  8
BEMASSUNG
  6
Continuous
 62
     3
440
 16777216
100
AcDbMText
 10
177.6432765199282
 20
471.1176662535118
 30
0.0
 40
4.349999999999999
 41
0.0
 46
0.0
 71
     5
 72
     1
  1
\A1;13
  7
ARIAL-STANDARD
 11
0.0000000000000001
 21
1.0
 31
0.0
 73
     1
 44
1.0
  0
POINT
  5
BF
330
B7
100
AcDbEntity
  8
DEFPOINTS
  6
Continuous
 62
     0
440
 16777216
100
AcDbPoint
 10
195.7044542250245
 20
464.6176662535118
 30
0.0
  0
POINT
  5
C0
330
B7
100
AcDbEntity
  8
DEFPOINTS
  6
Continuous
 62
     0
440
 16777216
100
AcDbPoint
 10
190.4544542250237
 20
477.6176662535117
 30
0.0
  0
POINT
  5
C1
330
B7
100
AcDbEntity
  8
DEFPOINTS
  6
Continuous
 62
     0
440
 16777216
100
AcDbPoint
 10
180.8657526454399
 20
477.6176662535117
 30
0.0
  0
ENDBLK
  5
C2
330
B7
100
AcDbEntity
  8
0
100
AcDbBlockEnd
  0
BLOCK
  5
A1
330
A0
100
AcDbEntity
  8
0
100
AcDbBlockBegin
  2
*D20
 70
     1
 10
0.0
 20
0.0
 30
0.0
  3
*D20
  1

  0
LINE
  5
A2
330
A0
100
AcDbEntity
  8
BEMASSUNG
  6
Continuous
 62
     2
440
 16777216
370
    -2
100
AcDbLine
 10
64.08813064548249
 20
421.1176662535118
 30
0.0
 11
28.28166398684333
 21
421.1176662535118
 31
0.0
  0
LINE
  5
A3
330
A0
100
AcDbEntity
  8
BEMASSUNG
  6
Continuous
 62
     2
440
 16777216
370
    -2
100
AcDbLine
 10
75.42242998026438
 20
477.6176662535117
 30
0.0
 11
28.28166398684335
 21
477.6176662535117
 31
0.0
  0
LINE
  5
A4
330
A0
100
AcDbEntity
  8
BEMASSUNG
  6
Continuous
 62
     2
440
 16777216
370
    -2
100
AcDbLine
 10
29.28166398684334
 20
425.1176662535118
 30
0.0
 11
29.28166398684335
 21
473.6176662535117
 31
0.0
  0
SOLID
  5
A5
330
A0
100
AcDbEntity
  8
BEMASSUNG
  6
Continuous
 62
     2
440
 16777216
100
AcDbTrace
 10
28.61499732017667
 20
425.1176662535118
 30
0.0
 11
29.94833065351001
 21
425.1176662535118
 31
0.0
 12
29.28166398684334
 22
421.1176662535118
 32
0.0
 13
29.28166398684334
 23
421.1176662535118
 33
0.0
  0
SOLID
  5
A6
330
A0
100
AcDbEntity
  8
BEMASSUNG
  6
Continuous
 62
     2
440
 16777216
100
AcDbTrace
 10
28.61499732017668
 20
473.6176662535117
 30
0.0
 11
29.94833065351002
 21
473.6176662535117
 31
0.0
 12
29.28166398684335
 22
477.6176662535117
 32
0.0
 13
29.28166398684335
 23
477.6176662535117
 33
0.0
  0
MTEXT
  5
A7
330
A0
100
AcDbEntity
  8
BEMASSUNG
  6
Continuous
 62
     3
440
 16777216
100
AcDbMText
 10
26.06067149025391
 20
449.3676662535118
 30
0.0
 40
4.349999999999999
 41
0.0
 46
0.0
 71
     5
 72
     1
  1
\A1;56.5
  7
ARIAL-STANDARD
 11
0.0000000000000001
 21
1.0
 31
0.0
 73
     1
 44
1.0
  0
POINT
  5
A8
330
A0
100
AcDbEntity
  8
DEFPOINTS
  6
Continuous
 62
     0
440
 16777216
100
AcDbPoint
 10
64.08813064548249
 20
421.1176662535118
 30
0.0
  0
POINT
  5
A9
330
A0
100
AcDbEntity
  8
DEFPOINTS
  6
Continuous
 62
     0
440
 16777216
100
AcDbPoint
 10
75.42242998026438
 20
477.6176662535117
 30
0.0
  0
POINT
  5
AA
330
A0
100
AcDbEntity
  8
DEFPOINTS
  6
Continuous
 62
     0
440
 16777216
100
AcDbPoint
 10
29.28166398684335
 20
477.6176662535117
 30
0.0
  0
ENDBLK
  5
AB
330
A0
100
AcDbEntity
  8
0
100
AcDbBlockEnd
  0
BLOCK
  5
75
330
74
100
AcDbEntity
  8
0
100
AcDbBlockBegin
  2
*D21
 70
     1
 10
0.0
 20
0.0
 30
0.0
  3
*D21
  1

  0
LINE
  5
76
330
74
100
AcDbEntity
  8
ACHSEN
 62
     2
440
 16777216
370
    -2
100
AcDbLine
 10
81.42242998026437
 20
170.9259418207309
 30
0.0
 11
81.42242998026437
 21
179.2330285770533
 31
0.0
  0
LINE
  5
77
330
74
100
AcDbEntity
  8
ACHSEN
 62
     2
440
 16777216
370
    -2
100
AcDbLine
 10
75.42242998026438
 20
168.9259418207308
 30
0.0
 11
75.42242998026438
 21
179.2330285770533
 31
0.0
  0
LINE
  5
78
330
74
100
AcDbEntity
  8
ACHSEN
 62
     2
440
 16777216
370
    -2
100
AcDbLine
 10
85.42242998026438
 20
178.2330285770533
 30
0.0
 11
89.42242998026438
 21
178.2330285770533
 31
0.0
  0
LINE
  5
79
330
74
100
AcDbEntity
  8
ACHSEN
 62
     2
440
 16777216
370
    -2
100
AcDbLine
 10
71.42242998026438
 20
178.2330285770533
 30
0.0
 11
67.42242998026438
 21
178.2330285770533
 31
0.0
  0
LINE
  5
7A
330
74
100
AcDbEntity
  8
ACHSEN
 62
     2
440
 16777216
370
    -2
100
AcDbLine
 10
81.42242998026437
 20
178.2330285770533
 30
0.0
 11
75.42242998026438
 21
178.2330285770533
 31
0.0
  0
SOLID
  5
7B
330
74
100
AcDbEntity
  8
ACHSEN
 62
     2
440
 16777216
100
AcDbTrace
 10
85.42242998026438
 20
178.89969524372
 30
0.0
 11
85.42242998026438
 21
177.5663619103867
 31
0.0
 12
81.42242998026437
 22
178.2330285770533
 32
0.0
 13
81.42242998026437
 23
178.2330285770533
 33
0.0
  0
SOLID
  5
7C
330
74
100
AcDbEntity
  8
ACHSEN
 62
     2
440
 16777216
100
AcDbTrace
 10
71.42242998026438
 20
178.89969524372
 30
0.0
 11
71.42242998026438
 21
177.5663619103867
 31
0.0
 12
75.42242998026438
 22
178.2330285770533
 32
0.0
 13
75.42242998026438
 23
178.2330285770533
 33
0.0
  0
MTEXT
  5
7D
330
74
100
AcDbEntity
  8
ACHSEN
 62
     3
440
 16777216
100
AcDbMText
 10
78.42242998026438
 20
181.4540210736427
 30
0.0
 40
4.349999999999999
 41
0.0
 46
0.0
 71
     5
 72
     1
  1
\A1;6
  7
ARIAL-STANDARD
 73
     1
 44
1.0
  0
POINT
  5
7E
330
74
100
AcDbEntity
  8
DEFPOINTS
 62
     0
440
 16777216
100
AcDbPoint
 10
81.42242998026437
 20
170.9259418207309
 30
0.0
  0
POINT
  5
80
330
74
100
AcDbEntity
  8
DEFPOINTS
 62
     0
440
 16777216
100
AcDbPoint
 10
75.42242998026438
 20
168.9259418207308
 30
0.0
  0
POINT
  5
81
330
74
100
AcDbEntity
  8
DEFPOINTS
 62
     0
440
 16777216
100
AcDbPoint
 10
75.42242998026438
 20
178.2330285770533
 30
0.0
  0
ENDBLK
  5
82
330
74
100
AcDbEntity
  8
0
100
AcDbBlockEnd
  0
BLOCK
  5
786
330
785
100
AcDbEntity
  8
0
100
AcDbBlockBegin
  2
_ACMFILLED15
 70
     0
 10
0.0
 20
0.0
 30
0.0
  3
_ACMFILLED15
  1

  0
TRACE
  5
787
330
785
100
AcDbEntity
  8
ACHSEN
 62
     0
100
AcDbTrace
 10
-1.0
 20
-0.131652497
 30
0.0
 11
-1.0
 21
0.131652497
 31
0.0
 12
0.0
 22
0.0
 32
0.0
 13
0.0
 23
0.0
 33
0.0
  0
ENDBLK
  5
788
330
785
100
AcDbEntity
  8
0
100
AcDbBlockEnd
  0
BLOCK
  5
794
330
793
100
AcDbEntity
  8
0
100
AcDbBlockBegin
  2
_ACMFILLED30
 70
     0
 10
0.0
 20
0.0
 30
0.0
  3
_ACMFILLED30
  1

  0
TRACE
  5
795
330
793
100
AcDbEntity
  8
ACHSEN
 62
     0
100
AcDbTrace
 10
-1.0
 20
-0.26794919
 30
0.0
 11
-1.0
 21
0.26794919
 31
0.0
 12
0.0
 22
0.0
 32
0.0
 13
0.0
 23
0.0
 33
0.0
  0
ENDBLK
  5
796
330
793
100
AcDbEntity
  8
0
100
AcDbBlockEnd
  0
ENDSEC
  0
SECTION
  2
ENTITIES
  0
MTEXT
  5
6F
330
2
100
AcDbEntity
  8
TEXT03
100
AcDbMText
 10
50.98235421613026
 20
532.9985927372973
 30
0.0
 40
12.0
 41
322.7866368530026
 46
0.0
 71
     1
 72
     5
  1
DELTA 19424 U-Stulp
  7
ARIAL-STANDARD
 73
     1
 44
1.0
1001
ACAD
1000
ACAD_MTEXT_COLUMN_INFO_BEGIN
1070
    75
1070
     2
1070
    79
1070
     0
1070
    76
1070
     1
1070
    78
1070
     0
1070
    48
1040
322.7866368530026
1070
    49
1040
50.0
1070
    50
1070
     1
1040
0.0
1000
ACAD_MTEXT_COLUMN_INFO_END
  0
DIMENSION
  5
73
330
2
100
AcDbEntity
  8
ACHSEN
100
AcDbDimension
280
     0
  2
*D21
 10
75.42242998026438
 20
178.2330285770533
 30
0.0
 11
78.42242998026438
 21
181.4540210736427
 31
0.0
 71
     5
 42
6.0
 73
     0
 74
     0
 75
     0
  3
Katalog 09
100
AcDbAlignedDimension
 13
81.42242998026437
 23
170.9259418207309
 33
0.0
 14
75.42242998026438
 24
168.9259418207308
 34
0.0
100
AcDbRotatedDimension
  0
LINE
  5
83
330
2
100
AcDbEntity
  8
AVERDECKTE
100
AcDbLine
 10
212.4544542250242
 20
477.6176662535117
 30
0.0
 11
212.4544542250242
 21
207.6176662535118
 31
0.0
  0
LINE
  5
87
330
2
100
AcDbEntity
  8
AVERDECKTE
100
AcDbLine
 10
192.4544542250242
 20
477.6176662535117
 30
0.0
 11
192.4544542250242
 21
207.6176662535118
 31
0.0
  0
LINE
  5
88
330
2
100
AcDbEntity
  8
UMRISS05
100
AcDbLine
 10
81.42242998026437
 20
148.9259418207309
 30
0.0
 11
81.42242998026437
 21
146.9259418207309
 31
0.0
  0
LINE
  5
8C
330
2
100
AcDbEntity
  8
UMRISS05
100
AcDbLine
 10
81.42242998026437
 20
170.9259418207309
 30
0.0
 11
81.42242998026437
 21
168.9259418207309
 31
0.0
  0
LINE
  5
8D
330
2
100
AcDbEntity
  8
UMRISS05
100
AcDbLine
 10
77.42242998054951
 20
168.9259418207309
 30
0.0
 11
77.42242998054951
 21
148.9259418207309
 31
0.0
  0
ARC
  5
8E
330
2
100
AcDbEntity
  8
UMRISS05
100
AcDbCircle
 10
77.42242998026438
 20
148.9259418207309
 30
0.0
 40
2.0
100
AcDbArc
 50
180.0
 51
270.0
  0
ARC
  5
8F
330
2
100
AcDbEntity
  8
UMRISS05
100
AcDbCircle
 10
77.42242998026438
 20
168.9259418207308
 30
0.0
 40
2.0
100
AcDbArc
 50
90.0
 51
180.0
  0
LINE
  5
90
330
2
100
AcDbEntity
  8
UMRISS05
100
AcDbLine
 10
81.42242998026437
 20
148.9259418207309
 30
0.0
 11
77.42242998054951
 21
148.9259418207309
 31
0.0
  0
LINE
  5
91
330
2
100
AcDbEntity
  8
UMRISS05
100
AcDbLine
 10
81.42242998026437
 20
146.9259418207309
 30
0.0
 11
77.42242998026438
 21
146.9259418207309
 31
0.0
  0
LINE
  5
92
330
2
100
AcDbEntity
  8
UMRISS05
100
AcDbLine
 10
81.42242998026437
 20
168.9259418207309
 30
0.0
 11
77.42242998054951
 21
168.9259418207309
 31
0.0
  0
LINE
  5
93
330
2
100
AcDbEntity
  8
UMRISS05
100
AcDbLine
 10
81.42242998026437
 20
170.9259418207309
 30
0.0
 11
77.42242998026438
 21
170.9259418207308
 31
0.0
  0
LINE
  5
94
330
2
100
AcDbEntity
  8
UMRISS05
100
AcDbLine
 10
78.42242998054951
 20
167.8259418226214
 30
0.0
 11
77.42242998054951
 21
167.8259418226214
 31
0.0
  0
LINE
  5
95
330
2
100
AcDbEntity
  8
UMRISS05
100
AcDbLine
 10
78.42242998054951
 20
150.0259418209303
 30
0.0
 11
77.42242998054951
 21
150.0259418209303
 31
0.0
  0
LINE
  5
96
330
2
100
AcDbEntity
  8
LAYER3
100
AcDbLine
 10
75.42242998026438
 20
168.9259418207308
 30
0.0
 11
75.42242998026438
 21
148.9259418207309
 31
0.0
  0
LINE
  5
9A
330
2
100
AcDbEntity
  8
UMRISS05
100
AcDbLine
 10
81.42242998026487
 20
477.6176662535117
 30
0.0
 11
81.42242998026487
 21
207.6176662535118
 31
0.0
  0
LINE
  5
9B
330
2
100
AcDbEntity
  8
AVERDECKTE
100
AcDbLine
 10
77.42242998026444
 20
477.6176662535117
 30
0.0
 11
77.42242998026444
 21
207.6176662535118
 31
0.0
  0
DIMENSION
  5
9C
330
2
100
AcDbEntity
  8
BEMASSUNG
  6
Continuous
100
AcDbDimension
280
     0
  2
*D20
 10
29.28166398684335
 20
477.6176662535117
 30
0.0
 11
26.06067149025391
 21
449.3676662535118
 31
0.0
 71
     5
 42
56.5
 73
     0
 74
     0
 75
     0
  3
Katalog 09
100
AcDbAlignedDimension
 13
64.08813064548249
 23
421.1176662535118
 33
0.0
 14
75.42242998026438
 24
477.6176662535117
 34
0.0
 50
90.0
100
AcDbRotatedDimension
  0
LWPOLYLINE
  5
AC
330
2
100
AcDbEntity
  8
UMRISS03
100
AcDbPolyline
 90
        6
 70
     1
 43
0.0
 10
201.5384288212417
 20
382.6176662535118
 10
200.6724034174572
 20
381.1176662535117
 10
201.5384288212417
 20
379.6176662535117
 10
203.2704796288103
 20
379.6176662535117
 10
204.1365050325949
 20
381.1176662535117
 10
203.2704796288103
 20
382.6176662535118
  0
LINE
  5
B0
330
2
100
AcDbEntity
  8
ACHSEN
100
AcDbLine
 10
202.4544542250245
 20
471.3676662535118
 30
0.0
 11
202.4544542250245
 21
457.8676662535118
 31
0.0
  0
LINE
  5
B1
330
2
100
AcDbEntity
  8
ACHSEN
100
AcDbLine
 10
195.7044542250245
 20
464.6176662535118
 30
0.0
 11
209.2044542250245
 21
464.6176662535118
 31
0.0
  0
LINE
  5
B2
330
2
100
AcDbEntity
  8
ACHSEN
100
AcDbLine
 10
202.4544542250237
 20
257.3676662535118
 30
0.0
 11
202.4544542250237
 21
243.8676662535118
 31
0.0
  0
LINE
  5
B3
330
2
100
AcDbEntity
  8
ACHSEN
100
AcDbLine
 10
195.7044542250237
 20
250.6176662535118
 30
0.0
 11
209.2044542250237
 21
250.6176662535118
 31
0.0
  0
LINE
  5
B4
330
2
100
AcDbEntity
  8
ACHSEN
100
AcDbLine
 10
202.4544542250237
 20
227.3676662535118
 30
0.0
 11
202.4544542250237
 21
213.8676662535118
 31
0.0
  0
LINE
  5
B5
330
2
100
AcDbEntity
  8
ACHSEN
100
AcDbLine
 10
195.7044542250237
 20
220.6176662535118
 30
0.0
 11
209.2044542250237
 21
220.6176662535118
 31
0.0
  0
DIMENSION
  5
B6
330
2
100
AcDbEntity
  8
BEMASSUNG
  6
Continuous
100
AcDbDimension
280
     0
  2
*D19
 10
180.8657526454399
 20
477.6176662535117
 30
0.0
 11
177.6432765199282
 21
471.1176662535118
 31
0.0
 71
     5
 42
12.99999999999994
 73
     0
 74
     0
 75
     0
  3
Katalog 09
100
AcDbAlignedDimension
 13
195.7044542250245
 23
464.6176662535118
 33
0.0
 14
190.4544542250237
 24
477.6176662535117
 34
0.0
 50
90.0
100
AcDbRotatedDimension
  0
DIMENSION
  5
C3
330
2
100
AcDbEntity
  8
BEMASSUNG
  6
Continuous
100
AcDbDimension
280
     0
  2
*D18
 10
206.4544542250247
 20
339.3631276169412
 30
0.0
 11
202.4544542250213
 21
342.5841201135306
 31
0.0
 71
     5
 42
8.000000000006792
 73
     0
 74
     0
 75
     0
  3
Katalog 09
100
AcDbAlignedDimension
 13
198.4544542250179
 23
322.6176662535118
 33
0.0
 14
206.4544542250247
 24
322.6176662535114
 34
0.0
100
AcDbRotatedDimension
  0
DIMENSION
  5
D2
330
2
100
AcDbEntity
  8
BEMASSUNG
  6
Continuous
100
AcDbDimension
280
     0
  2
*D17
 10
209.3544542250239
 20
438.0687860006965
 30
0.0
 11
202.454454225024
 21
441.2912621262081
 31
0.0
 71
     5
 42
13.79999999999973
 73
     0
 74
     0
 75
     0
  3
Katalog 09
100
AcDbAlignedDimension
 13
195.5544542250241
 23
403.9676662535115
 33
0.0
 14
209.3544542250239
 24
403.9676662535115
 34
0.0
100
AcDbRotatedDimension
  0
DIMENSION
  5
DF
330
2
100
AcDbEntity
  8
BEMASSUNG
  6
Continuous
100
AcDbDimension
280
     0
  2
*D16
 10
214.4544542250238
 20
184.0634060868663
 30
0.0
 11
202.4544542250238
 21
187.2473078603997
 31
0.0
 71
     5
 42
24.0
 73
     0
 74
     0
 75
     0
  3
Katalog 09
100
AcDbAlignedDimension
 13
190.4544542250237
 23
207.6176662535118
 33
0.0
 14
214.4544542250238
 24
207.6176662535118
 34
0.0
100
AcDbRotatedDimension
  0
DIMENSION
  5
EC
330
2
100
AcDbEntity
  8
BEMASSUNG
  6
Continuous
100
AcDbDimension
280
     0
  2
*D15
 10
133.5758131057418
 20
167.8259418207171
 30
0.0
 11
130.3548206091525
 21
158.9259418207174
 31
0.0
 71
     5
 42
17.79999999999947
 73
     0
 74
     0
 75
     0
  3
Katalog 09
100
AcDbAlignedDimension
 13
120.9224299802644
 23
150.0259418207177
 33
0.0
 14
120.9224299802644
 24
167.8259418207171
 34
0.0
 50
90.0
100
AcDbRotatedDimension
  0
DIMENSION
  5
F9
330
2
100
AcDbEntity
  8
BEMASSUNG
  6
Continuous
100
AcDbDimension
280
     0
  2
*D14
 10
231.9134860511882
 20
477.6176662535117
 30
0.0
 11
228.6924935545987
 21
342.6176662535119
 31
0.0
 71
     5
 42
270.0
 73
     0
 74
     0
 75
     0
  3
Katalog 09
100
AcDbAlignedDimension
 13
214.4544542250238
 23
207.6176662535118
 33
0.0
 14
214.4544542250242
 24
477.6176662535117
 34
0.0
 50
90.0
100
AcDbRotatedDimension
  0
DIMENSION
  5
106
330
2
100
AcDbEntity
  8
BEMASSUNG
  6
Continuous
100
AcDbDimension
280
     0
  2
*D13
 10
180.8657526454399
 20
220.6176662535118
 30
0.0
 11
177.6432765199283
 21
214.1176662535118
 31
0.0
 71
     5
 42
13.00000000000003
 73
     0
 74
     0
 75
     0
  3
Katalog 09
100
AcDbAlignedDimension
 13
190.4544542250237
 23
207.6176662535118
 33
0.0
 14
195.7044542250237
 24
220.6176662535118
 34
0.0
 50
90.0
100
AcDbRotatedDimension
  0
LINE
  5
113
330
2
100
AcDbEntity
  8
ACHSEN
100
AcDbLine
 10
112.4224299802644
 20
340.6176662535119
 30
0.0
 11
98.42242998026442
 21
340.6176662535119
 31
0.0
  0
LINE
  5
114
330
2
100
AcDbEntity
  8
ACHSEN
100
AcDbLine
 10
81.42242998026445
 20
464.6176662535117
 30
0.0
 11
72.42242998026444
 21
464.6176662535117
 31
0.0
  0
LINE
  5
115
330
2
100
AcDbEntity
  8
ACHSEN
100
AcDbLine
 10
119.4224299802644
 20
268.1176662535118
 30
0.0
 11
91.639452659617
 21
268.1176662535118
 31
0.0
  0
LINE
  5
116
330
2
100
AcDbEntity
  8
ACHSEN
100
AcDbLine
 10
119.4224299802644
 20
270.1176662535118
 30
0.0
 11
91.639452659617
 21
270.1176662535118
 31
0.0
  0
LINE
  5
117
330
2
100
AcDbEntity
  8
ACHSEN
100
AcDbLine
 10
110.5224299802644
 20
250.1176662535118
 30
0.0
 11
110.5224299802644
 21
263.1930724026066
 31
0.0
  0
LINE
  5
118
330
2
100
AcDbEntity
  8
ACHSEN
100
AcDbLine
 10
100.3224299802645
 20
250.1176662535118
 30
0.0
 11
100.3224299802645
 21
263.1930724026066
 31
0.0
  0
LINE
  5
119
330
2
100
AcDbEntity
  8
ACHSEN
100
AcDbLine
 10
112.4224299802644
 20
248.917666253512
 30
0.0
 11
98.42242998026444
 21
248.917666253512
 31
0.0
  0
ARC
  5
11A
330
2
100
AcDbEntity
  8
ACHSEN
100
AcDbCircle
 10
105.4224299802644
 20
250.1176662535118
 30
0.0
 40
5.099999999999999
100
AcDbArc
 50
180.0
 51
0.0
  0
ARC
  5
11B
330
2
100
AcDbEntity
  8
ACHSEN
100
AcDbCircle
 10
105.4224299802644
 20
270.1176662535118
 30
0.0
 40
8.599999999999999
100
AcDbArc
 50
306.3718424099365
 51
233.6281575900635
  0
DIMENSION
  5
11C
330
2
100
AcDbEntity
  8
BEMASSUNG
  6
Continuous
100
AcDbDimension
280
     0
  2
*D12
 10
75.42242998026444
 20
272.2795535476003
 30
0.0
 11
65.42242998026448
 21
275.5005460441897
 31
0.0
 71
     5
 42
19.99999999999991
 73
     0
 74
     0
 75
     0
  3
Katalog 09
100
AcDbAlignedDimension
 13
55.42242998026453
 23
289.117666253512
 33
0.0
 14
75.42242998026444
 24
272.6987076227272
 34
0.0
100
AcDbRotatedDimension
  0
LINE
  5
129
330
2
100
AcDbEntity
  8
ACHSEN
100
AcDbLine
 10
81.42242998026445
 20
250.617666253512
 30
0.0
 11
72.42242998026444
 21
250.617666253512
 31
0.0
  0
DIMENSION
  5
12A
330
2
100
AcDbEntity
  8
BEMASSUNG
  6
Continuous
100
AcDbDimension
280
     0
  2
*D11
 10
44.30242998026455
 20
288.6176662535117
 30
0.0
 11
41.08143748367513
 21
265.6176662535117
 31
0.0
 71
     5
 42
45.99999999999986
 73
     0
 74
     0
 75
     0
  3
Katalog 09
100
AcDbAlignedDimension
 13
78.42242998026444
 23
242.6176662535118
 33
0.0
 14
56.42242998026453
 24
288.6176662535117
 34
0.0
 50
90.0
100
AcDbRotatedDimension
  0
DIMENSION
  5
137
330
2
100
AcDbEntity
  8
BEMASSUNG
  6
Continuous
100
AcDbDimension
280
     0
  2
*D10
 10
29.21081944132499
 20
323.6176662535118
 30
0.0
 11
25.98834331581334
 21
306.1176662535117
 31
0.0
  1
35
 71
     5
 42
35.00000000000011
 73
     0
 74
     0
 75
     0
  3
Katalog 09
100
AcDbAlignedDimension
 13
56.42242998026453
 23
288.6176662535117
 33
0.0
 14
56.42242998026453
 24
323.6176662535118
 34
0.0
 50
90.0
100
AcDbRotatedDimension
  0
DIMENSION
  5
144
330
2
100
AcDbEntity
  8
BEMASSUNG
  6
Continuous
100
AcDbDimension
280
     0
  2
*D9
 10
29.21081944132499
 20
391.1176662535119
 30
0.0
 11
25.98982694473557
 21
357.3676662535119
 31
0.0
 71
     5
 42
67.50000000000006
 73
     0
 74
     0
 75
     0
  3
Katalog 09
100
AcDbAlignedDimension
 13
56.42242998026453
 23
323.6176662535118
 33
0.0
 14
64.08813064548247
 24
391.1176662535119
 34
0.0
 50
90.0
100
AcDbRotatedDimension
  0
LINE
  5
151
330
2
100
AcDbEntity
  8
ACHSEN
100
AcDbLine
 10
105.4224299802644
 20
240.8036100165502
 30
0.0
 11
105.4224299802644
 21
439.1176662535118
 31
0.0
  0
DIMENSION
  5
152
330
2
100
AcDbEntity
  8
BEMASSUNG
  6
Continuous
100
AcDbDimension
280
     0
  2
*D8
 10
29.21081944132499
 20
421.1176662535118
 30
0.0
 11
25.98834331581332
 21
406.1176662535118
 31
0.0
  1
30
 71
     5
 42
29.99999999999995
 73
     0
 74
     0
 75
     0
  3
Katalog 09
100
AcDbAlignedDimension
 13
64.08813064548247
 23
391.1176662535119
 33
0.0
 14
64.62242998026448
 24
421.1176662535118
 34
0.0
 50
90.0
100
AcDbRotatedDimension
  0
DIMENSION
  5
15F
330
2
100
AcDbEntity
  8
BEMASSUNG
  6
Continuous
100
AcDbDimension
280
     0
  2
*D7
 10
75.42242998026444
 20
426.1127295349888
 30
0.0
 11
68.68028031287344
 21
429.9806575158008
 31
0.0
 70
   128
 71
     5
 42
13.48429933478198
 73
     0
 74
     0
 75
     0
  3
Katalog 09
100
AcDbAlignedDimension
 13
61.93813064548246
 23
406.1176662535117
 33
0.0
 14
75.42242998026444
 24
427.0724691921605
 34
0.0
100
AcDbRotatedDimension
1001
ACAD_DSTYLE_DIMINSPECT
1070
   396
1000
100%
1070
   395
1000

1070
   394
1070
    33
1070
   393
1070
     0
1001
ACAD
1000
DSTYLE
1002
{
1070
   271
1070
     1
1002
}
  0
DIMENSION
  5
16D
330
2
100
AcDbEntity
  8
BEMASSUNG
  6
Continuous
100
AcDbDimension
280
     0
  2
*D6
 10
156.6492393451862
 20
442.6176662535117
 30
0.0
 11
153.4282468485968
 21
342.6176662535118
 31
0.0
 71
     5
 42
200.0
 73
     0
 74
     0
 75
     0
  3
Katalog 09
100
AcDbAlignedDimension
 13
120.9224299802644
 23
242.6176662535118
 33
0.0
 14
98.92242998026439
 24
442.6176662535118
 34
0.0
 50
90.0
100
AcDbRotatedDimension
  0
DIMENSION
  5
17A
330
2
100
AcDbEntity
  8
BEMASSUNG
  6
Continuous
100
AcDbDimension
280
     0
  2
*D5
 10
133.7717141336786
 20
268.1176662535118
 30
0.0
 11
130.5507216370892
 21
255.3676662535118
 31
0.0
  1
RZ <> 
 71
     5
 42
25.49999999999997
 73
     0
 74
     0
 75
     0
  3
Katalog 09
100
AcDbAlignedDimension
 13
120.9224299802644
 23
242.6176662535118
 33
0.0
 14
119.4224299802644
 24
268.1176662535118
 34
0.0
 50
90.0
100
AcDbRotatedDimension
1001
ACAD_DSTYLE_DIMINSPECT
1070
   396
1000
100%
1070
   395
1000

1070
   394
1070
    33
1070
   393
1070
     0
  0
DIMENSION
  5
187
330
2
100
AcDbEntity
  8
BEMASSUNG
  6
Continuous
100
AcDbDimension
280
     0
  2
*D4
 10
146.5615923091479
 20
270.1176662535118
 30
0.0
 11
143.3405998125585
 21
256.3676662535118
 31
0.0
  1
PZ <> 
 71
     5
 42
27.49999999999997
 73
     0
 74
     0
 75
     0
  3
Katalog 09
100
AcDbAlignedDimension
 13
120.9224299802644
 23
242.6176662535118
 33
0.0
 14
119.4224299802644
 24
270.1176662535118
 34
0.0
 50
90.0
100
AcDbRotatedDimension
1001
ACAD_DSTYLE_DIMINSPECT
1070
   396
1000
100%
1070
   395
1000

1070
   394
1070
    33
1070
   393
1070
     0
  0
LINE
  5
194
330
2
100
AcDbEntity
  8
ACHSEN
100
AcDbLine
 10
81.42242998026445
 20
220.6176662535038
 30
0.0
 11
72.42242998026444
 21
220.6176662535038
 31
0.0
  0
DIMENSION
  5
195
330
2
100
AcDbEntity
  8
BEMASSUNG
  6
Continuous
100
AcDbDimension
280
     0
  2
*D3
 10
105.4224299802644
 20
195.5743014081927
 30
0.0
 11
90.42242998026443
 21
198.7493014081927
 31
0.0
  1
DM
 71
     5
 42
30.0
 73
     0
 74
     0
 75
     0
  3
Katalog 09
100
AcDbAlignedDimension
 13
75.42242998026444
 23
207.6176662535118
 33
0.0
 14
105.4224299802644
 24
240.8036100165502
 34
0.0
100
AcDbRotatedDimension
  0
DIMENSION
  5
1A2
330
2
100
AcDbEntity
  8
BEMASSUNG
  6
Continuous
100
AcDbDimension
280
     0
  2
*D2
 10
120.9224299802644
 20
195.5743014081927
 30
0.0
 11
113.1724299802644
 21
198.7952939047821
 31
0.0
 71
     5
 42
15.5
 73
     0
 74
     0
 75
     0
  3
Katalog 09
100
AcDbAlignedDimension
 13
105.4224299802644
 23
233.1176662535119
 33
0.0
 14
120.9224299802644
 24
242.6176662535118
 34
0.0
100
AcDbRotatedDimension
  0
DIMENSION
  5
1AF
330
2
100
AcDbEntity
  8
BEMASSUNG
  6
Continuous
100
AcDbDimension
280
     0
  2
*D1
 10
44.30242998026455
 20
242.6176662535118
 30
0.0
 11
41.0799538547529
 21
225.1176662535118
 31
0.0
 71
     5
 42
35.0
 73
     0
 74
     0
 75
     0
  3
Katalog 09
100
AcDbAlignedDimension
 13
75.42242998026444
 23
207.6176662535118
 33
0.0
 14
81.42242998026487
 24
242.6176662535118
 34
0.0
 50
90.0
100
AcDbRotatedDimension
  0
DIMENSION
  5
1BC
330
2
100
AcDbEntity
  8
BEMASSUNG
  6
Continuous
100
AcDbDimension
280
     0
  2
*D0
 10
29.21081944132499
 20
288.6176662535117
 30
0.0
 11
25.98982694473558
 21
248.1176662535117
 31
0.0
 71
     5
 42
80.99999999999985
 73
     0
 74
     0
 75
     0
  3
Katalog 09
100
AcDbAlignedDimension
 13
75.42242998026444
 23
207.6176662535118
 33
0.0
 14
56.42242998026453
 24
288.6176662535117
 34
0.0
 50
90.0
100
AcDbRotatedDimension
  0
LINE
  5
1C9
330
2
100
AcDbEntity
  8
LAYER3
100
AcDbLine
 10
55.42242998026453
 20
161.9259418206849
 30
0.0
 11
55.42242998026455
 21
155.9259418206849
 31
0.0
  0
ARC
  5
1CA
330
2
100
AcDbEntity
  8
LAYER3
100
AcDbCircle
 10
56.42242998026453
 20
155.9259418206849
 30
0.0
 40
0.9999999999999964
100
AcDbArc
 50
180.0
 51
270.0
  0
ARC
  5
1CB
330
2
100
AcDbEntity
  8
LAYER3
100
AcDbCircle
 10
56.42242998026453
 20
161.9259418206849
 30
0.0
 40
0.9999999999999989
100
AcDbArc
 50
90.0
 51
180.0
  0
LINE
  5
1CC
330
2
100
AcDbEntity
  8
LAYER3
100
AcDbLine
 10
56.42242998026453
 20
154.9259418206849
 30
0.0
 11
63.21585352673423
 21
154.9259418206849
 31
0.0
  0
LINE
  5
1CD
330
2
100
AcDbEntity
  8
LAYER3
100
AcDbLine
 10
63.21585352673423
 20
162.9259418206849
 30
0.0
 11
56.42242998026453
 21
162.9259418206849
 31
0.0
  0
CIRCLE
  5
1CE
330
2
100
AcDbEntity
  8
LAYER3
100
AcDbCircle
 10
68.83813064548248
 20
158.9259418207141
 30
0.0
 40
2.0
  0
LINE
  5
1CF
330
2
100
AcDbEntity
  8
LAYER3
100
AcDbLine
 10
68.83813064548248
 20
154.1759418207141
 30
0.0
 11
75.42242998026442
 21
154.1759418207141
 31
0.0
  0
ARC
  5
1D0
330
2
100
AcDbEntity
  8
LAYER3
100
AcDbCircle
 10
68.83813064548249
 20
158.9259418207141
 30
0.0
 40
4.75
100
AcDbArc
 50
90.0
 51
270.0
  0
LINE
  5
1D1
330
2
100
AcDbEntity
  8
LAYER3
100
AcDbLine
 10
75.42242998026444
 20
163.6759418207141
 30
0.0
 11
68.83813064548252
 21
163.6759418207141
 31
0.0
  0
LINE
  5
1D2
330
2
100
AcDbEntity
  8
LAYER3
100
AcDbLine
 10
97.33639135295028
 20
152.0259418207141
 30
0.0
 11
96.92242998026443
 21
152.0259418207141
 31
0.0
  0
LINE
  5
1D3
330
2
100
AcDbEntity
  8
LAYER3
100
AcDbLine
 10
96.92242998026443
 20
163.8259418207134
 30
0.0
 11
97.3363913529503
 21
163.8259418207134
 31
0.0
  0
ARC
  5
1D4
330
2
100
AcDbEntity
  8
LAYER3
100
AcDbCircle
 10
68.83813064548244
 20
158.9259418207097
 30
0.0
 40
6.899999999999989
100
AcDbArc
 50
43.50404600567247
 51
316.4959539943275
  0
LINE
  5
1D5
330
2
100
AcDbEntity
  8
LAYER3
100
AcDbLine
 10
113.8224299802644
 20
150.0259418207177
 30
0.0
 11
113.8224299802644
 21
151.7759418207177
 31
0.0
  0
LINE
  5
1D6
330
2
100
AcDbEntity
  8
LAYER3
100
AcDbLine
 10
120.9224299802644
 20
151.7759418207177
 30
0.0
 11
120.9224299802644
 21
150.0259418207177
 31
0.0
  0
LINE
  5
1D7
330
2
100
AcDbEntity
  8
LAYER3
100
AcDbLine
 10
118.0224299802644
 20
150.0259418207177
 30
0.0
 11
118.0224299802644
 21
151.7759418207177
 31
0.0
  0
LINE
  5
1D8
330
2
100
AcDbEntity
  8
LAYER3
100
AcDbLine
 10
118.0224299802644
 20
151.7759418207177
 30
0.0
 11
120.9224299802644
 21
151.7759418207177
 31
0.0
  0
LINE
  5
1D9
330
2
100
AcDbEntity
  8
LAYER3
100
AcDbLine
 10
105.7609324416773
 20
151.7759418207177
 30
0.0
 11
113.8224299802644
 21
151.7759418207177
 31
0.0
  0
LINE
  5
1DA
330
2
100
AcDbEntity
  8
LAYER3
100
AcDbLine
 10
105.7609324416773
 20
150.0259418207177
 30
0.0
 11
113.8224299802644
 21
150.0259418207177
 31
0.0
  0
LINE
  5
1DB
330
2
100
AcDbEntity
  8
LAYER3
100
AcDbLine
 10
118.0224299802644
 20
150.0259418207171
 30
0.0
 11
116.9224299802644
 21
150.0259418207171
 31
0.0
  0
LINE
  5
1DC
330
2
100
AcDbEntity
  8
LAYER3
100
AcDbLine
 10
120.9224299802644
 20
150.0259418207177
 30
0.0
 11
118.0224299802644
 21
150.0259418207177
 31
0.0
  0
LINE
  5
1DD
330
2
100
AcDbEntity
  8
LAYER3
100
AcDbLine
 10
78.6224299802644
 20
151.7759418207205
 30
0.0
 11
78.42242998026438
 21
151.7759418207205
 31
0.0
  0
LINE
  5
1DE
330
2
100
AcDbEntity
  8
LAYER3
100
AcDbLine
 10
78.42242998026438
 20
150.0259418207205
 30
0.0
 11
96.99151862208005
 21
150.0259418207205
 31
0.0
  0
ELLIPSE
  5
1DF
330
2
100
AcDbEntity
  8
LAYER3
100
AcDbEllipse
 10
96.99151862208001
 20
151.7759418207205
 30
0.0
 11
-1.930911358184373
 21
0.0000000000000014
 31
0.0
210
0.0
220
0.0
230
1.0
 40
0.9063077870366434
 41
1.570796326794897
 42
3.141592653589794
  0
ELLIPSE
  5
1E0
330
2
100
AcDbEntity
  8
LAYER3
100
AcDbEllipse
 10
101.3512648394869
 20
151.7759418207177
 30
0.0
 11
0.0000000000000934
 21
1.749999999999999
 31
0.0
210
0.0
220
0.0
230
1.0
 40
0.9063077870366507
 41
3.141592653589851
 42
4.712388980384705
  0
LINE
  5
1E1
330
2
100
AcDbEntity
  8
LAYER3
100
AcDbLine
 10
96.99151862208005
 20
150.0259418207205
 30
0.0
 11
101.3512648394869
 21
150.0259418207177
 31
0.0
  0
LINE
  5
1E2
330
2
100
AcDbEntity
  8
LAYER3
100
AcDbLine
 10
102.1965013629683
 20
150.0259418207171
 30
0.0
 11
101.3512648394869
 21
150.0259418207171
 31
0.0
  0
LINE
  5
1E3
330
2
100
AcDbEntity
  8
LAYER3
100
AcDbLine
 10
105.7609324416773
 20
151.7759418207177
 30
0.0
 11
105.7609324416773
 21
150.0259418207177
 31
0.0
  0
LINE
  5
1E4
330
2
100
AcDbEntity
  8
LAYER3
100
AcDbLine
 10
105.7609324416773
 20
150.0259418207177
 30
0.0
 11
102.1965013629683
 21
150.0259418207171
 31
0.0
  0
LINE
  5
1E5
330
2
100
AcDbEntity
  8
LAYER3
100
AcDbLine
 10
97.33639135295025
 20
151.7759418207202
 30
0.0
 11
97.33639135295025
 21
165.8259418207203
 31
0.0
  0
LINE
  5
1E6
330
2
100
AcDbEntity
  8
LAYER3
100
AcDbLine
 10
102.937303466801
 20
151.7759418207179
 30
0.0
 11
102.937303466801
 21
165.8259418207179
 31
0.0
  0
LINE
  5
1E7
330
2
100
AcDbEntity
  8
LAYER3
100
AcDbLine
 10
98.92242998026439
 20
151.7759418207205
 30
0.0
 11
98.92242998026439
 21
165.8259418207205
 31
0.0
  0
LINE
  5
1E8
330
2
100
AcDbEntity
  8
LAYER3
100
AcDbLine
 10
102.0920669433196
 20
167.8259418207185
 30
0.0
 11
99.7676665037458
 21
167.8259418207199
 31
0.0
  0
ELLIPSE
  5
1E9
330
2
100
AcDbEntity
  8
LAYER3
100
AcDbEllipse
 10
98.18162787643167
 20
165.8259418207197
 30
0.0
 11
-0.0000000000000231
 21
1.999999999999999
 31
0.0
210
0.0
220
0.0
230
1.0
 40
0.422618261740695
 41
0.0000000000029987
 42
1.570796326796128
  0
LINE
  5
1EA
330
2
100
AcDbEntity
  8
LAYER3
100
AcDbLine
 10
99.7676665037458
 20
167.8259418207199
 30
0.0
 11
98.18162787643167
 21
167.8259418207197
 31
0.0
  0
ELLIPSE
  5
1EB
330
2
100
AcDbEntity
  8
LAYER3
100
AcDbEllipse
 10
99.7676665037458
 20
165.8259418207199
 30
0.0
 11
-0.0000000000000375
 21
1.999999999999999
 31
0.0
210
0.0
220
0.0
230
1.0
 40
0.4226182617406949
 41
-0.0000000000000442
 42
1.570796326794348
  0
ELLIPSE
  5
1EC
330
2
100
AcDbEntity
  8
LAYER3
100
AcDbEllipse
 10
102.0920669433196
 20
165.8259418207185
 30
0.0
 11
-0.0000000000000173
 21
2.0
 31
0.0
210
0.0
220
0.0
230
1.0
 40
0.4226182617406949
 41
-1.570796326793663
 42
0.0000000000030056
  0
LINE
  5
1ED
330
2
100
AcDbEntity
  8
LAYER3
100
AcDbLine
 10
80.22242998026436
 20
166.0259418207205
 30
0.0
 11
80.22242998026433
 21
167.8259418207199
 31
0.0
  0
LINE
  5
1EE
330
2
100
AcDbEntity
  8
LAYER3
100
AcDbLine
 10
96.92242998026438
 20
151.7759418207205
 30
0.0
 11
78.42242998026438
 21
151.7759418207205
 31
0.0
  0
LINE
  5
1EF
330
2
100
AcDbEntity
  8
LAYER3
100
AcDbLine
 10
78.42242998026438
 20
166.0259418207205
 30
0.0
 11
80.22242998026436
 21
166.0259418207205
 31
0.0
  0
ARC
  5
1F0
330
2
100
AcDbEntity
  8
LAYER3
100
AcDbCircle
 10
80.2224299802644
 20
166.0259418207198
 30
0.0
 40
0.0499999999999965
100
AcDbArc
 50
90.00000000004071
 51
180.0
  0
ARC
  5
1F1
330
2
100
AcDbEntity
  8
LAYER3
100
AcDbCircle
 10
80.22242998026442
 20
166.0259418207198
 30
0.0
 40
1.800000000000011
100
AcDbArc
 50
90.00000000000161
 51
180.0
  0
LINE
  5
1F2
330
2
100
AcDbEntity
  8
LAYER3
100
AcDbLine
 10
120.9224299802644
 20
166.0259418207177
 30
0.0
 11
120.9224299802644
 21
151.7759418207177
 31
0.0
  0
LINE
  5
1F3
330
2
100
AcDbEntity
  8
LAYER3
100
AcDbLine
 10
120.9224299802644
 20
151.7759418207177
 30
0.0
 11
118.0224299802644
 21
151.7759418207177
 31
0.0
  0
LINE
  5
1F4
330
2
100
AcDbEntity
  8
LAYER3
100
AcDbLine
 10
112.4224299802644
 20
151.7759418207177
 30
0.0
 11
102.937303466801
 21
151.7759418207177
 31
0.0
  0
LINE
  5
1F5
330
2
100
AcDbEntity
  8
LAYER3
100
AcDbLine
 10
112.4224299802644
 20
150.0259418207177
 30
0.0
 11
116.9224299802644
 21
150.0259418207177
 31
0.0
  0
LINE
  5
1F6
330
2
100
AcDbEntity
  8
LAYER3
100
AcDbLine
 10
120.9224299802644
 20
166.0259418207177
 30
0.0
 11
120.9224299802644
 21
167.8259418207171
 31
0.0
  0
LINE
  5
1F7
330
2
100
AcDbEntity
  8
LAYER3
100
AcDbLine
 10
102.0920669433196
 20
167.8259418207171
 30
0.0
 11
120.9224299802644
 21
167.8259418207171
 31
0.0
  0
LINE
  5
1F8
330
2
100
AcDbEntity
  8
LAYER3
100
AcDbLine
 10
80.22242998026436
 20
167.8259418207199
 30
0.0
 11
96.92242998026438
 21
167.8259418207199
 31
0.0
  0
LINE
  5
1F9
330
2
100
AcDbEntity
  8
LAYER3
100
AcDbLine
 10
78.42242998054951
 20
167.8259418226214
 30
0.0
 11
78.42242998054951
 21
150.0259418209303
 31
0.0
  0
LINE
  5
1FA
330
2
100
AcDbEntity
  8
LAYER3
100
AcDbLine
 10
80.2224299802644
 20
167.8259418207142
 30
0.0
 11
78.42242998054951
 21
167.8259418207178
 31
0.0
  0
LINE
  5
1FB
330
2
100
AcDbEntity
  8
LAYER3
100
AcDbLine
 10
96.92242998026438
 20
151.7759418207205
 30
0.0
 11
96.92242998026438
 21
166.0259418207205
 31
0.0
  0
LINE
  5
1FC
330
2
100
AcDbEntity
  8
LAYER3
100
AcDbLine
 10
96.92242998026438
 20
167.82594182072
 30
0.0
 11
96.92242998026438
 21
166.0259418207205
 31
0.0
  0
LINE
  5
1FD
330
2
100
AcDbEntity
  8
LAYER3
100
AcDbLine
 10
96.92242998026438
 20
167.8259418207199
 30
0.0
 11
98.18162787643164
 21
167.8259418207191
 31
0.0
  0
LINE
  5
1FE
330
2
100
AcDbEntity
  8
LAYER3
100
AcDbLine
 10
97.34302076137144
 20
166.0759418207196
 30
0.0
 11
96.92242998026438
 21
166.0759418207199
 31
0.0
  0
LINE
  5
1FF
330
2
100
AcDbEntity
  8
LAYER3
100
AcDbLine
 10
199.4544542250179
 20
288.6176662535117
 30
0.0
 11
205.454454225018
 21
288.6176662535117
 31
0.0
  0
ARC
  5
200
330
2
100
AcDbEntity
  8
LAYER3
100
AcDbCircle
 10
205.454454225018
 20
289.6176662535117
 30
0.0
 40
0.9999999999999964
100
AcDbArc
 50
270.0
 51
0.0
  0
ARC
  5
201
330
2
100
AcDbEntity
  8
LAYER3
100
AcDbCircle
 10
199.4544542250179
 20
289.6176662535117
 30
0.0
 40
1.0
100
AcDbArc
 50
180.0
 51
269.9999999999976
  0
ARC
  5
202
330
2
100
AcDbEntity
  8
LAYER3
100
AcDbCircle
 10
199.4544542250179
 20
322.6176662535118
 30
0.0
 40
0.9999999999999975
100
AcDbArc
 50
90.0
 51
180.0
  0
ARC
  5
203
330
2
100
AcDbEntity
  8
LAYER3
100
AcDbCircle
 10
205.454454225018
 20
322.6176662535118
 30
0.0
 40
0.9999999999999953
100
AcDbArc
 50
0.0
 51
90.00000000000161
  0
LINE
  5
204
330
2
100
AcDbEntity
  8
LAYER3
100
AcDbLine
 10
206.454454225018
 20
289.6176662535117
 30
0.0
 11
206.454454225018
 21
322.6176662535118
 31
0.0
  0
LINE
  5
205
330
2
100
AcDbEntity
  8
LAYER3
100
AcDbLine
 10
205.454454225018
 20
323.6176662535117
 30
0.0
 11
199.4544542250179
 21
323.6176662535117
 31
0.0
  0
LINE
  5
206
330
2
100
AcDbEntity
  8
LAYER3
100
AcDbLine
 10
198.454454225018
 20
322.6176662535118
 30
0.0
 11
198.454454225018
 21
289.6176662535117
 31
0.0
  0
CIRCLE
  5
207
330
2
100
AcDbEntity
  8
LAYER3
100
AcDbCircle
 10
202.4044542250258
 20
381.1176662535117
 30
0.0
 40
2.049999999999999
  0
ARC
  5
208
330
2
100
AcDbEntity
  8
LAYER3
100
AcDbCircle
 10
200.1044542250245
 20
418.5676662535118
 30
0.0
 40
0.0499999999999989
100
AcDbArc
 50
90.0
 51
180.0
  0
LINE
  5
209
330
2
100
AcDbEntity
  8
LAYER3
100
AcDbLine
 10
207.2044542250218
 20
421.1176662535118
 30
0.0
 11
207.2044542250218
 21
418.6176662535117
 31
0.0
  0
LINE
  5
20A
330
2
100
AcDbEntity
  8
LAYER3
100
AcDbLine
 10
207.2044542250217
 20
418.6176662535117
 30
0.0
 11
197.7044542250218
 21
418.6176662535117
 31
0.0
  0
LINE
  5
20B
330
2
100
AcDbEntity
  8
LAYER3
100
AcDbLine
 10
197.7044542250218
 20
421.1176662535118
 30
0.0
 11
197.7044542250218
 21
418.6176662535117
 31
0.0
  0
LINE
  5
20C
330
2
100
AcDbEntity
  8
LAYER3
100
AcDbLine
 10
207.2044542250217
 20
421.1176662535118
 30
0.0
 11
197.7044542250218
 21
421.1176662535118
 31
0.0
  0
LINE
  5
20D
330
2
100
AcDbEntity
  8
LAYER3
100
AcDbLine
 10
207.2044542250218
 20
393.6176662535118
 30
0.0
 11
207.2044542250218
 21
391.1176662535119
 31
0.0
  0
LINE
  5
20E
330
2
100
AcDbEntity
  8
LAYER3
100
AcDbLine
 10
197.7044542250218
 20
393.6176662535118
 30
0.0
 11
197.7044542250218
 21
391.1176662535119
 31
0.0
  0
LINE
  5
20F
330
2
100
AcDbEntity
  8
LAYER3
100
AcDbLine
 10
207.2044542250217
 20
391.1176662535119
 30
0.0
 11
197.7044542250218
 21
391.1176662535119
 31
0.0
  0
LINE
  5
210
330
2
100
AcDbEntity
  8
LAYER3
100
AcDbLine
 10
207.2044542250217
 20
393.6176662535118
 30
0.0
 11
197.7044542250218
 21
393.6176662535118
 31
0.0
  0
ARC
  5
211
330
2
100
AcDbEntity
  8
LAYER3
100
AcDbCircle
 10
200.1044542250245
 20
393.6676662535118
 30
0.0
 40
0.0500000000000028
100
AcDbArc
 50
180.0
 51
269.9999999999593
  0
LINE
  5
212
330
2
100
AcDbEntity
  8
LAYER3
100
AcDbLine
 10
200.0544542250245
 20
418.4676662535117
 30
0.0
 11
200.0544542250245
 21
418.5676662535118
 31
0.0
  0
LINE
  5
213
330
2
100
AcDbEntity
  8
LAYER3
100
AcDbLine
 10
200.0544542250245
 20
393.6676662535118
 30
0.0
 11
200.0544542250245
 21
393.7676662535118
 31
0.0
  0
ARC
  5
214
330
2
100
AcDbEntity
  8
LAYER3
100
AcDbCircle
 10
172.8544542250219
 20
406.1176662535117
 30
0.0
 40
36.49999999999997
100
AcDbArc
 50
340.2232456690275
 51
19.77675433097241
  0
ARC
  5
215
330
2
100
AcDbEntity
  8
LAYER3
100
AcDbCircle
 10
232.0544542250217
 20
406.1176662535117
 30
0.0
 40
36.49999999999997
100
AcDbArc
 50
160.2232456690275
 51
199.7767543309724
  0
LINE
  5
216
330
2
100
AcDbEntity
  8
LAYER3
100
AcDbLine
 10
207.2016156797912
 20
393.7676662535118
 30
0.0
 11
197.7072927702523
 21
393.7676662535118
 31
0.0
  0
LINE
  5
217
330
2
100
AcDbEntity
  8
LAYER3
100
AcDbLine
 10
207.2016156797912
 20
418.4676662535117
 30
0.0
 11
197.7072927702523
 21
418.4676662535117
 31
0.0
  0
CIRCLE
  5
218
330
2
100
AcDbEntity
  8
LAYER3
100
AcDbCircle
 10
202.4544542250238
 20
281.1176662535118
 30
0.0
 40
4.199999999999989
  0
LINE
  5
219
330
2
100
AcDbEntity
  8
LAYER3
100
AcDbLine
 10
200.4508886163212
 20
279.9409654199843
 30
0.0
 11
201.9906805297027
 21
281.1697619301865
 31
0.0
  0
LINE
  5
21A
330
2
100
AcDbEntity
  8
LAYER3
100
AcDbLine
 10
202.5065499016985
 20
281.581439948833
 30
0.0
 11
204.0463418150799
 21
282.8102364590352
 31
0.0
  0
LINE
  5
21B
330
2
100
AcDbEntity
  8
LAYER3
100
AcDbLine
 10
204.0463418150799
 20
282.8102364590352
 30
0.0
 11
204.4580198337263
 21
282.2943670870394
 31
0.0
  0
LINE
  5
21C
330
2
100
AcDbEntity
  8
LAYER3
100
AcDbLine
 10
200.8625666349677
 20
279.4250960479885
 30
0.0
 11
200.4508886163212
 21
279.9409654199843
 31
0.0
  0
LINE
  5
21D
330
2
100
AcDbEntity
  8
LAYER3
100
AcDbLine
 10
202.4023585483491
 20
280.6538925581907
 30
0.0
 11
200.8625666349677
 21
279.4250960479885
 31
0.0
  0
LINE
  5
21E
330
2
100
AcDbEntity
  8
LAYER3
100
AcDbLine
 10
204.4580198337263
 20
282.2943670870394
 30
0.0
 11
202.9182279203449
 21
281.0655705768372
 31
0.0
  0
LINE
  5
21F
330
2
100
AcDbEntity
  8
LAYER3
100
AcDbLine
 10
202.9182279203449
 20
281.0655705768372
 30
0.0
 11
204.1470244305472
 21
279.5257786634557
 31
0.0
  0
LINE
  5
220
330
2
100
AcDbEntity
  8
LAYER3
100
AcDbLine
 10
201.2777533914962
 20
283.1212318622144
 30
0.0
 11
202.5065499016985
 21
281.581439948833
 31
0.0
  0
LINE
  5
221
330
2
100
AcDbEntity
  8
LAYER3
100
AcDbLine
 10
200.7618840195004
 20
282.7095538435679
 30
0.0
 11
201.2777533914962
 21
283.1212318622144
 31
0.0
  0
LINE
  5
222
330
2
100
AcDbEntity
  8
LAYER3
100
AcDbLine
 10
204.1470244305472
 20
279.5257786634557
 30
0.0
 11
203.6311550585513
 21
279.1141006448093
 31
0.0
  0
LINE
  5
223
330
2
100
AcDbEntity
  8
LAYER3
100
AcDbLine
 10
203.6311550585514
 20
279.1141006448093
 30
0.0
 11
202.4023585483491
 21
280.6538925581907
 31
0.0
  0
LINE
  5
224
330
2
100
AcDbEntity
  8
LAYER3
100
AcDbLine
 10
201.9906805297027
 20
281.1697619301865
 30
0.0
 11
200.7618840195004
 21
282.7095538435679
 31
0.0
  0
CIRCLE
  5
225
330
2
100
AcDbEntity
  8
LAYER3
100
AcDbCircle
 10
202.4544542250238
 20
331.1176662535118
 30
0.0
 40
4.19999999999998
  0
LINE
  5
226
330
2
100
AcDbEntity
  8
LAYER3
100
AcDbLine
 10
200.6437991863593
 20
332.5738353133944
 30
0.0
 11
202.3387247241574
 21
331.5697798262225
 31
0.0
  0
LINE
  5
227
330
2
100
AcDbEntity
  8
LAYER3
100
AcDbLine
 10
202.9065677977345
 20
331.2333957543781
 30
0.0
 11
204.6014933355325
 21
330.2293402672063
 31
0.0
  0
LINE
  5
228
330
2
100
AcDbEntity
  8
LAYER3
100
AcDbLine
 10
204.6014933355325
 20
330.2293402672063
 30
0.0
 11
204.2651092636881
 21
329.6614971936293
 31
0.0
  0
LINE
  5
229
330
2
100
AcDbEntity
  8
LAYER3
100
AcDbLine
 10
200.307415114515
 20
332.0059922398174
 30
0.0
 11
200.6437991863593
 21
332.5738353133944
 31
0.0
  0
LINE
  5
22A
330
2
100
AcDbEntity
  8
LAYER3
100
AcDbLine
 10
202.0023406523131
 20
331.0019367526455
 30
0.0
 11
200.307415114515
 21
332.0059922398174
 31
0.0
  0
LINE
  5
22B
330
2
100
AcDbEntity
  8
LAYER3
100
AcDbLine
 10
204.2651092636881
 20
329.6614971936293
 30
0.0
 11
202.5701837258901
 21
330.6655526808011
 31
0.0
  0
LINE
  5
22C
330
2
100
AcDbEntity
  8
LAYER3
100
AcDbLine
 10
202.5701837258901
 20
330.6655526808011
 30
0.0
 11
201.5661282387183
 21
328.9706271430031
 31
0.0
  0
LINE
  5
22D
330
2
100
AcDbEntity
  8
LAYER3
100
AcDbLine
 10
203.9106232849063
 20
332.9283212921762
 30
0.0
 11
202.9065677977345
 21
331.2333957543781
 31
0.0
  0
LINE
  5
22E
330
2
100
AcDbEntity
  8
LAYER3
100
AcDbLine
 10
203.3427802113293
 20
333.2647053640206
 30
0.0
 11
203.9106232849063
 21
332.9283212921762
 31
0.0
  0
LINE
  5
22F
330
2
100
AcDbEntity
  8
LAYER3
100
AcDbLine
 10
201.5661282387183
 20
328.9706271430031
 30
0.0
 11
200.9982851651412
 21
329.3070112148474
 31
0.0
  0
LINE
  5
230
330
2
100
AcDbEntity
  8
LAYER3
100
AcDbLine
 10
200.9982851651412
 20
329.3070112148474
 30
0.0
 11
202.0023406523131
 21
331.0019367526455
 31
0.0
  0
LINE
  5
231
330
2
100
AcDbEntity
  8
LAYER3
100
AcDbLine
 10
202.3387247241574
 20
331.5697798262225
 30
0.0
 11
203.3427802113293
 21
333.2647053640206
 31
0.0
  0
CIRCLE
  5
232
330
2
100
AcDbEntity
  8
LAYER3
100
AcDbCircle
 10
202.4544542250237
 20
373.1176662535118
 30
0.0
 40
4.199999999999989
  0
LINE
  5
233
330
2
100
AcDbEntity
  8
LAYER3
100
AcDbLine
 10
200.8491827949246
 20
371.437784223217
 30
0.0
 11
201.9941185303308
 21
373.0409130894626
 31
0.0
  0
LINE
  5
234
330
2
100
AcDbEntity
  8
LAYER3
100
AcDbLine
 10
202.3777010609745
 20
373.5780019482048
 30
0.0
 11
203.5226367963807
 21
375.1811308144504
 31
0.0
  0
LINE
  5
235
330
2
100
AcDbEntity
  8
LAYER3
100
AcDbLine
 10
203.5226367963807
 20
375.1811308144504
 30
0.0
 11
204.0597256551229
 21
374.7975482838066
 31
0.0
  0
LINE
  5
236
330
2
100
AcDbEntity
  8
LAYER3
100
AcDbLine
 10
201.3862716536668
 20
371.0542016925733
 30
0.0
 11
200.8491827949246
 21
371.437784223217
 31
0.0
  0
LINE
  5
237
330
2
100
AcDbEntity
  8
LAYER3
100
AcDbLine
 10
202.531207389073
 20
372.6573305588189
 30
0.0
 11
201.3862716536668
 21
371.0542016925733
 31
0.0
  0
LINE
  5
238
330
2
100
AcDbEntity
  8
LAYER3
100
AcDbLine
 10
204.0597256551229
 20
374.7975482838066
 30
0.0
 11
202.9147899197167
 21
373.1944194175611
 31
0.0
  0
LINE
  5
239
330
2
100
AcDbEntity
  8
LAYER3
100
AcDbLine
 10
202.9147899197167
 20
373.1944194175611
 30
0.0
 11
204.5179187859623
 21
372.0494836821548
 31
0.0
  0
LINE
  5
23A
330
2
100
AcDbEntity
  8
LAYER3
100
AcDbLine
 10
200.7745721947289
 20
374.722937683611
 30
0.0
 11
202.3777010609745
 21
373.5780019482048
 31
0.0
  0
LINE
  5
23B
330
2
100
AcDbEntity
  8
LAYER3
100
AcDbLine
 10
200.3909896640852
 20
374.1858488248687
 30
0.0
 11
200.7745721947289
 21
374.722937683611
 31
0.0
  0
LINE
  5
23C
330
2
100
AcDbEntity
  8
LAYER3
100
AcDbLine
 10
204.5179187859623
 20
372.0494836821548
 30
0.0
 11
204.1343362553186
 21
371.5123948234126
 31
0.0
  0
LINE
  5
23D
330
2
100
AcDbEntity
  8
LAYER3
100
AcDbLine
 10
204.1343362553186
 20
371.5123948234126
 30
0.0
 11
202.531207389073
 21
372.6573305588189
 31
0.0
  0
LINE
  5
23E
330
2
100
AcDbEntity
  8
LAYER3
100
AcDbLine
 10
201.9941185303308
 20
373.0409130894626
 30
0.0
 11
200.3909896640852
 21
374.1858488248687
 31
0.0
  0
CIRCLE
  5
23F
330
2
100
AcDbEntity
  8
LAYER3
100
AcDbCircle
 10
202.4544542250237
 20
430.6176662535118
 30
0.0
 40
4.199999999999984
  0
LINE
  5
240
330
2
100
AcDbEntity
  8
LAYER3
100
AcDbLine
 10
200.781725019804
 20
429.0049427787632
 30
0.0
 11
201.9913611490001
 21
430.5598319821934
 31
0.0
  0
LINE
  5
241
330
2
100
AcDbEntity
  8
LAYER3
100
AcDbLine
 10
202.3966199537054
 20
431.0807593295354
 30
0.0
 11
203.6062560829015
 21
432.6356485329656
 31
0.0
  0
LINE
  5
242
330
2
100
AcDbEntity
  8
LAYER3
100
AcDbLine
 10
203.6062560829015
 20
432.6356485329656
 30
0.0
 11
204.1271834302435
 21
432.2303897282603
 31
0.0
  0
LINE
  5
243
330
2
100
AcDbEntity
  8
LAYER3
100
AcDbLine
 10
201.3026523671461
 20
428.599683974058
 30
0.0
 11
200.781725019804
 21
429.0049427787632
 31
0.0
  0
LINE
  5
244
330
2
100
AcDbEntity
  8
LAYER3
100
AcDbLine
 10
202.5122884963421
 20
430.1545731774881
 30
0.0
 11
201.3026523671461
 21
428.599683974058
 31
0.0
  0
LINE
  5
245
330
2
100
AcDbEntity
  8
LAYER3
100
AcDbLine
 10
204.1271834302435
 20
432.2303897282603
 30
0.0
 11
202.9175473010474
 21
430.6755005248302
 31
0.0
  0
LINE
  5
246
330
2
100
AcDbEntity
  8
LAYER3
100
AcDbLine
 10
202.9175473010474
 20
430.6755005248302
 30
0.0
 11
204.4724365044776
 21
429.4658643956341
 31
0.0
  0
LINE
  5
247
330
2
100
AcDbEntity
  8
LAYER3
100
AcDbLine
 10
200.8417307502752
 20
432.2903954587316
 30
0.0
 11
202.3966199537054
 21
431.0807593295354
 31
0.0
  0
LINE
  5
248
330
2
100
AcDbEntity
  8
LAYER3
100
AcDbLine
 10
200.4364719455699
 20
431.7694681113894
 30
0.0
 11
200.8417307502752
 21
432.2903954587316
 31
0.0
  0
LINE
  5
249
330
2
100
AcDbEntity
  8
LAYER3
100
AcDbLine
 10
204.4724365044776
 20
429.4658643956341
 30
0.0
 11
204.0671776997722
 21
428.944937048292
 31
0.0
  0
LINE
  5
24A
330
2
100
AcDbEntity
  8
LAYER3
100
AcDbLine
 10
204.0671776997722
 20
428.944937048292
 30
0.0
 11
202.5122884963421
 21
430.1545731774881
 31
0.0
  0
LINE
  5
24B
330
2
100
AcDbEntity
  8
LAYER3
100
AcDbLine
 10
201.9913611490001
 20
430.5598319821934
 30
0.0
 11
200.4364719455699
 21
431.7694681113894
 31
0.0
  0
LINE
  5
24C
330
2
100
AcDbEntity
  8
LAYER3
100
AcDbLine
 10
201.8044542250284
 20
393.6176662535108
 30
0.0
 11
201.8044542250284
 21
393.7676662535108
 31
0.0
  0
POLYLINE
  5
24D
330
2
100
AcDbEntity
  8
LAYER3
100
AcDb2dPolyline
 66
     1
 10
0.0
 20
0.0
 30
0.0
 70
   128
  0
VERTEX
  5
24E
330
24D
100
AcDbEntity
  8
LAYER3
100
AcDbVertex
100
AcDb2dVertex
 10
199.5421565687915
 20
222.9553291744942
 30
0.0
  0
VERTEX
  5
24F
330
24D
100
AcDbEntity
  8
LAYER3
100
AcDbVertex
100
AcDb2dVertex
 10
199.5718942201396
 20
222.952353710627
 30
0.0
  0
VERTEX
  5
250
330
24D
100
AcDbEntity
  8
LAYER3
100
AcDbVertex
100
AcDb2dVertex
 10
199.6018041289111
 20
222.9502556271309
 30
0.0
  0
VERTEX
  5
251
330
24D
100
AcDbEntity
  8
LAYER3
100
AcDbVertex
100
AcDb2dVertex
 10
199.6318541085979
 20
222.9490539974923
 30
0.0
  0
VERTEX
  5
252
330
24D
100
AcDbEntity
  8
LAYER3
100
AcDbVertex
100
AcDb2dVertex
 10
199.662011078622
 20
222.948748821711
 30
0.0
  0
VERTEX
  5
253
330
24D
100
AcDbEntity
  8
LAYER3
100
AcDbVertex
100
AcDb2dVertex
 10
199.6922425544521
 20
222.9493591732735
 30
0.0
  0
VERTEX
  5
254
330
24D
100
AcDbEntity
  8
LAYER3
100
AcDbVertex
100
AcDb2dVertex
 10
199.72251634958
 20
222.9508850521797
 30
0.0
  0
VERTEX
  5
255
330
24D
100
AcDbEntity
  8
LAYER3
100
AcDbVertex
100
AcDb2dVertex
 10
199.7527990854045
 20
222.9533455319161
 30
0.0
  0
VERTEX
  5
256
330
24D
100
AcDbEntity
  8
LAYER3
100
AcDbVertex
100
AcDb2dVertex
 10
199.7834573304912
 20
222.9567978329415
 30
0.0
  0
VERTEX
  5
257
330
24D
100
AcDbEntity
  8
LAYER3
100
AcDbVertex
100
AcDb2dVertex
 10
199.8149166620037
 20
222.9613754696602
 30
0.0
  0
VERTEX
  5
258
330
24D
100
AcDbEntity
  8
LAYER3
100
AcDbVertex
100
AcDb2dVertex
 10
199.8470563805362
 20
222.9670975155586
 30
0.0
  0
VERTEX
  5
259
330
24D
100
AcDbEntity
  8
LAYER3
100
AcDbVertex
100
AcDb2dVertex
 10
199.8797539985439
 20
222.9740211910958
 30
0.0
  0
VERTEX
  5
25A
330
24D
100
AcDbEntity
  8
LAYER3
100
AcDbVertex
100
AcDb2dVertex
 10
199.912886134412
 20
222.9821846432442
 30
0.0
  0
VERTEX
  5
25B
330
24D
100
AcDbEntity
  8
LAYER3
100
AcDbVertex
100
AcDb2dVertex
 10
199.9463305986187
 20
222.991645092463
 30
0.0
  0
VERTEX
  5
25C
330
24D
100
AcDbEntity
  8
LAYER3
100
AcDbVertex
100
AcDb2dVertex
 10
199.9799640095494
 20
223.0024216122384
 30
0.0
  0
VERTEX
  5
25D
330
24D
100
AcDbEntity
  8
LAYER3
100
AcDbVertex
100
AcDb2dVertex
 10
200.013663879659
 20
223.014552349543
 30
0.0
  0
VERTEX
  5
25E
330
24D
100
AcDbEntity
  8
LAYER3
100
AcDbVertex
100
AcDb2dVertex
 10
200.0473083174489
 20
223.0281135983223
 30
0.0
  0
VERTEX
  5
25F
330
24D
100
AcDbEntity
  8
LAYER3
100
AcDbVertex
100
AcDb2dVertex
 10
200.0807807958386
 20
223.0431053585762
 30
0.0
  0
VERTEX
  5
260
330
24D
100
AcDbEntity
  8
LAYER3
100
AcDbVertex
100
AcDb2dVertex
 10
200.1139597213529
 20
223.0594704098458
 30
0.0
  0
VERTEX
  5
261
330
24D
100
AcDbEntity
  8
LAYER3
100
AcDbVertex
100
AcDb2dVertex
 10
200.1467220104001
 20
223.0771515316719
 30
0.0
  0
VERTEX
  5
262
330
24D
100
AcDbEntity
  8
LAYER3
100
AcDbVertex
100
AcDb2dVertex
 10
200.1789451754353
 20
223.0960724301095
 30
0.0
  0
VERTEX
  5
263
330
24D
100
AcDbEntity
  8
LAYER3
100
AcDbVertex
100
AcDb2dVertex
 10
200.2105064308903
 20
223.1161758846993
 30
0.0
  0
VERTEX
  5
264
330
24D
100
AcDbEntity
  8
LAYER3
100
AcDbVertex
100
AcDb2dVertex
 10
200.2412829911969
 20
223.1374046749825
 30
0.0
  0
VERTEX
  5
265
330
24D
100
AcDbEntity
  8
LAYER3
100
AcDbVertex
100
AcDb2dVertex
 10
200.2711520707868
 20
223.1597015805001
 30
0.0
  0
VERTEX
  5
266
330
24D
100
AcDbEntity
  8
LAYER3
100
AcDbVertex
100
AcDb2dVertex
 10
200.2999908840916
 20
223.1829712338204
 30
0.0
  0
SEQEND
  5
267
330
24D
100
AcDbEntity
  8
LAYER3
  0
ARC
  5
268
330
2
100
AcDbEntity
  8
LAYER3
100
AcDbCircle
 10
202.4544542250301
 20
220.6176662535038
 30
0.0
 40
3.350000000009969
100
AcDbArc
 50
121.9748830508353
 51
130.0251169491638
  0
POLYLINE
  5
269
330
2
100
AcDbEntity
  8
LAYER3
100
AcDb2dPolyline
 66
     1
 10
0.0
 20
0.0
 30
0.0
 70
   128
  0
VERTEX
  5
26A
330
269
100
AcDbEntity
  8
LAYER3
100
AcDbVertex
100
AcDb2dVertex
 10
200.6804702794812
 20
223.4594032711739
 30
0.0
  0
VERTEX
  5
26B
330
269
100
AcDbEntity
  8
LAYER3
100
AcDbVertex
100
AcDb2dVertex
 10
200.7115210211537
 20
223.4796402401681
 30
0.0
  0
VERTEX
  5
26C
330
269
100
AcDbEntity
  8
LAYER3
100
AcDbVertex
100
AcDb2dVertex
 10
200.7419462120793
 20
223.5011551327461
 30
0.0
  0
VERTEX
  5
26D
330
269
100
AcDbEntity
  8
LAYER3
100
AcDbVertex
100
AcDb2dVertex
 10
200.7716472065709
 20
223.523871654963
 30
0.0
  0
VERTEX
  5
26E
330
269
100
AcDbEntity
  8
LAYER3
100
AcDbVertex
100
AcDb2dVertex
 10
200.8005250609181
 20
223.5476753659005
 30
0.0
  0
VERTEX
  5
26F
330
269
100
AcDbEntity
  8
LAYER3
100
AcDbVertex
100
AcDb2dVertex
 10
200.8284808314107
 20
223.572470898127
 30
0.0
  0
VERTEX
  5
270
330
269
100
AcDbEntity
  8
LAYER3
100
AcDbVertex
100
AcDb2dVertex
 10
200.8554161703847
 20
223.598162884211
 30
0.0
  0
VERTEX
  5
271
330
269
100
AcDbEntity
  8
LAYER3
100
AcDbVertex
100
AcDb2dVertex
 10
200.881232432153
 20
223.6246559567208
 30
0.0
  0
VERTEX
  5
272
330
269
100
AcDbEntity
  8
LAYER3
100
AcDbVertex
100
AcDb2dVertex
 10
200.9058303749821
 20
223.651873821711
 30
0.0
  0
VERTEX
  5
273
330
269
100
AcDbEntity
  8
LAYER3
100
AcDbVertex
100
AcDb2dVertex
 10
200.929119399812
 20
223.6796829647774
 30
0.0
  0
VERTEX
  5
274
330
269
100
AcDbEntity
  8
LAYER3
100
AcDbVertex
100
AcDb2dVertex
 10
200.9510834133885
 20
223.707968945002
 30
0.0
  0
VERTEX
  5
275
330
269
100
AcDbEntity
  8
LAYER3
100
AcDbVertex
100
AcDb2dVertex
 10
200.9717262900135
 20
223.7366363949532
 30
0.0
  0
VERTEX
  5
276
330
269
100
AcDbEntity
  8
LAYER3
100
AcDbVertex
100
AcDb2dVertex
 10
200.9910495198032
 20
223.765513653254
 30
0.0
  0
VERTEX
  5
277
330
269
100
AcDbEntity
  8
LAYER3
100
AcDbVertex
100
AcDb2dVertex
 10
201.0090560829899
 20
223.7945053524727
 30
0.0
  0
VERTEX
  5
278
330
269
100
AcDbEntity
  8
LAYER3
100
AcDbVertex
100
AcDb2dVertex
 10
201.0257471716664
 20
223.8234589047188
 30
0.0
  0
VERTEX
  5
279
330
269
100
AcDbEntity
  8
LAYER3
100
AcDbVertex
100
AcDb2dVertex
 10
201.0411251700184
 20
223.8522598690743
 30
0.0
  0
VERTEX
  5
27A
330
269
100
AcDbEntity
  8
LAYER3
100
AcDbVertex
100
AcDb2dVertex
 10
201.0551912701389
 20
223.8807747311348
 30
0.0
  0
VERTEX
  5
27B
330
269
100
AcDbEntity
  8
LAYER3
100
AcDbVertex
100
AcDb2dVertex
 10
201.0679484522602
 20
223.9088509030098
 30
0.0
  0
VERTEX
  5
27C
330
269
100
AcDbEntity
  8
LAYER3
100
AcDbVertex
100
AcDb2dVertex
 10
201.07963871124
 20
223.9369080013985
 30
0.0
  0
VERTEX
  5
27D
330
269
100
AcDbEntity
  8
LAYER3
100
AcDbVertex
100
AcDb2dVertex
 10
201.0904462254307
 20
223.9652130551094
 30
0.0
  0
VERTEX
  5
27E
330
269
100
AcDbEntity
  8
LAYER3
100
AcDbVertex
100
AcDb2dVertex
 10
201.1003686106464
 20
223.993785137629
 30
0.0
  0
VERTEX
  5
27F
330
269
100
AcDbEntity
  8
LAYER3
100
AcDbVertex
100
AcDb2dVertex
 10
201.109402886655
 20
224.0225479550118
 30
0.0
  0
VERTEX
  5
280
330
269
100
AcDbEntity
  8
LAYER3
100
AcDbVertex
100
AcDb2dVertex
 10
201.1175460732242
 20
224.0515015072579
 30
0.0
  0
VERTEX
  5
281
330
269
100
AcDbEntity
  8
LAYER3
100
AcDbVertex
100
AcDb2dVertex
 10
201.1247957861682
 20
224.0806076473946
 30
0.0
  0
VERTEX
  5
282
330
269
100
AcDbEntity
  8
LAYER3
100
AcDbVertex
100
AcDb2dVertex
 10
201.1311490452548
 20
224.109809154963
 30
0.0
  0
SEQEND
  5
283
330
269
100
AcDbEntity
  8
LAYER3
  0
POLYLINE
  5
284
330
2
100
AcDbEntity
  8
LAYER3
100
AcDb2dPolyline
 66
     1
 10
0.0
 20
0.0
 30
0.0
 70
   128
  0
VERTEX
  5
285
330
284
100
AcDbEntity
  8
LAYER3
100
AcDbVertex
100
AcDb2dVertex
 10
201.1311490452548
 20
224.109809154963
 30
0.0
  0
VERTEX
  5
286
330
284
100
AcDbEntity
  8
LAYER3
100
AcDbVertex
100
AcDb2dVertex
 10
201.164053789403
 20
224.2391846127266
 30
0.0
  0
VERTEX
  5
287
330
284
100
AcDbEntity
  8
LAYER3
100
AcDbVertex
100
AcDb2dVertex
 10
201.2101335442324
 20
224.3660614437813
 30
0.0
  0
VERTEX
  5
288
330
284
100
AcDbEntity
  8
LAYER3
100
AcDbVertex
100
AcDb2dVertex
 10
201.2692375099917
 20
224.4889519161934
 30
0.0
  0
VERTEX
  5
289
330
284
100
AcDbEntity
  8
LAYER3
100
AcDbVertex
100
AcDb2dVertex
 10
201.3415898001452
 20
224.6068260617013
 30
0.0
  0
VERTEX
  5
28A
330
284
100
AcDbEntity
  8
LAYER3
100
AcDbVertex
100
AcDb2dVertex
 10
201.4321268713732
 20
224.7241280026192
 30
0.0
  0
VERTEX
  5
28B
330
284
100
AcDbEntity
  8
LAYER3
100
AcDbVertex
100
AcDb2dVertex
 10
201.5411163485307
 20
224.8367950863594
 30
0.0
  0
VERTEX
  5
28C
330
284
100
AcDbEntity
  8
LAYER3
100
AcDbVertex
100
AcDb2dVertex
 10
201.6660572207231
 20
224.9383041805977
 30
0.0
  0
VERTEX
  5
28D
330
284
100
AcDbEntity
  8
LAYER3
100
AcDbVertex
100
AcDb2dVertex
 10
201.8013210213441
 20
225.0241348690743
 30
0.0
  0
VERTEX
  5
28E
330
284
100
AcDbEntity
  8
LAYER3
100
AcDbVertex
100
AcDb2dVertex
 10
201.9475395596284
 20
225.0937340206856
 30
0.0
  0
VERTEX
  5
28F
330
284
100
AcDbEntity
  8
LAYER3
100
AcDbVertex
100
AcDb2dVertex
 10
202.1113444483537
 20
225.1483223385567
 30
0.0
  0
VERTEX
  5
290
330
284
100
AcDbEntity
  8
LAYER3
100
AcDbVertex
100
AcDb2dVertex
 10
202.2840214884538
 20
225.1817009396309
 30
0.0
  0
VERTEX
  5
291
330
284
100
AcDbEntity
  8
LAYER3
100
AcDbVertex
100
AcDb2dVertex
 10
202.4544544136781
 20
225.1926681942696
 30
0.0
  0
VERTEX
  5
292
330
284
100
AcDbEntity
  8
LAYER3
100
AcDbVertex
100
AcDb2dVertex
 10
202.6248867428559
 20
225.1817009396309
 30
0.0
  0
VERTEX
  5
293
330
284
100
AcDbEntity
  8
LAYER3
100
AcDbVertex
100
AcDb2dVertex
 10
202.797563782956
 20
225.1483223385567
 30
0.0
  0
VERTEX
  5
294
330
284
100
AcDbEntity
  8
LAYER3
100
AcDbVertex
100
AcDb2dVertex
 10
202.9613686716813
 20
225.0937340206856
 30
0.0
  0
VERTEX
  5
295
330
284
100
AcDbEntity
  8
LAYER3
100
AcDbVertex
100
AcDb2dVertex
 10
203.1075872099656
 20
225.0241348690743
 30
0.0
  0
VERTEX
  5
296
330
284
100
AcDbEntity
  8
LAYER3
100
AcDbVertex
100
AcDb2dVertex
 10
203.2428510105867
 20
224.9383041805977
 30
0.0
  0
VERTEX
  5
297
330
284
100
AcDbEntity
  8
LAYER3
100
AcDbVertex
100
AcDb2dVertex
 10
203.3677918827791
 20
224.8367950863594
 30
0.0
  0
VERTEX
  5
298
330
284
100
AcDbEntity
  8
LAYER3
100
AcDbVertex
100
AcDb2dVertex
 10
203.4767813599367
 20
224.7241280026192
 30
0.0
  0
VERTEX
  5
299
330
284
100
AcDbEntity
  8
LAYER3
100
AcDbVertex
100
AcDb2dVertex
 10
203.5673184311648
 20
224.6068260617013
 30
0.0
  0
VERTEX
  5
29A
330
284
100
AcDbEntity
  8
LAYER3
100
AcDbVertex
100
AcDb2dVertex
 10
203.6396707213183
 20
224.4889519161934
 30
0.0
  0
VERTEX
  5
29B
330
284
100
AcDbEntity
  8
LAYER3
100
AcDbVertex
100
AcDb2dVertex
 10
203.698775283124
 20
224.3660614437813
 30
0.0
  0
VERTEX
  5
29C
330
284
100
AcDbEntity
  8
LAYER3
100
AcDbVertex
100
AcDb2dVertex
 10
203.7448550379535
 20
224.2391846127266
 30
0.0
  0
VERTEX
  5
29D
330
284
100
AcDbEntity
  8
LAYER3
100
AcDbVertex
100
AcDb2dVertex
 10
203.7777597821018
 20
224.109809154963
 30
0.0
  0
SEQEND
  5
29E
330
284
100
AcDbEntity
  8
LAYER3
  0
POLYLINE
  5
29F
330
2
100
AcDbEntity
  8
LAYER3
100
AcDb2dPolyline
 66
     1
 10
0.0
 20
0.0
 30
0.0
 70
   128
  0
VERTEX
  5
2A0
330
29F
100
AcDbEntity
  8
LAYER3
100
AcDbVertex
100
AcDb2dVertex
 10
203.7777597821018
 20
224.109809154963
 30
0.0
  0
VERTEX
  5
2A1
330
29F
100
AcDbEntity
  8
LAYER3
100
AcDbVertex
100
AcDb2dVertex
 10
203.7841130411884
 20
224.0806076473946
 30
0.0
  0
VERTEX
  5
2A2
330
29F
100
AcDbEntity
  8
LAYER3
100
AcDbVertex
100
AcDb2dVertex
 10
203.791362158086
 20
224.0515015072579
 30
0.0
  0
VERTEX
  5
2A3
330
29F
100
AcDbEntity
  8
LAYER3
100
AcDbVertex
100
AcDb2dVertex
 10
203.7995059407017
 20
224.0225479550118
 30
0.0
  0
VERTEX
  5
2A4
330
29F
100
AcDbEntity
  8
LAYER3
100
AcDbVertex
100
AcDb2dVertex
 10
203.8085396206638
 20
223.993785137629
 30
0.0
  0
VERTEX
  5
2A5
330
29F
100
AcDbEntity
  8
LAYER3
100
AcDbVertex
100
AcDb2dVertex
 10
203.8184620058796
 20
223.9652130551094
 30
0.0
  0
VERTEX
  5
2A6
330
29F
100
AcDbEntity
  8
LAYER3
100
AcDbVertex
100
AcDb2dVertex
 10
203.8292695200702
 20
223.9369080013985
 30
0.0
  0
VERTEX
  5
2A7
330
29F
100
AcDbEntity
  8
LAYER3
100
AcDbVertex
100
AcDb2dVertex
 10
203.84095977905
 20
223.9088509030098
 30
0.0
  0
VERTEX
  5
2A8
330
29F
100
AcDbEntity
  8
LAYER3
100
AcDbVertex
100
AcDb2dVertex
 10
203.8537175572178
 20
223.8807747311348
 30
0.0
  0
VERTEX
  5
2A9
330
29F
100
AcDbEntity
  8
LAYER3
100
AcDbVertex
100
AcDb2dVertex
 10
203.8677836573384
 20
223.8522598690743
 30
0.0
  0
VERTEX
  5
2AA
330
29F
100
AcDbEntity
  8
LAYER3
100
AcDbVertex
100
AcDb2dVertex
 10
203.883161059644
 20
223.8234589047188
 30
0.0
  0
VERTEX
  5
2AB
330
29F
100
AcDbEntity
  8
LAYER3
100
AcDbVertex
100
AcDb2dVertex
 10
203.8998521483204
 20
223.7945053524727
 30
0.0
  0
VERTEX
  5
2AC
330
29F
100
AcDbEntity
  8
LAYER3
100
AcDbVertex
100
AcDb2dVertex
 10
203.917858711507
 20
223.765513653254
 30
0.0
  0
VERTEX
  5
2AD
330
29F
100
AcDbEntity
  8
LAYER3
100
AcDbVertex
100
AcDb2dVertex
 10
203.9371825373432
 20
223.7366363949532
 30
0.0
  0
VERTEX
  5
2AE
330
29F
100
AcDbEntity
  8
LAYER3
100
AcDbVertex
100
AcDb2dVertex
 10
203.9578248179219
 20
223.707968945002
 30
0.0
  0
VERTEX
  5
2AF
330
29F
100
AcDbEntity
  8
LAYER3
100
AcDbVertex
100
AcDb2dVertex
 10
203.9797891295216
 20
223.6796829647774
 30
0.0
  0
VERTEX
  5
2B0
330
29F
100
AcDbEntity
  8
LAYER3
100
AcDbVertex
100
AcDb2dVertex
 10
204.0030778563283
 20
223.651873821711
 30
0.0
  0
VERTEX
  5
2B1
330
29F
100
AcDbEntity
  8
LAYER3
100
AcDbVertex
100
AcDb2dVertex
 10
204.0276760971806
 20
223.6246559567208
 30
0.0
  0
VERTEX
  5
2B2
330
29F
100
AcDbEntity
  8
LAYER3
100
AcDbVertex
100
AcDb2dVertex
 10
204.0534920609257
 20
223.598162884211
 30
0.0
  0
VERTEX
  5
2B3
330
29F
100
AcDbEntity
  8
LAYER3
100
AcDbVertex
100
AcDb2dVertex
 10
204.0804273998997
 20
223.572470898127
 30
0.0
  0
VERTEX
  5
2B4
330
29F
100
AcDbEntity
  8
LAYER3
100
AcDbVertex
100
AcDb2dVertex
 10
204.1083837664388
 20
223.5476753659005
 30
0.0
  0
VERTEX
  5
2B5
330
29F
100
AcDbEntity
  8
LAYER3
100
AcDbVertex
100
AcDb2dVertex
 10
204.137261620786
 20
223.523871654963
 30
0.0
  0
VERTEX
  5
2B6
330
29F
100
AcDbEntity
  8
LAYER3
100
AcDbVertex
100
AcDb2dVertex
 10
204.1669620192311
 20
223.5011551327461
 30
0.0
  0
VERTEX
  5
2B7
330
29F
100
AcDbEntity
  8
LAYER3
100
AcDbVertex
100
AcDb2dVertex
 10
204.1973872101567
 20
223.4796402401681
 30
0.0
  0
VERTEX
  5
2B8
330
29F
100
AcDbEntity
  8
LAYER3
100
AcDbVertex
100
AcDb2dVertex
 10
204.2284382498524
 20
223.4594032711739
 30
0.0
  0
SEQEND
  5
2B9
330
29F
100
AcDbEntity
  8
LAYER3
  0
ARC
  5
2BA
330
2
100
AcDbEntity
  8
LAYER3
100
AcDbCircle
 10
202.4544542250233
 20
220.6176662535105
 30
0.0
 40
3.3500000000015
100
AcDbArc
 50
49.9748830508287
 51
58.02511694917191
  0
POLYLINE
  5
2BB
330
2
100
AcDbEntity
  8
LAYER3
100
AcDb2dPolyline
 66
     1
 10
0.0
 20
0.0
 30
0.0
 70
   128
  0
VERTEX
  5
2BC
330
2BB
100
AcDbEntity
  8
LAYER3
100
AcDbVertex
100
AcDb2dVertex
 10
204.6089173472188
 20
223.1829712338204
 30
0.0
  0
VERTEX
  5
2BD
330
2BB
100
AcDbEntity
  8
LAYER3
100
AcDbVertex
100
AcDb2dVertex
 10
204.6377564585469
 20
223.1597015805001
 30
0.0
  0
VERTEX
  5
2BE
330
2BB
100
AcDbEntity
  8
LAYER3
100
AcDbVertex
100
AcDb2dVertex
 10
204.6676255381367
 20
223.1374046749825
 30
0.0
  0
VERTEX
  5
2BF
330
2BB
100
AcDbEntity
  8
LAYER3
100
AcDbVertex
100
AcDb2dVertex
 10
204.6984018004201
 20
223.1161758846993
 30
0.0
  0
VERTEX
  5
2C0
330
2BB
100
AcDbEntity
  8
LAYER3
100
AcDbVertex
100
AcDb2dVertex
 10
204.7299630558751
 20
223.0960724301095
 30
0.0
  0
VERTEX
  5
2C1
330
2BB
100
AcDbEntity
  8
LAYER3
100
AcDbVertex
100
AcDb2dVertex
 10
204.7621865189336
 20
223.0771515316719
 30
0.0
  0
VERTEX
  5
2C2
330
2BB
100
AcDbEntity
  8
LAYER3
100
AcDbVertex
100
AcDb2dVertex
 10
204.7949488079808
 20
223.0594704098458
 30
0.0
  0
VERTEX
  5
2C3
330
2BB
100
AcDbEntity
  8
LAYER3
100
AcDbVertex
100
AcDb2dVertex
 10
204.828127733495
 20
223.0431053585762
 30
0.0
  0
VERTEX
  5
2C4
330
2BB
100
AcDbEntity
  8
LAYER3
100
AcDbVertex
100
AcDb2dVertex
 10
204.8615999138615
 20
223.0281135983223
 30
0.0
  0
VERTEX
  5
2C5
330
2BB
100
AcDbEntity
  8
LAYER3
100
AcDbVertex
100
AcDb2dVertex
 10
204.8952443516514
 20
223.014552349543
 30
0.0
  0
VERTEX
  5
2C6
330
2BB
100
AcDbEntity
  8
LAYER3
100
AcDbVertex
100
AcDb2dVertex
 10
204.928944221761
 20
223.0024216122384
 30
0.0
  0
VERTEX
  5
2C7
330
2BB
100
AcDbEntity
  8
LAYER3
100
AcDbVertex
100
AcDb2dVertex
 10
204.9625779307148
 20
222.991645092463
 30
0.0
  0
VERTEX
  5
2C8
330
2BB
100
AcDbEntity
  8
LAYER3
100
AcDbVertex
100
AcDb2dVertex
 10
204.9960220968983
 20
222.9821846432442
 30
0.0
  0
VERTEX
  5
2C9
330
2BB
100
AcDbEntity
  8
LAYER3
100
AcDbVertex
100
AcDb2dVertex
 10
205.0291545307896
 20
222.9740211910958
 30
0.0
  0
VERTEX
  5
2CA
330
2BB
100
AcDbEntity
  8
LAYER3
100
AcDbVertex
100
AcDb2dVertex
 10
205.061851850774
 20
222.9670975155586
 30
0.0
  0
VERTEX
  5
2CB
330
2BB
100
AcDbEntity
  8
LAYER3
100
AcDbVertex
100
AcDb2dVertex
 10
205.0939918673298
 20
222.9613754696602
 30
0.0
  0
VERTEX
  5
2CC
330
2BB
100
AcDbEntity
  8
LAYER3
100
AcDbVertex
100
AcDb2dVertex
 10
205.1254511988422
 20
222.9567978329415
 30
0.0
  0
VERTEX
  5
2CD
330
2BB
100
AcDbEntity
  8
LAYER3
100
AcDbVertex
100
AcDb2dVertex
 10
205.1561094439289
 20
222.9533455319161
 30
0.0
  0
VERTEX
  5
2CE
330
2BB
100
AcDbEntity
  8
LAYER3
100
AcDbVertex
100
AcDb2dVertex
 10
205.1863921797535
 20
222.9508850521797
 30
0.0
  0
VERTEX
  5
2CF
330
2BB
100
AcDbEntity
  8
LAYER3
100
AcDbVertex
100
AcDb2dVertex
 10
205.2166659748814
 20
222.9493591732735
 30
0.0
  0
VERTEX
  5
2D0
330
2BB
100
AcDbEntity
  8
LAYER3
100
AcDbVertex
100
AcDb2dVertex
 10
205.2468974507115
 20
222.948748821711
 30
0.0
  0
VERTEX
  5
2D1
330
2BB
100
AcDbEntity
  8
LAYER3
100
AcDbVertex
100
AcDb2dVertex
 10
205.2770544207356
 20
222.9490539974923
 30
0.0
  0
VERTEX
  5
2D2
330
2BB
100
AcDbEntity
  8
LAYER3
100
AcDbVertex
100
AcDb2dVertex
 10
205.307104102399
 20
222.9502556271309
 30
0.0
  0
VERTEX
  5
2D3
330
2BB
100
AcDbEntity
  8
LAYER3
100
AcDbVertex
100
AcDb2dVertex
 10
205.3370143091937
 20
222.952353710627
 30
0.0
  0
VERTEX
  5
2D4
330
2BB
100
AcDbEntity
  8
LAYER3
100
AcDbVertex
100
AcDb2dVertex
 10
205.3667516625186
 20
222.9553291744942
 30
0.0
  0
SEQEND
  5
2D5
330
2BB
100
AcDbEntity
  8
LAYER3
  0
POLYLINE
  5
2D6
330
2
100
AcDbEntity
  8
LAYER3
100
AcDb2dPolyline
 66
     1
 10
0.0
 20
0.0
 30
0.0
 70
   128
  0
VERTEX
  5
2D7
330
2D6
100
AcDbEntity
  8
LAYER3
100
AcDbVertex
100
AcDb2dVertex
 10
205.3667516625186
 20
222.9553291744942
 30
0.0
  0
VERTEX
  5
2D8
330
2D6
100
AcDbEntity
  8
LAYER3
100
AcDbVertex
100
AcDb2dVertex
 10
205.49996327522
 20
222.9640266842598
 30
0.0
  0
VERTEX
  5
2D9
330
2D6
100
AcDbEntity
  8
LAYER3
100
AcDbVertex
100
AcDb2dVertex
 10
205.6348771965762
 20
222.9594109005684
 30
0.0
  0
VERTEX
  5
2DA
330
2D6
100
AcDbEntity
  8
LAYER3
100
AcDbVertex
100
AcDb2dVertex
 10
205.770011655118
 20
222.9411575741524
 30
0.0
  0
VERTEX
  5
2DB
330
2D6
100
AcDbEntity
  8
LAYER3
100
AcDbVertex
100
AcDb2dVertex
 10
205.9044821179171
 20
222.9087898678536
 30
0.0
  0
VERTEX
  5
2DC
330
2D6
100
AcDbEntity
  8
LAYER3
100
AcDbVertex
100
AcDb2dVertex
 10
206.04402433994
 20
222.8589317745919
 30
0.0
  0
VERTEX
  5
2DD
330
2D6
100
AcDbEntity
  8
LAYER3
100
AcDbVertex
100
AcDb2dVertex
 10
206.1848558104296
 20
222.7900955624336
 30
0.0
  0
VERTEX
  5
2DE
330
2D6
100
AcDbEntity
  8
LAYER3
100
AcDbVertex
100
AcDb2dVertex
 10
206.3199998057146
 20
222.7026245541329
 30
0.0
  0
VERTEX
  5
2DF
330
2D6
100
AcDbEntity
  8
LAYER3
100
AcDbVertex
100
AcDb2dVertex
 10
206.4434243357438
 20
222.6005051083321
 30
0.0
  0
VERTEX
  5
2E0
330
2D6
100
AcDbEntity
  8
LAYER3
100
AcDbVertex
100
AcDb2dVertex
 10
206.5548015749711
 20
222.4829552120919
 30
0.0
  0
VERTEX
  5
2E1
330
2D6
100
AcDbEntity
  8
LAYER3
100
AcDbVertex
100
AcDb2dVertex
 10
206.6573454058426
 20
222.3440430111641
 30
0.0
  0
VERTEX
  5
2E2
330
2D6
100
AcDbEntity
  8
LAYER3
100
AcDbVertex
100
AcDb2dVertex
 10
206.7424417650956
 20
222.1901199764962
 30
0.0
  0
VERTEX
  5
2E3
330
2D6
100
AcDbEntity
  8
LAYER3
100
AcDbVertex
100
AcDb2dVertex
 10
206.8055380499619
 20
222.0314094967598
 30
0.0
  0
VERTEX
  5
2E4
330
2D6
100
AcDbEntity
  8
LAYER3
100
AcDbVertex
100
AcDb2dVertex
 10
206.8477750933427
 20
221.8659470028633
 30
0.0
  0
VERTEX
  5
2E5
330
2D6
100
AcDbEntity
  8
LAYER3
100
AcDbVertex
100
AcDb2dVertex
 10
206.8693996584672
 20
221.6914055294747
 30
0.0
  0
VERTEX
  5
2E6
330
2D6
100
AcDbEntity
  8
LAYER3
100
AcDbVertex
100
AcDb2dVertex
 10
206.8680919325609
 20
221.5187332577462
 30
0.0
  0
VERTEX
  5
2E7
330
2D6
100
AcDbEntity
  8
LAYER3
100
AcDbVertex
100
AcDb2dVertex
 10
206.8470836794633
 20
221.358172649836
 30
0.0
  0
VERTEX
  5
2E8
330
2D6
100
AcDbEntity
  8
LAYER3
100
AcDbVertex
100
AcDb2dVertex
 10
206.8072558558244
 20
221.2030098385567
 30
0.0
  0
VERTEX
  5
2E9
330
2D6
100
AcDbEntity
  8
LAYER3
100
AcDbVertex
100
AcDb2dVertex
 10
206.7493296778459
 20
221.0528061337227
 30
0.0
  0
VERTEX
  5
2EA
330
2D6
100
AcDbEntity
  8
LAYER3
100
AcDbVertex
100
AcDb2dVertex
 10
206.6758562243242
 20
220.9143516964669
 30
0.0
  0
VERTEX
  5
2EB
330
2D6
100
AcDbEntity
  8
LAYER3
100
AcDbVertex
100
AcDb2dVertex
 10
206.59227024677
 20
220.791995281672
 30
0.0
  0
VERTEX
  5
2EC
330
2D6
100
AcDbEntity
  8
LAYER3
100
AcDbVertex
100
AcDb2dVertex
 10
206.5025163805743
 20
220.6867477841134
 30
0.0
  0
VERTEX
  5
2ED
330
2D6
100
AcDbEntity
  8
LAYER3
100
AcDbVertex
100
AcDb2dVertex
 10
206.4039100325366
 20
220.5925629086251
 30
0.0
  0
VERTEX
  5
2EE
330
2D6
100
AcDbEntity
  8
LAYER3
100
AcDbVertex
100
AcDb2dVertex
 10
206.2974752104541
 20
220.5095360226387
 30
0.0
  0
VERTEX
  5
2EF
330
2D6
100
AcDbEntity
  8
LAYER3
100
AcDbVertex
100
AcDb2dVertex
 10
206.1845995104572
 20
220.4382584042305
 30
0.0
  0
SEQEND
  5
2F0
330
2D6
100
AcDbEntity
  8
LAYER3
  0
POLYLINE
  5
2F1
330
2
100
AcDbEntity
  8
LAYER3
100
AcDb2dPolyline
 66
     1
 10
0.0
 20
0.0
 30
0.0
 70
   128
  0
VERTEX
  5
2F2
330
2F1
100
AcDbEntity
  8
LAYER3
100
AcDbVertex
100
AcDb2dVertex
 10
206.1845995104572
 20
220.4382584042305
 30
0.0
  0
VERTEX
  5
2F3
330
2F1
100
AcDbEntity
  8
LAYER3
100
AcDbVertex
100
AcDb2dVertex
 10
206.1587883150837
 20
220.4231903500313
 30
0.0
  0
VERTEX
  5
2F4
330
2F1
100
AcDbEntity
  8
LAYER3
100
AcDbVertex
100
AcDb2dVertex
 10
206.1333585894367
 20
220.40730213592
 30
0.0
  0
VERTEX
  5
2F5
330
2F1
100
AcDbEntity
  8
LAYER3
100
AcDbVertex
100
AcDb2dVertex
 10
206.1083413279316
 20
220.3906128353829
 30
0.0
  0
VERTEX
  5
2F6
330
2F1
100
AcDbEntity
  8
LAYER3
100
AcDbVertex
100
AcDb2dVertex
 10
206.0837687170765
 20
220.3731415219063
 30
0.0
  0
VERTEX
  5
2F7
330
2F1
100
AcDbEntity
  8
LAYER3
100
AcDbVertex
100
AcDb2dVertex
 10
206.0596693671009
 20
220.354869122004
 30
0.0
  0
VERTEX
  5
2F8
330
2F1
100
AcDbEntity
  8
LAYER3
100
AcDbVertex
100
AcDb2dVertex
 10
206.0360742724201
 20
220.3358337826485
 30
0.0
  0
VERTEX
  5
2F9
330
2F1
100
AcDbEntity
  8
LAYER3
100
AcDbVertex
100
AcDb2dVertex
 10
206.0130168116352
 20
220.3160545773263
 30
0.0
  0
VERTEX
  5
2FA
330
2F1
100
AcDbEntity
  8
LAYER3
100
AcDbVertex
100
AcDb2dVertex
 10
205.9902430689594
 20
220.2952454037423
 30
0.0
  0
VERTEX
  5
2FB
330
2F1
100
AcDbEntity
  8
LAYER3
100
AcDbVertex
100
AcDb2dVertex
 10
205.9674776709339
 20
220.2730629391426
 30
0.0
  0
VERTEX
  5
2FC
330
2F1
100
AcDbEntity
  8
LAYER3
100
AcDbVertex
100
AcDb2dVertex
 10
205.9448416149876
 20
220.2495262570137
 30
0.0
  0
VERTEX
  5
2FD
330
2F1
100
AcDbEntity
  8
LAYER3
100
AcDbVertex
100
AcDb2dVertex
 10
205.922459474828
 20
220.2247116513008
 30
0.0
  0
VERTEX
  5
2FE
330
2F1
100
AcDbEntity
  8
LAYER3
100
AcDbVertex
100
AcDb2dVertex
 10
205.9004558241627
 20
220.198619122004
 30
0.0
  0
VERTEX
  5
2FF
330
2F1
100
AcDbEntity
  8
LAYER3
100
AcDbVertex
100
AcDb2dVertex
 10
205.8789540446064
 20
220.1713249630684
 30
0.0
  0
VERTEX
  5
300
330
2F1
100
AcDbEntity
  8
LAYER3
100
AcDbVertex
100
AcDb2dVertex
 10
205.8580787098668
 20
220.1428291744942
 30
0.0
  0
VERTEX
  5
301
330
2F1
100
AcDbEntity
  8
LAYER3
100
AcDbVertex
100
AcDb2dVertex
 10
205.8379532015584
 20
220.1132080502266
 30
0.0
  0
VERTEX
  5
302
330
2F1
100
AcDbEntity
  8
LAYER3
100
AcDbVertex
100
AcDb2dVertex
 10
205.8187020933888
 20
220.0824615902657
 30
0.0
  0
VERTEX
  5
303
330
2F1
100
AcDbEntity
  8
LAYER3
100
AcDbVertex
100
AcDb2dVertex
 10
205.8004320776723
 20
220.0506660885567
 30
0.0
  0
VERTEX
  5
304
330
2F1
100
AcDbEntity
  8
LAYER3
100
AcDbVertex
100
AcDb2dVertex
 10
205.783208719518
 20
220.0179169125313
 30
0.0
  0
VERTEX
  5
305
330
2F1
100
AcDbEntity
  8
LAYER3
100
AcDbVertex
100
AcDb2dVertex
 10
205.76709341171
 20
219.9843666500802
 30
0.0
  0
VERTEX
  5
306
330
2F1
100
AcDbEntity
  8
LAYER3
100
AcDbVertex
100
AcDb2dVertex
 10
205.7521481430791
 20
219.9501106686348
 30
0.0
  0
VERTEX
  5
307
330
2F1
100
AcDbEntity
  8
LAYER3
100
AcDbVertex
100
AcDb2dVertex
 10
205.7384343064092
 20
219.9152824825997
 30
0.0
  0
VERTEX
  5
308
330
2F1
100
AcDbEntity
  8
LAYER3
100
AcDbVertex
100
AcDb2dVertex
 10
205.7260138905308
 20
219.880015606379
 30
0.0
  0
VERTEX
  5
309
330
2F1
100
AcDbEntity
  8
LAYER3
100
AcDbVertex
100
AcDb2dVertex
 10
205.7149482882283
 20
219.844443554377
 30
0.0
  0
VERTEX
  5
30A
330
2F1
100
AcDbEntity
  8
LAYER3
100
AcDbVertex
100
AcDb2dVertex
 10
205.7053000843785
 20
219.8086616940255
 30
0.0
  0
SEQEND
  5
30B
330
2F1
100
AcDbEntity
  8
LAYER3
  0
POLYLINE
  5
30C
330
2
100
AcDbEntity
  8
LAYER3
100
AcDb2dPolyline
 66
     1
 10
0.0
 20
0.0
 30
0.0
 70
   128
  0
VERTEX
  5
30D
330
30C
100
AcDbEntity
  8
LAYER3
100
AcDbVertex
100
AcDb2dVertex
 10
198.7243090188762
 20
220.4382584042305
 30
0.0
  0
VERTEX
  5
30E
330
30C
100
AcDbEntity
  8
LAYER3
100
AcDbVertex
100
AcDb2dVertex
 10
198.6114336169024
 20
220.5095360226387
 30
0.0
  0
VERTEX
  5
30F
330
30C
100
AcDbEntity
  8
LAYER3
100
AcDbVertex
100
AcDb2dVertex
 10
198.5049984967966
 20
220.5925629086251
 30
0.0
  0
VERTEX
  5
310
330
30C
100
AcDbEntity
  8
LAYER3
100
AcDbVertex
100
AcDb2dVertex
 10
198.4063925957937
 20
220.6867477841134
 30
0.0
  0
VERTEX
  5
311
330
30C
100
AcDbEntity
  8
LAYER3
100
AcDbVertex
100
AcDb2dVertex
 10
198.3166382825632
 20
220.791995281672
 30
0.0
  0
VERTEX
  5
312
330
30C
100
AcDbEntity
  8
LAYER3
100
AcDbVertex
100
AcDb2dVertex
 10
198.2330517089624
 20
220.9143516964669
 30
0.0
  0
VERTEX
  5
313
330
30C
100
AcDbEntity
  8
LAYER3
100
AcDbVertex
100
AcDb2dVertex
 10
198.1595792985219
 20
221.0528061337227
 30
0.0
  0
VERTEX
  5
314
330
30C
100
AcDbEntity
  8
LAYER3
100
AcDbVertex
100
AcDb2dVertex
 10
198.1016520774621
 20
221.2030098385567
 30
0.0
  0
VERTEX
  5
315
330
30C
100
AcDbEntity
  8
LAYER3
100
AcDbVertex
100
AcDb2dVertex
 10
198.0618251478929
 20
221.358172649836
 30
0.0
  0
VERTEX
  5
316
330
30C
100
AcDbEntity
  8
LAYER3
100
AcDbVertex
100
AcDb2dVertex
 10
198.0408167457837
 20
221.5187332577462
 30
0.0
  0
VERTEX
  5
317
330
30C
100
AcDbEntity
  8
LAYER3
100
AcDbVertex
100
AcDb2dVertex
 10
198.0395091688889
 20
221.6914055294747
 30
0.0
  0
VERTEX
  5
318
330
30C
100
AcDbEntity
  8
LAYER3
100
AcDbVertex
100
AcDb2dVertex
 10
198.0611337340134
 20
221.8659470028633
 30
0.0
  0
VERTEX
  5
319
330
30C
100
AcDbEntity
  8
LAYER3
100
AcDbVertex
100
AcDb2dVertex
 10
198.1033706283826
 20
222.0314094967598
 30
0.0
  0
VERTEX
  5
31A
330
30C
100
AcDbEntity
  8
LAYER3
100
AcDbVertex
100
AcDb2dVertex
 10
198.1664667642373
 20
222.1901199764962
 30
0.0
  0
VERTEX
  5
31B
330
30C
100
AcDbEntity
  8
LAYER3
100
AcDbVertex
100
AcDb2dVertex
 10
198.2515626764554
 20
222.3440430111641
 30
0.0
  0
VERTEX
  5
31C
330
30C
100
AcDbEntity
  8
LAYER3
100
AcDbVertex
100
AcDb2dVertex
 10
198.3541071033734
 20
222.4829552120919
 30
0.0
  0
VERTEX
  5
31D
330
30C
100
AcDbEntity
  8
LAYER3
100
AcDbVertex
100
AcDb2dVertex
 10
198.4654835975426
 20
222.6005051083321
 30
0.0
  0
VERTEX
  5
31E
330
30C
100
AcDbEntity
  8
LAYER3
100
AcDbVertex
100
AcDb2dVertex
 10
198.588908127572
 20
222.7026245541329
 30
0.0
  0
VERTEX
  5
31F
330
30C
100
AcDbEntity
  8
LAYER3
100
AcDbVertex
100
AcDb2dVertex
 10
198.7240530169267
 20
222.7900955624336
 30
0.0
  0
VERTEX
  5
320
330
30C
100
AcDbEntity
  8
LAYER3
100
AcDbVertex
100
AcDb2dVertex
 10
198.8648844874163
 20
222.8589317745919
 30
0.0
  0
VERTEX
  5
321
330
30C
100
AcDbEntity
  8
LAYER3
100
AcDbVertex
100
AcDb2dVertex
 10
199.0044264114161
 20
222.9087898678536
 30
0.0
  0
VERTEX
  5
322
330
30C
100
AcDbEntity
  8
LAYER3
100
AcDbVertex
100
AcDb2dVertex
 10
199.1388968742151
 20
222.9411575741524
 30
0.0
  0
VERTEX
  5
323
330
30C
100
AcDbEntity
  8
LAYER3
100
AcDbVertex
100
AcDb2dVertex
 10
199.2740310347338
 20
222.9594109005684
 30
0.0
  0
VERTEX
  5
324
330
30C
100
AcDbEntity
  8
LAYER3
100
AcDbVertex
100
AcDb2dVertex
 10
199.40894495609
 20
222.9640266842598
 30
0.0
  0
VERTEX
  5
325
330
30C
100
AcDbEntity
  8
LAYER3
100
AcDbVertex
100
AcDb2dVertex
 10
199.5421565687915
 20
222.9553291744942
 30
0.0
  0
SEQEND
  5
326
330
30C
100
AcDbEntity
  8
LAYER3
  0
POLYLINE
  5
327
330
2
100
AcDbEntity
  8
LAYER3
100
AcDb2dPolyline
 66
     1
 10
0.0
 20
0.0
 30
0.0
 70
   128
  0
VERTEX
  5
328
330
327
100
AcDbEntity
  8
LAYER3
100
AcDbVertex
100
AcDb2dVertex
 10
199.2036084449551
 20
219.8086616940255
 30
0.0
  0
VERTEX
  5
329
330
327
100
AcDbEntity
  8
LAYER3
100
AcDbVertex
100
AcDb2dVertex
 10
199.1939602411053
 20
219.844443554377
 30
0.0
  0
VERTEX
  5
32A
330
327
100
AcDbEntity
  8
LAYER3
100
AcDbVertex
100
AcDb2dVertex
 10
199.1828946388028
 20
219.880015606379
 30
0.0
  0
VERTEX
  5
32B
330
327
100
AcDbEntity
  8
LAYER3
100
AcDbVertex
100
AcDb2dVertex
 10
199.1704745209477
 20
219.9152824825997
 30
0.0
  0
VERTEX
  5
32C
330
327
100
AcDbEntity
  8
LAYER3
100
AcDbVertex
100
AcDb2dVertex
 10
199.1567606842778
 20
219.9501106686348
 30
0.0
  0
VERTEX
  5
32D
330
327
100
AcDbEntity
  8
LAYER3
100
AcDbVertex
100
AcDb2dVertex
 10
199.1418151176236
 20
219.9843666500802
 30
0.0
  0
VERTEX
  5
32E
330
327
100
AcDbEntity
  8
LAYER3
100
AcDbVertex
100
AcDb2dVertex
 10
199.1256998098156
 20
220.0179169125313
 30
0.0
  0
VERTEX
  5
32F
330
327
100
AcDbEntity
  8
LAYER3
100
AcDbVertex
100
AcDb2dVertex
 10
199.1084761536381
 20
220.0506660885567
 30
0.0
  0
VERTEX
  5
330
330
327
100
AcDbEntity
  8
LAYER3
100
AcDbVertex
100
AcDb2dVertex
 10
199.0902061379216
 20
220.0824615902657
 30
0.0
  0
VERTEX
  5
331
330
327
100
AcDbEntity
  8
LAYER3
100
AcDbVertex
100
AcDb2dVertex
 10
199.0709553277753
 20
220.1132080502266
 30
0.0
  0
VERTEX
  5
332
330
327
100
AcDbEntity
  8
LAYER3
100
AcDbVertex
100
AcDb2dVertex
 10
199.0508298194668
 20
220.1428291744942
 30
0.0
  0
VERTEX
  5
333
330
327
100
AcDbEntity
  8
LAYER3
100
AcDbVertex
100
AcDb2dVertex
 10
199.0299541867038
 20
220.1713249630684
 30
0.0
  0
VERTEX
  5
334
330
327
100
AcDbEntity
  8
LAYER3
100
AcDbVertex
100
AcDb2dVertex
 10
199.0084524071476
 20
220.198619122004
 30
0.0
  0
VERTEX
  5
335
330
327
100
AcDbEntity
  8
LAYER3
100
AcDbVertex
100
AcDb2dVertex
 10
198.9864487564823
 20
220.2247116513008
 30
0.0
  0
VERTEX
  5
336
330
327
100
AcDbEntity
  8
LAYER3
100
AcDbVertex
100
AcDb2dVertex
 10
198.9640672123691
 20
220.2495262570137
 30
0.0
  0
VERTEX
  5
337
330
327
100
AcDbEntity
  8
LAYER3
100
AcDbVertex
100
AcDb2dVertex
 10
198.9414311564228
 20
220.2730629391426
 30
0.0
  0
VERTEX
  5
338
330
327
100
AcDbEntity
  8
LAYER3
100
AcDbVertex
100
AcDb2dVertex
 10
198.9186651623508
 20
220.2952454037423
 30
0.0
  0
VERTEX
  5
339
330
327
100
AcDbEntity
  8
LAYER3
100
AcDbVertex
100
AcDb2dVertex
 10
198.895891419675
 20
220.3160545773263
 30
0.0
  0
VERTEX
  5
33A
330
327
100
AcDbEntity
  8
LAYER3
100
AcDbVertex
100
AcDb2dVertex
 10
198.8728336608669
 20
220.3358337826485
 30
0.0
  0
VERTEX
  5
33B
330
327
100
AcDbEntity
  8
LAYER3
100
AcDbVertex
100
AcDb2dVertex
 10
198.8492394602558
 20
220.354869122004
 30
0.0
  0
VERTEX
  5
33C
330
327
100
AcDbEntity
  8
LAYER3
100
AcDbVertex
100
AcDb2dVertex
 10
198.8251401102802
 20
220.3731415219063
 30
0.0
  0
VERTEX
  5
33D
330
327
100
AcDbEntity
  8
LAYER3
100
AcDbVertex
100
AcDb2dVertex
 10
198.8005666053554
 20
220.3906128353829
 30
0.0
  0
VERTEX
  5
33E
330
327
100
AcDbEntity
  8
LAYER3
100
AcDbVertex
100
AcDb2dVertex
 10
198.7755496418735
 20
220.40730213592
 30
0.0
  0
VERTEX
  5
33F
330
327
100
AcDbEntity
  8
LAYER3
100
AcDbVertex
100
AcDb2dVertex
 10
198.7501199162265
 20
220.4231903500313
 30
0.0
  0
VERTEX
  5
340
330
327
100
AcDbEntity
  8
LAYER3
100
AcDbVertex
100
AcDb2dVertex
 10
198.7243090188762
 20
220.4382584042305
 30
0.0
  0
SEQEND
  5
341
330
327
100
AcDbEntity
  8
LAYER3
  0
ARC
  5
342
330
2
100
AcDbEntity
  8
LAYER3
100
AcDbCircle
 10
202.4544542250234
 20
220.6176662535115
 30
0.0
 40
3.349999999999185
100
AcDbArc
 50
193.9748830508234
 51
202.0251169491771
  0
POLYLINE
  5
343
330
2
100
AcDbEntity
  8
LAYER3
100
AcDb2dPolyline
 66
     1
 10
0.0
 20
0.0
 30
0.0
 70
   128
  0
VERTEX
  5
344
330
343
100
AcDbEntity
  8
LAYER3
100
AcDbVertex
100
AcDb2dVertex
 10
199.3312500036022
 20
218.5702774471993
 30
0.0
  0
VERTEX
  5
345
330
343
100
AcDbEntity
  8
LAYER3
100
AcDbVertex
100
AcDb2dVertex
 10
199.3432755387088
 20
218.5976479000801
 30
0.0
  0
VERTEX
  5
346
330
343
100
AcDbEntity
  8
LAYER3
100
AcDbVertex
100
AcDb2dVertex
 10
199.3545113122722
 20
218.6254379696602
 30
0.0
  0
VERTEX
  5
347
330
343
100
AcDbEntity
  8
LAYER3
100
AcDbVertex
100
AcDb2dVertex
 10
199.3649400389454
 20
218.6536476559395
 30
0.0
  0
VERTEX
  5
348
330
343
100
AcDbEntity
  8
LAYER3
100
AcDbVertex
100
AcDb2dVertex
 10
199.3745438373348
 20
218.6822388119454
 30
0.0
  0
VERTEX
  5
349
330
343
100
AcDbEntity
  8
LAYER3
100
AcDbVertex
100
AcDb2dVertex
 10
199.38330601814
 20
218.7111732907052
 30
0.0
  0
VERTEX
  5
34A
330
343
100
AcDbEntity
  8
LAYER3
100
AcDbVertex
100
AcDb2dVertex
 10
199.3912084019443
 20
218.7404510922188
 30
0.0
  0
VERTEX
  5
34B
330
343
100
AcDbEntity
  8
LAYER3
100
AcDbVertex
100
AcDb2dVertex
 10
199.398234001424
 20
218.7699959225411
 30
0.0
  0
VERTEX
  5
34C
330
343
100
AcDbEntity
  8
LAYER3
100
AcDbVertex
100
AcDb2dVertex
 10
199.4044242418072
 20
218.8002273983712
 30
0.0
  0
VERTEX
  5
34D
330
343
100
AcDbEntity
  8
LAYER3
100
AcDbVertex
100
AcDb2dVertex
 10
199.4098011768123
 20
218.8315651364083
 30
0.0
  0
VERTEX
  5
34E
330
343
100
AcDbEntity
  8
LAYER3
100
AcDbVertex
100
AcDb2dVertex
 10
199.4142870223782
 20
218.8638946957345
 30
0.0
  0
VERTEX
  5
34F
330
343
100
AcDbEntity
  8
LAYER3
100
AcDbVertex
100
AcDb2dVertex
 10
199.4178039944431
 20
218.8971397824044
 30
0.0
  0
VERTEX
  5
350
330
343
100
AcDbEntity
  8
LAYER3
100
AcDbVertex
100
AcDb2dVertex
 10
199.4202743089458
 20
218.9311668820137
 30
0.0
  0
VERTEX
  5
351
330
343
100
AcDbEntity
  8
LAYER3
100
AcDbVertex
100
AcDb2dVertex
 10
199.4216204798481
 20
218.9658997006173
 30
0.0
  0
VERTEX
  5
352
330
343
100
AcDbEntity
  8
LAYER3
100
AcDbVertex
100
AcDb2dVertex
 10
199.4217644250653
 20
219.0012047238106
 30
0.0
  0
VERTEX
  5
353
330
343
100
AcDbEntity
  8
LAYER3
100
AcDbVertex
100
AcDb2dVertex
 10
199.4206283605359
 20
219.0370247311348
 30
0.0
  0
VERTEX
  5
354
330
343
100
AcDbEntity
  8
LAYER3
100
AcDbVertex
100
AcDb2dVertex
 10
199.4181324160359
 20
219.0732071346993
 30
0.0
  0
VERTEX
  5
355
330
343
100
AcDbEntity
  8
LAYER3
100
AcDbVertex
100
AcDb2dVertex
 10
199.414221457269
 20
219.1096756405586
 30
0.0
  0
VERTEX
  5
356
330
343
100
AcDbEntity
  8
LAYER3
100
AcDbVertex
100
AcDb2dVertex
 10
199.4089109814427
 20
219.1462776608223
 30
0.0
  0
VERTEX
  5
357
330
343
100
AcDbEntity
  8
LAYER3
100
AcDbVertex
100
AcDb2dVertex
 10
199.4022239363453
 20
219.1828987545723
 30
0.0
  0
VERTEX
  5
358
330
343
100
AcDbEntity
  8
LAYER3
100
AcDbVertex
100
AcDb2dVertex
 10
199.3941829717419
 20
219.2194054074044
 30
0.0
  0
VERTEX
  5
359
330
343
100
AcDbEntity
  8
LAYER3
100
AcDbVertex
100
AcDb2dVertex
 10
199.3848110354207
 20
219.2556259579415
 30
0.0
  0
VERTEX
  5
35A
330
343
100
AcDbEntity
  8
LAYER3
100
AcDbVertex
100
AcDb2dVertex
 10
199.3741310751698
 20
219.291465038752
 30
0.0
  0
VERTEX
  5
35B
330
343
100
AcDbEntity
  8
LAYER3
100
AcDbVertex
100
AcDb2dVertex
 10
199.3621660387776
 20
219.3267509884591
 30
0.0
  0
VERTEX
  5
35C
330
343
100
AcDbEntity
  8
LAYER3
100
AcDbVertex
100
AcDb2dVertex
 10
199.3489388740323
 20
219.3613693661446
 30
0.0
  0
SEQEND
  5
35D
330
343
100
AcDbEntity
  8
LAYER3
  0
POLYLINE
  5
35E
330
2
100
AcDbEntity
  8
LAYER3
100
AcDb2dPolyline
 66
     1
 10
0.0
 20
0.0
 30
0.0
 70
   128
  0
VERTEX
  5
35F
330
35E
100
AcDbEntity
  8
LAYER3
100
AcDbVertex
100
AcDb2dVertex
 10
201.472402921941
 20
217.0146439022774
 30
0.0
  0
VERTEX
  5
360
330
35E
100
AcDbEntity
  8
LAYER3
100
AcDbVertex
100
AcDb2dVertex
 10
201.369737497594
 20
216.9293281979317
 30
0.0
  0
VERTEX
  5
361
330
35E
100
AcDbEntity
  8
LAYER3
100
AcDbVertex
100
AcDb2dVertex
 10
201.257877460744
 20
216.8537590450997
 30
0.0
  0
VERTEX
  5
362
330
35E
100
AcDbEntity
  8
LAYER3
100
AcDbVertex
100
AcDb2dVertex
 10
201.1378313219805
 20
216.789080852961
 30
0.0
  0
VERTEX
  5
363
330
35E
100
AcDbEntity
  8
LAYER3
100
AcDbVertex
100
AcDb2dVertex
 10
201.0100073731203
 20
216.7362472958321
 30
0.0
  0
VERTEX
  5
364
330
35E
100
AcDbEntity
  8
LAYER3
100
AcDbVertex
100
AcDb2dVertex
 10
200.8678109562655
 20
216.6945526547188
 30
0.0
  0
VERTEX
  5
365
330
35E
100
AcDbEntity
  8
LAYER3
100
AcDbVertex
100
AcDb2dVertex
 10
200.713413468625
 20
216.6674683041329
 30
0.0
  0
VERTEX
  5
366
330
35E
100
AcDbEntity
  8
LAYER3
100
AcDbVertex
100
AcDb2dVertex
 10
200.5526713645715
 20
216.6587898678536
 30
0.0
  0
VERTEX
  5
367
330
35E
100
AcDbEntity
  8
LAYER3
100
AcDbVertex
100
AcDb2dVertex
 10
200.392793229844
 20
216.6688606686348
 30
0.0
  0
VERTEX
  5
368
330
35E
100
AcDbEntity
  8
LAYER3
100
AcDbVertex
100
AcDb2dVertex
 10
200.2335907137651
 20
216.6985008663887
 30
0.0
  0
VERTEX
  5
369
330
35E
100
AcDbEntity
  8
LAYER3
100
AcDbVertex
100
AcDb2dVertex
 10
200.0689778840798
 20
216.7506096310372
 30
0.0
  0
VERTEX
  5
36A
330
35E
100
AcDbEntity
  8
LAYER3
100
AcDbVertex
100
AcDb2dVertex
 10
199.9096653974312
 20
216.8251106686348
 30
0.0
  0
VERTEX
  5
36B
330
35E
100
AcDbEntity
  8
LAYER3
100
AcDbVertex
100
AcDb2dVertex
 10
199.7653366244096
 20
216.9164154476876
 30
0.0
  0
VERTEX
  5
36C
330
35E
100
AcDbEntity
  8
LAYER3
100
AcDbVertex
100
AcDb2dVertex
 10
199.6338997400063
 20
217.0254585690255
 30
0.0
  0
VERTEX
  5
36D
330
35E
100
AcDbEntity
  8
LAYER3
100
AcDbVertex
100
AcDb2dVertex
 10
199.5138145602006
 20
217.1539566464181
 30
0.0
  0
VERTEX
  5
36E
330
35E
100
AcDbEntity
  8
LAYER3
100
AcDbVertex
100
AcDb2dVertex
 10
199.4133858001489
 20
217.2944137997383
 30
0.0
  0
VERTEX
  5
36F
330
35E
100
AcDbEntity
  8
LAYER3
100
AcDbVertex
100
AcDb2dVertex
 10
199.3360016858834
 20
217.4366638607735
 30
0.0
  0
VERTEX
  5
370
330
35E
100
AcDbEntity
  8
LAYER3
100
AcDbVertex
100
AcDb2dVertex
 10
199.2770184195299
 20
217.5856087155098
 30
0.0
  0
VERTEX
  5
371
330
35E
100
AcDbEntity
  8
LAYER3
100
AcDbVertex
100
AcDb2dVertex
 10
199.2356015360613
 20
217.7411529965157
 30
0.0
  0
VERTEX
  5
372
330
35E
100
AcDbEntity
  8
LAYER3
100
AcDbVertex
100
AcDb2dVertex
 10
199.2136509335298
 20
217.896373028254
 30
0.0
  0
VERTEX
  5
373
330
35E
100
AcDbEntity
  8
LAYER3
100
AcDbVertex
100
AcDb2dVertex
 10
199.2093555248041
 20
218.0444977230782
 30
0.0
  0
VERTEX
  5
374
330
35E
100
AcDbEntity
  8
LAYER3
100
AcDbVertex
100
AcDb2dVertex
 10
199.2201102888842
 20
218.1823799557442
 30
0.0
  0
VERTEX
  5
375
330
35E
100
AcDbEntity
  8
LAYER3
100
AcDbVertex
100
AcDb2dVertex
 10
199.2445237553378
 20
218.3165428585763
 30
0.0
  0
VERTEX
  5
376
330
35E
100
AcDbEntity
  8
LAYER3
100
AcDbVertex
100
AcDb2dVertex
 10
199.2818255341311
 20
218.4462807125802
 30
0.0
  0
VERTEX
  5
377
330
35E
100
AcDbEntity
  8
LAYER3
100
AcDbVertex
100
AcDb2dVertex
 10
199.3312500036022
 20
218.5702774471993
 30
0.0
  0
SEQEND
  5
378
330
35E
100
AcDbEntity
  8
LAYER3
  0
POLYLINE
  5
379
330
2
100
AcDbEntity
  8
LAYER3
100
AcDb2dPolyline
 66
     1
 10
0.0
 20
0.0
 30
0.0
 70
   128
  0
VERTEX
  5
37A
330
379
100
AcDbEntity
  8
LAYER3
100
AcDbVertex
100
AcDb2dVertex
 10
202.2193051493428
 20
217.2759315914864
 30
0.0
  0
VERTEX
  5
37B
330
379
100
AcDbEntity
  8
LAYER3
100
AcDbVertex
100
AcDb2dVertex
 10
202.1822912609837
 20
217.2778198666329
 30
0.0
  0
VERTEX
  5
37C
330
379
100
AcDbEntity
  8
LAYER3
100
AcDbVertex
100
AcDb2dVertex
 10
202.1450270331166
 20
217.2782776303048
 30
0.0
  0
VERTEX
  5
37D
330
379
100
AcDbEntity
  8
LAYER3
100
AcDbVertex
100
AcDb2dVertex
 10
202.1076501524709
 20
217.277362102961
 30
0.0
  0
VERTEX
  5
37E
330
379
100
AcDbEntity
  8
LAYER3
100
AcDbVertex
100
AcDb2dVertex
 10
202.0702965176365
 20
217.2750923580879
 30
0.0
  0
VERTEX
  5
37F
330
379
100
AcDbEntity
  8
LAYER3
100
AcDbVertex
100
AcDb2dVertex
 10
202.0331038153432
 20
217.2714493221993
 30
0.0
  0
VERTEX
  5
380
330
379
100
AcDbEntity
  8
LAYER3
100
AcDbVertex
100
AcDb2dVertex
 10
201.9962085402272
 20
217.266490215754
 30
0.0
  0
VERTEX
  5
381
330
379
100
AcDbEntity
  8
LAYER3
100
AcDbVertex
100
AcDb2dVertex
 10
201.9597477829716
 20
217.2602341122384
 30
0.0
  0
VERTEX
  5
382
330
379
100
AcDbEntity
  8
LAYER3
100
AcDbVertex
100
AcDb2dVertex
 10
201.9238586342595
 20
217.2526810116524
 30
0.0
  0
VERTEX
  5
383
330
379
100
AcDbEntity
  8
LAYER3
100
AcDbVertex
100
AcDb2dVertex
 10
201.8886716282628
 20
217.2438881344552
 30
0.0
  0
VERTEX
  5
384
330
379
100
AcDbEntity
  8
LAYER3
100
AcDbVertex
100
AcDb2dVertex
 10
201.8542696154378
 20
217.2338936276192
 30
0.0
  0
VERTEX
  5
385
330
379
100
AcDbEntity
  8
LAYER3
100
AcDbVertex
100
AcDb2dVertex
 10
201.8207247174046
 20
217.2228500790352
 30
0.0
  0
VERTEX
  5
386
330
379
100
AcDbEntity
  8
LAYER3
100
AcDbVertex
100
AcDb2dVertex
 10
201.7881126320621
 20
217.2108337826485
 30
0.0
  0
VERTEX
  5
387
330
379
100
AcDbEntity
  8
LAYER3
100
AcDbVertex
100
AcDb2dVertex
 10
201.75650726917
 20
217.197959179377
 30
0.0
  0
VERTEX
  5
388
330
379
100
AcDbEntity
  8
LAYER3
100
AcDbVertex
100
AcDb2dVertex
 10
201.7259831345341
 20
217.1843597836251
 30
0.0
  0
VERTEX
  5
389
330
379
100
AcDbEntity
  8
LAYER3
100
AcDbVertex
100
AcDb2dVertex
 10
201.6966159260533
 20
217.1700928158516
 30
0.0
  0
VERTEX
  5
38A
330
379
100
AcDbEntity
  8
LAYER3
100
AcDbVertex
100
AcDb2dVertex
 10
201.6684795534871
 20
217.155291790461
 30
0.0
  0
VERTEX
  5
38B
330
379
100
AcDbEntity
  8
LAYER3
100
AcDbVertex
100
AcDb2dVertex
 10
201.6416473305485
 20
217.1400711483712
 30
0.0
  0
VERTEX
  5
38C
330
379
100
AcDbEntity
  8
LAYER3
100
AcDbVertex
100
AcDb2dVertex
 10
201.6157061970493
 20
217.1242592282052
 30
0.0
  0
VERTEX
  5
38D
330
379
100
AcDbEntity
  8
LAYER3
100
AcDbVertex
100
AcDb2dVertex
 10
201.5903170025608
 20
217.1077034420723
 30
0.0
  0
VERTEX
  5
38E
330
379
100
AcDbEntity
  8
LAYER3
100
AcDbVertex
100
AcDb2dVertex
 10
201.5655006087086
 20
217.090422863459
 30
0.0
  0
VERTEX
  5
38F
330
379
100
AcDbEntity
  8
LAYER3
100
AcDbVertex
100
AcDb2dVertex
 10
201.5412790692112
 20
217.072455639338
 30
0.0
  0
VERTEX
  5
390
330
379
100
AcDbEntity
  8
LAYER3
100
AcDbVertex
100
AcDb2dVertex
 10
201.5176744377872
 20
217.0538208431954
 30
0.0
  0
VERTEX
  5
391
330
379
100
AcDbEntity
  8
LAYER3
100
AcDbVertex
100
AcDb2dVertex
 10
201.4947081721088
 20
217.0345375485176
 30
0.0
  0
VERTEX
  5
392
330
379
100
AcDbEntity
  8
LAYER3
100
AcDbVertex
100
AcDb2dVertex
 10
201.472402921941
 20
217.0146439022774
 30
0.0
  0
SEQEND
  5
393
330
379
100
AcDbEntity
  8
LAYER3
  0
ARC
  5
394
330
2
100
AcDbEntity
  8
LAYER3
100
AcDbCircle
 10
202.454454225024
 20
220.6176662535205
 30
0.0
 40
3.350000000008677
100
AcDbArc
 50
265.9748830508374
 51
274.0251169491707
  0
POLYLINE
  5
395
330
2
100
AcDbEntity
  8
LAYER3
100
AcDb2dPolyline
 66
     1
 10
0.0
 20
0.0
 30
0.0
 70
   128
  0
VERTEX
  5
396
330
395
100
AcDbEntity
  8
LAYER3
100
AcDbVertex
100
AcDb2dVertex
 10
203.4365053093692
 20
217.0146439022774
 30
0.0
  0
VERTEX
  5
397
330
395
100
AcDbEntity
  8
LAYER3
100
AcDbVertex
100
AcDb2dVertex
 10
203.4142000592014
 20
217.0345375485176
 30
0.0
  0
VERTEX
  5
398
330
395
100
AcDbEntity
  8
LAYER3
100
AcDbVertex
100
AcDb2dVertex
 10
203.3912343895694
 20
217.0538208431954
 30
0.0
  0
VERTEX
  5
399
330
395
100
AcDbEntity
  8
LAYER3
100
AcDbVertex
100
AcDb2dVertex
 10
203.3676297581455
 20
217.072455639338
 30
0.0
  0
VERTEX
  5
39A
330
395
100
AcDbEntity
  8
LAYER3
100
AcDbVertex
100
AcDb2dVertex
 10
203.3434082186481
 20
217.090422863459
 30
0.0
  0
VERTEX
  5
39B
330
395
100
AcDbEntity
  8
LAYER3
100
AcDbVertex
100
AcDb2dVertex
 10
203.3185918247959
 20
217.1077034420723
 30
0.0
  0
VERTEX
  5
39C
330
395
100
AcDbEntity
  8
LAYER3
100
AcDbVertex
100
AcDb2dVertex
 10
203.2932020342609
 20
217.1242592282052
 30
0.0
  0
VERTEX
  5
39D
330
395
100
AcDbEntity
  8
LAYER3
100
AcDbVertex
100
AcDb2dVertex
 10
203.2672609007618
 20
217.1400711483712
 30
0.0
  0
VERTEX
  5
39E
330
395
100
AcDbEntity
  8
LAYER3
100
AcDbVertex
100
AcDb2dVertex
 10
203.2404286778233
 20
217.155291790461
 30
0.0
  0
VERTEX
  5
39F
330
395
100
AcDbEntity
  8
LAYER3
100
AcDbVertex
100
AcDb2dVertex
 10
203.2122929013035
 20
217.1700928158516
 30
0.0
  0
VERTEX
  5
3A0
330
395
100
AcDbEntity
  8
LAYER3
100
AcDbVertex
100
AcDb2dVertex
 10
203.1829250967762
 20
217.1843597836251
 30
0.0
  0
VERTEX
  5
3A1
330
395
100
AcDbEntity
  8
LAYER3
100
AcDbVertex
100
AcDb2dVertex
 10
203.1524015581867
 20
217.197959179377
 30
0.0
  0
VERTEX
  5
3A2
330
395
100
AcDbEntity
  8
LAYER3
100
AcDbVertex
100
AcDb2dVertex
 10
203.1207961952946
 20
217.2108337826485
 30
0.0
  0
VERTEX
  5
3A3
330
395
100
AcDbEntity
  8
LAYER3
100
AcDbVertex
100
AcDb2dVertex
 10
203.0881835139057
 20
217.2228500790352
 30
0.0
  0
VERTEX
  5
3A4
330
395
100
AcDbEntity
  8
LAYER3
100
AcDbVertex
100
AcDb2dVertex
 10
203.0546392119191
 20
217.2338936276192
 30
0.0
  0
VERTEX
  5
3A5
330
395
100
AcDbEntity
  8
LAYER3
100
AcDbVertex
100
AcDb2dVertex
 10
203.0202366030476
 20
217.2438881344552
 30
0.0
  0
VERTEX
  5
3A6
330
395
100
AcDbEntity
  8
LAYER3
100
AcDbVertex
100
AcDb2dVertex
 10
202.9850501930974
 20
217.2526810116524
 30
0.0
  0
VERTEX
  5
3A7
330
395
100
AcDbEntity
  8
LAYER3
100
AcDbVertex
100
AcDb2dVertex
 10
202.9491604483388
 20
217.2602341122384
 30
0.0
  0
VERTEX
  5
3A8
330
395
100
AcDbEntity
  8
LAYER3
100
AcDbVertex
100
AcDb2dVertex
 10
202.9126996910832
 20
217.266490215754
 30
0.0
  0
VERTEX
  5
3A9
330
395
100
AcDbEntity
  8
LAYER3
100
AcDbVertex
100
AcDb2dVertex
 10
202.8758044159673
 20
217.2714493221993
 30
0.0
  0
VERTEX
  5
3AA
330
395
100
AcDbEntity
  8
LAYER3
100
AcDbVertex
100
AcDb2dVertex
 10
202.8386117136739
 20
217.2750923580879
 30
0.0
  0
VERTEX
  5
3AB
330
395
100
AcDbEntity
  8
LAYER3
100
AcDbVertex
100
AcDb2dVertex
 10
202.8012580788395
 20
217.277362102961
 30
0.0
  0
VERTEX
  5
3AC
330
395
100
AcDbEntity
  8
LAYER3
100
AcDbVertex
100
AcDb2dVertex
 10
202.7638811981938
 20
217.2782776303048
 30
0.0
  0
VERTEX
  5
3AD
330
395
100
AcDbEntity
  8
LAYER3
100
AcDbVertex
100
AcDb2dVertex
 10
202.7266169703267
 20
217.2778198666329
 30
0.0
  0
VERTEX
  5
3AE
330
395
100
AcDbEntity
  8
LAYER3
100
AcDbVertex
100
AcDb2dVertex
 10
202.6896030819676
 20
217.2759315914864
 30
0.0
  0
SEQEND
  5
3AF
330
395
100
AcDbEntity
  8
LAYER3
  0
POLYLINE
  5
3B0
330
2
100
AcDbEntity
  8
LAYER3
100
AcDb2dPolyline
 66
     1
 10
0.0
 20
0.0
 30
0.0
 70
   128
  0
VERTEX
  5
3B1
330
3B0
100
AcDbEntity
  8
LAYER3
100
AcDbVertex
100
AcDb2dVertex
 10
205.5776585257312
 20
218.5702774471993
 30
0.0
  0
VERTEX
  5
3B2
330
3B0
100
AcDbEntity
  8
LAYER3
100
AcDbVertex
100
AcDb2dVertex
 10
205.6270832932254
 20
218.4462807125802
 30
0.0
  0
VERTEX
  5
3B3
330
3B0
100
AcDbEntity
  8
LAYER3
100
AcDbVertex
100
AcDb2dVertex
 10
205.6643850720187
 20
218.3165428585763
 30
0.0
  0
VERTEX
  5
3B4
330
3B0
100
AcDbEntity
  8
LAYER3
100
AcDbVertex
100
AcDb2dVertex
 10
205.6887979424258
 20
218.1823799557442
 30
0.0
  0
VERTEX
  5
3B5
330
3B0
100
AcDbEntity
  8
LAYER3
100
AcDbVertex
100
AcDb2dVertex
 10
205.699553004529
 20
218.0444977230782
 30
0.0
  0
VERTEX
  5
3B6
330
3B0
100
AcDbEntity
  8
LAYER3
100
AcDbVertex
100
AcDb2dVertex
 10
205.69525729778
 20
217.896373028254
 30
0.0
  0
VERTEX
  5
3B7
330
3B0
100
AcDbEntity
  8
LAYER3
100
AcDbVertex
100
AcDb2dVertex
 10
205.6733066952486
 20
217.7411529965157
 30
0.0
  0
VERTEX
  5
3B8
330
3B0
100
AcDbEntity
  8
LAYER3
100
AcDbVertex
100
AcDb2dVertex
 10
205.63188981178
 20
217.5856087155098
 30
0.0
  0
VERTEX
  5
3B9
330
3B0
100
AcDbEntity
  8
LAYER3
100
AcDbVertex
100
AcDb2dVertex
 10
205.5729068434495
 20
217.4366638607735
 30
0.0
  0
VERTEX
  5
3BA
330
3B0
100
AcDbEntity
  8
LAYER3
100
AcDbVertex
100
AcDb2dVertex
 10
205.4955227291841
 20
217.2944137997383
 30
0.0
  0
VERTEX
  5
3BB
330
3B0
100
AcDbEntity
  8
LAYER3
100
AcDbVertex
100
AcDb2dVertex
 10
205.3950936711091
 20
217.1539566464181
 30
0.0
  0
VERTEX
  5
3BC
330
3B0
100
AcDbEntity
  8
LAYER3
100
AcDbVertex
100
AcDb2dVertex
 10
205.2750087893265
 20
217.0254585690255
 30
0.0
  0
VERTEX
  5
3BD
330
3B0
100
AcDbEntity
  8
LAYER3
100
AcDbVertex
100
AcDb2dVertex
 10
205.1435716069001
 20
216.9164154476876
 30
0.0
  0
VERTEX
  5
3BE
330
3B0
100
AcDbEntity
  8
LAYER3
100
AcDbVertex
100
AcDb2dVertex
 10
204.9992431319016
 20
216.8251106686348
 30
0.0
  0
VERTEX
  5
3BF
330
3B0
100
AcDbEntity
  8
LAYER3
100
AcDbVertex
100
AcDb2dVertex
 10
204.839930645253
 20
216.7506096310372
 30
0.0
  0
VERTEX
  5
3C0
330
3B0
100
AcDbEntity
  8
LAYER3
100
AcDbVertex
100
AcDb2dVertex
 10
204.6753175175447
 20
216.6985008663887
 30
0.0
  0
VERTEX
  5
3C1
330
3B0
100
AcDbEntity
  8
LAYER3
100
AcDbVertex
100
AcDb2dVertex
 10
204.5161152994889
 20
216.6688606686348
 30
0.0
  0
VERTEX
  5
3C2
330
3B0
100
AcDbEntity
  8
LAYER3
100
AcDbVertex
100
AcDb2dVertex
 10
204.3562371647615
 20
216.6587898678536
 30
0.0
  0
VERTEX
  5
3C3
330
3B0
100
AcDbEntity
  8
LAYER3
100
AcDbVertex
100
AcDb2dVertex
 10
204.1954947626848
 20
216.6674683041329
 30
0.0
  0
VERTEX
  5
3C4
330
3B0
100
AcDbEntity
  8
LAYER3
100
AcDbVertex
100
AcDb2dVertex
 10
204.0410972750445
 20
216.6945526547188
 30
0.0
  0
VERTEX
  5
3C5
330
3B0
100
AcDbEntity
  8
LAYER3
100
AcDbVertex
100
AcDb2dVertex
 10
203.8989008581896
 20
216.7362472958321
 30
0.0
  0
VERTEX
  5
3C6
330
3B0
100
AcDbEntity
  8
LAYER3
100
AcDbVertex
100
AcDb2dVertex
 10
203.7710775053759
 20
216.789080852961
 30
0.0
  0
VERTEX
  5
3C7
330
3B0
100
AcDbEntity
  8
LAYER3
100
AcDbVertex
100
AcDb2dVertex
 10
203.6510313666125
 20
216.8537590450997
 30
0.0
  0
VERTEX
  5
3C8
330
3B0
100
AcDbEntity
  8
LAYER3
100
AcDbVertex
100
AcDb2dVertex
 10
203.5391713297626
 20
216.9293281979317
 30
0.0
  0
VERTEX
  5
3C9
330
3B0
100
AcDbEntity
  8
LAYER3
100
AcDbVertex
100
AcDb2dVertex
 10
203.4365053093692
 20
217.0146439022774
 30
0.0
  0
SEQEND
  5
3CA
330
3B0
100
AcDbEntity
  8
LAYER3
  0
POLYLINE
  5
3CB
330
2
100
AcDbEntity
  8
LAYER3
100
AcDb2dPolyline
 66
     1
 10
0.0
 20
0.0
 30
0.0
 70
   128
  0
VERTEX
  5
3CC
330
3CB
100
AcDbEntity
  8
LAYER3
100
AcDbVertex
100
AcDb2dVertex
 10
205.5599696553013
 20
219.3613693661446
 30
0.0
  0
VERTEX
  5
3CD
330
3CB
100
AcDbEntity
  8
LAYER3
100
AcDbVertex
100
AcDb2dVertex
 10
205.5467421925328
 20
219.3267509884591
 30
0.0
  0
VERTEX
  5
3CE
330
3CB
100
AcDbEntity
  8
LAYER3
100
AcDbVertex
100
AcDb2dVertex
 10
205.5347771561406
 20
219.291465038752
 30
0.0
  0
VERTEX
  5
3CF
330
3CB
100
AcDbEntity
  8
LAYER3
100
AcDbVertex
100
AcDb2dVertex
 10
205.5240971958897
 20
219.2556259579415
 30
0.0
  0
VERTEX
  5
3D0
330
3CB
100
AcDbEntity
  8
LAYER3
100
AcDbVertex
100
AcDb2dVertex
 10
205.5147255575917
 20
219.2194054074044
 30
0.0
  0
VERTEX
  5
3D1
330
3CB
100
AcDbEntity
  8
LAYER3
100
AcDbVertex
100
AcDb2dVertex
 10
205.5066842949651
 20
219.1828987545723
 30
0.0
  0
VERTEX
  5
3D2
330
3CB
100
AcDbEntity
  8
LAYER3
100
AcDbVertex
100
AcDb2dVertex
 10
205.4999972498677
 20
219.1462776608223
 30
0.0
  0
VERTEX
  5
3D3
330
3CB
100
AcDbEntity
  8
LAYER3
100
AcDbVertex
100
AcDb2dVertex
 10
205.4946870720647
 20
219.1096756405586
 30
0.0
  0
VERTEX
  5
3D4
330
3CB
100
AcDbEntity
  8
LAYER3
100
AcDbVertex
100
AcDb2dVertex
 10
205.4907758152745
 20
219.0732071346993
 30
0.0
  0
VERTEX
  5
3D5
330
3CB
100
AcDbEntity
  8
LAYER3
100
AcDbVertex
100
AcDb2dVertex
 10
205.4882801687977
 20
219.0370247311348
 30
0.0
  0
VERTEX
  5
3D6
330
3CB
100
AcDbEntity
  8
LAYER3
100
AcDbVertex
100
AcDb2dVertex
 10
205.4871441042684
 20
219.0012047238106
 30
0.0
  0
VERTEX
  5
3D7
330
3CB
100
AcDbEntity
  8
LAYER3
100
AcDbVertex
100
AcDb2dVertex
 10
205.4872877514622
 20
218.9658997006173
 30
0.0
  0
VERTEX
  5
3D8
330
3CB
100
AcDbEntity
  8
LAYER3
100
AcDbVertex
100
AcDb2dVertex
 10
205.4886342203877
 20
218.9311668820137
 30
0.0
  0
VERTEX
  5
3D9
330
3CB
100
AcDbEntity
  8
LAYER3
100
AcDbVertex
100
AcDb2dVertex
 10
205.4911042368672
 20
218.8971397824044
 30
0.0
  0
VERTEX
  5
3DA
330
3CB
100
AcDbEntity
  8
LAYER3
100
AcDbVertex
100
AcDb2dVertex
 10
205.4946215069553
 20
218.8638946957345
 30
0.0
  0
VERTEX
  5
3DB
330
3CB
100
AcDbEntity
  8
LAYER3
100
AcDbVertex
100
AcDb2dVertex
 10
205.4991073525211
 20
218.8315651364083
 30
0.0
  0
VERTEX
  5
3DC
330
3CB
100
AcDbEntity
  8
LAYER3
100
AcDbVertex
100
AcDb2dVertex
 10
205.5044842875263
 20
218.8002273983712
 30
0.0
  0
VERTEX
  5
3DD
330
3CB
100
AcDbEntity
  8
LAYER3
100
AcDbVertex
100
AcDb2dVertex
 10
205.5106748259327
 20
218.7699959225411
 30
0.0
  0
VERTEX
  5
3DE
330
3CB
100
AcDbEntity
  8
LAYER3
100
AcDbVertex
100
AcDb2dVertex
 10
205.517699829366
 20
218.7404510922188
 30
0.0
  0
VERTEX
  5
3DF
330
3CB
100
AcDbEntity
  8
LAYER3
100
AcDbVertex
100
AcDb2dVertex
 10
205.5256028092167
 20
218.7111732907052
 30
0.0
  0
VERTEX
  5
3E0
330
3CB
100
AcDbEntity
  8
LAYER3
100
AcDbVertex
100
AcDb2dVertex
 10
205.5343646919987
 20
218.6822388119454
 30
0.0
  0
VERTEX
  5
3E1
330
3CB
100
AcDbEntity
  8
LAYER3
100
AcDbVertex
100
AcDb2dVertex
 10
205.5439687884113
 20
218.6536476559395
 30
0.0
  0
VERTEX
  5
3E2
330
3CB
100
AcDbEntity
  8
LAYER3
100
AcDbVertex
100
AcDb2dVertex
 10
205.5543972170612
 20
218.6254379696602
 30
0.0
  0
VERTEX
  5
3E3
330
3CB
100
AcDbEntity
  8
LAYER3
100
AcDbVertex
100
AcDb2dVertex
 10
205.5656326926014
 20
218.5976479000801
 30
0.0
  0
VERTEX
  5
3E4
330
3CB
100
AcDbEntity
  8
LAYER3
100
AcDbVertex
100
AcDb2dVertex
 10
205.5776585257312
 20
218.5702774471993
 30
0.0
  0
SEQEND
  5
3E5
330
3CB
100
AcDbEntity
  8
LAYER3
  0
ARC
  5
3E6
330
2
100
AcDbEntity
  8
LAYER3
100
AcDbCircle
 10
202.4544542250202
 20
220.6176662535131
 30
0.0
 40
3.35000000000417
100
AcDbArc
 50
337.9748830508283
 51
346.0251169491697
  0
POLYLINE
  5
3E7
330
2
100
AcDbEntity
  8
LAYER3
100
AcDb2dPolyline
 66
     1
 10
0.0
 20
0.0
 30
0.0
 70
   128
  0
VERTEX
  5
3E8
330
3E7
100
AcDbEntity
  8
LAYER3
100
AcDbVertex
100
AcDb2dVertex
 10
201.472402921941
 20
254.2206833309883
 30
0.0
  0
VERTEX
  5
3E9
330
3E7
100
AcDbEntity
  8
LAYER3
100
AcDbVertex
100
AcDb2dVertex
 10
201.4947081721088
 20
254.2007896847481
 30
0.0
  0
VERTEX
  5
3EA
330
3E7
100
AcDbEntity
  8
LAYER3
100
AcDbVertex
100
AcDb2dVertex
 10
201.5176744377872
 20
254.1815254635567
 30
0.0
  0
VERTEX
  5
3EB
330
3E7
100
AcDbEntity
  8
LAYER3
100
AcDbVertex
100
AcDb2dVertex
 10
201.5412790692112
 20
254.1628906674141
 30
0.0
  0
VERTEX
  5
3EC
330
3E7
100
AcDbEntity
  8
LAYER3
100
AcDbVertex
100
AcDb2dVertex
 10
201.5655006087086
 20
254.144923443293
 30
0.0
  0
VERTEX
  5
3ED
330
3E7
100
AcDbEntity
  8
LAYER3
100
AcDbVertex
100
AcDb2dVertex
 10
201.5903170025608
 20
254.1276428646797
 30
0.0
  0
VERTEX
  5
3EE
330
3E7
100
AcDbEntity
  8
LAYER3
100
AcDbVertex
100
AcDb2dVertex
 10
201.6157061970493
 20
254.111087078547
 30
0.0
  0
VERTEX
  5
3EF
330
3E7
100
AcDbEntity
  8
LAYER3
100
AcDbVertex
100
AcDb2dVertex
 10
201.6416473305485
 20
254.0952560848946
 30
0.0
  0
VERTEX
  5
3F0
330
3E7
100
AcDbEntity
  8
LAYER3
100
AcDbVertex
100
AcDb2dVertex
 10
201.6684795534871
 20
254.0800354428048
 30
0.0
  0
VERTEX
  5
3F1
330
3E7
100
AcDbEntity
  8
LAYER3
100
AcDbVertex
100
AcDb2dVertex
 10
201.6966159260533
 20
254.0652344174141
 30
0.0
  0
VERTEX
  5
3F2
330
3E7
100
AcDbEntity
  8
LAYER3
100
AcDbVertex
100
AcDb2dVertex
 10
201.7259831345341
 20
254.050986523127
 30
0.0
  0
VERTEX
  5
3F3
330
3E7
100
AcDbEntity
  8
LAYER3
100
AcDbVertex
100
AcDb2dVertex
 10
201.75650726917
 20
254.0373680538888
 30
0.0
  0
VERTEX
  5
3F4
330
3E7
100
AcDbEntity
  8
LAYER3
100
AcDbVertex
100
AcDb2dVertex
 10
201.7881126320621
 20
254.0244934506173
 30
0.0
  0
VERTEX
  5
3F5
330
3E7
100
AcDbEntity
  8
LAYER3
100
AcDbVertex
100
AcDb2dVertex
 10
201.8207247174046
 20
254.0124962277169
 30
0.0
  0
VERTEX
  5
3F6
330
3E7
100
AcDbEntity
  8
LAYER3
100
AcDbVertex
100
AcDb2dVertex
 10
201.8542696154378
 20
254.0014336056465
 30
0.0
  0
VERTEX
  5
3F7
330
3E7
100
AcDbEntity
  8
LAYER3
100
AcDbVertex
100
AcDb2dVertex
 10
201.8886716282628
 20
253.9914581722969
 30
0.0
  0
VERTEX
  5
3F8
330
3E7
100
AcDbEntity
  8
LAYER3
100
AcDbVertex
100
AcDb2dVertex
 10
201.9238586342595
 20
253.9826462216133
 30
0.0
  0
VERTEX
  5
3F9
330
3E7
100
AcDbEntity
  8
LAYER3
100
AcDbVertex
100
AcDb2dVertex
 10
201.9597477829716
 20
253.9750931210274
 30
0.0
  0
VERTEX
  5
3FA
330
3E7
100
AcDbEntity
  8
LAYER3
100
AcDbVertex
100
AcDb2dVertex
 10
201.9962085402272
 20
253.9688370175118
 30
0.0
  0
VERTEX
  5
3FB
330
3E7
100
AcDbEntity
  8
LAYER3
100
AcDbVertex
100
AcDb2dVertex
 10
202.0331038153432
 20
253.9638779110665
 30
0.0
  0
VERTEX
  5
3FC
330
3E7
100
AcDbEntity
  8
LAYER3
100
AcDbVertex
100
AcDb2dVertex
 10
202.0702965176365
 20
253.9602539486641
 30
0.0
  0
VERTEX
  5
3FD
330
3E7
100
AcDbEntity
  8
LAYER3
100
AcDbVertex
100
AcDb2dVertex
 10
202.1076501524709
 20
253.9579651303048
 30
0.0
  0
VERTEX
  5
3FE
330
3E7
100
AcDbEntity
  8
LAYER3
100
AcDbVertex
100
AcDb2dVertex
 10
202.1450270331166
 20
253.957049602961
 30
0.0
  0
VERTEX
  5
3FF
330
3E7
100
AcDbEntity
  8
LAYER3
100
AcDbVertex
100
AcDb2dVertex
 10
202.1822912609837
 20
253.9575264401192
 30
0.0
  0
VERTEX
  5
400
330
3E7
100
AcDbEntity
  8
LAYER3
100
AcDbVertex
100
AcDb2dVertex
 10
202.2193051493428
 20
253.9593956417794
 30
0.0
  0
SEQEND
  5
401
330
3E7
100
AcDbEntity
  8
LAYER3
  0
ARC
  5
402
330
2
100
AcDbEntity
  8
LAYER3
100
AcDbCircle
 10
202.4544542250241
 20
250.6176662535136
 30
0.0
 40
3.349999999998267
100
AcDbArc
 50
85.9748830508227
 51
94.02511694917732
  0
POLYLINE
  5
403
330
2
100
AcDbEntity
  8
LAYER3
100
AcDb2dPolyline
 66
     1
 10
0.0
 20
0.0
 30
0.0
 70
   128
  0
VERTEX
  5
404
330
403
100
AcDbEntity
  8
LAYER3
100
AcDbVertex
100
AcDb2dVertex
 10
202.6896030819676
 20
253.9593956417794
 30
0.0
  0
VERTEX
  5
405
330
403
100
AcDbEntity
  8
LAYER3
100
AcDbVertex
100
AcDb2dVertex
 10
202.7266169703267
 20
253.9575264401192
 30
0.0
  0
VERTEX
  5
406
330
403
100
AcDbEntity
  8
LAYER3
100
AcDbVertex
100
AcDb2dVertex
 10
202.7638811981938
 20
253.957049602961
 30
0.0
  0
VERTEX
  5
407
330
403
100
AcDbEntity
  8
LAYER3
100
AcDbVertex
100
AcDb2dVertex
 10
202.8012580788395
 20
253.9579651303048
 30
0.0
  0
VERTEX
  5
408
330
403
100
AcDbEntity
  8
LAYER3
100
AcDbVertex
100
AcDb2dVertex
 10
202.8386117136739
 20
253.9602539486641
 30
0.0
  0
VERTEX
  5
409
330
403
100
AcDbEntity
  8
LAYER3
100
AcDbVertex
100
AcDb2dVertex
 10
202.8758044159673
 20
253.9638779110665
 30
0.0
  0
VERTEX
  5
40A
330
403
100
AcDbEntity
  8
LAYER3
100
AcDbVertex
100
AcDb2dVertex
 10
202.9126996910832
 20
253.9688370175118
 30
0.0
  0
VERTEX
  5
40B
330
403
100
AcDbEntity
  8
LAYER3
100
AcDbVertex
100
AcDb2dVertex
 10
202.9491604483388
 20
253.9750931210274
 30
0.0
  0
VERTEX
  5
40C
330
403
100
AcDbEntity
  8
LAYER3
100
AcDbVertex
100
AcDb2dVertex
 10
202.9850501930974
 20
253.9826462216133
 30
0.0
  0
VERTEX
  5
40D
330
403
100
AcDbEntity
  8
LAYER3
100
AcDbVertex
100
AcDb2dVertex
 10
203.0202366030476
 20
253.9914581722969
 30
0.0
  0
VERTEX
  5
40E
330
403
100
AcDbEntity
  8
LAYER3
100
AcDbVertex
100
AcDb2dVertex
 10
203.0546392119191
 20
254.0014336056465
 30
0.0
  0
VERTEX
  5
40F
330
403
100
AcDbEntity
  8
LAYER3
100
AcDbVertex
100
AcDb2dVertex
 10
203.0881835139057
 20
254.0124962277169
 30
0.0
  0
VERTEX
  5
410
330
403
100
AcDbEntity
  8
LAYER3
100
AcDbVertex
100
AcDb2dVertex
 10
203.1207961952946
 20
254.0244934506173
 30
0.0
  0
VERTEX
  5
411
330
403
100
AcDbEntity
  8
LAYER3
100
AcDbVertex
100
AcDb2dVertex
 10
203.1524015581867
 20
254.0373680538888
 30
0.0
  0
VERTEX
  5
412
330
403
100
AcDbEntity
  8
LAYER3
100
AcDbVertex
100
AcDb2dVertex
 10
203.1829250967762
 20
254.050986523127
 30
0.0
  0
VERTEX
  5
413
330
403
100
AcDbEntity
  8
LAYER3
100
AcDbVertex
100
AcDb2dVertex
 10
203.2122929013035
 20
254.0652344174141
 30
0.0
  0
VERTEX
  5
414
330
403
100
AcDbEntity
  8
LAYER3
100
AcDbVertex
100
AcDb2dVertex
 10
203.2404286778233
 20
254.0800354428048
 30
0.0
  0
VERTEX
  5
415
330
403
100
AcDbEntity
  8
LAYER3
100
AcDbVertex
100
AcDb2dVertex
 10
203.2672609007618
 20
254.0952560848946
 30
0.0
  0
VERTEX
  5
416
330
403
100
AcDbEntity
  8
LAYER3
100
AcDbVertex
100
AcDb2dVertex
 10
203.2932020342609
 20
254.111087078547
 30
0.0
  0
VERTEX
  5
417
330
403
100
AcDbEntity
  8
LAYER3
100
AcDbVertex
100
AcDb2dVertex
 10
203.3185918247959
 20
254.1276428646797
 30
0.0
  0
VERTEX
  5
418
330
403
100
AcDbEntity
  8
LAYER3
100
AcDbVertex
100
AcDb2dVertex
 10
203.3434082186481
 20
254.144923443293
 30
0.0
  0
VERTEX
  5
419
330
403
100
AcDbEntity
  8
LAYER3
100
AcDbVertex
100
AcDb2dVertex
 10
203.3676297581455
 20
254.1628906674141
 30
0.0
  0
VERTEX
  5
41A
330
403
100
AcDbEntity
  8
LAYER3
100
AcDbVertex
100
AcDb2dVertex
 10
203.3912343895694
 20
254.1815254635567
 30
0.0
  0
VERTEX
  5
41B
330
403
100
AcDbEntity
  8
LAYER3
100
AcDbVertex
100
AcDb2dVertex
 10
203.4142000592014
 20
254.2007896847481
 30
0.0
  0
VERTEX
  5
41C
330
403
100
AcDbEntity
  8
LAYER3
100
AcDbVertex
100
AcDb2dVertex
 10
203.4365053093692
 20
254.2206833309883
 30
0.0
  0
SEQEND
  5
41D
330
403
100
AcDbEntity
  8
LAYER3
  0
POLYLINE
  5
41E
330
2
100
AcDbEntity
  8
LAYER3
100
AcDb2dPolyline
 66
     1
 10
0.0
 20
0.0
 30
0.0
 70
   128
  0
VERTEX
  5
41F
330
41E
100
AcDbEntity
  8
LAYER3
100
AcDbVertex
100
AcDb2dVertex
 10
203.4365053093692
 20
254.2206833309883
 30
0.0
  0
VERTEX
  5
420
330
41E
100
AcDbEntity
  8
LAYER3
100
AcDbVertex
100
AcDb2dVertex
 10
203.5391713297626
 20
254.3060181088204
 30
0.0
  0
VERTEX
  5
421
330
41E
100
AcDbEntity
  8
LAYER3
100
AcDbVertex
100
AcDb2dVertex
 10
203.6510313666125
 20
254.3815872616524
 30
0.0
  0
VERTEX
  5
422
330
41E
100
AcDbEntity
  8
LAYER3
100
AcDbVertex
100
AcDb2dVertex
 10
203.7710775053759
 20
254.4462463803048
 30
0.0
  0
VERTEX
  5
423
330
41E
100
AcDbEntity
  8
LAYER3
100
AcDbVertex
100
AcDb2dVertex
 10
203.8989008581896
 20
254.49909901092
 30
0.0
  0
VERTEX
  5
424
330
41E
100
AcDbEntity
  8
LAYER3
100
AcDbVertex
100
AcDb2dVertex
 10
204.0410972750445
 20
254.5407745785469
 30
0.0
  0
VERTEX
  5
425
330
41E
100
AcDbEntity
  8
LAYER3
100
AcDbVertex
100
AcDb2dVertex
 10
204.1954947626848
 20
254.5678589291329
 30
0.0
  0
VERTEX
  5
426
330
41E
100
AcDbEntity
  8
LAYER3
100
AcDbVertex
100
AcDb2dVertex
 10
204.3562371647615
 20
254.5765373654122
 30
0.0
  0
VERTEX
  5
427
330
41E
100
AcDbEntity
  8
LAYER3
100
AcDbVertex
100
AcDb2dVertex
 10
204.5161152994889
 20
254.5664665646309
 30
0.0
  0
VERTEX
  5
428
330
41E
100
AcDbEntity
  8
LAYER3
100
AcDbVertex
100
AcDb2dVertex
 10
204.6753175175447
 20
254.5368454403634
 30
0.0
  0
VERTEX
  5
429
330
41E
100
AcDbEntity
  8
LAYER3
100
AcDbVertex
100
AcDb2dVertex
 10
204.839930645253
 20
254.4847176022286
 30
0.0
  0
VERTEX
  5
42A
330
41E
100
AcDbEntity
  8
LAYER3
100
AcDbVertex
100
AcDb2dVertex
 10
204.9992431319016
 20
254.4102165646309
 30
0.0
  0
VERTEX
  5
42B
330
41E
100
AcDbEntity
  8
LAYER3
100
AcDbVertex
100
AcDb2dVertex
 10
205.1435716069001
 20
254.3189117855782
 30
0.0
  0
VERTEX
  5
42C
330
41E
100
AcDbEntity
  8
LAYER3
100
AcDbVertex
100
AcDb2dVertex
 10
205.2750087893265
 20
254.2098686642403
 30
0.0
  0
VERTEX
  5
42D
330
41E
100
AcDbEntity
  8
LAYER3
100
AcDbVertex
100
AcDb2dVertex
 10
205.3950936711091
 20
254.0813705868477
 30
0.0
  0
VERTEX
  5
42E
330
41E
100
AcDbEntity
  8
LAYER3
100
AcDbVertex
100
AcDb2dVertex
 10
205.4955227291841
 20
253.9409325070137
 30
0.0
  0
VERTEX
  5
42F
330
41E
100
AcDbEntity
  8
LAYER3
100
AcDbVertex
100
AcDb2dVertex
 10
205.5729068434495
 20
253.7986633724923
 30
0.0
  0
VERTEX
  5
430
330
41E
100
AcDbEntity
  8
LAYER3
100
AcDbVertex
100
AcDb2dVertex
 10
205.63188981178
 20
253.6497375912423
 30
0.0
  0
VERTEX
  5
431
330
41E
100
AcDbEntity
  8
LAYER3
100
AcDbVertex
100
AcDb2dVertex
 10
205.6733066952486
 20
253.4941742367501
 30
0.0
  0
VERTEX
  5
432
330
41E
100
AcDbEntity
  8
LAYER3
100
AcDbVertex
100
AcDb2dVertex
 10
205.69525729778
 20
253.3389542050118
 30
0.0
  0
VERTEX
  5
433
330
41E
100
AcDbEntity
  8
LAYER3
100
AcDbVertex
100
AcDb2dVertex
 10
205.699553004529
 20
253.1908485836739
 30
0.0
  0
VERTEX
  5
434
330
41E
100
AcDbEntity
  8
LAYER3
100
AcDbVertex
100
AcDb2dVertex
 10
205.6887979424258
 20
253.0529472775215
 30
0.0
  0
VERTEX
  5
435
330
41E
100
AcDbEntity
  8
LAYER3
100
AcDbVertex
100
AcDb2dVertex
 10
205.6643850720187
 20
252.9187843746895
 30
0.0
  0
VERTEX
  5
436
330
41E
100
AcDbEntity
  8
LAYER3
100
AcDbVertex
100
AcDb2dVertex
 10
205.6270832932254
 20
252.7890465206856
 30
0.0
  0
VERTEX
  5
437
330
41E
100
AcDbEntity
  8
LAYER3
100
AcDbVertex
100
AcDb2dVertex
 10
205.5776585257312
 20
252.6650497860665
 30
0.0
  0
SEQEND
  5
438
330
41E
100
AcDbEntity
  8
LAYER3
  0
POLYLINE
  5
439
330
2
100
AcDbEntity
  8
LAYER3
100
AcDb2dPolyline
 66
     1
 10
0.0
 20
0.0
 30
0.0
 70
   128
  0
VERTEX
  5
43A
330
439
100
AcDbEntity
  8
LAYER3
100
AcDbVertex
100
AcDb2dVertex
 10
205.5776585257312
 20
252.6650497860665
 30
0.0
  0
VERTEX
  5
43B
330
439
100
AcDbEntity
  8
LAYER3
100
AcDbVertex
100
AcDb2dVertex
 10
205.5656326926014
 20
252.6376793331856
 30
0.0
  0
VERTEX
  5
43C
330
439
100
AcDbEntity
  8
LAYER3
100
AcDbVertex
100
AcDb2dVertex
 10
205.5543972170613
 20
252.6098892636055
 30
0.0
  0
VERTEX
  5
43D
330
439
100
AcDbEntity
  8
LAYER3
100
AcDbVertex
100
AcDb2dVertex
 10
205.5439687884113
 20
252.5816795773263
 30
0.0
  0
VERTEX
  5
43E
330
439
100
AcDbEntity
  8
LAYER3
100
AcDbVertex
100
AcDb2dVertex
 10
205.5343646919987
 20
252.5530884213204
 30
0.0
  0
VERTEX
  5
43F
330
439
100
AcDbEntity
  8
LAYER3
100
AcDbVertex
100
AcDb2dVertex
 10
205.5256028092167
 20
252.5241539425606
 30
0.0
  0
VERTEX
  5
440
330
439
100
AcDbEntity
  8
LAYER3
100
AcDbVertex
100
AcDb2dVertex
 10
205.517699829366
 20
252.4948952145333
 30
0.0
  0
VERTEX
  5
441
330
439
100
AcDbEntity
  8
LAYER3
100
AcDbVertex
100
AcDb2dVertex
 10
205.5106748259327
 20
252.4653313107247
 30
0.0
  0
VERTEX
  5
442
330
439
100
AcDbEntity
  8
LAYER3
100
AcDbVertex
100
AcDb2dVertex
 10
205.5044842875263
 20
252.4350998348946
 30
0.0
  0
VERTEX
  5
443
330
439
100
AcDbEntity
  8
LAYER3
100
AcDbVertex
100
AcDb2dVertex
 10
205.4991073525211
 20
252.4037811703438
 30
0.0
  0
VERTEX
  5
444
330
439
100
AcDbEntity
  8
LAYER3
100
AcDbVertex
100
AcDb2dVertex
 10
205.4946215069553
 20
252.3714325375313
 30
0.0
  0
VERTEX
  5
445
330
439
100
AcDbEntity
  8
LAYER3
100
AcDbVertex
100
AcDb2dVertex
 10
205.4911042368672
 20
252.3382065243477
 30
0.0
  0
VERTEX
  5
446
330
439
100
AcDbEntity
  8
LAYER3
100
AcDbVertex
100
AcDb2dVertex
 10
205.4886342203877
 20
252.304160351252
 30
0.0
  0
VERTEX
  5
447
330
439
100
AcDbEntity
  8
LAYER3
100
AcDbVertex
100
AcDb2dVertex
 10
205.4872877514622
 20
252.2694275326485
 30
0.0
  0
VERTEX
  5
448
330
439
100
AcDbEntity
  8
LAYER3
100
AcDbVertex
100
AcDb2dVertex
 10
205.4871441042684
 20
252.2341225094551
 30
0.0
  0
VERTEX
  5
449
330
439
100
AcDbEntity
  8
LAYER3
100
AcDbVertex
100
AcDb2dVertex
 10
205.4882801687977
 20
252.1983215756173
 30
0.0
  0
VERTEX
  5
44A
330
439
100
AcDbEntity
  8
LAYER3
100
AcDbVertex
100
AcDb2dVertex
 10
205.4907758152745
 20
252.1621200985665
 30
0.0
  0
VERTEX
  5
44B
330
439
100
AcDbEntity
  8
LAYER3
100
AcDbVertex
100
AcDb2dVertex
 10
205.4946870720647
 20
252.1256706661934
 30
0.0
  0
VERTEX
  5
44C
330
439
100
AcDbEntity
  8
LAYER3
100
AcDbVertex
100
AcDb2dVertex
 10
205.4999972498677
 20
252.0890495724434
 30
0.0
  0
VERTEX
  5
44D
330
439
100
AcDbEntity
  8
LAYER3
100
AcDbVertex
100
AcDb2dVertex
 10
205.5066842949651
 20
252.0524284786934
 30
0.0
  0
VERTEX
  5
44E
330
439
100
AcDbEntity
  8
LAYER3
100
AcDbVertex
100
AcDb2dVertex
 10
205.5147255575917
 20
252.0159408993477
 30
0.0
  0
VERTEX
  5
44F
330
439
100
AcDbEntity
  8
LAYER3
100
AcDbVertex
100
AcDb2dVertex
 10
205.5240971958897
 20
251.9797012753243
 30
0.0
  0
VERTEX
  5
450
330
439
100
AcDbEntity
  8
LAYER3
100
AcDbVertex
100
AcDb2dVertex
 10
205.5347771561406
 20
251.9438812680001
 30
0.0
  0
VERTEX
  5
451
330
439
100
AcDbEntity
  8
LAYER3
100
AcDbVertex
100
AcDb2dVertex
 10
205.5467421925328
 20
251.9085762448067
 30
0.0
  0
VERTEX
  5
452
330
439
100
AcDbEntity
  8
LAYER3
100
AcDbVertex
100
AcDb2dVertex
 10
205.5599696553013
 20
251.8739578671212
 30
0.0
  0
SEQEND
  5
453
330
439
100
AcDbEntity
  8
LAYER3
  0
ARC
  5
454
330
2
100
AcDbEntity
  8
LAYER3
100
AcDbCircle
 10
202.4544542250248
 20
250.617666253512
 30
0.0
 40
3.349999999999319
100
AcDbArc
 50
13.97488305082521
 51
22.02511694917566
  0
POLYLINE
  5
455
330
2
100
AcDbEntity
  8
LAYER3
100
AcDb2dPolyline
 66
     1
 10
0.0
 20
0.0
 30
0.0
 70
   128
  0
VERTEX
  5
456
330
455
100
AcDbEntity
  8
LAYER3
100
AcDbVertex
100
AcDb2dVertex
 10
205.7053000843785
 20
251.4266846127267
 30
0.0
  0
VERTEX
  5
457
330
455
100
AcDbEntity
  8
LAYER3
100
AcDbVertex
100
AcDb2dVertex
 10
205.7149482882283
 20
251.3909027523751
 30
0.0
  0
VERTEX
  5
458
330
455
100
AcDbEntity
  8
LAYER3
100
AcDbVertex
100
AcDb2dVertex
 10
205.7260138905308
 20
251.3553116268868
 30
0.0
  0
VERTEX
  5
459
330
455
100
AcDbEntity
  8
LAYER3
100
AcDbVertex
100
AcDb2dVertex
 10
205.7384343064092
 20
251.3200447506661
 30
0.0
  0
VERTEX
  5
45A
330
455
100
AcDbEntity
  8
LAYER3
100
AcDbVertex
100
AcDb2dVertex
 10
205.7521481430791
 20
251.2852165646309
 30
0.0
  0
VERTEX
  5
45B
330
455
100
AcDbEntity
  8
LAYER3
100
AcDbVertex
100
AcDb2dVertex
 10
205.76709341171
 20
251.2509796566719
 30
0.0
  0
VERTEX
  5
45C
330
455
100
AcDbEntity
  8
LAYER3
100
AcDbVertex
100
AcDb2dVertex
 10
205.783208719518
 20
251.2174103207344
 30
0.0
  0
VERTEX
  5
45D
330
455
100
AcDbEntity
  8
LAYER3
100
AcDbVertex
100
AcDb2dVertex
 10
205.8004320776723
 20
251.1846802181954
 30
0.0
  0
VERTEX
  5
45E
330
455
100
AcDbEntity
  8
LAYER3
100
AcDbVertex
100
AcDb2dVertex
 10
205.8187020933888
 20
251.1528847164864
 30
0.0
  0
VERTEX
  5
45F
330
455
100
AcDbEntity
  8
LAYER3
100
AcDbVertex
100
AcDb2dVertex
 10
205.8379532015584
 20
251.1221382565254
 30
0.0
  0
VERTEX
  5
460
330
455
100
AcDbEntity
  8
LAYER3
100
AcDbVertex
100
AcDb2dVertex
 10
205.8580787098668
 20
251.0924980587716
 30
0.0
  0
VERTEX
  5
461
330
455
100
AcDbEntity
  8
LAYER3
100
AcDbVertex
100
AcDb2dVertex
 10
205.8789540446064
 20
251.0640022701974
 30
0.0
  0
VERTEX
  5
462
330
455
100
AcDbEntity
  8
LAYER3
100
AcDbVertex
100
AcDb2dVertex
 10
205.9004558241627
 20
251.0367081112618
 30
0.0
  0
VERTEX
  5
463
330
455
100
AcDbEntity
  8
LAYER3
100
AcDbVertex
100
AcDb2dVertex
 10
205.922459474828
 20
251.0106155819649
 30
0.0
  0
VERTEX
  5
464
330
455
100
AcDbEntity
  8
LAYER3
100
AcDbVertex
100
AcDb2dVertex
 10
205.9448416149876
 20
250.985800976252
 30
0.0
  0
VERTEX
  5
465
330
455
100
AcDbEntity
  8
LAYER3
100
AcDbVertex
100
AcDb2dVertex
 10
205.9674776709339
 20
250.9622833676095
 30
0.0
  0
VERTEX
  5
466
330
455
100
AcDbEntity
  8
LAYER3
100
AcDbVertex
100
AcDb2dVertex
 10
205.9902430689594
 20
250.9400818295235
 30
0.0
  0
VERTEX
  5
467
330
455
100
AcDbEntity
  8
LAYER3
100
AcDbVertex
100
AcDb2dVertex
 10
206.0130168116352
 20
250.9192726559395
 30
0.0
  0
VERTEX
  5
468
330
455
100
AcDbEntity
  8
LAYER3
100
AcDbVertex
100
AcDb2dVertex
 10
206.0360742724201
 20
250.8994934506173
 30
0.0
  0
VERTEX
  5
469
330
455
100
AcDbEntity
  8
LAYER3
100
AcDbVertex
100
AcDb2dVertex
 10
206.0596693671009
 20
250.8804581112618
 30
0.0
  0
VERTEX
  5
46A
330
455
100
AcDbEntity
  8
LAYER3
100
AcDbVertex
100
AcDb2dVertex
 10
206.0837687170765
 20
250.8622047848458
 30
0.0
  0
VERTEX
  5
46B
330
455
100
AcDbEntity
  8
LAYER3
100
AcDbVertex
100
AcDb2dVertex
 10
206.1083413279316
 20
250.8447143978829
 30
0.0
  0
VERTEX
  5
46C
330
455
100
AcDbEntity
  8
LAYER3
100
AcDbVertex
100
AcDb2dVertex
 10
206.1333585894367
 20
250.8280250973458
 30
0.0
  0
VERTEX
  5
46D
330
455
100
AcDbEntity
  8
LAYER3
100
AcDbVertex
100
AcDb2dVertex
 10
206.1587883150837
 20
250.8121368832345
 30
0.0
  0
VERTEX
  5
46E
330
455
100
AcDbEntity
  8
LAYER3
100
AcDbVertex
100
AcDb2dVertex
 10
206.1845995104572
 20
250.7970688290352
 30
0.0
  0
SEQEND
  5
46F
330
455
100
AcDbEntity
  8
LAYER3
  0
POLYLINE
  5
470
330
2
100
AcDbEntity
  8
LAYER3
100
AcDb2dPolyline
 66
     1
 10
0.0
 20
0.0
 30
0.0
 70
   128
  0
VERTEX
  5
471
330
470
100
AcDbEntity
  8
LAYER3
100
AcDbVertex
100
AcDb2dVertex
 10
206.1845995104572
 20
250.7970688290352
 30
0.0
  0
VERTEX
  5
472
330
470
100
AcDbEntity
  8
LAYER3
100
AcDbVertex
100
AcDb2dVertex
 10
206.2974752104541
 20
250.725791210627
 30
0.0
  0
VERTEX
  5
473
330
470
100
AcDbEntity
  8
LAYER3
100
AcDbVertex
100
AcDb2dVertex
 10
206.4039100325366
 20
250.6427643246407
 30
0.0
  0
VERTEX
  5
474
330
470
100
AcDbEntity
  8
LAYER3
100
AcDbVertex
100
AcDb2dVertex
 10
206.5025163805743
 20
250.5485794491524
 30
0.0
  0
VERTEX
  5
475
330
470
100
AcDbEntity
  8
LAYER3
100
AcDbVertex
100
AcDb2dVertex
 10
206.59227024677
 20
250.4433510250802
 30
0.0
  0
VERTEX
  5
476
330
470
100
AcDbEntity
  8
LAYER3
100
AcDbVertex
100
AcDb2dVertex
 10
206.6758562243242
 20
250.3209946102852
 30
0.0
  0
VERTEX
  5
477
330
470
100
AcDbEntity
  8
LAYER3
100
AcDbVertex
100
AcDb2dVertex
 10
206.7493296778459
 20
250.1825210995431
 30
0.0
  0
VERTEX
  5
478
330
470
100
AcDbEntity
  8
LAYER3
100
AcDbVertex
100
AcDb2dVertex
 10
206.8072558558244
 20
250.0323173947091
 30
0.0
  0
VERTEX
  5
479
330
470
100
AcDbEntity
  8
LAYER3
100
AcDbVertex
100
AcDb2dVertex
 10
206.8470836794633
 20
249.8771545834298
 30
0.0
  0
VERTEX
  5
47A
330
470
100
AcDbEntity
  8
LAYER3
100
AcDbVertex
100
AcDb2dVertex
 10
206.8680919325609
 20
249.7165939755196
 30
0.0
  0
VERTEX
  5
47B
330
470
100
AcDbEntity
  8
LAYER3
100
AcDbVertex
100
AcDb2dVertex
 10
206.8693996584672
 20
249.5439217037911
 30
0.0
  0
VERTEX
  5
47C
330
470
100
AcDbEntity
  8
LAYER3
100
AcDbVertex
100
AcDb2dVertex
 10
206.8477750933427
 20
249.3693993038887
 30
0.0
  0
VERTEX
  5
47D
330
470
100
AcDbEntity
  8
LAYER3
100
AcDbVertex
100
AcDb2dVertex
 10
206.8055380499619
 20
249.2039177365059
 30
0.0
  0
VERTEX
  5
47E
330
470
100
AcDbEntity
  8
LAYER3
100
AcDbVertex
100
AcDb2dVertex
 10
206.7424417650956
 20
249.0452072567696
 30
0.0
  0
VERTEX
  5
47F
330
470
100
AcDbEntity
  8
LAYER3
100
AcDbVertex
100
AcDb2dVertex
 10
206.6573454058426
 20
248.8913032955879
 30
0.0
  0
VERTEX
  5
480
330
470
100
AcDbEntity
  8
LAYER3
100
AcDbVertex
100
AcDb2dVertex
 10
206.5548015749711
 20
248.7523720211739
 30
0.0
  0
VERTEX
  5
481
330
470
100
AcDbEntity
  8
LAYER3
100
AcDbVertex
100
AcDb2dVertex
 10
206.4434243357438
 20
248.6348221249337
 30
0.0
  0
VERTEX
  5
482
330
470
100
AcDbEntity
  8
LAYER3
100
AcDbVertex
100
AcDb2dVertex
 10
206.3199998057146
 20
248.5327026791329
 30
0.0
  0
VERTEX
  5
483
330
470
100
AcDbEntity
  8
LAYER3
100
AcDbVertex
100
AcDb2dVertex
 10
206.1848558104296
 20
248.4452507443184
 30
0.0
  0
VERTEX
  5
484
330
470
100
AcDbEntity
  8
LAYER3
100
AcDbVertex
100
AcDb2dVertex
 10
206.04402433994
 20
248.3764145321602
 30
0.0
  0
VERTEX
  5
485
330
470
100
AcDbEntity
  8
LAYER3
100
AcDbVertex
100
AcDb2dVertex
 10
205.9044821179171
 20
248.3265564388985
 30
0.0
  0
VERTEX
  5
486
330
470
100
AcDbEntity
  8
LAYER3
100
AcDbVertex
100
AcDb2dVertex
 10
205.770011655118
 20
248.2941696591133
 30
0.0
  0
VERTEX
  5
487
330
470
100
AcDbEntity
  8
LAYER3
100
AcDbVertex
100
AcDb2dVertex
 10
205.6348771965762
 20
248.2759354061837
 30
0.0
  0
VERTEX
  5
488
330
470
100
AcDbEntity
  8
LAYER3
100
AcDbVertex
100
AcDb2dVertex
 10
205.49996327522
 20
248.2713196224922
 30
0.0
  0
VERTEX
  5
489
330
470
100
AcDbEntity
  8
LAYER3
100
AcDbVertex
100
AcDb2dVertex
 10
205.3667516625186
 20
248.2799980587715
 30
0.0
  0
SEQEND
  5
48A
330
470
100
AcDbEntity
  8
LAYER3
  0
POLYLINE
  5
48B
330
2
100
AcDbEntity
  8
LAYER3
100
AcDb2dPolyline
 66
     1
 10
0.0
 20
0.0
 30
0.0
 70
   128
  0
VERTEX
  5
48C
330
48B
100
AcDbEntity
  8
LAYER3
100
AcDbVertex
100
AcDb2dVertex
 10
205.3667516625186
 20
248.2799980587715
 30
0.0
  0
VERTEX
  5
48D
330
48B
100
AcDbEntity
  8
LAYER3
100
AcDbVertex
100
AcDb2dVertex
 10
205.3370143091937
 20
248.2829735226387
 30
0.0
  0
VERTEX
  5
48E
330
48B
100
AcDbEntity
  8
LAYER3
100
AcDbVertex
100
AcDb2dVertex
 10
205.3071041023991
 20
248.2850716061348
 30
0.0
  0
VERTEX
  5
48F
330
48B
100
AcDbEntity
  8
LAYER3
100
AcDbVertex
100
AcDb2dVertex
 10
205.2770544207356
 20
248.2862732357735
 30
0.0
  0
VERTEX
  5
490
330
48B
100
AcDbEntity
  8
LAYER3
100
AcDbVertex
100
AcDb2dVertex
 10
205.2468974507115
 20
248.2865784115547
 30
0.0
  0
VERTEX
  5
491
330
48B
100
AcDbEntity
  8
LAYER3
100
AcDbVertex
100
AcDb2dVertex
 10
205.2166659748814
 20
248.2859680599923
 30
0.0
  0
VERTEX
  5
492
330
48B
100
AcDbEntity
  8
LAYER3
100
AcDbVertex
100
AcDb2dVertex
 10
205.1863921797535
 20
248.284442181086
 30
0.0
  0
VERTEX
  5
493
330
48B
100
AcDbEntity
  8
LAYER3
100
AcDbVertex
100
AcDb2dVertex
 10
205.1561094439289
 20
248.2819817013497
 30
0.0
  0
VERTEX
  5
494
330
48B
100
AcDbEntity
  8
LAYER3
100
AcDbVertex
100
AcDb2dVertex
 10
205.1254511988422
 20
248.2785294003243
 30
0.0
  0
VERTEX
  5
495
330
48B
100
AcDbEntity
  8
LAYER3
100
AcDbVertex
100
AcDb2dVertex
 10
205.0939918673298
 20
248.2739708370919
 30
0.0
  0
VERTEX
  5
496
330
48B
100
AcDbEntity
  8
LAYER3
100
AcDbVertex
100
AcDb2dVertex
 10
205.061851850774
 20
248.2682487911934
 30
0.0
  0
VERTEX
  5
497
330
48B
100
AcDbEntity
  8
LAYER3
100
AcDbVertex
100
AcDb2dVertex
 10
205.0291545307896
 20
248.26130604217
 30
0.0
  0
VERTEX
  5
498
330
48B
100
AcDbEntity
  8
LAYER3
100
AcDbVertex
100
AcDb2dVertex
 10
204.9960220968983
 20
248.2531425900216
 30
0.0
  0
VERTEX
  5
499
330
48B
100
AcDbEntity
  8
LAYER3
100
AcDbVertex
100
AcDb2dVertex
 10
204.9625779307148
 20
248.2437012142892
 30
0.0
  0
VERTEX
  5
49A
330
48B
100
AcDbEntity
  8
LAYER3
100
AcDbVertex
100
AcDb2dVertex
 10
204.928944221761
 20
248.2329246945138
 30
0.0
  0
VERTEX
  5
49B
330
48B
100
AcDbEntity
  8
LAYER3
100
AcDbVertex
100
AcDb2dVertex
 10
204.8952443516514
 20
248.2207748837227
 30
0.0
  0
VERTEX
  5
49C
330
48B
100
AcDbEntity
  8
LAYER3
100
AcDbVertex
100
AcDb2dVertex
 10
204.8615999138615
 20
248.2072136349434
 30
0.0
  0
VERTEX
  5
49D
330
48B
100
AcDbEntity
  8
LAYER3
100
AcDbVertex
100
AcDb2dVertex
 10
204.828127733495
 20
248.1922218746895
 30
0.0
  0
VERTEX
  5
49E
330
48B
100
AcDbEntity
  8
LAYER3
100
AcDbVertex
100
AcDb2dVertex
 10
204.7949488079808
 20
248.17585682342
 30
0.0
  0
VERTEX
  5
49F
330
48B
100
AcDbEntity
  8
LAYER3
100
AcDbVertex
100
AcDb2dVertex
 10
204.7621865189336
 20
248.1581947750802
 30
0.0
  0
VERTEX
  5
4A0
330
48B
100
AcDbEntity
  8
LAYER3
100
AcDbVertex
100
AcDb2dVertex
 10
204.7299630558751
 20
248.1392548031563
 30
0.0
  0
VERTEX
  5
4A1
330
48B
100
AcDbEntity
  8
LAYER3
100
AcDbVertex
100
AcDb2dVertex
 10
204.6984018004201
 20
248.1191513485665
 30
0.0
  0
VERTEX
  5
4A2
330
48B
100
AcDbEntity
  8
LAYER3
100
AcDbVertex
100
AcDb2dVertex
 10
204.6676255381367
 20
248.0979225582833
 30
0.0
  0
VERTEX
  5
4A3
330
48B
100
AcDbEntity
  8
LAYER3
100
AcDbVertex
100
AcDb2dVertex
 10
204.6377564585469
 20
248.075644726252
 30
0.0
  0
VERTEX
  5
4A4
330
48B
100
AcDbEntity
  8
LAYER3
100
AcDbVertex
100
AcDb2dVertex
 10
204.6089173472188
 20
248.0523559994454
 30
0.0
  0
SEQEND
  5
4A5
330
48B
100
AcDbEntity
  8
LAYER3
  0
POLYLINE
  5
4A6
330
2
100
AcDbEntity
  8
LAYER3
100
AcDb2dPolyline
 66
     1
 10
0.0
 20
0.0
 30
0.0
 70
   128
  0
VERTEX
  5
4A7
330
4A6
100
AcDbEntity
  8
LAYER3
100
AcDbVertex
100
AcDb2dVertex
 10
199.3312500036022
 20
252.6650497860665
 30
0.0
  0
VERTEX
  5
4A8
330
4A6
100
AcDbEntity
  8
LAYER3
100
AcDbVertex
100
AcDb2dVertex
 10
199.2818255341311
 20
252.7890465206856
 30
0.0
  0
VERTEX
  5
4A9
330
4A6
100
AcDbEntity
  8
LAYER3
100
AcDbVertex
100
AcDb2dVertex
 10
199.2445237553378
 20
252.9187843746895
 30
0.0
  0
VERTEX
  5
4AA
330
4A6
100
AcDbEntity
  8
LAYER3
100
AcDbVertex
100
AcDb2dVertex
 10
199.2201102888842
 20
253.0529472775215
 30
0.0
  0
VERTEX
  5
4AB
330
4A6
100
AcDbEntity
  8
LAYER3
100
AcDbVertex
100
AcDb2dVertex
 10
199.2093555248041
 20
253.1908485836739
 30
0.0
  0
VERTEX
  5
4AC
330
4A6
100
AcDbEntity
  8
LAYER3
100
AcDbVertex
100
AcDb2dVertex
 10
199.2136509335298
 20
253.3389542050118
 30
0.0
  0
VERTEX
  5
4AD
330
4A6
100
AcDbEntity
  8
LAYER3
100
AcDbVertex
100
AcDb2dVertex
 10
199.2356015360613
 20
253.4941742367501
 30
0.0
  0
VERTEX
  5
4AE
330
4A6
100
AcDbEntity
  8
LAYER3
100
AcDbVertex
100
AcDb2dVertex
 10
199.2770184195299
 20
253.6497375912423
 30
0.0
  0
VERTEX
  5
4AF
330
4A6
100
AcDbEntity
  8
LAYER3
100
AcDbVertex
100
AcDb2dVertex
 10
199.3360016858834
 20
253.7986633724923
 30
0.0
  0
VERTEX
  5
4B0
330
4A6
100
AcDbEntity
  8
LAYER3
100
AcDbVertex
100
AcDb2dVertex
 10
199.4133858001489
 20
253.9409325070137
 30
0.0
  0
VERTEX
  5
4B1
330
4A6
100
AcDbEntity
  8
LAYER3
100
AcDbVertex
100
AcDb2dVertex
 10
199.5138145602006
 20
254.0813705868477
 30
0.0
  0
VERTEX
  5
4B2
330
4A6
100
AcDbEntity
  8
LAYER3
100
AcDbVertex
100
AcDb2dVertex
 10
199.6338997400063
 20
254.2098686642403
 30
0.0
  0
VERTEX
  5
4B3
330
4A6
100
AcDbEntity
  8
LAYER3
100
AcDbVertex
100
AcDb2dVertex
 10
199.7653366244096
 20
254.3189117855782
 30
0.0
  0
VERTEX
  5
4B4
330
4A6
100
AcDbEntity
  8
LAYER3
100
AcDbVertex
100
AcDb2dVertex
 10
199.9096653974312
 20
254.4102165646309
 30
0.0
  0
VERTEX
  5
4B5
330
4A6
100
AcDbEntity
  8
LAYER3
100
AcDbVertex
100
AcDb2dVertex
 10
200.0689778840798
 20
254.4847176022286
 30
0.0
  0
VERTEX
  5
4B6
330
4A6
100
AcDbEntity
  8
LAYER3
100
AcDbVertex
100
AcDb2dVertex
 10
200.2335907137651
 20
254.5368454403634
 30
0.0
  0
VERTEX
  5
4B7
330
4A6
100
AcDbEntity
  8
LAYER3
100
AcDbVertex
100
AcDb2dVertex
 10
200.392793229844
 20
254.5664665646309
 30
0.0
  0
VERTEX
  5
4B8
330
4A6
100
AcDbEntity
  8
LAYER3
100
AcDbVertex
100
AcDb2dVertex
 10
200.5526713645715
 20
254.5765373654122
 30
0.0
  0
VERTEX
  5
4B9
330
4A6
100
AcDbEntity
  8
LAYER3
100
AcDbVertex
100
AcDb2dVertex
 10
200.713413468625
 20
254.5678589291329
 30
0.0
  0
VERTEX
  5
4BA
330
4A6
100
AcDbEntity
  8
LAYER3
100
AcDbVertex
100
AcDb2dVertex
 10
200.8678109562655
 20
254.5407745785469
 30
0.0
  0
VERTEX
  5
4BB
330
4A6
100
AcDbEntity
  8
LAYER3
100
AcDbVertex
100
AcDb2dVertex
 10
201.0100073731203
 20
254.49909901092
 30
0.0
  0
VERTEX
  5
4BC
330
4A6
100
AcDbEntity
  8
LAYER3
100
AcDbVertex
100
AcDb2dVertex
 10
201.1378313219805
 20
254.4462463803048
 30
0.0
  0
VERTEX
  5
4BD
330
4A6
100
AcDbEntity
  8
LAYER3
100
AcDbVertex
100
AcDb2dVertex
 10
201.257877460744
 20
254.3815872616524
 30
0.0
  0
VERTEX
  5
4BE
330
4A6
100
AcDbEntity
  8
LAYER3
100
AcDbVertex
100
AcDb2dVertex
 10
201.369737497594
 20
254.3060181088204
 30
0.0
  0
VERTEX
  5
4BF
330
4A6
100
AcDbEntity
  8
LAYER3
100
AcDbVertex
100
AcDb2dVertex
 10
201.472402921941
 20
254.2206833309883
 30
0.0
  0
SEQEND
  5
4C0
330
4A6
100
AcDbEntity
  8
LAYER3
  0
POLYLINE
  5
4C1
330
2
100
AcDbEntity
  8
LAYER3
100
AcDb2dPolyline
 66
     1
 10
0.0
 20
0.0
 30
0.0
 70
   128
  0
VERTEX
  5
4C2
330
4C1
100
AcDbEntity
  8
LAYER3
100
AcDbVertex
100
AcDb2dVertex
 10
199.3489388740323
 20
251.8739578671212
 30
0.0
  0
VERTEX
  5
4C3
330
4C1
100
AcDbEntity
  8
LAYER3
100
AcDbVertex
100
AcDb2dVertex
 10
199.3621660387776
 20
251.9085762448067
 30
0.0
  0
VERTEX
  5
4C4
330
4C1
100
AcDbEntity
  8
LAYER3
100
AcDbVertex
100
AcDb2dVertex
 10
199.3741310751698
 20
251.9438812680001
 30
0.0
  0
VERTEX
  5
4C5
330
4C1
100
AcDbEntity
  8
LAYER3
100
AcDbVertex
100
AcDb2dVertex
 10
199.3848110354207
 20
251.9797012753243
 30
0.0
  0
VERTEX
  5
4C6
330
4C1
100
AcDbEntity
  8
LAYER3
100
AcDbVertex
100
AcDb2dVertex
 10
199.3941829717419
 20
252.0159408993477
 30
0.0
  0
VERTEX
  5
4C7
330
4C1
100
AcDbEntity
  8
LAYER3
100
AcDbVertex
100
AcDb2dVertex
 10
199.4022239363453
 20
252.0524284786934
 30
0.0
  0
VERTEX
  5
4C8
330
4C1
100
AcDbEntity
  8
LAYER3
100
AcDbVertex
100
AcDb2dVertex
 10
199.4089109814427
 20
252.0890495724434
 30
0.0
  0
VERTEX
  5
4C9
330
4C1
100
AcDbEntity
  8
LAYER3
100
AcDbVertex
100
AcDb2dVertex
 10
199.414221457269
 20
252.1256706661934
 30
0.0
  0
VERTEX
  5
4CA
330
4C1
100
AcDbEntity
  8
LAYER3
100
AcDbVertex
100
AcDb2dVertex
 10
199.4181324160359
 20
252.1621200985665
 30
0.0
  0
VERTEX
  5
4CB
330
4C1
100
AcDbEntity
  8
LAYER3
100
AcDbVertex
100
AcDb2dVertex
 10
199.4206283605359
 20
252.1983215756173
 30
0.0
  0
VERTEX
  5
4CC
330
4C1
100
AcDbEntity
  8
LAYER3
100
AcDbVertex
100
AcDb2dVertex
 10
199.4217644250653
 20
252.2341225094551
 30
0.0
  0
VERTEX
  5
4CD
330
4C1
100
AcDbEntity
  8
LAYER3
100
AcDbVertex
100
AcDb2dVertex
 10
199.4216204798481
 20
252.2694275326485
 30
0.0
  0
VERTEX
  5
4CE
330
4C1
100
AcDbEntity
  8
LAYER3
100
AcDbVertex
100
AcDb2dVertex
 10
199.4202743089458
 20
252.304160351252
 30
0.0
  0
VERTEX
  5
4CF
330
4C1
100
AcDbEntity
  8
LAYER3
100
AcDbVertex
100
AcDb2dVertex
 10
199.4178039944431
 20
252.3382065243477
 30
0.0
  0
VERTEX
  5
4D0
330
4C1
100
AcDbEntity
  8
LAYER3
100
AcDbVertex
100
AcDb2dVertex
 10
199.4142870223782
 20
252.3714325375313
 30
0.0
  0
VERTEX
  5
4D1
330
4C1
100
AcDbEntity
  8
LAYER3
100
AcDbVertex
100
AcDb2dVertex
 10
199.4098011768123
 20
252.4037811703438
 30
0.0
  0
VERTEX
  5
4D2
330
4C1
100
AcDbEntity
  8
LAYER3
100
AcDbVertex
100
AcDb2dVertex
 10
199.4044242418072
 20
252.4350998348946
 30
0.0
  0
VERTEX
  5
4D3
330
4C1
100
AcDbEntity
  8
LAYER3
100
AcDbVertex
100
AcDb2dVertex
 10
199.398234001424
 20
252.4653313107247
 30
0.0
  0
VERTEX
  5
4D4
330
4C1
100
AcDbEntity
  8
LAYER3
100
AcDbVertex
100
AcDb2dVertex
 10
199.3912084019443
 20
252.4948952145333
 30
0.0
  0
VERTEX
  5
4D5
330
4C1
100
AcDbEntity
  8
LAYER3
100
AcDbVertex
100
AcDb2dVertex
 10
199.38330601814
 20
252.5241539425606
 30
0.0
  0
VERTEX
  5
4D6
330
4C1
100
AcDbEntity
  8
LAYER3
100
AcDbVertex
100
AcDb2dVertex
 10
199.3745438373348
 20
252.5530884213204
 30
0.0
  0
VERTEX
  5
4D7
330
4C1
100
AcDbEntity
  8
LAYER3
100
AcDbVertex
100
AcDb2dVertex
 10
199.3649400389454
 20
252.5816795773263
 30
0.0
  0
VERTEX
  5
4D8
330
4C1
100
AcDbEntity
  8
LAYER3
100
AcDbVertex
100
AcDb2dVertex
 10
199.3545113122722
 20
252.6098892636055
 30
0.0
  0
VERTEX
  5
4D9
330
4C1
100
AcDbEntity
  8
LAYER3
100
AcDbVertex
100
AcDb2dVertex
 10
199.3432755387088
 20
252.6376793331856
 30
0.0
  0
VERTEX
  5
4DA
330
4C1
100
AcDbEntity
  8
LAYER3
100
AcDbVertex
100
AcDb2dVertex
 10
199.3312500036022
 20
252.6650497860665
 30
0.0
  0
SEQEND
  5
4DB
330
4C1
100
AcDbEntity
  8
LAYER3
  0
ARC
  5
4DC
330
2
100
AcDbEntity
  8
LAYER3
100
AcDbCircle
 10
202.4544542250235
 20
250.617666253512
 30
0.0
 40
3.349999999999479
100
AcDbArc
 50
157.9748830508228
 51
166.0251169491766
  0
POLYLINE
  5
4DD
330
2
100
AcDbEntity
  8
LAYER3
100
AcDb2dPolyline
 66
     1
 10
0.0
 20
0.0
 30
0.0
 70
   128
  0
VERTEX
  5
4DE
330
4DD
100
AcDbEntity
  8
LAYER3
100
AcDbVertex
100
AcDb2dVertex
 10
198.7243090188762
 20
250.7970688290352
 30
0.0
  0
VERTEX
  5
4DF
330
4DD
100
AcDbEntity
  8
LAYER3
100
AcDbVertex
100
AcDb2dVertex
 10
198.7501199162265
 20
250.8121368832345
 30
0.0
  0
VERTEX
  5
4E0
330
4DD
100
AcDbEntity
  8
LAYER3
100
AcDbVertex
100
AcDb2dVertex
 10
198.7755496418735
 20
250.8280250973458
 30
0.0
  0
VERTEX
  5
4E1
330
4DD
100
AcDbEntity
  8
LAYER3
100
AcDbVertex
100
AcDb2dVertex
 10
198.8005666053554
 20
250.8447143978829
 30
0.0
  0
VERTEX
  5
4E2
330
4DD
100
AcDbEntity
  8
LAYER3
100
AcDbVertex
100
AcDb2dVertex
 10
198.8251401102802
 20
250.8622047848458
 30
0.0
  0
VERTEX
  5
4E3
330
4DD
100
AcDbEntity
  8
LAYER3
100
AcDbVertex
100
AcDb2dVertex
 10
198.8492394602558
 20
250.8804581112618
 30
0.0
  0
VERTEX
  5
4E4
330
4DD
100
AcDbEntity
  8
LAYER3
100
AcDbVertex
100
AcDb2dVertex
 10
198.8728336608669
 20
250.8994934506173
 30
0.0
  0
VERTEX
  5
4E5
330
4DD
100
AcDbEntity
  8
LAYER3
100
AcDbVertex
100
AcDb2dVertex
 10
198.895891419675
 20
250.9192726559395
 30
0.0
  0
VERTEX
  5
4E6
330
4DD
100
AcDbEntity
  8
LAYER3
100
AcDbVertex
100
AcDb2dVertex
 10
198.9186651623508
 20
250.9400818295235
 30
0.0
  0
VERTEX
  5
4E7
330
4DD
100
AcDbEntity
  8
LAYER3
100
AcDbVertex
100
AcDb2dVertex
 10
198.9414311564228
 20
250.9622833676095
 30
0.0
  0
VERTEX
  5
4E8
330
4DD
100
AcDbEntity
  8
LAYER3
100
AcDbVertex
100
AcDb2dVertex
 10
198.9640672123691
 20
250.985800976252
 30
0.0
  0
VERTEX
  5
4E9
330
4DD
100
AcDbEntity
  8
LAYER3
100
AcDbVertex
100
AcDb2dVertex
 10
198.9864487564823
 20
251.0106155819649
 30
0.0
  0
VERTEX
  5
4EA
330
4DD
100
AcDbEntity
  8
LAYER3
100
AcDbVertex
100
AcDb2dVertex
 10
199.0084524071476
 20
251.0367081112618
 30
0.0
  0
VERTEX
  5
4EB
330
4DD
100
AcDbEntity
  8
LAYER3
100
AcDbVertex
100
AcDb2dVertex
 10
199.0299541867038
 20
251.0640022701974
 30
0.0
  0
VERTEX
  5
4EC
330
4DD
100
AcDbEntity
  8
LAYER3
100
AcDbVertex
100
AcDb2dVertex
 10
199.0508298194668
 20
251.0924980587716
 30
0.0
  0
VERTEX
  5
4ED
330
4DD
100
AcDbEntity
  8
LAYER3
100
AcDbVertex
100
AcDb2dVertex
 10
199.0709553277753
 20
251.1221382565254
 30
0.0
  0
VERTEX
  5
4EE
330
4DD
100
AcDbEntity
  8
LAYER3
100
AcDbVertex
100
AcDb2dVertex
 10
199.0902061379216
 20
251.1528847164864
 30
0.0
  0
VERTEX
  5
4EF
330
4DD
100
AcDbEntity
  8
LAYER3
100
AcDbVertex
100
AcDb2dVertex
 10
199.1084761536381
 20
251.1846802181954
 30
0.0
  0
VERTEX
  5
4F0
330
4DD
100
AcDbEntity
  8
LAYER3
100
AcDbVertex
100
AcDb2dVertex
 10
199.1256998098156
 20
251.2174103207344
 30
0.0
  0
VERTEX
  5
4F1
330
4DD
100
AcDbEntity
  8
LAYER3
100
AcDbVertex
100
AcDb2dVertex
 10
199.1418151176236
 20
251.2509796566719
 30
0.0
  0
VERTEX
  5
4F2
330
4DD
100
AcDbEntity
  8
LAYER3
100
AcDbVertex
100
AcDb2dVertex
 10
199.1567606842778
 20
251.2852165646309
 30
0.0
  0
VERTEX
  5
4F3
330
4DD
100
AcDbEntity
  8
LAYER3
100
AcDbVertex
100
AcDb2dVertex
 10
199.1704745209477
 20
251.3200447506661
 30
0.0
  0
VERTEX
  5
4F4
330
4DD
100
AcDbEntity
  8
LAYER3
100
AcDbVertex
100
AcDb2dVertex
 10
199.1828946388028
 20
251.3553116268868
 30
0.0
  0
VERTEX
  5
4F5
330
4DD
100
AcDbEntity
  8
LAYER3
100
AcDbVertex
100
AcDb2dVertex
 10
199.1939602411053
 20
251.3909027523751
 30
0.0
  0
VERTEX
  5
4F6
330
4DD
100
AcDbEntity
  8
LAYER3
100
AcDbVertex
100
AcDb2dVertex
 10
199.2036084449551
 20
251.4266846127267
 30
0.0
  0
SEQEND
  5
4F7
330
4DD
100
AcDbEntity
  8
LAYER3
  0
POLYLINE
  5
4F8
330
2
100
AcDbEntity
  8
LAYER3
100
AcDb2dPolyline
 66
     1
 10
0.0
 20
0.0
 30
0.0
 70
   128
  0
VERTEX
  5
4F9
330
4F8
100
AcDbEntity
  8
LAYER3
100
AcDbVertex
100
AcDb2dVertex
 10
199.5421565687915
 20
248.2799980587715
 30
0.0
  0
VERTEX
  5
4FA
330
4F8
100
AcDbEntity
  8
LAYER3
100
AcDbVertex
100
AcDb2dVertex
 10
199.40894495609
 20
248.2713196224922
 30
0.0
  0
VERTEX
  5
4FB
330
4F8
100
AcDbEntity
  8
LAYER3
100
AcDbVertex
100
AcDb2dVertex
 10
199.2740310347338
 20
248.2759354061837
 30
0.0
  0
VERTEX
  5
4FC
330
4F8
100
AcDbEntity
  8
LAYER3
100
AcDbVertex
100
AcDb2dVertex
 10
199.1388968742151
 20
248.2941696591133
 30
0.0
  0
VERTEX
  5
4FD
330
4F8
100
AcDbEntity
  8
LAYER3
100
AcDbVertex
100
AcDb2dVertex
 10
199.0044264114161
 20
248.3265564388985
 30
0.0
  0
VERTEX
  5
4FE
330
4F8
100
AcDbEntity
  8
LAYER3
100
AcDbVertex
100
AcDb2dVertex
 10
198.8648844874163
 20
248.3764145321602
 30
0.0
  0
VERTEX
  5
4FF
330
4F8
100
AcDbEntity
  8
LAYER3
100
AcDbVertex
100
AcDb2dVertex
 10
198.7240530169267
 20
248.4452507443184
 30
0.0
  0
VERTEX
  5
500
330
4F8
100
AcDbEntity
  8
LAYER3
100
AcDbVertex
100
AcDb2dVertex
 10
198.588908127572
 20
248.5327026791329
 30
0.0
  0
VERTEX
  5
501
330
4F8
100
AcDbEntity
  8
LAYER3
100
AcDbVertex
100
AcDb2dVertex
 10
198.4654835975426
 20
248.6348221249337
 30
0.0
  0
VERTEX
  5
502
330
4F8
100
AcDbEntity
  8
LAYER3
100
AcDbVertex
100
AcDb2dVertex
 10
198.3541071033734
 20
248.7523720211739
 30
0.0
  0
VERTEX
  5
503
330
4F8
100
AcDbEntity
  8
LAYER3
100
AcDbVertex
100
AcDb2dVertex
 10
198.2515626764554
 20
248.8913032955879
 30
0.0
  0
VERTEX
  5
504
330
4F8
100
AcDbEntity
  8
LAYER3
100
AcDbVertex
100
AcDb2dVertex
 10
198.1664667642373
 20
249.0452072567696
 30
0.0
  0
VERTEX
  5
505
330
4F8
100
AcDbEntity
  8
LAYER3
100
AcDbVertex
100
AcDb2dVertex
 10
198.1033706283826
 20
249.2039177365059
 30
0.0
  0
VERTEX
  5
506
330
4F8
100
AcDbEntity
  8
LAYER3
100
AcDbVertex
100
AcDb2dVertex
 10
198.0611337340134
 20
249.3693993038887
 30
0.0
  0
VERTEX
  5
507
330
4F8
100
AcDbEntity
  8
LAYER3
100
AcDbVertex
100
AcDb2dVertex
 10
198.0395091688889
 20
249.5439217037911
 30
0.0
  0
VERTEX
  5
508
330
4F8
100
AcDbEntity
  8
LAYER3
100
AcDbVertex
100
AcDb2dVertex
 10
198.0408167457837
 20
249.7165939755196
 30
0.0
  0
VERTEX
  5
509
330
4F8
100
AcDbEntity
  8
LAYER3
100
AcDbVertex
100
AcDb2dVertex
 10
198.0618251478929
 20
249.8771545834298
 30
0.0
  0
VERTEX
  5
50A
330
4F8
100
AcDbEntity
  8
LAYER3
100
AcDbVertex
100
AcDb2dVertex
 10
198.1016520774621
 20
250.0323173947091
 30
0.0
  0
VERTEX
  5
50B
330
4F8
100
AcDbEntity
  8
LAYER3
100
AcDbVertex
100
AcDb2dVertex
 10
198.1595792985219
 20
250.1825210995431
 30
0.0
  0
VERTEX
  5
50C
330
4F8
100
AcDbEntity
  8
LAYER3
100
AcDbVertex
100
AcDb2dVertex
 10
198.2330517089624
 20
250.3209946102852
 30
0.0
  0
VERTEX
  5
50D
330
4F8
100
AcDbEntity
  8
LAYER3
100
AcDbVertex
100
AcDb2dVertex
 10
198.3166382825632
 20
250.4433510250802
 30
0.0
  0
VERTEX
  5
50E
330
4F8
100
AcDbEntity
  8
LAYER3
100
AcDbVertex
100
AcDb2dVertex
 10
198.4063925957937
 20
250.5485794491524
 30
0.0
  0
VERTEX
  5
50F
330
4F8
100
AcDbEntity
  8
LAYER3
100
AcDbVertex
100
AcDb2dVertex
 10
198.5049984967966
 20
250.6427643246407
 30
0.0
  0
VERTEX
  5
510
330
4F8
100
AcDbEntity
  8
LAYER3
100
AcDbVertex
100
AcDb2dVertex
 10
198.6114336169024
 20
250.725791210627
 30
0.0
  0
VERTEX
  5
511
330
4F8
100
AcDbEntity
  8
LAYER3
100
AcDbVertex
100
AcDb2dVertex
 10
198.7243090188762
 20
250.7970688290352
 30
0.0
  0
SEQEND
  5
512
330
4F8
100
AcDbEntity
  8
LAYER3
  0
POLYLINE
  5
513
330
2
100
AcDbEntity
  8
LAYER3
100
AcDb2dPolyline
 66
     1
 10
0.0
 20
0.0
 30
0.0
 70
   128
  0
VERTEX
  5
514
330
513
100
AcDbEntity
  8
LAYER3
100
AcDbVertex
100
AcDb2dVertex
 10
200.2999908840916
 20
248.0523559994454
 30
0.0
  0
VERTEX
  5
515
330
513
100
AcDbEntity
  8
LAYER3
100
AcDbVertex
100
AcDb2dVertex
 10
200.2711520707868
 20
248.075644726252
 30
0.0
  0
VERTEX
  5
516
330
513
100
AcDbEntity
  8
LAYER3
100
AcDbVertex
100
AcDb2dVertex
 10
200.2412829911969
 20
248.0979225582833
 30
0.0
  0
VERTEX
  5
517
330
513
100
AcDbEntity
  8
LAYER3
100
AcDbVertex
100
AcDb2dVertex
 10
200.2105064308903
 20
248.1191513485665
 30
0.0
  0
VERTEX
  5
518
330
513
100
AcDbEntity
  8
LAYER3
100
AcDbVertex
100
AcDb2dVertex
 10
200.1789451754353
 20
248.1392548031563
 30
0.0
  0
VERTEX
  5
519
330
513
100
AcDbEntity
  8
LAYER3
100
AcDbVertex
100
AcDb2dVertex
 10
200.1467220104001
 20
248.1581947750802
 30
0.0
  0
VERTEX
  5
51A
330
513
100
AcDbEntity
  8
LAYER3
100
AcDbVertex
100
AcDb2dVertex
 10
200.1139597213529
 20
248.17585682342
 30
0.0
  0
VERTEX
  5
51B
330
513
100
AcDbEntity
  8
LAYER3
100
AcDbVertex
100
AcDb2dVertex
 10
200.0807807958386
 20
248.1922218746895
 30
0.0
  0
VERTEX
  5
51C
330
513
100
AcDbEntity
  8
LAYER3
100
AcDbVertex
100
AcDb2dVertex
 10
200.0473083174489
 20
248.2072136349434
 30
0.0
  0
VERTEX
  5
51D
330
513
100
AcDbEntity
  8
LAYER3
100
AcDbVertex
100
AcDb2dVertex
 10
200.013663879659
 20
248.2207748837227
 30
0.0
  0
VERTEX
  5
51E
330
513
100
AcDbEntity
  8
LAYER3
100
AcDbVertex
100
AcDb2dVertex
 10
199.9799640095494
 20
248.2329246945138
 30
0.0
  0
VERTEX
  5
51F
330
513
100
AcDbEntity
  8
LAYER3
100
AcDbVertex
100
AcDb2dVertex
 10
199.9463305986187
 20
248.2437012142892
 30
0.0
  0
VERTEX
  5
520
330
513
100
AcDbEntity
  8
LAYER3
100
AcDbVertex
100
AcDb2dVertex
 10
199.912886134412
 20
248.2531425900216
 30
0.0
  0
VERTEX
  5
521
330
513
100
AcDbEntity
  8
LAYER3
100
AcDbVertex
100
AcDb2dVertex
 10
199.8797539985439
 20
248.26130604217
 30
0.0
  0
VERTEX
  5
522
330
513
100
AcDbEntity
  8
LAYER3
100
AcDbVertex
100
AcDb2dVertex
 10
199.8470563805362
 20
248.2682487911934
 30
0.0
  0
VERTEX
  5
523
330
513
100
AcDbEntity
  8
LAYER3
100
AcDbVertex
100
AcDb2dVertex
 10
199.8149166620037
 20
248.2739708370919
 30
0.0
  0
VERTEX
  5
524
330
513
100
AcDbEntity
  8
LAYER3
100
AcDbVertex
100
AcDb2dVertex
 10
199.7834573304912
 20
248.2785294003243
 30
0.0
  0
VERTEX
  5
525
330
513
100
AcDbEntity
  8
LAYER3
100
AcDbVertex
100
AcDb2dVertex
 10
199.7527990854045
 20
248.2819817013497
 30
0.0
  0
VERTEX
  5
526
330
513
100
AcDbEntity
  8
LAYER3
100
AcDbVertex
100
AcDb2dVertex
 10
199.72251634958
 20
248.284442181086
 30
0.0
  0
VERTEX
  5
527
330
513
100
AcDbEntity
  8
LAYER3
100
AcDbVertex
100
AcDb2dVertex
 10
199.6922425544521
 20
248.2859680599923
 30
0.0
  0
VERTEX
  5
528
330
513
100
AcDbEntity
  8
LAYER3
100
AcDbVertex
100
AcDb2dVertex
 10
199.662011078622
 20
248.2865784115547
 30
0.0
  0
VERTEX
  5
529
330
513
100
AcDbEntity
  8
LAYER3
100
AcDbVertex
100
AcDb2dVertex
 10
199.6318541085979
 20
248.2862732357735
 30
0.0
  0
VERTEX
  5
52A
330
513
100
AcDbEntity
  8
LAYER3
100
AcDbVertex
100
AcDb2dVertex
 10
199.6018041289112
 20
248.2850716061348
 30
0.0
  0
VERTEX
  5
52B
330
513
100
AcDbEntity
  8
LAYER3
100
AcDbVertex
100
AcDb2dVertex
 10
199.5718942201396
 20
248.2829735226387
 30
0.0
  0
VERTEX
  5
52C
330
513
100
AcDbEntity
  8
LAYER3
100
AcDbVertex
100
AcDb2dVertex
 10
199.5421565687915
 20
248.2799980587715
 30
0.0
  0
SEQEND
  5
52D
330
513
100
AcDbEntity
  8
LAYER3
  0
ARC
  5
52E
330
2
100
AcDbEntity
  8
LAYER3
100
AcDbCircle
 10
202.4544542250268
 20
250.6176662535155
 30
0.0
 40
3.350000000004513
100
AcDbArc
 50
229.9748830508315
 51
238.0251169491719
  0
POLYLINE
  5
52F
330
2
100
AcDbEntity
  8
LAYER3
100
AcDb2dPolyline
 66
     1
 10
0.0
 20
0.0
 30
0.0
 70
   128
  0
VERTEX
  5
530
330
52F
100
AcDbEntity
  8
LAYER3
100
AcDbVertex
100
AcDb2dVertex
 10
201.1311490452548
 20
247.1255180783028
 30
0.0
  0
VERTEX
  5
531
330
52F
100
AcDbEntity
  8
LAYER3
100
AcDbVertex
100
AcDb2dVertex
 10
201.1247957861682
 20
247.1547386593575
 30
0.0
  0
VERTEX
  5
532
330
52F
100
AcDbEntity
  8
LAYER3
100
AcDbVertex
100
AcDb2dVertex
 10
201.1175460732242
 20
247.1838257260079
 30
0.0
  0
VERTEX
  5
533
330
52F
100
AcDbEntity
  8
LAYER3
100
AcDbVertex
100
AcDb2dVertex
 10
201.109402886655
 20
247.212779278254
 30
0.0
  0
VERTEX
  5
534
330
52F
100
AcDbEntity
  8
LAYER3
100
AcDbVertex
100
AcDb2dVertex
 10
201.1003686106464
 20
247.2415420956368
 30
0.0
  0
VERTEX
  5
535
330
52F
100
AcDbEntity
  8
LAYER3
100
AcDbVertex
100
AcDb2dVertex
 10
201.0904462254307
 20
247.2701141781563
 30
0.0
  0
VERTEX
  5
536
330
52F
100
AcDbEntity
  8
LAYER3
100
AcDbVertex
100
AcDb2dVertex
 10
201.07963871124
 20
247.2984383053536
 30
0.0
  0
VERTEX
  5
537
330
52F
100
AcDbEntity
  8
LAYER3
100
AcDbVertex
100
AcDb2dVertex
 10
201.0679484522602
 20
247.3264763302559
 30
0.0
  0
VERTEX
  5
538
330
52F
100
AcDbEntity
  8
LAYER3
100
AcDbVertex
100
AcDb2dVertex
 10
201.0551912701389
 20
247.3545715756173
 30
0.0
  0
VERTEX
  5
539
330
52F
100
AcDbEntity
  8
LAYER3
100
AcDbVertex
100
AcDb2dVertex
 10
201.0411251700184
 20
247.3830673641915
 30
0.0
  0
VERTEX
  5
53A
330
52F
100
AcDbEntity
  8
LAYER3
100
AcDbVertex
100
AcDb2dVertex
 10
201.0257471716664
 20
247.4118683285469
 30
0.0
  0
VERTEX
  5
53B
330
52F
100
AcDbEntity
  8
LAYER3
100
AcDbVertex
100
AcDb2dVertex
 10
201.0090560829899
 20
247.440821880793
 30
0.0
  0
VERTEX
  5
53C
330
52F
100
AcDbEntity
  8
LAYER3
100
AcDbVertex
100
AcDb2dVertex
 10
200.9910495198032
 20
247.4698135800118
 30
0.0
  0
VERTEX
  5
53D
330
52F
100
AcDbEntity
  8
LAYER3
100
AcDbVertex
100
AcDb2dVertex
 10
200.9717262900135
 20
247.4987099117989
 30
0.0
  0
VERTEX
  5
53E
330
52F
100
AcDbEntity
  8
LAYER3
100
AcDbVertex
100
AcDb2dVertex
 10
200.9510834133885
 20
247.5273582882637
 30
0.0
  0
VERTEX
  5
53F
330
52F
100
AcDbEntity
  8
LAYER3
100
AcDbVertex
100
AcDb2dVertex
 10
200.929119399812
 20
247.5556633419747
 30
0.0
  0
VERTEX
  5
540
330
52F
100
AcDbEntity
  8
LAYER3
100
AcDbVertex
100
AcDb2dVertex
 10
200.9058303749821
 20
247.5834724850411
 30
0.0
  0
VERTEX
  5
541
330
52F
100
AcDbEntity
  8
LAYER3
100
AcDbVertex
100
AcDb2dVertex
 10
200.881232432153
 20
247.610671276545
 30
0.0
  0
VERTEX
  5
542
330
52F
100
AcDbEntity
  8
LAYER3
100
AcDbVertex
100
AcDb2dVertex
 10
200.8554161703847
 20
247.6371643490548
 30
0.0
  0
VERTEX
  5
543
330
52F
100
AcDbEntity
  8
LAYER3
100
AcDbVertex
100
AcDb2dVertex
 10
200.8284808314107
 20
247.6628563351388
 30
0.0
  0
VERTEX
  5
544
330
52F
100
AcDbEntity
  8
LAYER3
100
AcDbVertex
100
AcDb2dVertex
 10
200.8005250609181
 20
247.6876518673653
 30
0.0
  0
VERTEX
  5
545
330
52F
100
AcDbEntity
  8
LAYER3
100
AcDbVertex
100
AcDb2dVertex
 10
200.7716472065709
 20
247.7114555783028
 30
0.0
  0
VERTEX
  5
546
330
52F
100
AcDbEntity
  8
LAYER3
100
AcDbVertex
100
AcDb2dVertex
 10
200.7419462120793
 20
247.7341721005196
 30
0.0
  0
VERTEX
  5
547
330
52F
100
AcDbEntity
  8
LAYER3
100
AcDbVertex
100
AcDb2dVertex
 10
200.7115210211537
 20
247.7556869930977
 30
0.0
  0
VERTEX
  5
548
330
52F
100
AcDbEntity
  8
LAYER3
100
AcDbVertex
100
AcDb2dVertex
 10
200.6804702794812
 20
247.7759239620919
 30
0.0
  0
SEQEND
  5
549
330
52F
100
AcDbEntity
  8
LAYER3
  0
POLYLINE
  5
54A
330
2
100
AcDbEntity
  8
LAYER3
100
AcDb2dPolyline
 66
     1
 10
0.0
 20
0.0
 30
0.0
 70
   128
  0
VERTEX
  5
54B
330
54A
100
AcDbEntity
  8
LAYER3
100
AcDbVertex
100
AcDb2dVertex
 10
203.7777597821018
 20
247.1255180783028
 30
0.0
  0
VERTEX
  5
54C
330
54A
100
AcDbEntity
  8
LAYER3
100
AcDbVertex
100
AcDb2dVertex
 10
203.7448550379535
 20
246.9961426205391
 30
0.0
  0
VERTEX
  5
54D
330
54A
100
AcDbEntity
  8
LAYER3
100
AcDbVertex
100
AcDb2dVertex
 10
203.698775283124
 20
246.8692657894845
 30
0.0
  0
VERTEX
  5
54E
330
54A
100
AcDbEntity
  8
LAYER3
100
AcDbVertex
100
AcDb2dVertex
 10
203.6396707213183
 20
246.7463753170723
 30
0.0
  0
VERTEX
  5
54F
330
54A
100
AcDbEntity
  8
LAYER3
100
AcDbVertex
100
AcDb2dVertex
 10
203.5673184311648
 20
246.6285011715645
 30
0.0
  0
VERTEX
  5
550
330
54A
100
AcDbEntity
  8
LAYER3
100
AcDbVertex
100
AcDb2dVertex
 10
203.4767813599367
 20
246.5111992306466
 30
0.0
  0
VERTEX
  5
551
330
54A
100
AcDbEntity
  8
LAYER3
100
AcDbVertex
100
AcDb2dVertex
 10
203.3677918827791
 20
246.3985321469063
 30
0.0
  0
VERTEX
  5
552
330
54A
100
AcDbEntity
  8
LAYER3
100
AcDbVertex
100
AcDb2dVertex
 10
203.2428510105867
 20
246.297023052668
 30
0.0
  0
VERTEX
  5
553
330
54A
100
AcDbEntity
  8
LAYER3
100
AcDbVertex
100
AcDb2dVertex
 10
203.1075872099656
 20
246.2111923641915
 30
0.0
  0
VERTEX
  5
554
330
54A
100
AcDbEntity
  8
LAYER3
100
AcDbVertex
100
AcDb2dVertex
 10
202.9613686716813
 20
246.1415932125802
 30
0.0
  0
VERTEX
  5
555
330
54A
100
AcDbEntity
  8
LAYER3
100
AcDbVertex
100
AcDb2dVertex
 10
202.797563782956
 20
246.0870048947091
 30
0.0
  0
VERTEX
  5
556
330
54A
100
AcDbEntity
  8
LAYER3
100
AcDbVertex
100
AcDb2dVertex
 10
202.6248867428559
 20
246.0536262936348
 30
0.0
  0
VERTEX
  5
557
330
54A
100
AcDbEntity
  8
LAYER3
100
AcDbVertex
100
AcDb2dVertex
 10
202.4544544136781
 20
246.0426590389962
 30
0.0
  0
VERTEX
  5
558
330
54A
100
AcDbEntity
  8
LAYER3
100
AcDbVertex
100
AcDb2dVertex
 10
202.2840214884538
 20
246.0536262936348
 30
0.0
  0
VERTEX
  5
559
330
54A
100
AcDbEntity
  8
LAYER3
100
AcDbVertex
100
AcDb2dVertex
 10
202.1113444483537
 20
246.0870048947091
 30
0.0
  0
VERTEX
  5
55A
330
54A
100
AcDbEntity
  8
LAYER3
100
AcDbVertex
100
AcDb2dVertex
 10
201.9475395596284
 20
246.1415932125802
 30
0.0
  0
VERTEX
  5
55B
330
54A
100
AcDbEntity
  8
LAYER3
100
AcDbVertex
100
AcDb2dVertex
 10
201.8013210213441
 20
246.2111923641915
 30
0.0
  0
VERTEX
  5
55C
330
54A
100
AcDbEntity
  8
LAYER3
100
AcDbVertex
100
AcDb2dVertex
 10
201.6660572207231
 20
246.297023052668
 30
0.0
  0
VERTEX
  5
55D
330
54A
100
AcDbEntity
  8
LAYER3
100
AcDbVertex
100
AcDb2dVertex
 10
201.5411163485307
 20
246.3985321469063
 30
0.0
  0
VERTEX
  5
55E
330
54A
100
AcDbEntity
  8
LAYER3
100
AcDbVertex
100
AcDb2dVertex
 10
201.4321268713732
 20
246.5111992306466
 30
0.0
  0
VERTEX
  5
55F
330
54A
100
AcDbEntity
  8
LAYER3
100
AcDbVertex
100
AcDb2dVertex
 10
201.3415898001452
 20
246.6285011715645
 30
0.0
  0
VERTEX
  5
560
330
54A
100
AcDbEntity
  8
LAYER3
100
AcDbVertex
100
AcDb2dVertex
 10
201.2692375099917
 20
246.7463753170723
 30
0.0
  0
VERTEX
  5
561
330
54A
100
AcDbEntity
  8
LAYER3
100
AcDbVertex
100
AcDb2dVertex
 10
201.2101335442324
 20
246.8692657894845
 30
0.0
  0
VERTEX
  5
562
330
54A
100
AcDbEntity
  8
LAYER3
100
AcDbVertex
100
AcDb2dVertex
 10
201.164053789403
 20
246.9961426205391
 30
0.0
  0
VERTEX
  5
563
330
54A
100
AcDbEntity
  8
LAYER3
100
AcDbVertex
100
AcDb2dVertex
 10
201.1311490452548
 20
247.1255180783028
 30
0.0
  0
SEQEND
  5
564
330
54A
100
AcDbEntity
  8
LAYER3
  0
POLYLINE
  5
565
330
2
100
AcDbEntity
  8
LAYER3
100
AcDb2dPolyline
 66
     1
 10
0.0
 20
0.0
 30
0.0
 70
   128
  0
VERTEX
  5
566
330
565
100
AcDbEntity
  8
LAYER3
100
AcDbVertex
100
AcDb2dVertex
 10
204.2284382498524
 20
247.7759239620919
 30
0.0
  0
VERTEX
  5
567
330
565
100
AcDbEntity
  8
LAYER3
100
AcDbVertex
100
AcDb2dVertex
 10
204.1973872101567
 20
247.7556869930977
 30
0.0
  0
VERTEX
  5
568
330
565
100
AcDbEntity
  8
LAYER3
100
AcDbVertex
100
AcDb2dVertex
 10
204.1669620192311
 20
247.7341721005196
 30
0.0
  0
VERTEX
  5
569
330
565
100
AcDbEntity
  8
LAYER3
100
AcDbVertex
100
AcDb2dVertex
 10
204.137261620786
 20
247.7114555783028
 30
0.0
  0
VERTEX
  5
56A
330
565
100
AcDbEntity
  8
LAYER3
100
AcDbVertex
100
AcDb2dVertex
 10
204.1083837664388
 20
247.6876518673653
 30
0.0
  0
VERTEX
  5
56B
330
565
100
AcDbEntity
  8
LAYER3
100
AcDbVertex
100
AcDb2dVertex
 10
204.0804273998997
 20
247.6628563351388
 30
0.0
  0
VERTEX
  5
56C
330
565
100
AcDbEntity
  8
LAYER3
100
AcDbVertex
100
AcDb2dVertex
 10
204.0534920609257
 20
247.6371643490548
 30
0.0
  0
VERTEX
  5
56D
330
565
100
AcDbEntity
  8
LAYER3
100
AcDbVertex
100
AcDb2dVertex
 10
204.0276760971806
 20
247.610671276545
 30
0.0
  0
VERTEX
  5
56E
330
565
100
AcDbEntity
  8
LAYER3
100
AcDbVertex
100
AcDb2dVertex
 10
204.0030778563283
 20
247.5834724850411
 30
0.0
  0
VERTEX
  5
56F
330
565
100
AcDbEntity
  8
LAYER3
100
AcDbVertex
100
AcDb2dVertex
 10
203.9797891295216
 20
247.5556633419747
 30
0.0
  0
VERTEX
  5
570
330
565
100
AcDbEntity
  8
LAYER3
100
AcDbVertex
100
AcDb2dVertex
 10
203.9578248179219
 20
247.5273582882637
 30
0.0
  0
VERTEX
  5
571
330
565
100
AcDbEntity
  8
LAYER3
100
AcDbVertex
100
AcDb2dVertex
 10
203.9371825373432
 20
247.4987099117989
 30
0.0
  0
VERTEX
  5
572
330
565
100
AcDbEntity
  8
LAYER3
100
AcDbVertex
100
AcDb2dVertex
 10
203.917858711507
 20
247.4698135800118
 30
0.0
  0
VERTEX
  5
573
330
565
100
AcDbEntity
  8
LAYER3
100
AcDbVertex
100
AcDb2dVertex
 10
203.8998521483204
 20
247.440821880793
 30
0.0
  0
VERTEX
  5
574
330
565
100
AcDbEntity
  8
LAYER3
100
AcDbVertex
100
AcDb2dVertex
 10
203.883161059644
 20
247.4118683285469
 30
0.0
  0
VERTEX
  5
575
330
565
100
AcDbEntity
  8
LAYER3
100
AcDbVertex
100
AcDb2dVertex
 10
203.8677836573384
 20
247.3830673641915
 30
0.0
  0
VERTEX
  5
576
330
565
100
AcDbEntity
  8
LAYER3
100
AcDbVertex
100
AcDb2dVertex
 10
203.8537175572178
 20
247.3545715756173
 30
0.0
  0
VERTEX
  5
577
330
565
100
AcDbEntity
  8
LAYER3
100
AcDbVertex
100
AcDb2dVertex
 10
203.84095977905
 20
247.3264763302559
 30
0.0
  0
VERTEX
  5
578
330
565
100
AcDbEntity
  8
LAYER3
100
AcDbVertex
100
AcDb2dVertex
 10
203.8292695200702
 20
247.2984383053536
 30
0.0
  0
VERTEX
  5
579
330
565
100
AcDbEntity
  8
LAYER3
100
AcDbVertex
100
AcDb2dVertex
 10
203.8184620058796
 20
247.2701141781563
 30
0.0
  0
VERTEX
  5
57A
330
565
100
AcDbEntity
  8
LAYER3
100
AcDbVertex
100
AcDb2dVertex
 10
203.8085396206638
 20
247.2415420956368
 30
0.0
  0
VERTEX
  5
57B
330
565
100
AcDbEntity
  8
LAYER3
100
AcDbVertex
100
AcDb2dVertex
 10
203.7995059407017
 20
247.212779278254
 30
0.0
  0
VERTEX
  5
57C
330
565
100
AcDbEntity
  8
LAYER3
100
AcDbVertex
100
AcDb2dVertex
 10
203.791362158086
 20
247.1838257260079
 30
0.0
  0
VERTEX
  5
57D
330
565
100
AcDbEntity
  8
LAYER3
100
AcDbVertex
100
AcDb2dVertex
 10
203.7841130411884
 20
247.1547386593575
 30
0.0
  0
VERTEX
  5
57E
330
565
100
AcDbEntity
  8
LAYER3
100
AcDbVertex
100
AcDb2dVertex
 10
203.7777597821018
 20
247.1255180783028
 30
0.0
  0
SEQEND
  5
57F
330
565
100
AcDbEntity
  8
LAYER3
  0
ARC
  5
580
330
2
100
AcDbEntity
  8
LAYER3
100
AcDbCircle
 10
202.4544542250225
 20
250.6176662535144
 30
0.0
 40
3.350000000003067
100
AcDbArc
 50
301.9748830508258
 51
310.0251169491692
  0
POLYLINE
  5
581
330
2
100
AcDbEntity
  8
LAYER3
100
AcDb2dPolyline
 66
     1
 10
0.0
 20
0.0
 30
0.0
 70
   128
  0
VERTEX
  5
582
330
581
100
AcDbEntity
  8
LAYER3
100
AcDbVertex
100
AcDb2dVertex
 10
201.472402921941
 20
468.2206842846626
 30
0.0
  0
VERTEX
  5
583
330
581
100
AcDbEntity
  8
LAYER3
100
AcDbVertex
100
AcDb2dVertex
 10
201.4947081721088
 20
468.2007930226082
 30
0.0
  0
VERTEX
  5
584
330
581
100
AcDbEntity
  8
LAYER3
100
AcDbVertex
100
AcDb2dVertex
 10
201.5176744377872
 20
468.1815168804878
 30
0.0
  0
VERTEX
  5
585
330
581
100
AcDbEntity
  8
LAYER3
100
AcDbVertex
100
AcDb2dVertex
 10
201.5412790692112
 20
468.1628820843452
 30
0.0
  0
VERTEX
  5
586
330
581
100
AcDbEntity
  8
LAYER3
100
AcDbVertex
100
AcDb2dVertex
 10
201.5655006087086
 20
468.1449148602241
 30
0.0
  0
VERTEX
  5
587
330
581
100
AcDbEntity
  8
LAYER3
100
AcDbVertex
100
AcDb2dVertex
 10
201.5903170025608
 20
468.1276390499824
 30
0.0
  0
VERTEX
  5
588
330
581
100
AcDbEntity
  8
LAYER3
100
AcDbVertex
100
AcDb2dVertex
 10
201.6157061970493
 20
468.111078495478
 30
0.0
  0
VERTEX
  5
589
330
581
100
AcDbEntity
  8
LAYER3
100
AcDbVertex
100
AcDb2dVertex
 10
201.6416473305485
 20
468.0952641911262
 30
0.0
  0
VERTEX
  5
58A
330
581
100
AcDbEntity
  8
LAYER3
100
AcDbVertex
100
AcDb2dVertex
 10
201.6684795534871
 20
468.080036396479
 30
0.0
  0
VERTEX
  5
58B
330
581
100
AcDbEntity
  8
LAYER3
100
AcDbVertex
100
AcDb2dVertex
 10
201.6966159260533
 20
468.06524013946
 30
0.0
  0
VERTEX
  5
58C
330
581
100
AcDbEntity
  8
LAYER3
100
AcDbVertex
100
AcDb2dVertex
 10
201.7259831345341
 20
468.0509827084297
 30
0.0
  0
VERTEX
  5
58D
330
581
100
AcDbEntity
  8
LAYER3
100
AcDbVertex
100
AcDb2dVertex
 10
201.7565072691701
 20
468.0373666233772
 30
0.0
  0
VERTEX
  5
58E
330
581
100
AcDbEntity
  8
LAYER3
100
AcDbVertex
100
AcDb2dVertex
 10
201.7881126320622
 20
468.0244991726631
 30
0.0
  0
VERTEX
  5
58F
330
581
100
AcDbEntity
  8
LAYER3
100
AcDbVertex
100
AcDb2dVertex
 10
201.8207247174046
 20
468.012487644648
 30
0.0
  0
VERTEX
  5
590
330
581
100
AcDbEntity
  8
LAYER3
100
AcDbVertex
100
AcDb2dVertex
 10
201.8542696154378
 20
468.0014369435066
 30
0.0
  0
VERTEX
  5
591
330
581
100
AcDbEntity
  8
LAYER3
100
AcDbVertex
100
AcDb2dVertex
 10
201.8886716282628
 20
467.9914543575996
 30
0.0
  0
VERTEX
  5
592
330
581
100
AcDbEntity
  8
LAYER3
100
AcDbVertex
100
AcDb2dVertex
 10
201.9238586342595
 20
467.9826447911018
 30
0.0
  0
VERTEX
  5
593
330
581
100
AcDbEntity
  8
LAYER3
100
AcDbVertex
100
AcDb2dVertex
 10
201.9597477829716
 20
467.9750964588874
 30
0.0
  0
VERTEX
  5
594
330
581
100
AcDbEntity
  8
LAYER3
100
AcDbVertex
100
AcDb2dVertex
 10
201.9962085402272
 20
467.9688332028145
 30
0.0
  0
VERTEX
  5
595
330
581
100
AcDbEntity
  8
LAYER3
100
AcDbVertex
100
AcDb2dVertex
 10
202.0331038153432
 20
467.963876480555
 30
0.0
  0
VERTEX
  5
596
330
581
100
AcDbEntity
  8
LAYER3
100
AcDbVertex
100
AcDb2dVertex
 10
202.0702965176366
 20
467.9602453655952
 30
0.0
  0
VERTEX
  5
597
330
581
100
AcDbEntity
  8
LAYER3
100
AcDbVertex
100
AcDb2dVertex
 10
202.1076501524709
 20
467.9579636997933
 30
0.0
  0
VERTEX
  5
598
330
581
100
AcDbEntity
  8
LAYER3
100
AcDbVertex
100
AcDb2dVertex
 10
202.1450270331166
 20
467.9570481724494
 30
0.0
  0
VERTEX
  5
599
330
581
100
AcDbEntity
  8
LAYER3
100
AcDbVertex
100
AcDb2dVertex
 10
202.1822912609838
 20
467.9575226254219
 30
0.0
  0
VERTEX
  5
59A
330
581
100
AcDbEntity
  8
LAYER3
100
AcDbVertex
100
AcDb2dVertex
 10
202.2193051493428
 20
467.959403748011
 30
0.0
  0
SEQEND
  5
59B
330
581
100
AcDbEntity
  8
LAYER3
  0
ARC
  5
59C
330
2
100
AcDbEntity
  8
LAYER3
100
AcDbCircle
 10
202.4544542250241
 20
464.6176662535117
 30
0.0
 40
3.350000000000092
100
AcDbArc
 50
85.97488305082515
 51
94.02511694917485
  0
POLYLINE
  5
59D
330
2
100
AcDbEntity
  8
LAYER3
100
AcDb2dPolyline
 66
     1
 10
0.0
 20
0.0
 30
0.0
 70
   128
  0
VERTEX
  5
59E
330
59D
100
AcDbEntity
  8
LAYER3
100
AcDbVertex
100
AcDb2dVertex
 10
202.6896030819676
 20
467.959403748011
 30
0.0
  0
VERTEX
  5
59F
330
59D
100
AcDbEntity
  8
LAYER3
100
AcDbVertex
100
AcDb2dVertex
 10
202.7266169703267
 20
467.9575226254219
 30
0.0
  0
VERTEX
  5
5A0
330
59D
100
AcDbEntity
  8
LAYER3
100
AcDbVertex
100
AcDb2dVertex
 10
202.7638811981939
 20
467.9570481724494
 30
0.0
  0
VERTEX
  5
5A1
330
59D
100
AcDbEntity
  8
LAYER3
100
AcDbVertex
100
AcDb2dVertex
 10
202.8012580788396
 20
467.9579636997933
 30
0.0
  0
VERTEX
  5
5A2
330
59D
100
AcDbEntity
  8
LAYER3
100
AcDbVertex
100
AcDb2dVertex
 10
202.8386117136739
 20
467.9602453655952
 30
0.0
  0
VERTEX
  5
5A3
330
59D
100
AcDbEntity
  8
LAYER3
100
AcDbVertex
100
AcDb2dVertex
 10
202.8758044159673
 20
467.963876480555
 30
0.0
  0
VERTEX
  5
5A4
330
59D
100
AcDbEntity
  8
LAYER3
100
AcDbVertex
100
AcDb2dVertex
 10
202.9126996910832
 20
467.9688332028145
 30
0.0
  0
VERTEX
  5
5A5
330
59D
100
AcDbEntity
  8
LAYER3
100
AcDbVertex
100
AcDb2dVertex
 10
202.9491604483388
 20
467.9750964588874
 30
0.0
  0
VERTEX
  5
5A6
330
59D
100
AcDbEntity
  8
LAYER3
100
AcDbVertex
100
AcDb2dVertex
 10
202.9850501930974
 20
467.9826447911018
 30
0.0
  0
VERTEX
  5
5A7
330
59D
100
AcDbEntity
  8
LAYER3
100
AcDbVertex
100
AcDb2dVertex
 10
203.0202366030476
 20
467.9914543575996
 30
0.0
  0
VERTEX
  5
5A8
330
59D
100
AcDbEntity
  8
LAYER3
100
AcDbVertex
100
AcDb2dVertex
 10
203.0546392119191
 20
468.0014369435066
 30
0.0
  0
VERTEX
  5
5A9
330
59D
100
AcDbEntity
  8
LAYER3
100
AcDbVertex
100
AcDb2dVertex
 10
203.0881835139058
 20
468.012487644648
 30
0.0
  0
VERTEX
  5
5AA
330
59D
100
AcDbEntity
  8
LAYER3
100
AcDbVertex
100
AcDb2dVertex
 10
203.1207961952946
 20
468.0244991726631
 30
0.0
  0
VERTEX
  5
5AB
330
59D
100
AcDbEntity
  8
LAYER3
100
AcDbVertex
100
AcDb2dVertex
 10
203.1524015581868
 20
468.0373666233772
 30
0.0
  0
VERTEX
  5
5AC
330
59D
100
AcDbEntity
  8
LAYER3
100
AcDbVertex
100
AcDb2dVertex
 10
203.1829250967762
 20
468.0509827084297
 30
0.0
  0
VERTEX
  5
5AD
330
59D
100
AcDbEntity
  8
LAYER3
100
AcDbVertex
100
AcDb2dVertex
 10
203.2122929013035
 20
468.06524013946
 30
0.0
  0
VERTEX
  5
5AE
330
59D
100
AcDbEntity
  8
LAYER3
100
AcDbVertex
100
AcDb2dVertex
 10
203.2404286778233
 20
468.080036396479
 30
0.0
  0
VERTEX
  5
5AF
330
59D
100
AcDbEntity
  8
LAYER3
100
AcDbVertex
100
AcDb2dVertex
 10
203.2672609007618
 20
468.0952641911262
 30
0.0
  0
VERTEX
  5
5B0
330
59D
100
AcDbEntity
  8
LAYER3
100
AcDbVertex
100
AcDb2dVertex
 10
203.293202034261
 20
468.111078495478
 30
0.0
  0
VERTEX
  5
5B1
330
59D
100
AcDbEntity
  8
LAYER3
100
AcDbVertex
100
AcDb2dVertex
 10
203.3185918247959
 20
468.1276390499824
 30
0.0
  0
VERTEX
  5
5B2
330
59D
100
AcDbEntity
  8
LAYER3
100
AcDbVertex
100
AcDb2dVertex
 10
203.3434082186481
 20
468.1449148602241
 30
0.0
  0
VERTEX
  5
5B3
330
59D
100
AcDbEntity
  8
LAYER3
100
AcDbVertex
100
AcDb2dVertex
 10
203.3676297581455
 20
468.1628820843452
 30
0.0
  0
VERTEX
  5
5B4
330
59D
100
AcDbEntity
  8
LAYER3
100
AcDbVertex
100
AcDb2dVertex
 10
203.3912343895694
 20
468.1815168804878
 30
0.0
  0
VERTEX
  5
5B5
330
59D
100
AcDbEntity
  8
LAYER3
100
AcDbVertex
100
AcDb2dVertex
 10
203.4142000592014
 20
468.2007930226082
 30
0.0
  0
VERTEX
  5
5B6
330
59D
100
AcDbEntity
  8
LAYER3
100
AcDbVertex
100
AcDb2dVertex
 10
203.4365053093692
 20
468.2206842846626
 30
0.0
  0
SEQEND
  5
5B7
330
59D
100
AcDbEntity
  8
LAYER3
  0
POLYLINE
  5
5B8
330
2
100
AcDbEntity
  8
LAYER3
100
AcDb2dPolyline
 66
     1
 10
0.0
 20
0.0
 30
0.0
 70
   128
  0
VERTEX
  5
5B9
330
5B8
100
AcDbEntity
  8
LAYER3
100
AcDbVertex
100
AcDb2dVertex
 10
203.4365053093692
 20
468.2206842846626
 30
0.0
  0
VERTEX
  5
5BA
330
5B8
100
AcDbEntity
  8
LAYER3
100
AcDbVertex
100
AcDb2dVertex
 10
203.5391713297626
 20
468.3060119099373
 30
0.0
  0
VERTEX
  5
5BB
330
5B8
100
AcDbEntity
  8
LAYER3
100
AcDbVertex
100
AcDb2dVertex
 10
203.6510313666125
 20
468.3815786785835
 30
0.0
  0
VERTEX
  5
5BC
330
5B8
100
AcDbEntity
  8
LAYER3
100
AcDbVertex
100
AcDb2dVertex
 10
203.7710775053759
 20
468.4462544865364
 30
0.0
  0
VERTEX
  5
5BD
330
5B8
100
AcDbEntity
  8
LAYER3
100
AcDbVertex
100
AcDb2dVertex
 10
203.8989008581896
 20
468.4990951962227
 30
0.0
  0
VERTEX
  5
5BE
330
5B8
100
AcDbEntity
  8
LAYER3
100
AcDbVertex
100
AcDb2dVertex
 10
204.0410972750445
 20
468.5407803005928
 30
0.0
  0
VERTEX
  5
5BF
330
5B8
100
AcDbEntity
  8
LAYER3
100
AcDbVertex
100
AcDb2dVertex
 10
204.1954947626848
 20
468.5678670353645
 30
0.0
  0
VERTEX
  5
5C0
330
5B8
100
AcDbEntity
  8
LAYER3
100
AcDbVertex
100
AcDb2dVertex
 10
204.3562371647615
 20
468.5765454716438
 30
0.0
  0
VERTEX
  5
5C1
330
5B8
100
AcDbEntity
  8
LAYER3
100
AcDbVertex
100
AcDb2dVertex
 10
204.5161152994889
 20
468.5664746708625
 30
0.0
  0
VERTEX
  5
5C2
330
5B8
100
AcDbEntity
  8
LAYER3
100
AcDbVertex
100
AcDb2dVertex
 10
204.6753175175447
 20
468.5368368572945
 30
0.0
  0
VERTEX
  5
5C3
330
5B8
100
AcDbEntity
  8
LAYER3
100
AcDbVertex
100
AcDb2dVertex
 10
204.8399306452531
 20
468.4847257084602
 30
0.0
  0
VERTEX
  5
5C4
330
5B8
100
AcDbEntity
  8
LAYER3
100
AcDbVertex
100
AcDb2dVertex
 10
204.9992431319016
 20
468.4102246708626
 30
0.0
  0
VERTEX
  5
5C5
330
5B8
100
AcDbEntity
  8
LAYER3
100
AcDbVertex
100
AcDb2dVertex
 10
205.1435716069001
 20
468.3189198918098
 30
0.0
  0
VERTEX
  5
5C6
330
5B8
100
AcDbEntity
  8
LAYER3
100
AcDbVertex
100
AcDb2dVertex
 10
205.2750087893266
 20
468.2098696179146
 30
0.0
  0
VERTEX
  5
5C7
330
5B8
100
AcDbEntity
  8
LAYER3
100
AcDbVertex
100
AcDb2dVertex
 10
205.3950936711091
 20
468.0813763088935
 30
0.0
  0
VERTEX
  5
5C8
330
5B8
100
AcDbEntity
  8
LAYER3
100
AcDbVertex
100
AcDb2dVertex
 10
205.4955227291841
 20
467.9409239239448
 30
0.0
  0
VERTEX
  5
5C9
330
5B8
100
AcDbEntity
  8
LAYER3
100
AcDbVertex
100
AcDb2dVertex
 10
205.5729068434495
 20
467.7986714787238
 30
0.0
  0
VERTEX
  5
5CA
330
5B8
100
AcDbEntity
  8
LAYER3
100
AcDbVertex
100
AcDb2dVertex
 10
205.63188981178
 20
467.6497313923591
 30
0.0
  0
VERTEX
  5
5CB
330
5B8
100
AcDbEntity
  8
LAYER3
100
AcDbVertex
100
AcDb2dVertex
 10
205.6733066952486
 20
467.4941728062385
 30
0.0
  0
VERTEX
  5
5CC
330
5B8
100
AcDbEntity
  8
LAYER3
100
AcDbVertex
100
AcDb2dVertex
 10
205.69525729778
 20
467.3389623112434
 30
0.0
  0
VERTEX
  5
5CD
330
5B8
100
AcDbEntity
  8
LAYER3
100
AcDbVertex
100
AcDb2dVertex
 10
205.699553004529
 20
467.1908447689766
 30
0.0
  0
VERTEX
  5
5CE
330
5B8
100
AcDbEntity
  8
LAYER3
100
AcDbVertex
100
AcDb2dVertex
 10
205.6887979424258
 20
467.0529482311958
 30
0.0
  0
VERTEX
  5
5CF
330
5B8
100
AcDbEntity
  8
LAYER3
100
AcDbVertex
100
AcDb2dVertex
 10
205.6643850720187
 20
466.9187924809212
 30
0.0
  0
VERTEX
  5
5D0
330
5B8
100
AcDbEntity
  8
LAYER3
100
AcDbVertex
100
AcDb2dVertex
 10
205.6270832932254
 20
466.7890546269172
 30
0.0
  0
VERTEX
  5
5D1
330
5B8
100
AcDbEntity
  8
LAYER3
100
AcDbVertex
100
AcDb2dVertex
 10
205.5776585257312
 20
466.6650459713691
 30
0.0
  0
SEQEND
  5
5D2
330
5B8
100
AcDbEntity
  8
LAYER3
  0
POLYLINE
  5
5D3
330
2
100
AcDbEntity
  8
LAYER3
100
AcDb2dPolyline
 66
     1
 10
0.0
 20
0.0
 30
0.0
 70
   128
  0
VERTEX
  5
5D4
330
5D3
100
AcDbEntity
  8
LAYER3
100
AcDbVertex
100
AcDb2dVertex
 10
205.5776585257312
 20
466.6650459713691
 30
0.0
  0
VERTEX
  5
5D5
330
5D3
100
AcDbEntity
  8
LAYER3
100
AcDbVertex
100
AcDb2dVertex
 10
205.5656326926014
 20
466.6376850552315
 30
0.0
  0
VERTEX
  5
5D6
330
5D3
100
AcDbEntity
  8
LAYER3
100
AcDbVertex
100
AcDb2dVertex
 10
205.5543972170613
 20
466.609887833094
 30
0.0
  0
VERTEX
  5
5D7
330
5D3
100
AcDbEntity
  8
LAYER3
100
AcDbVertex
100
AcDb2dVertex
 10
205.5439687884113
 20
466.5816805310005
 30
0.0
  0
VERTEX
  5
5D8
330
5D3
100
AcDbEntity
  8
LAYER3
100
AcDbVertex
100
AcDb2dVertex
 10
205.5343646919987
 20
466.5530917591804
 30
0.0
  0
VERTEX
  5
5D9
330
5D3
100
AcDbEntity
  8
LAYER3
100
AcDbVertex
100
AcDb2dVertex
 10
205.5256028092167
 20
466.5241501278633
 30
0.0
  0
VERTEX
  5
5DA
330
5D3
100
AcDbEntity
  8
LAYER3
100
AcDbVertex
100
AcDb2dVertex
 10
205.517699829366
 20
466.4948866314643
 30
0.0
  0
VERTEX
  5
5DB
330
5D3
100
AcDbEntity
  8
LAYER3
100
AcDbVertex
100
AcDb2dVertex
 10
205.5106748259327
 20
466.4653274960273
 30
0.0
  0
VERTEX
  5
5DC
330
5D3
100
AcDbEntity
  8
LAYER3
100
AcDbVertex
100
AcDb2dVertex
 10
205.5044842875263
 20
466.4351031727546
 30
0.0
  0
VERTEX
  5
5DD
330
5D3
100
AcDbEntity
  8
LAYER3
100
AcDbVertex
100
AcDb2dVertex
 10
205.4991073525211
 20
466.4037725872749
 30
0.0
  0
VERTEX
  5
5DE
330
5D3
100
AcDbEntity
  8
LAYER3
100
AcDbVertex
100
AcDb2dVertex
 10
205.4946215069553
 20
466.3714358753914
 30
0.0
  0
VERTEX
  5
5DF
330
5D3
100
AcDbEntity
  8
LAYER3
100
AcDbVertex
100
AcDb2dVertex
 10
205.4911042368672
 20
466.3381979412788
 30
0.0
  0
VERTEX
  5
5E0
330
5D3
100
AcDbEntity
  8
LAYER3
100
AcDbVertex
100
AcDb2dVertex
 10
205.4886342203877
 20
466.304163689112
 30
0.0
  0
VERTEX
  5
5E1
330
5D3
100
AcDbEntity
  8
LAYER3
100
AcDbVertex
100
AcDb2dVertex
 10
205.4872877514622
 20
466.2694356388802
 30
0.0
  0
VERTEX
  5
5E2
330
5D3
100
AcDbEntity
  8
LAYER3
100
AcDbVertex
100
AcDb2dVertex
 10
205.4871441042684
 20
466.2341186947578
 30
0.0
  0
VERTEX
  5
5E3
330
5D3
100
AcDbEntity
  8
LAYER3
100
AcDbVertex
100
AcDb2dVertex
 10
205.4882801687977
 20
466.1983153767342
 30
0.0
  0
VERTEX
  5
5E4
330
5D3
100
AcDbEntity
  8
LAYER3
100
AcDbVertex
100
AcDb2dVertex
 10
205.4907758152745
 20
466.1621282047981
 30
0.0
  0
VERTEX
  5
5E5
330
5D3
100
AcDbEntity
  8
LAYER3
100
AcDbVertex
100
AcDb2dVertex
 10
205.4946870720647
 20
466.1256620831245
 30
0.0
  0
VERTEX
  5
5E6
330
5D3
100
AcDbEntity
  8
LAYER3
100
AcDbVertex
100
AcDb2dVertex
 10
205.4999972498677
 20
466.0890505261177
 30
0.0
  0
VERTEX
  5
5E7
330
5D3
100
AcDbEntity
  8
LAYER3
100
AcDbVertex
100
AcDb2dVertex
 10
205.5066842949651
 20
466.0524294323677
 30
0.0
  0
VERTEX
  5
5E8
330
5D3
100
AcDbEntity
  8
LAYER3
100
AcDbVertex
100
AcDb2dVertex
 10
205.5147255575918
 20
466.0159347004646
 30
0.0
  0
VERTEX
  5
5E9
330
5D3
100
AcDbEntity
  8
LAYER3
100
AcDbVertex
100
AcDb2dVertex
 10
205.5240971958898
 20
465.9797046131843
 30
0.0
  0
VERTEX
  5
5EA
330
5D3
100
AcDbEntity
  8
LAYER3
100
AcDbVertex
100
AcDb2dVertex
 10
205.5347771561407
 20
465.943875069117
 30
0.0
  0
VERTEX
  5
5EB
330
5D3
100
AcDbEntity
  8
LAYER3
100
AcDbVertex
100
AcDb2dVertex
 10
205.5467421925329
 20
465.9085795826667
 30
0.0
  0
VERTEX
  5
5EC
330
5D3
100
AcDbEntity
  8
LAYER3
100
AcDbVertex
100
AcDb2dVertex
 10
205.5599696553014
 20
465.8739588207954
 30
0.0
  0
SEQEND
  5
5ED
330
5D3
100
AcDbEntity
  8
LAYER3
  0
ARC
  5
5EE
330
2
100
AcDbEntity
  8
LAYER3
100
AcDbCircle
 10
202.4544542250245
 20
464.6176662535118
 30
0.0
 40
3.349999999999622
100
AcDbArc
 50
13.97488305082521
 51
22.02511694917566
  0
POLYLINE
  5
5EF
330
2
100
AcDbEntity
  8
LAYER3
100
AcDb2dPolyline
 66
     1
 10
0.0
 20
0.0
 30
0.0
 70
   128
  0
VERTEX
  5
5F0
330
5EF
100
AcDbEntity
  8
LAYER3
100
AcDbVertex
100
AcDb2dVertex
 10
205.7053000843786
 20
465.4266784138435
 30
0.0
  0
VERTEX
  5
5F1
330
5EF
100
AcDbEntity
  8
LAYER3
100
AcDbVertex
100
AcDb2dVertex
 10
205.7149482882283
 20
465.3908965534919
 30
0.0
  0
VERTEX
  5
5F2
330
5EF
100
AcDbEntity
  8
LAYER3
100
AcDbVertex
100
AcDb2dVertex
 10
205.7260138905309
 20
465.3553101963752
 30
0.0
  0
VERTEX
  5
5F3
330
5EF
100
AcDbEntity
  8
LAYER3
100
AcDbVertex
100
AcDb2dVertex
 10
205.7384343064092
 20
465.3200457043404
 30
0.0
  0
VERTEX
  5
5F4
330
5EF
100
AcDbEntity
  8
LAYER3
100
AcDbVertex
100
AcDb2dVertex
 10
205.7521481430791
 20
465.2852246708626
 30
0.0
  0
VERTEX
  5
5F5
330
5EF
100
AcDbEntity
  8
LAYER3
100
AcDbVertex
100
AcDb2dVertex
 10
205.76709341171
 20
465.2509734577888
 30
0.0
  0
VERTEX
  5
5F6
330
5EF
100
AcDbEntity
  8
LAYER3
100
AcDbVertex
100
AcDb2dVertex
 10
205.783208719518
 20
465.2174160427803
 30
0.0
  0
VERTEX
  5
5F7
330
5EF
100
AcDbEntity
  8
LAYER3
100
AcDbVertex
100
AcDb2dVertex
 10
205.8004320776723
 20
465.184676403498
 30
0.0
  0
VERTEX
  5
5F8
330
5EF
100
AcDbEntity
  8
LAYER3
100
AcDbVertex
100
AcDb2dVertex
 10
205.8187020933888
 20
465.1528761334175
 30
0.0
  0
VERTEX
  5
5F9
330
5EF
100
AcDbEntity
  8
LAYER3
100
AcDbVertex
100
AcDb2dVertex
 10
205.8379532015584
 20
465.1221320576423
 30
0.0
  0
VERTEX
  5
5FA
330
5EF
100
AcDbEntity
  8
LAYER3
100
AcDbVertex
100
AcDb2dVertex
 10
205.8580787098668
 20
465.0924990124458
 30
0.0
  0
VERTEX
  5
5FB
330
5EF
100
AcDbEntity
  8
LAYER3
100
AcDbVertex
100
AcDb2dVertex
 10
205.8789540446065
 20
465.0640103764289
 30
0.0
  0
VERTEX
  5
5FC
330
5EF
100
AcDbEntity
  8
LAYER3
100
AcDbVertex
100
AcDb2dVertex
 10
205.9004558241627
 20
465.0367066807502
 30
0.0
  0
VERTEX
  5
5FD
330
5EF
100
AcDbEntity
  8
LAYER3
100
AcDbVertex
100
AcDb2dVertex
 10
205.922459474828
 20
465.0106236881965
 30
0.0
  0
VERTEX
  5
5FE
330
5EF
100
AcDbEntity
  8
LAYER3
100
AcDbVertex
100
AcDb2dVertex
 10
205.9448416149876
 20
464.9858019299263
 30
0.0
  0
VERTEX
  5
5FF
330
5EF
100
AcDbEntity
  8
LAYER3
100
AcDbVertex
100
AcDb2dVertex
 10
205.9674776709339
 20
464.9622771687263
 30
0.0
  0
VERTEX
  5
600
330
5EF
100
AcDbEntity
  8
LAYER3
100
AcDbVertex
100
AcDb2dVertex
 10
205.9902430689594
 20
464.9400899357551
 30
0.0
  0
VERTEX
  5
601
330
5EF
100
AcDbEntity
  8
LAYER3
100
AcDbVertex
100
AcDb2dVertex
 10
206.0130168116352
 20
464.9192783779853
 30
0.0
  0
VERTEX
  5
602
330
5EF
100
AcDbEntity
  8
LAYER3
100
AcDbVertex
100
AcDb2dVertex
 10
206.0360742724201
 20
464.8994944042915
 30
0.0
  0
VERTEX
  5
603
330
5EF
100
AcDbEntity
  8
LAYER3
100
AcDbVertex
100
AcDb2dVertex
 10
206.0596693671009
 20
464.8804638333076
 30
0.0
  0
VERTEX
  5
604
330
5EF
100
AcDbEntity
  8
LAYER3
100
AcDbVertex
100
AcDb2dVertex
 10
206.0837687170765
 20
464.8622009701484
 30
0.0
  0
VERTEX
  5
605
330
5EF
100
AcDbEntity
  8
LAYER3
100
AcDbVertex
100
AcDb2dVertex
 10
206.1083413279316
 20
464.844717735743
 30
0.0
  0
VERTEX
  5
606
330
5EF
100
AcDbEntity
  8
LAYER3
100
AcDbVertex
100
AcDb2dVertex
 10
206.1333585894367
 20
464.82802605102
 30
0.0
  0
VERTEX
  5
607
330
5EF
100
AcDbEntity
  8
LAYER3
100
AcDbVertex
100
AcDb2dVertex
 10
206.1587883150837
 20
464.8121402210945
 30
0.0
  0
VERTEX
  5
608
330
5EF
100
AcDbEntity
  8
LAYER3
100
AcDbVertex
100
AcDb2dVertex
 10
206.1845995104572
 20
464.7970745510811
 30
0.0
  0
SEQEND
  5
609
330
5EF
100
AcDbEntity
  8
LAYER3
  0
POLYLINE
  5
60A
330
2
100
AcDbEntity
  8
LAYER3
100
AcDb2dPolyline
 66
     1
 10
0.0
 20
0.0
 30
0.0
 70
   128
  0
VERTEX
  5
60B
330
60A
100
AcDbEntity
  8
LAYER3
100
AcDbVertex
100
AcDb2dVertex
 10
206.1845995104572
 20
464.7970745510811
 30
0.0
  0
VERTEX
  5
60C
330
60A
100
AcDbEntity
  8
LAYER3
100
AcDbVertex
100
AcDb2dVertex
 10
206.2974752104541
 20
464.7258017010444
 30
0.0
  0
VERTEX
  5
60D
330
60A
100
AcDbEntity
  8
LAYER3
100
AcDbVertex
100
AcDb2dVertex
 10
206.4039100325366
 20
464.6427676625007
 30
0.0
  0
VERTEX
  5
60E
330
60A
100
AcDbEntity
  8
LAYER3
100
AcDbVertex
100
AcDb2dVertex
 10
206.5025163805743
 20
464.5485827870125
 30
0.0
  0
VERTEX
  5
60F
330
60A
100
AcDbEntity
  8
LAYER3
100
AcDbVertex
100
AcDb2dVertex
 10
206.59227024677
 20
464.4433424420112
 30
0.0
  0
VERTEX
  5
610
330
60A
100
AcDbEntity
  8
LAYER3
100
AcDbVertex
100
AcDb2dVertex
 10
206.6758562243242
 20
464.3209884114021
 30
0.0
  0
VERTEX
  5
611
330
60A
100
AcDbEntity
  8
LAYER3
100
AcDbVertex
100
AcDb2dVertex
 10
206.7493296778459
 20
464.1825172848457
 30
0.0
  0
VERTEX
  5
612
330
60A
100
AcDbEntity
  8
LAYER3
100
AcDbVertex
100
AcDb2dVertex
 10
206.8072558558244
 20
464.0323255009406
 30
0.0
  0
VERTEX
  5
613
330
60A
100
AcDbEntity
  8
LAYER3
100
AcDbVertex
100
AcDb2dVertex
 10
206.8470836794633
 20
463.8771603054756
 30
0.0
  0
VERTEX
  5
614
330
60A
100
AcDbEntity
  8
LAYER3
100
AcDbVertex
100
AcDb2dVertex
 10
206.8680919325609
 20
463.7165901608223
 30
0.0
  0
VERTEX
  5
615
330
60A
100
AcDbEntity
  8
LAYER3
100
AcDbVertex
100
AcDb2dVertex
 10
206.8693996584672
 20
463.5439298100227
 30
0.0
  0
VERTEX
  5
616
330
60A
100
AcDbEntity
  8
LAYER3
100
AcDbVertex
100
AcDb2dVertex
 10
206.8477750933427
 20
463.3693931050056
 30
0.0
  0
VERTEX
  5
617
330
60A
100
AcDbEntity
  8
LAYER3
100
AcDbVertex
100
AcDb2dVertex
 10
206.8055380499619
 20
463.2039139218086
 30
0.0
  0
VERTEX
  5
618
330
60A
100
AcDbEntity
  8
LAYER3
100
AcDbVertex
100
AcDb2dVertex
 10
206.7424417650956
 20
463.0452105946297
 30
0.0
  0
VERTEX
  5
619
330
60A
100
AcDbEntity
  8
LAYER3
100
AcDbVertex
100
AcDb2dVertex
 10
206.6573454058427
 20
462.8912970967048
 30
0.0
  0
VERTEX
  5
61A
330
60A
100
AcDbEntity
  8
LAYER3
100
AcDbVertex
100
AcDb2dVertex
 10
206.5548015749711
 20
462.7523801274056
 30
0.0
  0
VERTEX
  5
61B
330
60A
100
AcDbEntity
  8
LAYER3
100
AcDbVertex
100
AcDb2dVertex
 10
206.4434243357438
 20
462.6348254627937
 30
0.0
  0
VERTEX
  5
61C
330
60A
100
AcDbEntity
  8
LAYER3
100
AcDbVertex
100
AcDb2dVertex
 10
206.3199998057146
 20
462.5327036328071
 30
0.0
  0
VERTEX
  5
61D
330
60A
100
AcDbEntity
  8
LAYER3
100
AcDbVertex
100
AcDb2dVertex
 10
206.1848558104296
 20
462.4452445454353
 30
0.0
  0
VERTEX
  5
61E
330
60A
100
AcDbEntity
  8
LAYER3
100
AcDbVertex
100
AcDb2dVertex
 10
206.04402433994
 20
462.3764059490913
 30
0.0
  0
VERTEX
  5
61F
330
60A
100
AcDbEntity
  8
LAYER3
100
AcDbVertex
100
AcDb2dVertex
 10
205.9044821179171
 20
462.3265502400154
 30
0.0
  0
VERTEX
  5
620
330
60A
100
AcDbEntity
  8
LAYER3
100
AcDbVertex
100
AcDb2dVertex
 10
205.7700116551181
 20
462.294165844416
 30
0.0
  0
VERTEX
  5
621
330
60A
100
AcDbEntity
  8
LAYER3
100
AcDbVertex
100
AcDb2dVertex
 10
205.6348771965762
 20
462.2759268231147
 30
0.0
  0
VERTEX
  5
622
330
60A
100
AcDbEntity
  8
LAYER3
100
AcDbVertex
100
AcDb2dVertex
 10
205.4999632752201
 20
462.2713134236091
 30
0.0
  0
VERTEX
  5
623
330
60A
100
AcDbEntity
  8
LAYER3
100
AcDbVertex
100
AcDb2dVertex
 10
205.3667516625186
 20
462.2799990124458
 30
0.0
  0
SEQEND
  5
624
330
60A
100
AcDbEntity
  8
LAYER3
  0
POLYLINE
  5
625
330
2
100
AcDbEntity
  8
LAYER3
100
AcDb2dPolyline
 66
     1
 10
0.0
 20
0.0
 30
0.0
 70
   128
  0
VERTEX
  5
626
330
625
100
AcDbEntity
  8
LAYER3
100
AcDbVertex
100
AcDb2dVertex
 10
205.3667516625186
 20
462.2799990124458
 30
0.0
  0
VERTEX
  5
627
330
625
100
AcDbEntity
  8
LAYER3
100
AcDbVertex
100
AcDb2dVertex
 10
205.3370143091938
 20
462.2829792446846
 30
0.0
  0
VERTEX
  5
628
330
625
100
AcDbEntity
  8
LAYER3
100
AcDbVertex
100
AcDb2dVertex
 10
205.3071041023991
 20
462.2850749439948
 30
0.0
  0
VERTEX
  5
629
330
625
100
AcDbEntity
  8
LAYER3
100
AcDbVertex
100
AcDb2dVertex
 10
205.2770544207356
 20
462.2862765736336
 30
0.0
  0
VERTEX
  5
62A
330
625
100
AcDbEntity
  8
LAYER3
100
AcDbVertex
100
AcDb2dVertex
 10
205.2468974507115
 20
462.2865769810432
 30
0.0
  0
VERTEX
  5
62B
330
625
100
AcDbEntity
  8
LAYER3
100
AcDbVertex
100
AcDb2dVertex
 10
205.2166659748814
 20
462.2859666294807
 30
0.0
  0
VERTEX
  5
62C
330
625
100
AcDbEntity
  8
LAYER3
100
AcDbVertex
100
AcDb2dVertex
 10
205.1863921797535
 20
462.2844383663887
 30
0.0
  0
VERTEX
  5
62D
330
625
100
AcDbEntity
  8
LAYER3
100
AcDbVertex
100
AcDb2dVertex
 10
205.1561094439289
 20
462.2819874233955
 30
0.0
  0
VERTEX
  5
62E
330
625
100
AcDbEntity
  8
LAYER3
100
AcDbVertex
100
AcDb2dVertex
 10
205.1254511988422
 20
462.2785351223702
 30
0.0
  0
VERTEX
  5
62F
330
625
100
AcDbEntity
  8
LAYER3
100
AcDbVertex
100
AcDb2dVertex
 10
205.0939918673298
 20
462.2739670223945
 30
0.0
  0
VERTEX
  5
630
330
625
100
AcDbEntity
  8
LAYER3
100
AcDbVertex
100
AcDb2dVertex
 10
205.061851850774
 20
462.2682402081245
 30
0.0
  0
VERTEX
  5
631
330
625
100
AcDbEntity
  8
LAYER3
100
AcDbVertex
100
AcDb2dVertex
 10
205.0291545307896
 20
462.2613141484016
 30
0.0
  0
VERTEX
  5
632
330
625
100
AcDbEntity
  8
LAYER3
100
AcDbVertex
100
AcDb2dVertex
 10
204.9960220968984
 20
462.2531459278816
 30
0.0
  0
VERTEX
  5
633
330
625
100
AcDbEntity
  8
LAYER3
100
AcDbVertex
100
AcDb2dVertex
 10
204.9625779307149
 20
462.243695015406
 30
0.0
  0
VERTEX
  5
634
330
625
100
AcDbEntity
  8
LAYER3
100
AcDbVertex
100
AcDb2dVertex
 10
204.928944221761
 20
462.2329184956306
 30
0.0
  0
VERTEX
  5
635
330
625
100
AcDbEntity
  8
LAYER3
100
AcDbVertex
100
AcDb2dVertex
 10
204.8952443516514
 20
462.2207734532111
 30
0.0
  0
VERTEX
  5
636
330
625
100
AcDbEntity
  8
LAYER3
100
AcDbVertex
100
AcDb2dVertex
 10
204.8615999138615
 20
462.2072169728035
 30
0.0
  0
VERTEX
  5
637
330
625
100
AcDbEntity
  8
LAYER3
100
AcDbVertex
100
AcDb2dVertex
 10
204.828127733495
 20
462.1922299809211
 30
0.0
  0
VERTEX
  5
638
330
625
100
AcDbEntity
  8
LAYER3
100
AcDbVertex
100
AcDb2dVertex
 10
204.7949488079808
 20
462.1758649296516
 30
0.0
  0
VERTEX
  5
639
330
625
100
AcDbEntity
  8
LAYER3
100
AcDbVertex
100
AcDb2dVertex
 10
204.7621865189336
 20
462.158188576197
 30
0.0
  0
VERTEX
  5
63A
330
625
100
AcDbEntity
  8
LAYER3
100
AcDbVertex
100
AcDb2dVertex
 10
204.7299630558752
 20
462.1392652935737
 30
0.0
  0
VERTEX
  5
63B
330
625
100
AcDbEntity
  8
LAYER3
100
AcDbVertex
100
AcDb2dVertex
 10
204.6984018004201
 20
462.1191546864265
 30
0.0
  0
VERTEX
  5
63C
330
625
100
AcDbEntity
  8
LAYER3
100
AcDbVertex
100
AcDb2dVertex
 10
204.6676255381368
 20
462.0979258961433
 30
0.0
  0
VERTEX
  5
63D
330
625
100
AcDbEntity
  8
LAYER3
100
AcDbVertex
100
AcDb2dVertex
 10
204.637756458547
 20
462.0756409115547
 30
0.0
  0
VERTEX
  5
63E
330
625
100
AcDbEntity
  8
LAYER3
100
AcDbVertex
100
AcDb2dVertex
 10
204.6089173472188
 20
462.0523617214912
 30
0.0
  0
SEQEND
  5
63F
330
625
100
AcDbEntity
  8
LAYER3
  0
POLYLINE
  5
640
330
2
100
AcDbEntity
  8
LAYER3
100
AcDb2dPolyline
 66
     1
 10
0.0
 20
0.0
 30
0.0
 70
   128
  0
VERTEX
  5
641
330
640
100
AcDbEntity
  8
LAYER3
100
AcDbVertex
100
AcDb2dVertex
 10
199.3312500036022
 20
466.6650459713691
 30
0.0
  0
VERTEX
  5
642
330
640
100
AcDbEntity
  8
LAYER3
100
AcDbVertex
100
AcDb2dVertex
 10
199.2818255341312
 20
466.7890546269172
 30
0.0
  0
VERTEX
  5
643
330
640
100
AcDbEntity
  8
LAYER3
100
AcDbVertex
100
AcDb2dVertex
 10
199.2445237553378
 20
466.9187924809212
 30
0.0
  0
VERTEX
  5
644
330
640
100
AcDbEntity
  8
LAYER3
100
AcDbVertex
100
AcDb2dVertex
 10
199.2201102888842
 20
467.0529482311958
 30
0.0
  0
VERTEX
  5
645
330
640
100
AcDbEntity
  8
LAYER3
100
AcDbVertex
100
AcDb2dVertex
 10
199.2093555248041
 20
467.1908447689766
 30
0.0
  0
VERTEX
  5
646
330
640
100
AcDbEntity
  8
LAYER3
100
AcDbVertex
100
AcDb2dVertex
 10
199.2136509335298
 20
467.3389623112434
 30
0.0
  0
VERTEX
  5
647
330
640
100
AcDbEntity
  8
LAYER3
100
AcDbVertex
100
AcDb2dVertex
 10
199.2356015360613
 20
467.4941728062385
 30
0.0
  0
VERTEX
  5
648
330
640
100
AcDbEntity
  8
LAYER3
100
AcDbVertex
100
AcDb2dVertex
 10
199.2770184195299
 20
467.6497313923591
 30
0.0
  0
VERTEX
  5
649
330
640
100
AcDbEntity
  8
LAYER3
100
AcDbVertex
100
AcDb2dVertex
 10
199.3360016858834
 20
467.7986714787238
 30
0.0
  0
VERTEX
  5
64A
330
640
100
AcDbEntity
  8
LAYER3
100
AcDbVertex
100
AcDb2dVertex
 10
199.4133858001489
 20
467.9409239239448
 30
0.0
  0
VERTEX
  5
64B
330
640
100
AcDbEntity
  8
LAYER3
100
AcDbVertex
100
AcDb2dVertex
 10
199.5138145602006
 20
468.0813763088935
 30
0.0
  0
VERTEX
  5
64C
330
640
100
AcDbEntity
  8
LAYER3
100
AcDbVertex
100
AcDb2dVertex
 10
199.6338997400064
 20
468.2098696179146
 30
0.0
  0
VERTEX
  5
64D
330
640
100
AcDbEntity
  8
LAYER3
100
AcDbVertex
100
AcDb2dVertex
 10
199.7653366244096
 20
468.3189198918098
 30
0.0
  0
VERTEX
  5
64E
330
640
100
AcDbEntity
  8
LAYER3
100
AcDbVertex
100
AcDb2dVertex
 10
199.9096653974313
 20
468.4102246708626
 30
0.0
  0
VERTEX
  5
64F
330
640
100
AcDbEntity
  8
LAYER3
100
AcDbVertex
100
AcDb2dVertex
 10
200.0689778840798
 20
468.4847257084602
 30
0.0
  0
VERTEX
  5
650
330
640
100
AcDbEntity
  8
LAYER3
100
AcDbVertex
100
AcDb2dVertex
 10
200.2335907137651
 20
468.5368368572945
 30
0.0
  0
VERTEX
  5
651
330
640
100
AcDbEntity
  8
LAYER3
100
AcDbVertex
100
AcDb2dVertex
 10
200.392793229844
 20
468.5664746708625
 30
0.0
  0
VERTEX
  5
652
330
640
100
AcDbEntity
  8
LAYER3
100
AcDbVertex
100
AcDb2dVertex
 10
200.5526713645715
 20
468.5765454716438
 30
0.0
  0
VERTEX
  5
653
330
640
100
AcDbEntity
  8
LAYER3
100
AcDbVertex
100
AcDb2dVertex
 10
200.7134134686251
 20
468.5678670353645
 30
0.0
  0
VERTEX
  5
654
330
640
100
AcDbEntity
  8
LAYER3
100
AcDbVertex
100
AcDb2dVertex
 10
200.8678109562655
 20
468.5407803005928
 30
0.0
  0
VERTEX
  5
655
330
640
100
AcDbEntity
  8
LAYER3
100
AcDbVertex
100
AcDb2dVertex
 10
201.0100073731203
 20
468.4990951962227
 30
0.0
  0
VERTEX
  5
656
330
640
100
AcDbEntity
  8
LAYER3
100
AcDbVertex
100
AcDb2dVertex
 10
201.1378313219805
 20
468.4462544865364
 30
0.0
  0
VERTEX
  5
657
330
640
100
AcDbEntity
  8
LAYER3
100
AcDbVertex
100
AcDb2dVertex
 10
201.257877460744
 20
468.3815786785835
 30
0.0
  0
VERTEX
  5
658
330
640
100
AcDbEntity
  8
LAYER3
100
AcDbVertex
100
AcDb2dVertex
 10
201.369737497594
 20
468.3060119099373
 30
0.0
  0
VERTEX
  5
659
330
640
100
AcDbEntity
  8
LAYER3
100
AcDbVertex
100
AcDb2dVertex
 10
201.472402921941
 20
468.2206842846626
 30
0.0
  0
SEQEND
  5
65A
330
640
100
AcDbEntity
  8
LAYER3
  0
POLYLINE
  5
65B
330
2
100
AcDbEntity
  8
LAYER3
100
AcDb2dPolyline
 66
     1
 10
0.0
 20
0.0
 30
0.0
 70
   128
  0
VERTEX
  5
65C
330
65B
100
AcDbEntity
  8
LAYER3
100
AcDbVertex
100
AcDb2dVertex
 10
199.3489388740323
 20
465.8739588207954
 30
0.0
  0
VERTEX
  5
65D
330
65B
100
AcDbEntity
  8
LAYER3
100
AcDbVertex
100
AcDb2dVertex
 10
199.3621660387776
 20
465.9085795826667
 30
0.0
  0
VERTEX
  5
65E
330
65B
100
AcDbEntity
  8
LAYER3
100
AcDbVertex
100
AcDb2dVertex
 10
199.3741310751698
 20
465.943875069117
 30
0.0
  0
VERTEX
  5
65F
330
65B
100
AcDbEntity
  8
LAYER3
100
AcDbVertex
100
AcDb2dVertex
 10
199.3848110354207
 20
465.9797046131843
 30
0.0
  0
VERTEX
  5
660
330
65B
100
AcDbEntity
  8
LAYER3
100
AcDbVertex
100
AcDb2dVertex
 10
199.3941829717419
 20
466.0159347004646
 30
0.0
  0
VERTEX
  5
661
330
65B
100
AcDbEntity
  8
LAYER3
100
AcDbVertex
100
AcDb2dVertex
 10
199.4022239363453
 20
466.0524294323677
 30
0.0
  0
VERTEX
  5
662
330
65B
100
AcDbEntity
  8
LAYER3
100
AcDbVertex
100
AcDb2dVertex
 10
199.4089109814427
 20
466.0890505261177
 30
0.0
  0
VERTEX
  5
663
330
65B
100
AcDbEntity
  8
LAYER3
100
AcDbVertex
100
AcDb2dVertex
 10
199.414221457269
 20
466.1256620831245
 30
0.0
  0
VERTEX
  5
664
330
65B
100
AcDbEntity
  8
LAYER3
100
AcDbVertex
100
AcDb2dVertex
 10
199.4181324160359
 20
466.1621282047981
 30
0.0
  0
VERTEX
  5
665
330
65B
100
AcDbEntity
  8
LAYER3
100
AcDbVertex
100
AcDb2dVertex
 10
199.4206283605359
 20
466.1983153767342
 30
0.0
  0
VERTEX
  5
666
330
65B
100
AcDbEntity
  8
LAYER3
100
AcDbVertex
100
AcDb2dVertex
 10
199.4217644250653
 20
466.2341186947578
 30
0.0
  0
VERTEX
  5
667
330
65B
100
AcDbEntity
  8
LAYER3
100
AcDbVertex
100
AcDb2dVertex
 10
199.4216204798481
 20
466.2694356388802
 30
0.0
  0
VERTEX
  5
668
330
65B
100
AcDbEntity
  8
LAYER3
100
AcDbVertex
100
AcDb2dVertex
 10
199.4202743089459
 20
466.304163689112
 30
0.0
  0
VERTEX
  5
669
330
65B
100
AcDbEntity
  8
LAYER3
100
AcDbVertex
100
AcDb2dVertex
 10
199.4178039944432
 20
466.3381979412788
 30
0.0
  0
VERTEX
  5
66A
330
65B
100
AcDbEntity
  8
LAYER3
100
AcDbVertex
100
AcDb2dVertex
 10
199.4142870223782
 20
466.3714358753914
 30
0.0
  0
VERTEX
  5
66B
330
65B
100
AcDbEntity
  8
LAYER3
100
AcDbVertex
100
AcDb2dVertex
 10
199.4098011768123
 20
466.4037725872749
 30
0.0
  0
VERTEX
  5
66C
330
65B
100
AcDbEntity
  8
LAYER3
100
AcDbVertex
100
AcDb2dVertex
 10
199.4044242418072
 20
466.4351031727546
 30
0.0
  0
VERTEX
  5
66D
330
65B
100
AcDbEntity
  8
LAYER3
100
AcDbVertex
100
AcDb2dVertex
 10
199.398234001424
 20
466.4653274960273
 30
0.0
  0
VERTEX
  5
66E
330
65B
100
AcDbEntity
  8
LAYER3
100
AcDbVertex
100
AcDb2dVertex
 10
199.3912084019443
 20
466.4948866314643
 30
0.0
  0
VERTEX
  5
66F
330
65B
100
AcDbEntity
  8
LAYER3
100
AcDbVertex
100
AcDb2dVertex
 10
199.38330601814
 20
466.5241501278633
 30
0.0
  0
VERTEX
  5
670
330
65B
100
AcDbEntity
  8
LAYER3
100
AcDbVertex
100
AcDb2dVertex
 10
199.3745438373348
 20
466.5530917591804
 30
0.0
  0
VERTEX
  5
671
330
65B
100
AcDbEntity
  8
LAYER3
100
AcDbVertex
100
AcDb2dVertex
 10
199.3649400389454
 20
466.5816805310005
 30
0.0
  0
VERTEX
  5
672
330
65B
100
AcDbEntity
  8
LAYER3
100
AcDbVertex
100
AcDb2dVertex
 10
199.3545113122722
 20
466.609887833094
 30
0.0
  0
VERTEX
  5
673
330
65B
100
AcDbEntity
  8
LAYER3
100
AcDbVertex
100
AcDb2dVertex
 10
199.3432755387089
 20
466.6376850552315
 30
0.0
  0
VERTEX
  5
674
330
65B
100
AcDbEntity
  8
LAYER3
100
AcDbVertex
100
AcDb2dVertex
 10
199.3312500036022
 20
466.6650459713691
 30
0.0
  0
SEQEND
  5
675
330
65B
100
AcDbEntity
  8
LAYER3
  0
ARC
  5
676
330
2
100
AcDbEntity
  8
LAYER3
100
AcDbCircle
 10
202.4544542250241
 20
464.6176662535117
 30
0.0
 40
3.349999999999992
100
AcDbArc
 50
157.9748830508246
 51
166.0251169491766
  0
POLYLINE
  5
677
330
2
100
AcDbEntity
  8
LAYER3
100
AcDb2dPolyline
 66
     1
 10
0.0
 20
0.0
 30
0.0
 70
   128
  0
VERTEX
  5
678
330
677
100
AcDbEntity
  8
LAYER3
100
AcDbVertex
100
AcDb2dVertex
 10
198.7243090188762
 20
464.7970745510811
 30
0.0
  0
VERTEX
  5
679
330
677
100
AcDbEntity
  8
LAYER3
100
AcDbVertex
100
AcDb2dVertex
 10
198.7501199162266
 20
464.8121402210945
 30
0.0
  0
VERTEX
  5
67A
330
677
100
AcDbEntity
  8
LAYER3
100
AcDbVertex
100
AcDb2dVertex
 10
198.7755496418735
 20
464.82802605102
 30
0.0
  0
VERTEX
  5
67B
330
677
100
AcDbEntity
  8
LAYER3
100
AcDbVertex
100
AcDb2dVertex
 10
198.8005666053554
 20
464.844717735743
 30
0.0
  0
VERTEX
  5
67C
330
677
100
AcDbEntity
  8
LAYER3
100
AcDbVertex
100
AcDb2dVertex
 10
198.8251401102802
 20
464.8622009701484
 30
0.0
  0
VERTEX
  5
67D
330
677
100
AcDbEntity
  8
LAYER3
100
AcDbVertex
100
AcDb2dVertex
 10
198.8492394602558
 20
464.8804638333076
 30
0.0
  0
VERTEX
  5
67E
330
677
100
AcDbEntity
  8
LAYER3
100
AcDbVertex
100
AcDb2dVertex
 10
198.8728336608669
 20
464.8994944042915
 30
0.0
  0
VERTEX
  5
67F
330
677
100
AcDbEntity
  8
LAYER3
100
AcDbVertex
100
AcDb2dVertex
 10
198.895891419675
 20
464.9192783779853
 30
0.0
  0
VERTEX
  5
680
330
677
100
AcDbEntity
  8
LAYER3
100
AcDbVertex
100
AcDb2dVertex
 10
198.9186651623508
 20
464.9400899357551
 30
0.0
  0
VERTEX
  5
681
330
677
100
AcDbEntity
  8
LAYER3
100
AcDbVertex
100
AcDb2dVertex
 10
198.9414311564228
 20
464.9622771687263
 30
0.0
  0
VERTEX
  5
682
330
677
100
AcDbEntity
  8
LAYER3
100
AcDbVertex
100
AcDb2dVertex
 10
198.9640672123691
 20
464.9858019299263
 30
0.0
  0
VERTEX
  5
683
330
677
100
AcDbEntity
  8
LAYER3
100
AcDbVertex
100
AcDb2dVertex
 10
198.9864487564824
 20
465.0106236881965
 30
0.0
  0
VERTEX
  5
684
330
677
100
AcDbEntity
  8
LAYER3
100
AcDbVertex
100
AcDb2dVertex
 10
199.0084524071477
 20
465.0367066807502
 30
0.0
  0
VERTEX
  5
685
330
677
100
AcDbEntity
  8
LAYER3
100
AcDbVertex
100
AcDb2dVertex
 10
199.0299541867039
 20
465.0640103764289
 30
0.0
  0
VERTEX
  5
686
330
677
100
AcDbEntity
  8
LAYER3
100
AcDbVertex
100
AcDb2dVertex
 10
199.0508298194668
 20
465.0924990124458
 30
0.0
  0
VERTEX
  5
687
330
677
100
AcDbEntity
  8
LAYER3
100
AcDbVertex
100
AcDb2dVertex
 10
199.0709553277753
 20
465.1221320576423
 30
0.0
  0
VERTEX
  5
688
330
677
100
AcDbEntity
  8
LAYER3
100
AcDbVertex
100
AcDb2dVertex
 10
199.0902061379216
 20
465.1528761334175
 30
0.0
  0
VERTEX
  5
689
330
677
100
AcDbEntity
  8
LAYER3
100
AcDbVertex
100
AcDb2dVertex
 10
199.1084761536381
 20
465.184676403498
 30
0.0
  0
VERTEX
  5
68A
330
677
100
AcDbEntity
  8
LAYER3
100
AcDbVertex
100
AcDb2dVertex
 10
199.1256998098156
 20
465.2174160427803
 30
0.0
  0
VERTEX
  5
68B
330
677
100
AcDbEntity
  8
LAYER3
100
AcDbVertex
100
AcDb2dVertex
 10
199.1418151176236
 20
465.2509734577888
 30
0.0
  0
VERTEX
  5
68C
330
677
100
AcDbEntity
  8
LAYER3
100
AcDbVertex
100
AcDb2dVertex
 10
199.1567606842778
 20
465.2852246708626
 30
0.0
  0
VERTEX
  5
68D
330
677
100
AcDbEntity
  8
LAYER3
100
AcDbVertex
100
AcDb2dVertex
 10
199.1704745209477
 20
465.3200457043404
 30
0.0
  0
VERTEX
  5
68E
330
677
100
AcDbEntity
  8
LAYER3
100
AcDbVertex
100
AcDb2dVertex
 10
199.1828946388028
 20
465.3553101963752
 30
0.0
  0
VERTEX
  5
68F
330
677
100
AcDbEntity
  8
LAYER3
100
AcDbVertex
100
AcDb2dVertex
 10
199.1939602411054
 20
465.3908965534919
 30
0.0
  0
VERTEX
  5
690
330
677
100
AcDbEntity
  8
LAYER3
100
AcDbVertex
100
AcDb2dVertex
 10
199.2036084449551
 20
465.4266784138435
 30
0.0
  0
SEQEND
  5
691
330
677
100
AcDbEntity
  8
LAYER3
  0
POLYLINE
  5
692
330
2
100
AcDbEntity
  8
LAYER3
100
AcDb2dPolyline
 66
     1
 10
0.0
 20
0.0
 30
0.0
 70
   128
  0
VERTEX
  5
693
330
692
100
AcDbEntity
  8
LAYER3
100
AcDbVertex
100
AcDb2dVertex
 10
199.5421565687915
 20
462.2799990124458
 30
0.0
  0
VERTEX
  5
694
330
692
100
AcDbEntity
  8
LAYER3
100
AcDbVertex
100
AcDb2dVertex
 10
199.4089449560901
 20
462.2713134236091
 30
0.0
  0
VERTEX
  5
695
330
692
100
AcDbEntity
  8
LAYER3
100
AcDbVertex
100
AcDb2dVertex
 10
199.2740310347338
 20
462.2759268231147
 30
0.0
  0
VERTEX
  5
696
330
692
100
AcDbEntity
  8
LAYER3
100
AcDbVertex
100
AcDb2dVertex
 10
199.1388968742152
 20
462.294165844416
 30
0.0
  0
VERTEX
  5
697
330
692
100
AcDbEntity
  8
LAYER3
100
AcDbVertex
100
AcDb2dVertex
 10
199.0044264114161
 20
462.3265502400154
 30
0.0
  0
VERTEX
  5
698
330
692
100
AcDbEntity
  8
LAYER3
100
AcDbVertex
100
AcDb2dVertex
 10
198.8648844874163
 20
462.3764059490913
 30
0.0
  0
VERTEX
  5
699
330
692
100
AcDbEntity
  8
LAYER3
100
AcDbVertex
100
AcDb2dVertex
 10
198.7240530169268
 20
462.4452445454353
 30
0.0
  0
VERTEX
  5
69A
330
692
100
AcDbEntity
  8
LAYER3
100
AcDbVertex
100
AcDb2dVertex
 10
198.588908127572
 20
462.5327036328071
 30
0.0
  0
VERTEX
  5
69B
330
692
100
AcDbEntity
  8
LAYER3
100
AcDbVertex
100
AcDb2dVertex
 10
198.4654835975426
 20
462.6348254627937
 30
0.0
  0
VERTEX
  5
69C
330
692
100
AcDbEntity
  8
LAYER3
100
AcDbVertex
100
AcDb2dVertex
 10
198.3541071033734
 20
462.7523801274056
 30
0.0
  0
VERTEX
  5
69D
330
692
100
AcDbEntity
  8
LAYER3
100
AcDbVertex
100
AcDb2dVertex
 10
198.2515626764554
 20
462.8912970967048
 30
0.0
  0
VERTEX
  5
69E
330
692
100
AcDbEntity
  8
LAYER3
100
AcDbVertex
100
AcDb2dVertex
 10
198.1664667642373
 20
463.0452105946297
 30
0.0
  0
VERTEX
  5
69F
330
692
100
AcDbEntity
  8
LAYER3
100
AcDbVertex
100
AcDb2dVertex
 10
198.1033706283826
 20
463.2039139218086
 30
0.0
  0
VERTEX
  5
6A0
330
692
100
AcDbEntity
  8
LAYER3
100
AcDbVertex
100
AcDb2dVertex
 10
198.0611337340135
 20
463.3693931050056
 30
0.0
  0
VERTEX
  5
6A1
330
692
100
AcDbEntity
  8
LAYER3
100
AcDbVertex
100
AcDb2dVertex
 10
198.0395091688889
 20
463.5439298100227
 30
0.0
  0
VERTEX
  5
6A2
330
692
100
AcDbEntity
  8
LAYER3
100
AcDbVertex
100
AcDb2dVertex
 10
198.0408167457837
 20
463.7165901608223
 30
0.0
  0
VERTEX
  5
6A3
330
692
100
AcDbEntity
  8
LAYER3
100
AcDbVertex
100
AcDb2dVertex
 10
198.0618251478929
 20
463.8771603054756
 30
0.0
  0
VERTEX
  5
6A4
330
692
100
AcDbEntity
  8
LAYER3
100
AcDbVertex
100
AcDb2dVertex
 10
198.1016520774621
 20
464.0323255009406
 30
0.0
  0
VERTEX
  5
6A5
330
692
100
AcDbEntity
  8
LAYER3
100
AcDbVertex
100
AcDb2dVertex
 10
198.159579298522
 20
464.1825172848457
 30
0.0
  0
VERTEX
  5
6A6
330
692
100
AcDbEntity
  8
LAYER3
100
AcDbVertex
100
AcDb2dVertex
 10
198.2330517089624
 20
464.3209884114021
 30
0.0
  0
VERTEX
  5
6A7
330
692
100
AcDbEntity
  8
LAYER3
100
AcDbVertex
100
AcDb2dVertex
 10
198.3166382825632
 20
464.4433424420112
 30
0.0
  0
VERTEX
  5
6A8
330
692
100
AcDbEntity
  8
LAYER3
100
AcDbVertex
100
AcDb2dVertex
 10
198.4063925957938
 20
464.5485827870125
 30
0.0
  0
VERTEX
  5
6A9
330
692
100
AcDbEntity
  8
LAYER3
100
AcDbVertex
100
AcDb2dVertex
 10
198.5049984967967
 20
464.6427676625007
 30
0.0
  0
VERTEX
  5
6AA
330
692
100
AcDbEntity
  8
LAYER3
100
AcDbVertex
100
AcDb2dVertex
 10
198.6114336169025
 20
464.7258017010444
 30
0.0
  0
VERTEX
  5
6AB
330
692
100
AcDbEntity
  8
LAYER3
100
AcDbVertex
100
AcDb2dVertex
 10
198.7243090188762
 20
464.7970745510811
 30
0.0
  0
SEQEND
  5
6AC
330
692
100
AcDbEntity
  8
LAYER3
  0
POLYLINE
  5
6AD
330
2
100
AcDbEntity
  8
LAYER3
100
AcDb2dPolyline
 66
     1
 10
0.0
 20
0.0
 30
0.0
 70
   128
  0
VERTEX
  5
6AE
330
6AD
100
AcDbEntity
  8
LAYER3
100
AcDbVertex
100
AcDb2dVertex
 10
200.2999908840917
 20
462.0523617214912
 30
0.0
  0
VERTEX
  5
6AF
330
6AD
100
AcDbEntity
  8
LAYER3
100
AcDbVertex
100
AcDb2dVertex
 10
200.2711520707868
 20
462.0756409115547
 30
0.0
  0
VERTEX
  5
6B0
330
6AD
100
AcDbEntity
  8
LAYER3
100
AcDbVertex
100
AcDb2dVertex
 10
200.2412829911969
 20
462.0979258961433
 30
0.0
  0
VERTEX
  5
6B1
330
6AD
100
AcDbEntity
  8
LAYER3
100
AcDbVertex
100
AcDb2dVertex
 10
200.2105064308904
 20
462.1191546864265
 30
0.0
  0
VERTEX
  5
6B2
330
6AD
100
AcDbEntity
  8
LAYER3
100
AcDbVertex
100
AcDb2dVertex
 10
200.1789451754353
 20
462.1392652935737
 30
0.0
  0
VERTEX
  5
6B3
330
6AD
100
AcDbEntity
  8
LAYER3
100
AcDbVertex
100
AcDb2dVertex
 10
200.1467220104001
 20
462.158188576197
 30
0.0
  0
VERTEX
  5
6B4
330
6AD
100
AcDbEntity
  8
LAYER3
100
AcDbVertex
100
AcDb2dVertex
 10
200.1139597213529
 20
462.1758649296516
 30
0.0
  0
VERTEX
  5
6B5
330
6AD
100
AcDbEntity
  8
LAYER3
100
AcDbVertex
100
AcDb2dVertex
 10
200.0807807958386
 20
462.1922299809211
 30
0.0
  0
VERTEX
  5
6B6
330
6AD
100
AcDbEntity
  8
LAYER3
100
AcDbVertex
100
AcDb2dVertex
 10
200.0473083174489
 20
462.2072169728035
 30
0.0
  0
VERTEX
  5
6B7
330
6AD
100
AcDbEntity
  8
LAYER3
100
AcDbVertex
100
AcDb2dVertex
 10
200.013663879659
 20
462.2207734532111
 30
0.0
  0
VERTEX
  5
6B8
330
6AD
100
AcDbEntity
  8
LAYER3
100
AcDbVertex
100
AcDb2dVertex
 10
199.9799640095494
 20
462.2329184956306
 30
0.0
  0
VERTEX
  5
6B9
330
6AD
100
AcDbEntity
  8
LAYER3
100
AcDbVertex
100
AcDb2dVertex
 10
199.9463305986187
 20
462.243695015406
 30
0.0
  0
VERTEX
  5
6BA
330
6AD
100
AcDbEntity
  8
LAYER3
100
AcDbVertex
100
AcDb2dVertex
 10
199.912886134412
 20
462.2531459278816
 30
0.0
  0
VERTEX
  5
6BB
330
6AD
100
AcDbEntity
  8
LAYER3
100
AcDbVertex
100
AcDb2dVertex
 10
199.879753998544
 20
462.2613141484016
 30
0.0
  0
VERTEX
  5
6BC
330
6AD
100
AcDbEntity
  8
LAYER3
100
AcDbVertex
100
AcDb2dVertex
 10
199.8470563805362
 20
462.2682402081245
 30
0.0
  0
VERTEX
  5
6BD
330
6AD
100
AcDbEntity
  8
LAYER3
100
AcDbVertex
100
AcDb2dVertex
 10
199.8149166620037
 20
462.2739670223945
 30
0.0
  0
VERTEX
  5
6BE
330
6AD
100
AcDbEntity
  8
LAYER3
100
AcDbVertex
100
AcDb2dVertex
 10
199.7834573304912
 20
462.2785351223702
 30
0.0
  0
VERTEX
  5
6BF
330
6AD
100
AcDbEntity
  8
LAYER3
100
AcDbVertex
100
AcDb2dVertex
 10
199.7527990854046
 20
462.2819874233955
 30
0.0
  0
VERTEX
  5
6C0
330
6AD
100
AcDbEntity
  8
LAYER3
100
AcDbVertex
100
AcDb2dVertex
 10
199.72251634958
 20
462.2844383663887
 30
0.0
  0
VERTEX
  5
6C1
330
6AD
100
AcDbEntity
  8
LAYER3
100
AcDbVertex
100
AcDb2dVertex
 10
199.6922425544521
 20
462.2859666294807
 30
0.0
  0
VERTEX
  5
6C2
330
6AD
100
AcDbEntity
  8
LAYER3
100
AcDbVertex
100
AcDb2dVertex
 10
199.662011078622
 20
462.2865769810432
 30
0.0
  0
VERTEX
  5
6C3
330
6AD
100
AcDbEntity
  8
LAYER3
100
AcDbVertex
100
AcDb2dVertex
 10
199.6318541085979
 20
462.2862765736336
 30
0.0
  0
VERTEX
  5
6C4
330
6AD
100
AcDbEntity
  8
LAYER3
100
AcDbVertex
100
AcDb2dVertex
 10
199.6018041289112
 20
462.2850749439948
 30
0.0
  0
VERTEX
  5
6C5
330
6AD
100
AcDbEntity
  8
LAYER3
100
AcDbVertex
100
AcDb2dVertex
 10
199.5718942201397
 20
462.2829792446846
 30
0.0
  0
VERTEX
  5
6C6
330
6AD
100
AcDbEntity
  8
LAYER3
100
AcDbVertex
100
AcDb2dVertex
 10
199.5421565687915
 20
462.2799990124458
 30
0.0
  0
SEQEND
  5
6C7
330
6AD
100
AcDbEntity
  8
LAYER3
  0
ARC
  5
6C8
330
2
100
AcDbEntity
  8
LAYER3
100
AcDbCircle
 10
202.4544542250236
 20
464.617666253511
 30
0.0
 40
3.349999999999126
100
AcDbArc
 50
229.9748830508228
 51
238.0251169491742
  0
POLYLINE
  5
6C9
330
2
100
AcDbEntity
  8
LAYER3
100
AcDb2dPolyline
 66
     1
 10
0.0
 20
0.0
 30
0.0
 70
   128
  0
VERTEX
  5
6CA
330
6C9
100
AcDbEntity
  8
LAYER3
100
AcDbVertex
100
AcDb2dVertex
 10
201.1311490452548
 20
461.1255285687202
 30
0.0
  0
VERTEX
  5
6CB
330
6C9
100
AcDbEntity
  8
LAYER3
100
AcDbVertex
100
AcDb2dVertex
 10
201.1247957861683
 20
461.1547300762886
 30
0.0
  0
VERTEX
  5
6CC
330
6C9
100
AcDbEntity
  8
LAYER3
100
AcDbVertex
100
AcDb2dVertex
 10
201.1175460732242
 20
461.1838242954964
 30
0.0
  0
VERTEX
  5
6CD
330
6C9
100
AcDbEntity
  8
LAYER3
100
AcDbVertex
100
AcDb2dVertex
 10
201.109402886655
 20
461.2127754635566
 30
0.0
  0
VERTEX
  5
6CE
330
6C9
100
AcDbEntity
  8
LAYER3
100
AcDbVertex
100
AcDb2dVertex
 10
201.1003686106464
 20
461.2415478176826
 30
0.0
  0
VERTEX
  5
6CF
330
6C9
100
AcDbEntity
  8
LAYER3
100
AcDbVertex
100
AcDb2dVertex
 10
201.0904462254307
 20
461.2701127476448
 30
0.0
  0
VERTEX
  5
6D0
330
6C9
100
AcDbEntity
  8
LAYER3
100
AcDbVertex
100
AcDb2dVertex
 10
201.07963871124
 20
461.2984321064705
 30
0.0
  0
VERTEX
  5
6D1
330
6C9
100
AcDbEntity
  8
LAYER3
100
AcDbVertex
100
AcDb2dVertex
 10
201.0679484522602
 20
461.3264748997444
 30
0.0
  0
VERTEX
  5
6D2
330
6C9
100
AcDbEntity
  8
LAYER3
100
AcDbVertex
100
AcDb2dVertex
 10
201.0551912701389
 20
461.3545653767341
 30
0.0
  0
VERTEX
  5
6D3
330
6C9
100
AcDbEntity
  8
LAYER3
100
AcDbVertex
100
AcDb2dVertex
 10
201.0411251700184
 20
461.3830730862373
 30
0.0
  0
VERTEX
  5
6D4
330
6C9
100
AcDbEntity
  8
LAYER3
100
AcDbVertex
100
AcDb2dVertex
 10
201.0257471716664
 20
461.411871666407
 30
0.0
  0
VERTEX
  5
6D5
330
6C9
100
AcDbEntity
  8
LAYER3
100
AcDbVertex
100
AcDb2dVertex
 10
201.00905608299
 20
461.4408276028389
 30
0.0
  0
VERTEX
  5
6D6
330
6C9
100
AcDbEntity
  8
LAYER3
100
AcDbVertex
100
AcDb2dVertex
 10
200.9910495198033
 20
461.469814533686
 30
0.0
  0
VERTEX
  5
6D7
330
6C9
100
AcDbEntity
  8
LAYER3
100
AcDbVertex
100
AcDb2dVertex
 10
200.9717262900136
 20
461.49870132873
 30
0.0
  0
VERTEX
  5
6D8
330
6C9
100
AcDbEntity
  8
LAYER3
100
AcDbVertex
100
AcDb2dVertex
 10
200.9510834133885
 20
461.527359241938
 30
0.0
  0
VERTEX
  5
6D9
330
6C9
100
AcDbEntity
  8
LAYER3
100
AcDbVertex
100
AcDb2dVertex
 10
200.929119399812
 20
461.5556571430915
 30
0.0
  0
VERTEX
  5
6DA
330
6C9
100
AcDbEntity
  8
LAYER3
100
AcDbVertex
100
AcDb2dVertex
 10
200.9058303749821
 20
461.5834639019722
 30
0.0
  0
VERTEX
  5
6DB
330
6C9
100
AcDbEntity
  8
LAYER3
100
AcDbVertex
100
AcDb2dVertex
 10
200.881232432153
 20
461.6106674618476
 30
0.0
  0
VERTEX
  5
6DC
330
6C9
100
AcDbEntity
  8
LAYER3
100
AcDbVertex
100
AcDb2dVertex
 10
200.8554161703847
 20
461.637165302729
 30
0.0
  0
VERTEX
  5
6DD
330
6C9
100
AcDbEntity
  8
LAYER3
100
AcDbVertex
100
AcDb2dVertex
 10
200.8284808314107
 20
461.6628620571845
 30
0.0
  0
VERTEX
  5
6DE
330
6C9
100
AcDbEntity
  8
LAYER3
100
AcDbVertex
100
AcDb2dVertex
 10
200.8005250609182
 20
461.6876599735969
 30
0.0
  0
VERTEX
  5
6DF
330
6C9
100
AcDbEntity
  8
LAYER3
100
AcDbVertex
100
AcDb2dVertex
 10
200.7716472065709
 20
461.7114636845344
 30
0.0
  0
VERTEX
  5
6E0
330
6C9
100
AcDbEntity
  8
LAYER3
100
AcDbVertex
100
AcDb2dVertex
 10
200.7419462120793
 20
461.7341730541938
 30
0.0
  0
VERTEX
  5
6E1
330
6C9
100
AcDbEntity
  8
LAYER3
100
AcDbVertex
100
AcDb2dVertex
 10
200.7115210211537
 20
461.7556927151436
 30
0.0
  0
VERTEX
  5
6E2
330
6C9
100
AcDbEntity
  8
LAYER3
100
AcDbVertex
100
AcDb2dVertex
 10
200.6804702794812
 20
461.7759272999519
 30
0.0
  0
SEQEND
  5
6E3
330
6C9
100
AcDbEntity
  8
LAYER3
  0
POLYLINE
  5
6E4
330
2
100
AcDbEntity
  8
LAYER3
100
AcDb2dPolyline
 66
     1
 10
0.0
 20
0.0
 30
0.0
 70
   128
  0
VERTEX
  5
6E5
330
6E4
100
AcDbEntity
  8
LAYER3
100
AcDbVertex
100
AcDb2dVertex
 10
203.7777597821018
 20
461.1255285687202
 30
0.0
  0
VERTEX
  5
6E6
330
6E4
100
AcDbEntity
  8
LAYER3
100
AcDbVertex
100
AcDb2dVertex
 10
203.7448550379535
 20
460.9961507267708
 30
0.0
  0
VERTEX
  5
6E7
330
6E4
100
AcDbEntity
  8
LAYER3
100
AcDbVertex
100
AcDb2dVertex
 10
203.6987752831241
 20
460.8692667431587
 30
0.0
  0
VERTEX
  5
6E8
330
6E4
100
AcDbEntity
  8
LAYER3
100
AcDbVertex
100
AcDb2dVertex
 10
203.6396707213183
 20
460.746383423304
 30
0.0
  0
VERTEX
  5
6E9
330
6E4
100
AcDbEntity
  8
LAYER3
100
AcDbVertex
100
AcDb2dVertex
 10
203.5673184311648
 20
460.628499741053
 30
0.0
  0
VERTEX
  5
6EA
330
6E4
100
AcDbEntity
  8
LAYER3
100
AcDbVertex
100
AcDb2dVertex
 10
203.4767813599367
 20
460.5111954159492
 30
0.0
  0
VERTEX
  5
6EB
330
6E4
100
AcDbEntity
  8
LAYER3
100
AcDbVertex
100
AcDb2dVertex
 10
203.3677918827791
 20
460.398528332209
 30
0.0
  0
VERTEX
  5
6EC
330
6E4
100
AcDbEntity
  8
LAYER3
100
AcDbVertex
100
AcDb2dVertex
 10
203.2428510105867
 20
460.2970240063423
 30
0.0
  0
VERTEX
  5
6ED
330
6E4
100
AcDbEntity
  8
LAYER3
100
AcDbVertex
100
AcDb2dVertex
 10
203.1075872099656
 20
460.2111980862373
 30
0.0
  0
VERTEX
  5
6EE
330
6E4
100
AcDbEntity
  8
LAYER3
100
AcDbVertex
100
AcDb2dVertex
 10
202.9613686716813
 20
460.141598934626
 30
0.0
  0
VERTEX
  5
6EF
330
6E4
100
AcDbEntity
  8
LAYER3
100
AcDbVertex
100
AcDb2dVertex
 10
202.797563782956
 20
460.0870010800117
 30
0.0
  0
VERTEX
  5
6F0
330
6E4
100
AcDbEntity
  8
LAYER3
100
AcDbVertex
100
AcDb2dVertex
 10
202.6248867428559
 20
460.0536320156806
 30
0.0
  0
VERTEX
  5
6F1
330
6E4
100
AcDbEntity
  8
LAYER3
100
AcDbVertex
100
AcDb2dVertex
 10
202.4544544136781
 20
460.0426671452278
 30
0.0
  0
VERTEX
  5
6F2
330
6E4
100
AcDbEntity
  8
LAYER3
100
AcDbVertex
100
AcDb2dVertex
 10
202.2840214884538
 20
460.0536320156806
 30
0.0
  0
VERTEX
  5
6F3
330
6E4
100
AcDbEntity
  8
LAYER3
100
AcDbVertex
100
AcDb2dVertex
 10
202.1113444483537
 20
460.0870010800117
 30
0.0
  0
VERTEX
  5
6F4
330
6E4
100
AcDbEntity
  8
LAYER3
100
AcDbVertex
100
AcDb2dVertex
 10
201.9475395596284
 20
460.141598934626
 30
0.0
  0
VERTEX
  5
6F5
330
6E4
100
AcDbEntity
  8
LAYER3
100
AcDbVertex
100
AcDb2dVertex
 10
201.8013210213441
 20
460.2111980862373
 30
0.0
  0
VERTEX
  5
6F6
330
6E4
100
AcDbEntity
  8
LAYER3
100
AcDbVertex
100
AcDb2dVertex
 10
201.6660572207231
 20
460.2970240063423
 30
0.0
  0
VERTEX
  5
6F7
330
6E4
100
AcDbEntity
  8
LAYER3
100
AcDbVertex
100
AcDb2dVertex
 10
201.5411163485308
 20
460.398528332209
 30
0.0
  0
VERTEX
  5
6F8
330
6E4
100
AcDbEntity
  8
LAYER3
100
AcDbVertex
100
AcDb2dVertex
 10
201.4321268713732
 20
460.5111954159492
 30
0.0
  0
VERTEX
  5
6F9
330
6E4
100
AcDbEntity
  8
LAYER3
100
AcDbVertex
100
AcDb2dVertex
 10
201.3415898001452
 20
460.628499741053
 30
0.0
  0
VERTEX
  5
6FA
330
6E4
100
AcDbEntity
  8
LAYER3
100
AcDbVertex
100
AcDb2dVertex
 10
201.2692375099917
 20
460.746383423304
 30
0.0
  0
VERTEX
  5
6FB
330
6E4
100
AcDbEntity
  8
LAYER3
100
AcDbVertex
100
AcDb2dVertex
 10
201.2101335442324
 20
460.8692667431587
 30
0.0
  0
VERTEX
  5
6FC
330
6E4
100
AcDbEntity
  8
LAYER3
100
AcDbVertex
100
AcDb2dVertex
 10
201.1640537894031
 20
460.9961507267708
 30
0.0
  0
VERTEX
  5
6FD
330
6E4
100
AcDbEntity
  8
LAYER3
100
AcDbVertex
100
AcDb2dVertex
 10
201.1311490452548
 20
461.1255285687202
 30
0.0
  0
SEQEND
  5
6FE
330
6E4
100
AcDbEntity
  8
LAYER3
  0
POLYLINE
  5
6FF
330
2
100
AcDbEntity
  8
LAYER3
100
AcDb2dPolyline
 66
     1
 10
0.0
 20
0.0
 30
0.0
 70
   128
  0
VERTEX
  5
700
330
6FF
100
AcDbEntity
  8
LAYER3
100
AcDbVertex
100
AcDb2dVertex
 10
204.2284382498525
 20
461.7759272999519
 30
0.0
  0
VERTEX
  5
701
330
6FF
100
AcDbEntity
  8
LAYER3
100
AcDbVertex
100
AcDb2dVertex
 10
204.1973872101567
 20
461.7556927151436
 30
0.0
  0
VERTEX
  5
702
330
6FF
100
AcDbEntity
  8
LAYER3
100
AcDbVertex
100
AcDb2dVertex
 10
204.1669620192311
 20
461.7341730541938
 30
0.0
  0
VERTEX
  5
703
330
6FF
100
AcDbEntity
  8
LAYER3
100
AcDbVertex
100
AcDb2dVertex
 10
204.137261620786
 20
461.7114636845344
 30
0.0
  0
VERTEX
  5
704
330
6FF
100
AcDbEntity
  8
LAYER3
100
AcDbVertex
100
AcDb2dVertex
 10
204.1083837664388
 20
461.6876599735969
 30
0.0
  0
VERTEX
  5
705
330
6FF
100
AcDbEntity
  8
LAYER3
100
AcDbVertex
100
AcDb2dVertex
 10
204.0804273998997
 20
461.6628620571845
 30
0.0
  0
VERTEX
  5
706
330
6FF
100
AcDbEntity
  8
LAYER3
100
AcDbVertex
100
AcDb2dVertex
 10
204.0534920609257
 20
461.637165302729
 30
0.0
  0
VERTEX
  5
707
330
6FF
100
AcDbEntity
  8
LAYER3
100
AcDbVertex
100
AcDb2dVertex
 10
204.0276760971806
 20
461.6106674618476
 30
0.0
  0
VERTEX
  5
708
330
6FF
100
AcDbEntity
  8
LAYER3
100
AcDbVertex
100
AcDb2dVertex
 10
204.0030778563283
 20
461.5834639019722
 30
0.0
  0
VERTEX
  5
709
330
6FF
100
AcDbEntity
  8
LAYER3
100
AcDbVertex
100
AcDb2dVertex
 10
203.9797891295216
 20
461.5556571430915
 30
0.0
  0
VERTEX
  5
70A
330
6FF
100
AcDbEntity
  8
LAYER3
100
AcDbVertex
100
AcDb2dVertex
 10
203.9578248179219
 20
461.527359241938
 30
0.0
  0
VERTEX
  5
70B
330
6FF
100
AcDbEntity
  8
LAYER3
100
AcDbVertex
100
AcDb2dVertex
 10
203.9371825373433
 20
461.49870132873
 30
0.0
  0
VERTEX
  5
70C
330
6FF
100
AcDbEntity
  8
LAYER3
100
AcDbVertex
100
AcDb2dVertex
 10
203.9178587115071
 20
461.469814533686
 30
0.0
  0
VERTEX
  5
70D
330
6FF
100
AcDbEntity
  8
LAYER3
100
AcDbVertex
100
AcDb2dVertex
 10
203.8998521483204
 20
461.4408276028389
 30
0.0
  0
VERTEX
  5
70E
330
6FF
100
AcDbEntity
  8
LAYER3
100
AcDbVertex
100
AcDb2dVertex
 10
203.883161059644
 20
461.411871666407
 30
0.0
  0
VERTEX
  5
70F
330
6FF
100
AcDbEntity
  8
LAYER3
100
AcDbVertex
100
AcDb2dVertex
 10
203.8677836573384
 20
461.3830730862373
 30
0.0
  0
VERTEX
  5
710
330
6FF
100
AcDbEntity
  8
LAYER3
100
AcDbVertex
100
AcDb2dVertex
 10
203.8537175572178
 20
461.3545653767341
 30
0.0
  0
VERTEX
  5
711
330
6FF
100
AcDbEntity
  8
LAYER3
100
AcDbVertex
100
AcDb2dVertex
 10
203.8409597790501
 20
461.3264748997444
 30
0.0
  0
VERTEX
  5
712
330
6FF
100
AcDbEntity
  8
LAYER3
100
AcDbVertex
100
AcDb2dVertex
 10
203.8292695200703
 20
461.2984321064705
 30
0.0
  0
VERTEX
  5
713
330
6FF
100
AcDbEntity
  8
LAYER3
100
AcDbVertex
100
AcDb2dVertex
 10
203.8184620058796
 20
461.2701127476448
 30
0.0
  0
VERTEX
  5
714
330
6FF
100
AcDbEntity
  8
LAYER3
100
AcDbVertex
100
AcDb2dVertex
 10
203.8085396206638
 20
461.2415478176826
 30
0.0
  0
VERTEX
  5
715
330
6FF
100
AcDbEntity
  8
LAYER3
100
AcDbVertex
100
AcDb2dVertex
 10
203.7995059407017
 20
461.2127754635566
 30
0.0
  0
VERTEX
  5
716
330
6FF
100
AcDbEntity
  8
LAYER3
100
AcDbVertex
100
AcDb2dVertex
 10
203.791362158086
 20
461.1838242954964
 30
0.0
  0
VERTEX
  5
717
330
6FF
100
AcDbEntity
  8
LAYER3
100
AcDbVertex
100
AcDb2dVertex
 10
203.7841130411884
 20
461.1547300762886
 30
0.0
  0
VERTEX
  5
718
330
6FF
100
AcDbEntity
  8
LAYER3
100
AcDbVertex
100
AcDb2dVertex
 10
203.7777597821018
 20
461.1255285687202
 30
0.0
  0
SEQEND
  5
719
330
6FF
100
AcDbEntity
  8
LAYER3
  0
ARC
  5
71A
330
2
100
AcDbEntity
  8
LAYER3
100
AcDbCircle
 10
202.4544542250242
 20
464.6176662535117
 30
0.0
 40
3.349999999999836
100
AcDbArc
 50
301.9748830508228
 51
310.0251169491761
  0
CIRCLE
  5
71B
330
2
100
AcDbEntity
  8
LAYER3
100
AcDbCircle
 10
202.4544542250237
 20
381.1176662535118
 30
0.0
 40
2.6
  0
CIRCLE
  5
71C
330
2
100
AcDbEntity
  8
LAYER3
100
AcDbCircle
 10
202.4544542250238
 20
281.1176662535118
 30
0.0
 40
4.0
  0
CIRCLE
  5
71D
330
2
100
AcDbEntity
  8
LAYER3
100
AcDbCircle
 10
202.4544542250237
 20
373.1176662535118
 30
0.0
 40
4.0
  0
CIRCLE
  5
71E
330
2
100
AcDbEntity
  8
LAYER3
100
AcDbCircle
 10
202.4544542250237
 20
430.6176662535118
 30
0.0
 40
4.0
  0
CIRCLE
  5
71F
330
2
100
AcDbEntity
  8
LAYER3
100
AcDbCircle
 10
202.4544542250237
 20
331.1176662535118
 30
0.0
 40
4.0
  0
CIRCLE
  5
720
330
2
100
AcDbEntity
  8
LAYER3
100
AcDbCircle
 10
202.4544542250237
 20
220.6176662535118
 30
0.0
 40
4.75
  0
CIRCLE
  5
721
330
2
100
AcDbEntity
  8
LAYER3
100
AcDbCircle
 10
202.4544542250237
 20
464.6176662535117
 30
0.0
 40
4.75
  0
CIRCLE
  5
722
330
2
100
AcDbEntity
  8
LAYER3
100
AcDbCircle
 10
202.4544542250237
 20
250.6176662535118
 30
0.0
 40
4.75
  0
LINE
  5
723
330
2
100
AcDbEntity
  8
LAYER3
100
AcDbLine
 10
191.9544542250237
 20
477.6176662535117
 30
0.0
 11
214.4544542250242
 21
477.6176662535117
 31
0.0
  0
LINE
  5
724
330
2
100
AcDbEntity
  8
LAYER3
100
AcDbLine
 10
212.9544542250238
 20
207.6176662535118
 30
0.0
 11
191.9544542250237
 21
207.6176662535118
 31
0.0
  0
LINE
  5
725
330
2
100
AcDbEntity
  8
LAYER3
100
AcDbLine
 10
190.4544542250241
 20
207.6176662535118
 30
0.0
 11
190.4544542250241
 21
477.6176662535117
 31
0.0
  0
LINE
  5
726
330
2
100
AcDbEntity
  8
LAYER3
100
AcDbLine
 10
214.4544542250242
 20
477.6176662535117
 30
0.0
 11
214.4544542250242
 21
207.6176662535118
 31
0.0
  0
LINE
  5
727
330
2
100
AcDbEntity
  8
LAYER3
100
AcDbLine
 10
190.4544542250241
 20
477.6176662535117
 30
0.0
 11
191.9544542250237
 21
477.6176662535117
 31
0.0
  0
LINE
  5
728
330
2
100
AcDbEntity
  8
LAYER3
100
AcDbLine
 10
207.9544542250237
 20
477.6176662535117
 30
0.0
 11
209.4544542250242
 21
477.6176662535117
 31
0.0
  0
LINE
  5
729
330
2
100
AcDbEntity
  8
LAYER3
100
AcDbLine
 10
214.4544542250242
 20
207.6176662535118
 30
0.0
 11
212.9544542250238
 21
207.6176662535118
 31
0.0
  0
LINE
  5
72A
330
2
100
AcDbEntity
  8
LAYER3
100
AcDbLine
 10
191.9544542250237
 20
207.6176662535118
 30
0.0
 11
190.4544542250241
 21
207.6176662535118
 31
0.0
  0
LINE
  5
72B
330
2
100
AcDbEntity
  8
LAYER3
100
AcDbLine
 10
56.42242998026454
 20
288.6176662535117
 30
0.0
 11
75.42242998026444
 21
288.6176662535117
 31
0.0
  0
LINE
  5
72C
330
2
100
AcDbEntity
  8
LAYER3
100
AcDbLine
 10
55.42242998026455
 20
322.6176662535118
 30
0.0
 11
55.42242998026453
 21
289.6176662535117
 31
0.0
  0
ARC
  5
72D
330
2
100
AcDbEntity
  8
LAYER3
100
AcDbCircle
 10
56.42242998026453
 20
289.6176662535117
 30
0.0
 40
0.9999999999999964
100
AcDbArc
 50
180.0
 51
270.0
  0
ARC
  5
72E
330
2
100
AcDbEntity
  8
LAYER3
100
AcDbCircle
 10
56.42242998026454
 20
322.6176662535118
 30
0.0
 40
1.000000000000007
100
AcDbArc
 50
90.00000000000081
 51
180.0
  0
LINE
  5
72F
330
2
100
AcDbEntity
  8
LAYER3
100
AcDbLine
 10
75.42242998026444
 20
323.6176662535117
 30
0.0
 11
56.42242998026453
 21
323.6176662535117
 31
0.0
  0
LINE
  5
730
330
2
100
AcDbEntity
  8
LAYER3
100
AcDbLine
 10
64.08813064548249
 20
421.1176662535118
 30
0.0
 11
64.08813064548249
 21
418.6176662535117
 31
0.0
  0
LINE
  5
731
330
2
100
AcDbEntity
  8
LAYER3
100
AcDbLine
 10
68.83813064548248
 20
418.6176662535117
 30
0.0
 11
75.42242998026444
 21
418.6176662535117
 31
0.0
  0
LINE
  5
732
330
2
100
AcDbEntity
  8
LAYER3
100
AcDbLine
 10
68.83813064548246
 20
418.6176662535117
 30
0.0
 11
64.08813064548247
 21
418.6176662535117
 31
0.0
  0
LINE
  5
733
330
2
100
AcDbEntity
  8
LAYER3
100
AcDbLine
 10
68.83813064548248
 20
421.1176662535118
 30
0.0
 11
75.42242998026444
 21
421.1176662535118
 31
0.0
  0
LINE
  5
734
330
2
100
AcDbEntity
  8
LAYER3
100
AcDbLine
 10
68.83813064548246
 20
421.1176662535118
 30
0.0
 11
64.08813064548247
 21
421.1176662535118
 31
0.0
  0
LINE
  5
735
330
2
100
AcDbEntity
  8
LAYER3
100
AcDbLine
 10
64.08813064548247
 20
393.6176662535118
 30
0.0
 11
64.08813064548247
 21
391.1176662535119
 31
0.0
  0
LINE
  5
736
330
2
100
AcDbEntity
  8
LAYER3
100
AcDbLine
 10
68.83813064548248
 20
391.1176662535119
 30
0.0
 11
64.08813064548247
 21
391.1176662535119
 31
0.0
  0
LINE
  5
737
330
2
100
AcDbEntity
  8
LAYER3
100
AcDbLine
 10
68.83813064548248
 20
391.1176662535119
 30
0.0
 11
75.42242998026444
 21
391.1176662535119
 31
0.0
  0
LINE
  5
738
330
2
100
AcDbEntity
  8
LAYER3
100
AcDbLine
 10
68.83813064548248
 20
393.6176662535118
 30
0.0
 11
75.42242998026444
 21
393.6176662535118
 31
0.0
  0
LINE
  5
739
330
2
100
AcDbEntity
  8
LAYER3
100
AcDbLine
 10
68.83813064548248
 20
393.6176662535118
 30
0.0
 11
64.08813064548247
 21
393.6176662535118
 31
0.0
  0
ARC
  5
73A
330
2
100
AcDbEntity
  8
LAYER3
100
AcDbCircle
 10
39.23813064548246
 20
406.1176662535117
 30
0.0
 40
36.49999999999998
100
AcDbArc
 50
340.2232456690275
 51
352.4587650104202
  0
ARC
  5
73B
330
2
100
AcDbEntity
  8
LAYER3
100
AcDbCircle
 10
39.23813064548246
 20
406.1176662535117
 30
0.0
 40
36.49999999999999
100
AcDbArc
 50
7.541234989579709
 51
19.7767543309724
  0
ARC
  5
73C
330
2
100
AcDbEntity
  8
LAYER3
100
AcDbCircle
 10
98.43813064548243
 20
406.1176662535117
 30
0.0
 40
36.49999999999998
100
AcDbArc
 50
160.2232456690276
 51
199.7767543309724
  0
LINE
  5
73D
330
2
100
AcDbEntity
  8
LAYER3
100
AcDbLine
 10
73.58529210025189
 20
393.7676662535118
 30
0.0
 11
64.09096919071299
 21
393.7676662535118
 31
0.0
  0
LINE
  5
73E
330
2
100
AcDbEntity
  8
LAYER3
100
AcDbLine
 10
73.58529210025189
 20
418.4676662535117
 30
0.0
 11
64.09096919071299
 21
418.4676662535117
 31
0.0
  0
LINE
  5
73F
330
2
100
AcDbEntity
  8
LAYER3
100
AcDbLine
 10
120.9224299802644
 20
433.1176662535118
 30
0.0
 11
101.9197374164269
 21
433.1176662535118
 31
0.0
  0
LINE
  5
740
330
2
100
AcDbEntity
  8
LAYER3
100
AcDbLine
 10
120.9224299802644
 20
433.1176662535118
 30
0.0
 11
120.9224299802644
 21
242.6176662535118
 31
0.0
  0
LINE
  5
741
330
2
100
AcDbEntity
  8
LAYER3
100
AcDbLine
 10
120.9224299802644
 20
242.6176662535118
 30
0.0
 11
81.42242998026487
 21
242.6176662535118
 31
0.0
  0
LINE
  5
742
330
2
100
AcDbEntity
  8
LAYER3
100
AcDbLine
 10
81.42242998026487
 20
442.6176662535118
 30
0.0
 11
96.99151862208005
 21
442.6176662535118
 31
0.0
  0
CIRCLE
  5
743
330
2
100
AcDbEntity
  8
LAYER3
100
AcDbCircle
 10
95.42242998026443
 20
255.1176662535117
 30
0.0
 40
2.6
  0
CIRCLE
  5
744
330
2
100
AcDbEntity
  8
LAYER3
100
AcDbCircle
 10
115.4224299802644
 20
255.1176662535117
 30
0.0
 40
2.6
  0
LINE
  5
745
330
2
100
AcDbEntity
  8
LAYER3
100
AcDbLine
 10
110.5224299802644
 20
258.2586602184187
 30
0.0
 11
110.5224299802644
 21
248.9176662535118
 31
0.0
  0
ARC
  5
746
330
2
100
AcDbEntity
  8
LAYER3
100
AcDbCircle
 10
105.4224299802644
 20
268.1176662535118
 30
0.0
 40
11.10000000000001
100
AcDbArc
 50
297.3522329091277
 51
242.6477670908719
  0
LINE
  5
747
330
2
100
AcDbEntity
  8
LAYER3
100
AcDbLine
 10
100.3224299802645
 20
248.9176662535118
 30
0.0
 11
100.3224299802644
 21
258.2586602184187
 31
0.0
  0
ARC
  5
748
330
2
100
AcDbEntity
  8
LAYER3
100
AcDbCircle
 10
105.4224299802644
 20
248.9176662535118
 30
0.0
 40
5.099999999999997
100
AcDbArc
 50
180.0
 51
0.0
  0
ARC
  5
749
330
2
100
AcDbEntity
  8
LAYER3
100
AcDbCircle
 10
101.7738831012276
 20
432.3618525315807
 30
0.0
 40
1.000000000000001
100
AcDbArc
 50
115.0000000000006
 51
295.0000000000006
  0
LINE
  5
74A
330
2
100
AcDbEntity
  8
LAYER3
100
AcDbLine
 10
105.7609324416773
 20
433.1176662535118
 30
0.0
 11
102.1965013629683
 21
431.4555447445441
 31
0.0
  0
LINE
  5
74B
330
2
100
AcDbEntity
  8
LAYER3
100
AcDbLine
 10
96.99151862208001
 20
442.6176662535118
 30
0.0
 11
98.92242998026439
 21
442.6176662535118
 31
0.0
  0
LINE
  5
74C
330
2
100
AcDbEntity
  8
LAYER3
100
AcDbLine
 10
102.937303466801
 20
434.0077422766636
 30
0.0
 11
101.3512648394869
 21
433.2681603186173
 31
0.0
  0
LINE
  5
74D
330
2
100
AcDbEntity
  8
LAYER3
100
AcDbLine
 10
102.937303466801
 20
434.0077422766636
 30
0.0
 11
98.92242998026439
 21
442.6176662535118
 31
0.0
  0
LINE
  5
74E
330
2
100
AcDbEntity
  8
LAYER3
100
AcDbLine
 10
108.8572921675421
 20
278.6370029812182
 30
0.0
 11
108.7221192766093
 21
278.715876033828
 31
0.0
  0
LINE
  5
74F
330
2
100
AcDbEntity
  8
LAYER3
100
AcDbLine
 10
108.8572921675421
 20
278.6370029812182
 30
0.0
 11
108.8748587681924
 21
278.6671086778434
 31
0.0
  0
ARC
  5
750
330
2
100
AcDbEntity
  8
LAYER3
100
AcDbCircle
 10
115.996809615762
 20
273.1482445798612
 30
0.0
 40
2.000000000000579
100
AcDbArc
 50
137.9278257205176
 51
140.8865097776452
  0
ARC
  5
751
330
2
100
AcDbEntity
  8
LAYER3
100
AcDbCircle
 10
110.9625575309157
 20
279.6209801643117
 30
0.0
 40
1.999999999999596
100
AcDbArc
 50
269.9845122790364
 51
275.2134808376987
  0
ARC
  5
752
330
2
100
AcDbEntity
  8
LAYER3
100
AcDbCircle
 10
105.4224299802644
 20
270.1179813364409
 30
0.0
 40
9.000000000001366
100
AcDbArc
 50
88.87569012320991
 51
91.12430987694484
  0
CIRCLE
  5
753
330
2
100
AcDbEntity
  8
LAYER3
100
AcDbCircle
 10
105.4224299802644
 20
340.6176662535117
 30
0.0
 40
4.75
  0
CIRCLE
  5
754
330
2
100
AcDbEntity
  8
LAYER3
100
AcDbCircle
 10
105.4224299802644
 20
340.6176662535117
 30
0.0
 40
5.099999999999999
  0
LINE
  5
755
330
2
100
AcDbEntity
  8
LAYER3
100
AcDbLine
 10
75.42242998026438
 20
477.6176662535117
 30
0.0
 11
75.42242998026445
 21
207.6176662535118
 31
0.0
  0
LINE
  5
756
330
2
100
AcDbEntity
  8
LAYER3
100
AcDbLine
 10
75.42242998026438
 20
477.6176662535117
 30
0.0
 11
81.42242998026487
 21
477.6176662535117
 31
0.0
  0
LINE
  5
757
330
2
100
AcDbEntity
  8
LAYER3
100
AcDbLine
 10
81.42242998026487
 20
207.6176662535118
 30
0.0
 11
75.42242998026445
 21
207.6176662535118
 31
0.0
  0
LINE
  5
758
330
2
100
AcDbEntity
  8
LAYER3
100
AcDbLine
 10
118.0224299802643
 20
431.3676662535118
 30
0.0
 11
113.5224299802644
 21
431.3676662535118
 31
0.0
  0
LINE
  5
759
330
2
100
AcDbEntity
  8
LAYER3
100
AcDbLine
 10
118.0224299802643
 20
433.1176662535118
 30
0.0
 11
118.0224299802643
 21
431.3676662535118
 31
0.0
  0
LINE
  5
75A
330
2
100
AcDbEntity
  8
LAYER3
100
AcDbLine
 10
113.5224299802644
 20
431.3676662535118
 30
0.0
 11
113.5224299802644
 21
433.1176662535118
 31
0.0
  0
LINE
  5
75B
330
2
100
AcDbEntity
  8
LAYER3
100
AcDbLine
 10
118.0224299802643
 20
433.1176662535118
 30
0.0
 11
118.0224299802643
 21
433.1176662535118
 31
0.0
  0
LINE
  5
75C
330
2
100
AcDbEntity
  8
LAYER3
100
AcDbLine
 10
101.9197374164269
 20
433.1176662535118
 30
0.0
 11
101.9197374164269
 21
431.3725464521807
 31
0.0
  0
ENDSEC
  0
SECTION
  2
OBJECTS
  0
DICTIONARY
  5
9
330
0
100
AcDbDictionary
281
     1
  3
ACAD_COLOR
350
51
  3
ACAD_DETAILVIEWSTYLE
350
77F
  3
ACAD_FIELDLIST
350
7A9
  3
ACAD_GROUP
350
3E
  3
ACAD_LAYOUT
350
8
  3
ACAD_MATERIAL
350
16
  3
ACAD_MLEADERSTYLE
350
54
  3
ACAD_MLINESTYLE
350
3F
  3
ACAD_PLOTSETTINGS
350
40
  3
ACAD_PLOTSTYLENAME
350
14
  3
ACAD_SCALELIST
350
52
  3
ACAD_SECTIONVIEWSTYLE
350
78D
  3
ACAD_TABLESTYLE
350
53
  3
ACAD_VISUALSTYLE
350
2F
  3
ACDB_RECOMPOSE_DATA
350
7DE
  3
AcDbVariableDictionary
350
7D2
  3
AcmDictionary
350
76E
  3
AMG
350
75F
  0
DICTIONARY
  5
1F
330
F
100
AcDbDictionary
280
     1
281
     1
  3
ACAD_LAYERFILTERS
360
20
  3
ACAD_LAYERSTATES
360
21
  3
ACLYDICTIONARY
360
22
  0
DICTIONARY
  5
11
330
10
100
AcDbDictionary
280
     1
281
     1
  3
ADSK_XREC_LAYER_RECONCILED
360
12
  0
DICTIONARY
  5
AE
330
AD
100
AcDbDictionary
280
     1
281
     1
  3
ADSK_XREC_LAYER_RECONCILED
360
AF
  0
DICTIONARY
  5
8A
330
89
100
AcDbDictionary
280
     1
281
     1
  3
ADSK_XREC_LAYER_RECONCILED
360
8B
  0
DICTIONARY
  5
71
330
70
100
AcDbDictionary
280
     1
281
     1
  3
ADSK_XREC_LAYER_RECONCILED
360
72
  0
DICTIONARY
  5
9E
330
9D
100
AcDbDictionary
280
     1
281
     1
  3
ADSK_XREC_LAYER_RECONCILED
360
9F
  0
DICTIONARY
  5
56
330
55
100
AcDbDictionary
280
     1
281
     1
  3
ADSK_XREC_LAYER_RECONCILED
360
57
  0
DICTIONARY
  5
98
330
97
100
AcDbDictionary
280
     1
281
     1
  3
ADSK_XREC_LAYER_RECONCILED
360
99
  0
DICTIONARY
  5
85
330
84
100
AcDbDictionary
280
     1
281
     1
  0
DICTIONARY
  5
3
330
2
100
AcDbDictionary
280
     1
281
     1
  3
ACAD_SORTENTS
360
75D
  0
DICTIONARY
  5
51
102
{ACAD_REACTORS
330
9
102
}
330
9
100
AcDbDictionary
281
     1
  0
DICTIONARY
  5
77F
102
{ACAD_REACTORS
330
9
102
}
330
9
100
AcDbDictionary
281
     1
  3
Metric50
350
78A
  0
FIELDLIST
  5
7A9
102
{ACAD_REACTORS
330
9
102
}
330
9
100
AcDbIdSet
 90
        6
330
782
330
783
330
784
330
790
330
791
330
792
100
AcDbFieldList
  0
DICTIONARY
  5
3E
102
{ACAD_REACTORS
330
9
102
}
330
9
100
AcDbDictionary
281
     1
  0
DICTIONARY
  5
8
102
{ACAD_REACTORS
330
9
102
}
330
9
100
AcDbDictionary
281
     1
  3
Layout1
350
E
  3
Model
350
7
  0
DICTIONARY
  5
16
102
{ACAD_REACTORS
330
9
102
}
330
9
100
AcDbDictionary
281
     1
  3
ByBlock
350
49
  3
ByLayer
350
41
  3
Global
350
15
  0
DICTIONARY
  5
54
102
{ACAD_REACTORS
330
9
102
}
330
9
100
AcDbDictionary
281
     1
  0
DICTIONARY
  5
3F
102
{ACAD_REACTORS
330
9
102
}
330
9
100
AcDbDictionary
281
     1
  3
STANDARD
350
59
  0
DICTIONARY
  5
40
102
{ACAD_REACTORS
330
9
102
}
330
9
100
AcDbDictionary
281
     1
  0
ACDBDICTIONARYWDFLT
  5
14
102
{ACAD_REACTORS
330
9
102
}
330
9
100
AcDbDictionary
281
     1
  3
Normal
350
13
100
AcDbDictionaryWithDefault
340
13
  0
DICTIONARY
  5
52
102
{ACAD_REACTORS
330
9
102
}
330
9
100
AcDbDictionary
281
     1
  3
A0
350
5E
  3
A1
350
5F
  3
A2
350
60
  3
A3
350
61
  3
A4
350
62
  3
A5
350
63
  3
A6
350
64
  3
A7
350
65
  3
A8
350
66
  3
A9
350
67
  3
B0
350
68
  3
B1
350
69
  3
B2
350
6A
  3
B3
350
6B
  3
B4
350
6C
  3
B5
350
6D
  3
B6
350
6E
  0
DICTIONARY
  5
78D
102
{ACAD_REACTORS
330
9
102
}
330
9
100
AcDbDictionary
281
     1
  3
Metric50
350
799
  0
DICTIONARY
  5
53
102
{ACAD_REACTORS
330
9
102
}
330
9
100
AcDbDictionary
281
     1
  3
Standard
350
5A
  0
DICTIONARY
  5
2F
102
{ACAD_REACTORS
330
9
102
}
330
9
100
AcDbDictionary
281
     1
  3
2dWireframe
350
2E
  3
3dWireframe
350
5D
  3
Realistic
350
5C
  0
XRECORD
  5
7DE
102
{ACAD_REACTORS
330
9
102
}
330
9
100
AcDbXrecord
280
     1
 90
        1
330
5A
330
6F
  0
DICTIONARY
  5
7D2
102
{ACAD_REACTORS
330
9
102
}
330
9
100
AcDbDictionary
281
     1
  3
CANNOSCALE
350
7D8
  3
CMLEADERSTYLE
350
7D4
  3
CTABLESTYLE
350
7D3
  3
CVIEWDETAILSTYLE
350
7D5
  3
CVIEWSECTIONSTYLE
350
7D6
  3
LAYEREVAL
350
7DA
  3
LAYERNOTIFY
350
7DB
  3
LIGHTINGUNITS
350
7D9
  3
MSLTSCALE
350
7D7
  0
DICTIONARY
  5
76E
102
{ACAD_REACTORS
330
9
102
}
330
9
100
AcDbDictionary
281
     1
  3
AcmStdDictionary
350
76F
  0
DICTIONARY
  5
75F
102
{ACAD_REACTORS
330
9
102
}
330
9
100
AcDbDictionary
281
     1
  3
AcMgSettings
350
769
  0
DICTIONARY
  5
20
102
{ACAD_REACTORS
330
1F
102
}
330
1F
100
AcDbDictionary
281
     1
  0
DICTIONARY
  5
21
102
{ACAD_REACTORS
330
1F
102
}
330
1F
100
AcDbDictionary
281
     1
  0
DICTIONARY
  5
22
102
{ACAD_REACTORS
330
1F
102
}
330
1F
100
AcDbDictionary
281
     1
1001
ACAD
1000
<All
  0
XRECORD
  5
12
102
{ACAD_REACTORS
330
11
102
}
330
11
100
AcDbXrecord
280
     1
290
     1
  0
XRECORD
  5
AF
102
{ACAD_REACTORS
330
AE
102
}
330
AE
100
AcDbXrecord
280
     1
290
     1
  0
XRECORD
  5
8B
102
{ACAD_REACTORS
330
8A
102
}
330
8A
100
AcDbXrecord
280
     1
290
     1
  0
XRECORD
  5
72
102
{ACAD_REACTORS
330
71
102
}
330
71
100
AcDbXrecord
280
     1
290
     1
  0
XRECORD
  5
9F
102
{ACAD_REACTORS
330
9E
102
}
330
9E
100
AcDbXrecord
280
     1
290
     1
  0
XRECORD
  5
57
102
{ACAD_REACTORS
330
56
102
}
330
56
100
AcDbXrecord
280
     1
290
     1
  0
XRECORD
  5
99
102
{ACAD_REACTORS
330
98
102
}
330
98
100
AcDbXrecord
280
     1
290
     1
  0
SORTENTSTABLE
  5
75D
102
{ACAD_REACTORS
330
3
102
}
330
3
100
AcDbSortentsTable
330
2
331
21E
  5
23B
331
1DF
  5
5EE
331
21A
  5
23F
331
216
  5
243
331
1DB
  5
640
331
212
  5
247
331
59D
  5
1E2
331
B4
  5
744
331
12A
  5
730
331
B0
  5
748
331
745
  5
B3
331
AC
  5
749
331
741
  5
C3
331
73D
  5
F9
331
739
  5
115
331
1D7
  5
692
331
194
  5
727
331
1D3
  5
6E4
331
20E
  5
24B
331
24D
  5
20C
331
249
  5
210
331
1CF
  5
71C
331
20A
  5
269
331
206
  5
2BB
331
245
  5
214
331
1CB
  5
720
331
202
  5
327
331
241
  5
218
331
2BA
  5
207
331
2F1
  5
204
331
54A
  5
1E7
331
11A
  5
734
331
DF
  5
73F
331
116
  5
738
331
735
  5
119
331
9C
  5
74A
331
151
  5
72D
331
731
  5
129
331
72D
  5
151
331
729
  5
17A
331
1FE
  5
379
331
23D
  5
21C
331
239
  5
220
331
1FA
  5
3CB
331
235
  5
224
331
1F6
  5
403
331
1F2
  5
455
331
581
  5
1E4
331
231
  5
228
331
5B8
  5
1E1
331
35E
  5
1FF
331
94
  5
74F
331
90
  5
753
331
106
  5
73C
331
725
  5
1A2
331
8C
  5
757
331
88
  5
758
331
721
  5
1CA
331
71D
  5
1CE
331
75C
  5
6F
331
455
  5
1F2
331
758
  5
88
331
1EE
  5
4C1
331
22D
  5
22C
331
1AF
  5
724
331
1EA
  5
513
331
229
  5
230
331
225
  5
234
331
5EF
  5
1DE
331
1E6
  5
565
331
1E2
  5
59D
331
221
  5
238
331
52E
  5
1E9
331
395
  5
1FC
331
625
  5
1DC
331
403
  5
1F6
331
C3
  5
741
331
754
  5
8F
331
750
  5
93
331
74C
  5
9A
331
748
  5
B0
331
439
  5
1F4
331
21D
  5
23C
331
1DE
  5
5EF
331
219
  5
240
331
1DA
  5
65B
331
215
  5
244
331
565
  5
1E6
331
30C
  5
203
331
211
  5
248
331
343
  5
200
331
59C
  5
1E3
331
5D3
  5
1E0
331
379
  5
1FE
331
B3
  5
745
331
129
  5
731
331
744
  5
B4
331
740
  5
D2
331
73
  5
75B
331
73C
  5
106
331
470
  5
1F1
331
738
  5
116
331
1D6
  5
6AD
331
1D2
  5
6FF
331
20D
  5
24C
331
24C
  5
20D
331
248
  5
211
331
1CE
  5
71D
331
209
  5
284
331
205
  5
2D6
331
244
  5
215
331
1CA
  5
721
331
60A
  5
1DD
331
201
  5
342
331
240
  5
219
331
3B0
  5
1FB
331
3E7
  5
1F8
331
640
  5
1DB
331
6F
  5
75C
331
119
  5
735
331
115
  5
739
331
734
  5
11A
331
9B
  5
74B
331
730
  5
12A
331
72C
  5
152
331
728
  5
187
331
187
  5
728
331
1FD
  5
394
331
23C
  5
21D
331
238
  5
221
331
1F9
  5
3E6
331
1F5
  5
41E
331
234
  5
225
331
1F1
  5
470
331
327
  5
202
331
580
  5
1E5
331
230
  5
229
331
677
  5
1D8
331
41E
  5
1F5
331
93
  5
750
331
D2
  5
740
331
8F
  5
754
331
144
  5
72E
331
724
  5
1AF
331
720
  5
1CB
331
71C
  5
1CF
331
75B
  5
73
331
454
  5
1F3
331
48B
  5
1F0
331
1ED
  5
4DC
331
22C
  5
22D
331
228
  5
231
331
1E9
  5
52E
331
224
  5
235
331
5EE
  5
1DF
331
1E5
  5
580
331
1E1
  5
5B8
331
220
  5
239
331
394
  5
1FD
331
3CB
  5
1FA
331
87
  5
759
331
65B
  5
1DA
331
402
  5
1F7
331
83
  5
75A
331
692
  5
1D7
331
757
  5
8C
331
F9
  5
73D
331
753
  5
90
331
74F
  5
94
331
74B
  5
9B
331
1A2
  5
725
331
21C
  5
23D
331
1DD
  5
60A
331
218
  5
241
331
1D9
  5
676
331
214
  5
245
331
210
  5
249
331
342
  5
201
331
6C9
  5
1D4
331
B6
  5
742
331
B2
  5
746
331
747
  5
B1
331
743
  5
B5
331
73F
  5
DF
331
73B
  5
113
331
1D5
  5
6C8
331
1D1
  5
71A
331
20C
  5
24D
331
24B
  5
20E
331
247
  5
212
331
1CD
  5
71E
331
208
  5
29F
331
1C9
  5
722
331
204
  5
2F1
331
243
  5
216
331
200
  5
343
331
3E6
  5
1F9
331
15F
  5
72B
331
11C
  5
732
331
118
  5
736
331
737
  5
117
331
114
  5
73A
331
733
  5
11B
331
9A
  5
74C
331
72F
  5
137
331
4A6
  5
1EF
331
72B
  5
15F
331
4DD
  5
1EC
331
23F
  5
21A
331
1FC
  5
395
331
23B
  5
21E
331
237
  5
222
331
1F8
  5
3E7
331
1F4
  5
439
331
233
  5
226
331
17A
  5
729
331
1F0
  5
48B
331
269
  5
20A
331
676
  5
1D9
331
6AD
  5
1D6
331
96
  5
74D
331
6E4
  5
1D3
331
92
  5
751
331
727
  5
194
331
8E
  5
755
331
723
  5
1BC
331
71F
  5
1CC
331
71B
  5
1D0
331
75A
  5
83
331
4C1
  5
1EE
331
22F
  5
22A
331
1EC
  5
4DD
331
22B
  5
22E
331
227
  5
232
331
1E8
  5
52F
331
1E4
  5
581
331
223
  5
236
331
1E0
  5
5D3
331
137
  5
72F
331
756
  5
8D
331
752
  5
91
331
74E
  5
95
331
74A
  5
9C
331
4F8
  5
1EB
331
21F
  5
23A
331
21B
  5
23E
331
217
  5
242
331
1DC
  5
625
331
1D8
  5
677
331
213
  5
246
331
6C8
  5
1D5
331
B5
  5
743
331
B1
  5
747
331
EC
  5
73E
331
746
  5
B2
331
742
  5
B6
331
73E
  5
EC
331
73A
  5
114
331
195
  5
726
331
1D4
  5
6C9
331
20F
  5
24A
331
24A
  5
20F
331
1D0
  5
71B
331
20B
  5
268
331
246
  5
213
331
1CC
  5
71F
331
284
  5
209
331
207
  5
2BA
331
203
  5
30C
331
242
  5
217
331
2BB
  5
206
331
6FF
  5
1D2
331
11B
  5
733
331
117
  5
737
331
736
  5
118
331
113
  5
73B
331
152
  5
72C
331
732
  5
11C
331
72E
  5
144
331
72A
  5
16D
331
4DC
  5
1ED
331
513
  5
1EA
331
1FF
  5
35E
331
23E
  5
21B
331
1FB
  5
3B0
331
23A
  5
21F
331
236
  5
223
331
1BC
  5
723
331
1F7
  5
402
331
1F3
  5
454
331
232
  5
227
331
268
  5
20B
331
95
  5
74E
331
91
  5
752
331
726
  5
195
331
8D
  5
756
331
722
  5
1C9
331
71E
  5
1CD
331
71A
  5
1D1
331
759
  5
87
331
1EF
  5
4A6
331
22E
  5
22B
331
1EB
  5
4F8
331
22A
  5
22F
331
226
  5
233
331
16D
  5
72A
331
1E7
  5
54A
331
1E3
  5
59C
331
222
  5
237
331
29F
  5
208
331
2D6
  5
205
331
52F
  5
1E8
331
755
  5
8E
331
751
  5
92
331
74D
  5
96
331
749
  5
AC
  0
ACDBDETAILVIEWSTYLE
  5
78A
102
{ACAD_XDICTIONARY
360
7E5
102
}
102
{ACAD_REACTORS
330
77F
330
789
102
}
330
77F
100
AcDbModelDocViewStyle
 70
     0
  3
Metric50
290
     0
100
AcDbDetailViewStyle
 70
     0
 71
     0
 90
        3
 71
     1
340
25
 62
   256
 40
5.0
340
0
 62
   256
 40
5.0
300

 40
0.0
280
     1
 71
     2
340
1E
 90
       25
 62
   256
 71
     3
340
25
 62
   256
 40
5.0
 90
        0
 40
15.0
 90
        1
300
%<\AcVar ViewDetailId>% (%<\AcVar ViewScale \f "%sn">%)
 71
     4
340
1E
 90
       25
 62
   256
340
1E
 90
       25
 62
   256
280
     0
  0
LAYOUT
  5
E
102
{ACAD_REACTORS
330
8
102
}
330
8
100
AcDbPlotSettings
  1

  2
\\mslklsv1\MSLKLP05
  4

  6

 40
0.0
 41
0.0
 42
0.0
 43
0.0
 44
0.0
 45
0.0
 46
0.0
 47
0.0
 48
0.0
 49
0.0
140
0.0
141
0.0
142
1.0
143
1.0
 70
   688
 72
     0
 73
     0
 74
     5
  7
Katalog 09.ctb
 75
    16
147
1.0
 76
     0
 77
     2
 78
   300
148
0.0
149
0.0
100
AcDbLayout
  1
Layout1
 70
     1
 71
     1
 10
0.0
 20
0.0
 11
12.0
 21
9.0
 12
0.0
 22
0.0
 32
0.0
 14
1.000000000000000E+20
 24
1.000000000000000E+20
 34
1.000000000000000E+20
 15
-1.000000000000000E+20
 25
-1.000000000000000E+20
 35
-1.000000000000000E+20
146
0.0
 13
0.0
 23
0.0
 33
0.0
 16
1.0
 26
0.0
 36
0.0
 17
0.0
 27
1.0
 37
0.0
 76
     0
330
B
  0
LAYOUT
  5
7
102
{ACAD_REACTORS
330
8
102
}
330
8
100
AcDbPlotSettings
  1

  2
\\mslklsv1\MSLKLP05
  4
A4
  6

 40
6.805083274841308
 41
5.027085304260253
 42
6.805084228515625
 43
5.027069091796875
 44
209.9733276367187
 45
296.9683227539062
 46
0.0
 47
0.0
 48
0.0
 49
0.0
140
0.0
141
0.0
142
1.0
143
5.211535630019419
 70
 11952
 72
     1
 73
     1
 74
     0
  7
Katalog 09.ctb
 75
     0
147
0.1918820230720122
 76
     0
 77
     2
 78
   300
148
1217.818285113836
149
22.1189732997434
100
AcDbLayout
  1
Model
 70
     1
 71
     0
 10
0.0
 20
0.0
 11
12.0
 21
9.0
 12
0.0
 22
0.0
 32
0.0
 14
0.0
 24
0.0
 34
0.0
 15
0.0
 25
0.0
 35
0.0
146
0.0
 13
0.0
 23
0.0
 33
0.0
 16
1.0
 26
0.0
 36
0.0
 17
0.0
 27
1.0
 37
0.0
 76
     0
330
2
331
2D
1001
ACAD_PSEXT
1000
\\mslklsv1\MSLKLP05
1000
HP LaserJet 5000 Series PCL
1000
CAD
1000
HP LaserJet 5000N
1070
     0
  0
MATERIAL
  5
49
102
{ACAD_XDICTIONARY
360
4A
102
}
102
{ACAD_REACTORS
330
16
102
}
330
16
100
AcDbMaterial
  1
ByBlock
 72
     0
 43
0.0208333333333333
 43
0.0
 43
0.0
 43
0.0
 43
0.0
 43
0.0208333333333333
 43
0.0
 43
0.0
 43
0.0
 43
0.0
 43
1.0
 43
0.0
 43
0.0
 43
0.0
 43
0.0
 43
1.0
 77
     0
 47
0.0208333333333333
 47
0.0
 47
0.0
 47
0.0
 47
0.0
 47
0.0208333333333333
 47
0.0
 47
0.0
 47
0.0
 47
0.0
 47
1.0
 47
0.0
 47
0.0
 47
0.0
 47
0.0
 47
1.0
171
     0
 49
0.0208333333333333
 49
0.0
 49
0.0
 49
0.0
 49
0.0
 49
0.0208333333333333
 49
0.0
 49
0.0
 49
0.0
 49
0.0
 49
1.0
 49
0.0
 49
0.0
 49
0.0
 49
0.0
 49
1.0
175
     0
142
0.0208333333333333
142
0.0
142
0.0
142
0.0
142
0.0
142
0.0208333333333333
142
0.0
142
0.0
142
0.0
142
0.0
142
1.0
142
0.0
142
0.0
142
0.0
142
0.0
142
1.0
179
     0
144
0.0208333333333333
144
0.0
144
0.0
144
0.0
144
0.0
144
0.0208333333333333
144
0.0
144
0.0
144
0.0
144
0.0
144
1.0
144
0.0
144
0.0
144
0.0
144
0.0
144
1.0
147
0.0208333333333333
147
0.0
147
0.0
147
0.0
147
0.0
147
0.0208333333333333
147
0.0
147
0.0
147
0.0
147
0.0
147
1.0
147
0.0
147
0.0
147
0.0
147
0.0
147
1.0
  0
MATERIAL
  5
41
102
{ACAD_XDICTIONARY
360
42
102
}
102
{ACAD_REACTORS
330
16
102
}
330
16
100
AcDbMaterial
  1
ByLayer
 72
     0
 43
0.0208333333333333
 43
0.0
 43
0.0
 43
0.0
 43
0.0
 43
0.0208333333333333
 43
0.0
 43
0.0
 43
0.0
 43
0.0
 43
1.0
 43
0.0
 43
0.0
 43
0.0
 43
0.0
 43
1.0
 77
     0
 47
0.0208333333333333
 47
0.0
 47
0.0
 47
0.0
 47
0.0
 47
0.0208333333333333
 47
0.0
 47
0.0
 47
0.0
 47
0.0
 47
1.0
 47
0.0
 47
0.0
 47
0.0
 47
0.0
 47
1.0
171
     0
 49
0.0208333333333333
 49
0.0
 49
0.0
 49
0.0
 49
0.0
 49
0.0208333333333333
 49
0.0
 49
0.0
 49
0.0
 49
0.0
 49
1.0
 49
0.0
 49
0.0
 49
0.0
 49
0.0
 49
1.0
175
     0
142
0.0208333333333333
142
0.0
142
0.0
142
0.0
142
0.0
142
0.0208333333333333
142
0.0
142
0.0
142
0.0
142
0.0
142
1.0
142
0.0
142
0.0
142
0.0
142
0.0
142
1.0
179
     0
144
0.0208333333333333
144
0.0
144
0.0
144
0.0
144
0.0
144
0.0208333333333333
144
0.0
144
0.0
144
0.0
144
0.0
144
1.0
144
0.0
144
0.0
144
0.0
144
0.0
144
1.0
147
0.0208333333333333
147
0.0
147
0.0
147
0.0
147
0.0
147
0.0208333333333333
147
0.0
147
0.0
147
0.0
147
0.0
147
1.0
147
0.0
147
0.0
147
0.0
147
0.0
147
1.0
  0
MATERIAL
  5
15
102
{ACAD_XDICTIONARY
360
17
102
}
102
{ACAD_REACTORS
330
16
102
}
330
16
100
AcDbMaterial
  1
Global
 72
     0
 43
0.0208333333333333
 43
0.0
 43
0.0
 43
0.0
 43
0.0
 43
0.0208333333333333
 43
0.0
 43
0.0
 43
0.0
 43
0.0
 43
1.0
 43
0.0
 43
0.0
 43
0.0
 43
0.0
 43
1.0
 77
     0
 47
0.0208333333333333
 47
0.0
 47
0.0
 47
0.0
 47
0.0
 47
0.0208333333333333
 47
0.0
 47
0.0
 47
0.0
 47
0.0
 47
1.0
 47
0.0
 47
0.0
 47
0.0
 47
0.0
 47
1.0
171
     0
 49
0.0208333333333333
 49
0.0
 49
0.0
 49
0.0
 49
0.0
 49
0.0208333333333333
 49
0.0
 49
0.0
 49
0.0
 49
0.0
 49
1.0
 49
0.0
 49
0.0
 49
0.0
 49
0.0
 49
1.0
175
     0
142
0.0208333333333333
142
0.0
142
0.0
142
0.0
142
0.0
142
0.0208333333333333
142
0.0
142
0.0
142
0.0
142
0.0
142
1.0
142
0.0
142
0.0
142
0.0
142
0.0
142
1.0
179
     0
144
0.0208333333333333
144
0.0
144
0.0
144
0.0
144
0.0
144
0.0208333333333333
144
0.0
144
0.0
144
0.0
144
0.0
144
1.0
144
0.0
144
0.0
144
0.0
144
0.0
144
1.0
147
0.0208333333333333
147
0.0
147
0.0
147
0.0
147
0.0
147
0.0208333333333333
147
0.0
147
0.0
147
0.0
147
0.0
147
1.0
147
0.0
147
0.0
147
0.0
147
0.0
147
1.0
  0
MLINESTYLE
  5
59
102
{ACAD_REACTORS
330
3F
102
}
330
3F
100
AcDbMlineStyle
  2
STANDARD
 70
     0
  3

 62
     0
 51
90.0
 52
90.0
 71
     2
 49
0.5
 62
   256
  6
BYLAYER
 49
-0.5
 62
   256
  6
BYLAYER
  0
ACDBPLACEHOLDER
  5
13
102
{ACAD_REACTORS
330
14
102
}
330
14
  0
SCALE
  5
5E
102
{ACAD_REACTORS
330
52
102
}
330
52
100
AcDbScale
 70
     0
300
1:1
140
1.0
141
1.0
290
     1
  0
SCALE
  5
5F
102
{ACAD_REACTORS
330
52
102
}
330
52
100
AcDbScale
 70
     0
300
1:2
140
1.0
141
2.0
290
     0
  0
SCALE
  5
60
102
{ACAD_REACTORS
330
52
102
}
330
52
100
AcDbScale
 70
     0
300
1:4
140
1.0
141
4.0
290
     0
  0
SCALE
  5
61
102
{ACAD_REACTORS
330
52
102
}
330
52
100
AcDbScale
 70
     0
300
1:5
140
1.0
141
5.0
290
     0
  0
SCALE
  5
62
102
{ACAD_REACTORS
330
52
102
}
330
52
100
AcDbScale
 70
     0
300
1:8
140
1.0
141
8.0
290
     0
  0
SCALE
  5
63
102
{ACAD_REACTORS
330
52
102
}
330
52
100
AcDbScale
 70
     0
300
1:10
140
1.0
141
10.0
290
     0
  0
SCALE
  5
64
102
{ACAD_REACTORS
330
52
102
}
330
52
100
AcDbScale
 70
     0
300
1:16
140
1.0
141
16.0
290
     0
  0
SCALE
  5
65
102
{ACAD_REACTORS
330
52
102
}
330
52
100
AcDbScale
 70
     0
300
1:20
140
1.0
141
20.0
290
     0
  0
SCALE
  5
66
102
{ACAD_REACTORS
330
52
102
}
330
52
100
AcDbScale
 70
     0
300
1:30
140
1.0
141
30.0
290
     0
  0
SCALE
  5
67
102
{ACAD_REACTORS
330
52
102
}
330
52
100
AcDbScale
 70
     0
300
1:40
140
1.0
141
40.0
290
     0
  0
SCALE
  5
68
102
{ACAD_REACTORS
330
52
102
}
330
52
100
AcDbScale
 70
     0
300
1:50
140
1.0
141
50.0
290
     0
  0
SCALE
  5
69
102
{ACAD_REACTORS
330
52
102
}
330
52
100
AcDbScale
 70
     0
300
1:100
140
1.0
141
100.0
290
     0
  0
SCALE
  5
6A
102
{ACAD_REACTORS
330
52
102
}
330
52
100
AcDbScale
 70
     0
300
2:1
140
2.0
141
1.0
290
     0
  0
SCALE
  5
6B
102
{ACAD_REACTORS
330
52
102
}
330
52
100
AcDbScale
 70
     0
300
4:1
140
4.0
141
1.0
290
     0
  0
SCALE
  5
6C
102
{ACAD_REACTORS
330
52
102
}
330
52
100
AcDbScale
 70
     0
300
8:1
140
8.0
141
1.0
290
     0
  0
SCALE
  5
6D
102
{ACAD_REACTORS
330
52
102
}
330
52
100
AcDbScale
 70
     0
300
10:1
140
10.0
141
1.0
290
     0
  0
SCALE
  5
6E
102
{ACAD_REACTORS
330
52
102
}
330
52
100
AcDbScale
 70
     0
300
100:1
140
100.0
141
1.0
290
     0
  0
ACDBSECTIONVIEWSTYLE
  5
799
102
{ACAD_XDICTIONARY
360
7E7
102
}
102
{ACAD_REACTORS
330
78D
330
798
102
}
330
78D
100
AcDbModelDocViewStyle
 70
     0
  3
Metric50
290
     0
100
AcDbSectionViewStyle
 70
     0
 71
     0
 90
      102
 71
     1
340
25
 62
   256
 40
5.0
340
0
340
0
 62
   256
 40
5.0
300
I, O, Q, S, X, Z
 40
10.0
 90
        0
 40
2.5
 90
        0
 71
     2
340
1E
 90
       25
 62
   256
340
1E
 90
       50
 62
   256
 40
5.0
 40
2.5
 40
5.0
 71
     3
340
25
 62
   256
 40
5.0
 90
        0
 40
15.0
 90
        1
300
%<\AcVar ViewSectionStartId>%-%<\AcVar ViewSectionEndId>% (%<\AcVar ViewScale \f "%sn">%)
 71
     4
 62
   256
 62
   257
300
ANSI31
 40
1.0
 90
        0
290
     0
290
     0
 90
        6
 40
0.0
 40
1.570796326794896
 40
0.2617993877991494
 40
1.308996938995747
 40
-0.2617993877991494
 40
1.832595714594046
  0
TABLESTYLE
  5
5A
102
{ACAD_XDICTIONARY
360
5B
102
}
102
{ACAD_REACTORS
330
53
102
}
330
53
100
AcDbTableStyle
280
     0
  3
Standard
 70
     0
 71
     0
 40
1.5
 41
1.5
280
     0
281
     0
  7
STANDARD
140
4.5
170
     2
 62
     0
 63
     7
283
     0
 90
        4
 91
        0
  1

274
    -2
284
     1
 64
     0
275
    -2
285
     1
 65
     0
276
    -2
286
     1
 66
     0
277
    -2
287
     1
 67
     0
278
    -2
288
     1
 68
     0
279
    -2
289
     1
 69
     0
  7
STANDARD
140
6.0
170
     5
 62
     0
 63
     7
283
     0
 90
        4
 91
        0
  1

274
    -2
284
     1
 64
     0
275
    -2
285
     1
 65
     0
276
    -2
286
     1
 66
     0
277
    -2
287
     1
 67
     0
278
    -2
288
     1
 68
     0
279
    -2
289
     1
 69
     0
  7
STANDARD
140
4.5
170
     5
 62
     0
 63
     7
283
     0
 90
        4
 91
        0
  1

274
    -2
284
     1
 64
     0
275
    -2
285
     1
 65
     0
276
    -2
286
     1
 66
     0
277
    -2
287
     1
 67
     0
278
    -2
288
     1
 68
     0
279
    -2
289
     1
 69
     0
  0
VISUALSTYLE
  5
2E
102
{ACAD_XDICTIONARY
360
7DF
102
}
102
{ACAD_REACTORS
330
2F
102
}
330
2F
100
AcDbVisualStyle
  2
2dWireframe
 70
     4
177
     2
291
     0
 71
     0
176
     1
 72
     2
176
     1
 73
     0
176
     1
 90
        0
176
     1
 40
0.6
176
     1
 41
30.0
176
     1
 63
     7
421
 16777215
176
     1
 74
     1
176
     1
 91
        4
176
     1
 64
     7
176
     1
 65
   257
176
     1
 75
     1
176
     1
175
     1
176
     1
 42
1.0
176
     1
 92
        0
176
     1
 66
   257
176
     1
 43
1.0
176
     1
 76
     1
176
     1
 77
     6
176
     1
 78
     2
176
     1
 67
     7
176
     1
 79
     5
176
     1
170
     0
176
     1
171
     0
176
     1
290
     0
176
     1
 93
        1
176
     1
 44
0.0
176
     1
173
     0
176
     1
1001
ACAD
1000
AcDbSavedByObjectVersion
1070
     0
  0
VISUALSTYLE
  5
5D
102
{ACAD_XDICTIONARY
360
7E3
102
}
102
{ACAD_REACTORS
330
2F
102
}
330
2F
100
AcDbVisualStyle
  2
3dWireframe
 70
     5
177
     2
291
     0
 71
     0
176
     1
 72
     2
176
     1
 73
     0
176
     1
 90
        0
176
     1
 40
0.6
176
     1
 41
30.0
176
     1
 63
     7
421
 16777215
176
     1
 74
     1
176
     1
 91
        4
176
     1
 64
     7
176
     1
 65
   257
176
     1
 75
     1
176
     1
175
     1
176
     1
 42
1.0
176
     1
 92
        0
176
     1
 66
   257
176
     1
 43
1.0
176
     1
 76
     1
176
     1
 77
     6
176
     1
 78
     2
176
     1
 67
     7
176
     1
 79
     5
176
     1
170
     0
176
     1
171
     0
176
     1
290
     0
176
     1
 93
        1
176
     1
 44
0.0
176
     1
173
     0
176
     1
1001
ACAD
1000
AcDbSavedByObjectVersion
1070
     0
  0
VISUALSTYLE
  5
5C
102
{ACAD_XDICTIONARY
360
7E1
102
}
102
{ACAD_REACTORS
330
2F
102
}
330
2F
100
AcDbVisualStyle
  2
Realistic
 70
     8
177
     2
291
     0
 71
     2
176
     1
 72
     2
176
     1
 73
     0
176
     1
 90
        0
176
     1
 40
0.6
176
     1
 41
30.0
176
     1
 63
     7
421
 16777215
176
     1
 74
     1
176
     1
 91
        0
176
     1
 64
     7
176
     1
 65
   257
176
     1
 75
     1
176
     1
175
     1
176
     1
 42
1.0
176
     1
 92
        8
176
     1
 66
     8
424
  7895160
176
     1
 43
1.0
176
     1
 76
     1
176
     1
 77
     6
176
     1
 78
     2
176
     1
 67
     7
176
     1
 79
     5
176
     1
170
     0
176
     1
171
     0
176
     1
290
     0
176
     1
 93
       13
176
     1
 44
0.0
176
     1
173
     0
176
     1
1001
ACAD
1000
AcDbSavedByObjectVersion
1070
     0
  0
DICTIONARYVAR
  5
7D8
102
{ACAD_REACTORS
330
7D2
102
}
330
7D2
100
DictionaryVariables
280
     0
  1
1:1
  0
DICTIONARYVAR
  5
7D4
102
{ACAD_REACTORS
330
7D2
102
}
330
7D2
100
DictionaryVariables
280
     0
  1
STANDARD
  0
DICTIONARYVAR
  5
7D3
102
{ACAD_REACTORS
330
7D2
102
}
330
7D2
100
DictionaryVariables
280
     0
  1
STANDARD
  0
DICTIONARYVAR
  5
7D5
102
{ACAD_REACTORS
330
7D2
102
}
330
7D2
100
DictionaryVariables
280
     0
  1

  0
DICTIONARYVAR
  5
7D6
102
{ACAD_REACTORS
330
7D2
102
}
330
7D2
100
DictionaryVariables
280
     0
  1

  0
DICTIONARYVAR
  5
7DA
102
{ACAD_REACTORS
330
7D2
102
}
330
7D2
100
DictionaryVariables
280
     0
  1
1
  0
DICTIONARYVAR
  5
7DB
102
{ACAD_REACTORS
330
7D2
102
}
330
7D2
100
DictionaryVariables
280
     0
  1
15
  0
DICTIONARYVAR
  5
7D9
102
{ACAD_REACTORS
330
7D2
102
}
330
7D2
100
DictionaryVariables
280
     0
  1
0
  0
DICTIONARYVAR
  5
7D7
102
{ACAD_REACTORS
330
7D2
102
}
330
7D2
100
DictionaryVariables
280
     0
  1
0
  0
DICTIONARY
  5
76F
102
{ACAD_REACTORS
330
76E
102
}
330
76E
100
AcDbDictionary
281
     1
  0
DICTIONARY
  5
769
102
{ACAD_REACTORS
330
75F
102
}
330
75F
100
AcDbDictionary
281
     1
  3
DWGSETTINGS
350
768
  3
TRANSSETTINGS
350
76A
  0
DICTIONARY
  5
7E5
330
78A
100
AcDbDictionary
280
     1
281
     1
  3
ACAD_XREC_ROUNDTRIP
360
7E6
  0
DICTIONARY
  5
4A
330
49
100
AcDbDictionary
280
     1
281
     1
  3
BUMPTILE
360
4B
  3
DIFFUSETILE
360
4C
  3
OPACITYTILE
360
4D
  3
REFLECTIONTILE
360
4E
  3
REFRACTIONTILE
360
4F
  3
SPECULARTILE
360
50
  0
DICTIONARY
  5
42
330
41
100
AcDbDictionary
280
     1
281
     1
  3
BUMPTILE
360
43
  3
DIFFUSETILE
360
44
  3
OPACITYTILE
360
45
  3
REFLECTIONTILE
360
46
  3
REFRACTIONTILE
360
47
  3
SPECULARTILE
360
48
  0
DICTIONARY
  5
17
330
15
100
AcDbDictionary
280
     1
281
     1
  3
BUMPTILE
360
18
  3
DIFFUSETILE
360
19
  3
OPACITYTILE
360
1A
  3
REFLECTIONTILE
360
1B
  3
REFRACTIONTILE
360
1C
  3
SPECULARTILE
360
1D
  0
DICTIONARY
  5
7E7
330
799
100
AcDbDictionary
280
     1
281
     1
  3
ACAD_XREC_ROUNDTRIP
360
7E8
  0
DICTIONARY
  5
5B
330
5A
100
AcDbDictionary
280
     1
281
     1
  3
ACAD_ROUNDTRIP_2008_TABLESTYLE_CELLSTYLEMAP
360
7DC
  0
DICTIONARY
  5
7DF
330
2E
100
AcDbDictionary
280
     1
281
     1
  3
ACAD_XREC_ROUNDTRIP
360
7E0
  0
DICTIONARY
  5
7E3
330
5D
100
AcDbDictionary
280
     1
281
     1
  3
ACAD_XREC_ROUNDTRIP
360
7E4
  0
DICTIONARY
  5
7E1
330
5C
100
AcDbDictionary
280
     1
281
     1
  3
ACAD_XREC_ROUNDTRIP
360
7E2
  0
XRECORD
  5
7E6
102
{ACAD_REACTORS
330
7E5
102
}
330
7E5
100
AcDbXrecord
280
     1
102
DISPLAYNAME
  1
Metric50
102
FLAGS
 90
        0
  0
XRECORD
  5
4B
102
{ACAD_REACTORS
330
4A
102
}
330
4A
100
AcDbXrecord
280
     1
270
     1
271
     1
  0
XRECORD
  5
4C
102
{ACAD_REACTORS
330
4A
102
}
330
4A
100
AcDbXrecord
280
     1
270
     1
271
     1
  0
XRECORD
  5
4D
102
{ACAD_REACTORS
330
4A
102
}
330
4A
100
AcDbXrecord
280
     1
270
     1
271
     1
  0
XRECORD
  5
4E
102
{ACAD_REACTORS
330
4A
102
}
330
4A
100
AcDbXrecord
280
     1
270
     1
271
     1
  0
XRECORD
  5
4F
102
{ACAD_REACTORS
330
4A
102
}
330
4A
100
AcDbXrecord
280
     1
270
     1
271
     1
  0
XRECORD
  5
50
102
{ACAD_REACTORS
330
4A
102
}
330
4A
100
AcDbXrecord
280
     1
270
     1
271
     1
  0
XRECORD
  5
43
102
{ACAD_REACTORS
330
42
102
}
330
42
100
AcDbXrecord
280
     1
270
     1
271
     1
  0
XRECORD
  5
44
102
{ACAD_REACTORS
330
42
102
}
330
42
100
AcDbXrecord
280
     1
270
     1
271
     1
  0
XRECORD
  5
45
102
{ACAD_REACTORS
330
42
102
}
330
42
100
AcDbXrecord
280
     1
270
     1
271
     1
  0
XRECORD
  5
46
102
{ACAD_REACTORS
330
42
102
}
330
42
100
AcDbXrecord
280
     1
270
     1
271
     1
  0
XRECORD
  5
47
102
{ACAD_REACTORS
330
42
102
}
330
42
100
AcDbXrecord
280
     1
270
     1
271
     1
  0
XRECORD
  5
48
102
{ACAD_REACTORS
330
42
102
}
330
42
100
AcDbXrecord
280
     1
270
     1
271
     1
  0
XRECORD
  5
18
102
{ACAD_REACTORS
330
17
102
}
330
17
100
AcDbXrecord
280
     1
270
     1
271
     1
  0
XRECORD
  5
19
102
{ACAD_REACTORS
330
17
102
}
330
17
100
AcDbXrecord
280
     1
270
     1
271
     1
  0
XRECORD
  5
1A
102
{ACAD_REACTORS
330
17
102
}
330
17
100
AcDbXrecord
280
     1
270
     1
271
     1
  0
XRECORD
  5
1B
102
{ACAD_REACTORS
330
17
102
}
330
17
100
AcDbXrecord
280
     1
270
     1
271
     1
  0
XRECORD
  5
1C
102
{ACAD_REACTORS
330
17
102
}
330
17
100
AcDbXrecord
280
     1
270
     1
271
     1
  0
XRECORD
  5
1D
102
{ACAD_REACTORS
330
17
102
}
330
17
100
AcDbXrecord
280
     1
270
     1
271
     1
  0
XRECORD
  5
7E8
102
{ACAD_REACTORS
330
7E7
102
}
330
7E7
100
AcDbXrecord
280
     1
102
DISPLAYNAME
  1
Metric50
102
FLAGS
 90
        0
  0
CELLSTYLEMAP
  5
7DC
102
{ACAD_REACTORS
330
5B
102
}
330
5B
100
AcDbCellStyleMap
 90
        3
300
CELLSTYLE
  1
TABLEFORMAT_BEGIN
 90
        5
170
     1
 91
        0
 92
    32768
 62
   257
 93
        1
300
CONTENTFORMAT
  1
CONTENTFORMAT_BEGIN
 90
        0
 91
        0
 92
        4
 93
        0
300

 40
0.0
140
1.0
 94
        5
 62
     0
340
25
144
6.0
309
CONTENTFORMAT_END
171
     1
301
MARGIN
  1
CELLMARGIN_BEGIN
 40
1.5
 40
1.5
 40
1.5
 40
1.5
 40
0.18
 40
0.18
309
CELLMARGIN_END
 94
        6
 95
        1
302
GRIDFORMAT
  1
GRIDFORMAT_BEGIN
 90
        0
 91
        1
 62
     0
 92
       -2
340
0
 93
        0
 40
0.045
309
GRIDFORMAT_END
 95
        2
302
GRIDFORMAT
  1
GRIDFORMAT_BEGIN
 90
        0
 91
        1
 62
     0
 92
       -2
340
0
 93
        0
 40
0.045
309
GRIDFORMAT_END
 95
        4
302
GRIDFORMAT
  1
GRIDFORMAT_BEGIN
 90
        0
 91
        1
 62
     0
 92
       -2
340
0
 93
        0
 40
0.045
309
GRIDFORMAT_END
 95
        8
302
GRIDFORMAT
  1
GRIDFORMAT_BEGIN
 90
        0
 91
        1
 62
     0
 92
       -2
340
0
 93
        0
 40
0.045
309
GRIDFORMAT_END
 95
       16
302
GRIDFORMAT
  1
GRIDFORMAT_BEGIN
 90
        0
 91
        1
 62
     0
 92
       -2
340
0
 93
        0
 40
0.045
309
GRIDFORMAT_END
 95
       32
302
GRIDFORMAT
  1
GRIDFORMAT_BEGIN
 90
        0
 91
        1
 62
     0
 92
       -2
340
0
 93
        0
 40
0.045
309
GRIDFORMAT_END
309
TABLEFORMAT_END
  1
CELLSTYLE_BEGIN
 90
        1
 91
        1
300
_TITLE
309
CELLSTYLE_END
300
CELLSTYLE
  1
TABLEFORMAT_BEGIN
 90
        5
170
     1
 91
        0
 92
        0
 62
   257
 93
        1
300
CONTENTFORMAT
  1
CONTENTFORMAT_BEGIN
 90
        0
 91
        0
 92
        4
 93
        0
300

 40
0.0
140
1.0
 94
        5
 62
     0
340
25
144
4.5
309
CONTENTFORMAT_END
171
     1
301
MARGIN
  1
CELLMARGIN_BEGIN
 40
1.5
 40
1.5
 40
1.5
 40
1.5
 40
0.18
 40
0.18
309
CELLMARGIN_END
 94
        6
 95
        1
302
GRIDFORMAT
  1
GRIDFORMAT_BEGIN
 90
        0
 91
        1
 62
     0
 92
       -2
340
0
 93
        0
 40
0.045
309
GRIDFORMAT_END
 95
        2
302
GRIDFORMAT
  1
GRIDFORMAT_BEGIN
 90
        0
 91
        1
 62
     0
 92
       -2
340
0
 93
        0
 40
0.045
309
GRIDFORMAT_END
 95
        4
302
GRIDFORMAT
  1
GRIDFORMAT_BEGIN
 90
        0
 91
        1
 62
     0
 92
       -2
340
0
 93
        0
 40
0.045
309
GRIDFORMAT_END
 95
        8
302
GRIDFORMAT
  1
GRIDFORMAT_BEGIN
 90
        0
 91
        1
 62
     0
 92
       -2
340
0
 93
        0
 40
0.045
309
GRIDFORMAT_END
 95
       16
302
GRIDFORMAT
  1
GRIDFORMAT_BEGIN
 90
        0
 91
        1
 62
     0
 92
       -2
340
0
 93
        0
 40
0.045
309
GRIDFORMAT_END
 95
       32
302
GRIDFORMAT
  1
GRIDFORMAT_BEGIN
 90
        0
 91
        1
 62
     0
 92
       -2
340
0
 93
        0
 40
0.045
309
GRIDFORMAT_END
309
TABLEFORMAT_END
  1
CELLSTYLE_BEGIN
 90
        2
 91
        1
300
_HEADER
309
CELLSTYLE_END
300
CELLSTYLE
  1
TABLEFORMAT_BEGIN
 90
        5
170
     1
 91
        0
 92
        0
 62
   257
 93
        1
300
CONTENTFORMAT
  1
CONTENTFORMAT_BEGIN
 90
        0
 91
        0
 92
        4
 93
        0
300

 40
0.0
140
1.0
 94
        2
 62
     0
340
25
144
4.5
309
CONTENTFORMAT_END
171
     1
301
MARGIN
  1
CELLMARGIN_BEGIN
 40
1.5
 40
1.5
 40
1.5
 40
1.5
 40
0.18
 40
0.18
309
CELLMARGIN_END
 94
        6
 95
        1
302
GRIDFORMAT
  1
GRIDFORMAT_BEGIN
 90
        0
 91
        1
 62
     0
 92
       -2
340
0
 93
        0
 40
0.045
309
GRIDFORMAT_END
 95
        2
302
GRIDFORMAT
  1
GRIDFORMAT_BEGIN
 90
        0
 91
        1
 62
     0
 92
       -2
340
0
 93
        0
 40
0.045
309
GRIDFORMAT_END
 95
        4
302
GRIDFORMAT
  1
GRIDFORMAT_BEGIN
 90
        0
 91
        1
 62
     0
 92
       -2
340
0
 93
        0
 40
0.045
309
GRIDFORMAT_END
 95
        8
302
GRIDFORMAT
  1
GRIDFORMAT_BEGIN
 90
        0
 91
        1
 62
     0
 92
       -2
340
0
 93
        0
 40
0.045
309
GRIDFORMAT_END
 95
       16
302
GRIDFORMAT
  1
GRIDFORMAT_BEGIN
 90
        0
 91
        1
 62
     0
 92
       -2
340
0
 93
        0
 40
0.045
309
GRIDFORMAT_END
 95
       32
302
GRIDFORMAT
  1
GRIDFORMAT_BEGIN
 90
        0
 91
        1
 62
     0
 92
       -2
340
0
 93
        0
 40
0.045
309
GRIDFORMAT_END
309
TABLEFORMAT_END
  1
CELLSTYLE_BEGIN
 90
        3
 91
        2
300
_DATA
309
CELLSTYLE_END
  0
XRECORD
  5
7E0
102
{ACAD_REACTORS
330
7DF
102
}
330
7DF
100
AcDbXrecord
280
     1
102
RTVSPost2010Prop28
280
     1
102
RTVSPost2010PropOp28
 70
     1
102
RTVSPost2010Prop29
280
     1
102
RTVSPost2010PropOp29
 70
     1
102
RTVSPost2010Prop30
280
     0
102
RTVSPost2010PropOp30
 70
     1
102
RTVSPost2010Prop31
280
     0
102
RTVSPost2010PropOp31
 70
     1
102
RTVSPost2010Prop32
280
     0
102
RTVSPost2010PropOp32
 70
     1
102
RTVSPost2010Prop33
280
     0
102
RTVSPost2010PropOp33
 70
     1
102
RTVSPost2010Prop34
280
     0
102
RTVSPost2010PropOp34
 70
     1
102
RTVSPost2010Prop35
280
     0
102
RTVSPost2010PropOp35
 70
     1
102
RTVSPost2010Prop36
280
     0
102
RTVSPost2010PropOp36
 70
     1
102
RTVSPost2010Prop37
 90
       50
102
RTVSPost2010PropOp37
 70
     1
102
RTVSPost2010Prop38
140
0.0
102
RTVSPost2010PropOp38
 70
     1
102
RTVSPost2010Prop39
140
1.0
102
RTVSPost2010PropOp39
 70
     1
102
RTVSPost2010Prop40
 90
        0
102
RTVSPost2010PropOp40
 70
     1
102
RTVSPost2010Prop41ColorIndex
 90
       18
102
RTVSPost2010Prop41ColorRGB
 90
        0
102
RTVSPost2010PropOp41
 70
     1
102
RTVSPost2010Prop42
 90
       50
102
RTVSPost2010PropOp42
 70
     1
102
RTVSPost2010Prop43
 90
        3
102
RTVSPost2010PropOp43
 70
     1
102
RTVSPost2010Prop44ColorIndex
 90
        5
102
RTVSPost2010Prop44ColorRGB
 90
      255
102
RTVSPost2010PropOp44
 70
     1
102
RTVSPost2010Prop45
280
     0
102
RTVSPost2010PropOp45
 70
     1
102
RTVSPost2010Prop46
 90
       50
102
RTVSPost2010PropOp46
 70
     1
102
RTVSPost2010Prop47
 90
       50
102
RTVSPost2010PropOp47
 70
     1
102
RTVSPost2010Prop48
 90
       50
102
RTVSPost2010PropOp48
 70
     1
102
RTVSPost2010Prop49
280
     0
102
RTVSPost2010PropOp49
 70
     1
102
RTVSPost2010Prop50
 90
       50
102
RTVSPost2010PropOp50
 70
     1
102
RTVSPost2010Prop51ColorIndex
 90
      256
102
RTVSPost2010Prop51ColorRGB
 90
-16777216
102
RTVSPost2010PropOp51
 70
     0
102
RTVSPost2010Prop52
140
1.0
102
RTVSPost2010PropOp52
 70
     0
102
RTVSPost2010Prop53
 90
        2
102
RTVSPost2010PropOp53
 70
     1
102
RTVSPost2010Prop54
  1
strokes_ogs.tif
102
RTVSPost2010PropOp54
 70
     1
102
RTVSPost2010Prop55
280
     0
102
RTVSPost2010PropOp55
 70
     1
102
RTVSPost2010Prop56
140
1.0
102
RTVSPost2010PropOp56
 70
     1
102
RTVSPost2010Prop57
140
1.0
102
RTVSPost2010PropOp57
 70
     1
  0
XRECORD
  5
7E4
102
{ACAD_REACTORS
330
7E3
102
}
330
7E3
100
AcDbXrecord
280
     1
102
RTVSPost2010Prop28
280
     0
102
RTVSPost2010PropOp28
 70
     1
102
RTVSPost2010Prop29
280
     1
102
RTVSPost2010PropOp29
 70
     1
102
RTVSPost2010Prop30
280
     1
102
RTVSPost2010PropOp30
 70
     1
102
RTVSPost2010Prop31
280
     0
102
RTVSPost2010PropOp31
 70
     1
102
RTVSPost2010Prop32
280
     0
102
RTVSPost2010PropOp32
 70
     1
102
RTVSPost2010Prop33
280
     0
102
RTVSPost2010PropOp33
 70
     1
102
RTVSPost2010Prop34
280
     0
102
RTVSPost2010PropOp34
 70
     1
102
RTVSPost2010Prop35
280
     0
102
RTVSPost2010PropOp35
 70
     1
102
RTVSPost2010Prop36
280
     0
102
RTVSPost2010PropOp36
 70
     1
102
RTVSPost2010Prop37
 90
       50
102
RTVSPost2010PropOp37
 70
     1
102
RTVSPost2010Prop38
140
0.0
102
RTVSPost2010PropOp38
 70
     1
102
RTVSPost2010Prop39
140
1.0
102
RTVSPost2010PropOp39
 70
     1
102
RTVSPost2010Prop40
 90
        0
102
RTVSPost2010PropOp40
 70
     1
102
RTVSPost2010Prop41ColorIndex
 90
       18
102
RTVSPost2010Prop41ColorRGB
 90
        0
102
RTVSPost2010PropOp41
 70
     1
102
RTVSPost2010Prop42
 90
       50
102
RTVSPost2010PropOp42
 70
     1
102
RTVSPost2010Prop43
 90
        3
102
RTVSPost2010PropOp43
 70
     1
102
RTVSPost2010Prop44ColorIndex
 90
        5
102
RTVSPost2010Prop44ColorRGB
 90
      255
102
RTVSPost2010PropOp44
 70
     1
102
RTVSPost2010Prop45
280
     0
102
RTVSPost2010PropOp45
 70
     1
102
RTVSPost2010Prop46
 90
       50
102
RTVSPost2010PropOp46
 70
     1
102
RTVSPost2010Prop47
 90
       50
102
RTVSPost2010PropOp47
 70
     1
102
RTVSPost2010Prop48
 90
       50
102
RTVSPost2010PropOp48
 70
     1
102
RTVSPost2010Prop49
280
     0
102
RTVSPost2010PropOp49
 70
     1
102
RTVSPost2010Prop50
 90
       50
102
RTVSPost2010PropOp50
 70
     1
102
RTVSPost2010Prop51ColorIndex
 90
      256
102
RTVSPost2010Prop51ColorRGB
 90
-16777216
102
RTVSPost2010PropOp51
 70
     0
102
RTVSPost2010Prop52
140
1.0
102
RTVSPost2010PropOp52
 70
     0
102
RTVSPost2010Prop53
 90
        2
102
RTVSPost2010PropOp53
 70
     1
102
RTVSPost2010Prop54
  1
strokes_ogs.tif
102
RTVSPost2010PropOp54
 70
     1
102
RTVSPost2010Prop55
280
     0
102
RTVSPost2010PropOp55
 70
     1
102
RTVSPost2010Prop56
140
1.0
102
RTVSPost2010PropOp56
 70
     1
102
RTVSPost2010Prop57
140
1.0
102
RTVSPost2010PropOp57
 70
     1
  0
XRECORD
  5
7E2
102
{ACAD_REACTORS
330
7E1
102
}
330
7E1
100
AcDbXrecord
280
     1
102
RTVSPost2010Prop28
280
     0
102
RTVSPost2010PropOp28
 70
     1
102
RTVSPost2010Prop29
280
     1
102
RTVSPost2010PropOp29
 70
     1
102
RTVSPost2010Prop30
280
     1
102
RTVSPost2010PropOp30
 70
     1
102
RTVSPost2010Prop31
280
     0
102
RTVSPost2010PropOp31
 70
     1
102
RTVSPost2010Prop32
280
     0
102
RTVSPost2010PropOp32
 70
     1
102
RTVSPost2010Prop33
280
     0
102
RTVSPost2010PropOp33
 70
     1
102
RTVSPost2010Prop34
280
     0
102
RTVSPost2010PropOp34
 70
     1
102
RTVSPost2010Prop35
280
     0
102
RTVSPost2010PropOp35
 70
     1
102
RTVSPost2010Prop36
280
     0
102
RTVSPost2010PropOp36
 70
     1
102
RTVSPost2010Prop37
 90
       50
102
RTVSPost2010PropOp37
 70
     1
102
RTVSPost2010Prop38
140
0.0
102
RTVSPost2010PropOp38
 70
     1
102
RTVSPost2010Prop39
140
1.0
102
RTVSPost2010PropOp39
 70
     1
102
RTVSPost2010Prop40
 90
        0
102
RTVSPost2010PropOp40
 70
     1
102
RTVSPost2010Prop41ColorIndex
 90
       18
102
RTVSPost2010Prop41ColorRGB
 90
        0
102
RTVSPost2010PropOp41
 70
     1
102
RTVSPost2010Prop42
 90
       50
102
RTVSPost2010PropOp42
 70
     1
102
RTVSPost2010Prop43
 90
        3
102
RTVSPost2010PropOp43
 70
     1
102
RTVSPost2010Prop44ColorIndex
 90
        5
102
RTVSPost2010Prop44ColorRGB
 90
      255
102
RTVSPost2010PropOp44
 70
     1
102
RTVSPost2010Prop45
280
     0
102
RTVSPost2010PropOp45
 70
     1
102
RTVSPost2010Prop46
 90
       50
102
RTVSPost2010PropOp46
 70
     1
102
RTVSPost2010Prop47
 90
       50
102
RTVSPost2010PropOp47
 70
     1
102
RTVSPost2010Prop48
 90
       50
102
RTVSPost2010PropOp48
 70
     1
102
RTVSPost2010Prop49
280
     0
102
RTVSPost2010PropOp49
 70
     1
102
RTVSPost2010Prop50
 90
       50
102
RTVSPost2010PropOp50
 70
     1
102
RTVSPost2010Prop51ColorIndex
 90
      256
102
RTVSPost2010Prop51ColorRGB
 90
-16777216
102
RTVSPost2010PropOp51
 70
     0
102
RTVSPost2010Prop52
140
1.0
102
RTVSPost2010PropOp52
 70
     0
102
RTVSPost2010Prop53
 90
        2
102
RTVSPost2010PropOp53
 70
     1
102
RTVSPost2010Prop54
  1
strokes_ogs.tif
102
RTVSPost2010PropOp54
 70
     1
102
RTVSPost2010Prop55
280
     0
102
RTVSPost2010PropOp55
 70
     1
102
RTVSPost2010Prop56
140
1.0
102
RTVSPost2010PropOp56
 70
     1
102
RTVSPost2010Prop57
140
1.0
102
RTVSPost2010PropOp57
 70
     1
  0
ENDSEC
  0
EOF
