  0
SECTION
  2
HEADER
  9
$ACADVER
  1
AC1018
  9
$ACADMAINTVER
 70
    77
  9
$DWGCODEPAGE
  3
ANSI_1252
  9
$INSBASE
 10
0.0
 20
0.0
 30
0.0
  9
$EXTMIN
 10
-12.84005865672059
 20
-0.3167335912842417
 30
0.0
  9
$EXTMAX
 10
393.9669576529427
 20
277.0
 30
0.0
  9
$LIMMIN
 10
-10.5
 20
-4.0
  9
$LIMMAX
 10
195.0
 20
285.0
  9
$ORTHOMODE
 70
     0
  9
$REGENMODE
 70
     1
  9
$FILLMODE
 70
     1
  9
$QTEXTMODE
 70
     0
  9
$MIRRTEXT
 70
     0
  9
$LTSCALE
 40
1.0
  9
$ATTMODE
 70
     1
  9
$TEXTSIZE
 40
3.5
  9
$TRACEWID
 40
0.05
  9
$TEXTSTYLE
  7
ARIAL-STANDARD
  9
$CLAYER
  8
KOPF03
  9
$CELTYPE
  6
BYLAYER
  9
$CECOLOR
 62
   256
  9
$CELTSCALE
 40
1.0
  9
$DISPSILH
 70
     0
  9
$DIMSCALE
 40
1.0
  9
$DIMASZ
 40
3.5
  9
$DIMEXO
 40
0.0
  9
$DIMDLI
 40
8.0
  9
$DIMRND
 40
0.0
  9
$DIMDLE
 40
0.0
  9
$DIMEXE
 40
0.5
  9
$DIMTP
 40
0.0
  9
$DIMTM
 40
0.0
  9
$DIMTXT
 40
3.5
  9
$DIMCEN
 40
1.5
  9
$DIMTSZ
 40
0.0
  9
$DIMTOL
 70
     0
  9
$DIMLIM
 70
     0
  9
$DIMTIH
 70
     0
  9
$DIMTOH
 70
     0
  9
$DIMSE1
 70
     0
  9
$DIMSE2
 70
     0
  9
$DIMTAD
 70
     1
  9
$DIMZIN
 70
     8
  9
$DIMBLK
  1

  9
$DIMASO
 70
     1
  9
$DIMSHO
 70
     1
  9
$DIMPOST
  1

  9
$DIMAPOST
  1

  9
$DIMALT
 70
     0
  9
$DIMALTD
 70
     2
  9
$DIMALTF
 40
25.4
  9
$DIMLFAC
 40
1.0
  9
$DIMTOFL
 70
     1
  9
$DIMTVP
 40
0.0
  9
$DIMTIX
 70
     1
  9
$DIMSOXD
 70
     0
  9
$DIMSAH
 70
     0
  9
$DIMBLK1
  1

  9
$DIMBLK2
  1

  9
$DIMSTYLE
  2
NORMAL
  9
$DIMCLRD
 70
   256
  9
$DIMCLRE
 70
   256
  9
$DIMCLRT
 70
     3
  9
$DIMTFAC
 40
0.5
  9
$DIMGAP
 40
1.0
  9
$DIMJUST
 70
     0
  9
$DIMSD1
 70
     0
  9
$DIMSD2
 70
     0
  9
$DIMTOLJ
 70
     1
  9
$DIMTZIN
 70
     0
  9
$DIMALTZ
 70
     0
  9
$DIMALTTZ
 70
     0
  9
$DIMUPT
 70
     0
  9
$DIMDEC
 70
     4
  9
$DIMTDEC
 70
     4
  9
$DIMALTU
 70
     2
  9
$DIMALTTD
 70
     2
  9
$DIMTXSTY
  7
STANDARD
  9
$DIMAUNIT
 70
     0
  9
$DIMADEC
 70
     0
  9
$DIMALTRND
 40
0.0
  9
$DIMAZIN
 70
     0
  9
$DIMDSEP
 70
    46
  9
$DIMATFIT
 70
     3
  9
$DIMFRAC
 70
     0
  9
$DIMLDRBLK
  1

  9
$DIMLUNIT
 70
     2
  9
$DIMLWD
 70
    -2
  9
$DIMLWE
 70
    -2
  9
$DIMTMOVE
 70
     0
  9
$LUNITS
 70
     2
  9
$LUPREC
 70
     4
  9
$SKETCHINC
 40
0.1
  9
$FILLETRAD
 40
0.0
  9
$AUNITS
 70
     0
  9
$AUPREC
 70
     0
  9
$MENU
  1
.
  9
$ELEVATION
 40
0.0
  9
$PELEVATION
 40
0.0
  9
$THICKNESS
 40
0.0
  9
$LIMCHECK
 70
     0
  9
$CHAMFERA
 40
0.0
  9
$CHAMFERB
 40
0.0
  9
$CHAMFERC
 40
1.0
  9
$CHAMFERD
 40
0.0
  9
$SKPOLY
 70
     0
  9
$TDCREATE
 40
2451554.363886123
  9
$TDUCREATE
 40
2451554.322219456
  9
$TDUPDATE
 40
2452453.551974630
  9
$TDUUPDATE
 40
2452453.510307963
  9
$TDINDWG
 40
0.7343251157
  9
$TDUSRTIMER
 40
0.7343251157
  9
$USRTIMER
 70
     1
  9
$ANGBASE
 50
0.0
  9
$ANGDIR
 70
     0
  9
$PDMODE
 70
     0
  9
$PDSIZE
 40
0.0
  9
$PLINEWID
 40
0.3
  9
$SPLFRAME
 70
     0
  9
$SPLINETYPE
 70
     6
  9
$SPLINESEGS
 70
     8
  9
$HANDSEED
  5
156
  9
$SURFTAB1
 70
     6
  9
$SURFTAB2
 70
     6
  9
$SURFTYPE
 70
     6
  9
$SURFU
 70
     6
  9
$SURFV
 70
     6
  9
$UCSBASE
  2

  9
$UCSNAME
  2

  9
$UCSORG
 10
0.0
 20
0.0
 30
0.0
  9
$UCSXDIR
 10
1.0
 20
0.0
 30
0.0
  9
$UCSYDIR
 10
0.0
 20
1.0
 30
0.0
  9
$UCSORTHOREF
  2

  9
$UCSORTHOVIEW
 70
     0
  9
$UCSORGTOP
 10
0.0
 20
0.0
 30
0.0
  9
$UCSORGBOTTOM
 10
0.0
 20
0.0
 30
0.0
  9
$UCSORGLEFT
 10
0.0
 20
0.0
 30
0.0
  9
$UCSORGRIGHT
 10
0.0
 20
0.0
 30
0.0
  9
$UCSORGFRONT
 10
0.0
 20
0.0
 30
0.0
  9
$UCSORGBACK
 10
0.0
 20
0.0
 30
0.0
  9
$PUCSBASE
  2

  9
$PUCSNAME
  2

  9
$PUCSORG
 10
0.0
 20
0.0
 30
0.0
  9
$PUCSXDIR
 10
1.0
 20
0.0
 30
0.0
  9
$PUCSYDIR
 10
0.0
 20
1.0
 30
0.0
  9
$PUCSORTHOREF
  2

  9
$PUCSORTHOVIEW
 70
     0
  9
$PUCSORGTOP
 10
0.0
 20
0.0
 30
0.0
  9
$PUCSORGBOTTOM
 10
0.0
 20
0.0
 30
0.0
  9
$PUCSORGLEFT
 10
0.0
 20
0.0
 30
0.0
  9
$PUCSORGRIGHT
 10
0.0
 20
0.0
 30
0.0
  9
$PUCSORGFRONT
 10
0.0
 20
0.0
 30
0.0
  9
$PUCSORGBACK
 10
0.0
 20
0.0
 30
0.0
  9
$USERI1
 70
     0
  9
$USERI2
 70
     0
  9
$USERI3
 70
     0
  9
$USERI4
 70
     0
  9
$USERI5
 70
     0
  9
$USERR1
 40
0.0
  9
$USERR2
 40
0.0
  9
$USERR3
 40
0.0
  9
$USERR4
 40
0.0
  9
$USERR5
 40
0.0
  9
$WORLDVIEW
 70
     1
  9
$SHADEDGE
 70
     3
  9
$SHADEDIF
 70
    70
  9
$TILEMODE
 70
     1
  9
$MAXACTVP
 70
    48
  9
$PINSBASE
 10
0.0
 20
0.0
 30
0.0
  9
$PLIMCHECK
 70
     0
  9
$PEXTMIN
 10
1.000000000000000E+20
 20
1.000000000000000E+20
 30
1.000000000000000E+20
  9
$PEXTMAX
 10
-1.000000000000000E+20
 20
-1.000000000000000E+20
 30
-1.000000000000000E+20
  9
$PLIMMIN
 10
-5.069427490234375
 20
-5.873749732971191
  9
$PLIMMAX
 10
291.8988952636719
 20
204.0995779037475
  9
$UNITMODE
 70
     0
  9
$VISRETAIN
 70
     1
  9
$PLINEGEN
 70
     0
  9
$PSLTSCALE
 70
     1
  9
$TREEDEPTH
 70
  3020
  9
$CMLSTYLE
  2
STANDARD
  9
$CMLJUST
 70
     0
  9
$CMLSCALE
 40
1.0
  9
$PROXYGRAPHICS
 70
     1
  9
$MEASUREMENT
 70
     1
  9
$CELWEIGHT
370
    -1
  9
$ENDCAPS
280
     0
  9
$JOINSTYLE
280
     0
  9
$LWDISPLAY
290
     0
  9
$INSUNITS
 70
     0
  9
$HYPERLINKBASE
  1

  9
$STYLESHEET
  1

  9
$XEDIT
290
     1
  9
$CEPSNTYPE
380
     0
  9
$PSTYLEMODE
290
     1
  9
$FINGERPRINTGUID
  2
{30B4BF73-A1BE-455F-9EE9-2C1D4ADAE86E}
  9
$VERSIONGUID
  2
{A5F6F3D6-4D56-4FCA-971B-2704CC8EF0AB}
  9
$EXTNAMES
290
     1
  9
$PSVPSCALE
 40
0.0
  9
$OLESTARTUP
290
     0
  9
$SORTENTS
280
   127
  9
$INDEXCTL
280
     0
  9
$HIDETEXT
280
     1
  9
$XCLIPFRAME
290
     0
  9
$HALOGAP
280
     0
  9
$OBSCOLOR
 70
   257
  9
$OBSLTYPE
280
     0
  9
$INTERSECTIONDISPLAY
280
     0
  9
$INTERSECTIONCOLOR
 70
   257
  9
$DIMASSOC
280
     1
  9
$PROJECTNAME
  1

  0
ENDSEC
  0
SECTION
  2
CLASSES
  0
CLASS
  1
DICTIONARYVAR
  2
AcDbDictionaryVar
  3
ObjectDBX Classes
 90
        0
 91
        1
280
     0
281
     0
  0
CLASS
  1
ACDBDICTIONARYWDFLT
  2
AcDbDictionaryWithDefault
  3
ObjectDBX Classes
 90
        0
 91
        1
280
     0
281
     0
  0
CLASS
  1
ACME_DOCUMENT
  2
AcMeDbDoc
  3
AcMeServices
 90
        0
 91
        0
280
     0
281
     0
  0
CLASS
  1
AMGSETTINGSOBJ
  2
AmgSettingsObj
  3
"AcadM|Product Description: AutoCAD Mechanical 2000|Company: Autodesk"
 90
        0
 91
        2
280
     0
281
     0
  0
CLASS
  1
ACMESCOPE
  2
AcMeScope
  3
AcMeServices
 90
        0
 91
        1
280
     0
281
     0
  0
CLASS
  1
ACMECOMMANDHISTORY
  2
AcMeCommandHistory
  3
AcMeServices
 90
        0
 91
        0
280
     0
281
     0
  0
CLASS
  1
ACIMSYSVARMAN
  2
AcImSysVarManager
  3
AcMeServices
 90
        0
 91
        3
280
     0
281
     0
  0
CLASS
  1
ACIMREALSYSVAR
  2
AcImRealSysVar
  3
AcMeServices
 90
        0
 91
        1
280
     0
281
     0
  0
CLASS
  1
ACIMINTSYSVAR
  2
AcImIntSysVar
  3
AcMeServices
 90
        0
 91
       25
280
     0
281
     0
  0
CLASS
  1
ACMEDRAWINGMAN
  2
AcMeDrawingMan
  3
AcMeServices
 90
        0
 91
        0
280
     0
281
     0
  0
CLASS
  1
ACMEVIEW
  2
AcMeView
  3
AcMeServices
 90
        0
 91
        0
280
     0
281
     0
  0
CLASS
  1
ACDBENTITYCACHE
  2
AcMeEntityCache
  3
AcMeServices
 90
        0
 91
        0
280
     0
281
     0
  0
CLASS
  1
GSMANAGER
  2
AcMeGSManager
  3
AcMeServices
 90
        0
 91
        0
280
     0
281
     0
  0
CLASS
  1
AMDTINTERNALREACTOR
  2
AmdtInternalReactor
  3
AcMeServices
 90
        0
 91
        1
280
     0
281
     0
  0
CLASS
  1
ACMESTATEMGR
  2
AcMeStateMgr
  3
AcMeServices
 90
        0
 91
        1
280
     0
281
     0
  0
CLASS
  1
ACGREFMASTER
  2
AcGrefMaster
  3
AcAttribServices
 90
        0
 91
        1
280
     0
281
     0
  0
CLASS
  1
ACME_DATABASE
  2
AcMeDbDatabase
  3
AcMeServices
 90
        0
 91
        0
280
     0
281
     0
  0
CLASS
  1
ACRFINSADJUSTERMGR
  2
AcRfInsAdjusterMgr
  3
AcMeServices
 90
        0
 91
        0
280
     0
281
     0
  0
CLASS
  1
ACGREFACADMASTER
  2
AcGrefacadMaster
  3
AcGrefServices
 90
        0
 91
        0
280
     0
281
     0
  0
CLASS
  1
AMIMASTER
  2
AmiMaster
  3
AmiServices
 90
        0
 91
        0
280
     0
281
     0
  0
CLASS
  1
ACMDATADICTIONARY
  2
AcmDataDictionary
  3
"AcmSymBB|Product Description: AutoCAD Mechanical 2004 DX|Company: Autodesk"
 90
        0
 91
        0
280
     0
281
     0
  0
CLASS
  1
ACMDATAENTRYBLOCK
  2
AcmDataEntryBlock
  3
"AcmSymBB|Product Description: AutoCAD Mechanical 2004 DX|Company: Autodesk"
 90
        0
 91
        0
280
     0
281
     0
  0
CLASS
  1
ACIMSTRSYSVAR
  2
AcImStrSysVar
  3
AcMeServices
 90
        0
 91
        1
280
     0
281
     0
  0
CLASS
  1
ACMSTANDARDDIN
  2
AcmStandardDIN
  3
"Amdt_StdImp|Product Description: AutoCAD Mechanical 2004 DX|Company: Autodesk"
 90
        0
 91
        1
280
     0
281
     0
  0
CLASS
  1
AMGOBJPROPCFG
  2
AmgObjPropCfg
  3
"AmgLay|Product Description: AutoCAD Mechanical 2000|Company: Autodesk"
 90
        1
 91
        1
280
     0
281
     0
  0
CLASS
  1
AMDTEDGESTANDARDDIN
  2
AmdtEdgeStdDIN
  3
"Amdt_StdImp|Product Description: AutoCAD Mechanical 2004 DX|Company: Autodesk"
 90
        0
 91
        1
280
     0
281
     0
  0
CLASS
  1
ACMSURFSTANDARDDIN
  2
AcmSurfTextStdDIN
  3
"Amdt_StdImp|Product Description: AutoCAD Mechanical 2004 DX|Company: Autodesk"
 90
        0
 91
        1
280
     0
281
     0
  0
CLASS
  1
ACMFCFSTANDARDDIN
  2
AcmFCFStdDIN
  3
"Amdt_StdImp|Product Description: AutoCAD Mechanical 2004 DX|Company: Autodesk"
 90
        0
 91
        1
280
     0
281
     0
  0
CLASS
  1
ACMWELDSTANDARDDIN
  2
AcmWeldingStdDIN
  3
"Amdt_StdImp|Product Description: AutoCAD Mechanical 2004 DX|Company: Autodesk"
 90
        0
 91
        1
280
     0
281
     0
  0
CLASS
  1
ACMIDSTANDARDDIN
  2
AcmIdStdDIN
  3
"Amdt_StdImp|Product Description: AutoCAD Mechanical 2004 DX|Company: Autodesk"
 90
        0
 91
        1
280
     0
281
     0
  0
CLASS
  1
ACMDATUMSTANDARDDIN
  2
AcmDatumStdDIN
  3
"Amdt_StdImp|Product Description: AutoCAD Mechanical 2004 DX|Company: Autodesk"
 90
        0
 91
        1
280
     0
281
     0
  0
CLASS
  1
ACMBOMSTANDARDDIN
  2
AcmBOMStdDIN
  3
"Amdt_StdImp|Product Description: AutoCAD Mechanical 2004 DX|Company: Autodesk"
 90
        0
 91
        1
280
     0
281
     0
  0
CLASS
  1
ACMDETAILSTANDARDDIN
  2
AmdtDetailSymStdDIN
  3
"Amdt_StdImp|Product Description: AutoCAD Mechanical 2004 DX|Company: Autodesk"
 90
        0
 91
        1
280
     0
281
     0
  0
CLASS
  1
ACMSECTIONSTANDARDDIN
  2
AmdtSectionSymStdDIN
  3
"Amdt_StdImp|Product Description: AutoCAD Mechanical 2004 DX|Company: Autodesk"
 90
        0
 91
        1
280
     0
281
     0
  0
CLASS
  1
ACMCENTERLINESTANDARDDIN
  2
AmdtCenterLineStdDIN
  3
"Amdt_StdImp|Product Description: AutoCAD Mechanical 2004 DX|Company: Autodesk"
 90
        0
 91
        1
280
     0
281
     0
  0
CLASS
  1
ACMNOTESTANDARDDIN
  2
AmdtNoteStdDIN
  3
"Amdt_StdImp|Product Description: AutoCAD Mechanical 2004 DX|Company: Autodesk"
 90
        0
 91
        1
280
     0
281
     0
  0
CLASS
  1
ACAMGLAYSTD
  2
AcAmgLayStd
  3
"AcAmgLayStd|Product Description: AutoCAD Mechanical 2000|Company: Autodesk"
 90
        0
 91
        1
280
     0
281
     0
  0
CLASS
  1
ACAMGDIMSTD
  2
AcAmgDimStd
  3
"AcAmgDimStd|Product Description: AutoCAD Mechanical 2000|Company: Autodesk"
 90
        0
 91
        1
280
     0
281
     0
  0
CLASS
  1
ACAMGHOLECHARTSTDDIN
  2
AcAmgHoleChartStdDIN
  3
ACMSYMBB_MODULE_NAME
 90
        0
 91
        1
280
     0
281
     0
  0
CLASS
  1
ACAMGTITLESTD
  2
AcAmgTitleStd
  3
"TITLEAPP"
 90
        0
 91
        1
280
     0
281
     0
  0
CLASS
  1
ACAMGFILTERDAT
  2
AcAmgFilterDat
  3
"AcadM|Product Description: AutoCAD Mechanical 2000|Company: Autodesk"
 90
        0
 91
        0
280
     0
281
     0
  0
CLASS
  1
PLOTSETTINGS
  2
AcDbPlotSettings
  3
ObjectDBX Classes
 90
        0
 91
        0
280
     0
281
     0
  0
CLASS
  1
LAYER_INDEX
  2
AcDbLayerIndex
  3
ObjectDBX Classes
 90
        0
 91
        0
280
     0
281
     0
  0
CLASS
  1
IDBUFFER
  2
AcDbIdBuffer
  3
ObjectDBX Classes
 90
        0
 91
        0
280
     0
281
     0
  0
CLASS
  1
TABLESTYLE
  2
AcDbTableStyle
  3
ObjectDBX Classes
 90
     2047
 91
        1
280
     0
281
     0
  0
CLASS
  1
AM_DRAWING_MGR
  2
AcDmDwgMgr
  3
AcMechDwgViewMgmt
 90
        0
 91
        1
280
     0
281
     0
  0
CLASS
  1
AM_DWG_DOCUMENT
  2
AcDmDwgDocument
  3
AcMechDwgViewMgmt
 90
        0
 91
        1
280
     0
281
     0
  0
CLASS
  1
AM_DWG_SHEET
  2
AcDmSheet
  3
AcMechDwgViewMgmt
 90
        0
 91
        1
280
     0
281
     0
  0
CLASS
  1
AM_VIEWDIMPARMAP
  2
AcDmViewDimParMap
  3
AcMechDwgViewMgmt
 90
        0
 91
        1
280
     0
281
     0
  0
CLASS
  1
AM_DWGMGR_NAME
  2
AcDmDwgMgrName
  3
AcMechDwgViewMgmt
 90
        0
 91
        1
280
     0
281
     0
  0
CLASS
  1
AMDTMENUSTATEMGR
  2
AmdtMenuStateMgr
  3
McadcomServices
 90
        0
 91
        0
280
     0
281
     0
  0
CLASS
  1
AMDTMCOMMENUSTATE
  2
AmdtMcomMenuState
  3
McadcomServices
 90
        0
 91
        0
280
     0
281
     0
  0
CLASS
  1
MAPIAMMOUDLE
  2
MApiAmModule
  3
MApiAmServices
 90
        0
 91
        0
280
     0
281
     0
  0
CLASS
  1
AMDTADMENUSTATE
  2
AmdtAdMenuState
  3
DesignerServices
 90
        0
 91
        0
280
     0
281
     0
  0
CLASS
  1
ADAPPL
  2
AcAdAppl
  3
DesignerServices
 90
        0
 91
        1
280
     0
281
     0
  0
CLASS
  1
DEPMGR
  2
AcAdDepMgr
  3
DesignerServices
 90
        0
 91
        1
280
     0
281
     0
  0
CLASS
  1
PARAMMGR
  2
AcAdParamMgr
  3
DesignerServices
 90
        0
 91
        1
280
     0
281
     0
  0
CLASS
  1
PARAMSCOPE
  2
AcAdParamScope
  3
DesignerServices
 90
        0
 91
        1
280
     0
281
     0
  0
CLASS
  1
NAMEDAPPL
  2
AcAdNamedAppl
  3
DesignerServices
 90
        0
 91
        1
280
     0
281
     0
  0
CLASS
  1
AMDTDMMENUSTATE
  2
AmdtDmMenuState
  3
AcMechDwgViewMgmt
 90
        0
 91
        0
280
     0
281
     0
  0
CLASS
  1
AMDTAMMENUSTATE
  2
AmdtAmMenuState
  3
DesignerAssemblies
 90
        0
 91
        0
280
     0
281
     0
  0
CLASS
  1
ACAMPROJECT
  2
AcAmProject
  3
DesignerAssemblies
 90
        0
 91
        0
280
     0
281
     0
  0
CLASS
  1
ACAMGRCOMPDEF
  2
AcAmGrCompDef
  3
DesignerAssemblies
 90
        0
 91
        0
280
     0
281
     0
  0
CLASS
  1
ACCMCONTEXT
  2
AcCmContext
  3
DesignerAssemblies
 90
        0
 91
        0
280
     0
281
     0
  0
CLASS
  1
ACAMCOMPDEF
  2
AcAmCompDef
  3
DesignerAssemblies
 90
        0
 91
        0
280
     0
281
     0
  0
CLASS
  1
ACAMCOMPDEFMGR
  2
AcAmCompDefMgr
  3
DesignerAssemblies
 90
        0
 91
        0
280
     0
281
     0
  0
CLASS
  1
AMCONTEXTMGR
  2
AcAmContextMgr
  3
DesignerAssemblies
 90
        0
 91
        0
280
     0
281
     0
  0
CLASS
  1
ACAMCONTEXTMODELER
  2
AcAmContextModeler
  3
DesignerAssemblies
 90
        0
 91
        0
280
     0
281
     0
  0
CLASS
  1
ACRFATTGENMGR
  2
AcRfAttGeneralMgr
  3
AcAttribServices
 90
        0
 91
        0
280
     0
281
     0
  0
CLASS
  1
ACRFOBJATTMGR
  2
AcRfObjAttGroupMgr
  3
AcAttribServices
 90
        0
 91
        0
280
     0
281
     0
  0
CLASS
  1
ACRFMCADAPIATTHOLDER
  2
AcRfMCADAPIAttHolder
  3
AcAttribServices
 90
        0
 91
        0
280
     0
281
     0
  0
CLASS
  1
AMDTSYSATTR
  2
AmdtSystemAttribute
  3
AcAttribServices
 90
        0
 91
        0
280
     0
281
     0
  0
CLASS
  1
ACMTHREADLINESTANDARDDIN
  2
AmdtThreadLineStdDIN
  3
"Amdt_StdImp|Product Description: AutoCAD Mechanical 2004 DX|Company: Autodesk"
 90
        0
 91
        1
280
     0
281
     0
  0
CLASS
  1
CATALOGSTATE
  2
AcAmCatalogState
  3
DesignerAssemblies
 90
        0
 91
        0
280
     0
281
     0
  0
CLASS
  1
ACAMGRCOMPDEFSET
  2
AcAmGrCompDefSet
  3
DesignerAssemblies
 90
        0
 91
        0
280
     0
281
     0
  0
CLASS
  1
AMDTBROWSERDBTAB
  2
AmdtBrowserDbTab
  3
McadcomServices
 90
        0
 91
        0
280
     0
281
     0
  0
CLASS
  1
CBROWSERAPPOBJECT
  2
CBrowserAppObject
  3
McadcomServices
 90
        0
 91
        0
280
     0
281
     0
  0
CLASS
  1
DM_PLACEHOLDER
  2
AcDmSelsetPlaceholder
  3
AcMechDwgViewMgmt
 90
        0
 91
        0
280
     0
281
     0
  0
ENDSEC
  0
SECTION
  2
TABLES
  0
TABLE
  2
VPORT
  5
1A
330
0
100
AcDbSymbolTable
 70
     1
  0
VPORT
  5
1B
330
1A
100
AcDbSymbolTableRecord
100
AcDbViewportTableRecord
  2
*Active
 70
     0
 10
0.0
 20
0.0
 11
1.0
 21
1.0
 12
342.866125312728
 22
204.1249444646609
 13
0.0
 23
0.0
 14
10.0
 24
10.0
 15
10.0
 25
10.0
 16
0.0
 26
0.0
 36
1.0
 17
0.0
 27
0.0
 37
0.0
 40
559.6975044101738
 41
1.670678336980306
 42
50.0
 43
0.0
 44
0.0
 50
0.0
 51
0.0
 71
     0
 72
  5000
 73
     1
 74
     0
 75
     0
 76
     1
 77
     0
 78
     0
281
     0
 65
     1
110
0.0
120
0.0
130
0.0
111
1.0
121
0.0
131
0.0
112
0.0
122
1.0
132
0.0
 79
     0
146
0.0
  0
ENDTAB
  0
TABLE
  2
LTYPE
  5
15
330
0
100
AcDbSymbolTable
 70
    17
  0
LTYPE
  5
16
330
15
100
AcDbSymbolTableRecord
100
AcDbLinetypeTableRecord
  2
BYBLOCK
 70
     0
  3

 72
    65
 73
     0
 40
0.0
  0
LTYPE
  5
17
330
15
100
AcDbSymbolTableRecord
100
AcDbLinetypeTableRecord
  2
BYLAYER
 70
     0
  3

 72
    65
 73
     0
 40
0.0
  0
LTYPE
  5
9
330
15
100
AcDbSymbolTableRecord
100
AcDbLinetypeTableRecord
  2
CONTINUOUS
 70
     0
  3
Solid line
 72
    65
 73
     0
 40
0.0
  0
LTYPE
  5
70
330
15
100
AcDbSymbolTableRecord
100
AcDbLinetypeTableRecord
  2
STRICHPUNKT2
 70
     0
  3
Strichpunkt (.5x) _._._._._._._._._._._._._._._
 72
    65
 73
     4
 40
12.7
 49
6.349999999999999
 74
     0
 49
-3.174999999999999
 74
     0
 49
0.0
 74
     0
 49
-3.174999999999999
 74
     0
  0
LTYPE
  5
4F
330
15
100
AcDbSymbolTableRecord
100
AcDbLinetypeTableRecord
  2
VERDECKT2
 70
     0
  3
Verdeckt (.5x) _ _ _ _ _ _ _ _ _ _ _ _ _ _ _ _ 
 72
    65
 73
     2
 40
4.762499999999999
 49
3.174999999999999
 74
     0
 49
-1.587499999999999
 74
     0
  0
LTYPE
  5
107
330
15
100
AcDbSymbolTableRecord
100
AcDbLinetypeTableRecord
  2
AM_ISO02W050
 70
     0
  3
__ __ __ __ __ __ __ __ __ __ __ __ __ __ __
 72
    65
 73
     2
 40
7.5
 49
6.0
 74
     0
 49
-1.5
 74
     0
  0
LTYPE
  5
119
330
15
100
AcDbSymbolTableRecord
100
AcDbLinetypeTableRecord
  2
ACDINWELD
 70
     0
  3
_ _ _ _ _
 72
    65
 73
     2
 40
2.0
 49
2.0
 74
     0
 49
-1.0
 74
     0
  0
LTYPE
  5
11C
330
15
100
AcDbSymbolTableRecord
100
AcDbLinetypeTableRecord
  2
ACDINTGB
 70
     0
  3
__ . . __ . .
 72
    65
 73
     6
 40
9.0
 49
4.0
 74
     0
 49
-1.0
 74
     0
 49
1.0
 74
     0
 49
-1.0
 74
     0
 49
1.0
 74
     0
 49
-1.0
 74
     0
  0
LTYPE
  5
11D
330
15
100
AcDbSymbolTableRecord
100
AcDbLinetypeTableRecord
  2
ACDINTGL
 70
     0
  3
_ _ _ _ _
 72
    65
 73
     2
 40
3.0
 49
2.0
 74
     0
 49
-1.0
 74
     0
  0
LTYPE
  5
121
330
15
100
AcDbSymbolTableRecord
100
AcDbLinetypeTableRecord
  2
CENTER
 70
     0
  3
__ . __
 72
    65
 73
     4
 40
7.0
 49
4.0
 74
     0
 49
-1.0
 74
     0
 49
1.0
 74
     0
 49
-1.0
 74
     0
  0
LTYPE
  5
102
330
15
100
AcDbSymbolTableRecord
100
AcDbLinetypeTableRecord
  2
gen3
 70
     0
  3
-- -- -- -- -- -- -- -- -- -- -- -- -- -- --
 72
    65
 73
     2
 40
6.25
 49
4.75
 74
     0
 49
-1.5
 74
     0
  0
LTYPE
  5
103
330
15
100
AcDbSymbolTableRecord
100
AcDbLinetypeTableRecord
  2
gen7
 70
     0
  3
____ . ____ . ____ . ____ . ____ . ____ . ____
 72
    65
 73
     4
 40
13.75
 49
9.75
 74
     0
 49
-1.5
 74
     0
 49
1.0
 74
     0
 49
-1.5
 74
     0
  0
LTYPE
  5
104
330
15
100
AcDbSymbolTableRecord
100
AcDbLinetypeTableRecord
  2
gen3a
 70
     0
  3
 - - - - -
 72
    65
 73
     2
 40
3.125
 49
2.25
 74
     0
 49
-0.875
 74
     0
  0
LTYPE
  5
105
330
15
100
AcDbSymbolTableRecord
100
AcDbLinetypeTableRecord
  2
gen7a
 70
     0
  3
__ . __ . __
 72
    65
 73
     4
 40
6.875
 49
4.75
 74
     0
 49
-0.875
 74
     0
 49
0.375
 74
     0
 49
-0.875
 74
     0
  0
LTYPE
  5
106
330
15
100
AcDbSymbolTableRecord
100
AcDbLinetypeTableRecord
  2
gen4a
 70
     0
  3
_____ . . _____ . . _____ . . ____ .. ____
 72
    65
 73
     6
 40
16.25
 49
9.75
 74
     0
 49
-1.5
 74
     0
 49
1.0
 74
     0
 49
-1.5
 74
     0
 49
1.0
 74
     0
 49
-1.5
 74
     0
  0
LTYPE
  5
108
330
15
100
AcDbSymbolTableRecord
100
AcDbLinetypeTableRecord
  2
genzigzag
 70
     0
  3
/\/-/\/-/\/-/\/-/\/-/\/
 72
    65
 73
     2
 40
12.0001
 49
0.0001
 74
     4
 75
   135
340
109
 46
2.0
 50
0.0
 44
0.0
 45
0.0
 49
-12.0
 74
     0
  0
LTYPE
  5
29
330
15
100
AcDbSymbolTableRecord
100
AcDbLinetypeTableRecord
  2
RANDX2
 70
     0
  3
____  ____  .  ____  ____  .  ____  ____  .  __
 72
    65
 73
     6
 40
3.5
 49
1.0
 74
     0
 49
-0.5
 74
     0
 49
1.0
 74
     0
 49
-0.5
 74
     0
 49
0.0
 74
     0
 49
-0.5
 74
     0
  0
LTYPE
  5
14F
330
15
100
AcDbSymbolTableRecord
100
AcDbLinetypeTableRecord
  2
HIDDEN
 70
     0
  3
Verdeckt
 72
    65
 73
     2
 40
9.525
 49
6.349999999999999
 74
     0
 49
-3.174999999999999
 74
     0
  0
LTYPE
  5
150
330
15
100
AcDbSymbolTableRecord
100
AcDbLinetypeTableRecord
  2
PHANTOM2
 70
     0
  3
Phantom (.5x) ___ _ _ ___ _ _ ___ _ _ ___ _ _
 72
    65
 73
     6
 40
31.75
 49
15.875
 74
     0
 49
-3.174999999999999
 74
     0
 49
3.174999999999999
 74
     0
 49
-3.174999999999999
 74
     0
 49
3.174999999999999
 74
     0
 49
-3.174999999999999
 74
     0
  0
ENDTAB
  0
TABLE
  2
LAYER
  5
11
330
0
100
AcDbSymbolTable
 70
     7
  0
LAYER
  5
5
330
11
100
AcDbSymbolTableRecord
100
AcDbLayerTableRecord
  2
0
 70
     0
 62
     7
  6
CONTINUOUS
370
    -3
390
6
  0
LAYER
  5
4B
330
11
100
AcDbSymbolTableRecord
100
AcDbLayerTableRecord
  2
UMRISS05
 70
     0
 62
     4
  6
CONTINUOUS
370
    -3
390
6
  0
LAYER
  5
2D
330
11
100
AcDbSymbolTableRecord
100
AcDbLayerTableRecord
  2
BEMASSUNG
 70
     0
 62
     2
  6
CONTINUOUS
370
    -3
390
6
  0
LAYER
  5
6F
330
11
100
AcDbSymbolTableRecord
100
AcDbLayerTableRecord
  2
ACHSEN
 70
     0
 62
    12
  6
STRICHPUNKT2
370
    -3
390
6
  0
LAYER
  5
4E
330
11
100
AcDbSymbolTableRecord
100
AcDbLayerTableRecord
  2
AVERDECKTE
 70
     0
 62
    12
  6
VERDECKT2
370
    -3
390
6
  0
LAYER
  5
39
330
11
100
AcDbSymbolTableRecord
100
AcDbLayerTableRecord
  2
DEFPOINTS
 70
     0
 62
     7
  6
CONTINUOUS
290
     0
370
    -3
390
6
  0
LAYER
  5
28
330
11
100
AcDbSymbolTableRecord
100
AcDbLayerTableRecord
  2
KOPF03
 70
     0
 62
     1
  6
RANDX2
370
    -3
390
6
  0
ENDTAB
  0
TABLE
  2
STYLE
  5
12
330
0
100
AcDbSymbolTable
 70
     5
  0
STYLE
  5
13
330
12
100
AcDbSymbolTableRecord
100
AcDbTextStyleTableRecord
  2
STANDARD
 70
     0
 40
0.0
 41
1.0
 50
0.0
 71
     0
 42
10.0
  3
txt
  4

  0
STYLE
  5
20
330
12
100
AcDbSymbolTableRecord
100
AcDbTextStyleTableRecord
  2
ARIAL-STANDARD
 70
     0
 40
0.0
 41
1.0
 50
0.0
 71
     0
 42
3.5
  3
ARIAL.TTF
  4

1001
ACAD
1000
Arial
1071
       34
  0
STYLE
  5
113
330
12
100
AcDbSymbolTableRecord
100
AcDbTextStyleTableRecord
  2
ACDINTS
 70
     0
 40
1.0
 41
1.0
 50
0.0
 71
     0
 42
3.5
  3
isocp.shx
  4

  0
STYLE
  5
117
330
12
100
AcDbSymbolTableRecord
100
AcDbTextStyleTableRecord
  2
ACDINGDT
 70
     0
 40
0.0
 41
1.0
 50
0.0
 71
     0
 42
3.5
  3
amgdt.shx
  4

  0
STYLE
  5
109
330
12
100
AcDbSymbolTableRecord
100
AcDbTextStyleTableRecord
  2

 70
     1
 40
0.0
 41
1.0
 50
0.0
 71
     0
 42
3.5
  3
genltshp.shx
  4

  0
ENDTAB
  0
TABLE
  2
VIEW
  5
18
330
0
100
AcDbSymbolTable
 70
     0
  0
ENDTAB
  0
TABLE
  2
UCS
  5
19
330
0
100
AcDbSymbolTable
 70
     0
  0
ENDTAB
  0
TABLE
  2
APPID
  5
1C
330
0
100
AcDbSymbolTable
 70
     1
  0
APPID
  5
1D
330
1C
100
AcDbSymbolTableRecord
100
AcDbRegAppTableRecord
  2
ACAD
 70
     0
  0
ENDTAB
  0
TABLE
  2
DIMSTYLE
  5
1E
330
0
100
AcDbSymbolTable
 70
     1
100
AcDbDimStyleTable
 71
     1
340
1F
  0
DIMSTYLE
105
1F
102
{ACAD_REACTORS
330
2C
330
50
330
91
330
C3
330
3D
330
9E
330
80
330
DE
330
EE
330
AC
330
D1
330
5E
102
}
330
1E
100
AcDbSymbolTableRecord
100
AcDbDimStyleTableRecord
  2
NORMAL
 70
     0
 41
3.5
 42
0.0
 43
8.0
 44
0.5
 73
     0
 74
     0
 77
     1
 78
     8
140
3.5
141
1.5
146
0.5
147
1.0
172
     1
174
     1
176
   256
177
   256
178
     3
271
     2
272
     2
284
     8
340
20
  0
ENDTAB
  0
TABLE
  2
BLOCK_RECORD
  5
1
330
0
100
AcDbSymbolTable
 70
    12
  0
BLOCK_RECORD
  5
2
102
{ACAD_XDICTIONARY
360
3
102
}
330
1
100
AcDbSymbolTableRecord
100
AcDbBlockTableRecord
  2
*MODEL_SPACE
340
B
  0
BLOCK_RECORD
  5
D
330
1
100
AcDbSymbolTableRecord
100
AcDbBlockTableRecord
  2
*PAPER_SPACE
340
10
  0
BLOCK_RECORD
  5
9F
330
1
100
AcDbSymbolTableRecord
100
AcDbBlockTableRecord
  2
*D0
340
0
  0
BLOCK_RECORD
  5
AD
330
1
100
AcDbSymbolTableRecord
100
AcDbBlockTableRecord
  2
*D1
340
0
  0
BLOCK_RECORD
  5
C4
330
1
100
AcDbSymbolTableRecord
100
AcDbBlockTableRecord
  2
*D2
340
0
  0
BLOCK_RECORD
  5
3E
330
1
100
AcDbSymbolTableRecord
100
AcDbBlockTableRecord
  2
*D3
340
0
  0
BLOCK_RECORD
  5
5F
330
1
100
AcDbSymbolTableRecord
100
AcDbBlockTableRecord
  2
*D4
340
0
  0
BLOCK_RECORD
  5
DF
330
1
100
AcDbSymbolTableRecord
100
AcDbBlockTableRecord
  2
*D5
340
0
  0
BLOCK_RECORD
  5
81
330
1
100
AcDbSymbolTableRecord
100
AcDbBlockTableRecord
  2
*D6
340
0
  0
BLOCK_RECORD
  5
EF
330
1
100
AcDbSymbolTableRecord
100
AcDbBlockTableRecord
  2
*D7
340
0
  0
BLOCK_RECORD
  5
2E
330
1
100
AcDbSymbolTableRecord
100
AcDbBlockTableRecord
  2
*D8
340
0
  0
BLOCK_RECORD
  5
51
330
1
100
AcDbSymbolTableRecord
100
AcDbBlockTableRecord
  2
*D9
340
0
  0
BLOCK_RECORD
  5
92
330
1
100
AcDbSymbolTableRecord
100
AcDbBlockTableRecord
  2
*D10
340
0
  0
BLOCK_RECORD
  5
D2
330
1
100
AcDbSymbolTableRecord
100
AcDbBlockTableRecord
  2
*D11
340
0
  0
ENDTAB
  0
ENDSEC
  0
SECTION
  2
BLOCKS
  0
BLOCK
  5
4
330
2
100
AcDbEntity
  8
0
100
AcDbBlockBegin
  2
*MODEL_SPACE
 70
     0
 10
0.0
 20
0.0
 30
0.0
  3
*MODEL_SPACE
  1

  0
ENDBLK
  5
A
330
2
100
AcDbEntity
  8
0
100
AcDbBlockEnd
  0
BLOCK
  5
E
330
D
100
AcDbEntity
 67
     1
  8
0
100
AcDbBlockBegin
  2
*PAPER_SPACE
 70
     0
 10
0.0
 20
0.0
 30
0.0
  3
*PAPER_SPACE
  1

  0
ENDBLK
  5
F
330
D
100
AcDbEntity
 67
     1
  8
0
100
AcDbBlockEnd
  0
BLOCK
  5
A0
330
9F
100
AcDbEntity
  8
0
100
AcDbBlockBegin
  2
*D0
 70
     1
 10
0.0
 20
0.0
 30
0.0
  3
*D0
  1

  0
LINE
  5
A1
330
9F
100
AcDbEntity
  8
0
  6
ByBlock
100
AcDbLine
 10
60.05968887945176
 20
194.6972901321298
 30
0.0
 11
48.72727880557272
 21
194.6972901321298
 31
0.0
  0
LINE
  5
A2
330
9F
100
AcDbEntity
  8
0
  6
ByBlock
100
AcDbLine
 10
60.05968887945176
 20
176.6972901321298
 30
0.0
 11
48.72727880557272
 21
176.6972901321298
 31
0.0
  0
LINE
  5
A3
330
9F
100
AcDbEntity
  8
0
  6
ByBlock
100
AcDbLine
 10
49.22727880557272
 20
191.1972901321298
 30
0.0
 11
49.22727880557272
 21
180.1972901321298
 31
0.0
  0
SOLID
  5
A4
330
9F
100
AcDbEntity
  8
0
  6
ByBlock
100
AcDbTrace
 10
48.64394547223938
 20
191.1972901321298
 30
0.0
 11
49.81061213890606
 21
191.1972901321298
 31
0.0
 12
49.22727880557272
 22
194.6972901321298
 32
0.0
 13
49.22727880557272
 23
194.6972901321298
 33
0.0
  0
SOLID
  5
A5
330
9F
100
AcDbEntity
  8
0
  6
ByBlock
100
AcDbTrace
 10
48.64394547223938
 20
180.1972901321298
 30
0.0
 11
49.81061213890606
 21
180.1972901321298
 31
0.0
 12
49.22727880557272
 22
176.6972901321298
 32
0.0
 13
49.22727880557272
 23
176.6972901321298
 33
0.0
  0
MTEXT
  5
A6
330
9F
100
AcDbEntity
  8
0
  6
ByBlock
 62
     3
100
AcDbMText
 10
46.4402733485468
 20
185.6972901321299
 30
0.0
 40
3.5
 41
0.0
 71
     5
 72
     1
  1
\A1;18
  7
ARIAL-STANDARD
 11
0.0000000000000001
 21
1.0
 31
0.0
 73
     1
 44
1.0
  0
POINT
  5
A7
330
9F
100
AcDbEntity
  8
DEFPOINTS
  6
ByBlock
 62
     0
100
AcDbPoint
 10
60.05968887945176
 20
194.6972901321298
 30
0.0
  0
POINT
  5
A8
330
9F
100
AcDbEntity
  8
DEFPOINTS
  6
ByBlock
 62
     0
100
AcDbPoint
 10
60.05968887945176
 20
176.6972901321298
 30
0.0
  0
POINT
  5
A9
330
9F
100
AcDbEntity
  8
DEFPOINTS
  6
ByBlock
 62
     0
100
AcDbPoint
 10
49.22727880557272
 20
176.6972901321298
 30
0.0
  0
ENDBLK
  5
AA
330
9F
100
AcDbEntity
  8
0
100
AcDbBlockEnd
  0
BLOCK
  5
AE
330
AD
100
AcDbEntity
  8
0
100
AcDbBlockBegin
  2
*D1
 70
     1
 10
0.0
 20
0.0
 30
0.0
  3
*D1
  1

  0
LINE
  5
AF
330
AD
100
AcDbEntity
  8
BEMASSUNG
370
    -2
100
AcDbLine
 10
98.05968887945182
 20
188.6972901321298
 30
0.0
 11
87.55968887945185
 21
188.6972901321298
 31
0.0
  0
LINE
  5
B0
330
AD
100
AcDbEntity
  8
BEMASSUNG
370
    -2
100
AcDbLine
 10
98.05968887945182
 20
182.6972901321298
 30
0.0
 11
87.55968887945185
 21
182.6972901321298
 31
0.0
  0
LINE
  5
B1
330
AD
100
AcDbEntity
  8
BEMASSUNG
370
    -2
100
AcDbLine
 10
88.05968887945184
 20
192.1972901321298
 30
0.0
 11
88.05968887945184
 21
195.6972901321298
 31
0.0
  0
LINE
  5
B2
330
AD
100
AcDbEntity
  8
BEMASSUNG
370
    -2
100
AcDbLine
 10
88.05968887945184
 20
179.1972901321298
 30
0.0
 11
88.05968887945184
 21
175.6972901321298
 31
0.0
  0
LINE
  5
B3
330
AD
100
AcDbEntity
  8
BEMASSUNG
370
    -2
100
AcDbLine
 10
88.05968887945184
 20
188.6972901321298
 30
0.0
 11
88.05968887945184
 21
182.6972901321298
 31
0.0
  0
SOLID
  5
B4
330
AD
100
AcDbEntity
  8
BEMASSUNG
100
AcDbTrace
 10
87.47635554611852
 20
192.1972901321298
 30
0.0
 11
88.64302221278517
 21
192.1972901321298
 31
0.0
 12
88.05968887945184
 22
188.6972901321298
 32
0.0
 13
88.05968887945184
 23
188.6972901321298
 33
0.0
  0
SOLID
  5
B5
330
AD
100
AcDbEntity
  8
BEMASSUNG
100
AcDbTrace
 10
87.47635554611852
 20
179.1972901321298
 30
0.0
 11
88.64302221278517
 21
179.1972901321298
 31
0.0
 12
88.05968887945184
 22
182.6972901321298
 32
0.0
 13
88.05968887945184
 23
182.6972901321298
 33
0.0
  0
MTEXT
  5
B6
330
AD
100
AcDbEntity
  8
BEMASSUNG
 62
     3
100
AcDbMText
 10
85.27268342242589
 20
185.6972901321299
 30
0.0
 40
3.5
 41
0.0
 71
     5
 72
     1
  1
\A1;6
  7
ARIAL-STANDARD
 11
0.0000000000000001
 21
1.0
 31
0.0
 73
     1
 44
1.0
  0
POINT
  5
B7
330
AD
100
AcDbEntity
  8
DEFPOINTS
 62
     0
100
AcDbPoint
 10
98.05968887945182
 20
188.6972901321298
 30
0.0
  0
POINT
  5
B8
330
AD
100
AcDbEntity
  8
DEFPOINTS
 62
     0
100
AcDbPoint
 10
98.05968887945182
 20
182.6972901321298
 30
0.0
  0
POINT
  5
B9
330
AD
100
AcDbEntity
  8
DEFPOINTS
 62
     0
100
AcDbPoint
 10
88.05968887945184
 20
182.6972901321298
 30
0.0
  0
ENDBLK
  5
BA
330
AD
100
AcDbEntity
  8
0
100
AcDbBlockEnd
  0
BLOCK
  5
C5
330
C4
100
AcDbEntity
  8
0
100
AcDbBlockBegin
  2
*D2
 70
     1
 10
0.0
 20
0.0
 30
0.0
  3
*D2
  1

  0
LINE
  5
C6
330
C4
100
AcDbEntity
  8
0
  6
ByBlock
100
AcDbLine
 10
78.05968887945181
 20
182.6972901321298
 30
0.0
 11
78.05968887945181
 21
167.109106018711
 31
0.0
  0
LINE
  5
C7
330
C4
100
AcDbEntity
  8
0
  6
ByBlock
100
AcDbLine
 10
98.05968887945182
 20
182.6972901321298
 30
0.0
 11
98.05968887945182
 21
167.109106018711
 31
0.0
  0
LINE
  5
C8
330
C4
100
AcDbEntity
  8
0
  6
ByBlock
100
AcDbLine
 10
81.55968887945181
 20
167.609106018711
 30
0.0
 11
94.5596888794518
 21
167.609106018711
 31
0.0
  0
SOLID
  5
C9
330
C4
100
AcDbEntity
  8
0
  6
ByBlock
100
AcDbTrace
 10
81.55968887945181
 20
168.1924393520444
 30
0.0
 11
81.55968887945181
 21
167.0257726853777
 31
0.0
 12
78.05968887945181
 22
167.609106018711
 32
0.0
 13
78.05968887945181
 23
167.609106018711
 33
0.0
  0
SOLID
  5
CA
330
C4
100
AcDbEntity
  8
0
  6
ByBlock
100
AcDbTrace
 10
94.5596888794518
 20
168.1924393520444
 30
0.0
 11
94.5596888794518
 21
167.0257726853777
 31
0.0
 12
98.05968887945182
 22
167.609106018711
 32
0.0
 13
98.05968887945182
 23
167.609106018711
 33
0.0
  0
MTEXT
  5
CB
330
C4
100
AcDbEntity
  8
0
  6
ByBlock
 62
     3
100
AcDbMText
 10
88.60393589591557
 20
170.3961114757369
 30
0.0
 40
3.5
 41
0.0
 71
     5
 72
     1
  1
\A1;20
  7
ARIAL-STANDARD
 73
     1
 44
1.0
  0
POINT
  5
CC
330
C4
100
AcDbEntity
  8
DEFPOINTS
  6
ByBlock
 62
     0
100
AcDbPoint
 10
78.05968887945181
 20
182.6972901321298
 30
0.0
  0
POINT
  5
CD
330
C4
100
AcDbEntity
  8
DEFPOINTS
  6
ByBlock
 62
     0
100
AcDbPoint
 10
98.05968887945182
 20
182.6972901321298
 30
0.0
  0
POINT
  5
CE
330
C4
100
AcDbEntity
  8
DEFPOINTS
  6
ByBlock
 62
     0
100
AcDbPoint
 10
98.05968887945182
 20
167.609106018711
 30
0.0
  0
ENDBLK
  5
CF
330
C4
100
AcDbEntity
  8
0
100
AcDbBlockEnd
  0
BLOCK
  5
3F
330
3E
100
AcDbEntity
  8
0
100
AcDbBlockBegin
  2
*D3
 70
     1
 10
0.0
 20
0.0
 30
0.0
  3
*D3
  1

  0
LINE
  5
40
330
3E
100
AcDbEntity
  8
0
  6
ByBlock
100
AcDbLine
 10
60.05968887945176
 20
124.1444458423002
 30
0.0
 11
60.05968887945176
 21
105.7406009213866
 31
0.0
  0
LINE
  5
41
330
3E
100
AcDbEntity
  8
0
  6
ByBlock
100
AcDbLine
 10
116.0596888794517
 20
124.1444458423002
 30
0.0
 11
116.0596888794517
 21
105.7406009213866
 31
0.0
  0
LINE
  5
42
330
3E
100
AcDbEntity
  8
0
  6
ByBlock
100
AcDbLine
 10
63.55968887945175
 20
106.2406009213866
 30
0.0
 11
112.5596888794517
 21
106.2406009213866
 31
0.0
  0
SOLID
  5
43
330
3E
100
AcDbEntity
  8
0
  6
ByBlock
100
AcDbTrace
 10
63.55968887945175
 20
106.82393425472
 30
0.0
 11
63.55968887945175
 21
105.6572675880533
 31
0.0
 12
60.05968887945176
 22
106.2406009213866
 32
0.0
 13
60.05968887945176
 23
106.2406009213866
 33
0.0
  0
SOLID
  5
44
330
3E
100
AcDbEntity
  8
0
  6
ByBlock
100
AcDbTrace
 10
112.5596888794517
 20
106.82393425472
 30
0.0
 11
112.5596888794517
 21
105.6572675880533
 31
0.0
 12
116.0596888794517
 22
106.2406009213866
 32
0.0
 13
116.0596888794517
 23
106.2406009213866
 33
0.0
  0
MTEXT
  5
45
330
3E
100
AcDbEntity
  8
0
  6
ByBlock
 62
     3
100
AcDbMText
 10
88.05968887945175
 20
109.0276063784125
 30
0.0
 40
3.5
 41
0.0
 71
     5
 72
     1
  1
\A1;56
  7
ARIAL-STANDARD
 73
     1
 44
1.0
  0
POINT
  5
46
330
3E
100
AcDbEntity
  8
DEFPOINTS
  6
ByBlock
 62
     0
100
AcDbPoint
 10
60.05968887945176
 20
124.1444458423002
 30
0.0
  0
POINT
  5
47
330
3E
100
AcDbEntity
  8
DEFPOINTS
  6
ByBlock
 62
     0
100
AcDbPoint
 10
116.0596888794517
 20
124.1444458423002
 30
0.0
  0
POINT
  5
48
330
3E
100
AcDbEntity
  8
DEFPOINTS
  6
ByBlock
 62
     0
100
AcDbPoint
 10
116.0596888794517
 20
106.2406009213866
 30
0.0
  0
ENDBLK
  5
49
330
3E
100
AcDbEntity
  8
0
100
AcDbBlockEnd
  0
BLOCK
  5
60
330
5F
100
AcDbEntity
  8
0
100
AcDbBlockBegin
  2
*D4
 70
     1
 10
0.0
 20
0.0
 30
0.0
  3
*D4
  1

  0
LINE
  5
61
330
5F
100
AcDbEntity
  8
0
  6
ByBlock
100
AcDbLine
 10
60.05968887945176
 20
124.1444458423002
 30
0.0
 11
48.72727880557271
 21
124.1444458423002
 31
0.0
  0
LINE
  5
62
330
5F
100
AcDbEntity
  8
0
  6
ByBlock
100
AcDbLine
 10
60.05968887945176
 20
127.1444458423002
 30
0.0
 11
48.72727880557271
 21
127.1444458423002
 31
0.0
  0
LINE
  5
63
330
5F
100
AcDbEntity
  8
0
  6
ByBlock
100
AcDbLine
 10
49.22727880557271
 20
120.6444458423002
 30
0.0
 11
49.22727880557271
 21
117.1444458423002
 31
0.0
  0
LINE
  5
64
330
5F
100
AcDbEntity
  8
0
  6
ByBlock
100
AcDbLine
 10
49.22727880557271
 20
130.6444458423002
 30
0.0
 11
49.22727880557271
 21
134.1444458423002
 31
0.0
  0
LINE
  5
65
330
5F
100
AcDbEntity
  8
0
  6
ByBlock
100
AcDbLine
 10
49.22727880557271
 20
124.1444458423002
 30
0.0
 11
49.22727880557271
 21
127.1444458423002
 31
0.0
  0
SOLID
  5
66
330
5F
100
AcDbEntity
  8
0
  6
ByBlock
100
AcDbTrace
 10
48.64394547223938
 20
120.6444458423002
 30
0.0
 11
49.81061213890605
 21
120.6444458423002
 31
0.0
 12
49.22727880557271
 22
124.1444458423002
 32
0.0
 13
49.22727880557271
 23
124.1444458423002
 33
0.0
  0
SOLID
  5
67
330
5F
100
AcDbEntity
  8
0
  6
ByBlock
100
AcDbTrace
 10
48.64394547223938
 20
130.6444458423002
 30
0.0
 11
49.81061213890605
 21
130.6444458423002
 31
0.0
 12
49.22727880557271
 22
127.1444458423002
 32
0.0
 13
49.22727880557271
 23
127.1444458423002
 33
0.0
  0
MTEXT
  5
68
330
5F
100
AcDbEntity
  8
0
  6
ByBlock
 62
     3
100
AcDbMText
 10
46.43907962412661
 20
125.6444458423002
 30
0.0
 40
3.5
 41
0.0
 71
     5
 72
     1
  1
\A1;3
  7
ARIAL-STANDARD
 11
0.0000000000000001
 21
1.0
 31
0.0
 73
     1
 44
1.0
  0
POINT
  5
69
330
5F
100
AcDbEntity
  8
DEFPOINTS
  6
ByBlock
 62
     0
100
AcDbPoint
 10
60.05968887945176
 20
124.1444458423002
 30
0.0
  0
POINT
  5
6A
330
5F
100
AcDbEntity
  8
DEFPOINTS
  6
ByBlock
 62
     0
100
AcDbPoint
 10
60.05968887945176
 20
127.1444458423002
 30
0.0
  0
POINT
  5
6B
330
5F
100
AcDbEntity
  8
DEFPOINTS
  6
ByBlock
 62
     0
100
AcDbPoint
 10
49.22727880557271
 20
127.1444458423002
 30
0.0
  0
ENDBLK
  5
6C
330
5F
100
AcDbEntity
  8
0
100
AcDbBlockEnd
  0
BLOCK
  5
E0
330
DF
100
AcDbEntity
  8
0
100
AcDbBlockBegin
  2
*D5
 70
     1
 10
0.0
 20
0.0
 30
0.0
  3
*D5
  1

  0
LINE
  5
E1
330
DF
100
AcDbEntity
  8
0
  6
ByBlock
100
AcDbLine
 10
67.05968887945175
 20
191.6972901321298
 30
0.0
 11
67.05968887945175
 21
205.227154299738
 31
0.0
  0
LINE
  5
E2
330
DF
100
AcDbEntity
  8
0
  6
ByBlock
100
AcDbLine
 10
109.0596888794517
 20
191.6972901321298
 30
0.0
 11
109.0596888794517
 21
205.227154299738
 31
0.0
  0
LINE
  5
E3
330
DF
100
AcDbEntity
  8
0
  6
ByBlock
100
AcDbLine
 10
70.55968887945176
 20
204.727154299738
 30
0.0
 11
105.5596888794517
 21
204.727154299738
 31
0.0
  0
SOLID
  5
E4
330
DF
100
AcDbEntity
  8
0
  6
ByBlock
100
AcDbTrace
 10
70.55968887945176
 20
205.3104876330714
 30
0.0
 11
70.55968887945176
 21
204.1438209664046
 31
0.0
 12
67.05968887945175
 22
204.727154299738
 32
0.0
 13
67.05968887945175
 23
204.727154299738
 33
0.0
  0
SOLID
  5
E5
330
DF
100
AcDbEntity
  8
0
  6
ByBlock
100
AcDbTrace
 10
105.5596888794517
 20
205.3104876330714
 30
0.0
 11
105.5596888794517
 21
204.1438209664046
 31
0.0
 12
109.0596888794517
 22
204.727154299738
 32
0.0
 13
109.0596888794517
 23
204.727154299738
 33
0.0
  0
MTEXT
  5
E6
330
DF
100
AcDbEntity
  8
0
  6
ByBlock
 62
     3
100
AcDbMText
 10
88.05968887945175
 20
207.4843166462592
 30
0.0
 40
3.5
 41
0.0
 71
     5
 72
     1
  1
\A1;42
  7
ARIAL-STANDARD
 73
     1
 44
1.0
  0
POINT
  5
E7
330
DF
100
AcDbEntity
  8
DEFPOINTS
  6
ByBlock
 62
     0
100
AcDbPoint
 10
67.05968887945175
 20
191.6972901321298
 30
0.0
  0
POINT
  5
E8
330
DF
100
AcDbEntity
  8
DEFPOINTS
  6
ByBlock
 62
     0
100
AcDbPoint
 10
109.0596888794517
 20
191.6972901321298
 30
0.0
  0
POINT
  5
E9
330
DF
100
AcDbEntity
  8
DEFPOINTS
  6
ByBlock
 62
     0
100
AcDbPoint
 10
109.0596888794517
 20
204.727154299738
 30
0.0
  0
ENDBLK
  5
EA
330
DF
100
AcDbEntity
  8
0
100
AcDbBlockEnd
  0
BLOCK
  5
82
330
81
100
AcDbEntity
  8
0
100
AcDbBlockBegin
  2
*D6
 70
     1
 10
0.0
 20
0.0
 30
0.0
  3
*D6
  1

  0
LINE
  5
83
330
81
100
AcDbEntity
  8
0
  6
ByBlock
100
AcDbLine
 10
67.05968887945175
 20
191.6972901321298
 30
0.0
 11
67.05968887945175
 21
205.227154299738
 31
0.0
  0
LINE
  5
84
330
81
100
AcDbEntity
  8
0
  6
ByBlock
100
AcDbLine
 10
60.05968887945176
 20
194.6972901321298
 30
0.0
 11
60.05968887945176
 21
205.227154299738
 31
0.0
  0
LINE
  5
85
330
81
100
AcDbEntity
  8
0
  6
ByBlock
100
AcDbLine
 10
70.55968887945176
 20
204.727154299738
 30
0.0
 11
74.05968887945175
 21
204.727154299738
 31
0.0
  0
LINE
  5
86
330
81
100
AcDbEntity
  8
0
  6
ByBlock
100
AcDbLine
 10
56.55968887945175
 20
204.727154299738
 30
0.0
 11
53.05968887945176
 21
204.727154299738
 31
0.0
  0
LINE
  5
87
330
81
100
AcDbEntity
  8
0
  6
ByBlock
100
AcDbLine
 10
67.05968887945175
 20
204.727154299738
 30
0.0
 11
60.05968887945176
 21
204.727154299738
 31
0.0
  0
SOLID
  5
88
330
81
100
AcDbEntity
  8
0
  6
ByBlock
100
AcDbTrace
 10
70.55968887945176
 20
205.3104876330714
 30
0.0
 11
70.55968887945176
 21
204.1438209664046
 31
0.0
 12
67.05968887945175
 22
204.727154299738
 32
0.0
 13
67.05968887945175
 23
204.727154299738
 33
0.0
  0
SOLID
  5
89
330
81
100
AcDbEntity
  8
0
  6
ByBlock
100
AcDbTrace
 10
56.55968887945175
 20
205.3104876330714
 30
0.0
 11
56.55968887945175
 21
204.1438209664046
 31
0.0
 12
60.05968887945176
 22
204.727154299738
 32
0.0
 13
60.05968887945176
 23
204.727154299738
 33
0.0
  0
MTEXT
  5
8A
330
81
100
AcDbEntity
  8
0
  6
ByBlock
 62
     3
100
AcDbMText
 10
63.55968887945175
 20
207.477154299738
 30
0.0
 40
3.5
 41
0.0
 71
     5
 72
     1
  1
\A1;7
  7
ARIAL-STANDARD
 73
     1
 44
1.0
  0
POINT
  5
8B
330
81
100
AcDbEntity
  8
DEFPOINTS
  6
ByBlock
 62
     0
100
AcDbPoint
 10
67.05968887945175
 20
191.6972901321298
 30
0.0
  0
POINT
  5
8C
330
81
100
AcDbEntity
  8
DEFPOINTS
  6
ByBlock
 62
     0
100
AcDbPoint
 10
60.05968887945176
 20
194.6972901321298
 30
0.0
  0
POINT
  5
8D
330
81
100
AcDbEntity
  8
DEFPOINTS
  6
ByBlock
 62
     0
100
AcDbPoint
 10
60.05968887945176
 20
204.727154299738
 30
0.0
  0
ENDBLK
  5
8E
330
81
100
AcDbEntity
  8
0
100
AcDbBlockEnd
  0
BLOCK
  5
F0
330
EF
100
AcDbEntity
  8
0
100
AcDbBlockBegin
  2
*D7
 70
     1
 10
0.0
 20
0.0
 30
0.0
  3
*D7
  1

  0
LINE
  5
F1
330
EF
100
AcDbEntity
  8
0
  6
ByBlock
100
AcDbLine
 10
109.0596888794517
 20
191.6972901321298
 30
0.0
 11
109.0596888794517
 21
205.227154299738
 31
0.0
  0
LINE
  5
F2
330
EF
100
AcDbEntity
  8
0
  6
ByBlock
100
AcDbLine
 10
116.0596888794517
 20
194.6972901321298
 30
0.0
 11
116.0596888794517
 21
205.227154299738
 31
0.0
  0
LINE
  5
F3
330
EF
100
AcDbEntity
  8
0
  6
ByBlock
100
AcDbLine
 10
105.5596888794517
 20
204.727154299738
 30
0.0
 11
102.0596888794517
 21
204.727154299738
 31
0.0
  0
LINE
  5
F4
330
EF
100
AcDbEntity
  8
0
  6
ByBlock
100
AcDbLine
 10
119.5596888794517
 20
204.727154299738
 30
0.0
 11
123.0596888794517
 21
204.727154299738
 31
0.0
  0
LINE
  5
F5
330
EF
100
AcDbEntity
  8
0
  6
ByBlock
100
AcDbLine
 10
109.0596888794517
 20
204.727154299738
 30
0.0
 11
116.0596888794517
 21
204.727154299738
 31
0.0
  0
SOLID
  5
F6
330
EF
100
AcDbEntity
  8
0
  6
ByBlock
100
AcDbTrace
 10
105.5596888794517
 20
205.3104876330714
 30
0.0
 11
105.5596888794517
 21
204.1438209664046
 31
0.0
 12
109.0596888794517
 22
204.727154299738
 32
0.0
 13
109.0596888794517
 23
204.727154299738
 33
0.0
  0
SOLID
  5
F7
330
EF
100
AcDbEntity
  8
0
  6
ByBlock
100
AcDbTrace
 10
119.5596888794517
 20
205.3104876330714
 30
0.0
 11
119.5596888794517
 21
204.1438209664046
 31
0.0
 12
116.0596888794517
 22
204.727154299738
 32
0.0
 13
116.0596888794517
 23
204.727154299738
 33
0.0
  0
MTEXT
  5
F8
330
EF
100
AcDbEntity
  8
0
  6
ByBlock
 62
     3
100
AcDbMText
 10
112.5596888794517
 20
207.477154299738
 30
0.0
 40
3.5
 41
0.0
 71
     5
 72
     1
  1
\A1;7
  7
ARIAL-STANDARD
 73
     1
 44
1.0
  0
POINT
  5
F9
330
EF
100
AcDbEntity
  8
DEFPOINTS
  6
ByBlock
 62
     0
100
AcDbPoint
 10
109.0596888794517
 20
191.6972901321298
 30
0.0
  0
POINT
  5
FA
330
EF
100
AcDbEntity
  8
DEFPOINTS
  6
ByBlock
 62
     0
100
AcDbPoint
 10
116.0596888794517
 20
194.6972901321298
 30
0.0
  0
POINT
  5
FB
330
EF
100
AcDbEntity
  8
DEFPOINTS
  6
ByBlock
 62
     0
100
AcDbPoint
 10
116.0596888794517
 20
204.727154299738
 30
0.0
  0
ENDBLK
  5
FC
330
EF
100
AcDbEntity
  8
0
100
AcDbBlockEnd
  0
BLOCK
  5
2F
330
2E
100
AcDbEntity
  8
0
100
AcDbBlockBegin
  2
*D8
 70
     1
 10
0.0
 20
0.0
 30
0.0
  3
*D8
  1

  0
LINE
  5
30
330
2E
100
AcDbEntity
  8
BEMASSUNG
370
    -2
100
AcDbLine
 10
64.90976277157276
 20
127.1444458423002
 30
0.0
 11
64.90976277157276
 21
135.9401312579325
 31
0.0
  0
LINE
  5
31
330
2E
100
AcDbEntity
  8
BEMASSUNG
370
    -2
100
AcDbLine
 10
69.20968887945176
 20
127.1444458423002
 30
0.0
 11
69.20968887945176
 21
135.9401312579325
 31
0.0
  0
LINE
  5
32
330
2E
100
AcDbEntity
  8
BEMASSUNG
370
    -2
100
AcDbLine
 10
61.40976277157276
 20
135.4401312579325
 30
0.0
 11
57.90976277157276
 21
135.4401312579325
 31
0.0
  0
LINE
  5
33
330
2E
100
AcDbEntity
  8
BEMASSUNG
370
    -2
100
AcDbLine
 10
72.70968887945176
 20
135.4401312579325
 30
0.0
 11
76.20968887945176
 21
135.4401312579325
 31
0.0
  0
LINE
  5
34
330
2E
100
AcDbEntity
  8
BEMASSUNG
370
    -2
100
AcDbLine
 10
64.90976277157276
 20
135.4401312579325
 30
0.0
 11
69.20968887945176
 21
135.4401312579325
 31
0.0
  0
SOLID
  5
35
330
2E
100
AcDbEntity
  8
BEMASSUNG
100
AcDbTrace
 10
61.40976277157276
 20
136.0234645912659
 30
0.0
 11
61.40976277157276
 21
134.8567979245992
 31
0.0
 12
64.90976277157276
 22
135.4401312579325
 32
0.0
 13
64.90976277157276
 23
135.4401312579325
 33
0.0
  0
SOLID
  5
36
330
2E
100
AcDbEntity
  8
BEMASSUNG
100
AcDbTrace
 10
72.70968887945176
 20
136.0234645912659
 30
0.0
 11
72.70968887945176
 21
134.8567979245992
 31
0.0
 12
69.20968887945176
 22
135.4401312579325
 32
0.0
 13
69.20968887945176
 23
135.4401312579325
 33
0.0
  0
MTEXT
  5
37
330
2E
100
AcDbEntity
  8
BEMASSUNG
 62
     3
100
AcDbMText
 10
67.05972582551225
 20
138.3250221174141
 30
0.0
 40
3.5
 41
0.0
 71
     5
 72
     1
  1
\A1;%%c4.3
  7
ARIAL-STANDARD
 73
     1
 44
1.0
  0
POINT
  5
38
330
2E
100
AcDbEntity
  8
DEFPOINTS
 62
     0
100
AcDbPoint
 10
64.90976277157276
 20
127.1444458423002
 30
0.0
  0
POINT
  5
3A
330
2E
100
AcDbEntity
  8
DEFPOINTS
 62
     0
100
AcDbPoint
 10
69.20968887945176
 20
127.1444458423002
 30
0.0
  0
POINT
  5
3B
330
2E
100
AcDbEntity
  8
DEFPOINTS
 62
     0
100
AcDbPoint
 10
69.20968887945176
 20
135.4401312579325
 30
0.0
  0
ENDBLK
  5
3C
330
2E
100
AcDbEntity
  8
0
100
AcDbBlockEnd
  0
BLOCK
  5
52
330
51
100
AcDbEntity
  8
0
100
AcDbBlockBegin
  2
*D9
 70
     1
 10
0.0
 20
0.0
 30
0.0
  3
*D9
  1

  0
LINE
  5
53
330
51
100
AcDbEntity
  8
0
  6
ByBlock
100
AcDbLine
 10
62.55968887945176
 20
124.1444458423002
 30
0.0
 11
62.55968887945176
 21
115.8862006236242
 31
0.0
  0
LINE
  5
54
330
51
100
AcDbEntity
  8
0
  6
ByBlock
100
AcDbLine
 10
71.55968887945175
 20
124.1444458423002
 30
0.0
 11
71.55968887945175
 21
115.8862006236242
 31
0.0
  0
LINE
  5
55
330
51
100
AcDbEntity
  8
0
  6
ByBlock
100
AcDbLine
 10
66.05968887945175
 20
116.3862006236241
 30
0.0
 11
68.05968887945176
 21
116.3862006236241
 31
0.0
  0
LINE
  5
56
330
51
100
AcDbEntity
  8
0
  6
ByBlock
100
AcDbLine
 10
71.55968887945175
 20
116.3862006236241
 30
0.0
 11
92.89802448654588
 21
116.3862006236241
 31
0.0
  0
SOLID
  5
57
330
51
100
AcDbEntity
  8
0
  6
ByBlock
100
AcDbTrace
 10
66.05968887945175
 20
116.9695339569575
 30
0.0
 11
66.05968887945175
 21
115.8028672902908
 31
0.0
 12
62.55968887945176
 22
116.3862006236241
 32
0.0
 13
62.55968887945176
 23
116.3862006236241
 33
0.0
  0
SOLID
  5
58
330
51
100
AcDbEntity
  8
0
  6
ByBlock
100
AcDbTrace
 10
68.05968887945176
 20
116.9695339569575
 30
0.0
 11
68.05968887945176
 21
115.8028672902908
 31
0.0
 12
71.55968887945175
 22
116.3862006236241
 32
0.0
 13
71.55968887945175
 23
116.3862006236241
 33
0.0
  0
MTEXT
  5
59
330
51
100
AcDbEntity
  8
0
  6
ByBlock
 62
     3
100
AcDbMText
 10
83.97885668299883
 20
119.2710914831057
 30
0.0
 40
3.5
 41
0.0
 71
     5
 72
     1
  1
\A1;\U+22059x90°
  7
ARIAL-STANDARD
 73
     1
 44
1.0
  0
POINT
  5
5A
330
51
100
AcDbEntity
  8
DEFPOINTS
  6
ByBlock
 62
     0
100
AcDbPoint
 10
62.55968887945176
 20
124.1444458423002
 30
0.0
  0
POINT
  5
5B
330
51
100
AcDbEntity
  8
DEFPOINTS
  6
ByBlock
 62
     0
100
AcDbPoint
 10
71.55968887945175
 20
124.1444458423002
 30
0.0
  0
POINT
  5
5C
330
51
100
AcDbEntity
  8
DEFPOINTS
  6
ByBlock
 62
     0
100
AcDbPoint
 10
71.55968887945175
 20
116.3862006236241
 30
0.0
  0
ENDBLK
  5
5D
330
51
100
AcDbEntity
  8
0
100
AcDbBlockEnd
  0
BLOCK
  5
93
330
92
100
AcDbEntity
  8
0
100
AcDbBlockBegin
  2
*D10
 70
     1
 10
0.0
 20
0.0
 30
0.0
  3
*D10
  1

  0
LINE
  5
94
330
92
100
AcDbEntity
  8
0
  6
ByBlock
100
AcDbLine
 10
60.05968887945176
 20
176.6972901321298
 30
0.0
 11
60.05968887945176
 21
167.109106018711
 31
0.0
  0
LINE
  5
95
330
92
100
AcDbEntity
  8
0
  6
ByBlock
100
AcDbLine
 10
78.05968887945181
 20
182.6972901321298
 30
0.0
 11
78.05968887945181
 21
167.109106018711
 31
0.0
  0
LINE
  5
96
330
92
100
AcDbEntity
  8
0
  6
ByBlock
100
AcDbLine
 10
63.55968887945175
 20
167.609106018711
 30
0.0
 11
74.55968887945181
 21
167.609106018711
 31
0.0
  0
SOLID
  5
97
330
92
100
AcDbEntity
  8
0
  6
ByBlock
100
AcDbTrace
 10
63.55968887945175
 20
168.1924393520444
 30
0.0
 11
63.55968887945175
 21
167.0257726853777
 31
0.0
 12
60.05968887945176
 22
167.609106018711
 32
0.0
 13
60.05968887945176
 23
167.609106018711
 33
0.0
  0
SOLID
  5
98
330
92
100
AcDbEntity
  8
0
  6
ByBlock
100
AcDbTrace
 10
74.55968887945181
 20
168.1924393520444
 30
0.0
 11
74.55968887945181
 21
167.0257726853777
 31
0.0
 12
78.05968887945181
 22
167.609106018711
 32
0.0
 13
78.05968887945181
 23
167.609106018711
 33
0.0
  0
MTEXT
  5
99
330
92
100
AcDbEntity
  8
0
  6
ByBlock
 62
     3
100
AcDbMText
 10
69.05968887945178
 20
170.3961114757369
 30
0.0
 40
3.5
 41
0.0
 71
     5
 72
     1
  1
\A1;18
  7
ARIAL-STANDARD
 73
     1
 44
1.0
  0
POINT
  5
9A
330
92
100
AcDbEntity
  8
DEFPOINTS
  6
ByBlock
 62
     0
100
AcDbPoint
 10
60.05968887945176
 20
176.6972901321298
 30
0.0
  0
POINT
  5
9B
330
92
100
AcDbEntity
  8
DEFPOINTS
  6
ByBlock
 62
     0
100
AcDbPoint
 10
78.05968887945181
 20
182.6972901321298
 30
0.0
  0
POINT
  5
9C
330
92
100
AcDbEntity
  8
DEFPOINTS
  6
ByBlock
 62
     0
100
AcDbPoint
 10
78.05968887945181
 20
167.609106018711
 30
0.0
  0
ENDBLK
  5
9D
330
92
100
AcDbEntity
  8
0
100
AcDbBlockEnd
  0
BLOCK
  5
D3
330
D2
100
AcDbEntity
  8
0
100
AcDbBlockBegin
  2
*D11
 70
     1
 10
0.0
 20
0.0
 30
0.0
  3
*D11
  1

  0
LINE
  5
D4
330
D2
100
AcDbEntity
  8
0
  6
ByBlock
100
AcDbLine
 10
98.05968887945182
 20
182.6972901321298
 30
0.0
 11
98.05968887945182
 21
167.109106018711
 31
0.0
  0
LINE
  5
D5
330
D2
100
AcDbEntity
  8
0
  6
ByBlock
100
AcDbLine
 10
116.0596888794517
 20
176.6972901321298
 30
0.0
 11
116.0596888794517
 21
167.109106018711
 31
0.0
  0
LINE
  5
D6
330
D2
100
AcDbEntity
  8
0
  6
ByBlock
100
AcDbLine
 10
101.5596888794518
 20
167.609106018711
 30
0.0
 11
112.5596888794517
 21
167.609106018711
 31
0.0
  0
SOLID
  5
D7
330
D2
100
AcDbEntity
  8
0
  6
ByBlock
100
AcDbTrace
 10
101.5596888794518
 20
168.1924393520444
 30
0.0
 11
101.5596888794518
 21
167.0257726853777
 31
0.0
 12
98.05968887945182
 22
167.609106018711
 32
0.0
 13
98.05968887945182
 23
167.609106018711
 33
0.0
  0
SOLID
  5
D8
330
D2
100
AcDbEntity
  8
0
  6
ByBlock
100
AcDbTrace
 10
112.5596888794517
 20
168.1924393520444
 30
0.0
 11
112.5596888794517
 21
167.0257726853777
 31
0.0
 12
116.0596888794517
 22
167.609106018711
 32
0.0
 13
116.0596888794517
 23
167.609106018711
 33
0.0
  0
MTEXT
  5
D9
330
D2
100
AcDbEntity
  8
0
  6
ByBlock
 62
     3
100
AcDbMText
 10
107.0596888794518
 20
170.3961114757369
 30
0.0
 40
3.5
 41
0.0
 71
     5
 72
     1
  1
\A1;18
  7
ARIAL-STANDARD
 73
     1
 44
1.0
  0
POINT
  5
DA
330
D2
100
AcDbEntity
  8
DEFPOINTS
  6
ByBlock
 62
     0
100
AcDbPoint
 10
98.05968887945182
 20
182.6972901321298
 30
0.0
  0
POINT
  5
DB
330
D2
100
AcDbEntity
  8
DEFPOINTS
  6
ByBlock
 62
     0
100
AcDbPoint
 10
116.0596888794517
 20
176.6972901321298
 30
0.0
  0
POINT
  5
DC
330
D2
100
AcDbEntity
  8
DEFPOINTS
  6
ByBlock
 62
     0
100
AcDbPoint
 10
116.0596888794517
 20
167.609106018711
 30
0.0
  0
ENDBLK
  5
DD
330
D2
100
AcDbEntity
  8
0
100
AcDbBlockEnd
  0
ENDSEC
  0
SECTION
  2
ENTITIES
  0
DIMENSION
  5
2C
330
2
100
AcDbEntity
  8
BEMASSUNG
100
AcDbDimension
  2
*D8
 10
69.20968887945176
 20
135.4401312579325
 30
0.0
 11
67.05972582551225
 21
138.3250221174141
 31
0.0
 70
     1
  1
%%c<>
 71
     5
 42
4.299926107879002
  3
NORMAL
100
AcDbAlignedDimension
 13
64.90976277157276
 23
127.1444458423002
 33
0.0
 14
69.20968887945176
 24
127.1444458423002
 34
0.0
  0
DIMENSION
  5
3D
330
2
100
AcDbEntity
  8
BEMASSUNG
100
AcDbDimension
  2
*D3
 10
116.0596888794517
 20
106.2406009213866
 30
0.0
 11
88.05968887945175
 21
109.0276063784125
 31
0.0
 71
     5
 42
-1.0
  3
NORMAL
100
AcDbAlignedDimension
 13
60.05968887945176
 23
124.1444458423002
 33
0.0
 14
116.0596888794517
 24
124.1444458423002
 34
0.0
100
AcDbRotatedDimension
  0
LINE
  5
4A
330
2
100
AcDbEntity
  8
UMRISS05
100
AcDbLine
 10
60.05968887945176
 20
127.1444458423002
 30
0.0
 11
116.0596888794517
 21
127.1444458423002
 31
0.0
  0
LINE
  5
4C
330
2
100
AcDbEntity
  8
UMRISS05
100
AcDbLine
 10
60.05968887945176
 20
124.1444458423002
 30
0.0
 11
116.0596888794517
 21
124.1444458423002
 31
0.0
  0
LINE
  5
4D
330
2
100
AcDbEntity
  8
AVERDECKTE
100
AcDbLine
 10
64.90976277157276
 20
126.4945197344213
 30
0.0
 11
62.55968887945176
 21
124.1444458423002
 31
0.0
  0
DIMENSION
  5
50
330
2
100
AcDbEntity
  8
BEMASSUNG
100
AcDbDimension
  2
*D9
 10
71.55968887945175
 20
116.3862006236241
 30
0.0
 11
83.97885668299883
 21
116.3862006236241
 31
0.0
 70
   129
  1
%%c<>x90°
 71
     5
 42
-1.0
  3
NORMAL
100
AcDbAlignedDimension
 13
62.55968887945176
 23
124.1444458423002
 33
0.0
 14
71.55968887945175
 24
124.1444458423002
 34
0.0
  0
DIMENSION
  5
5E
330
2
100
AcDbEntity
  8
BEMASSUNG
100
AcDbDimension
  2
*D4
 10
49.22727880557271
 20
127.1444458423002
 30
0.0
 11
46.43907962412661
 21
125.6444458423002
 31
0.0
 71
     5
 42
-1.0
  3
NORMAL
100
AcDbAlignedDimension
 13
60.05968887945176
 23
124.1444458423002
 33
0.0
 14
60.05968887945176
 24
127.1444458423002
 34
0.0
 50
90.0
100
AcDbRotatedDimension
  0
LINE
  5
6D
330
2
100
AcDbEntity
  8
UMRISS05
100
AcDbLine
 10
60.05968887945176
 20
127.1444458423002
 30
0.0
 11
60.05968887945176
 21
124.1444458423002
 31
0.0
  0
LINE
  5
6E
330
2
100
AcDbEntity
  8
ACHSEN
100
AcDbLine
 10
67.05968887945175
 20
130.1444458423002
 30
0.0
 11
67.05968887945175
 21
121.1444458423002
 31
0.0
  0
LINE
  5
71
330
2
100
AcDbEntity
  8
AVERDECKTE
100
AcDbLine
 10
69.20968887945175
 20
126.4944458423002
 30
0.0
 11
71.55968887945175
 21
124.1444458423002
 31
0.0
  0
LINE
  5
72
330
2
100
AcDbEntity
  8
AVERDECKTE
100
AcDbLine
 10
64.90976277157276
 20
126.4945197344213
 30
0.0
 11
69.20968887945176
 21
126.4966617653887
 31
0.0
  0
LINE
  5
73
330
2
100
AcDbEntity
  8
AVERDECKTE
100
AcDbLine
 10
64.90976277157276
 20
127.1444458423002
 30
0.0
 11
64.90976277157276
 21
126.4945197344213
 31
0.0
  0
LINE
  5
74
330
2
100
AcDbEntity
  8
AVERDECKTE
100
AcDbLine
 10
69.20968887945176
 20
127.1444458423002
 30
0.0
 11
69.20968887945175
 21
126.4944458423002
 31
0.0
  0
LINE
  5
75
330
2
100
AcDbEntity
  8
AVERDECKTE
100
AcDbLine
 10
78.05968887945181
 20
127.1444458423002
 30
0.0
 11
78.05968887945181
 21
124.1444458423002
 31
0.0
  0
LINE
  5
76
330
2
100
AcDbEntity
  8
AVERDECKTE
100
AcDbLine
 10
106.9097627715727
 20
126.4945197344213
 30
0.0
 11
111.2096888794517
 21
126.4966617653887
 31
0.0
  0
LINE
  5
77
330
2
100
AcDbEntity
  8
ACHSEN
100
AcDbLine
 10
109.0596888794517
 20
130.1444458423002
 30
0.0
 11
109.0596888794517
 21
121.1444458423002
 31
0.0
  0
LINE
  5
78
330
2
100
AcDbEntity
  8
AVERDECKTE
100
AcDbLine
 10
98.05968887945182
 20
127.1444458423002
 30
0.0
 11
98.05968887945182
 21
124.1444458423002
 31
0.0
  0
LINE
  5
79
330
2
100
AcDbEntity
  8
AVERDECKTE
100
AcDbLine
 10
106.9097627715727
 20
126.4945197344213
 30
0.0
 11
104.5596888794517
 21
124.1444458423002
 31
0.0
  0
LINE
  5
7A
330
2
100
AcDbEntity
  8
AVERDECKTE
100
AcDbLine
 10
106.9097627715727
 20
127.1444458423002
 30
0.0
 11
106.9097627715727
 21
126.4945197344213
 31
0.0
  0
LINE
  5
7B
330
2
100
AcDbEntity
  8
AVERDECKTE
100
AcDbLine
 10
111.2096888794517
 20
126.4944458423002
 30
0.0
 11
113.5596888794517
 21
124.1444458423002
 31
0.0
  0
LINE
  5
7C
330
2
100
AcDbEntity
  8
AVERDECKTE
100
AcDbLine
 10
111.2096888794517
 20
127.1444458423002
 30
0.0
 11
111.2096888794517
 21
126.4944458423002
 31
0.0
  0
LINE
  5
7D
330
2
100
AcDbEntity
  8
UMRISS05
100
AcDbLine
 10
116.0596888794517
 20
127.1444458423002
 30
0.0
 11
116.0596888794517
 21
124.1444458423002
 31
0.0
  0
LINE
  5
7E
330
2
100
AcDbEntity
  8
UMRISS05
100
AcDbLine
 10
60.05968887945176
 20
176.6972901321298
 30
0.0
 11
116.0596888794517
 21
176.6972901321298
 31
0.0
  0
LINE
  5
7F
330
2
100
AcDbEntity
  8
UMRISS05
100
AcDbLine
 10
116.0596888794517
 20
194.6972901321298
 30
0.0
 11
60.05968887945176
 21
194.6972901321298
 31
0.0
  0
DIMENSION
  5
80
330
2
100
AcDbEntity
  8
BEMASSUNG
100
AcDbDimension
  2
*D6
 10
60.05968887945176
 20
204.727154299738
 30
0.0
 11
63.55968887945175
 21
207.477154299738
 31
0.0
 71
     5
 42
-1.0
  3
NORMAL
100
AcDbAlignedDimension
 13
67.05968887945175
 23
191.6972901321298
 33
0.0
 14
60.05968887945176
 24
194.6972901321298
 34
0.0
100
AcDbRotatedDimension
  0
LINE
  5
8F
330
2
100
AcDbEntity
  8
ACHSEN
100
AcDbLine
 10
67.05968887945175
 20
185.6972901321299
 30
0.0
 11
61.05968887945175
 21
185.6972901321299
 31
0.0
  0
CIRCLE
  5
90
330
2
100
AcDbEntity
  8
UMRISS05
100
AcDbCircle
 10
67.05968887945175
 20
185.6972901321299
 30
0.0
 40
4.5
  0
DIMENSION
  5
91
330
2
100
AcDbEntity
  8
BEMASSUNG
100
AcDbDimension
  2
*D10
 10
78.05968887945181
 20
167.609106018711
 30
0.0
 11
69.05968887945178
 21
170.3961114757369
 31
0.0
 71
     5
 42
-1.0
  3
NORMAL
100
AcDbAlignedDimension
 13
60.05968887945176
 23
176.6972901321298
 33
0.0
 14
78.05968887945181
 24
182.6972901321298
 34
0.0
100
AcDbRotatedDimension
  0
DIMENSION
  5
9E
330
2
100
AcDbEntity
  8
BEMASSUNG
100
AcDbDimension
  2
*D0
 10
49.22727880557272
 20
176.6972901321298
 30
0.0
 11
46.4402733485468
 21
185.6972901321299
 31
0.0
 71
     5
 42
-1.0
  3
NORMAL
100
AcDbAlignedDimension
 13
60.05968887945176
 23
194.6972901321298
 33
0.0
 14
60.05968887945176
 24
176.6972901321298
 34
0.0
 50
90.0
100
AcDbRotatedDimension
  0
LINE
  5
AB
330
2
100
AcDbEntity
  8
UMRISS05
100
AcDbLine
 10
60.05968887945176
 20
194.6972901321298
 30
0.0
 11
60.05968887945176
 21
176.6972901321298
 31
0.0
  0
DIMENSION
  5
AC
330
2
100
AcDbEntity
  8
BEMASSUNG
100
AcDbDimension
  2
*D1
 10
88.05968887945184
 20
182.6972901321298
 30
0.0
 11
88.05968887945182
 21
185.6972901321299
 31
0.0
 70
   128
 71
     5
 42
6.0
  3
NORMAL
100
AcDbAlignedDimension
 13
98.05968887945182
 23
188.6972901321298
 33
0.0
 14
98.05968887945182
 24
182.6972901321298
 34
0.0
 50
90.0
100
AcDbRotatedDimension
  0
LINE
  5
BB
330
2
100
AcDbEntity
  8
UMRISS05
100
AcDbLine
 10
116.0596888794517
 20
176.6972901321298
 30
0.0
 11
116.0596888794517
 21
194.6972901321298
 31
0.0
  0
LINE
  5
BC
330
2
100
AcDbEntity
  8
ACHSEN
100
AcDbLine
 10
67.05968887945175
 20
185.6972901321299
 30
0.0
 11
67.05968887945175
 21
179.6972901321298
 31
0.0
  0
LINE
  5
BD
330
2
100
AcDbEntity
  8
UMRISS05
100
AcDbLine
 10
78.05968887945181
 20
188.6972901321298
 30
0.0
 11
78.05968887945181
 21
182.6972901321298
 31
0.0
  0
LINE
  5
BE
330
2
100
AcDbEntity
  8
UMRISS05
100
AcDbLine
 10
98.05968887945182
 20
182.6972901321298
 30
0.0
 11
98.05968887945182
 21
188.6972901321298
 31
0.0
  0
LINE
  5
BF
330
2
100
AcDbEntity
  8
ACHSEN
100
AcDbLine
 10
109.0596888794517
 20
185.6972901321299
 30
0.0
 11
109.0596888794517
 21
179.6972901321298
 31
0.0
  0
CIRCLE
  5
C0
330
2
100
AcDbEntity
  8
UMRISS05
100
AcDbCircle
 10
67.05968887945175
 20
185.6972901321299
 30
0.0
 40
2.149999999999999
  0
CIRCLE
  5
C1
330
2
100
AcDbEntity
  8
UMRISS05
100
AcDbCircle
 10
109.0596888794517
 20
185.6972901321299
 30
0.0
 40
2.149999999999999
  0
CIRCLE
  5
C2
330
2
100
AcDbEntity
  8
UMRISS05
100
AcDbCircle
 10
109.0596888794517
 20
185.6972901321299
 30
0.0
 40
4.5
  0
DIMENSION
  5
C3
330
2
100
AcDbEntity
  8
BEMASSUNG
100
AcDbDimension
  2
*D2
 10
98.05968887945182
 20
167.609106018711
 30
0.0
 11
88.60393589591557
 21
167.609106018711
 31
0.0
 70
   128
 71
     5
 42
-1.0
  3
NORMAL
100
AcDbAlignedDimension
 13
78.05968887945181
 23
182.6972901321298
 33
0.0
 14
98.05968887945182
 24
182.6972901321298
 34
0.0
100
AcDbRotatedDimension
  0
LINE
  5
D0
330
2
100
AcDbEntity
  8
UMRISS05
100
AcDbLine
 10
78.05968887945181
 20
182.6972901321298
 30
0.0
 11
98.05968887945182
 21
182.6972901321298
 31
0.0
  0
DIMENSION
  5
D1
330
2
100
AcDbEntity
  8
BEMASSUNG
100
AcDbDimension
  2
*D11
 10
116.0596888794517
 20
167.609106018711
 30
0.0
 11
107.0596888794518
 21
170.3961114757369
 31
0.0
 71
     5
 42
-1.0
  3
NORMAL
100
AcDbAlignedDimension
 13
98.05968887945182
 23
182.6972901321298
 33
0.0
 14
116.0596888794517
 24
176.6972901321298
 34
0.0
100
AcDbRotatedDimension
  0
DIMENSION
  5
DE
330
2
100
AcDbEntity
  8
BEMASSUNG
100
AcDbDimension
  2
*D5
 10
109.0596888794517
 20
204.727154299738
 30
0.0
 11
88.05968887945175
 21
207.4843166462592
 31
0.0
 71
     5
 42
-1.0
  3
NORMAL
100
AcDbAlignedDimension
 13
67.05968887945175
 23
191.6972901321298
 33
0.0
 14
109.0596888794517
 24
191.6972901321298
 34
0.0
100
AcDbRotatedDimension
  0
LINE
  5
EB
330
2
100
AcDbEntity
  8
UMRISS05
100
AcDbLine
 10
78.05968887945181
 20
188.6972901321298
 30
0.0
 11
98.05968887945182
 21
188.6972901321298
 31
0.0
  0
LINE
  5
EC
330
2
100
AcDbEntity
  8
ACHSEN
100
AcDbLine
 10
67.05968887945175
 20
185.6972901321299
 30
0.0
 11
73.05968887945176
 21
185.6972901321299
 31
0.0
  0
LINE
  5
ED
330
2
100
AcDbEntity
  8
ACHSEN
100
AcDbLine
 10
67.05968887945175
 20
185.6972901321299
 30
0.0
 11
67.05968887945175
 21
191.6972901321298
 31
0.0
  0
DIMENSION
  5
EE
330
2
100
AcDbEntity
  8
BEMASSUNG
100
AcDbDimension
  2
*D7
 10
116.0596888794517
 20
204.727154299738
 30
0.0
 11
112.5596888794517
 21
207.477154299738
 31
0.0
 71
     5
 42
-1.0
  3
NORMAL
100
AcDbAlignedDimension
 13
109.0596888794517
 23
191.6972901321298
 33
0.0
 14
116.0596888794517
 24
194.6972901321298
 34
0.0
100
AcDbRotatedDimension
  0
LINE
  5
FD
330
2
100
AcDbEntity
  8
ACHSEN
100
AcDbLine
 10
109.0596888794517
 20
185.6972901321299
 30
0.0
 11
115.0596888794517
 21
185.6972901321299
 31
0.0
  0
LINE
  5
FE
330
2
100
AcDbEntity
  8
ACHSEN
100
AcDbLine
 10
109.0596888794517
 20
185.6972901321299
 30
0.0
 11
103.0596888794517
 21
185.6972901321299
 31
0.0
  0
LINE
  5
FF
330
2
100
AcDbEntity
  8
ACHSEN
100
AcDbLine
 10
109.0596888794517
 20
185.6972901321299
 30
0.0
 11
109.0596888794517
 21
191.6972901321298
 31
0.0
  0
ENDSEC
  0
SECTION
  2
OBJECTS
  0
DICTIONARY
  5
8
330
0
100
AcDbDictionary
281
     1
  3
ACAD_COLOR
350
26
  3
ACAD_GROUP
350
22
  3
ACAD_LAYOUT
350
C
  3
ACAD_MATERIAL
350
25
  3
ACAD_MLINESTYLE
350
23
  3
ACAD_PLOTSETTINGS
350
24
  3
ACAD_PLOTSTYLENAME
350
7
  3
ACAD_TABLESTYLE
350
27
  3
AcDbVariableDictionary
350
154
  3
AcmDictionary
350
110
  3
AMG
350
101
  0
DICTIONARY
  5
3
330
2
100
AcDbDictionary
280
     1
281
     1
  0
DICTIONARY
  5
26
102
{ACAD_REACTORS
330
8
102
}
330
8
100
AcDbDictionary
281
     1
  0
DICTIONARY
  5
22
102
{ACAD_REACTORS
330
8
102
}
330
8
100
AcDbDictionary
281
     1
  0
DICTIONARY
  5
C
102
{ACAD_REACTORS
330
8
102
}
330
8
100
AcDbDictionary
281
     1
  3
Layout1
350
10
  3
Model
350
B
  0
DICTIONARY
  5
25
102
{ACAD_REACTORS
330
8
102
}
330
8
100
AcDbDictionary
281
     1
  0
DICTIONARY
  5
23
102
{ACAD_REACTORS
330
8
102
}
330
8
100
AcDbDictionary
281
     1
  3
STANDARD
350
2A
  0
DICTIONARY
  5
24
102
{ACAD_REACTORS
330
8
102
}
330
8
100
AcDbDictionary
281
     1
  0
ACDBDICTIONARYWDFLT
  5
7
102
{ACAD_REACTORS
330
8
102
}
330
8
100
AcDbDictionary
281
     1
  3
Normal
350
6
100
AcDbDictionaryWithDefault
340
6
  0
DICTIONARY
  5
27
102
{ACAD_REACTORS
330
8
102
}
330
8
100
AcDbDictionary
281
     1
  3
Standard
350
2B
  0
DICTIONARY
  5
154
102
{ACAD_REACTORS
330
8
102
}
330
8
100
AcDbDictionary
281
     1
  3
CTABLESTYLE
350
155
  0
DICTIONARY
  5
110
102
{ACAD_REACTORS
330
8
102
}
330
8
100
AcDbDictionary
281
     1
  3
AcmStdDictionary
350
111
  0
DICTIONARY
  5
101
102
{ACAD_REACTORS
330
8
102
}
330
8
100
AcDbDictionary
281
     1
  3
AcMgSettings
350
10B
  3
AMGLAYCFG
350
100
  0
LAYOUT
  5
10
102
{ACAD_REACTORS
330
C
102
}
330
C
100
AcDbPlotSettings
  1

  2
HP LaserJet 5000 Series PS
  4
A4
  6

 40
5.873749732971191
 41
5.408092021942138
 42
5.577407836914062
 43
5.069427490234375
 44
209.9733276367187
 45
296.9683227539062
 46
0.0
 47
0.0
 48
0.0
 49
0.0
140
0.0
141
0.0
142
1.0
143
1.0
 70
   688
 72
     1
 73
     1
 74
     5
  7
monochrome1.ctb
 75
    16
147
1.0
 76
     0
 77
     2
 78
   300
148
0.0
149
0.0
100
AcDbLayout
  1
Layout1
 70
     1
 71
     1
 10
-5.069427490234375
 20
-5.873749732971191
 11
291.8988952636719
 21
204.0995779037475
 12
0.0
 22
0.0
 32
0.0
 14
1.000000000000000E+20
 24
1.000000000000000E+20
 34
1.000000000000000E+20
 15
-1.000000000000000E+20
 25
-1.000000000000000E+20
 35
-1.000000000000000E+20
146
0.0
 13
0.0
 23
0.0
 33
0.0
 16
1.0
 26
0.0
 36
0.0
 17
0.0
 27
1.0
 37
0.0
 76
     0
330
D
  0
LAYOUT
  5
B
102
{ACAD_REACTORS
330
C
102
}
330
C
100
AcDbPlotSettings
  1

  2
A4hoch-MSL.pc3
  4
A4
  6

 40
5.873749732971191
 41
5.408092021942138
 42
5.577407836914062
 43
5.069427490234375
 44
209.9733276367187
 45
296.9683227539062
 46
0.0
 47
0.0
 48
0.0
 49
0.0
140
0.0
141
0.0
142
1.0
143
1.0
 70
 11952
 72
     1
 73
     0
 74
     2
  7
monochrome1.ctb
 75
    16
147
1.0
 76
     0
 77
     2
 78
   300
148
10.5
149
4.0
100
AcDbLayout
  1
Model
 70
     1
 71
     0
 10
0.0
 20
0.0
 11
12.0
 21
9.0
 12
0.0
 22
0.0
 32
0.0
 14
0.0
 24
0.0
 34
0.0
 15
0.0
 25
0.0
 35
0.0
146
0.0
 13
0.0
 23
0.0
 33
0.0
 16
1.0
 26
0.0
 36
0.0
 17
0.0
 27
1.0
 37
0.0
 76
     0
330
2
  0
MLINESTYLE
  5
2A
102
{ACAD_REACTORS
330
23
102
}
330
23
100
AcDbMlineStyle
  2
STANDARD
 70
     0
  3

 62
     0
 51
90.0
 52
90.0
 71
     2
 49
0.5
 62
   256
  6
BYLAYER
 49
-0.5
 62
   256
  6
BYLAYER
  0
ACDBPLACEHOLDER
  5
6
102
{ACAD_REACTORS
330
7
102
}
330
7
  0
TABLESTYLE
  5
2B
102
{ACAD_REACTORS
330
27
102
}
330
27
100
AcDbTableStyle
  3
Standard
 70
     0
 71
     0
 40
1.5
 41
1.5
280
     0
281
     0
  7
STANDARD
140
4.5
170
     2
 62
     0
 63
     7
283
     0
274
    -2
284
     1
 64
     0
275
    -2
285
     1
 65
     0
276
    -2
286
     1
 66
     0
277
    -2
287
     1
 67
     0
278
    -2
288
     1
 68
     0
279
    -2
289
     1
 69
     0
  7
STANDARD
140
6.0
170
     5
 62
     0
 63
     7
283
     0
274
    -2
284
     1
 64
     0
275
    -2
285
     1
 65
     0
276
    -2
286
     1
 66
     0
277
    -2
287
     1
 67
     0
278
    -2
288
     1
 68
     0
279
    -2
289
     1
 69
     0
  7
STANDARD
140
4.5
170
     5
 62
     0
 63
     7
283
     0
274
    -2
284
     1
 64
     0
275
    -2
285
     1
 65
     0
276
    -2
286
     1
 66
     0
277
    -2
287
     1
 67
     0
278
    -2
288
     1
 68
     0
279
    -2
289
     1
 69
     0
  0
DICTIONARYVAR
  5
155
102
{ACAD_REACTORS
330
154
102
}
330
154
100
DictionaryVariables
280
     0
  1
STANDARD
  0
DICTIONARY
  5
111
102
{ACAD_REACTORS
330
110
102
}
330
110
100
AcDbDictionary
281
     1
  3
DIN
350
112
  0
DICTIONARY
  5
10B
102
{ACAD_REACTORS
330
101
102
}
330
101
100
AcDbDictionary
281
     1
  3
DWGSETTINGS
350
10A
  3
TRANSSETTINGS
350
10C
  0
ENDSEC
  0
EOF
