  0
SECTION
  2
HEADER
  9
$ACADVER
  1
AC1027
  9
$ACADMAINTVER
 70
    57
  9
$DWGCODEPAGE
  3
ANSI_1252
  9
$LASTSAVEDBY
  1
davsta
  9
$CUSTOMPROPERTYTAG
  1
AmdtFileType
  9
$CUSTOMPROPERTY
  1
84
  9
$REQUIREDVERSIONS
160
                 0
  9
$INSBASE
 10
0.0
 20
0.0
 30
0.0
  9
$EXTMIN
 10
-20.83257479724354
 20
-0.0000002233556762
 30
0.0
  9
$EXTMAX
 10
67.20172572588097
 20
133.3462425447964
 30
0.0
  9
$LIMMIN
 10
0.0
 20
0.0
  9
$LIMMAX
 10
420.0
 20
420.0
  9
$ORTHOMODE
 70
     0
  9
$REGENMODE
 70
     1
  9
$FILLMODE
 70
     1
  9
$QTEXTMODE
 70
     0
  9
$MIRRTEXT
 70
     0
  9
$LTSCALE
 40
1.0
  9
$ATTMODE
 70
     1
  9
$TEXTSIZE
 40
2.399999999999999
  9
$TRACEWID
 40
0.05
  9
$TEXTSTYLE
  7
NORM
  9
$CLAYER
  8
UMRISS07
  9
$CELTYPE
  6
BYLAYER
  9
$CECOLOR
 62
   256
  9
$CELTSCALE
 40
1.0
  9
$DISPSILH
 70
     0
  9
$DIMSCALE
 40
1.0
  9
$DIMASZ
 40
3.5
  9
$DIMEXO
 40
0.0
  9
$DIMDLI
 40
8.0
  9
$DIMRND
 40
0.0
  9
$DIMDLE
 40
0.0
  9
$DIMEXE
 40
0.5
  9
$DIMTP
 40
0.0
  9
$DIMTM
 40
0.0
  9
$DIMTXT
 40
3.5
  9
$DIMCEN
 40
1.5
  9
$DIMTSZ
 40
0.0
  9
$DIMTOL
 70
     0
  9
$DIMLIM
 70
     0
  9
$DIMTIH
 70
     0
  9
$DIMTOH
 70
     0
  9
$DIMSE1
 70
     0
  9
$DIMSE2
 70
     0
  9
$DIMTAD
 70
     1
  9
$DIMZIN
 70
     8
  9
$DIMBLK
  1

  9
$DIMASO
 70
     1
  9
$DIMSHO
 70
     1
  9
$DIMPOST
  1

  9
$DIMAPOST
  1

  9
$DIMALT
 70
     0
  9
$DIMALTD
 70
     2
  9
$DIMALTF
 40
25.4
  9
$DIMLFAC
 40
1.0
  9
$DIMTOFL
 70
     1
  9
$DIMTVP
 40
0.0
  9
$DIMTIX
 70
     1
  9
$DIMSOXD
 70
     0
  9
$DIMSAH
 70
     0
  9
$DIMBLK1
  1

  9
$DIMBLK2
  1

  9
$DIMSTYLE
  2
NORMAL
  9
$DIMCLRD
 70
   256
  9
$DIMCLRE
 70
   256
  9
$DIMCLRT
 70
     3
  9
$DIMTFAC
 40
0.5
  9
$DIMGAP
 40
1.0
  9
$DIMJUST
 70
     0
  9
$DIMSD1
 70
     0
  9
$DIMSD2
 70
     0
  9
$DIMTOLJ
 70
     1
  9
$DIMTZIN
 70
     8
  9
$DIMALTZ
 70
     0
  9
$DIMALTTZ
 70
     0
  9
$DIMUPT
 70
     0
  9
$DIMDEC
 70
     2
  9
$DIMTDEC
 70
     2
  9
$DIMALTU
 70
     2
  9
$DIMALTTD
 70
     2
  9
$DIMTXSTY
  7
ARIAL-STANDARD
  9
$DIMAUNIT
 70
     0
  9
$DIMADEC
 70
     0
  9
$DIMALTRND
 40
0.0
  9
$DIMAZIN
 70
     0
  9
$DIMDSEP
 70
    46
  9
$DIMATFIT
 70
     3
  9
$DIMFRAC
 70
     0
  9
$DIMLDRBLK
  1

  9
$DIMLUNIT
 70
     2
  9
$DIMLWD
 70
    -2
  9
$DIMLWE
 70
    -2
  9
$DIMTMOVE
 70
     0
  9
$DIMFXL
 40
1.0
  9
$DIMFXLON
 70
     0
  9
$DIMJOGANG
 40
0.7853981633974483
  9
$DIMTFILL
 70
     0
  9
$DIMTFILLCLR
 70
     0
  9
$DIMARCSYM
 70
     0
  9
$DIMLTYPE
  6

  9
$DIMLTEX1
  6

  9
$DIMLTEX2
  6

  9
$DIMTXTDIRECTION
 70
     0
  9
$LUNITS
 70
     2
  9
$LUPREC
 70
     2
  9
$SKETCHINC
 40
0.1
  9
$FILLETRAD
 40
0.0
  9
$AUNITS
 70
     0
  9
$AUPREC
 70
     0
  9
$MENU
  1
.
  9
$ELEVATION
 40
0.0
  9
$PELEVATION
 40
0.0
  9
$THICKNESS
 40
0.0
  9
$LIMCHECK
 70
     0
  9
$CHAMFERA
 40
2.5
  9
$CHAMFERB
 40
2.5
  9
$CHAMFERC
 40
1.0
  9
$CHAMFERD
 40
0.0
  9
$SKPOLY
 70
     1
  9
$TDCREATE
 40
2458348.387586887
  9
$TDUCREATE
 40
2458348.304253553
  9
$TDUPDATE
 40
2458348.388608635
  9
$TDUUPDATE
 40
2458348.305275301
  9
$TDINDWG
 40
0.0010410995
  9
$TDUSRTIMER
 40
0.0010221991
  9
$USRTIMER
 70
     1
  9
$ANGBASE
 50
0.0
  9
$ANGDIR
 70
     0
  9
$PDMODE
 70
     0
  9
$PDSIZE
 40
0.0
  9
$PLINEWID
 40
0.0
  9
$SPLFRAME
 70
     0
  9
$SPLINETYPE
 70
     6
  9
$SPLINESEGS
 70
     8
  9
$HANDSEED
  5
5375
  9
$SURFTAB1
 70
     6
  9
$SURFTAB2
 70
     6
  9
$SURFTYPE
 70
     6
  9
$SURFU
 70
     6
  9
$SURFV
 70
     6
  9
$UCSBASE
  2

  9
$UCSNAME
  2

  9
$UCSORG
 10
0.0
 20
0.0
 30
0.0
  9
$UCSXDIR
 10
1.0
 20
0.0
 30
0.0
  9
$UCSYDIR
 10
0.0
 20
1.0
 30
0.0
  9
$UCSORTHOREF
  2

  9
$UCSORTHOVIEW
 70
     0
  9
$UCSORGTOP
 10
0.0
 20
0.0
 30
0.0
  9
$UCSORGBOTTOM
 10
0.0
 20
0.0
 30
0.0
  9
$UCSORGLEFT
 10
0.0
 20
0.0
 30
0.0
  9
$UCSORGRIGHT
 10
0.0
 20
0.0
 30
0.0
  9
$UCSORGFRONT
 10
0.0
 20
0.0
 30
0.0
  9
$UCSORGBACK
 10
0.0
 20
0.0
 30
0.0
  9
$PUCSBASE
  2

  9
$PUCSNAME
  2

  9
$PUCSORG
 10
0.0
 20
0.0
 30
0.0
  9
$PUCSXDIR
 10
1.0
 20
0.0
 30
0.0
  9
$PUCSYDIR
 10
0.0
 20
1.0
 30
0.0
  9
$PUCSORTHOREF
  2

  9
$PUCSORTHOVIEW
 70
     0
  9
$PUCSORGTOP
 10
0.0
 20
0.0
 30
0.0
  9
$PUCSORGBOTTOM
 10
0.0
 20
0.0
 30
0.0
  9
$PUCSORGLEFT
 10
0.0
 20
0.0
 30
0.0
  9
$PUCSORGRIGHT
 10
0.0
 20
0.0
 30
0.0
  9
$PUCSORGFRONT
 10
0.0
 20
0.0
 30
0.0
  9
$PUCSORGBACK
 10
0.0
 20
0.0
 30
0.0
  9
$USERI1
 70
     0
  9
$USERI2
 70
     0
  9
$USERI3
 70
     0
  9
$USERI4
 70
     0
  9
$USERI5
 70
     0
  9
$USERR1
 40
0.0
  9
$USERR2
 40
0.0
  9
$USERR3
 40
0.0
  9
$USERR4
 40
0.0
  9
$USERR5
 40
0.0
  9
$WORLDVIEW
 70
     1
  9
$SHADEDGE
 70
     3
  9
$SHADEDIF
 70
    70
  9
$TILEMODE
 70
     1
  9
$MAXACTVP
 70
    48
  9
$PINSBASE
 10
0.0
 20
0.0
 30
0.0
  9
$PLIMCHECK
 70
     0
  9
$PEXTMIN
 10
26.66999878883363
 20
20.31999878883363
 30
0.0
  9
$PEXTMAX
 10
240.0299890995026
 20
182.8799890995025
 30
0.0
  9
$PLIMMIN
 10
-6.350006103515625
 20
-6.349999904632568
  9
$PLIMMAX
 10
273.0499877929688
 20
209.5499939918518
  9
$UNITMODE
 70
     0
  9
$VISRETAIN
 70
     1
  9
$PLINEGEN
 70
     0
  9
$PSLTSCALE
 70
     1
  9
$TREEDEPTH
 70
  3020
  9
$CMLSTYLE
  2
STANDARD
  9
$CMLJUST
 70
     0
  9
$CMLSCALE
 40
1.0
  9
$PROXYGRAPHICS
 70
     1
  9
$MEASUREMENT
 70
     1
  9
$CELWEIGHT
370
    -1
  9
$ENDCAPS
280
     0
  9
$JOINSTYLE
280
     0
  9
$LWDISPLAY
290
     0
  9
$INSUNITS
 70
     0
  9
$HYPERLINKBASE
  1

  9
$STYLESHEET
  1
monochrome.ctb
  9
$XEDIT
290
     1
  9
$CEPSNTYPE
380
     0
  9
$PSTYLEMODE
290
     1
  9
$FINGERPRINTGUID
  2
{25F828CF-B8FE-471A-BC65-37B63FD4F77D}
  9
$VERSIONGUID
  2
{092F3DF0-3E5F-40EE-9C6A-D8CD0F508DD8}
  9
$EXTNAMES
290
     1
  9
$PSVPSCALE
 40
0.0
  9
$OLESTARTUP
290
     0
  9
$SORTENTS
280
   127
  9
$INDEXCTL
280
     0
  9
$HIDETEXT
280
     0
  9
$XCLIPFRAME
280
     0
  9
$HALOGAP
280
     0
  9
$OBSCOLOR
 70
   257
  9
$OBSLTYPE
280
     0
  9
$INTERSECTIONDISPLAY
280
     0
  9
$INTERSECTIONCOLOR
 70
   257
  9
$DIMASSOC
280
     1
  9
$PROJECTNAME
  1

  9
$CAMERADISPLAY
290
     0
  9
$LENSLENGTH
 40
50.0
  9
$CAMERAHEIGHT
 40
0.0
  9
$STEPSPERSEC
 40
2.0
  9
$STEPSIZE
 40
6.0
  9
$3DDWFPREC
 40
2.0
  9
$PSOLWIDTH
 40
0.25
  9
$PSOLHEIGHT
 40
4.0
  9
$LOFTANG1
 40
1.570796326794896
  9
$LOFTANG2
 40
1.570796326794896
  9
$LOFTMAG1
 40
0.0
  9
$LOFTMAG2
 40
0.0
  9
$LOFTPARAM
 70
     7
  9
$LOFTNORMALS
280
     1
  9
$LATITUDE
 40
37.795
  9
$LONGITUDE
 40
-122.394
  9
$NORTHDIRECTION
 40
0.0
  9
$TIMEZONE
 70
 -8000
  9
$LIGHTGLYPHDISPLAY
280
     1
  9
$TILEMODELIGHTSYNCH
280
     1
  9
$CMATERIAL
347
4F96
  9
$SOLIDHIST
280
     1
  9
$SHOWHIST
280
     1
  9
$DWFFRAME
280
     2
  9
$DGNFRAME
280
     0
  9
$REALWORLDSCALE
290
     1
  9
$INTERFERECOLOR
 62
     1
  9
$INTERFEREOBJVS
345
4FB8
  9
$INTERFEREVPVS
346
5091
  9
$CSHADOW
280
     0
  9
$SHADOWPLANELOCATION
 40
0.0
  0
ENDSEC
  0
SECTION
  2
CLASSES
  0
CLASS
  1
ACDBDICTIONARYWDFLT
  2
AcDbDictionaryWithDefault
  3
ObjectDBX Classes
 90
        0
 91
        1
280
     0
281
     0
  0
CLASS
  1
PLOTSETTINGS
  2
AcDbPlotSettings
  3
ObjectDBX Classes
 90
        0
 91
        3
280
     0
281
     0
  0
CLASS
  1
DICTIONARYVAR
  2
AcDbDictionaryVar
  3
ObjectDBX Classes
 90
        0
 91
       15
280
     0
281
     0
  0
CLASS
  1
ACME_DOCUMENT
  2
AcMeDbDoc
  3
AcMeServices
 90
     1024
 91
        2
280
     0
281
     0
  0
CLASS
  1
AMGSETTINGSOBJ
  2
AmgSettingsObj
  3
"AcadM|Product Description: AutoCAD Mechanical|Company: Autodesk, Inc."
 90
     1024
 91
        2
280
     0
281
     0
  0
CLASS
  1
ACMESCOPE
  2
AcMeScope
  3
AcMeServices
 90
     1024
 91
        1
280
     0
281
     0
  0
CLASS
  1
ACMECOMMANDHISTORY
  2
AcMeCommandHistory
  3
AcMeServices
 90
     1024
 91
        1
280
     0
281
     0
  0
CLASS
  1
ACIMSYSVARMAN
  2
AcImSysVarManager
  3
AcMeServices
 90
     1024
 91
        5
280
     0
281
     0
  0
CLASS
  1
ACIMREALSYSVAR
  2
AcImRealSysVar
  3
AcMeServices
 90
     1024
 91
        3
280
     0
281
     0
  0
CLASS
  1
ACIMINTSYSVAR
  2
AcImIntSysVar
  3
AcMeServices
 90
     1024
 91
       28
280
     0
281
     0
  0
CLASS
  1
ACMEDRAWINGMAN
  2
AcMeDrawingMan
  3
AcMeServices
 90
     1024
 91
        0
280
     0
281
     0
  0
CLASS
  1
ACMEVIEW
  2
AcMeView
  3
AcMeServices
 90
     1024
 91
        0
280
     0
281
     0
  0
CLASS
  1
ACDBENTITYCACHE
  2
AcMeEntityCache
  3
AcMeServices
 90
     1024
 91
        1
280
     0
281
     0
  0
CLASS
  1
GSMANAGER
  2
AcMeGSManager
  3
AcMeServices
 90
     1024
 91
        0
280
     0
281
     0
  0
CLASS
  1
AMDTINTERNALREACTOR
  2
AmdtInternalReactor
  3
AcMeServices
 90
     1024
 91
        1
280
     0
281
     0
  0
CLASS
  1
ACMESTATEMGR
  2
AcMeStateMgr
  3
AcMeServices
 90
     1024
 91
        1
280
     0
281
     0
  0
CLASS
  1
ACGREFMASTER
  2
AcGrefMaster
  3
AcAttribServices
 90
     1024
 91
        1
280
     0
281
     0
  0
CLASS
  1
ACME_DATABASE
  2
AcMeDbDatabase
  3
AcMeServices
 90
     1024
 91
        2
280
     0
281
     0
  0
CLASS
  1
ACRFINSADJUSTERMGR
  2
AcRfInsAdjusterMgr
  3
AcMeServices
 90
     1024
 91
        1
280
     0
281
     0
  0
CLASS
  1
ACGREFACADMASTER
  2
AcGrefacadMaster
  3
AcGrefServices
 90
     1024
 91
        1
280
     0
281
     0
  0
CLASS
  1
AMIMASTER
  2
AmiMaster
  3
AmiServices
 90
     1024
 91
        1
280
     0
281
     0
  0
CLASS
  1
ACMDATADICTIONARY
  2
AcmDataDictionary
  3
"AcmSymBB|Product Description: AutoCAD Mechanical|Company: Autodesk, Inc."
 90
     1024
 91
        1
280
     0
281
     0
  0
CLASS
  1
ACMDATAENTRYBLOCK
  2
AcmDataEntryBlock
  3
AcmSymBB|Product Description: AutoCAD Mechanical|Company: Autodesk, Inc.
 90
     1024
 91
        1
280
     0
281
     0
  0
CLASS
  1
ACIMSTRSYSVAR
  2
AcImStrSysVar
  3
AcMeServices
 90
     1024
 91
        5
280
     0
281
     0
  0
CLASS
  1
ACMSTANDARDDIN
  2
AcmStandardDIN
  3
"Amdt_StdImp|Product Description: AutoCAD Mechanical|Company: Autodesk, Inc."
 90
     1024
 91
        1
280
     0
281
     0
  0
CLASS
  1
AMGOBJPROPCFG
  2
AmgObjPropCfg
  3
"AmgLay|Product Description: AutoCAD Mechanical|Company: Autodesk, Inc."
 90
     1024
 91
        1
280
     0
281
     0
  0
CLASS
  1
AMDTEDGESTANDARDDIN
  2
AmdtEdgeStdDIN
  3
"Amdt_StdImp|Product Description: AutoCAD Mechanical|Company: Autodesk, Inc."
 90
     1024
 91
        1
280
     0
281
     0
  0
CLASS
  1
ACMSURFSTANDARDDIN
  2
AcmSurfTextStdDIN
  3
"Amdt_StdImp|Product Description: AutoCAD Mechanical|Company: Autodesk, Inc."
 90
     1024
 91
        1
280
     0
281
     0
  0
CLASS
  1
ACMFCFSTANDARDDIN
  2
AcmFCFStdDIN
  3
"Amdt_StdImp|Product Description: AutoCAD Mechanical|Company: Autodesk, Inc."
 90
     1024
 91
        1
280
     0
281
     0
  0
CLASS
  1
ACMWELDSTANDARDDIN
  2
AcmWeldingStdDIN
  3
"Amdt_StdImp|Product Description: AutoCAD Mechanical|Company: Autodesk, Inc."
 90
     1024
 91
        1
280
     0
281
     0
  0
CLASS
  1
ACMIDSTANDARDDIN
  2
AcmIdStdDIN
  3
"Amdt_StdImp|Product Description: AutoCAD Mechanical|Company: Autodesk, Inc."
 90
     1024
 91
        1
280
     0
281
     0
  0
CLASS
  1
ACMDATUMSTANDARDDIN
  2
AcmDatumStdDIN
  3
"Amdt_StdImp|Product Description: AutoCAD Mechanical|Company: Autodesk, Inc."
 90
     1024
 91
        1
280
     0
281
     0
  0
CLASS
  1
ACMBOMSTANDARDDIN
  2
AcmBOMStdDIN
  3
"Amdt_StdImp|Product Description: AutoCAD Mechanical|Company: Autodesk, Inc."
 90
     1024
 91
        1
280
     0
281
     0
  0
CLASS
  1
ACMDETAILSTANDARDDIN
  2
AmdtDetailSymStdDIN
  3
"Amdt_StdImp|Product Description: AutoCAD Mechanical|Company: Autodesk, Inc."
 90
     1024
 91
        1
280
     0
281
     0
  0
CLASS
  1
ACMSECTIONSTANDARDDIN
  2
AmdtSectionSymStdDIN
  3
"Amdt_StdImp|Product Description: AutoCAD Mechanical|Company: Autodesk, Inc."
 90
     1024
 91
        1
280
     0
281
     0
  0
CLASS
  1
ACMCENTERLINESTANDARDDIN
  2
AmdtCenterLineStdDIN
  3
"Amdt_StdImp|Product Description: AutoCAD Mechanical|Company: Autodesk, Inc."
 90
     1024
 91
        1
280
     0
281
     0
  0
CLASS
  1
ACMNOTESTANDARDDIN
  2
AmdtNoteStdDIN
  3
"Amdt_StdImp|Product Description: AutoCAD Mechanical|Company: Autodesk, Inc."
 90
     1024
 91
        1
280
     0
281
     0
  0
CLASS
  1
ACAMGLAYSTD
  2
AcAmgLayStd
  3
"AmgLay|Product Description: AutoCAD Mechanical|Company: Autodesk, Inc."
 90
     1024
 91
        1
280
     0
281
     0
  0
CLASS
  1
ACAMGDIMSTD
  2
AcAmgDimStd
  3
"AmgDim|Product Description: AutoCAD Mechanical|Company: Autodesk, Inc."
 90
     1024
 91
        1
280
     0
281
     0
  0
CLASS
  1
ACAMGHOLECHARTSTDDIN
  2
AcAmgHoleChartStdDIN
  3
AmgDim|Product Description: AutoCAD Mechanical|Company: Autodesk, Inc.
 90
     1024
 91
        1
280
     0
281
     0
  0
CLASS
  1
ACAMGTITLESTD
  2
AcAmgTitleStd
  3
"AmgTitle|Product Description: AutoCAD Mechanical|Company: Autodesk, Inc."
 90
     1024
 91
        1
280
     0
281
     0
  0
CLASS
  1
ACAMGFILTERDAT
  2
AcAmgFilterDat
  3
"AcadM|Product Description: AutoCAD Mechanical|Company: Autodesk, Inc."
 90
     1024
 91
        6
280
     0
281
     0
  0
CLASS
  1
LAYER_INDEX
  2
AcDbLayerIndex
  3
ObjectDBX Classes
 90
        0
 91
        0
280
     0
281
     0
  0
CLASS
  1
IDBUFFER
  2
AcDbIdBuffer
  3
ObjectDBX Classes
 90
        0
 91
        0
280
     0
281
     0
  0
CLASS
  1
TABLESTYLE
  2
AcDbTableStyle
  3
ObjectDBX Classes
 90
     4095
 91
        1
280
     0
281
     0
  0
CLASS
  1
AM_DRAWING_MGR
  2
AcDmDwgMgr
  3
AcMechDwgViewMgmt
 90
     1024
 91
        1
280
     0
281
     0
  0
CLASS
  1
AM_DWG_DOCUMENT
  2
AcDmDwgDocument
  3
AcMechDwgViewMgmt
 90
     1024
 91
        1
280
     0
281
     0
  0
CLASS
  1
AM_DWG_SHEET
  2
AcDmSheet
  3
AcMechDwgViewMgmt
 90
     1024
 91
        1
280
     0
281
     0
  0
CLASS
  1
AM_VIEWDIMPARMAP
  2
AcDmViewDimParMap
  3
AcMechDwgViewMgmt
 90
     1024
 91
        1
280
     0
281
     0
  0
CLASS
  1
AM_DWGMGR_NAME
  2
AcDmDwgMgrName
  3
AcMechDwgViewMgmt
 90
     1024
 91
        1
280
     0
281
     0
  0
CLASS
  1
AMDTMENUSTATEMGR
  2
AmdtMenuStateMgr
  3
McadcomServices
 90
     1024
 91
        1
280
     0
281
     0
  0
CLASS
  1
AMDTMCOMMENUSTATE
  2
AmdtMcomMenuState
  3
McadcomServices
 90
     1024
 91
        1
280
     0
281
     0
  0
CLASS
  1
MAPIAMMOUDLE
  2
MApiAmModule
  3
MApiAmServices
 90
     1024
 91
        1
280
     0
281
     0
  0
CLASS
  1
AMDTADMENUSTATE
  2
AmdtAdMenuState
  3
DesignerServices
 90
     1024
 91
        0
280
     0
281
     0
  0
CLASS
  1
ADAPPL
  2
AcAdAppl
  3
DesignerAssemblies
 90
     1024
 91
        0
280
     0
281
     0
  0
CLASS
  1
DEPMGR
  2
AcAdDepMgr
  3
DesignerAssemblies
 90
     1024
 91
        0
280
     0
281
     0
  0
CLASS
  1
PARAMMGR
  2
AcAdParamMgr
  3
DesignerAssemblies
 90
     1024
 91
        0
280
     0
281
     0
  0
CLASS
  1
PARAMSCOPE
  2
AcAdParamScope
  3
DesignerAssemblies
 90
     1024
 91
        0
280
     0
281
     0
  0
CLASS
  1
NAMEDAPPL
  2
AcAdNamedAppl
  3
DesignerAssemblies
 90
     1024
 91
        0
280
     0
281
     0
  0
CLASS
  1
AMDTDMMENUSTATE
  2
AmdtDmMenuState
  3
AcMechDwgViewMgmt
 90
     1024
 91
        0
280
     0
281
     0
  0
CLASS
  1
AMDTAMMENUSTATE
  2
AmdtAmMenuState
  3
DesignerAssemblies
 90
     1024
 91
        1
280
     0
281
     0
  0
CLASS
  1
ACAMPROJECT
  2
AcAmProject
  3
DesignerAssemblies
 90
     1024
 91
        1
280
     0
281
     0
  0
CLASS
  1
ACAMGRCOMPDEF
  2
AcAmGrCompDef
  3
DesignerAssemblies
 90
     1024
 91
        1
280
     0
281
     0
  0
CLASS
  1
ACCMCONTEXT
  2
AcCmContext
  3
DesignerAssemblies
 90
     1024
 91
        1
280
     0
281
     0
  0
CLASS
  1
ACAMCOMPDEF
  2
AcAmCompDef
  3
DesignerAssemblies
 90
     1024
 91
        1
280
     0
281
     0
  0
CLASS
  1
ACAMCOMPDEFMGR
  2
AcAmCompDefMgr
  3
DesignerAssemblies
 90
     1024
 91
        1
280
     0
281
     0
  0
CLASS
  1
AMCONTEXTMGR
  2
AcAmContextMgr
  3
DesignerAssemblies
 90
     1024
 91
        1
280
     0
281
     0
  0
CLASS
  1
ACAMCONTEXTMODELER
  2
AcAmContextModeler
  3
DesignerAssemblies
 90
     1024
 91
        1
280
     0
281
     0
  0
CLASS
  1
ACMTHREADLINESTANDARDDIN
  2
AmdtThreadLineStdDIN
  3
"Amdt_StdImp|Product Description: AutoCAD Mechanical|Company: Autodesk, Inc."
 90
     1024
 91
        1
280
     0
281
     0
  0
CLASS
  1
CATALOGSTATE
  2
AcAmCatalogState
  3
DesignerAssemblies
 90
     1024
 91
        0
280
     0
281
     0
  0
CLASS
  1
ACAMGRCOMPDEFSET
  2
AcAmGrCompDefSet
  3
DesignerAssemblies
 90
     1024
 91
        1
280
     0
281
     0
  0
CLASS
  1
AMDTBROWSERDBTAB
  2
AmdtBrowserDbTab
  3
McadcomServices
 90
     1024
 91
        1
280
     0
281
     0
  0
CLASS
  1
CBROWSERAPPOBJECT
  2
CBrowserAppObject
  3
McadcomServices
 90
     1024
 91
        2
280
     0
281
     0
  0
CLASS
  1
DM_PLACEHOLDER
  2
AcDmSelsetPlaceholder
  3
McadcomServices
 90
     1024
 91
        1
280
     0
281
     0
  0
CLASS
  1
SORTENTSTABLE
  2
AcDbSortentsTable
  3
ObjectDBX Classes
 90
        0
 91
        0
280
     0
281
     0
  0
CLASS
  1
MATERIAL
  2
AcDbMaterial
  3
ObjectDBX Classes
 90
     1153
 91
        3
280
     0
281
     0
  0
CLASS
  1
VISUALSTYLE
  2
AcDbVisualStyle
  3
ObjectDBX Classes
 90
     4095
 91
       26
280
     0
281
     0
  0
CLASS
  1
SCALE
  2
AcDbScale
  3
ObjectDBX Classes
 90
     1153
 91
       17
280
     0
281
     0
  0
CLASS
  1
MLEADERSTYLE
  2
AcDbMLeaderStyle
  3
ACDB_MLEADERSTYLE_CLASS
 90
     4095
 91
        1
280
     0
281
     0
  0
CLASS
  1
ACRFATTGENMGR
  2
AcRfAttGeneralMgr
  3
AcAttribServices
 90
     1024
 91
        1
280
     0
281
     0
  0
CLASS
  1
ACRFOBJATTMGR
  2
AcRfObjAttGroupMgr
  3
AcAttribServices
 90
     1024
 91
        1
280
     0
281
     0
  0
CLASS
  1
ACRFMCADAPIATTHOLDER
  2
AcRfMCADAPIAttHolder
  3
AcAttribServices
 90
     1024
 91
        1
280
     0
281
     0
  0
CLASS
  1
AMDTSYSATTR
  2
AmdtSystemAttribute
  3
AcAttribServices
 90
     1024
 91
        1
280
     0
281
     0
  0
CLASS
  1
ACMTAPERSTANDARDDIN
  2
AcmTaperStdDIN
  3
"Amdt_StdImp|Product Description: AutoCAD Mechanical|Company: Autodesk, Inc."
 90
     1024
 91
        1
280
     0
281
     0
  0
CLASS
  1
ACMANOOTATIONVIEWSTANDARDDIN
  2
AmdtAnViewStdDIN
  3
"Amdt_StdImp|Product Description: AutoCAD Mechanical|Company: Autodesk, Inc."
 90
     1024
 91
        1
280
     0
281
     0
  0
CLASS
  1
CAMSSTRUCTBTNSTATE
  2
StructBtnState
  3
DesignerAssemblies
 90
     1024
 91
        1
280
     0
281
     0
  0
CLASS
  1
CELLSTYLEMAP
  2
AcDbCellStyleMap
  3
ObjectDBX Classes
 90
     1152
 91
        3
280
     0
281
     0
  0
CLASS
  1
ACDBSECTIONVIEWSTYLE
  2
AcDbSectionViewStyle
  3
ObjectDBX Classes
 90
     1025
 91
        3
280
     0
281
     0
  0
CLASS
  1
ACDBDETAILVIEWSTYLE
  2
AcDbDetailViewStyle
  3
ObjectDBX Classes
 90
     1025
 91
        3
280
     0
281
     0
  0
CLASS
  1
ACMSECTIONSTANDARDCUSTOM
  2
AmdtSectionSymStdCustom
  3
"Amdt_StdImp|Product Description: AutoCAD Mechanical|Company: Autodesk, Inc."
 90
     1024
 91
        2
280
     0
281
     0
  0
CLASS
  1
ACMDETAILTANDARDCUSTOM
  2
AmdtDetailSymStdCustom
  3
"Amdt_StdImp|Product Description: AutoCAD Mechanical|Company: Autodesk, Inc."
 90
     1024
 91
        2
280
     0
281
     0
  0
CLASS
  1
FIELD
  2
AcDbField
  3
ObjectDBX Classes
 90
     1152
 91
        6
280
     0
281
     0
  0
CLASS
  1
FIELDLIST
  2
AcDbFieldList
  3
ObjectDBX Classes
 90
     1152
 91
        1
280
     0
281
     0
  0
ENDSEC
  0
SECTION
  2
TABLES
  0
TABLE
  2
VPORT
  5
8
330
0
100
AcDbSymbolTable
 70
     1
  0
VPORT
  5
4F94
330
8
100
AcDbSymbolTableRecord
100
AcDbViewportTableRecord
  2
*Active
 70
     0
 10
0.0
 20
0.0
 11
1.0
 21
1.0
 12
45.26147258411083
 22
64.68070633213999
 13
0.0
 23
0.0
 14
2.5
 24
2.5
 15
10.0
 25
10.0
 16
0.0
 26
0.0
 36
1.0
 17
0.0
 27
0.0
 37
0.0
 40
185.9756414182262
 41
1.989317995069843
 42
50.0
 43
0.0
 44
0.0
 50
0.0
 51
0.0
 71
     0
 72
  5000
 73
     1
 74
     1
 75
     0
 76
     0
 77
     0
 78
     0
281
     0
 65
     1
110
0.0
120
0.0
130
0.0
111
1.0
121
0.0
131
0.0
112
0.0
122
1.0
132
0.0
 79
     0
146
0.0
348
4FB4
 60
     3
 61
     5
292
     1
282
     1
141
0.0
142
0.0
 63
   250
421
  3355443
1001
ACAD_NAV_VCDISPLAY
1070
     3
  0
ENDTAB
  0
TABLE
  2
LTYPE
  5
5
330
0
100
AcDbSymbolTable
 70
    37
  0
LTYPE
  5
13
330
5
100
AcDbSymbolTableRecord
100
AcDbLinetypeTableRecord
  2
BYBLOCK
 70
     0
  3

 72
    65
 73
     0
 40
0.0
  0
LTYPE
  5
14
330
5
100
AcDbSymbolTableRecord
100
AcDbLinetypeTableRecord
  2
BYLAYER
 70
     0
  3

 72
    65
 73
     0
 40
0.0
  0
LTYPE
  5
15
330
5
100
AcDbSymbolTableRecord
100
AcDbLinetypeTableRecord
  2
CONTINUOUS
 70
     0
  3
Solid line
 72
    65
 73
     0
 40
0.0
  0
LTYPE
  5
65A
330
5
100
AcDbSymbolTableRecord
100
AcDbLinetypeTableRecord
  2
STRICHPUNKT
 70
     0
  3
Strichpunkt __ . __ . __ . __ . __ . __ . __ . 
 72
    65
 73
     4
 40
25.4
 49
12.7
 74
     0
 49
-6.349999999999999
 74
     0
 49
0.0
 74
     0
 49
-6.349999999999999
 74
     0
  0
LTYPE
  5
65B
330
5
100
AcDbSymbolTableRecord
100
AcDbLinetypeTableRecord
  2
VERDECKT
 70
     0
  3
Verdeckt __ __ __ __ __ __ __ __ __ __ __ __ __
 72
    65
 73
     2
 40
9.524999999999998
 49
6.349999999999999
 74
     0
 49
-3.174999999999999
 74
     0
  0
LTYPE
  5
6E1
330
5
100
AcDbSymbolTableRecord
100
AcDbLinetypeTableRecord
  2
STRICHPUNKT2
 70
     0
  3
Strichpunkt (.5x) _._._._._._._._._._._._._._._
 72
    65
 73
     4
 40
12.7
 49
6.349999999999999
 74
     0
 49
-3.174999999999999
 74
     0
 49
0.0
 74
     0
 49
-3.174999999999999
 74
     0
  0
LTYPE
  5
6E2
330
5
100
AcDbSymbolTableRecord
100
AcDbLinetypeTableRecord
  2
VERDECKT2
 70
     0
  3
Verdeckt (.5x) _ _ _ _ _ _ _ _ _ _ _ _ _ _ _ _ 
 72
    65
 73
     2
 40
4.762499999999999
 49
3.174999999999999
 74
     0
 49
-1.587499999999999
 74
     0
  0
LTYPE
  5
F04
330
5
100
AcDbSymbolTableRecord
100
AcDbLinetypeTableRecord
  2
AUSGEZOGEN
 70
     0
  3
Ausgezogene Linie
 72
    65
 73
     0
 40
0.0
  0
LTYPE
  5
F0B
330
5
100
AcDbSymbolTableRecord
100
AcDbLinetypeTableRecord
  2
STRICHPUNKTX2
 70
     0
  3
____  .  ____  .  ____  .  ____  .  ____  .  __
 72
    65
 73
     4
 40
2.0
 49
1.0
 74
     0
 49
-0.5
 74
     0
 49
0.0
 74
     0
 49
-0.5
 74
     0
  0
LTYPE
  5
F0C
330
5
100
AcDbSymbolTableRecord
100
AcDbLinetypeTableRecord
  2
GESTRICHELT
 70
     0
  3
__ __ __ __ __ __ __ __ __ __ __ __ __ __ __ __
 72
    65
 73
     2
 40
0.75
 49
0.5
 74
     0
 49
-0.25
 74
     0
  0
LTYPE
  5
F0D
330
5
100
AcDbSymbolTableRecord
100
AcDbLinetypeTableRecord
  2
GESTRICHELT2
 70
     0
  3
_ _ _ _ _ _ _ _ _ _ _ _ _ _ _ _ _ _ _ _ _ _ _ _
 72
    65
 73
     2
 40
0.375
 49
0.25
 74
     0
 49
-0.125
 74
     0
  0
LTYPE
  5
F0E
330
5
100
AcDbSymbolTableRecord
100
AcDbLinetypeTableRecord
  2
GESTRICHELTX2
 70
     0
  3
____  ____  ____  ____  ____  ____  ____  ____ 
 72
    65
 73
     2
 40
1.5
 49
1.0
 74
     0
 49
-0.5
 74
     0
  0
LTYPE
  5
F15
330
5
100
AcDbSymbolTableRecord
100
AcDbLinetypeTableRecord
  2
VERDECKTX2
 70
     0
  3
____ ____ ____ ____ ____ ____ ____ ____ ____ __
 72
    65
 73
     2
 40
0.75
 49
0.5
 74
     0
 49
-0.25
 74
     0
  0
LTYPE
  5
3F60
330
5
100
AcDbSymbolTableRecord
100
AcDbLinetypeTableRecord
  2
DASHED
 70
     0
  3
Dashed __ __ __ __ __ __ __ __ __ __ __ __ __ _
 72
    65
 73
     2
 40
19.05
 49
12.7
 74
     0
 49
-6.349999999999999
 74
     0
  0
LTYPE
  5
4799
330
5
100
AcDbSymbolTableRecord
100
AcDbLinetypeTableRecord
  2
RANDX2
 70
     0
  3
____  ____  .  ____  ____  .  ____  ____  .  __
 72
    65
 73
     6
 40
3.5
 49
1.0
 74
     0
 49
-0.5
 74
     0
 49
1.0
 74
     0
 49
-0.5
 74
     0
 49
0.0
 74
     0
 49
-0.5
 74
     0
  0
LTYPE
  5
4D0E
330
5
100
AcDbSymbolTableRecord
100
AcDbLinetypeTableRecord
  2
AM_ISO02W050
 70
     0
  3
__ __ __ __ __ __ __ __ __ __ __ __ __ __ __
 72
    65
 73
     2
 40
7.5
 49
6.0
 74
     0
 49
-1.5
 74
     0
  0
LTYPE
  5
4D0F
330
5
100
AcDbSymbolTableRecord
100
AcDbLinetypeTableRecord
  2
AM_ISO08W050
 70
     0
  3
____ . ____ . ____ . ____ . ____ . ____ . ____
 72
    65
 73
     4
 40
18.0
 49
12.0
 74
     0
 49
-1.5
 74
     0
 49
3.0
 74
     0
 49
-1.5
 74
     0
  0
LTYPE
  5
4D10
330
5
100
AcDbSymbolTableRecord
100
AcDbLinetypeTableRecord
  2
AM_ISO09W050
 70
     0
  3
_____ . . _____ . . _____ . . ____ .. ____
 72
    65
 73
     6
 40
22.5
 49
12.0
 74
     0
 49
-1.5
 74
     0
 49
3.0
 74
     0
 49
-1.5
 74
     0
 49
3.0
 74
     0
 49
-1.5
 74
     0
  0
LTYPE
  5
4D11
330
5
100
AcDbSymbolTableRecord
100
AcDbLinetypeTableRecord
  2
Amconstr
 70
     0
  3
_______________________
 72
    65
 73
     2
 40
9999.0
 49
9999.0
 74
     0
 49
0.0
 74
     0
  0
LTYPE
  5
4D12
330
5
100
AcDbSymbolTableRecord
100
AcDbLinetypeTableRecord
  2
AM_ISO08W050x2
 70
     0
  3
__ . __ . __ . __ . __ . __
 72
    65
 73
     4
 40
9.0
 49
6.0
 74
     0
 49
-0.75
 74
     0
 49
1.5
 74
     0
 49
-0.75
 74
     0
  0
LTYPE
  5
4D13
330
5
100
AcDbSymbolTableRecord
100
AcDbLinetypeTableRecord
  2
AM_ISO02W050x2
 70
     0
  3
 _ _ _ _ _ _ _ _ _ _ _ _
 72
    65
 73
     2
 40
3.75
 49
3.0
 74
     0
 49
-0.75
 74
     0
  0
LTYPE
  5
4D14
330
5
100
AcDbSymbolTableRecord
100
AcDbLinetypeTableRecord
  2
Amzigzag
 70
     0
  3
/\/-/\/-/\/-/\/-/\/-/\/
 72
    65
 73
     2
 40
11.0001
 49
0.0001
 74
     4
 75
   135
340
3F6E
 46
0.04
 50
0.0
 44
0.0
 45
0.0
 49
-11.0
 74
     0
  0
LTYPE
  5
4D15
330
5
100
AcDbSymbolTableRecord
100
AcDbLinetypeTableRecord
  2
AM_DIN_F_W050
 70
     0
  3
__ __ __ __ __ __ __ __ __ __ __ __ __ __ __
 72
    65
 73
     2
 40
6.25
 49
4.75
 74
     0
 49
-1.5
 74
     0
  0
LTYPE
  5
4D16
330
5
100
AcDbSymbolTableRecord
100
AcDbLinetypeTableRecord
  2
AM_DIN_G_W050
 70
     0
  3
____ . ____ . ____ . ____ . ____ . ____ . ____
 72
    65
 73
     4
 40
13.75
 49
9.75
 74
     0
 49
-1.5
 74
     0
 49
1.0
 74
     0
 49
-1.5
 74
     0
  0
LTYPE
  5
4D17
330
5
100
AcDbSymbolTableRecord
100
AcDbLinetypeTableRecord
  2
AM_DIN_K_W050
 70
     0
  3
_____ . . _____ . . _____ . . ____ .. ____
 72
    65
 73
     6
 40
16.25
 49
9.75
 74
     0
 49
-1.5
 74
     0
 49
1.0
 74
     0
 49
-1.5
 74
     0
 49
1.0
 74
     0
 49
-1.5
 74
     0
  0
LTYPE
  5
4D18
330
5
100
AcDbSymbolTableRecord
100
AcDbLinetypeTableRecord
  2
AM_DIN_G_W050x2
 70
     0
  3
__ . __ . __ . __ . __ . __
 72
    65
 73
     4
 40
6.875
 49
4.75
 74
     0
 49
-0.875
 74
     0
 49
0.375
 74
     0
 49
-0.875
 74
     0
  0
LTYPE
  5
4D19
330
5
100
AcDbSymbolTableRecord
100
AcDbLinetypeTableRecord
  2
AM_DIN_F_W050x2
 70
     0
  3
 _ _ _ _ _ _ _ _ _ _ _ _
 72
    65
 73
     2
 40
3.125
 49
2.25
 74
     0
 49
-0.875
 74
     0
  0
LTYPE
  5
4D27
330
5
100
AcDbSymbolTableRecord
100
AcDbLinetypeTableRecord
  2
ACDINWELD
 70
     0
  3
_ _ _ _ _
 72
    65
 73
     2
 40
2.0
 49
2.0
 74
     0
 49
-1.0
 74
     0
  0
LTYPE
  5
4D28
330
5
100
AcDbSymbolTableRecord
100
AcDbLinetypeTableRecord
  2
ACDINTGB
 70
     0
  3
__ . . __ . .
 72
    65
 73
     6
 40
9.0
 49
4.0
 74
     0
 49
-1.0
 74
     0
 49
1.0
 74
     0
 49
-1.0
 74
     0
 49
1.0
 74
     0
 49
-1.0
 74
     0
  0
LTYPE
  5
4D29
330
5
100
AcDbSymbolTableRecord
100
AcDbLinetypeTableRecord
  2
ACDINTGL
 70
     0
  3
_ _ _ _ _
 72
    65
 73
     2
 40
3.0
 49
2.0
 74
     0
 49
-1.0
 74
     0
  0
LTYPE
  5
4D2A
330
5
100
AcDbSymbolTableRecord
100
AcDbLinetypeTableRecord
  2
CENTER
 70
     0
  3
__ . __
 72
    65
 73
     4
 40
7.0
 49
4.0
 74
     0
 49
-1.0
 74
     0
 49
1.0
 74
     0
 49
-1.0
 74
     0
  0
LTYPE
  5
4D3A
330
5
100
AcDbSymbolTableRecord
100
AcDbLinetypeTableRecord
  2
gen3
 70
     0
  3
-- -- -- -- -- -- -- -- -- -- -- -- -- -- --
 72
    65
 73
     2
 40
6.25
 49
4.75
 74
     0
 49
-1.5
 74
     0
  0
LTYPE
  5
4D3B
330
5
100
AcDbSymbolTableRecord
100
AcDbLinetypeTableRecord
  2
gen7
 70
     0
  3
____ . ____ . ____ . ____ . ____ . ____ . ____
 72
    65
 73
     4
 40
13.75
 49
9.75
 74
     0
 49
-1.5
 74
     0
 49
1.0
 74
     0
 49
-1.5
 74
     0
  0
LTYPE
  5
4D3C
330
5
100
AcDbSymbolTableRecord
100
AcDbLinetypeTableRecord
  2
gen3a
 70
     0
  3
 - - - - -
 72
    65
 73
     2
 40
3.125
 49
2.25
 74
     0
 49
-0.875
 74
     0
  0
LTYPE
  5
4D3D
330
5
100
AcDbSymbolTableRecord
100
AcDbLinetypeTableRecord
  2
gen7a
 70
     0
  3
__ . __ . __
 72
    65
 73
     4
 40
6.875
 49
4.75
 74
     0
 49
-0.875
 74
     0
 49
0.375
 74
     0
 49
-0.875
 74
     0
  0
LTYPE
  5
4D3E
330
5
100
AcDbSymbolTableRecord
100
AcDbLinetypeTableRecord
  2
gen4a
 70
     0
  3
_____ . . _____ . . _____ . . ____ .. ____
 72
    65
 73
     6
 40
16.25
 49
9.75
 74
     0
 49
-1.5
 74
     0
 49
1.0
 74
     0
 49
-1.5
 74
     0
 49
1.0
 74
     0
 49
-1.5
 74
     0
  0
LTYPE
  5
4D41
330
5
100
AcDbSymbolTableRecord
100
AcDbLinetypeTableRecord
  2
genzigzag
 70
     0
  3
/\/-/\/-/\/-/\/-/\/-/\/
 72
    65
 73
     2
 40
12.0001
 49
0.0001
 74
     4
 75
   135
340
4D40
 46
2.0
 50
0.0
 44
0.0
 45
0.0
 49
-12.0
 74
     0
  0
LTYPE
  5
4EA8
330
5
100
AcDbSymbolTableRecord
100
AcDbLinetypeTableRecord
  2
HIDDEN
 70
     0
  3
Verdeckt
 72
    65
 73
     2
 40
9.525
 49
6.349999999999999
 74
     0
 49
-3.174999999999999
 74
     0
  0
LTYPE
  5
4EA9
330
5
100
AcDbSymbolTableRecord
100
AcDbLinetypeTableRecord
  2
PHANTOM2
 70
     0
  3
Phantom (.5x) ___ _ _ ___ _ _ ___ _ _ ___ _ _
 72
    65
 73
     6
 40
31.75
 49
15.875
 74
     0
 49
-3.174999999999999
 74
     0
 49
3.174999999999999
 74
     0
 49
-3.174999999999999
 74
     0
 49
3.174999999999999
 74
     0
 49
-3.174999999999999
 74
     0
  0
ENDTAB
  0
TABLE
  2
LAYER
  5
2
102
{ACAD_XDICTIONARY
360
50F2
102
}
330
0
100
AcDbSymbolTable
 70
    22
  0
LAYER
  5
F
102
{ACAD_XDICTIONARY
360
5337
102
}
330
2
100
AcDbSymbolTableRecord
100
AcDbLayerTableRecord
  2
0
 70
     0
 62
     7
  6
CONTINUOUS
370
    -3
390
3F24
347
4FA6
348
0
  0
LAYER
  5
4C
102
{ACAD_XDICTIONARY
360
5339
102
}
330
2
100
AcDbSymbolTableRecord
100
AcDbLayerTableRecord
  2
UMRISS02
 70
     0
 62
     1
  6
CONTINUOUS
370
    -3
390
3F24
347
4FA6
348
0
  0
LAYER
  5
4D
102
{ACAD_XDICTIONARY
360
533B
102
}
330
2
100
AcDbSymbolTableRecord
100
AcDbLayerTableRecord
  2
UMRISS03
 70
     0
 62
     3
  6
CONTINUOUS
370
    -3
390
3F24
347
4FA6
348
0
  0
LAYER
  5
4E
102
{ACAD_XDICTIONARY
360
533D
102
}
330
2
100
AcDbSymbolTableRecord
100
AcDbLayerTableRecord
  2
UMRISS05
 70
     0
 62
     4
  6
CONTINUOUS
370
    -3
390
3F24
347
4FA6
348
0
  0
LAYER
  5
4F
102
{ACAD_XDICTIONARY
360
533F
102
}
330
2
100
AcDbSymbolTableRecord
100
AcDbLayerTableRecord
  2
UMRISS07
 70
     0
 62
     6
  6
CONTINUOUS
370
    -3
390
3F24
347
4FA6
348
0
  0
LAYER
  5
50
102
{ACAD_XDICTIONARY
360
5341
102
}
330
2
100
AcDbSymbolTableRecord
100
AcDbLayerTableRecord
  2
UMRISS10
 70
     0
 62
     7
  6
CONTINUOUS
370
    -3
390
3F24
347
4FA6
348
0
  0
LAYER
  5
51
102
{ACAD_XDICTIONARY
360
5343
102
}
330
2
100
AcDbSymbolTableRecord
100
AcDbLayerTableRecord
  2
TEXT02
 70
     0
 62
     1
  6
CONTINUOUS
370
    -3
390
3F24
347
4FA6
348
0
  0
LAYER
  5
52
102
{ACAD_XDICTIONARY
360
5345
102
}
330
2
100
AcDbSymbolTableRecord
100
AcDbLayerTableRecord
  2
TEXT03
 70
     0
 62
     3
  6
CONTINUOUS
370
    -3
390
3F24
347
4FA6
348
0
  0
LAYER
  5
53
102
{ACAD_XDICTIONARY
360
5347
102
}
330
2
100
AcDbSymbolTableRecord
100
AcDbLayerTableRecord
  2
TEXT05
 70
     0
 62
     4
  6
CONTINUOUS
370
    -3
390
3F24
347
4FA6
348
0
  0
LAYER
  5
54
102
{ACAD_XDICTIONARY
360
5349
102
}
330
2
100
AcDbSymbolTableRecord
100
AcDbLayerTableRecord
  2
TEXT07
 70
     0
 62
     6
  6
CONTINUOUS
370
    -3
390
3F24
347
4FA6
348
0
  0
LAYER
  5
55
102
{ACAD_XDICTIONARY
360
534B
102
}
330
2
100
AcDbSymbolTableRecord
100
AcDbLayerTableRecord
  2
TEXT10
 70
     0
 62
     7
  6
CONTINUOUS
370
    -3
390
3F24
347
4FA6
348
0
  0
LAYER
  5
56
102
{ACAD_XDICTIONARY
360
534D
102
}
330
2
100
AcDbSymbolTableRecord
100
AcDbLayerTableRecord
  2
BEMASSUNG
 70
     0
 62
     2
  6
CONTINUOUS
370
    -3
390
3F24
347
4FA6
348
0
  0
LAYER
  5
61
102
{ACAD_XDICTIONARY
360
534F
102
}
330
2
100
AcDbSymbolTableRecord
100
AcDbLayerTableRecord
  2
ACHSEN
 70
     0
 62
     1
  6
STRICHPUNKT
370
    -3
390
3F24
347
4FA6
348
0
  0
LAYER
  5
65
102
{ACAD_XDICTIONARY
360
5351
102
}
330
2
100
AcDbSymbolTableRecord
100
AcDbLayerTableRecord
  2
SCHRAFFUR
 70
     2
 62
     8
  6
CONTINUOUS
370
    -3
390
3F24
347
4FA6
348
0
  0
LAYER
  5
65C
102
{ACAD_XDICTIONARY
360
5353
102
}
330
2
100
AcDbSymbolTableRecord
100
AcDbLayerTableRecord
  2
AVERDECKTE
 70
     0
 62
    13
  6
VERDECKT
370
    -3
390
3F24
347
4FA6
348
0
  0
LAYER
  5
3F61
102
{ACAD_XDICTIONARY
360
5355
102
}
330
2
100
AcDbSymbolTableRecord
100
AcDbLayerTableRecord
  2
ACA_VARSAVE
 70
     4
 62
     7
  6
CONTINUOUS
370
    -3
390
3F24
347
4FA6
348
0
  0
LAYER
  5
3F62
102
{ACAD_XDICTIONARY
360
5357
102
}
330
2
100
AcDbSymbolTableRecord
100
AcDbLayerTableRecord
  2
ASHADE
 70
     0
 62
     7
  6
CONTINUOUS
370
    -3
390
3F24
347
4FA6
348
0
  0
LAYER
  5
3F63
102
{ACAD_XDICTIONARY
360
5359
102
}
330
2
100
AcDbSymbolTableRecord
100
AcDbLayerTableRecord
  2
KOPF
 70
     0
 62
     7
  6
CONTINUOUS
370
    -3
390
3F24
347
4FA6
348
0
  0
LAYER
  5
3F6C
102
{ACAD_XDICTIONARY
360
535B
102
}
330
2
100
AcDbSymbolTableRecord
100
AcDbLayerTableRecord
  2
AVERDECKT
 70
     0
 62
    13
  6
VERDECKT
370
    -3
390
3F24
347
4FA6
348
0
  0
LAYER
  5
479A
102
{ACAD_XDICTIONARY
360
535D
102
}
330
2
100
AcDbSymbolTableRecord
100
AcDbLayerTableRecord
  2
KOPF03
 70
     0
 62
     1
  6
RANDX2
370
    -3
390
3F24
347
4FA6
348
0
  0
LAYER
  5
51CD
330
2
100
AcDbSymbolTableRecord
100
AcDbLayerTableRecord
  2
DEFPOINTS
 70
     0
 62
     7
  6
CONTINUOUS
290
     0
370
    -3
390
3F24
347
4FA6
348
0
  0
LAYER
  5
5296
102
{ACAD_XDICTIONARY
360
535F
102
}
330
2
100
AcDbSymbolTableRecord
100
AcDbLayerTableRecord
  2
5
 70
     0
 62
     3
  6
CONTINUOUS
370
    -3
390
3F24
347
4FA6
348
0
1001
AcAecLayerStandard
1000

1000

  0
ENDTAB
  0
TABLE
  2
STYLE
  5
3
330
0
100
AcDbSymbolTable
 70
    26
  0
STYLE
  5
10
330
3
100
AcDbSymbolTableRecord
100
AcDbTextStyleTableRecord
  2
STANDARD
 70
     0
 40
0.0
 41
1.0
 50
0.0
 71
     0
 42
3.5
  3
ISOCP.SHX
  4

  0
STYLE
  5
1DC
330
3
100
AcDbSymbolTableRecord
100
AcDbTextStyleTableRecord
  2
ARIAL-STANDARD
 70
     0
 40
0.0
 41
1.0
 50
0.0
 71
     0
 42
3.5
  3
arial.ttf
  4

1001
ACAD
1000
Arial
1071
       34
  0
STYLE
  5
1DD
330
3
100
AcDbSymbolTableRecord
100
AcDbTextStyleTableRecord
  2
ARIAL-FETT
 70
     0
 40
3.5
 41
1.0
 50
0.0
 71
     0
 42
10.0
  3

  4

1001
ACAD
1000
Arial
1071
 33554466
  0
STYLE
  5
1E4
330
3
100
AcDbSymbolTableRecord
100
AcDbTextStyleTableRecord
  2
BOOKMAN-KURSIV
 70
     0
 40
3.5
 41
1.0
 50
0.0
 71
     0
 42
10.0
  3

  4

1001
ACAD
1000
Bookman Old Style
1071
 16777234
  0
STYLE
  5
1EE
330
3
100
AcDbSymbolTableRecord
100
AcDbTextStyleTableRecord
  2
COMMERCIAL
 70
     0
 40
3.5
 41
1.0
 50
0.0
 71
     0
 42
10.0
  3
comsc.ttf
  4

1001
ACAD
1000
CommercialScript BT
1071
       66
  0
STYLE
  5
219
330
3
100
AcDbSymbolTableRecord
100
AcDbTextStyleTableRecord
  2
SWIS-FETT
 70
     0
 40
3.5
 41
1.0
 50
0.0
 71
     0
 42
10.0
  3
swissbo.ttf
  4

1001
ACAD
1000
Swis721 BdOul BT
1071
       82
  0
STYLE
  5
21B
330
3
100
AcDbSymbolTableRecord
100
AcDbTextStyleTableRecord
  2
SWIS-BLACK
 70
     0
 40
3.5
 41
1.0
 50
0.0
 71
     0
 42
10.0
  3
swissk.ttf
  4

1001
ACAD
1000
Swis721 Blk BT
1071
       34
  0
STYLE
  5
21D
330
3
100
AcDbSymbolTableRecord
100
AcDbTextStyleTableRecord
  2
SWIS-BLACK-SCHMAL
 70
     0
 40
3.5
 41
1.0
 50
0.0
 71
     0
 42
10.0
  3
swissck.ttf
  4

1001
ACAD
1000
Swis721 BlkCn BT
1071
       34
  0
STYLE
  5
21F
330
3
100
AcDbSymbolTableRecord
100
AcDbTextStyleTableRecord
  2
SWIS-BLACK-BREIT
 70
     0
 40
3.5
 41
1.0
 50
0.0
 71
     0
 42
10.0
  3
swissek.ttf
  4

1001
ACAD
1000
Swis721 BlkEx BT
1071
       34
  0
STYLE
  5
232
330
3
100
AcDbSymbolTableRecord
100
AcDbTextStyleTableRecord
  2
TIMES-NEW-ROMAN
 70
     0
 40
3.5
 41
1.0
 50
0.0
 71
     0
 42
10.0
  3

  4

1001
ACAD
1000
Times New Roman
1071
 16777234
  0
STYLE
  5
235
330
3
100
AcDbSymbolTableRecord
100
AcDbTextStyleTableRecord
  2
VINETA
 70
     0
 40
3.5
 41
1.0
 50
0.0
 71
     0
 42
10.0
  3
vinet.ttf
  4

1001
ACAD
1000
Vineta BT
1071
       82
  0
STYLE
  5
F24
330
3
100
AcDbSymbolTableRecord
100
AcDbTextStyleTableRecord
  2
NORM
 70
     0
 40
0.0
 41
1.0
 50
0.0
 71
     0
 42
2.399999999999999
  3
simplex.shx
  4

  0
STYLE
  5
12D0
330
3
100
AcDbSymbolTableRecord
100
AcDbTextStyleTableRecord
  2
TIMES
 70
     0
 40
0.0
 41
0.8
 50
0.0
 71
     0
 42
3.0
  3

  4

1001
ACAD
1000
Times New Roman
1071
 33554450
  0
STYLE
  5
12D1
330
3
100
AcDbSymbolTableRecord
100
AcDbTextStyleTableRecord
  2
ARIAL
 70
     0
 40
0.0
 41
0.8
 50
0.0
 71
     0
 42
3.0
  3
ARIALN.TTF
  4

1001
ACAD
1000
Arial Narrow
1071
       34
  0
STYLE
  5
3F6D
330
3
100
AcDbSymbolTableRecord
100
AcDbTextStyleTableRecord
  2
ARIALFETT
 70
     0
 40
0.0
 41
1.0
 50
0.0
 71
     0
 42
6.0
  3

  4

1001
ACAD
1000
Arial Black
1071
       34
  0
STYLE
  5
3F6E
330
3
100
AcDbSymbolTableRecord
100
AcDbTextStyleTableRecord
  2

 70
     1
 40
0.0
 41
1.0
 50
0.0
 71
     0
 42
2.5
  3
ltypeshp.shx
  4

  0
STYLE
  5
479B
330
3
100
AcDbSymbolTableRecord
100
AcDbTextStyleTableRecord
  2
DIN
 70
     0
 40
0.0
 41
0.8
 50
0.0
 71
     0
 42
3.5
  3
isocp.shx
  4

  0
STYLE
  5
479C
330
3
100
AcDbSymbolTableRecord
100
AcDbTextStyleTableRecord
  2
NORM2
 70
     0
 40
0.0
 41
0.8
 50
0.0
 71
     0
 42
48.0
  3
simplex.shx
  4

  0
STYLE
  5
479D
330
3
100
AcDbSymbolTableRecord
100
AcDbTextStyleTableRecord
  2
PASSDIN
 70
     0
 40
0.0
 41
1.0
 50
0.0
 71
     0
 42
3.5
  3
isocp.shx
  4

  0
STYLE
  5
4D1A
330
3
100
AcDbSymbolTableRecord
100
AcDbTextStyleTableRecord
  2
ACDINTS
 70
     0
 40
1.0
 41
1.0
 50
0.0
 71
     0
 42
3.5
  3
isocp.shx
  4

  0
STYLE
  5
4D26
330
3
100
AcDbSymbolTableRecord
100
AcDbTextStyleTableRecord
  2
ACDINGDT
 70
     0
 40
0.0
 41
1.0
 50
0.0
 71
     0
 42
3.5
  3
amgdt.shx
  4

  0
STYLE
  5
4D40
330
3
100
AcDbSymbolTableRecord
100
AcDbTextStyleTableRecord
  2

 70
     1
 40
0.0
 41
1.0
 50
0.0
 71
     0
 42
3.5
  3
genltshp.shx
  4

  0
STYLE
  5
4F52
330
3
100
AcDbSymbolTableRecord
100
AcDbTextStyleTableRecord
  2
WMF
 70
     0
 40
0.0
 41
1.0
 50
0.0
 71
     0
 42
10.0
  3
arial.ttf
  4

1001
ACAD
1000
Arial
1071
       34
  0
STYLE
  5
507A
330
3
100
AcDbSymbolTableRecord
100
AcDbTextStyleTableRecord
  2
USER1
 70
     0
 40
0.0
 41
1.0
 50
0.0
 71
     0
 42
3.5
  3
TXT.SHX
  4

  0
STYLE
  5
507B
330
3
100
AcDbSymbolTableRecord
100
AcDbTextStyleTableRecord
  2
USER2
 70
     0
 40
0.0
 41
1.0
 50
0.0
 71
     0
 42
3.5
  3
SIMPLEX.SHX
  4

  0
STYLE
  5
507C
330
3
100
AcDbSymbolTableRecord
100
AcDbTextStyleTableRecord
  2
USER3
 70
     0
 40
0.0
 41
1.0
 50
0.0
 71
     0
 42
3.5
  3
ITALIC.SHX
  4

  0
ENDTAB
  0
TABLE
  2
VIEW
  5
6
330
0
100
AcDbSymbolTable
 70
     1
  0
ENDTAB
  0
TABLE
  2
UCS
  5
7
330
0
100
AcDbSymbolTable
 70
     0
  0
ENDTAB
  0
TABLE
  2
APPID
  5
9
330
0
100
AcDbSymbolTable
 70
    33
  0
APPID
  5
11
330
9
100
AcDbSymbolTableRecord
100
AcDbRegAppTableRecord
  2
ACAD
 70
     0
  0
APPID
  5
F32
330
9
100
AcDbSymbolTableRecord
100
AcDbRegAppTableRecord
  2
ACA_CADIMENU
 70
     0
  0
APPID
  5
F33
330
9
100
AcDbSymbolTableRecord
100
AcDbRegAppTableRecord
  2
AVE_RENDER
 70
     0
  0
APPID
  5
F34
330
9
100
AcDbSymbolTableRecord
100
AcDbRegAppTableRecord
  2
GENIUS_GENCFG_13
 70
     0
1001
GENIUS_GENCFG0_13
1000
GEN@INFO_POS@XLATE
1001
GENIUS_GENCFG1_13
1000
GEN@INFO_POS
1001
GENIUS_GENCFG2_13
1000
GEN@LAYER@DEFS
1001
GENIUS_GENCFG3_13
1000
GEN@LAYER@ENTSORT
1001
GENIUS_GENCFG4_13
1000
GEN
1001
GENIUS_GEVCFG0_13
1000
GEV
  0
APPID
  5
F35
330
9
100
AcDbSymbolTableRecord
100
AcDbRegAppTableRecord
  2
GENIUS_GENCFG0_13
 70
     0
1001
GENIUS_GENCFG_13
1071
908952218
1000
53F
1000
GEN@INFO_POS@XLATE
1070
     7
1000
GenCfgObject
1000
GenCfgShort
1000
GenCfgReal
1000
GenCfgBool
1000
GenCfgString
1000
GenCfgDim
1000
GenCfgAttrInf
1000
INFOPOINTS
1070
     0
1002
{
1000
GENINF14
1070
     0
1002
{
1000
2GENINF
1070
     4
1000
2
1002
{
1002
}
1000
3GENINF
1070
     4
1000
3
1002
{
1002
}
1000
4GENINF
1070
     4
1000
4
1002
{
1002
}
1000
5GENINF
1070
     4
1000
5
1002
{
1002
}
1000
6GENINF
1070
     4
1000
6
1002
{
1002
}
1000
7GENINF
1070
     4
1000
7
1002
{
1002
}
1000
8GENINF
1070
     4
1000
8
1002
{
1002
}
1000
9GENINF
1070
     4
1000
9
1002
{
1002
}
1000
10GENINF
1070
     4
1000
10
1002
{
1002
}
1000
11GENINF
1070
     4
1000
11
1002
{
1002
}
1000
12GENINF
1070
     4
1000
12
1002
{
1002
}
1000
13GENINF
1070
     4
1000
13
1002
{
1002
}
1000
14GENINF
1070
     4
1000
14
1002
{
1002
}
1000
15GENINF
1070
     4
1000
15
1002
{
1002
}
1000
16GENINF
1070
     4
1000
16
1002
{
1002
}
1000
17GENINF
1070
     4
1000
17
1002
{
1002
}
1000
18GENINF
1070
     4
1000
18
1002
{
1002
}
1000
19GENINF
1070
     4
1000
19
1002
{
1002
}
1000
20GENINF
1070
     4
1000
20
1002
{
1002
}
1000
21GENINF
1070
     4
1000
21
1002
{
1002
}
1000
22GENINF
1070
     4
1000
22
1002
{
1002
}
1000
23GENINF
1070
     4
1000
23
1002
{
1002
}
1000
24GENINF
1070
     4
1000
24
1002
{
1002
}
1000
25GENINF
1070
     4
1000
25
1002
{
1002
}
1000
26GENINF
1070
     4
1000
26
1002
{
1002
}
1000
27GENINF
1070
     4
1000
27
1002
{
1002
}
1000
0GENINF
1070
     4
1000
0
1002
{
1002
}
1002
}
1000
GENINF13
1070
     0
1002
{
1000
2GENINF
1070
     4
1000
2
1002
{
1002
}
1000
3GENINF
1070
     4
1000
3
1002
{
1002
}
1000
4GENINF
1070
     4
1000
4
1002
{
1002
}
1000
5GENINF
1070
     4
1000
5
1002
{
1002
}
1000
6GENINF
1070
     4
1000
6
1002
{
1002
}
1000
7GENINF
1070
     4
1000
7
1002
{
1002
}
1000
8GENINF
1070
     4
1000
8
1002
{
1002
}
1000
9GENINF
1070
     4
1000
9
1002
{
1002
}
1000
10GENINF
1070
     4
1000
10
1002
{
1002
}
1000
11GENINF
1070
     4
1000
11
1002
{
1002
}
1000
12GENINF
1070
     4
1000
12
1002
{
1002
}
1000
13GENINF
1070
     4
1000
13
1002
{
1002
}
1000
14GENINF
1070
     4
1000
14
1002
{
1002
}
1000
15GENINF
1070
     4
1000
15
1002
{
1002
}
1000
16GENINF
1070
     4
1000
16
1002
{
1002
}
1000
17GENINF
1070
     4
1000
17
1002
{
1002
}
1000
18GENINF
1070
     4
1000
18
1002
{
1002
}
1000
19GENINF
1070
     4
1000
19
1002
{
1002
}
1000
20GENINF
1070
     4
1000
20
1002
{
1002
}
1000
21GENINF
1070
     4
1000
21
1002
{
1002
}
1000
22GENINF
1070
     4
1000
22
1002
{
1002
}
1000
23GENINF
1070
     4
1000
23
1002
{
1002
}
1000
24GENINF
1070
     4
1000
24
1002
{
1002
}
1000
0GENINF
1070
     4
1000
0
1002
{
1002
}
1002
}
1000
GENINFO
1070
     0
1002
{
1000
3GENINF
1070
     4
1000
3
1002
{
1002
}
1000
4GENINF
1070
     4
1000
4
1002
{
1002
}
1000
5GENINF
1070
     4
1000
5
1002
{
1002
}
1000
6GENINF
1070
     4
1000
6
1002
{
1002
}
1000
7GENINF
1070
     4
1000
7
1002
{
1002
}
1000
8GENINF
1070
     4
1000
8
1002
{
1002
}
1000
9GENINF
1070
     4
1000
9
1002
{
1002
}
1000
10GENINF
1070
     4
1000
10
1002
{
1002
}
1000
11GENINF
1070
     4
1000
11
1002
{
1002
}
1000
12GENINF
1070
     4
1000
12
1002
{
1002
}
1000
13GENINF
1070
     4
1000
13
1002
{
1002
}
1000
14GENINF
1070
     4
1000
14
1002
{
1002
}
1000
15GENINF
1070
     4
1000
15
1002
{
1002
}
1000
16GENINF
1070
     4
1000
16
1002
{
1002
}
1000
17GENINF
1070
     4
1000
17
1002
{
1002
}
1000
18GENINF
1070
     4
1000
18
1002
{
1002
}
1000
19GENINF
1070
     4
1000
19
1002
{
1002
}
1000
20GENINF
1070
     4
1000
20
1002
{
1002
}
1000
21GENINF
1070
     4
1000
21
1002
{
1002
}
1000
22GENINF
1070
     4
1000
22
1002
{
1002
}
1002
}
1000
DININFO
1070
     0
1002
{
1000
ST-NAME1
1070
     4
1000
5
1002
{
1002
}
1000
ST-NAME2
1070
     4
1000
6
1002
{
1002
}
1000
ST-NORM1
1070
     4
1000
7
1002
{
1002
}
1000
ST-NORM2
1070
     4
1000
8
1002
{
1002
}
1000
ST-MAT1
1070
     4
1000
9
1002
{
1002
}
1000
ST-MAT2
1070
     4
1000
10
1002
{
1002
}
1002
}
1002
}
1000
POS_NUMBERS
1070
     0
1002
{
1000
GENPOS14
1070
     0
1002
{
1000
1GENPOS
1070
     4
1000
1
1002
{
1002
}
1000
2GENPOS
1070
     4
1000
2
1002
{
1002
}
1000
3GENPOS
1070
     4
1000
3
1002
{
1002
}
1000
4GENPOS
1070
     4
1000
4
1002
{
1002
}
1000
5GENPOS
1070
     4
1000
5
1002
{
1002
}
1000
6GENPOS
1070
     4
1000
6
1002
{
1002
}
1000
7GENPOS
1070
     4
1000
7
1002
{
1002
}
1000
8GENPOS
1070
     4
1000
8
1002
{
1002
}
1000
9GENPOS
1070
     4
1000
9
1002
{
1002
}
1000
10GENPOS
1070
     4
1000
10
1002
{
1002
}
1000
11GENPOS
1070
     4
1000
11
1002
{
1002
}
1000
12GENPOS
1070
     4
1000
12
1002
{
1002
}
1000
13GENPOS
1070
     4
1000
13
1002
{
1002
}
1000
14GENPOS
1070
     4
1000
14
1002
{
1002
}
1000
15GENPOS
1070
     4
1000
15
1002
{
1002
}
1000
16GENPOS
1070
     4
1000
16
1002
{
1002
}
1000
17GENPOS
1070
     4
1000
17
1002
{
1002
}
1000
18GENPOS
1070
     4
1000
18
1002
{
1002
}
1000
19GENPOS
1070
     4
1000
19
1002
{
1002
}
1000
20GENPOS
1070
     4
1000
20
1002
{
1002
}
1000
21GENPOS
1070
     4
1000
21
1002
{
1002
}
1000
22GENPOS
1070
     4
1000
22
1002
{
1002
}
1000
23GENPOS
1070
     4
1000
23
1002
{
1002
}
1000
24GENPOS
1070
     4
1000
24
1002
{
1002
}
1000
25GENPOS
1070
     4
1000
25
1002
{
1002
}
1000
26GENPOS
1070
     4
1000
26
1002
{
1002
}
1000
27GENPOS
1070
     4
1000
27
1002
{
1002
}
1000
0GENPOS
1070
     4
1000
0
1002
{
1002
}
1002
}
1000
GENPOS13
1070
     0
1002
{
1000
1GENPOS
1070
     4
1000
1
1002
{
1002
}
1000
2GENPOS
1070
     4
1000
2
1002
{
1002
}
1000
3GENPOS
1070
     4
1000
3
1002
{
1002
}
1000
4GENPOS
1070
     4
1000
4
1002
{
1002
}
1000
5GENPOS
1070
     4
1000
5
1002
{
1002
}
1000
6GENPOS
1070
     4
1000
6
1002
{
1002
}
1000
7GENPOS
1070
     4
1000
7
1002
{
1002
}
1000
8GENPOS
1070
     4
1000
8
1002
{
1002
}
1000
9GENPOS
1070
     4
1000
9
1002
{
1002
}
1000
10GENPOS
1070
     4
1000
10
1002
{
1002
}
1000
11GENPOS
1070
     4
1000
11
1002
{
1002
}
1000
12GENPOS
1070
     4
1000
12
1002
{
1002
}
1000
13GENPOS
1070
     4
1000
13
1002
{
1002
}
1000
14GENPOS
1070
     4
1000
14
1002
{
1002
}
1000
15GENPOS
1070
     4
1000
15
1002
{
1002
}
1000
16GENPOS
1070
     4
1000
16
1002
{
1002
}
1000
17GENPOS
1070
     4
1000
17
1002
{
1002
}
1000
18GENPOS
1070
     4
1000
18
1002
{
1002
}
1000
19GENPOS
1070
     4
1000
19
1002
{
1002
}
1000
20GENPOS
1070
     4
1000
20
1002
{
1002
}
1000
21GENPOS
1070
     4
1000
21
1002
{
1002
}
1000
22GENPOS
1070
     4
1000
22
1002
{
1002
}
1000
23GENPOS
1070
     4
1000
23
1002
{
1002
}
1000
24GENPOS
1070
     4
1000
24
1002
{
1002
}
1000
0GENPOS
1070
     4
1000
0
1002
{
1002
}
1002
}
1000
GENPOS
1070
     0
1002
{
1000
1GENPOS
1070
     4
1000
1
1002
{
1002
}
1000
2GENPOS
1070
     4
1000
2
1002
{
1002
}
1000
3GENPOS
1070
     4
1000
3
1002
{
1002
}
1000
4GENPOS
1070
     4
1000
4
1002
{
1002
}
1000
5GENPOS
1070
     4
1000
5
1002
{
1002
}
1000
6GENPOS
1070
     4
1000
6
1002
{
1002
}
1000
7GENPOS
1070
     4
1000
7
1002
{
1002
}
1000
8GENPOS
1070
     4
1000
8
1002
{
1002
}
1000
9GENPOS
1070
     4
1000
9
1002
{
1002
}
1000
10GENPOS
1070
     4
1000
10
1002
{
1002
}
1000
11GENPOS
1070
     4
1000
11
1002
{
1002
}
1000
12GENPOS
1070
     4
1000
12
1002
{
1002
}
1000
13GENPOS
1070
     4
1000
13
1002
{
1002
}
1000
14GENPOS
1070
     4
1000
14
1002
{
1002
}
1000
15GENPOS
1070
     4
1000
15
1002
{
1002
}
1000
16GENPOS
1070
     4
1000
16
1002
{
1002
}
1000
17GENPOS
1070
     4
1000
17
1002
{
1002
}
1000
18GENPOS
1070
     4
1000
18
1002
{
1002
}
1000
19GENPOS
1070
     4
1000
19
1002
{
1002
}
1000
20GENPOS
1070
     4
1000
20
1002
{
1002
}
1000
21GENPOS
1070
     4
1000
21
1002
{
1002
}
1000
22GENPOS
1070
     4
1000
22
1002
{
1002
}
1000
23GENPOS
1070
     4
1000
23
1002
{
1002
}
1002
}
1000
DIN985
1070
     0
1002
{
1000
POSITION
1070
     4
1000
1
1002
{
1002
}
1000
MENGE
1070
     4
1000
2
1002
{
1002
}
1000
BLATT
1070
     4
1000
3
1002
{
1002
}
1000
BENENN
1070
     4
1000
5
1002
{
1002
}
1000
BENENN2
1070
     4
1000
6
1002
{
1002
}
1000
NORM
1070
     4
1000
7
1002
{
1002
}
1000
NORM2
1070
     4
1000
8
1002
{
1002
}
1000
WERKSTOFF
1070
     4
1000
9
1002
{
1002
}
1000
WERKSTOFF2
1070
     4
1000
10
1002
{
1002
}
1002
}
1000
DIN986
1070
     0
1002
{
1000
POSITION
1070
     4
1000
1
1002
{
1002
}
1000
MENGE
1070
     4
1000
2
1002
{
1002
}
1000
BLATT
1070
     4
1000
3
1002
{
1002
}
1000
BENENN
1070
     4
1000
5
1002
{
1002
}
1000
BENENN2
1070
     4
1000
6
1002
{
1002
}
1000
NORM
1070
     4
1000
7
1002
{
1002
}
1000
NORM2
1070
     4
1000
8
1002
{
1002
}
1000
WERKSTOFF
1070
     4
1000
9
1002
{
1002
}
1000
WERKSTOFF2
1070
     4
1000
10
1002
{
1002
}
1002
}
1000
DIN987
1070
     0
1002
{
1000
POSITION
1070
     4
1000
1
1002
{
1002
}
1000
MENGE
1070
     4
1000
2
1002
{
1002
}
1000
BLATT
1070
     4
1000
3
1002
{
1002
}
1000
BENENN
1070
     4
1000
5
1002
{
1002
}
1000
BENENN2
1070
     4
1000
6
1002
{
1002
}
1000
NORM
1070
     4
1000
7
1002
{
1002
}
1000
NORM2
1070
     4
1000
8
1002
{
1002
}
1000
WERKSTOFF
1070
     4
1000
9
1002
{
1002
}
1000
WERKSTOFF2
1070
     4
1000
10
1002
{
1002
}
1002
}
1002
}
  0
APPID
  5
F36
330
9
100
AcDbSymbolTableRecord
100
AcDbRegAppTableRecord
  2
GENIUS_GENCFG1_13
 70
     0
1001
GENIUS_GENCFG_13
1071
908952218
1000
540
1000
GEN@INFO_POS
1070
     7
1000
GenCfgObject
1000
GenCfgShort
1000
GenCfgReal
1000
GenCfgBool
1000
GenCfgString
1000
GenCfgDim
1000
GenCfgAttrInf
1000
DescrText
1070
     4
1000
5, ,6, ,7, ,8
1002
{
1002
}
1000
DescrText2
1070
     4
1000
26
1002
{
1002
}
1000
VisibleAttr1
1070
     4
1000
1
1002
{
1002
}
1000
VisibleAttr2
1070
     4
1000
26
1002
{
1002
}
1000
UpdateBlock
1070
     3
1070
     1
1002
{
1002
}
1000
Attrib
1070
     0
1002
{
1000
0
1070
     6
1002
{
1000
Prompt
1070
     4
1000
(genmsg gendwg 103)
1002
{
1002
}
1000
Value
1070
     4
1000

1002
{
1002
}
1000
EditFlag
1070
     1
1070
     0
1002
{
1002
}
1000
PosInDDATTE
1070
     1
1070
    27
1002
{
1002
}
1000
FieldLen
1070
     1
1070
    -1
1002
{
1002
}
1002
}
1000
1
1070
     6
1002
{
1000
Prompt
1070
     4
1000
(genmsg gendwg 31)
1002
{
1002
}
1000
Value
1070
     4
1000
1
1002
{
1002
}
1000
EditFlag
1070
     1
1070
     1
1002
{
1002
}
1000
PosInDDATTE
1070
     1
1070
     1
1002
{
1002
}
1000
FieldLen
1070
     1
1070
    -1
1002
{
1002
}
1002
}
1000
2
1070
     6
1002
{
1000
Prompt
1070
     4
1000
(genmsg gendwg 32)
1002
{
1002
}
1000
Value
1070
     4
1000
1
1002
{
1002
}
1000
EditFlag
1070
     1
1070
     1
1002
{
1002
}
1000
PosInDDATTE
1070
     1
1070
     2
1002
{
1002
}
1000
FieldLen
1070
     1
1070
    -1
1002
{
1002
}
1002
}
1000
3
1070
     6
1002
{
1000
Prompt
1070
     4
1000
(genmsg gendwg 33)
1002
{
1002
}
1000
Value
1070
     4
1000

1002
{
1002
}
1000
EditFlag
1070
     1
1070
     1
1002
{
1002
}
1000
PosInDDATTE
1070
     1
1070
     3
1002
{
1002
}
1000
FieldLen
1070
     1
1070
    -1
1002
{
1002
}
1002
}
1000
4
1070
     6
1002
{
1000
Prompt
1070
     4
1000
(genmsg gendwg 34)
1002
{
1002
}
1000
Value
1070
     4
1000

1002
{
1002
}
1000
EditFlag
1070
     1
1070
     1
1002
{
1002
}
1000
PosInDDATTE
1070
     1
1070
     4
1002
{
1002
}
1000
FieldLen
1070
     1
1070
    -1
1002
{
1002
}
1002
}
1000
5
1070
     6
1002
{
1000
Prompt
1070
     4
1000
(genmsg gendwg 35)
1002
{
1002
}
1000
Value
1070
     4
1000

1002
{
1002
}
1000
EditFlag
1070
     1
1070
     1
1002
{
1002
}
1000
PosInDDATTE
1070
     1
1070
     5
1002
{
1002
}
1000
FieldLen
1070
     1
1070
    -1
1002
{
1002
}
1002
}
1000
6
1070
     6
1002
{
1000
Prompt
1070
     4
1000
(genmsg gendwg 36)
1002
{
1002
}
1000
Value
1070
     4
1000

1002
{
1002
}
1000
EditFlag
1070
     1
1070
     1
1002
{
1002
}
1000
PosInDDATTE
1070
     1
1070
     6
1002
{
1002
}
1000
FieldLen
1070
     1
1070
    -1
1002
{
1002
}
1002
}
1000
7
1070
     6
1002
{
1000
Prompt
1070
     4
1000
(genmsg gendwg 37)
1002
{
1002
}
1000
Value
1070
     4
1000

1002
{
1002
}
1000
EditFlag
1070
     1
1070
     1
1002
{
1002
}
1000
PosInDDATTE
1070
     1
1070
     7
1002
{
1002
}
1000
FieldLen
1070
     1
1070
    -1
1002
{
1002
}
1002
}
1000
8
1070
     6
1002
{
1000
Prompt
1070
     4
1000
(genmsg gendwg 38)
1002
{
1002
}
1000
Value
1070
     4
1000

1002
{
1002
}
1000
EditFlag
1070
     1
1070
     1
1002
{
1002
}
1000
PosInDDATTE
1070
     1
1070
     8
1002
{
1002
}
1000
FieldLen
1070
     1
1070
    -1
1002
{
1002
}
1002
}
1000
9
1070
     6
1002
{
1000
Prompt
1070
     4
1000
(genmsg gendwg 39)
1002
{
1002
}
1000
Value
1070
     4
1000

1002
{
1002
}
1000
EditFlag
1070
     1
1070
     1
1002
{
1002
}
1000
PosInDDATTE
1070
     1
1070
     9
1002
{
1002
}
1000
FieldLen
1070
     1
1070
    -1
1002
{
1002
}
1002
}
1000
10
1070
     6
1002
{
1000
Prompt
1070
     4
1000
(genmsg gendwg 40)
1002
{
1002
}
1000
Value
1070
     4
1000

1002
{
1002
}
1000
EditFlag
1070
     1
1070
     1
1002
{
1002
}
1000
PosInDDATTE
1070
     1
1070
    10
1002
{
1002
}
1000
FieldLen
1070
     1
1070
    -1
1002
{
1002
}
1002
}
1000
11
1070
     6
1002
{
1000
Prompt
1070
     4
1000
(genmsg gendwg 41)
1002
{
1002
}
1000
Value
1070
     4
1000

1002
{
1002
}
1000
EditFlag
1070
     1
1070
     1
1002
{
1002
}
1000
PosInDDATTE
1070
     1
1070
    11
1002
{
1002
}
1000
FieldLen
1070
     1
1070
    -1
1002
{
1002
}
1002
}
1000
12
1070
     6
1002
{
1000
Prompt
1070
     4
1000
(genmsg gendwg 42)
1002
{
1002
}
1000
Value
1070
     4
1000

1002
{
1002
}
1000
EditFlag
1070
     1
1070
     1
1002
{
1002
}
1000
PosInDDATTE
1070
     1
1070
    12
1002
{
1002
}
1000
FieldLen
1070
     1
1070
    -1
1002
{
1002
}
1002
}
1000
13
1070
     6
1002
{
1000
Prompt
1070
     4
1000
(genmsg gendwg 43)
1002
{
1002
}
1000
Value
1070
     4
1000

1002
{
1002
}
1000
EditFlag
1070
     1
1070
     1
1002
{
1002
}
1000
PosInDDATTE
1070
     1
1070
    13
1002
{
1002
}
1000
FieldLen
1070
     1
1070
    -1
1002
{
1002
}
1002
}
1000
14
1070
     6
1002
{
1000
Prompt
1070
     4
1000
(genmsg gendwg 44)
1002
{
1002
}
1000
Value
1070
     4
1000

1002
{
1002
}
1000
EditFlag
1070
     1
1070
     1
1002
{
1002
}
1000
PosInDDATTE
1070
     1
1070
    14
1002
{
1002
}
1000
FieldLen
1070
     1
1070
    -1
1002
{
1002
}
1002
}
1000
15
1070
     6
1002
{
1000
Prompt
1070
     4
1000
(genmsg gendwg 45)
1002
{
1002
}
1000
Value
1070
     4
1000

1002
{
1002
}
1000
EditFlag
1070
     1
1070
     1
1002
{
1002
}
1000
PosInDDATTE
1070
     1
1070
    15
1002
{
1002
}
1000
FieldLen
1070
     1
1070
    -1
1002
{
1002
}
1002
}
1000
16
1070
     6
1002
{
1000
Prompt
1070
     4
1000
(genmsg gendwg 46)
1002
{
1002
}
1000
Value
1070
     4
1000

1002
{
1002
}
1000
EditFlag
1070
     1
1070
     1
1002
{
1002
}
1000
PosInDDATTE
1070
     1
1070
    16
1002
{
1002
}
1000
FieldLen
1070
     1
1070
    -1
1002
{
1002
}
1002
}
1000
17
1070
     6
1002
{
1000
Prompt
1070
     4
1000
(genmsg gendwg 47)
1002
{
1002
}
1000
Value
1070
     4
1000

1002
{
1002
}
1000
EditFlag
1070
     1
1070
     1
1002
{
1002
}
1000
PosInDDATTE
1070
     1
1070
    17
1002
{
1002
}
1000
FieldLen
1070
     1
1070
    -1
1002
{
1002
}
1002
}
1000
18
1070
     6
1002
{
1000
Prompt
1070
     4
1000
(genmsg gendwg 48)
1002
{
1002
}
1000
Value
1070
     4
1000

1002
{
1002
}
1000
EditFlag
1070
     1
1070
     1
1002
{
1002
}
1000
PosInDDATTE
1070
     1
1070
    18
1002
{
1002
}
1000
FieldLen
1070
     1
1070
    -1
1002
{
1002
}
1002
}
1000
19
1070
     6
1002
{
1000
Prompt
1070
     4
1000
(genmsg gendwg 99)
1002
{
1002
}
1000
Value
1070
     4
1000

1002
{
1002
}
1000
EditFlag
1070
     1
1070
     1
1002
{
1002
}
1000
PosInDDATTE
1070
     1
1070
    19
1002
{
1002
}
1000
FieldLen
1070
     1
1070
    -1
1002
{
1002
}
1002
}
1000
20
1070
     6
1002
{
1000
Prompt
1070
     4
1000
(genmsg gendwg 100)
1002
{
1002
}
1000
Value
1070
     4
1000

1002
{
1002
}
1000
EditFlag
1070
     1
1070
     1
1002
{
1002
}
1000
PosInDDATTE
1070
     1
1070
    20
1002
{
1002
}
1000
FieldLen
1070
     1
1070
    -1
1002
{
1002
}
1002
}
1000
21
1070
     6
1002
{
1000
Prompt
1070
     4
1000
(genmsg gendwg 101)
1002
{
1002
}
1000
Value
1070
     4
1000

1002
{
1002
}
1000
EditFlag
1070
     1
1070
     1
1002
{
1002
}
1000
PosInDDATTE
1070
     1
1070
    21
1002
{
1002
}
1000
FieldLen
1070
     1
1070
    -1
1002
{
1002
}
1002
}
1000
22
1070
     6
1002
{
1000
Prompt
1070
     4
1000
(genmsg gendwg 102)
1002
{
1002
}
1000
Value
1070
     4
1000

1002
{
1002
}
1000
EditFlag
1070
     1
1070
     1
1002
{
1002
}
1000
PosInDDATTE
1070
     1
1070
    22
1002
{
1002
}
1000
FieldLen
1070
     1
1070
    -1
1002
{
1002
}
1002
}
1000
23
1070
     6
1002
{
1000
Prompt
1070
     4
1000
(genmsg gendwg 30)
1002
{
1002
}
1000
Value
1070
     4
1000

1002
{
1002
}
1000
EditFlag
1070
     1
1070
     1
1002
{
1002
}
1000
PosInDDATTE
1070
     1
1070
    23
1002
{
1002
}
1000
FieldLen
1070
     1
1070
    -1
1002
{
1002
}
1002
}
1000
24
1070
     6
1002
{
1000
Prompt
1070
     4
1000
(genmsg gendwg 104)
1002
{
1002
}
1000
Value
1070
     4
1000

1002
{
1002
}
1000
EditFlag
1070
     1
1070
     1
1002
{
1002
}
1000
PosInDDATTE
1070
     1
1070
    24
1002
{
1002
}
1000
FieldLen
1070
     1
1070
    -1
1002
{
1002
}
1002
}
1000
25
1070
     6
1002
{
1000
Prompt
1070
     4
1000
(genmsg gendwg 105)
1002
{
1002
}
1000
Value
1070
     4
1000

1002
{
1002
}
1000
EditFlag
1070
     1
1070
     1
1002
{
1002
}
1000
PosInDDATTE
1070
     1
1070
    25
1002
{
1002
}
1000
FieldLen
1070
     1
1070
    -1
1002
{
1002
}
1002
}
1000
26
1070
     6
1002
{
1000
Prompt
1070
     4
1000
(genmsg gendwg 106)
1002
{
1002
}
1000
Value
1070
     4
1000

1002
{
1002
}
1000
EditFlag
1070
     1
1070
     1
1002
{
1002
}
1000
PosInDDATTE
1070
     1
1070
    26
1002
{
1002
}
1000
FieldLen
1070
     1
1070
    -1
1002
{
1002
}
1002
}
1000
27
1070
     6
1002
{
1000
Prompt
1070
     4
1000
(genmsg gendwg 109)
1002
{
1002
}
1000
Value
1070
     4
1000

1002
{
1002
}
1000
EditFlag
1070
     1
1070
     2
1002
{
1002
}
1000
PosInDDATTE
1070
     1
1070
    27
1002
{
1002
}
1000
FieldLen
1070
     1
1070
    -1
1002
{
1002
}
1002
}
1002
}
1000
Xlate
1070
     0
1002
{
1000
>
1002
}
  0
APPID
  5
F37
330
9
100
AcDbSymbolTableRecord
100
AcDbRegAppTableRecord
  2
GENIUS_GENCFG2_13
 70
     0
1001
GENIUS_GENCFG_13
1071
908952218
1000
541
1000
GEN@LAYER@DEFS
1070
     9
1000
GenCfgObject
1000
GenCfgShort
1000
GenCfgReal
1000
GenCfgBool
1000
GenCfgString
1000
GenCfgDim
1000
GenCfgAttrInf
1000
GenCfgLaySection
1000
GenCfgLayer
1000
Basic
1070
     0
1002
{
1000
0
1070
     8
1000
0
1002
{
1000
Color
1070
     1
1070
     7
1002
{
1002
}
1000
LType
1070
     4
1000
CONTINUOUS
1002
{
1002
}
1000
Base
1070
     3
1070
     0
1002
{
1002
}
1002
}
1000
1
1070
     8
1000
1
1002
{
1000
Color
1070
     1
1070
    14
1002
{
1002
}
1000
LType
1070
     4
1000
CONTINUOUS
1002
{
1002
}
1000
Base
1070
     3
1070
     0
1002
{
1002
}
1002
}
1000
2
1070
     8
1000
2
1002
{
1000
Color
1070
     1
1070
     5
1002
{
1002
}
1000
LType
1070
     4
1000
CONTINUOUS
1002
{
1002
}
1000
Base
1070
     3
1070
     0
1002
{
1002
}
1002
}
1000
3
1070
     8
1000
3
1002
{
1000
Color
1070
     1
1070
     6
1002
{
1002
}
1000
LType
1070
     4
1000
GEN3
1002
{
1002
}
1000
Base
1070
     3
1070
     0
1002
{
1002
}
1002
}
1000
4
1070
     8
1000
4
1002
{
1000
Color
1070
     1
1070
     3
1002
{
1002
}
1000
LType
1070
     4
1000
CONTINUOUS
1002
{
1002
}
1000
Base
1070
     3
1070
     0
1002
{
1002
}
1002
}
1000
5
1070
     8
1000
5
1002
{
1000
Color
1070
     1
1070
     3
1002
{
1002
}
1000
LType
1070
     4
1000
CONTINUOUS
1002
{
1002
}
1000
Base
1070
     3
1070
     0
1002
{
1002
}
1002
}
1000
6
1070
     8
1000
6
1002
{
1000
Color
1070
     1
1070
     2
1002
{
1002
}
1000
LType
1070
     4
1000
CONTINUOUS
1002
{
1002
}
1000
Base
1070
     3
1070
     0
1002
{
1002
}
1002
}
1000
7
1070
     8
1000
7
1002
{
1000
Color
1070
     1
1070
     4
1002
{
1002
}
1000
LType
1070
     4
1000
GEN7
1002
{
1002
}
1000
Base
1070
     3
1070
     0
1002
{
1002
}
1002
}
1000
8
1070
     8
1000
8
1002
{
1000
Color
1070
     1
1070
     1
1002
{
1002
}
1000
LType
1070
     4
1000
CONTINUOUS
1002
{
1002
}
1000
Base
1070
     3
1070
     0
1002
{
1002
}
1002
}
1000
3A
1070
     8
1000
3A
1002
{
1000
Color
1070
     1
1070
     6
1002
{
1002
}
1000
LType
1070
     4
1000
GEN3A
1002
{
1002
}
1000
Base
1070
     3
1070
     0
1002
{
1002
}
1002
}
1000
7A
1070
     8
1000
7A
1002
{
1000
Color
1070
     1
1070
     4
1002
{
1002
}
1000
LType
1070
     4
1000
GEN7A
1002
{
1002
}
1000
Base
1070
     3
1070
     0
1002
{
1002
}
1002
}
1000
2A
1070
     8
1000
2A
1002
{
1000
Color
1070
     1
1070
     7
1002
{
1002
}
1000
LType
1070
     4
1000
GEN7
1002
{
1002
}
1000
Base
1070
     3
1070
     0
1002
{
1002
}
1002
}
1000
4A
1070
     8
1000
4A
1002
{
1000
Color
1070
     1
1070
     3
1002
{
1002
}
1000
LType
1070
     4
1000
GEN4A
1002
{
1002
}
1000
Base
1070
     3
1070
     0
1002
{
1002
}
1002
}
1000
9
1070
     8
1000
9
1002
{
1000
Color
1070
     1
1070
   253
1002
{
1002
}
1000
LType
1070
     4
1000
CONTINUOUS
1002
{
1002
}
1000
Base
1070
     3
1070
     0
1002
{
1002
}
1002
}
1000
IP
1070
     8
1000
IP
1002
{
1000
Color
1070
     1
1070
     7
1002
{
1002
}
1000
LType
1070
     4
1000
CONTINUOUS
1002
{
1002
}
1000
Base
1070
     3
1070
     0
1002
{
1002
}
1002
}
1002
}
1000
Standard
1070
     0
1002
{
1000
0N
1070
     8
1000
0N
1002
{
1000
Color
1070
     1
1070
     7
1002
{
1002
}
1000
LType
1070
     4
1000
CONTINUOUS
1002
{
1002
}
1000
Base
1070
     3
1070
     0
1002
{
1002
}
1002
}
1000
1N
1070
     8
1000
1N
1002
{
1000
Color
1070
     1
1070
    14
1002
{
1002
}
1000
LType
1070
     4
1000
CONTINUOUS
1002
{
1002
}
1000
Base
1070
     3
1070
     0
1002
{
1002
}
1002
}
1000
2N
1070
     8
1000
2N
1002
{
1000
Color
1070
     1
1070
     5
1002
{
1002
}
1000
LType
1070
     4
1000
CONTINUOUS
1002
{
1002
}
1000
Base
1070
     3
1070
     0
1002
{
1002
}
1002
}
1000
3N
1070
     8
1000
3N
1002
{
1000
Color
1070
     1
1070
     6
1002
{
1002
}
1000
LType
1070
     4
1000
GEN3
1002
{
1002
}
1000
Base
1070
     3
1070
     0
1002
{
1002
}
1002
}
1000
4N
1070
     8
1000
4N
1002
{
1000
Color
1070
     1
1070
     3
1002
{
1002
}
1000
LType
1070
     4
1000
CONTINUOUS
1002
{
1002
}
1000
Base
1070
     3
1070
     0
1002
{
1002
}
1002
}
1000
5N
1070
     8
1000
5N
1002
{
1000
Color
1070
     1
1070
     3
1002
{
1002
}
1000
LType
1070
     4
1000
CONTINUOUS
1002
{
1002
}
1000
Base
1070
     3
1070
     0
1002
{
1002
}
1002
}
1000
6N
1070
     8
1000
6N
1002
{
1000
Color
1070
     1
1070
     2
1002
{
1002
}
1000
LType
1070
     4
1000
CONTINUOUS
1002
{
1002
}
1000
Base
1070
     3
1070
     0
1002
{
1002
}
1002
}
1000
7N
1070
     8
1000
7N
1002
{
1000
Color
1070
     1
1070
     4
1002
{
1002
}
1000
LType
1070
     4
1000
GEN7
1002
{
1002
}
1000
Base
1070
     3
1070
     0
1002
{
1002
}
1002
}
1000
8N
1070
     8
1000
8N
1002
{
1000
Color
1070
     1
1070
     1
1002
{
1002
}
1000
LType
1070
     4
1000
CONTINUOUS
1002
{
1002
}
1000
Base
1070
     3
1070
     0
1002
{
1002
}
1002
}
1000
3AN
1070
     8
1000
3AN
1002
{
1000
Color
1070
     1
1070
     6
1002
{
1002
}
1000
LType
1070
     4
1000
GEN3A
1002
{
1002
}
1000
Base
1070
     3
1070
     0
1002
{
1002
}
1002
}
1000
7AN
1070
     8
1000
7AN
1002
{
1000
Color
1070
     1
1070
     4
1002
{
1002
}
1000
LType
1070
     4
1000
GEN7A
1002
{
1002
}
1000
Base
1070
     3
1070
     0
1002
{
1002
}
1002
}
1000
2AN
1070
     8
1000
2AN
1002
{
1000
Color
1070
     1
1070
     7
1002
{
1002
}
1000
LType
1070
     4
1000
GEN7
1002
{
1002
}
1000
Base
1070
     3
1070
     0
1002
{
1002
}
1002
}
1000
4AN
1070
     8
1000
4AN
1002
{
1000
Color
1070
     1
1070
     3
1002
{
1002
}
1000
LType
1070
     4
1000
GEN4A
1002
{
1002
}
1000
Base
1070
     3
1070
     0
1002
{
1002
}
1002
}
1000
9N
1070
     8
1000
9N
1002
{
1000
Color
1070
     1
1070
   253
1002
{
1002
}
1000
LType
1070
     4
1000
CONTINUOUS
1002
{
1002
}
1000
Base
1070
     3
1070
     0
1002
{
1002
}
1002
}
1000
IPN
1070
     8
1000
IPN
1002
{
1000
Color
1070
     1
1070
     7
1002
{
1002
}
1000
LType
1070
     4
1000
CONTINUOUS
1002
{
1002
}
1000
Base
1070
     3
1070
     0
1002
{
1002
}
1002
}
1002
}
1000
Extra
1070
     0
1002
{
1000
Klin
1070
     8
1000
KLIN
1002
{
1000
Color
1070
     1
1070
     1
1002
{
1002
}
1000
LType
1070
     4
1000
CONTINUOUS
1002
{
1002
}
1000
Base
1070
     3
1070
     1
1002
{
1002
}
1002
}
1000
Info
1070
     8
1000
INFO
1002
{
1000
Color
1070
     1
1070
     4
1002
{
1002
}
1000
LType
1070
     4
1000
CONTINUOUS
1002
{
1002
}
1000
Base
1070
     3
1070
     1
1002
{
1002
}
1002
}
1000
Rahm2
1070
     8
1000
RAHM2
1002
{
1000
Color
1070
     1
1070
     1
1002
{
1002
}
1000
LType
1070
     4
1000
CONTINUOUS
1002
{
1002
}
1000
Base
1070
     3
1070
     1
1002
{
1002
}
1002
}
1000
Rahm3
1070
     8
1000
RAHM3
1002
{
1000
Color
1070
     1
1070
     2
1002
{
1002
}
1000
LType
1070
     4
1000
CONTINUOUS
1002
{
1002
}
1000
Base
1070
     3
1070
     1
1002
{
1002
}
1002
}
1000
Rahm5
1070
     8
1000
RAHM5
1002
{
1000
Color
1070
     1
1070
     7
1002
{
1002
}
1000
LType
1070
     4
1000
CONTINUOUS
1002
{
1002
}
1000
Base
1070
     3
1070
     1
1002
{
1002
}
1002
}
1000
View
1070
     8
1000
VIEW
1002
{
1000
Color
1070
     1
1070
     1
1002
{
1002
}
1000
LType
1070
     4
1000
CONTINUOUS
1002
{
1002
}
1000
Base
1070
     3
1070
     1
1002
{
1002
}
1002
}
1000
Behind
1070
     8
1000
BEHIND
1002
{
1000
Color
1070
     1
1070
   253
1002
{
1002
}
1000
LType
1070
     4
1000
CONTINUOUS
1002
{
1002
}
1000
Base
1070
     3
1070
     1
1002
{
1002
}
1002
}
1002
}
  0
APPID
  5
F38
330
9
100
AcDbSymbolTableRecord
100
AcDbRegAppTableRecord
  2
GENIUS_GENCFG3_13
 70
     0
1001
GENIUS_GENCFG_13
1071
908952218
1000
542
1000
GEN@LAYER@ENTSORT
1070
    10
1000
GenCfgObject
1000
GenCfgShort
1000
GenCfgReal
1000
GenCfgBool
1000
GenCfgString
1000
GenCfgDim
1000
GenCfgAttrInf
1000
GenCfgLaySection
1000
GenCfgLayer
1000
GenCfgEntSort
1000
ADDL
1070
     9
1000
5
1002
{
1000
Class
1070
     4
1000
SYM
1002
{
1002
}
1000
Color
1070
     1
1070
     1
1002
{
1002
}
1000
LType
1070
     4
1000
BYLAYER
1002
{
1002
}
1002
}
1000
ALTR
1070
     9
1000
4
1002
{
1000
Class
1070
     4
1000

1002
{
1002
}
1000
Color
1070
     1
1070
     7
1002
{
1002
}
1000
LType
1070
     4
1000
GEN3A
1002
{
1002
}
1002
}
1000
BELI
1070
     9
1000
4
1002
{
1000
Class
1070
     4
1000

1002
{
1002
}
1000
Color
1070
     1
1070
   256
1002
{
1002
}
1000
LType
1070
     4
1000
BYLAYER
1002
{
1002
}
1002
}
1000
BHNV
1070
     9
1000
9
1002
{
1000
Class
1070
     4
1000
INV
1002
{
1002
}
1000
Color
1070
     1
1070
   256
1002
{
1002
}
1000
LType
1070
     4
1000
BYLAYER
1002
{
1002
}
1002
}
1000
BHNVS
1070
     9
1000
BEHIND
1002
{
1000
Class
1070
     4
1000
INV
1002
{
1002
}
1000
Color
1070
     1
1070
   256
1002
{
1002
}
1000
LType
1070
     4
1000
BYLAYER
1002
{
1002
}
1002
}
1000
BLID
1070
     9
1000
4A
1002
{
1000
Class
1070
     4
1000

1002
{
1002
}
1000
Color
1070
     1
1070
   256
1002
{
1002
}
1000
LType
1070
     4
1000
BYLAYER
1002
{
1002
}
1002
}
1000
BOAP
1070
     9
1000
4A
1002
{
1000
Class
1070
     4
1000

1002
{
1002
}
1000
Color
1070
     1
1070
   256
1002
{
1002
}
1000
LType
1070
     4
1000
BYLAYER
1002
{
1002
}
1002
}
1000
BOR2
1070
     9
1000
RAHM2
1002
{
1000
Class
1070
     4
1000
SPZ,SYM
1002
{
1002
}
1000
Color
1070
     1
1070
   256
1002
{
1002
}
1000
LType
1070
     4
1000
BYLAYER
1002
{
1002
}
1002
}
1000
BOR3
1070
     9
1000
RAHM3
1002
{
1000
Class
1070
     4
1000
SPZ,SYM
1002
{
1002
}
1000
Color
1070
     1
1070
   256
1002
{
1002
}
1000
LType
1070
     4
1000
BYLAYER
1002
{
1002
}
1002
}
1000
BOR5
1070
     9
1000
RAHM5
1002
{
1000
Class
1070
     4
1000
SPZ,SYM
1002
{
1002
}
1000
Color
1070
     1
1070
   256
1002
{
1002
}
1000
LType
1070
     4
1000
BYLAYER
1002
{
1002
}
1002
}
1000
BOR7
1070
     9
1000
RAHM5
1002
{
1000
Class
1070
     4
1000
SPZ,SYM
1002
{
1002
}
1000
Color
1070
     1
1070
     7
1002
{
1002
}
1000
LType
1070
     4
1000
CONTINUOUS
1002
{
1002
}
1002
}
1000
BPAP
1070
     9
1000
4A
1002
{
1000
Class
1070
     4
1000

1002
{
1002
}
1000
Color
1070
     1
1070
   256
1002
{
1002
}
1000
LType
1070
     4
1000
BYLAYER
1002
{
1002
}
1002
}
1000
BPEX
1070
     9
1000
4A
1002
{
1000
Class
1070
     4
1000

1002
{
1002
}
1000
Color
1070
     1
1070
   256
1002
{
1002
}
1000
LType
1070
     4
1000
BYLAYER
1002
{
1002
}
1002
}
1000
BTDI
1070
     9
1000
5
1002
{
1000
Class
1070
     4
1000
DIM,SYM
1002
{
1002
}
1000
Color
1070
     1
1070
   256
1002
{
1002
}
1000
LType
1070
     4
1000
BYLAYER
1002
{
1002
}
1002
}
1000
CAL2
1070
     9
1000
4
1002
{
1000
Class
1070
     4
1000
SYM
1002
{
1002
}
1000
Color
1070
     1
1070
   256
1002
{
1002
}
1000
LType
1070
     4
1000
BYLAYER
1002
{
1002
}
1002
}
1000
CAL3
1070
     9
1000
4
1002
{
1000
Class
1070
     4
1000
SYM
1002
{
1002
}
1000
Color
1070
     1
1070
     2
1002
{
1002
}
1000
LType
1070
     4
1000
BYLAYER
1002
{
1002
}
1002
}
1000
CAL5
1070
     9
1000
4
1002
{
1000
Class
1070
     4
1000
SYM
1002
{
1002
}
1000
Color
1070
     1
1070
     7
1002
{
1002
}
1000
LType
1070
     4
1000
BYLAYER
1002
{
1002
}
1002
}
1000
CAL7
1070
     9
1000
4
1002
{
1000
Class
1070
     4
1000
SYM
1002
{
1002
}
1000
Color
1070
     1
1070
     5
1002
{
1002
}
1000
LType
1070
     4
1000
BYLAYER
1002
{
1002
}
1002
}
1000
CENN
1070
     9
1000
7A
1002
{
1000
Class
1070
     4
1000
CEN
1002
{
1002
}
1000
Color
1070
     1
1070
   256
1002
{
1002
}
1000
LType
1070
     4
1000
BYLAYER
1002
{
1002
}
1002
}
1000
CENW
1070
     9
1000
7
1002
{
1000
Class
1070
     4
1000
CEN
1002
{
1002
}
1000
Color
1070
     1
1070
   256
1002
{
1002
}
1000
LType
1070
     4
1000
BYLAYER
1002
{
1002
}
1002
}
1000
CLIN
1070
     9
1000
KLIN
1002
{
1000
Class
1070
     4
1000
SPZ
1002
{
1002
}
1000
Color
1070
     1
1070
   256
1002
{
1002
}
1000
LType
1070
     4
1000
BYLAYER
1002
{
1002
}
1002
}
1000
CON1
1070
     9
1000
0
1002
{
1000
Class
1070
     4
1000
CON,BGD
1002
{
1002
}
1000
Color
1070
     1
1070
   256
1002
{
1002
}
1000
LType
1070
     4
1000
BYLAYER
1002
{
1002
}
1002
}
1000
CON2
1070
     9
1000
1
1002
{
1000
Class
1070
     4
1000
CON,BGD
1002
{
1002
}
1000
Color
1070
     1
1070
   256
1002
{
1002
}
1000
LType
1070
     4
1000
BYLAYER
1002
{
1002
}
1002
}
1000
CON3
1070
     9
1000
2
1002
{
1000
Class
1070
     4
1000
CON,BGD
1002
{
1002
}
1000
Color
1070
     1
1070
   256
1002
{
1002
}
1000
LType
1070
     4
1000
BYLAYER
1002
{
1002
}
1002
}
1000
CON4
1070
     9
1000
2
1002
{
1000
Class
1070
     4
1000
CON,BGD
1002
{
1002
}
1000
Color
1070
     1
1070
   256
1002
{
1002
}
1000
LType
1070
     4
1000
BYLAYER
1002
{
1002
}
1002
}
1000
DERP
1070
     9
1000
4
1002
{
1000
Class
1070
     4
1000

1002
{
1002
}
1000
Color
1070
     1
1070
   256
1002
{
1002
}
1000
LType
1070
     4
1000
BYLAYER
1002
{
1002
}
1002
}
1000
DETA
1070
     9
1000
4
1002
{
1000
Class
1070
     4
1000

1002
{
1002
}
1000
Color
1070
     1
1070
   256
1002
{
1002
}
1000
LType
1070
     4
1000
BYLAYER
1002
{
1002
}
1002
}
1000
DIAG
1070
     9
1000
5
1002
{
1000
Class
1070
     4
1000
SYM
1002
{
1002
}
1000
Color
1070
     1
1070
   256
1002
{
1002
}
1000
LType
1070
     4
1000
BYLAYER
1002
{
1002
}
1002
}
1000
DILI
1070
     9
1000
5
1002
{
1000
Class
1070
     4
1000
DIM,SYM
1002
{
1002
}
1000
Color
1070
     1
1070
     2
1002
{
1002
}
1000
LType
1070
     4
1000
BYLAYER
1002
{
1002
}
1002
}
1000
DITO2
1070
     9
1000
5
1002
{
1000
Class
1070
     4
1000
DIM,SYM
1002
{
1002
}
1000
Color
1070
     1
1070
     3
1002
{
1002
}
1000
LType
1070
     4
1000
BYLAYER
1002
{
1002
}
1002
}
1000
DITO3
1070
     9
1000
5
1002
{
1000
Class
1070
     4
1000
DIM,SYM
1002
{
1002
}
1000
Color
1070
     1
1070
     2
1002
{
1002
}
1000
LType
1070
     4
1000
BYLAYER
1002
{
1002
}
1002
}
1000
DITX
1070
     9
1000
5
1002
{
1000
Class
1070
     4
1000
DIM,SYM
1002
{
1002
}
1000
Color
1070
     1
1070
     3
1002
{
1002
}
1000
LType
1070
     4
1000
CONTINUOUS
1002
{
1002
}
1002
}
1000
DIXL
1070
     9
1000
5
1002
{
1000
Class
1070
     4
1000
DIM,SYM
1002
{
1002
}
1000
Color
1070
     1
1070
     2
1002
{
1002
}
1000
LType
1070
     4
1000
BYLAYER
1002
{
1002
}
1002
}
1000
EXMP
1070
     9
1000
4A
1002
{
1000
Class
1070
     4
1000

1002
{
1002
}
1000
Color
1070
     1
1070
   256
1002
{
1002
}
1000
LType
1070
     4
1000
BYLAYER
1002
{
1002
}
1002
}
1000
FEMN
1070
     9
1000
8
1002
{
1000
Class
1070
     4
1000

1002
{
1002
}
1000
Color
1070
     1
1070
   256
1002
{
1002
}
1000
LType
1070
     4
1000
BYLAYER
1002
{
1002
}
1002
}
1000
FEMPN
1070
     9
1000
8
1002
{
1000
Class
1070
     4
1000
SYM
1002
{
1002
}
1000
Color
1070
     1
1070
     3
1002
{
1002
}
1000
LType
1070
     4
1000
BYLAYER
1002
{
1002
}
1002
}
1000
FEMSP
1070
     9
1000
4A
1002
{
1000
Class
1070
     4
1000

1002
{
1002
}
1000
Color
1070
     1
1070
   256
1002
{
1002
}
1000
LType
1070
     4
1000
CONTINUOUS
1002
{
1002
}
1002
}
1000
FEMST
1070
     9
1000
4A
1002
{
1000
Class
1070
     4
1000
SYM
1002
{
1002
}
1000
Color
1070
     1
1070
     3
1002
{
1002
}
1000
LType
1070
     4
1000
BYLAYER
1002
{
1002
}
1002
}
1000
FEMVN
1070
     9
1000
2
1002
{
1000
Class
1070
     4
1000
CON
1002
{
1002
}
1000
Color
1070
     1
1070
   256
1002
{
1002
}
1000
LType
1070
     4
1000
BYLAYER
1002
{
1002
}
1002
}
1000
FEMVT
1070
     9
1000
2
1002
{
1000
Class
1070
     4
1000
SYM
1002
{
1002
}
1000
Color
1070
     1
1070
     3
1002
{
1002
}
1000
LType
1070
     4
1000
BYLAYER
1002
{
1002
}
1002
}
1000
FLAT
1070
     9
1000
0
1002
{
1000
Class
1070
     4
1000

1002
{
1002
}
1000
Color
1070
     1
1070
   256
1002
{
1002
}
1000
LType
1070
     4
1000
BYLAYER
1002
{
1002
}
1002
}
1000
FRAR
1070
     9
1000
4A
1002
{
1000
Class
1070
     4
1000

1002
{
1002
}
1000
Color
1070
     1
1070
   256
1002
{
1002
}
1000
LType
1070
     4
1000
BYLAYER
1002
{
1002
}
1002
}
1000
GRLI
1070
     9
1000
5
1002
{
1000
Class
1070
     4
1000
SYM
1002
{
1002
}
1000
Color
1070
     1
1070
   256
1002
{
1002
}
1000
LType
1070
     4
1000
BYLAYER
1002
{
1002
}
1002
}
1000
GVLI
1070
     9
1000
4A
1002
{
1000
Class
1070
     4
1000

1002
{
1002
}
1000
Color
1070
     1
1070
   256
1002
{
1002
}
1000
LType
1070
     4
1000
BYLAYER
1002
{
1002
}
1002
}
1000
HATC
1070
     9
1000
8
1002
{
1000
Class
1070
     4
1000
HTC,BGD
1002
{
1002
}
1000
Color
1070
     1
1070
   256
1002
{
1002
}
1000
LType
1070
     4
1000
BYLAYER
1002
{
1002
}
1002
}
1000
HIDN
1070
     9
1000
3A
1002
{
1000
Class
1070
     4
1000
HID,BGD
1002
{
1002
}
1000
Color
1070
     1
1070
   256
1002
{
1002
}
1000
LType
1070
     4
1000
BYLAYER
1002
{
1002
}
1002
}
1000
HIDW
1070
     9
1000
3
1002
{
1000
Class
1070
     4
1000
HID,BGD
1002
{
1002
}
1000
Color
1070
     1
1070
   256
1002
{
1002
}
1000
LType
1070
     4
1000
BYLAYER
1002
{
1002
}
1002
}
1000
HLIN
1070
     9
1000
4
1002
{
1000
Class
1070
     4
1000
BGD
1002
{
1002
}
1000
Color
1070
     1
1070
   256
1002
{
1002
}
1000
LType
1070
     4
1000
BYLAYER
1002
{
1002
}
1002
}
1000
HOCN
1070
     9
1000
7A
1002
{
1000
Class
1070
     4
1000
CEN
1002
{
1002
}
1000
Color
1070
     1
1070
   256
1002
{
1002
}
1000
LType
1070
     4
1000
BYLAYER
1002
{
1002
}
1002
}
1000
HOCW
1070
     9
1000
7
1002
{
1000
Class
1070
     4
1000
CEN
1002
{
1002
}
1000
Color
1070
     1
1070
   256
1002
{
1002
}
1000
LType
1070
     4
1000
BYLAYER
1002
{
1002
}
1002
}
1000
INFO
1070
     9
1000
INFO
1002
{
1000
Class
1070
     4
1000
SPZ,SYM
1002
{
1002
}
1000
Color
1070
     1
1070
   256
1002
{
1002
}
1000
LType
1070
     4
1000
BYLAYER
1002
{
1002
}
1002
}
1000
LADI
1070
     9
1000
4
1002
{
1000
Class
1070
     4
1000
BGD
1002
{
1002
}
1000
Color
1070
     1
1070
   256
1002
{
1002
}
1000
LType
1070
     4
1000
BYLAYER
1002
{
1002
}
1002
}
1000
LEAD
1070
     9
1000
5
1002
{
1000
Class
1070
     4
1000
SYM
1002
{
1002
}
1000
Color
1070
     1
1070
   256
1002
{
1002
}
1000
LType
1070
     4
1000
BYLAYER
1002
{
1002
}
1002
}
1000
N_ADDL
1070
     9
1000
5N
1002
{
1000
Class
1070
     4
1000
SYM
1002
{
1002
}
1000
Color
1070
     1
1070
     1
1002
{
1002
}
1000
LType
1070
     4
1000
BYLAYER
1002
{
1002
}
1002
}
1000
N_BHNV
1070
     9
1000
9N
1002
{
1000
Class
1070
     4
1000
INV
1002
{
1002
}
1000
Color
1070
     1
1070
   256
1002
{
1002
}
1000
LType
1070
     4
1000
BYLAYER
1002
{
1002
}
1002
}
1000
N_CON1
1070
     9
1000
0N
1002
{
1000
Class
1070
     4
1000
CON,BGD
1002
{
1002
}
1000
Color
1070
     1
1070
   256
1002
{
1002
}
1000
LType
1070
     4
1000
BYLAYER
1002
{
1002
}
1002
}
1000
N_CON2
1070
     9
1000
1N
1002
{
1000
Class
1070
     4
1000
CON,BGD
1002
{
1002
}
1000
Color
1070
     1
1070
   256
1002
{
1002
}
1000
LType
1070
     4
1000
BYLAYER
1002
{
1002
}
1002
}
1000
N_CON3
1070
     9
1000
2N
1002
{
1000
Class
1070
     4
1000
CON,BGD
1002
{
1002
}
1000
Color
1070
     1
1070
   256
1002
{
1002
}
1000
LType
1070
     4
1000
BYLAYER
1002
{
1002
}
1002
}
1000
N_CON4
1070
     9
1000
2N
1002
{
1000
Class
1070
     4
1000
CON,BGD
1002
{
1002
}
1000
Color
1070
     1
1070
   256
1002
{
1002
}
1000
LType
1070
     4
1000
BYLAYER
1002
{
1002
}
1002
}
1000
N_CENN
1070
     9
1000
7AN
1002
{
1000
Class
1070
     4
1000
CEN
1002
{
1002
}
1000
Color
1070
     1
1070
   256
1002
{
1002
}
1000
LType
1070
     4
1000
BYLAYER
1002
{
1002
}
1002
}
1000
N_CENW
1070
     9
1000
7N
1002
{
1000
Class
1070
     4
1000
CEN
1002
{
1002
}
1000
Color
1070
     1
1070
   256
1002
{
1002
}
1000
LType
1070
     4
1000
BYLAYER
1002
{
1002
}
1002
}
1000
N_DILI
1070
     9
1000
5N
1002
{
1000
Class
1070
     4
1000
DIM,SYM
1002
{
1002
}
1000
Color
1070
     1
1070
   256
1002
{
1002
}
1000
LType
1070
     4
1000
BYLAYER
1002
{
1002
}
1002
}
1000
N_DITX
1070
     9
1000
5N
1002
{
1000
Class
1070
     4
1000
DIM,SYM
1002
{
1002
}
1000
Color
1070
     1
1070
     2
1002
{
1002
}
1000
LType
1070
     4
1000
CONTINUOUS
1002
{
1002
}
1002
}
1000
N_DIXL
1070
     9
1000
5N
1002
{
1000
Class
1070
     4
1000
DIM,SYM
1002
{
1002
}
1000
Color
1070
     1
1070
   256
1002
{
1002
}
1000
LType
1070
     4
1000
BYLAYER
1002
{
1002
}
1002
}
1000
N_HATC
1070
     9
1000
8N
1002
{
1000
Class
1070
     4
1000
HTC,BGD
1002
{
1002
}
1000
Color
1070
     1
1070
   256
1002
{
1002
}
1000
LType
1070
     4
1000
BYLAYER
1002
{
1002
}
1002
}
1000
N_HIDN
1070
     9
1000
3AN
1002
{
1000
Class
1070
     4
1000
HID,BGD
1002
{
1002
}
1000
Color
1070
     1
1070
   256
1002
{
1002
}
1000
LType
1070
     4
1000
BYLAYER
1002
{
1002
}
1002
}
1000
N_HIDW
1070
     9
1000
3N
1002
{
1000
Class
1070
     4
1000
HID,BGD
1002
{
1002
}
1000
Color
1070
     1
1070
   256
1002
{
1002
}
1000
LType
1070
     4
1000
BYLAYER
1002
{
1002
}
1002
}
1000
N_NGIP
1070
     9
1000
IPN
1002
{
1000
Class
1070
     4
1000

1002
{
1002
}
1000
Color
1070
     1
1070
   256
1002
{
1002
}
1000
LType
1070
     4
1000
BYLAYER
1002
{
1002
}
1002
}
1000
N_PHAN
1070
     9
1000
4AN
1002
{
1000
Class
1070
     4
1000

1002
{
1002
}
1000
Color
1070
     1
1070
   256
1002
{
1002
}
1000
LType
1070
     4
1000
BYLAYER
1002
{
1002
}
1002
}
1000
N_POSL
1070
     9
1000
5N
1002
{
1000
Class
1070
     4
1000
SYM
1002
{
1002
}
1000
Color
1070
     1
1070
   256
1002
{
1002
}
1000
LType
1070
     4
1000
BYLAYER
1002
{
1002
}
1002
}
1000
N_TCON
1070
     9
1000
0N
1002
{
1000
Class
1070
     4
1000
CON,BGD
1002
{
1002
}
1000
Color
1070
     1
1070
   256
1002
{
1002
}
1000
LType
1070
     4
1000
BYLAYER
1002
{
1002
}
1002
}
1000
N_THLI
1070
     9
1000
4N
1002
{
1000
Class
1070
     4
1000
BGD
1002
{
1002
}
1000
Color
1070
     1
1070
   256
1002
{
1002
}
1000
LType
1070
     4
1000
BYLAYER
1002
{
1002
}
1002
}
1000
N_TLEN
1070
     9
1000
0N
1002
{
1000
Class
1070
     4
1000
CON,BGD
1002
{
1002
}
1000
Color
1070
     1
1070
   256
1002
{
1002
}
1000
LType
1070
     4
1000
BYLAYER
1002
{
1002
}
1002
}
1000
N_TXT3
1070
     9
1000
6N
1002
{
1000
Class
1070
     4
1000
SYM
1002
{
1002
}
1000
Color
1070
     1
1070
   256
1002
{
1002
}
1000
LType
1070
     4
1000
BYLAYER
1002
{
1002
}
1002
}
1000
N_VPLI
1070
     9
1000
2AN
1002
{
1000
Class
1070
     4
1000

1002
{
1002
}
1000
Color
1070
     1
1070
   256
1002
{
1002
}
1000
LType
1070
     4
1000
BYLAYER
1002
{
1002
}
1002
}
1000
NGIP
1070
     9
1000
IP
1002
{
1000
Class
1070
     4
1000

1002
{
1002
}
1000
Color
1070
     1
1070
   256
1002
{
1002
}
1000
LType
1070
     4
1000
BYLAYER
1002
{
1002
}
1002
}
1000
PAL2
1070
     9
1000
RAHM2
1002
{
1000
Class
1070
     4
1000
SPZ,SYM
1002
{
1002
}
1000
Color
1070
     1
1070
   256
1002
{
1002
}
1000
LType
1070
     4
1000
BYLAYER
1002
{
1002
}
1002
}
1000
PAL3
1070
     9
1000
RAHM3
1002
{
1000
Class
1070
     4
1000
SPZ,SYM
1002
{
1002
}
1000
Color
1070
     1
1070
   256
1002
{
1002
}
1000
LType
1070
     4
1000
BYLAYER
1002
{
1002
}
1002
}
1000
PAL5
1070
     9
1000
RAHM5
1002
{
1000
Class
1070
     4
1000
SPZ,SYM
1002
{
1002
}
1000
Color
1070
     1
1070
   256
1002
{
1002
}
1000
LType
1070
     4
1000
BYLAYER
1002
{
1002
}
1002
}
1000
PAL7
1070
     9
1000
RAHM5
1002
{
1000
Class
1070
     4
1000
SPZ,SYM
1002
{
1002
}
1000
Color
1070
     1
1070
     7
1002
{
1002
}
1000
LType
1070
     4
1000
CONTINUOUS
1002
{
1002
}
1002
}
1000
PHAN
1070
     9
1000
4A
1002
{
1000
Class
1070
     4
1000

1002
{
1002
}
1000
Color
1070
     1
1070
   256
1002
{
1002
}
1000
LType
1070
     4
1000
BYLAYER
1002
{
1002
}
1002
}
1000
POSL
1070
     9
1000
5
1002
{
1000
Class
1070
     4
1000
SYM
1002
{
1002
}
1000
Color
1070
     1
1070
   256
1002
{
1002
}
1000
LType
1070
     4
1000
BYLAYER
1002
{
1002
}
1002
}
1000
POSN
1070
     9
1000
6
1002
{
1000
Class
1070
     4
1000
SYM
1002
{
1002
}
1000
Color
1070
     1
1070
     7
1002
{
1002
}
1000
LType
1070
     4
1000
BYLAYER
1002
{
1002
}
1002
}
1000
POSREF
1070
     9
1000
6
1002
{
1000
Class
1070
     4
1000
SYM
1002
{
1002
}
1000
Color
1070
     1
1070
     5
1002
{
1002
}
1000
LType
1070
     4
1000
BYLAYER
1002
{
1002
}
1002
}
1000
POSX
1070
     9
1000
5
1002
{
1000
Class
1070
     4
1000
SYM
1002
{
1002
}
1000
Color
1070
     1
1070
     2
1002
{
1002
}
1000
LType
1070
     4
1000
CONTINUOUS
1002
{
1002
}
1002
}
1000
PSEC
1070
     9
1000
4A
1002
{
1000
Class
1070
     4
1000

1002
{
1002
}
1000
Color
1070
     1
1070
   256
1002
{
1002
}
1000
LType
1070
     4
1000
BYLAYER
1002
{
1002
}
1002
}
1000
RCGN
1070
     9
1000
7A
1002
{
1000
Class
1070
     4
1000
CEN
1002
{
1002
}
1000
Color
1070
     1
1070
   256
1002
{
1002
}
1000
LType
1070
     4
1000
BYLAYER
1002
{
1002
}
1002
}
1000
RCGW
1070
     9
1000
7
1002
{
1000
Class
1070
     4
1000
CEN
1002
{
1002
}
1000
Color
1070
     1
1070
   256
1002
{
1002
}
1000
LType
1070
     4
1000
BYLAYER
1002
{
1002
}
1002
}
1000
RFDI
1070
     9
1000
4
1002
{
1000
Class
1070
     4
1000
BGD
1002
{
1002
}
1000
Color
1070
     1
1070
   256
1002
{
1002
}
1000
LType
1070
     4
1000
BYLAYER
1002
{
1002
}
1002
}
1000
RQTR
1070
     9
1000
4
1002
{
1000
Class
1070
     4
1000

1002
{
1002
}
1000
Color
1070
     1
1070
     7
1002
{
1002
}
1000
LType
1070
     4
1000
GEN7A
1002
{
1002
}
1002
}
1000
RSBO
1070
     9
1000
4
1002
{
1000
Class
1070
     4
1000
BGD
1002
{
1002
}
1000
Color
1070
     1
1070
   256
1002
{
1002
}
1000
LType
1070
     4
1000
BYLAYER
1002
{
1002
}
1002
}
1000
SBRK
1070
     9
1000
4
1002
{
1000
Class
1070
     4
1000
BGD
1002
{
1002
}
1000
Color
1070
     1
1070
   256
1002
{
1002
}
1000
LType
1070
     4
1000
BYLAYER
1002
{
1002
}
1002
}
1000
SCEN
1070
     9
1000
7
1002
{
1000
Class
1070
     4
1000

1002
{
1002
}
1000
Color
1070
     1
1070
   256
1002
{
1002
}
1000
LType
1070
     4
1000
CONTINUOUS
1002
{
1002
}
1002
}
1000
SECT
1070
     9
1000
4
1002
{
1000
Class
1070
     4
1000
BGD
1002
{
1002
}
1000
Color
1070
     1
1070
   256
1002
{
1002
}
1000
LType
1070
     4
1000
BYLAYER
1002
{
1002
}
1002
}
1000
SELN
1070
     9
1000
7A
1002
{
1000
Class
1070
     4
1000

1002
{
1002
}
1000
Color
1070
     1
1070
   256
1002
{
1002
}
1000
LType
1070
     4
1000
BYLAYER
1002
{
1002
}
1002
}
1000
SELW
1070
     9
1000
7
1002
{
1000
Class
1070
     4
1000

1002
{
1002
}
1000
Color
1070
     1
1070
   256
1002
{
1002
}
1000
LType
1070
     4
1000
BYLAYER
1002
{
1002
}
1002
}
1000
SSYS
1070
     9
1000
0
1002
{
1000
Class
1070
     4
1000

1002
{
1002
}
1000
Color
1070
     1
1070
   256
1002
{
1002
}
1000
LType
1070
     4
1000
BYLAYER
1002
{
1002
}
1002
}
1000
STLI
1070
     9
1000
4
1002
{
1000
Class
1070
     4
1000

1002
{
1002
}
1000
Color
1070
     1
1070
     7
1002
{
1002
}
1000
LType
1070
     4
1000
GEN3A
1002
{
1002
}
1002
}
1000
SYB1
1070
     9
1000
5
1002
{
1000
Class
1070
     4
1000
SYM
1002
{
1002
}
1000
Color
1070
     1
1070
   256
1002
{
1002
}
1000
LType
1070
     4
1000
BYLAYER
1002
{
1002
}
1002
}
1000
SYB2
1070
     9
1000
5
1002
{
1000
Class
1070
     4
1000
SYM
1002
{
1002
}
1000
Color
1070
     1
1070
   256
1002
{
1002
}
1000
LType
1070
     4
1000
BYLAYER
1002
{
1002
}
1002
}
1000
SYB3
1070
     9
1000
6
1002
{
1000
Class
1070
     4
1000
SYM
1002
{
1002
}
1000
Color
1070
     1
1070
   256
1002
{
1002
}
1000
LType
1070
     4
1000
CONTINUOUS
1002
{
1002
}
1002
}
1000
SYB5
1070
     9
1000
5
1002
{
1000
Class
1070
     4
1000
SYM
1002
{
1002
}
1000
Color
1070
     1
1070
     7
1002
{
1002
}
1000
LType
1070
     4
1000
BYLAYER
1002
{
1002
}
1002
}
1000
SYMN
1070
     9
1000
7A
1002
{
1000
Class
1070
     4
1000
CEN
1002
{
1002
}
1000
Color
1070
     1
1070
   256
1002
{
1002
}
1000
LType
1070
     4
1000
BYLAYER
1002
{
1002
}
1002
}
1000
SYMW
1070
     9
1000
7
1002
{
1000
Class
1070
     4
1000
CEN
1002
{
1002
}
1000
Color
1070
     1
1070
   256
1002
{
1002
}
1000
LType
1070
     4
1000
BYLAYER
1002
{
1002
}
1002
}
1000
TCON
1070
     9
1000
0
1002
{
1000
Class
1070
     4
1000
CON,BGD
1002
{
1002
}
1000
Color
1070
     1
1070
   256
1002
{
1002
}
1000
LType
1070
     4
1000
BYLAYER
1002
{
1002
}
1002
}
1000
THLI
1070
     9
1000
4
1002
{
1000
Class
1070
     4
1000
BGD
1002
{
1002
}
1000
Color
1070
     1
1070
   256
1002
{
1002
}
1000
LType
1070
     4
1000
BYLAYER
1002
{
1002
}
1002
}
1000
TIT2
1070
     9
1000
RAHM2
1002
{
1000
Class
1070
     4
1000
SPZ,SYM
1002
{
1002
}
1000
Color
1070
     1
1070
   256
1002
{
1002
}
1000
LType
1070
     4
1000
BYLAYER
1002
{
1002
}
1002
}
1000
TIT3
1070
     9
1000
RAHM3
1002
{
1000
Class
1070
     4
1000
SPZ,SYM
1002
{
1002
}
1000
Color
1070
     1
1070
   256
1002
{
1002
}
1000
LType
1070
     4
1000
BYLAYER
1002
{
1002
}
1002
}
1000
TIT5
1070
     9
1000
RAHM5
1002
{
1000
Class
1070
     4
1000
SPZ,SYM
1002
{
1002
}
1000
Color
1070
     1
1070
   256
1002
{
1002
}
1000
LType
1070
     4
1000
BYLAYER
1002
{
1002
}
1002
}
1000
TIT7
1070
     9
1000
RAHM5
1002
{
1000
Class
1070
     4
1000
SPZ,SYM
1002
{
1002
}
1000
Color
1070
     1
1070
     7
1002
{
1002
}
1000
LType
1070
     4
1000
CONTINUOUS
1002
{
1002
}
1002
}
1000
TLEN
1070
     9
1000
0
1002
{
1000
Class
1070
     4
1000
CON,BGD
1002
{
1002
}
1000
Color
1070
     1
1070
   256
1002
{
1002
}
1000
LType
1070
     4
1000
BYLAYER
1002
{
1002
}
1002
}
1000
TRKN
1070
     9
1000
7A
1002
{
1000
Class
1070
     4
1000

1002
{
1002
}
1000
Color
1070
     1
1070
   256
1002
{
1002
}
1000
LType
1070
     4
1000
BYLAYER
1002
{
1002
}
1002
}
1000
TRKW
1070
     9
1000
7
1002
{
1000
Class
1070
     4
1000

1002
{
1002
}
1000
Color
1070
     1
1070
   256
1002
{
1002
}
1000
LType
1070
     4
1000
BYLAYER
1002
{
1002
}
1002
}
1000
TRLI
1070
     9
1000
4
1002
{
1000
Class
1070
     4
1000
BGD
1002
{
1002
}
1000
Color
1070
     1
1070
   256
1002
{
1002
}
1000
LType
1070
     4
1000
BYLAYER
1002
{
1002
}
1002
}
1000
TXT1
1070
     9
1000
6
1002
{
1000
Class
1070
     4
1000
SYM
1002
{
1002
}
1000
Color
1070
     1
1070
     2
1002
{
1002
}
1000
LType
1070
     4
1000
BYLAYER
1002
{
1002
}
1002
}
1000
TXT2
1070
     9
1000
6
1002
{
1000
Class
1070
     4
1000
SYM
1002
{
1002
}
1000
Color
1070
     1
1070
     2
1002
{
1002
}
1000
LType
1070
     4
1000
BYLAYER
1002
{
1002
}
1002
}
1000
TXT3
1070
     9
1000
6
1002
{
1000
Class
1070
     4
1000
SYM
1002
{
1002
}
1000
Color
1070
     1
1070
   256
1002
{
1002
}
1000
LType
1070
     4
1000
BYLAYER
1002
{
1002
}
1002
}
1000
TXT5
1070
     9
1000
6
1002
{
1000
Class
1070
     4
1000
SYM
1002
{
1002
}
1000
Color
1070
     1
1070
     7
1002
{
1002
}
1000
LType
1070
     4
1000
BYLAYER
1002
{
1002
}
1002
}
1000
TXT7
1070
     9
1000
6
1002
{
1000
Class
1070
     4
1000
SYM
1002
{
1002
}
1000
Color
1070
     1
1070
     7
1002
{
1002
}
1000
LType
1070
     4
1000
BYLAYER
1002
{
1002
}
1002
}
1000
VIEW
1070
     9
1000
VIEW
1002
{
1000
Class
1070
     4
1000
SPZ
1002
{
1002
}
1000
Color
1070
     1
1070
   256
1002
{
1002
}
1000
LType
1070
     4
1000
BYLAYER
1002
{
1002
}
1002
}
1000
VPLI
1070
     9
1000
2A
1002
{
1000
Class
1070
     4
1000

1002
{
1002
}
1000
Color
1070
     1
1070
   256
1002
{
1002
}
1000
LType
1070
     4
1000
BYLAYER
1002
{
1002
}
1002
}
1000
ZIZA
1070
     9
1000
4
1002
{
1000
Class
1070
     4
1000
BGD
1002
{
1002
}
1000
Color
1070
     1
1070
   256
1002
{
1002
}
1000
LType
1070
     4
1000
GENZIGZAG
1002
{
1002
}
1002
}
  0
APPID
  5
F39
330
9
100
AcDbSymbolTableRecord
100
AcDbRegAppTableRecord
  2
GENIUS_GENCFG4_13
 70
     0
1001
GENIUS_GENCFG_13
1071
911900800
1000
543
1000
GEN
1070
     9
1000
GenCfgObject
1000
GenCfgShort
1000
GenCfgReal
1000
GenCfgBool
1000
GenCfgString
1000
GenCfgDim
1000
GenCfgLaySection
1000
GenCfgLType
1000
GenCfgFilter
1000
Balloon
1070
     0
1002
{
1000
GenIF
1070
     1
1070
     0
1002
{
1002
}
1000
GenPosInc
1070
     1
1070
     1
1002
{
1002
}
1000
GenPosBlk
1070
     1
1070
     8
1002
{
1002
}
1000
GenPosVar
1070
     1
1070
     0
1002
{
1002
}
1000
GenZiCir
1070
     2
1040
1.5
1002
{
1002
}
1000
MaxCharForCenteredText
1070
     1
1070
    30
1002
{
1002
}
1000
Snap
1070
     0
1002
{
1000
ActivationRadius
1070
     2
1040
1.0
1002
{
1002
}
1000
M
1070
     0
1002
{
1000
SnapStepX
1070
     2
1040
20.0
1002
{
1002
}
1000
SnapStepY
1070
     2
1040
10.0
1002
{
1002
}
1002
}
1000
I
1070
     0
1002
{
1000
SnapStepX
1070
     2
1040
1.0
1002
{
1002
}
1000
SnapStepY
1070
     2
1040
0.5
1002
{
1002
}
1002
}
1002
}
1002
}
1000
Centerline
1070
     0
1002
{
1000
ScaleNot
1070
     3
1070
     0
1002
{
1002
}
1000
M
1070
     0
1002
{
1000
GenCenAng
1070
     4
1000
45|90|135
1002
{
1002
}
1000
GenCenDia
1070
     2
1040
3.0
1002
{
1002
}
1000
GenCenDias
1070
     4
1000
10|20|30
1002
{
1002
}
1000
GenCenDist
1070
     2
1040
3.0
1002
{
1002
}
1000
GenCenLen
1070
     2
1040
10.0
1002
{
1002
}
1000
GenCenOff
1070
     2
1040
10.0
1002
{
1002
}
1000
GENCENOFF1
1070
     2
1040
10.0
1002
{
1002
}
1000
GENCENOFF2
1070
     2
1040
10.0
1002
{
1002
}
1002
}
1000
I
1070
     0
1002
{
1000
GenCenAng
1070
     4
1000
45|90|135
1002
{
1002
}
1000
GenCenDia
1070
     2
1040
0.5
1002
{
1002
}
1000
GenCenDias
1070
     4
1000
0.5|1.0|1.5
1002
{
1002
}
1000
GenCenDist
1070
     2
1040
0.125
1002
{
1002
}
1000
GenCenLen
1070
     2
1040
0.5
1002
{
1002
}
1000
GenCenOff
1070
     2
1040
0.5
1002
{
1002
}
1002
}
1002
}
1000
CLine
1070
     0
1002
{
1000
CAngArray
1070
     4
1000
30|45|60
1002
{
1002
}
1000
Typ
1070
     4
1000
XLINE
1002
{
1002
}
1000
M
1070
     0
1002
{
1000
CLinArray
1070
     4
1000
1
1002
{
1002
}
1002
}
1000
I
1070
     0
1002
{
1000
CLinArray
1070
     4
1000
0.125|0.25|0.5
1002
{
1002
}
1002
}
1002
}
1000
Detail
1070
     0
1002
{
1002
}
1000
Dimension
1070
     5
1002
{
1000
DIMALT
1070
     1
1070
     0
1002
{
1002
}
1000
DIMALTD
1070
     1
1070
     2
1002
{
1002
}
1000
DIMALTTD
1070
     1
1070
     4
1002
{
1002
}
1000
DIMALTTZ
1070
     1
1070
     0
1002
{
1002
}
1000
DIMALTU
1070
     1
1070
     2
1002
{
1002
}
1000
DIMALTZ
1070
     1
1070
     0
1002
{
1002
}
1000
DIMAUNIT
1070
     1
1070
     0
1002
{
1002
}
1000
DIMBLK
1070
     4
1000

1002
{
1002
}
1000
DIMBLK1
1070
     4
1000

1002
{
1002
}
1000
DIMBLK2
1070
     4
1000

1002
{
1002
}
1000
DIMCLRD
1070
     1
1070
     2
1002
{
1002
}
1000
DIMCLRE
1070
     1
1070
     2
1002
{
1002
}
1000
DIMCLRT
1070
     1
1070
     3
1002
{
1002
}
1000
DIMDLE
1070
     2
1040
0.0
1002
{
1002
}
1000
DIMFIT
1070
     1
1070
     3
1002
{
1002
}
1000
DIMJUST
1070
     1
1070
     0
1002
{
1002
}
1000
DIMLFAC
1070
     2
1040
1.0
1002
{
1002
}
1000
DIMLIM
1070
     1
1070
     0
1002
{
1002
}
1000
DIMPOST
1070
     4
1000
<>
1002
{
1002
}
1000
DIMRND
1070
     2
1040
0.0
1002
{
1002
}
1000
DIMSAH
1070
     1
1070
     0
1002
{
1002
}
1000
DIMSCALE
1070
     2
1040
1.0
1002
{
1002
}
1000
DIMSD1
1070
     1
1070
     0
1002
{
1002
}
1000
DIMSD2
1070
     1
1070
     0
1002
{
1002
}
1000
DIMSE1
1070
     1
1070
     0
1002
{
1002
}
1000
DIMSE2
1070
     1
1070
     0
1002
{
1002
}
1000
DIMSOXD
1070
     1
1070
     0
1002
{
1002
}
1000
DIMTAD
1070
     1
1070
     0
1002
{
1002
}
1000
DIMTFAC
1070
     2
1040
0.71
1002
{
1002
}
1000
DIMTIH
1070
     1
1070
     0
1002
{
1002
}
1000
DIMTIX
1070
     1
1070
     0
1002
{
1002
}
1000
DIMTM
1070
     2
1040
0.1
1002
{
1002
}
1000
DIMTOFL
1070
     1
1070
     0
1002
{
1002
}
1000
DIMTOH
1070
     1
1070
     0
1002
{
1002
}
1000
DIMTOL
1070
     1
1070
     0
1002
{
1002
}
1000
DIMTOLJ
1070
     1
1070
     1
1002
{
1002
}
1000
DIMTP
1070
     2
1040
0.1
1002
{
1002
}
1000
DIMTSZ
1070
     2
1040
0.0
1002
{
1002
}
1000
DIMTVP
1070
     2
1040
0.0
1002
{
1002
}
1000
DIMTXSTY
1070
     4
1000
STANDARD
1002
{
1002
}
1000
DIMTZIN
1070
     1
1070
     0
1002
{
1002
}
1000
DIMUNIT
1070
     1
1070
     2
1002
{
1002
}
1000
DIMUPT
1070
     1
1070
     0
1002
{
1002
}
1000
M
1070
     0
1002
{
1000
DIMALTF
1070
     2
1040
0.0393701
1002
{
1002
}
1000
DIMAPOST
1070
     4
1000
"
1002
{
1002
}
1000
DIMASZ
1070
     2
1040
2.5
1002
{
1002
}
1000
DIMCEN
1070
     2
1040
0.0
1002
{
1002
}
1000
DIMDEC
1070
     1
1070
     2
1002
{
1002
}
1000
DIMDLI
1070
     2
1040
7.0
1002
{
1002
}
1000
DIMEXE
1070
     2
1040
1.0
1002
{
1002
}
1000
DIMEXO
1070
     2
1040
1.0
1002
{
1002
}
1000
DIMGAP
1070
     2
1040
0.6
1002
{
1002
}
1000
DIMTDEC
1070
     1
1070
     3
1002
{
1002
}
1000
DIMTXT
1070
     2
1040
3.5
1002
{
1002
}
1000
DIMZIN
1070
     1
1070
     8
1002
{
1002
}
1002
}
1000
I
1070
     0
1002
{
1000
DIMALTF
1070
     2
1040
25.4
1002
{
1002
}
1000
DIMAPOST
1070
     4
1000
mm
1002
{
1002
}
1000
DIMASZ
1070
     2
1040
0.1
1002
{
1002
}
1000
DIMCEN
1070
     2
1040
0.0
1002
{
1002
}
1000
DIMDEC
1070
     1
1070
     4
1002
{
1002
}
1000
DIMDLI
1070
     2
1040
0.5
1002
{
1002
}
1000
DIMEXE
1070
     2
1040
0.1
1002
{
1002
}
1000
DIMEXO
1070
     2
1040
0.05
1002
{
1002
}
1000
DIMGAP
1070
     2
1040
0.06
1002
{
1002
}
1000
DIMTDEC
1070
     1
1070
     4
1002
{
1002
}
1000
DIMTXT
1070
     2
1040
0.12
1002
{
1002
}
1000
DIMZIN
1070
     1
1070
     7
1002
{
1002
}
1002
}
1000
GEN-ISO
1070
     5
1002
{
1000
NAME
1070
     4
1000
GEN-ISO
1002
{
1002
}
1000
DIMTAD
1070
     1
1070
     1
1002
{
1002
}
1000
DIMTOLJ
1070
     1
1070
     0
1002
{
1002
}
1000
DIMTOFL
1070
     1
1070
     1
1002
{
1002
}
1000
M
1070
     0
1002
{
1002
}
1000
I
1070
     0
1002
{
1002
}
1002
}
1000
GEN-ISO-POS
1070
     5
1002
{
1000
NAME
1070
     4
1000
GEN-ISO-POS
1002
{
1002
}
1000
DIMTOLJ
1070
     1
1070
     0
1002
{
1002
}
1000
DIMTXSTY
1070
     4
1000
STANDARD
1002
{
1002
}
1000
M
1070
     0
1002
{
1000
DIMASZ
1070
     2
1040
2.5
1002
{
1002
}
1000
DIMGAP
1070
     2
1040
1.5
1002
{
1002
}
1000
DIMTXT
1070
     2
1040
5.0
1002
{
1002
}
1002
}
1000
I
1070
     0
1002
{
1000
DIMASZ
1070
     2
1040
0.1
1002
{
1002
}
1000
DIMGAP
1070
     2
1040
0.06
1002
{
1002
}
1000
DIMTXT
1070
     2
1040
0.2
1002
{
1002
}
1002
}
1002
}
1000
GEN-ISO-CIR
1070
     5
1002
{
1000
NAME
1070
     4
1000
GEN-ISO$3
1002
{
1002
}
1000
DIMFIT
1070
     1
1070
     0
1002
{
1002
}
1000
DIMTAD
1070
     1
1070
     1
1002
{
1002
}
1000
DIMTIH
1070
     1
1070
     0
1002
{
1002
}
1000
DIMTIX
1070
     1
1070
     0
1002
{
1002
}
1000
DIMTOH
1070
     1
1070
     1
1002
{
1002
}
1000
DIMTOLJ
1070
     1
1070
     0
1002
{
1002
}
1000
DIMTOFL
1070
     1
1070
     0
1002
{
1002
}
1000
DIMUPT
1070
     1
1070
     1
1002
{
1002
}
1000
M
1070
     0
1002
{
1002
}
1000
I
1070
     0
1002
{
1002
}
1002
}
1000
GEN-ISO-RAD
1070
     5
1002
{
1000
NAME
1070
     4
1000
GEN-ISO$4
1002
{
1002
}
1000
DIMFIT
1070
     1
1070
     0
1002
{
1002
}
1000
DIMTAD
1070
     1
1070
     1
1002
{
1002
}
1000
DIMTOH
1070
     1
1070
     1
1002
{
1002
}
1000
DIMTOLJ
1070
     1
1070
     0
1002
{
1002
}
1000
DIMUPT
1070
     1
1070
     1
1002
{
1002
}
1000
M
1070
     0
1002
{
1002
}
1000
I
1070
     0
1002
{
1002
}
1000
DIMTIH
1070
     1
1070
     0
1002
{
1002
}
1000
DIMTIX
1070
     1
1070
     0
1002
{
1002
}
1000
DIMTOFL
1070
     1
1070
     0
1002
{
1002
}
1002
}
1000
GEN-ISO-ORD
1070
     5
1002
{
1000
NAME
1070
     4
1000
GEN-ISO$6
1002
{
1002
}
1000
DIMTOLJ
1070
     1
1070
     0
1002
{
1002
}
1000
M
1070
     0
1002
{
1002
}
1000
I
1070
     0
1002
{
1002
}
1002
}
1000
GEN-ISO-AXE-F
1070
     5
1002
{
1000
NAME
1070
     4
1000
GEN-ISO-AXE-F
1002
{
1002
}
1000
DIMSE1
1070
     1
1070
     1
1002
{
1002
}
1000
DIMSE2
1070
     1
1070
     1
1002
{
1002
}
1000
DIMTAD
1070
     1
1070
     1
1002
{
1002
}
1000
DIMTOLJ
1070
     1
1070
     0
1002
{
1002
}
1000
DIMTOFL
1070
     1
1070
     1
1002
{
1002
}
1000
M
1070
     0
1002
{
1002
}
1000
I
1070
     0
1002
{
1002
}
1002
}
1000
GEN-ISO-AXE-H
1070
     5
1002
{
1000
NAME
1070
     4
1000
GEN-ISO-AXE-H
1002
{
1002
}
1000
DIMBLK1
1070
     4
1000
GENAXEH
1002
{
1002
}
1000
DIMLFAC
1070
     2
1040
2.0
1002
{
1002
}
1000
DIMSAH
1070
     1
1070
     1
1002
{
1002
}
1000
DIMSE1
1070
     1
1070
     1
1002
{
1002
}
1000
DIMSE2
1070
     1
1070
     1
1002
{
1002
}
1000
DIMTAD
1070
     1
1070
     1
1002
{
1002
}
1000
DIMTOLJ
1070
     1
1070
     0
1002
{
1002
}
1000
DIMTOFL
1070
     1
1070
     1
1002
{
1002
}
1000
M
1070
     0
1002
{
1002
}
1000
I
1070
     0
1002
{
1002
}
1002
}
1000
GEN-ANSI
1070
     5
1002
{
1000
NAME
1070
     4
1000
GEN-ANSI
1002
{
1002
}
1000
DIMTIH
1070
     1
1070
     1
1002
{
1002
}
1000
DIMTOH
1070
     1
1070
     1
1002
{
1002
}
1000
DIMTAD
1070
     1
1070
     0
1002
{
1002
}
1000
DIMTOLJ
1070
     1
1070
     1
1002
{
1002
}
1000
M
1070
     0
1002
{
1002
}
1000
I
1070
     0
1002
{
1002
}
1002
}
1000
GEN-ANSI-POS
1070
     5
1002
{
1000
NAME
1070
     4
1000
GEN-ANSI-POS
1002
{
1002
}
1000
DIMTOLJ
1070
     1
1070
     1
1002
{
1002
}
1000
DIMTXSTY
1070
     4
1000
STANDARD
1002
{
1002
}
1000
M
1070
     0
1002
{
1000
DIMASZ
1070
     2
1040
2.5
1002
{
1002
}
1000
DIMGAP
1070
     2
1040
1.5
1002
{
1002
}
1000
DIMTXT
1070
     2
1040
5.0
1002
{
1002
}
1002
}
1000
I
1070
     0
1002
{
1000
DIMASZ
1070
     2
1040
0.1
1002
{
1002
}
1000
DIMGAP
1070
     2
1040
0.06
1002
{
1002
}
1000
DIMTXT
1070
     2
1040
0.2
1002
{
1002
}
1002
}
1002
}
1000
GEN-ANSI-CIR
1070
     5
1002
{
1000
NAME
1070
     4
1000
GEN-ANSI$3
1002
{
1002
}
1000
DIMFIT
1070
     1
1070
     0
1002
{
1002
}
1000
DIMTAD
1070
     1
1070
     0
1002
{
1002
}
1000
DIMTIH
1070
     1
1070
     1
1002
{
1002
}
1000
DIMTIX
1070
     1
1070
     0
1002
{
1002
}
1000
DIMTOFL
1070
     1
1070
     0
1002
{
1002
}
1000
DIMTOH
1070
     1
1070
     1
1002
{
1002
}
1000
DIMTOLJ
1070
     1
1070
     1
1002
{
1002
}
1000
DIMUPT
1070
     1
1070
     1
1002
{
1002
}
1000
M
1070
     0
1002
{
1002
}
1000
I
1070
     0
1002
{
1002
}
1002
}
1000
GEN-ANSI-RAD
1070
     5
1002
{
1000
NAME
1070
     4
1000
GEN-ANSI$4
1002
{
1002
}
1000
DIMFIT
1070
     1
1070
     0
1002
{
1002
}
1000
DIMTAD
1070
     1
1070
     0
1002
{
1002
}
1000
DIMTIH
1070
     1
1070
     1
1002
{
1002
}
1000
DIMTIX
1070
     1
1070
     0
1002
{
1002
}
1000
DIMTOFL
1070
     1
1070
     0
1002
{
1002
}
1000
DIMTOH
1070
     1
1070
     1
1002
{
1002
}
1000
DIMTOLJ
1070
     1
1070
     1
1002
{
1002
}
1000
DIMUPT
1070
     1
1070
     1
1002
{
1002
}
1000
M
1070
     0
1002
{
1002
}
1000
I
1070
     0
1002
{
1002
}
1002
}
1000
GEN-ANSI-ORD
1070
     5
1002
{
1000
NAME
1070
     4
1000
GEN-ANSI$6
1002
{
1002
}
1000
DIMTAD
1070
     1
1070
     0
1002
{
1002
}
1000
DIMTIH
1070
     1
1070
     1
1002
{
1002
}
1000
DIMTOH
1070
     1
1070
     1
1002
{
1002
}
1000
DIMTOLJ
1070
     1
1070
     1
1002
{
1002
}
1000
M
1070
     0
1002
{
1002
}
1000
I
1070
     0
1002
{
1002
}
1002
}
1000
GEN-ANSI-AXE-F
1070
     5
1002
{
1000
NAME
1070
     4
1000
GEN-ANSI-AXE-F
1002
{
1002
}
1000
DIMBLK1
1070
     4
1000
GENAXEH
1002
{
1002
}
1000
DIMSAH
1070
     1
1070
     1
1002
{
1002
}
1000
DIMSE1
1070
     1
1070
     1
1002
{
1002
}
1000
DIMSE2
1070
     1
1070
     1
1002
{
1002
}
1000
DIMTAD
1070
     1
1070
     0
1002
{
1002
}
1000
DIMTIH
1070
     1
1070
     1
1002
{
1002
}
1000
DIMTOH
1070
     1
1070
     1
1002
{
1002
}
1000
DIMTOLJ
1070
     1
1070
     1
1002
{
1002
}
1000
M
1070
     0
1002
{
1002
}
1000
I
1070
     0
1002
{
1002
}
1002
}
1000
GEN-ANSI-AXE-H
1070
     5
1002
{
1000
NAME
1070
     4
1000
GEN-ANSI-AXE-H
1002
{
1002
}
1000
DIMBLK1
1070
     4
1000
GENAXEH
1002
{
1002
}
1000
DIMLFAC
1070
     2
1040
2.0
1002
{
1002
}
1000
DIMSAH
1070
     1
1070
     1
1002
{
1002
}
1000
DIMSE1
1070
     1
1070
     1
1002
{
1002
}
1000
DIMSE2
1070
     1
1070
     1
1002
{
1002
}
1000
DIMTAD
1070
     1
1070
     0
1002
{
1002
}
1000
DIMTOFL
1070
     1
1070
     1
1002
{
1002
}
1000
DIMTOLJ
1070
     1
1070
     1
1002
{
1002
}
1000
M
1070
     0
1002
{
1002
}
1000
I
1070
     0
1002
{
1002
}
1002
}
1002
}
1000
DimSet
1070
     0
1002
{
1000
ChainSum
1070
     3
1070
     0
1002
{
1002
}
1000
DimDclTyp0
1070
     4
1000
dim23
1002
{
1002
}
1000
HorBra
1070
     3
1070
     0
1002
{
1002
}
1000
StrDia
1070
     4
1000
%%c<>
1002
{
1002
}
1000
StrRad
1070
     4
1000
R<>
1002
{
1002
}
1000
TextMinus
1070
     4
1000
<>
1002
{
1002
}
1000
TextPlus
1070
     4
1000
<>
1002
{
1002
}
1000
M
1070
     0
1002
{
1000
DimdliFirst
1070
     2
1040
10.0
1002
{
1002
}
1000
PointMakeDist
1070
     2
1040
10.0
1002
{
1002
}
1002
}
1000
I
1070
     0
1002
{
1000
DimdliFirst
1070
     2
1040
0.5
1002
{
1002
}
1000
PointMakeDist
1070
     2
1040
0.5
1002
{
1002
}
1002
}
1000
FitGrade
1070
     4
1000
h7
1002
{
1002
}
1002
}
1000
Drawing
1070
     0
1002
{
1000
ChamferDimMode
1070
     1
1070
     2
1002
{
1002
}
1000
Gen_Fiso
1070
    -3
1040
1.0
1002
{
1002
}
1000
GenDimStil
1070
     4
1000
ISO
1002
{
1002
}
1000
GenDwgUScale
1070
     2
1040
1.0
1002
{
1002
}
1000
GenInch
1070
     4
1000
M
1002
{
1002
}
1000
GenPlotScale
1070
     4
1000
1:1
1002
{
1002
}
1000
Revisi
1070
     4
1000
0
1002
{
1002
}
1000
Version
1070
    -5
1000
14.01/Apr  1 1998
1002
{
1002
}
1000
Platform
1070
    -5
1000
WINNT
1002
{
1002
}
1002
}
1000
DwgVar
1070
     0
1002
{
1000
M
1070
     0
1002
{
1002
}
1000
I
1070
     0
1002
{
1002
}
1002
}
1000
Hatch
1070
     0
1002
{
1000
GenHtcFlag
1070
     3
1070
     0
1002
{
1002
}
1002
}
1000
Info_Pos
1070
     0
1002
{
1000
>
1002
}
1000
Layer
1070
     6
1002
{
1000
Defs
1070
     0
1002
{
1000
>
1002
}
1000
EntSort
1070
     0
1002
{
1000
>
1002
}
1000
Match
1070
     0
1002
{
1002
}
1000
Settings
1070
     0
1002
{
1000
FocGrNC
1070
     3
1070
     0
1002
{
1002
}
1000
FocGrLo
1070
     3
1070
     0
1002
{
1002
}
1000
FocLoNC
1070
     3
1070
     0
1002
{
1002
}
1000
FocusCol
1070
     1
1070
   253
1002
{
1002
}
1000
GenStdLG
1070
     4
1000

1002
{
1002
}
1000
LayMatch
1070
     3
1070
     0
1002
{
1002
}
1000
LgOff
1070
     3
1070
     0
1002
{
1002
}
1000
CurLG
1070
    -5
1000

1002
{
1002
}
1002
}
1002
}
1000
LType
1070
     0
1002
{
1000
GEN3
1070
     7
1000
genius.lin
1002
{
1002
}
1000
GEN7
1070
     7
1000
genius.lin
1002
{
1002
}
1000
GEN4A
1070
     7
1000
genius.lin
1002
{
1002
}
1000
GEN3A
1070
     7
1000
genius.lin
1002
{
1002
}
1000
GEN7A
1070
     7
1000
genius.lin
1002
{
1002
}
1000
GENZIGZAG
1070
     7
1000
genius.lin
1002
{
1002
}
1002
}
1000
Objecter
1070
     0
1002
{
1000
CreateGroups
1070
     3
1070
     0
1002
{
1002
}
1000
LaySwitch
1070
     3
1070
     1
1002
{
1002
}
1000
LastObj
1070
    -5
1000
0
1002
{
1002
}
1000
TimeStamp
1070
    -5
1000
19981124.10463783
1002
{
1002
}
1002
}
1000
OSWiz
1070
     0
1002
{
1000
Filter
1070
     0
1002
{
1000
HATCH
1070
     8
1002
{
1000
EntityType
1070
     4
1000
LINE
1002
{
1002
}
1000
Layer
1070
     4
1000
8,8N,*-8,*-8N
1002
{
1002
}
1000
Linetype
1070
     4
1000
*
1002
{
1002
}
1000
Color
1070
     4
1000
*
1002
{
1002
}
1000
ApplyInDims
1070
     3
1070
     1
1002
{
1002
}
1002
}
1000
SYMBOLS
1070
     8
1002
{
1000
EntityType
1070
     4
1000
*
1002
{
1002
}
1000
Layer
1070
     4
1000
[5-6],[5-6]N,*-[5-6],*-[5-6]N
1002
{
1002
}
1000
Linetype
1070
     4
1000
*
1002
{
1002
}
1000
Color
1070
     4
1000
*
1002
{
1002
}
1000
ApplyInDims
1070
     3
1070
     1
1002
{
1002
}
1002
}
1000
FEM
1070
     8
1002
{
1000
EntityType
1070
     4
1000
*
1002
{
1002
}
1000
Layer
1070
     4
1000
4A,4AN,*-4A,*-4AN
1002
{
1002
}
1000
Linetype
1070
     4
1000
*
1002
{
1002
}
1000
Color
1070
     4
1000
*
1002
{
1002
}
1000
ApplyInDims
1070
     3
1070
     1
1002
{
1002
}
1002
}
1002
}
1002
}
1000
PaList
1070
     0
1002
{
1000
AutoUpdatePartList
1070
     1
1070
     0
1002
{
1002
}
1000
ReadInfoPoint
1070
     3
1070
     0
1002
{
1002
}
1000
ReadPosNr
1070
     3
1070
     1
1002
{
1002
}
1000
RevStr
1070
     4
1000
0
1002
{
1002
}
1002
}
1000
Paper
1070
     0
1002
{
1000
Layer
1070
    -5
1000
5
1002
{
1002
}
1002
}
1000
PartDB
1070
     0
1002
{
1000
GenDbOwner
1070
     4
1000

1002
{
1002
}
1002
}
1000
System
1070
     0
1002
{
1002
}
1000
Title
1070
     0
1002
{
1000
MakeView
1070
     1
1070
     2
1002
{
1002
}
1002
}
1000
Tools
1070
     0
1002
{
1000
Trans
1070
     0
1002
{
1000
Drawingtranslation
1070
    -4
1070
     1
1002
{
1002
}
1000
upreserve
1070
     3
1070
     0
1002
{
1002
}
1000
originally_on
1070
    -4
1070
     0
1002
{
1002
}
1000
sourcelang
1070
    -5
1000
D
1002
{
1002
}
1002
}
1002
}
  0
APPID
  5
F3A
330
9
100
AcDbSymbolTableRecord
100
AcDbRegAppTableRecord
  2
GENIUS_GEVCFG0_13
 70
     0
1001
GENIUS_GENCFG_13
1071
908952218
1000
545
1000
GEV
1070
     1
1000
GenCfgObject
1000
VED
1070
     0
1002
{
1002
}
  0
APPID
  5
F3B
330
9
100
AcDbSymbolTableRecord
100
AcDbRegAppTableRecord
  2
GENIUS_GENOENT_13
 70
     0
  0
APPID
  5
F3C
330
9
100
AcDbSymbolTableRecord
100
AcDbRegAppTableRecord
  2
GENIUS_GENREC_14
 70
     0
  0
APPID
  5
F3D
330
9
100
AcDbSymbolTableRecord
100
AcDbRegAppTableRecord
  2
GENIUS_GENODEF_13
 70
     0
  0
APPID
  5
F3E
330
9
100
AcDbSymbolTableRecord
100
AcDbRegAppTableRecord
  2
GENIUS_GENOBJ-N-REC_13
 70
     0
  0
APPID
  5
12D3
330
9
100
AcDbSymbolTableRecord
100
AcDbRegAppTableRecord
  2
CCCMM
 70
     0
  0
APPID
  5
4CF0
330
9
100
AcDbSymbolTableRecord
100
AcDbRegAppTableRecord
  2
MCAD_NO_VIS
 70
     0
  0
APPID
  5
4CF1
330
9
100
AcDbSymbolTableRecord
100
AcDbRegAppTableRecord
  2
ACAD_TEMP_GRAPHIC
 70
     0
  0
APPID
  5
4D02
330
9
100
AcDbSymbolTableRecord
100
AcDbRegAppTableRecord
  2
ACATTRIBSERVICES
 70
     0
  0
APPID
  5
4D42
330
9
100
AcDbSymbolTableRecord
100
AcDbRegAppTableRecord
  2
GENIUS_GENSCREG_15
 70
     0
  0
APPID
  5
4D43
330
9
100
AcDbSymbolTableRecord
100
AcDbRegAppTableRecord
  2
GENIUS_GENOBJ-N-SDF_13
 70
     0
  0
APPID
  5
4EAB
330
9
100
AcDbSymbolTableRecord
100
AcDbRegAppTableRecord
  2
AD_DRAW
 70
     0
  0
APPID
  5
4EC9
330
9
100
AcDbSymbolTableRecord
100
AcDbRegAppTableRecord
  2
DESIGNERASSEMBLIES
 70
     0
  0
APPID
  5
4ECE
330
9
100
AcDbSymbolTableRecord
100
AcDbRegAppTableRecord
  2
ACADM_DIM_EDIT
 70
     0
  0
APPID
  5
4ECF
330
9
100
AcDbSymbolTableRecord
100
AcDbRegAppTableRecord
  2
AMDT_DM_ADJ
 70
     0
  0
APPID
  5
4F92
330
9
100
AcDbSymbolTableRecord
100
AcDbRegAppTableRecord
  2
GENIUS_GENDIMSH_14
 70
     0
  0
APPID
  5
4FD3
330
9
100
AcDbSymbolTableRecord
100
AcDbRegAppTableRecord
  2
ACAD_MLEADERVER
 70
     0
  0
APPID
  5
5086
330
9
100
AcDbSymbolTableRecord
100
AcDbRegAppTableRecord
  2
ACAD_PSEXT
 70
     0
  0
APPID
  5
5193
330
9
100
AcDbSymbolTableRecord
100
AcDbRegAppTableRecord
  2
ACAD_NAV_VCDISPLAY
 70
     0
  0
APPID
  5
51CF
330
9
100
AcDbSymbolTableRecord
100
AcDbRegAppTableRecord
  2
ACAD_DSTYLE_DIMINSPECT
 70
     0
  0
APPID
  5
5297
330
9
100
AcDbSymbolTableRecord
100
AcDbRegAppTableRecord
  2
AcAecLayerStandard
 70
     0
  0
APPID
  5
529A
330
9
100
AcDbSymbolTableRecord
100
AcDbRegAppTableRecord
  2
ACAD_DSTYLE_DIMBREAK
 70
     0
  0
APPID
  5
529B
330
9
100
AcDbSymbolTableRecord
100
AcDbRegAppTableRecord
  2
ACAD_DSTYLE_DIMJAG
 70
     0
  0
APPID
  5
52B5
330
9
100
AcDbSymbolTableRecord
100
AcDbRegAppTableRecord
  2
GENIUS_GENDTOL_13
 70
     0
  0
ENDTAB
  0
TABLE
  2
DIMSTYLE
  5
A
330
0
100
AcDbSymbolTable
 70
    24
100
AcDbDimStyleTable
 71
     2
340
4F54
340
1D
  0
DIMSTYLE
105
1D
330
A
100
AcDbSymbolTableRecord
100
AcDbDimStyleTableRecord
  2
NORMAL
 70
     0
 41
3.5
 42
0.0
 43
8.0
 44
0.5
 73
     0
 74
     0
 77
     1
 78
     8
140
3.5
141
1.5
146
0.5
147
1.0
172
     1
174
     1
176
   256
177
   256
178
     3
271
     2
272
     2
284
     8
340
1DC
  0
DIMSTYLE
105
1CB
330
A
100
AcDbSymbolTableRecord
100
AcDbDimStyleTableRecord
  2
RADIUS
 70
     0
 41
3.5
 42
1.0
 43
0.0
 44
0.5
 73
     0
 74
     0
 77
     1
 78
     8
140
3.5
141
1.5
146
0.5
147
1.0
176
   256
177
   256
178
     3
271
     2
272
     2
284
     8
340
1DC
  0
DIMSTYLE
105
3A1
330
A
100
AcDbSymbolTableRecord
100
AcDbDimStyleTableRecord
  2
RADIUS-2-1
 70
     0
 41
3.5
 42
1.0
 43
0.0
 44
0.5
 73
     0
 74
     0
 77
     1
 78
     8
140
3.5
141
1.5
144
0.5
146
0.5
147
1.0
176
   256
177
   256
178
     3
271
     2
272
     2
284
     8
340
1DC
  0
DIMSTYLE
105
3C2
330
A
100
AcDbSymbolTableRecord
100
AcDbDimStyleTableRecord
  2
RADIUS-5-1
 70
     0
 41
3.5
 42
1.0
 43
0.0
 44
0.5
 73
     0
 74
     0
 77
     1
 78
     8
140
3.5
141
1.5
144
0.2
146
0.5
147
1.0
176
   256
177
   256
178
     3
271
     2
272
     2
284
     8
340
1DC
  0
DIMSTYLE
105
3E3
330
A
100
AcDbSymbolTableRecord
100
AcDbDimStyleTableRecord
  2
NORMAL-2-1
 70
     0
 41
3.5
 42
0.0
 43
8.0
 44
0.5
 73
     0
 74
     0
 77
     1
 78
     8
140
3.5
141
1.5
144
0.5
146
0.5
147
1.0
172
     1
174
     1
176
   256
177
   256
178
     3
271
     2
272
     2
284
     8
340
1DC
  0
DIMSTYLE
105
404
330
A
100
AcDbSymbolTableRecord
100
AcDbDimStyleTableRecord
  2
NORMAL-5-1
 70
     0
 41
3.5
 42
0.0
 43
8.0
 44
0.5
 73
     0
 74
     0
 77
     1
 78
     8
140
3.5
141
1.5
144
0.2
146
0.5
147
1.0
172
     1
174
     1
176
   256
177
   256
178
     3
271
     2
272
     2
284
     8
340
1DC
  0
DIMSTYLE
105
425
330
A
100
AcDbSymbolTableRecord
100
AcDbDimStyleTableRecord
  2
NORMAL-1-2
 70
     0
 41
3.5
 42
0.0
 43
8.0
 44
0.5
 73
     0
 74
     0
 77
     1
 78
     8
140
3.5
141
1.5
144
2.0
146
0.5
147
1.0
172
     1
174
     1
176
   256
177
   256
178
     3
271
     2
272
     2
284
     8
340
1DC
  0
DIMSTYLE
105
446
330
A
100
AcDbSymbolTableRecord
100
AcDbDimStyleTableRecord
  2
RADIUS-1-2
 70
     0
 41
3.5
 42
1.0
 43
0.0
 44
0.5
 73
     0
 74
     0
 77
     1
 78
     8
140
3.5
141
1.5
144
2.0
146
0.5
147
1.0
176
   256
177
   256
178
     3
271
     2
272
     2
284
     8
340
1DC
  0
DIMSTYLE
105
3CBD
330
A
100
AcDbSymbolTableRecord
100
AcDbDimStyleTableRecord
  2
WINKEL
 70
     0
 41
3.5
 42
1.0
 43
8.0
 44
0.5
 73
     0
 74
     0
 77
     1
 78
     8
140
3.5
141
1.5
146
0.5
147
1.0
172
     1
174
     1
176
   256
177
   256
178
     3
271
     2
272
     2
284
     8
340
1DC
  0
DIMSTYLE
105
3F6F
330
A
100
AcDbSymbolTableRecord
100
AcDbDimStyleTableRecord
  2
ISO-25
 70
     0
 41
2.5
 42
0.625
 43
3.75
 44
1.25
 74
     0
 77
     1
 78
     8
140
2.5
141
2.5
143
0.0394
145
1.0
147
0.625
172
     1
340
10
  0
DIMSTYLE
105
3F70
330
A
100
AcDbSymbolTableRecord
100
AcDbDimStyleTableRecord
  2
GEN-ISO
 70
     0
  3
<>
  4
"
 41
2.5
 42
1.0
 43
7.0
 44
1.0
 47
0.1
 48
0.1
 73
     0
 74
     0
 77
     1
 78
     8
140
3.5
141
0.0
143
0.0393701
146
0.71
147
0.6
172
     1
176
     2
177
     2
178
     3
271
     2
272
     3
274
     4
283
     0
340
10
  0
DIMSTYLE
105
479E
330
A
100
AcDbSymbolTableRecord
100
AcDbDimStyleTableRecord
  2
STANDARD
 70
     0
340
10
  0
DIMSTYLE
105
479F
330
A
100
AcDbSymbolTableRecord
100
AcDbDimStyleTableRecord
  2
TB
 70
     0
 41
2.5
 42
0.0
 43
10.0
 44
1.8
 73
     0
 74
     0
 77
     1
 78
     8
140
3.5
141
0.0
143
2.54
146
0.71
147
1.75
172
     1
173
     1
176
     1
177
     1
178
   256
271
     3
288
     1
340
479C
  0
DIMSTYLE
105
4D2D
330
A
100
AcDbSymbolTableRecord
100
AcDbDimStyleTableRecord
  2
AM_DIN
 70
     0
  4
"
 41
2.5
 42
1.0
 43
10.0
 44
1.0
 47
0.1
 48
0.1
 73
     0
 74
     0
 77
     1
 78
     8
 79
     2
140
3.5
141
0.0
143
0.0393701
146
0.71
147
1.5
172
     1
176
   256
177
   256
178
     2
271
     2
272
     3
274
     4
283
     0
284
     8
340
10
371
    -1
372
    -1
  0
DIMSTYLE
105
4D2E
330
A
100
AcDbSymbolTableRecord
100
AcDbDimStyleTableRecord
  2
AM_DIN$3
 70
     0
  4
"
 41
2.5
 42
1.0
 43
10.0
 44
1.0
 47
0.1
 48
0.1
 73
     0
 77
     1
 78
     8
 79
     2
140
3.5
141
0.0
143
0.0393701
146
0.71
147
1.5
176
   256
177
   256
178
     2
271
     2
272
     3
274
     4
283
     0
284
     8
288
     1
289
     0
340
10
371
    -1
372
    -1
  0
DIMSTYLE
105
4D2F
330
A
100
AcDbSymbolTableRecord
100
AcDbDimStyleTableRecord
  2
AM_DIN$4
 70
     0
  4
"
 41
2.5
 42
1.0
 43
10.0
 44
1.0
 47
0.1
 48
0.1
 73
     0
 77
     1
 78
     8
 79
     2
140
3.5
141
0.0
143
0.0393701
146
0.71
147
1.5
176
   256
177
   256
178
     2
271
     2
272
     3
274
     4
283
     0
284
     8
288
     1
289
     0
340
10
371
    -1
372
    -1
  0
DIMSTYLE
105
4D30
330
A
100
AcDbSymbolTableRecord
100
AcDbDimStyleTableRecord
  2
AM_DIN$6
 70
     0
  4
"
 41
2.5
 42
1.0
 43
10.0
 44
1.0
 47
0.1
 48
0.1
 73
     0
 74
     0
 78
     8
 79
     2
140
3.5
141
0.0
143
0.0393701
146
0.71
147
1.5
172
     1
176
   256
177
   256
178
     2
271
     2
272
     3
274
     4
283
     0
284
     8
340
10
371
    -1
372
    -1
  0
DIMSTYLE
105
4D31
330
A
100
AcDbSymbolTableRecord
100
AcDbDimStyleTableRecord
  2
AM_DIN$7
 70
     0
  4
"
 41
2.5
 42
1.0
 43
10.0
 44
1.0
 47
0.1
 48
0.1
 73
     0
 74
     0
 77
     1
 78
     8
 79
     2
140
5.0
141
0.0
143
0.0393701
146
0.71
147
1.5
172
     1
176
   256
177
   256
178
     2
271
     2
272
     3
274
     4
283
     0
284
     8
340
10
371
    -1
372
    -1
  0
DIMSTYLE
105
4D32
330
A
100
AcDbSymbolTableRecord
100
AcDbDimStyleTableRecord
  2
AM_DIN$SF
 70
     0
  4
"
 41
2.5
 42
1.0
 43
10.0
 44
1.0
 47
0.1
 48
0.1
 73
     0
 74
     0
 75
     1
 76
     1
 77
     1
 78
     8
 79
     2
140
3.5
141
0.0
143
0.0393701
146
0.71
147
1.5
172
     1
176
   256
177
   256
178
     2
271
     2
272
     3
274
     4
283
     0
284
     8
340
10
371
    -1
372
    -1
  0
DIMSTYLE
105
4D37
330
A
100
AcDbSymbolTableRecord
100
AcDbDimStyleTableRecord
  2
AM_DIN$SH
 70
     0
  4
"
 41
2.5
 42
1.0
 43
10.0
 44
1.0
 47
0.1
 48
0.1
 73
     0
 74
     0
 75
     1
 76
     1
 77
     1
 78
     8
 79
     2
140
3.5
141
0.0
143
0.0393701
144
2.0
146
0.71
147
1.5
172
     1
173
     1
176
   256
177
   256
178
     2
271
     2
272
     3
274
     4
283
     0
284
     8
340
10
343
4D33
371
    -1
372
    -1
  0
DIMSTYLE
105
4F53
330
A
100
AcDbSymbolTableRecord
100
AcDbDimStyleTableRecord
  2
WMF
 70
     0
 40
1.9
 41
2.799999999999999
 42
1.0
 43
0.0
 44
1.0
 73
     0
 74
     0
 77
     1
 78
     8
140
3.5
141
1.5
146
0.5
147
1.0
172
     1
174
     1
176
     7
177
     7
178
     7
271
     2
272
     2
279
     2
284
     8
285
     8
286
     8
340
4F52
  0
DIMSTYLE
105
4F54
102
{ACAD_REACTORS
330
51EB
330
51F1
330
51F2
330
51F3
330
52C8
330
529E
102
}
330
A
100
AcDbSymbolTableRecord
100
AcDbDimStyleTableRecord
  2
PROSPEKT
 70
     0
 40
1.5
 41
3.5
 42
1.0
 43
8.0
 44
0.5
 73
     0
 74
     0
 77
     1
 78
     8
140
3.5
141
1.5
146
0.5
147
1.0
172
     1
174
     1
176
   256
177
   256
178
     3
271
     2
272
     2
284
     8
340
F24
  0
DIMSTYLE
105
51CE
330
A
100
AcDbSymbolTableRecord
100
AcDbDimStyleTableRecord
  2
EXTERN-FUER-KUNDE
 70
     0
 40
1.8
 41
4.0
 42
0.5
 43
0.0
 44
1.0
 73
     0
 74
     0
 77
     1
 78
     8
140
4.5
141
1.0
147
1.5
172
     1
176
   256
177
   256
178
     3
271
     2
272
     2
279
     2
284
     8
340
F24
  0
DIMSTYLE
105
529C
330
A
100
AcDbSymbolTableRecord
100
AcDbDimStyleTableRecord
  2
NORMAL$0
 70
     0
 41
3.5
 42
0.0
 43
8.0
 44
0.5
 73
     0
 74
     0
 77
     1
 78
     8
140
3.5
141
1.5
146
0.5
147
1.0
172
     1
174
     1
176
   256
177
   256
178
     3
271
     2
272
     2
284
     8
340
1DC
1001
ACAD_DSTYLE_DIMBREAK
1070
   391
1040
3.75
1001
ACAD_DSTYLE_DIMJAG
1070
   388
1040
1.5
  0
ENDTAB
  0
TABLE
  2
BLOCK_RECORD
  5
1
330
0
100
AcDbSymbolTable
 70
    17
  0
BLOCK_RECORD
  5
19
102
{ACAD_XDICTIONARY
360
4D4C
102
}
330
1
100
AcDbSymbolTableRecord
100
AcDbBlockTableRecord
  2
*MODEL_SPACE
340
3F27
 70
     0
280
     1
281
     0
  0
BLOCK_RECORD
  5
16
330
1
100
AcDbSymbolTableRecord
100
AcDbBlockTableRecord
  2
*PAPER_SPACE
340
3F28
 70
     0
280
     1
281
     0
  0
BLOCK_RECORD
  5
3F4C
330
1
100
AcDbSymbolTableRecord
100
AcDbBlockTableRecord
  2
ACA_CFG
340
0
102
{BLKREFS
331
3F50
102
}
 70
     0
280
     1
281
     0
  0
BLOCK_RECORD
  5
3F4F
330
1
100
AcDbSymbolTableRecord
100
AcDbBlockTableRecord
  2
ACA_SAVE_DONT_PURGE
340
0
102
{BLKREFS
331
43DD
102
}
 70
     0
280
     1
281
     0
  0
BLOCK_RECORD
  5
3F53
330
1
100
AcDbSymbolTableRecord
100
AcDbBlockTableRecord
  2
AVE_RENDER
340
0
102
{BLKREFS
331
43DE
331
43DF
331
43E0
102
}
 70
     0
280
     1
281
     0
  0
BLOCK_RECORD
  5
4D33
330
1
100
AcDbSymbolTableRecord
100
AcDbBlockTableRecord
  2
GENAXEH
340
0
 70
     0
280
     1
281
     0
  0
BLOCK_RECORD
  5
517E
330
1
100
AcDbSymbolTableRecord
100
AcDbBlockTableRecord
  2
_ACMFILLED15
340
0
 70
     0
280
     1
281
     0
  0
BLOCK_RECORD
  5
5195
330
1
100
AcDbSymbolTableRecord
100
AcDbBlockTableRecord
  2
*D6
340
0
 70
     0
280
     1
281
     0
  0
BLOCK_RECORD
  5
51A3
330
1
100
AcDbSymbolTableRecord
100
AcDbBlockTableRecord
  2
*D7
340
0
 70
     0
280
     1
281
     0
  0
BLOCK_RECORD
  5
51B1
330
1
100
AcDbSymbolTableRecord
100
AcDbBlockTableRecord
  2
*D8
340
0
 70
     0
280
     1
281
     0
  0
BLOCK_RECORD
  5
51BF
330
1
100
AcDbSymbolTableRecord
100
AcDbBlockTableRecord
  2
*D9
340
0
 70
     0
280
     1
281
     0
  0
BLOCK_RECORD
  5
51FE
330
1
100
AcDbSymbolTableRecord
100
AcDbBlockTableRecord
  2
*D11
340
0
 70
     0
280
     1
281
     0
  0
BLOCK_RECORD
  5
520C
330
1
100
AcDbSymbolTableRecord
100
AcDbBlockTableRecord
  2
*D12
340
0
 70
     0
280
     1
281
     0
  0
BLOCK_RECORD
  5
521A
330
1
100
AcDbSymbolTableRecord
100
AcDbBlockTableRecord
  2
*D13
340
0
 70
     0
280
     1
281
     0
  0
BLOCK_RECORD
  5
5228
330
1
100
AcDbSymbolTableRecord
100
AcDbBlockTableRecord
  2
*D14
340
0
 70
     0
280
     1
281
     0
  0
BLOCK_RECORD
  5
52A0
330
1
100
AcDbSymbolTableRecord
100
AcDbBlockTableRecord
  2
*D15
340
0
 70
     0
280
     1
281
     0
  0
BLOCK_RECORD
  5
52C9
330
1
100
AcDbSymbolTableRecord
100
AcDbBlockTableRecord
  2
*D16
340
0
 70
     0
280
     1
281
     0
  0
ENDTAB
  0
ENDSEC
  0
SECTION
  2
BLOCKS
  0
BLOCK
  5
1A
330
19
100
AcDbEntity
  8
0
100
AcDbBlockBegin
  2
*MODEL_SPACE
 70
     0
 10
0.0
 20
0.0
 30
0.0
  3
*MODEL_SPACE
  1

  0
ENDBLK
  5
1B
330
19
100
AcDbEntity
  8
0
100
AcDbBlockEnd
  0
BLOCK
  5
17
330
16
100
AcDbEntity
 67
     1
  8
0
100
AcDbBlockBegin
  2
*PAPER_SPACE
 70
     0
 10
0.0
 20
0.0
 30
0.0
  3
*PAPER_SPACE
  1

  0
ENDBLK
  5
18
330
16
100
AcDbEntity
 67
     1
  8
0
100
AcDbBlockEnd
  0
BLOCK
  5
3F4D
330
3F4C
100
AcDbEntity
  8
0
100
AcDbBlockBegin
  2
ACA_CFG
 70
     0
 10
0.0
 20
0.0
 30
0.0
  3
ACA_CFG
  1
ACA_CFG
  0
ENDBLK
  5
3F4E
330
3F4C
100
AcDbEntity
  8
0
100
AcDbBlockEnd
  0
BLOCK
  5
3F51
330
3F4F
100
AcDbEntity
  8
0
100
AcDbBlockBegin
  2
ACA_SAVE_DONT_PURGE
 70
     0
 10
0.0
 20
0.0
 30
0.0
  3
ACA_SAVE_DONT_PURGE
  1

  0
INSERT
  5
3F50
330
3F4F
100
AcDbEntity
  8
ACA_VARSAVE
100
AcDbBlockReference
  2
ACA_CFG
 10
0.0
 20
0.0
 30
0.0
1001
ACA_CADIMENU
1000
ACA_CFG
1002
{
1000
ACA_V:LAY-GRCODE
1000

1002
}
1002
{
1000
ACA_V:LAY-GRDEL1
1000
_-
1002
}
1002
{
1000
ACA_V:LAY-GRDEL2
1000
_
1002
}
1002
{
1000
ACA_V:LAY-MLAST
1000

1002
}
1002
{
1000
ACA_V:LAY-PRE
1000

1002
}
1002
{
1000
ACA_V:LAY-PRELIST
1000
.nil.
1002
}
1002
{
1000
ACA_V:ZEIN
1040
1.0
1002
}
1002
{
1000
ACA_V:EINH
1000
mm
1002
}
1002
{
1000
ACA_V:Mass
1040
1.0
1002
}
1002
{
1000
ACA_V:EIFA
1040
1.0
1002
}
1002
{
1000
ACA_V:PDIS
1000
 mm
1002
}
1002
{
1000
ACA_V:PARE
1000
 qmm
1002
}
1002
{
1000
ACA_V:FFA1
1040
1.0
1002
}
1002
{
1000
ACA_V:FDR1
1000
0.0
1002
}
1002
{
1000
ACA_V:FXF1
1040
1.0
1002
}
1002
{
1000
ACA_V:FYF1
1040
1.0
1002
}
1002
{
1000
ACA_V:FZF1
1040
1.0
1002
}
1002
{
1000
ACA_V:THT2
1040
2.5
1002
}
1002
{
1000
ACA_V:THT3
1040
3.5
1002
}
1002
{
1000
ACA_V:THT5
1040
5.0
1002
}
1002
{
1000
ACA_V:THT7
1040
7.0
1002
}
1002
{
1000
ACA_V:THT1
1040
10.0
1002
}
1002
{
1000
ACA_V:ZSi
1070
    15
1002
}
1002
{
1000
ACA_V:F-CADI
1000
CM1
1002
}
1002
{
1000
ACA_V:F-CAD1
1000
B
1002
}
1002
{
1000
ACA_V:F-CAD3
1000
A
1002
}
1002
{
1000
ACA_L:ABBI
1000
ABBIEGEKANT
1002
}
1002
{
1000
ACA_L:ACHS
1000
ACHSEN
1002
}
1002
{
1000
ACA_L:ATRI
1000
ATTRIBUTE
1002
}
1002
{
1000
ACA_L:AVER
1000
AVERDECKTE
1002
}
1002
{
1000
ACA_L:A-AL
1000
ABBIEGEKANT*,*ACHSEN*,*AVERDECKTE*,*AVERDECKTE*
1002
}
1002
{
1000
ACA_L:BEMA
1000
BEMASSUNG
1002
}
1002
{
1000
ACA_L:BEMT
1000
BEMTEXT
1002
}
1002
{
1000
ACA_L:B-AL
1000
BEM*
1002
}
1002
{
1000
ACA_L:HIKO
1000
HILFSKONSTR
1002
}
1002
{
1000
ACA_L:HILI
1000
HILFSLINIEN
1002
}
1002
{
1000
ACA_L:HIPU
1000
HILFSPUNKTE
1002
}
1002
{
1000
ACA_L:H-AL
1000
HILFS*
1002
}
1002
{
1000
ACA_L:KO03
1000
KOPF03
1002
}
1002
{
1000
ACA_L:KO05
1000
KOPF05
1002
}
1002
{
1000
ACA_L:KO07
1000
KOPF07
1002
}
1002
{
1000
ACA_L:KO10
1000
KOPF10
1002
}
1002
{
1000
ACA_L:K-AL
1000
KOPF*
1002
}
1002
{
1000
ACA_L:SCHR
1000
SCHRAFFUR
1002
}
1002
{
1000
ACA_L:TE02
1000
TEXT02
1002
}
1002
{
1000
ACA_L:TE03
1000
TEXT03
1002
}
1002
{
1000
ACA_L:TE05
1000
TEXT05
1002
}
1002
{
1000
ACA_L:TE07
1000
TEXT07
1002
}
1002
{
1000
ACA_L:TE10
1000
TEXT10
1002
}
1002
{
1000
ACA_L:T-AL
1000
TEXT*
1002
}
1002
{
1000
ACA_L:UM02
1000
UMRISS02
1002
}
1002
{
1000
ACA_L:UM03
1000
UMRISS03
1002
}
1002
{
1000
ACA_L:UM05
1000
UMRISS05
1002
}
1002
{
1000
ACA_L:UM07
1000
UMRISS07
1002
}
1002
{
1000
ACA_L:UM10
1000
UMRISS10
1002
}
1002
{
1000
ACA_L:U-AL
1000
UMRISS*
1002
}
1002
{
1000
ACA_L:2225
1000
S-FELD225
1002
}
1002
{
1000
ACA_L:2226
1000
S-FELD226
1002
}
1002
{
1000
ACA_L:2227
1000
S-FELD227
1002
}
1002
{
1000
ACA_L:2228
1000
S-FELD228
1002
}
1002
{
1000
ACA_L:2230
1000
S-*,*SCHRAFF*
1002
}
1002
{
1000
ACA_L:2239
1000
0
1002
}
1002
{
1000
ACA_L:2240
1000
*
1002
}
1002
{
1000
ACA_L:2241
1000
R-FELD241
1002
}
1002
{
1000
ACA_L:2242
1000
R-FELD242
1002
}
1002
{
1000
ACA_L:2243
1000
R-FELD243
1002
}
1002
{
1000
ACA_L:2244
1000
R-*
1002
}
1002
{
1000
ACA_L:GRA0
1000
SEIT0
1002
}
1002
{
1000
ACA_L:GRA1
1000
SEIT1
1002
}
1002
{
1000
ACA_L:GRA2
1000
SEIT2
1002
}
1002
{
1000
ACA_L:GRA3
1000
SEIT3
1002
}
1002
{
1000
ACA_L:GRA4
1000
SEIT4
1002
}
1002
{
1000
ACA_L:GRA5
1000
SEIT5
1002
}
1002
{
1000
ACA_L:GRA6
1000
SEIT6
1002
}
1002
{
1000
ACA_L:GRA7
1000
SEIT7
1002
}
1002
{
1000
ACA_L:GRA8
1000
SEIT8
1002
}
1002
{
1000
ACA_L:GRA9
1000
SEIT9
1002
}
1002
{
1000
ACA_L:GRB0
1000
GRUN0
1002
}
1002
{
1000
ACA_L:GRB1
1000
GRUN1
1002
}
1002
{
1000
ACA_L:GRB2
1000
GRUN2
1002
}
1002
{
1000
ACA_L:GRB3
1000
GRUN3
1002
}
1002
{
1000
ACA_L:GRB4
1000
GRUN4
1002
}
1002
{
1000
ACA_L:GRB5
1000
GRUN5
1002
}
1002
{
1000
ACA_L:GRB6
1000
GRUN6
1002
}
1002
{
1000
ACA_L:GRB7
1000
GRUN7
1002
}
1002
{
1000
ACA_L:GRB8
1000
GRUN8
1002
}
1002
{
1000
ACA_L:GRB9
1000
GRUN9
1002
}
1002
{
1000
ACA_L:GRC0
1000
AUFR0
1002
}
1002
{
1000
ACA_L:GRC1
1000
AUFR1
1002
}
1002
{
1000
ACA_L:GRC2
1000
AUFR2
1002
}
1002
{
1000
ACA_L:GRC3
1000
AUFR3
1002
}
1002
{
1000
ACA_L:GRC4
1000
AUFR4
1002
}
1002
{
1000
ACA_L:GRC5
1000
AUFR5
1002
}
1002
{
1000
ACA_L:GRC6
1000
AUFR6
1002
}
1002
{
1000
ACA_L:GRC7
1000
AUFR7
1002
}
1002
{
1000
ACA_L:GRC8
1000
AUFR8
1002
}
1002
{
1000
ACA_L:GRC9
1000
AUFR9
1002
}
1002
{
1000
ACA_L:GRD0
1000
TEIL0
1002
}
1002
{
1000
ACA_L:GRD1
1000
TEIL1
1002
}
1002
{
1000
ACA_L:GRD2
1000
TEIL2
1002
}
1002
{
1000
ACA_L:GRD3
1000
TEIL3
1002
}
1002
{
1000
ACA_L:GRD4
1000
TEIL4
1002
}
1002
{
1000
ACA_L:GRD5
1000
TEIL5
1002
}
1002
{
1000
ACA_L:GRD6
1000
TEIL6
1002
}
1002
{
1000
ACA_L:GRD7
1000
TEIL7
1002
}
1002
{
1000
ACA_L:GRD8
1000
TEIL8
1002
}
1002
{
1000
ACA_L:GRD9
1000
TEIL9
1002
}
  0
ENDBLK
  5
3F52
330
3F4F
100
AcDbEntity
  8
0
100
AcDbBlockEnd
  0
BLOCK
  5
3F54
330
3F53
100
AcDbEntity
  8
0
100
AcDbBlockBegin
  2
AVE_RENDER
 70
     0
 10
0.0
 20
0.0
 30
0.0
  3
AVE_RENDER
  1
AVE_RENDER
  0
ENDBLK
  5
3F55
330
3F53
100
AcDbEntity
  8
0
100
AcDbBlockEnd
  0
BLOCK
  5
4D35
330
4D33
100
AcDbEntity
  8
0
100
AcDbBlockBegin
  2
GENAXEH
 70
     0
 10
0.0
 20
0.0
 30
0.0
  3
GENAXEH
  1

  0
LINE
  5
4D34
330
4D33
100
AcDbEntity
  8
0
100
AcDbLine
 10
-1.0
 20
0.0
 30
0.0
 11
1.0
 21
0.0
 31
0.0
  0
ENDBLK
  5
4D36
330
4D33
100
AcDbEntity
  8
0
100
AcDbBlockEnd
  0
BLOCK
  5
517F
330
517E
100
AcDbEntity
  8
0
100
AcDbBlockBegin
  2
_ACMFILLED15
 70
     0
 10
0.0
 20
0.0
 30
0.0
  3
_ACMFILLED15
  1

  0
TRACE
  5
5181
330
517E
100
AcDbEntity
  8
UMRISS07
 62
     0
100
AcDbTrace
 10
-1.0
 20
-0.131652497
 30
0.0
 11
-1.0
 21
0.131652497
 31
0.0
 12
0.0
 22
0.0
 32
0.0
 13
0.0
 23
0.0
 33
0.0
  0
ENDBLK
  5
5180
330
517E
100
AcDbEntity
  8
0
100
AcDbBlockEnd
  0
BLOCK
  5
5196
330
5195
100
AcDbEntity
  8
0
100
AcDbBlockBegin
  2
*D6
 70
     1
 10
0.0
 20
0.0
 30
0.0
  3
*D6
  1

  0
LINE
  5
5197
330
5195
100
AcDbEntity
  8
BEMASSUNG
440
 16777216
370
    -2
100
AcDbLine
 10
399.8657733475141
 20
180.3599800161317
 30
0.0
 11
427.1924994775751
 21
180.3599800161317
 31
0.0
  0
LINE
  5
5198
330
5195
100
AcDbEntity
  8
BEMASSUNG
440
 16777216
370
    -2
100
AcDbLine
 10
399.8657733475141
 20
191.3599800161317
 30
0.0
 11
427.1924994775751
 21
191.3599800161317
 31
0.0
  0
LINE
  5
5199
330
5195
100
AcDbEntity
  8
BEMASSUNG
440
 16777216
370
    -2
100
AcDbLine
 10
426.4424994775751
 20
175.1099800161317
 30
0.0
 11
426.4424994775751
 21
169.8599800161317
 31
0.0
  0
LINE
  5
519A
330
5195
100
AcDbEntity
  8
BEMASSUNG
440
 16777216
370
    -2
100
AcDbLine
 10
426.4424994775751
 20
196.6099800161318
 30
0.0
 11
426.4424994775751
 21
201.8599800161318
 31
0.0
  0
LINE
  5
519B
330
5195
100
AcDbEntity
  8
BEMASSUNG
440
 16777216
370
    -2
100
AcDbLine
 10
426.4424994775751
 20
180.3599800161317
 30
0.0
 11
426.4424994775751
 21
191.3599800161317
 31
0.0
  0
SOLID
  5
519C
330
5195
100
AcDbEntity
  8
BEMASSUNG
440
 16777216
100
AcDbTrace
 10
425.5674994775751
 20
175.1099800161317
 30
0.0
 11
427.3174994775751
 21
175.1099800161317
 31
0.0
 12
426.4424994775751
 22
180.3599800161317
 32
0.0
 13
426.4424994775751
 23
180.3599800161317
 33
0.0
  0
SOLID
  5
519D
330
5195
100
AcDbEntity
  8
BEMASSUNG
440
 16777216
100
AcDbTrace
 10
425.5674994775751
 20
196.6099800161318
 30
0.0
 11
427.3174994775751
 21
196.6099800161318
 31
0.0
 12
426.4424994775751
 22
191.3599800161317
 32
0.0
 13
426.4424994775751
 23
191.3599800161317
 33
0.0
  0
MTEXT
  5
519E
330
5195
100
AcDbEntity
  8
BEMASSUNG
 62
     3
440
 16777216
100
AcDbMText
 10
422.3174994775751
 20
185.8599800161318
 30
0.0
 40
5.25
 41
0.0
 46
0.0
 71
     5
 72
     1
  1
\A1;11
  7
NORM
 11
0.0000000000000001
 21
1.0
 31
0.0
 73
     1
 44
1.0
  0
POINT
  5
519F
330
5195
100
AcDbEntity
  8
DEFPOINTS
 62
     0
440
 16777216
100
AcDbPoint
 10
398.3657733475141
 20
180.3599800161317
 30
0.0
  0
POINT
  5
51A0
330
5195
100
AcDbEntity
  8
DEFPOINTS
 62
     0
440
 16777216
100
AcDbPoint
 10
398.3657733475141
 20
191.3599800161317
 30
0.0
  0
POINT
  5
51A1
330
5195
100
AcDbEntity
  8
DEFPOINTS
 62
     0
440
 16777216
100
AcDbPoint
 10
426.4424994775751
 20
191.3599800161317
 30
0.0
  0
ENDBLK
  5
51A2
330
5195
100
AcDbEntity
  8
0
100
AcDbBlockEnd
  0
BLOCK
  5
51A4
330
51A3
100
AcDbEntity
  8
0
100
AcDbBlockBegin
  2
*D7
 70
     1
 10
0.0
 20
0.0
 30
0.0
  3
*D7
  1

  0
LINE
  5
51A5
330
51A3
100
AcDbEntity
  8
BEMASSUNG
440
 16777216
370
    -2
100
AcDbLine
 10
398.3657733475141
 20
192.8599800161318
 30
0.0
 11
398.3657733475141
 21
211.4825504742849
 31
0.0
  0
LINE
  5
51A6
330
51A3
100
AcDbEntity
  8
BEMASSUNG
440
 16777216
370
    -2
100
AcDbLine
 10
387.3657733475141
 20
192.8599800161318
 30
0.0
 11
387.3657733475141
 21
211.4825504742849
 31
0.0
  0
LINE
  5
51A7
330
51A3
100
AcDbEntity
  8
BEMASSUNG
440
 16777216
370
    -2
100
AcDbLine
 10
403.6157733475141
 20
210.7325504742848
 30
0.0
 11
408.8657733475141
 21
210.7325504742848
 31
0.0
  0
LINE
  5
51A8
330
51A3
100
AcDbEntity
  8
BEMASSUNG
440
 16777216
370
    -2
100
AcDbLine
 10
382.1157733475142
 20
210.7325504742848
 30
0.0
 11
376.8657733475142
 21
210.7325504742848
 31
0.0
  0
LINE
  5
51A9
330
51A3
100
AcDbEntity
  8
BEMASSUNG
440
 16777216
370
    -2
100
AcDbLine
 10
398.3657733475141
 20
210.7325504742848
 30
0.0
 11
387.3657733475141
 21
210.7325504742848
 31
0.0
  0
SOLID
  5
51AA
330
51A3
100
AcDbEntity
  8
BEMASSUNG
440
 16777216
100
AcDbTrace
 10
403.6157733475141
 20
211.6075504742848
 30
0.0
 11
403.6157733475141
 21
209.8575504742848
 31
0.0
 12
398.3657733475141
 22
210.7325504742848
 32
0.0
 13
398.3657733475141
 23
210.7325504742848
 33
0.0
  0
SOLID
  5
51AB
330
51A3
100
AcDbEntity
  8
BEMASSUNG
440
 16777216
100
AcDbTrace
 10
382.1157733475142
 20
211.6075504742848
 30
0.0
 11
382.1157733475142
 21
209.8575504742848
 31
0.0
 12
387.3657733475141
 22
210.7325504742848
 32
0.0
 13
387.3657733475141
 23
210.7325504742848
 33
0.0
  0
MTEXT
  5
51AC
330
51A3
100
AcDbEntity
  8
BEMASSUNG
 62
     3
440
 16777216
100
AcDbMText
 10
392.8657733475142
 20
214.8575504742848
 30
0.0
 40
5.25
 41
0.0
 46
0.0
 71
     5
 72
     1
  1
\A1;11
  7
NORM
 73
     1
 44
1.0
  0
POINT
  5
51AD
330
51A3
100
AcDbEntity
  8
DEFPOINTS
 62
     0
440
 16777216
100
AcDbPoint
 10
398.3657733475141
 20
191.3599800161317
 30
0.0
  0
POINT
  5
51AE
330
51A3
100
AcDbEntity
  8
DEFPOINTS
 62
     0
440
 16777216
100
AcDbPoint
 10
387.3657733475141
 20
191.3599800161317
 30
0.0
  0
POINT
  5
51AF
330
51A3
100
AcDbEntity
  8
DEFPOINTS
 62
     0
440
 16777216
100
AcDbPoint
 10
387.3657733475141
 20
210.7325504742848
 30
0.0
  0
ENDBLK
  5
51B0
330
51A3
100
AcDbEntity
  8
0
100
AcDbBlockEnd
  0
BLOCK
  5
51B2
330
51B1
100
AcDbEntity
  8
0
100
AcDbBlockBegin
  2
*D8
 70
     1
 10
0.0
 20
0.0
 30
0.0
  3
*D8
  1

  0
LINE
  5
51B3
330
51B1
100
AcDbEntity
  8
BEMASSUNG
440
 16777216
370
    -2
100
AcDbLine
 10
401.865773347514
 20
175.3599800161317
 30
0.0
 11
401.865773347514
 21
154.805954739948
 31
0.0
  0
LINE
  5
51B4
330
51B1
100
AcDbEntity
  8
BEMASSUNG
440
 16777216
370
    -2
100
AcDbLine
 10
398.3657733475141
 20
178.8599800161317
 30
0.0
 11
398.3657733475141
 21
154.805954739948
 31
0.0
  0
LINE
  5
51B5
330
51B1
100
AcDbEntity
  8
BEMASSUNG
440
 16777216
370
    -2
100
AcDbLine
 10
407.115773347514
 20
155.555954739948
 30
0.0
 11
412.365773347514
 21
155.555954739948
 31
0.0
  0
LINE
  5
51B6
330
51B1
100
AcDbEntity
  8
BEMASSUNG
440
 16777216
370
    -2
100
AcDbLine
 10
393.115773347514
 20
155.555954739948
 30
0.0
 11
387.8657733475141
 21
155.555954739948
 31
0.0
  0
MTEXT
  5
51B7
330
51B1
100
AcDbEntity
  8
BEMASSUNG
 62
     3
440
 16777216
100
AcDbMText
 10
388.9078310755813
 20
161.5286454122465
 30
0.0
 40
5.25
 41
0.0
 46
0.0
 71
     5
 72
     1
  1
\A1;3.5
  7
NORM
 73
     1
 44
1.0
  0
LINE
  5
51B8
330
51B1
100
AcDbEntity
  8
BEMASSUNG
440
 16777216
370
    -2
100
AcDbLine
 10
401.865773347514
 20
155.555954739948
 30
0.0
 11
398.3657733475141
 21
155.555954739948
 31
0.0
  0
SOLID
  5
51B9
330
51B1
100
AcDbEntity
  8
BEMASSUNG
440
 16777216
100
AcDbTrace
 10
407.115773347514
 20
156.430954739948
 30
0.0
 11
407.115773347514
 21
154.680954739948
 31
0.0
 12
401.865773347514
 22
155.555954739948
 32
0.0
 13
401.865773347514
 23
155.555954739948
 33
0.0
  0
SOLID
  5
51BA
330
51B1
100
AcDbEntity
  8
BEMASSUNG
440
 16777216
100
AcDbTrace
 10
393.115773347514
 20
156.430954739948
 30
0.0
 11
393.115773347514
 21
154.680954739948
 31
0.0
 12
398.3657733475141
 22
155.555954739948
 32
0.0
 13
398.3657733475141
 23
155.555954739948
 33
0.0
  0
POINT
  5
51BB
330
51B1
100
AcDbEntity
  8
DEFPOINTS
 62
     0
440
 16777216
100
AcDbPoint
 10
401.865773347514
 20
176.8599800161317
 30
0.0
  0
POINT
  5
51BC
330
51B1
100
AcDbEntity
  8
DEFPOINTS
 62
     0
440
 16777216
100
AcDbPoint
 10
398.3657733475141
 20
180.3599800161317
 30
0.0
  0
POINT
  5
51BD
330
51B1
100
AcDbEntity
  8
DEFPOINTS
 62
     0
440
 16777216
100
AcDbPoint
 10
398.3657733475141
 20
155.555954739948
 30
0.0
  0
ENDBLK
  5
51BE
330
51B1
100
AcDbEntity
  8
0
100
AcDbBlockEnd
  0
BLOCK
  5
51C0
330
51BF
100
AcDbEntity
  8
0
100
AcDbBlockBegin
  2
*D9
 70
     1
 10
0.0
 20
0.0
 30
0.0
  3
*D9
  1

  0
LINE
  5
51C1
330
51BF
100
AcDbEntity
  8
BEMASSUNG
440
 16777216
370
    -2
100
AcDbLine
 10
403.365773347514
 20
115.3260947636439
 30
0.0
 11
425.4931726708391
 21
115.3260947636439
 31
0.0
  0
LINE
  5
51C2
330
51BF
100
AcDbEntity
  8
BEMASSUNG
440
 16777216
370
    -2
100
AcDbLine
 10
403.365773347514
 20
112.3260947636439
 30
0.0
 11
425.4931726708391
 21
112.3260947636439
 31
0.0
  0
LINE
  5
51C3
330
51BF
100
AcDbEntity
  8
BEMASSUNG
440
 16777216
370
    -2
100
AcDbLine
 10
424.743172670839
 20
120.5760947636439
 30
0.0
 11
424.743172670839
 21
125.8260947636439
 31
0.0
  0
LINE
  5
51C4
330
51BF
100
AcDbEntity
  8
BEMASSUNG
440
 16777216
370
    -2
100
AcDbLine
 10
424.743172670839
 20
107.0760947636439
 30
0.0
 11
424.743172670839
 21
101.8260947636439
 31
0.0
  0
MTEXT
  5
51C5
330
51BF
100
AcDbEntity
  8
BEMASSUNG
 62
     3
440
 16777216
100
AcDbMText
 10
420.2845743543893
 20
123.7100634680084
 30
0.0
 40
5.25
 41
0.0
 46
0.0
 71
     5
 72
     1
  1
\A1;3
  7
NORM
 11
0.0000000000000001
 21
1.0
 31
0.0
 73
     1
 44
1.0
  0
LINE
  5
51C6
330
51BF
100
AcDbEntity
  8
BEMASSUNG
440
 16777216
370
    -2
100
AcDbLine
 10
424.743172670839
 20
115.3260947636439
 30
0.0
 11
424.743172670839
 21
112.3260947636439
 31
0.0
  0
SOLID
  5
51C7
330
51BF
100
AcDbEntity
  8
BEMASSUNG
440
 16777216
100
AcDbTrace
 10
423.868172670839
 20
120.5760947636439
 30
0.0
 11
425.6181726708391
 21
120.5760947636439
 31
0.0
 12
424.743172670839
 22
115.3260947636439
 32
0.0
 13
424.743172670839
 23
115.3260947636439
 33
0.0
  0
SOLID
  5
51C8
330
51BF
100
AcDbEntity
  8
BEMASSUNG
440
 16777216
100
AcDbTrace
 10
423.868172670839
 20
107.0760947636439
 30
0.0
 11
425.6181726708391
 21
107.0760947636439
 31
0.0
 12
424.743172670839
 22
112.3260947636439
 32
0.0
 13
424.743172670839
 23
112.3260947636439
 33
0.0
  0
POINT
  5
51C9
330
51BF
100
AcDbEntity
  8
DEFPOINTS
 62
     0
440
 16777216
100
AcDbPoint
 10
401.8657733475141
 20
115.3260947636439
 30
0.0
  0
POINT
  5
51CA
330
51BF
100
AcDbEntity
  8
DEFPOINTS
 62
     0
440
 16777216
100
AcDbPoint
 10
401.8657733475141
 20
112.3260947636439
 30
0.0
  0
POINT
  5
51CB
330
51BF
100
AcDbEntity
  8
DEFPOINTS
 62
     0
440
 16777216
100
AcDbPoint
 10
424.743172670839
 20
112.3260947636439
 30
0.0
  0
ENDBLK
  5
51CC
330
51BF
100
AcDbEntity
  8
0
100
AcDbBlockEnd
  0
BLOCK
  5
51FF
330
51FE
100
AcDbEntity
  8
0
100
AcDbBlockBegin
  2
*D11
 70
     1
 10
0.0
 20
0.0
 30
0.0
  3
*D11
  1

  0
LINE
  5
5236
330
51FE
100
AcDbEntity
  8
BEMASSUNG
440
 16777216
370
    -2
100
AcDbLine
 10
43.24999959581993
 20
13.49999977664433
 30
0.0
 11
60.91880060269517
 21
13.49999977664432
 31
0.0
  0
LINE
  5
5237
330
51FE
100
AcDbEntity
  8
BEMASSUNG
440
 16777216
370
    -2
100
AcDbLine
 10
43.24999959581993
 20
10.49999977664433
 30
0.0
 11
60.91880060269517
 21
10.49999977664432
 31
0.0
  0
LINE
  5
5238
330
51FE
100
AcDbEntity
  8
BEMASSUNG
440
 16777216
370
    -2
100
AcDbLine
 10
60.16880060269517
 20
5.249999776644323
 30
0.0
 11
60.16880060269517
 21
-0.0000002233556762
 31
0.0
  0
LINE
  5
5239
330
51FE
100
AcDbEntity
  8
BEMASSUNG
440
 16777216
370
    -2
100
AcDbLine
 10
60.16880060269517
 20
18.74999977664432
 30
0.0
 11
60.16880060269517
 21
30.49999977664433
 31
0.0
  0
LINE
  5
523A
330
51FE
100
AcDbEntity
  8
BEMASSUNG
440
 16777216
370
    -2
100
AcDbLine
 10
60.16880060269517
 20
10.49999977664432
 30
0.0
 11
60.16880060269517
 21
13.49999977664432
 31
0.0
  0
SOLID
  5
523B
330
51FE
100
AcDbEntity
  8
BEMASSUNG
440
 16777216
100
AcDbTrace
 10
59.29380060269517
 20
5.249999776644323
 30
0.0
 11
61.04380060269517
 21
5.249999776644323
 31
0.0
 12
60.16880060269517
 22
10.49999977664432
 32
0.0
 13
60.16880060269517
 23
10.49999977664432
 33
0.0
  0
SOLID
  5
523C
330
51FE
100
AcDbEntity
  8
BEMASSUNG
440
 16777216
100
AcDbTrace
 10
59.29380060269518
 20
18.74999977664432
 30
0.0
 11
61.04380060269518
 21
18.74999977664432
 31
0.0
 12
60.16880060269517
 22
13.49999977664432
 32
0.0
 13
60.16880060269517
 23
13.49999977664432
 33
0.0
  0
MTEXT
  5
523D
330
51FE
100
AcDbEntity
  8
BEMASSUNG
 62
     3
440
 16777216
100
AcDbMText
 10
56.04380060269517
 20
27.24999977664433
 30
0.0
 40
5.25
 41
0.0
 46
0.0
 71
     5
 72
     1
  1
\A1;3
  7
NORM
 11
0.0000000000000001
 21
1.0
 31
0.0
 73
     1
 44
1.0
  0
POINT
  5
523E
330
51FE
100
AcDbEntity
  8
DEFPOINTS
 62
     0
440
 16777216
100
AcDbPoint
 10
41.74999959581993
 20
13.49999977664433
 30
0.0
  0
POINT
  5
523F
330
51FE
100
AcDbEntity
  8
DEFPOINTS
 62
     0
440
 16777216
100
AcDbPoint
 10
41.74999959581993
 20
10.49999977664433
 30
0.0
  0
POINT
  5
5240
330
51FE
100
AcDbEntity
  8
DEFPOINTS
 62
     0
440
 16777216
100
AcDbPoint
 10
60.16880060269517
 20
10.49999977664432
 30
0.0
  0
ENDBLK
  5
5200
330
51FE
100
AcDbEntity
  8
0
100
AcDbBlockEnd
  0
BLOCK
  5
520D
330
520C
100
AcDbEntity
  8
0
100
AcDbBlockBegin
  2
*D12
 70
     1
 10
0.0
 20
0.0
 30
0.0
  3
*D12
  1

  0
LINE
  5
5241
330
520C
100
AcDbEntity
  8
BEMASSUNG
440
 16777216
370
    -2
100
AcDbLine
 10
39.74999959581993
 20
78.53388502913213
 30
0.0
 11
67.07672572588098
 21
78.53388502913213
 31
0.0
  0
LINE
  5
5242
330
520C
100
AcDbEntity
  8
BEMASSUNG
440
 16777216
370
    -2
100
AcDbLine
 10
39.74999959581993
 20
89.53388502913213
 30
0.0
 11
67.07672572588098
 21
89.53388502913213
 31
0.0
  0
LINE
  5
5243
330
520C
100
AcDbEntity
  8
BEMASSUNG
440
 16777216
370
    -2
100
AcDbLine
 10
66.32672572588098
 20
73.28388502913213
 30
0.0
 11
66.32672572588098
 21
68.03388502913214
 31
0.0
  0
LINE
  5
5244
330
520C
100
AcDbEntity
  8
BEMASSUNG
440
 16777216
370
    -2
100
AcDbLine
 10
66.32672572588098
 20
94.78388502913213
 30
0.0
 11
66.32672572588099
 21
100.0338850291321
 31
0.0
  0
LINE
  5
5245
330
520C
100
AcDbEntity
  8
BEMASSUNG
440
 16777216
370
    -2
100
AcDbLine
 10
66.32672572588098
 20
78.53388502913213
 30
0.0
 11
66.32672572588098
 21
89.53388502913213
 31
0.0
  0
SOLID
  5
5246
330
520C
100
AcDbEntity
  8
BEMASSUNG
440
 16777216
100
AcDbTrace
 10
65.45172572588097
 20
73.28388502913213
 30
0.0
 11
67.20172572588097
 21
73.28388502913213
 31
0.0
 12
66.32672572588098
 22
78.53388502913213
 32
0.0
 13
66.32672572588098
 23
78.53388502913213
 33
0.0
  0
SOLID
  5
5247
330
520C
100
AcDbEntity
  8
BEMASSUNG
440
 16777216
100
AcDbTrace
 10
65.45172572588097
 20
94.78388502913213
 30
0.0
 11
67.20172572588097
 21
94.78388502913213
 31
0.0
 12
66.32672572588098
 22
89.53388502913213
 32
0.0
 13
66.32672572588098
 23
89.53388502913213
 33
0.0
  0
MTEXT
  5
5248
330
520C
100
AcDbEntity
  8
BEMASSUNG
 62
     3
440
 16777216
100
AcDbMText
 10
62.20172572588097
 20
84.03388502913214
 30
0.0
 40
5.25
 41
0.0
 46
0.0
 71
     5
 72
     1
  1
\A1;11
  7
NORM
 11
0.0000000000000001
 21
1.0
 31
0.0
 73
     1
 44
1.0
  0
POINT
  5
5249
330
520C
100
AcDbEntity
  8
DEFPOINTS
 62
     0
440
 16777216
100
AcDbPoint
 10
38.24999959581993
 20
78.53388502913213
 30
0.0
  0
POINT
  5
524A
330
520C
100
AcDbEntity
  8
DEFPOINTS
 62
     0
440
 16777216
100
AcDbPoint
 10
38.24999959581993
 20
89.53388502913213
 30
0.0
  0
POINT
  5
524B
330
520C
100
AcDbEntity
  8
DEFPOINTS
 62
     0
440
 16777216
100
AcDbPoint
 10
66.32672572588098
 20
89.53388502913213
 30
0.0
  0
ENDBLK
  5
520E
330
520C
100
AcDbEntity
  8
0
100
AcDbBlockEnd
  0
BLOCK
  5
521B
330
521A
100
AcDbEntity
  8
0
100
AcDbBlockBegin
  2
*D13
 70
     1
 10
0.0
 20
0.0
 30
0.0
  3
*D13
  1

  0
LINE
  5
524C
330
521A
100
AcDbEntity
  8
BEMASSUNG
440
 16777216
370
    -2
100
AcDbLine
 10
38.24999959581993
 20
91.03388502913213
 30
0.0
 11
38.24999959581993
 21
109.6564554872852
 31
0.0
  0
LINE
  5
524D
330
521A
100
AcDbEntity
  8
BEMASSUNG
440
 16777216
370
    -2
100
AcDbLine
 10
27.24999959581993
 20
91.03388502913213
 30
0.0
 11
27.24999959581993
 21
109.6564554872852
 31
0.0
  0
LINE
  5
524E
330
521A
100
AcDbEntity
  8
BEMASSUNG
440
 16777216
370
    -2
100
AcDbLine
 10
43.49999959581992
 20
108.9064554872852
 30
0.0
 11
48.74999959581993
 21
108.9064554872852
 31
0.0
  0
LINE
  5
524F
330
521A
100
AcDbEntity
  8
BEMASSUNG
440
 16777216
370
    -2
100
AcDbLine
 10
21.99999959581993
 20
108.9064554872852
 30
0.0
 11
16.74999959581993
 21
108.9064554872852
 31
0.0
  0
LINE
  5
5250
330
521A
100
AcDbEntity
  8
BEMASSUNG
440
 16777216
370
    -2
100
AcDbLine
 10
38.24999959581993
 20
108.9064554872852
 30
0.0
 11
27.24999959581993
 21
108.9064554872852
 31
0.0
  0
SOLID
  5
5251
330
521A
100
AcDbEntity
  8
BEMASSUNG
440
 16777216
100
AcDbTrace
 10
43.49999959581992
 20
109.7814554872852
 30
0.0
 11
43.49999959581992
 21
108.0314554872852
 31
0.0
 12
38.24999959581993
 22
108.9064554872852
 32
0.0
 13
38.24999959581993
 23
108.9064554872852
 33
0.0
  0
SOLID
  5
5252
330
521A
100
AcDbEntity
  8
BEMASSUNG
440
 16777216
100
AcDbTrace
 10
21.99999959581993
 20
109.7814554872852
 30
0.0
 11
21.99999959581993
 21
108.0314554872852
 31
0.0
 12
27.24999959581993
 22
108.9064554872852
 32
0.0
 13
27.24999959581993
 23
108.9064554872852
 33
0.0
  0
MTEXT
  5
5253
330
521A
100
AcDbEntity
  8
BEMASSUNG
 62
     3
440
 16777216
100
AcDbMText
 10
32.74999959581993
 20
113.0314554872852
 30
0.0
 40
5.25
 41
0.0
 46
0.0
 71
     5
 72
     1
  1
\A1;11
  7
NORM
 73
     1
 44
1.0
  0
POINT
  5
5254
330
521A
100
AcDbEntity
  8
DEFPOINTS
 62
     0
440
 16777216
100
AcDbPoint
 10
38.24999959581993
 20
89.53388502913213
 30
0.0
  0
POINT
  5
5255
330
521A
100
AcDbEntity
  8
DEFPOINTS
 62
     0
440
 16777216
100
AcDbPoint
 10
27.24999959581993
 20
89.53388502913213
 30
0.0
  0
POINT
  5
5256
330
521A
100
AcDbEntity
  8
DEFPOINTS
 62
     0
440
 16777216
100
AcDbPoint
 10
27.24999959581993
 20
108.9064554872852
 30
0.0
  0
ENDBLK
  5
521C
330
521A
100
AcDbEntity
  8
0
100
AcDbBlockEnd
  0
BLOCK
  5
5229
330
5228
100
AcDbEntity
  8
0
100
AcDbBlockBegin
  2
*D14
 70
     1
 10
0.0
 20
0.0
 30
0.0
  3
*D14
  1

  0
LINE
  5
5257
330
5228
100
AcDbEntity
  8
BEMASSUNG
440
 16777216
370
    -2
100
AcDbLine
 10
41.74999959581987
 20
73.53388502913213
 30
0.0
 11
41.74999959581987
 21
58.95255042524692
 31
0.0
  0
LINE
  5
5258
330
5228
100
AcDbEntity
  8
BEMASSUNG
440
 16777216
370
    -2
100
AcDbLine
 10
38.24999959581993
 20
77.03388502913213
 30
0.0
 11
38.24999959581993
 21
58.95255042524692
 31
0.0
  0
LINE
  5
5259
330
5228
100
AcDbEntity
  8
BEMASSUNG
440
 16777216
370
    -2
100
AcDbLine
 10
46.99999959581987
 20
59.70255042524692
 30
0.0
 11
52.24999959581987
 21
59.70255042524692
 31
0.0
  0
LINE
  5
525A
330
5228
100
AcDbEntity
  8
BEMASSUNG
440
 16777216
370
    -2
100
AcDbLine
 10
32.99999959581993
 20
59.70255042524692
 30
0.0
 11
13.74999959581993
 21
59.70255042524692
 31
0.0
  0
LINE
  5
525B
330
5228
100
AcDbEntity
  8
BEMASSUNG
440
 16777216
370
    -2
100
AcDbLine
 10
41.74999959581987
 20
59.70255042524692
 30
0.0
 11
38.24999959581993
 21
59.70255042524692
 31
0.0
  0
SOLID
  5
525C
330
5228
100
AcDbEntity
  8
BEMASSUNG
440
 16777216
100
AcDbTrace
 10
46.99999959581987
 20
60.57755042524693
 30
0.0
 11
46.99999959581987
 21
58.82755042524692
 31
0.0
 12
41.74999959581987
 22
59.70255042524692
 32
0.0
 13
41.74999959581987
 23
59.70255042524692
 33
0.0
  0
SOLID
  5
525D
330
5228
100
AcDbEntity
  8
BEMASSUNG
440
 16777216
100
AcDbTrace
 10
32.99999959581993
 20
60.57755042524693
 30
0.0
 11
32.99999959581993
 21
58.82755042524692
 31
0.0
 12
38.24999959581993
 22
59.70255042524692
 32
0.0
 13
38.24999959581993
 23
59.70255042524692
 33
0.0
  0
MTEXT
  5
525E
330
5228
100
AcDbEntity
  8
BEMASSUNG
 62
     3
440
 16777216
100
AcDbMText
 10
20.74999959581993
 20
63.82755042524692
 30
0.0
 40
5.25
 41
0.0
 46
0.0
 71
     5
 72
     1
  1
\A1;3.5
  7
NORM
 73
     1
 44
1.0
  0
POINT
  5
525F
330
5228
100
AcDbEntity
  8
DEFPOINTS
 62
     0
440
 16777216
100
AcDbPoint
 10
41.74999959581987
 20
75.03388502913214
 30
0.0
  0
POINT
  5
5260
330
5228
100
AcDbEntity
  8
DEFPOINTS
 62
     0
440
 16777216
100
AcDbPoint
 10
38.24999959581993
 20
78.53388502913213
 30
0.0
  0
POINT
  5
5261
330
5228
100
AcDbEntity
  8
DEFPOINTS
 62
     0
440
 16777216
100
AcDbPoint
 10
38.24999959581993
 20
59.70255042524692
 30
0.0
  0
ENDBLK
  5
522A
330
5228
100
AcDbEntity
  8
0
100
AcDbBlockEnd
  0
BLOCK
  5
52A1
330
52A0
100
AcDbEntity
  8
0
100
AcDbBlockBegin
  2
*D15
 70
     1
 10
0.0
 20
0.0
 30
0.0
  3
*D15
  1

  0
LINE
  5
52F0
330
52A0
100
AcDbEntity
  8
BEMASSUNG
440
 16777216
370
    -2
100
AcDbLine
 10
0.2499995958199861
 20
93.03388502913225
 30
0.0
 11
-14.83257479724352
 21
93.03388502913225
 31
0.0
  0
LINE
  5
52F1
330
52A0
100
AcDbEntity
  8
BEMASSUNG
440
 16777216
370
    -2
100
AcDbLine
 10
0.2499995958199861
 20
75.03388502913214
 30
0.0
 11
-14.83257479724352
 21
75.03388502913214
 31
0.0
  0
LINE
  5
52F2
330
52A0
100
AcDbEntity
  8
BEMASSUNG
440
 16777216
370
    -2
100
AcDbLine
 10
-14.08257479724352
 20
87.78388502913225
 30
0.0
 11
-14.08257479724352
 21
80.28388502913214
 31
0.0
  0
SOLID
  5
52F3
330
52A0
100
AcDbEntity
  8
BEMASSUNG
440
 16777216
100
AcDbTrace
 10
-14.95757479724352
 20
87.78388502913225
 30
0.0
 11
-13.20757479724352
 21
87.78388502913225
 31
0.0
 12
-14.08257479724352
 22
93.03388502913225
 32
0.0
 13
-14.08257479724352
 23
93.03388502913225
 33
0.0
  0
SOLID
  5
52F4
330
52A0
100
AcDbEntity
  8
BEMASSUNG
440
 16777216
100
AcDbTrace
 10
-14.95757479724352
 20
80.28388502913214
 30
0.0
 11
-13.20757479724352
 21
80.28388502913214
 31
0.0
 12
-14.08257479724353
 22
75.03388502913214
 32
0.0
 13
-14.08257479724353
 23
75.03388502913214
 33
0.0
  0
MTEXT
  5
52F5
330
52A0
100
AcDbEntity
  8
BEMASSUNG
 62
     3
440
 16777216
100
AcDbMText
 10
-18.20757479724354
 20
84.0338850291322
 30
0.0
 40
5.25
 41
0.0
 46
0.0
 71
     5
 72
     1
  1
\A1;18
  7
NORM
 11
0.0000000000000001
 21
1.0
 31
0.0
 73
     1
 44
1.0
  0
POINT
  5
52F6
330
52A0
100
AcDbEntity
  8
DEFPOINTS
 62
     0
440
 16777216
100
AcDbPoint
 10
1.749999595819986
 20
93.03388502913225
 30
0.0
  0
POINT
  5
52F7
330
52A0
100
AcDbEntity
  8
DEFPOINTS
 62
     0
440
 16777216
100
AcDbPoint
 10
1.749999595819986
 20
75.03388502913214
 30
0.0
  0
POINT
  5
52F8
330
52A0
100
AcDbEntity
  8
DEFPOINTS
 62
     0
440
 16777216
100
AcDbPoint
 10
-14.08257479724353
 20
75.03388502913214
 30
0.0
  0
ENDBLK
  5
52A2
330
52A0
100
AcDbEntity
  8
0
100
AcDbBlockEnd
  0
BLOCK
  5
52CA
330
52C9
100
AcDbEntity
  8
0
100
AcDbBlockBegin
  2
*D16
 70
     1
 10
0.0
 20
0.0
 30
0.0
  3
*D16
  1

  0
LINE
  5
52E7
330
52C9
100
AcDbEntity
  8
BEMASSUNG
440
 16777216
370
    -2
100
AcDbLine
 10
1.749999595819986
 20
94.53388502913226
 30
0.0
 11
1.749999595819988
 21
127.3462425447964
 31
0.0
  0
LINE
  5
52E8
330
52C9
100
AcDbEntity
  8
BEMASSUNG
440
 16777216
370
    -2
100
AcDbLine
 10
41.74999959581998
 20
94.53388502913199
 30
0.0
 11
41.74999959581998
 21
127.3462425447964
 31
0.0
  0
LINE
  5
52E9
330
52C9
100
AcDbEntity
  8
BEMASSUNG
440
 16777216
370
    -2
100
AcDbLine
 10
6.999999595819987
 20
126.5962425447964
 30
0.0
 11
36.49999959581999
 21
126.5962425447964
 31
0.0
  0
SOLID
  5
52EA
330
52C9
100
AcDbEntity
  8
BEMASSUNG
440
 16777216
100
AcDbTrace
 10
6.999999595819987
 20
127.4712425447964
 30
0.0
 11
6.999999595819987
 21
125.7212425447963
 31
0.0
 12
1.749999595819988
 22
126.5962425447964
 32
0.0
 13
1.749999595819988
 23
126.5962425447964
 33
0.0
  0
SOLID
  5
52EB
330
52C9
100
AcDbEntity
  8
BEMASSUNG
440
 16777216
100
AcDbTrace
 10
36.49999959581999
 20
127.4712425447964
 30
0.0
 11
36.49999959581999
 21
125.7212425447963
 31
0.0
 12
41.74999959581998
 22
126.5962425447964
 32
0.0
 13
41.74999959581998
 23
126.5962425447964
 33
0.0
  0
MTEXT
  5
52EC
330
52C9
100
AcDbEntity
  8
BEMASSUNG
 62
     3
440
 16777216
100
AcDbMText
 10
21.74999959581999
 20
130.7212425447964
 30
0.0
 40
5.25
 41
0.0
 46
0.0
 71
     5
 72
     1
  1
\A1;40
  7
NORM
 73
     1
 44
1.0
  0
POINT
  5
52ED
330
52C9
100
AcDbEntity
  8
DEFPOINTS
 62
     0
440
 16777216
100
AcDbPoint
 10
1.749999595819986
 20
93.03388502913225
 30
0.0
  0
POINT
  5
52EE
330
52C9
100
AcDbEntity
  8
DEFPOINTS
 62
     0
440
 16777216
100
AcDbPoint
 10
41.74999959581998
 20
93.03388502913199
 30
0.0
  0
POINT
  5
52EF
330
52C9
100
AcDbEntity
  8
DEFPOINTS
 62
     0
440
 16777216
100
AcDbPoint
 10
41.74999959581998
 20
126.5962425447964
 30
0.0
  0
ENDBLK
  5
52CB
330
52C9
100
AcDbEntity
  8
0
100
AcDbBlockEnd
  0
ENDSEC
  0
SECTION
  2
ENTITIES
  0
INSERT
  5
43DD
330
19
100
AcDbEntity
  8
ACA_VARSAVE
100
AcDbBlockReference
  2
ACA_SAVE_DONT_PURGE
 10
0.5
 20
-7.0
 30
0.0
  0
INSERT
  5
43DE
330
19
100
AcDbEntity
  8
ASHADE
 62
     4
100
AcDbBlockReference
  2
AVE_RENDER
 10
0.5
 20
-7.0
 30
0.0
1001
AVE_RENDER
1002
{
1070
     0
1000
Quick Opt
1070
     0
1070
     1
1070
     1
1070
     1
1070
     0
1070
     0
1070
     1
1002
}
  0
INSERT
  5
43DF
330
19
100
AcDbEntity
  8
ASHADE
 62
     3
100
AcDbBlockReference
  2
AVE_RENDER
 10
0.5
 20
-7.0
 30
0.0
1001
AVE_RENDER
1002
{
1070
     0
1000
Full Opt
1070
     0
1070
     1
1070
     1
1070
     1
1070
     0
1070
     0
1070
     0
1070
     1
1070
     1
1040
0.0001
1040
0.0001
1002
}
  0
INSERT
  5
43E0
330
19
100
AcDbEntity
  8
ASHADE
 62
     1
100
AcDbBlockReference
  2
AVE_RENDER
 10
0.5
 20
-7.0
 30
0.0
1001
AVE_RENDER
1002
{
1070
     2
1000
Pref
1070
    30
1070
    20
1070
     0
1070
     0
1000

1070
    10
1070
     0
1070
    30
1040
1.0
1070
     1
1040
0.3
1040
0.7
1040
0.0
1040
10.0
1010
-1.0
1020
-1.0
1030
-1.0
1040
0.3
1070
    49
1002
}
  0
DIMENSION
  5
51EB
330
19
100
AcDbEntity
  8
BEMASSUNG
100
AcDbDimension
280
     0
  2
*D11
 10
60.16880060269517
 20
10.49999977664432
 30
0.0
 11
60.16880060269517
 21
27.24999977664433
 31
0.0
 70
   160
 71
     5
 42
3.0
 73
     0
 74
     0
 75
     0
  3
PROSPEKT
100
AcDbAlignedDimension
 13
41.74999959581993
 23
13.49999977664433
 33
0.0
 14
41.74999959581993
 24
10.49999977664433
 34
0.0
 50
90.0
100
AcDbRotatedDimension
1001
ACAD_DSTYLE_DIMINSPECT
1070
   396
1000
100%
1070
   395
1000

1070
   394
1070
    33
1070
   393
1070
     0
  0
LINE
  5
51EC
330
19
100
AcDbEntity
  8
AVERDECKTE
100
AcDbLine
 10
38.24999959581993
 20
13.49999977664443
 30
0.0
 11
38.24999959581993
 21
10.49999977664443
 31
0.0
  0
LINE
  5
51ED
330
19
100
AcDbEntity
  8
AVERDECKTE
100
AcDbLine
 10
27.24999959581993
 20
13.49999977664443
 30
0.0
 11
27.24999959581993
 21
10.49999977664443
 31
0.0
  0
LINE
  5
51EE
330
19
100
AcDbEntity
  8
ACHSEN
100
AcDbLine
 10
20.74999959581999
 20
16.49999977664443
 30
0.0
 11
20.74999959581999
 21
7.499999776644429
 31
0.0
  0
LINE
  5
51EF
330
19
100
AcDbEntity
  8
ACHSEN
100
AcDbLine
 10
6.749999595819986
 20
16.49999977664443
 30
0.0
 11
6.749999595819986
 21
7.499999776644429
 31
0.0
  0
LWPOLYLINE
  5
51F0
330
19
100
AcDbEntity
  8
UMRISS05
100
AcDbPolyline
 90
        4
 70
     1
 43
0.0
 10
41.74999959581993
 20
13.49999977664433
 10
41.74999959581993
 20
10.49999977664433
 10
1.749999595819986
 20
10.49999977664443
 10
1.749999595819986
 20
13.49999977664443
  0
DIMENSION
  5
51F1
330
19
100
AcDbEntity
  8
BEMASSUNG
100
AcDbDimension
280
     0
  2
*D12
 10
66.32672572588098
 20
89.53388502913213
 30
0.0
 11
62.20172572588097
 21
84.03388502913214
 31
0.0
 70
    32
 71
     5
 42
11.0
 73
     0
 74
     0
 75
     0
  3
PROSPEKT
100
AcDbAlignedDimension
 13
38.24999959581993
 23
78.53388502913213
 33
0.0
 14
38.24999959581993
 24
89.53388502913213
 34
0.0
 50
90.0
100
AcDbRotatedDimension
1001
ACAD_DSTYLE_DIMINSPECT
1070
   396
1000
100%
1070
   395
1000

1070
   394
1070
    33
1070
   393
1070
     0
  0
DIMENSION
  5
51F2
330
19
100
AcDbEntity
  8
BEMASSUNG
100
AcDbDimension
280
     0
  2
*D13
 10
27.24999959581993
 20
108.9064554872852
 30
0.0
 11
32.74999959581993
 21
113.0314554872852
 31
0.0
 70
    32
 71
     5
 42
11.0
 73
     0
 74
     0
 75
     0
  3
PROSPEKT
100
AcDbAlignedDimension
 13
38.24999959581993
 23
89.53388502913213
 33
0.0
 14
27.24999959581993
 24
89.53388502913213
 34
0.0
100
AcDbRotatedDimension
1001
ACAD_DSTYLE_DIMINSPECT
1070
   396
1000
100%
1070
   395
1000

1070
   394
1070
    33
1070
   393
1070
     0
  0
DIMENSION
  5
51F3
330
19
100
AcDbEntity
  8
BEMASSUNG
100
AcDbDimension
280
     0
  2
*D14
 10
38.24999959581993
 20
59.70255042524692
 30
0.0
 11
20.74999959581993
 21
59.70255042524692
 31
0.0
 70
   160
 71
     5
 42
3.499999999999943
 73
     0
 74
     0
 75
     0
  3
PROSPEKT
100
AcDbAlignedDimension
 13
41.74999959581987
 23
75.03388502913214
 33
0.0
 14
38.24999959581993
 24
78.53388502913213
 34
0.0
100
AcDbRotatedDimension
1001
ACAD_DSTYLE_DIMINSPECT
1070
   396
1000
100%
1070
   395
1000

1070
   394
1070
    33
1070
   393
1070
     0
  0
LINE
  5
51F4
330
19
100
AcDbEntity
  8
AVERDECKTE
100
AcDbLine
 10
13.49999959581998
 20
88.03388502913213
 30
0.0
 11
-0.0000004041805255
 21
88.03388502913213
 31
0.0
  0
LINE
  5
51F5
330
19
100
AcDbEntity
  8
AVERDECKTE
100
AcDbLine
 10
6.749999595819986
 20
94.78388502913224
 30
0.0
 11
6.749999595819929
 21
81.28388502913214
 31
0.0
  0
CIRCLE
  5
51F6
330
19
100
AcDbEntity
  8
UMRISS05
100
AcDbCircle
 10
6.749999595819986
 20
88.03388502913213
 30
0.0
 40
3.75
  0
CIRCLE
  5
51F7
330
19
100
AcDbEntity
  8
UMRISS05
100
AcDbCircle
 10
6.749999595819986
 20
88.03388502913213
 30
0.0
 40
2.0
  0
LWPOLYLINE
  5
51F8
330
19
100
AcDbEntity
  8
UMRISS05
100
AcDbPolyline
 90
        4
 70
     1
 43
0.0
 10
27.24999959581993
 20
89.53388502913213
 10
38.24999959581993
 20
89.53388502913213
 10
38.24999959581993
 20
78.53388502913213
 10
27.24999959581993
 20
78.53388502913213
  0
LINE
  5
51F9
330
19
100
AcDbEntity
  8
AVERDECKTE
100
AcDbLine
 10
20.74999959581999
 20
86.78388502913225
 30
0.0
 11
20.74999959581999
 21
73.28388502913213
 31
0.0
  0
LINE
  5
51FA
330
19
100
AcDbEntity
  8
AVERDECKTE
100
AcDbLine
 10
27.49999959581999
 20
80.03388502913214
 30
0.0
 11
13.99999959581998
 21
80.03388502913214
 31
0.0
  0
CIRCLE
  5
51FB
330
19
100
AcDbEntity
  8
UMRISS05
100
AcDbCircle
 10
20.74999959581999
 20
80.03388502913214
 30
0.0
 40
2.0
  0
CIRCLE
  5
51FC
330
19
100
AcDbEntity
  8
UMRISS05
100
AcDbCircle
 10
20.74999959581999
 20
80.03388502913214
 30
0.0
 40
3.75
  0
LWPOLYLINE
  5
51FD
330
19
100
AcDbEntity
  8
UMRISS05
100
AcDbPolyline
 90
        4
 70
     1
 43
0.0
 10
41.74999959581998
 20
93.03388502913225
 10
41.74999959581987
 20
75.03388502913214
 10
1.749999595819986
 20
75.03388502913214
 10
1.749999595819986
 20
93.03388502913225
  0
DIMENSION
  5
529E
330
19
100
AcDbEntity
  8
BEMASSUNG
100
AcDbDimension
280
     0
  2
*D15
 10
-14.08257479724353
 20
75.03388502913214
 30
0.0
 11
-18.20757479724354
 21
84.0338850291322
 31
0.0
 70
    32
 71
     5
 42
18.00000000000011
 73
     0
 74
     0
 75
     0
  3
PROSPEKT
100
AcDbAlignedDimension
 13
1.749999595819986
 23
93.03388502913225
 33
0.0
 14
1.749999595819986
 24
75.03388502913214
 34
0.0
 50
90.0
100
AcDbRotatedDimension
1001
ACAD_DSTYLE_DIMINSPECT
1070
   396
1000
100%
1070
   395
1000

1070
   394
1070
    33
1070
   393
1070
     0
  0
DIMENSION
  5
52C8
330
19
100
AcDbEntity
  8
BEMASSUNG
100
AcDbDimension
280
     0
  2
*D16
 10
41.74999959581998
 20
126.5962425447964
 30
0.0
 11
21.74999959581999
 21
130.7212425447964
 31
0.0
 70
    32
 71
     5
 42
40.0
 73
     0
 74
     0
 75
     0
  3
PROSPEKT
100
AcDbAlignedDimension
 13
1.749999595819986
 23
93.03388502913225
 33
0.0
 14
41.74999959581998
 24
93.03388502913199
 34
0.0
100
AcDbRotatedDimension
1001
ACAD_DSTYLE_DIMINSPECT
1070
   396
1000
100%
1070
   395
1000

1070
   394
1070
    33
1070
   393
1070
     0
  0
VIEWPORT
  5
4C67
330
16
100
AcDbEntity
 67
     1
  8
0
100
AcDbViewport
 10
133.3499908447265
 20
101.5999970436096
 30
0.0
 40
393.1579018965371
 41
228.4221935424805
 68
     1
 69
     1
 12
133.3499908447265
 22
101.5999970436096
 13
0.0
 23
0.0
 14
10.0
 24
10.0
 15
10.0
 25
10.0
 16
0.0
 26
0.0
 36
1.0
 17
0.0
 27
0.0
 37
0.0
 42
50.0
 43
0.0
 44
0.0
 45
228.4221935424805
 50
0.0
 51
0.0
 72
  5000
 90
    32800
  1

281
     0
 71
     1
 74
     0
110
0.0
120
0.0
130
0.0
111
1.0
121
0.0
131
0.0
112
0.0
122
1.0
132
0.0
 79
     0
146
0.0
170
     0
 61
     5
348
4FB4
292
     1
282
     1
141
0.0
142
0.0
 63
   250
421
  3355443
1001
GENIUS_GENSCREG_15
1000
PF
1040
1.0
1000
DF
1040
1.0
1000
MIN
1011
-63.22896010354196
1021
-12.6110997276306
1031
0.0
1000
MAX
1011
329.9289417929951
1021
215.8110938148499
1031
0.0
1000
FLAGS
1070
     4
1001
GENIUS_GENOBJ-N-SDF_13
1002
{
1000
OWNER
1000
GEN
1002
}
1001
GENIUS_GENODEF_13
1002
{
1000
HIER
1070
     0
1002
}
1002
{
1000
MANEDIT
1070
     0
1002
}
1002
{
1000
NOSEL
1070
     0
1002
}
1002
{
1000
BEHIND
1070
     0
1002
}
1002
{
1000
OTHER
1070
     0
1002
}
1002
{
1000
REACTOR
1002
}
  0
VIEWPORT
  5
4C69
330
16
100
AcDbEntity
 67
     1
  8
UMRISS07
100
AcDbViewport
 10
133.3499939441681
 20
101.5999939441681
 30
0.0
 40
213.3599903106689
 41
162.5599903106689
 68
     2
 69
     2
 12
-14.74378684114839
 22
137.4819361773036
 13
0.0
 23
0.0
 14
10.0
 24
10.0
 15
10.0
 25
10.0
 16
0.0
 26
0.0
 36
1.0
 17
0.0
 27
0.0
 37
0.0
 42
50.0
 43
0.0
 44
0.0
 45
40.29427779839482
 50
0.0
 51
0.0
 72
  5000
331
65
 90
    33280
  1

281
     0
 71
     1
 74
     0
110
0.0
120
0.0
130
0.0
111
1.0
121
0.0
131
0.0
112
0.0
122
1.0
132
0.0
 79
     0
146
0.0
170
     0
 61
     5
348
4FB4
292
     1
282
     1
141
0.0
142
0.0
 63
   250
421
  3355443
1001
GENIUS_GENSCREG_15
1000
PF
1040
0.0
1000
DF
1040
0.0
1000
MIN
1011
26.66999878883363
1021
20.31999878883363
1031
0.0
1000
MAX
1011
240.0299890995026
1021
182.8799890995025
1031
0.0
1000
FLAGS
1070
     4
1001
GENIUS_GENODEF_13
1002
{
1000
HIER
1070
     0
1002
}
1002
{
1000
MANEDIT
1070
     0
1002
}
1002
{
1000
NOSEL
1070
     0
1002
}
1002
{
1000
BEHIND
1070
     0
1002
}
1002
{
1000
OTHER
1070
     0
1002
}
1002
{
1000
REACTOR
1002
}
1001
GENIUS_GENOBJ-N-SDF_13
1002
{
1000
OWNER
1000
GEN
1002
}
  0
ENDSEC
  0
SECTION
  2
OBJECTS
  0
DICTIONARY
  5
C
330
0
100
AcDbDictionary
281
     1
  3
ACAD_CIP_PREVIOUS_PRODUCT_INFO
350
5171
  3
ACAD_COLOR
350
4E6C
  3
ACAD_DETAILVIEWSTYLE
350
5157
  3
ACAD_FIELDLIST
350
5186
  3
ACAD_GROUP
350
D
  3
ACAD_LAYOUT
350
3F25
  3
ACAD_MATERIAL
350
4E6B
  3
ACAD_MLEADERSTYLE
350
4FD1
  3
ACAD_MLINESTYLE
350
E
  3
ACAD_PLOTSETTINGS
350
3F26
  3
ACAD_PLOTSTYLENAME
350
3F23
  3
ACAD_SCALELIST
350
4FBF
  3
ACAD_SECTIONVIEWSTYLE
350
5155
  3
ACAD_TABLESTYLE
350
4E6D
  3
ACAD_VISUALSTYLE
350
4FAE
  3
ACDB_RECOMPOSE_DATA
350
5374
  3
AcDbVariableDictionary
350
3F39
  3
AcmDictionary
350
4D05
  3
AMG
350
4CEB
  3
AMGSNAPSETTINGS
350
4D45
  3
CADIWARE
350
66
  0
DICTIONARY
  5
50F2
330
2
100
AcDbDictionary
280
     1
281
     1
  3
ACAD_LAYERSTATES
360
5364
  3
AMLAYER_GROUPCOLORS
360
50F3
  0
DICTIONARY
  5
5337
330
F
100
AcDbDictionary
280
     1
281
     1
  3
ADSK_XREC_LAYER_RECONCILED
360
5338
  0
DICTIONARY
  5
5339
330
4C
100
AcDbDictionary
280
     1
281
     1
  3
ADSK_XREC_LAYER_RECONCILED
360
533A
  0
DICTIONARY
  5
533B
330
4D
100
AcDbDictionary
280
     1
281
     1
  3
ADSK_XREC_LAYER_RECONCILED
360
533C
  0
DICTIONARY
  5
533D
330
4E
100
AcDbDictionary
280
     1
281
     1
  3
ADSK_XREC_LAYER_RECONCILED
360
533E
  0
DICTIONARY
  5
533F
330
4F
100
AcDbDictionary
280
     1
281
     1
  3
ADSK_XREC_LAYER_RECONCILED
360
5340
  0
DICTIONARY
  5
5341
330
50
100
AcDbDictionary
280
     1
281
     1
  3
ADSK_XREC_LAYER_RECONCILED
360
5342
  0
DICTIONARY
  5
5343
330
51
100
AcDbDictionary
280
     1
281
     1
  3
ADSK_XREC_LAYER_RECONCILED
360
5344
  0
DICTIONARY
  5
5345
330
52
100
AcDbDictionary
280
     1
281
     1
  3
ADSK_XREC_LAYER_RECONCILED
360
5346
  0
DICTIONARY
  5
5347
330
53
100
AcDbDictionary
280
     1
281
     1
  3
ADSK_XREC_LAYER_RECONCILED
360
5348
  0
DICTIONARY
  5
5349
330
54
100
AcDbDictionary
280
     1
281
     1
  3
ADSK_XREC_LAYER_RECONCILED
360
534A
  0
DICTIONARY
  5
534B
330
55
100
AcDbDictionary
280
     1
281
     1
  3
ADSK_XREC_LAYER_RECONCILED
360
534C
  0
DICTIONARY
  5
534D
330
56
100
AcDbDictionary
280
     1
281
     1
  3
ADSK_XREC_LAYER_RECONCILED
360
534E
  0
DICTIONARY
  5
534F
330
61
100
AcDbDictionary
280
     1
281
     1
  3
ADSK_XREC_LAYER_RECONCILED
360
5350
  0
DICTIONARY
  5
5351
330
65
100
AcDbDictionary
280
     1
281
     1
  3
ADSK_XREC_LAYER_RECONCILED
360
5352
  0
DICTIONARY
  5
5353
330
65C
100
AcDbDictionary
280
     1
281
     1
  3
ADSK_XREC_LAYER_RECONCILED
360
5354
  0
DICTIONARY
  5
5355
330
3F61
100
AcDbDictionary
280
     1
281
     1
  3
ADSK_XREC_LAYER_RECONCILED
360
5356
  0
DICTIONARY
  5
5357
330
3F62
100
AcDbDictionary
280
     1
281
     1
  3
ADSK_XREC_LAYER_RECONCILED
360
5358
  0
DICTIONARY
  5
5359
330
3F63
100
AcDbDictionary
280
     1
281
     1
  3
ADSK_XREC_LAYER_RECONCILED
360
535A
  0
DICTIONARY
  5
535B
330
3F6C
100
AcDbDictionary
280
     1
281
     1
  3
ADSK_XREC_LAYER_RECONCILED
360
535C
  0
DICTIONARY
  5
535D
330
479A
100
AcDbDictionary
280
     1
281
     1
  3
ADSK_XREC_LAYER_RECONCILED
360
535E
  0
DICTIONARY
  5
535F
330
5296
100
AcDbDictionary
280
     1
281
     1
  3
ADSK_XREC_LAYER_RECONCILED
360
5360
  0
DICTIONARY
  5
4D4C
330
19
100
AcDbDictionary
280
     1
281
     1
  0
XRECORD
  5
5171
102
{ACAD_REACTORS
330
C
102
}
330
C
100
AcDbXrecord
280
     1
300
AMECH_PP
300
2014
300
PDSU_F_S
  0
DICTIONARY
  5
4E6C
102
{ACAD_REACTORS
330
C
102
}
330
C
100
AcDbDictionary
281
     1
  0
DICTIONARY
  5
5157
102
{ACAD_REACTORS
330
C
102
}
330
C
100
AcDbDictionary
281
     1
  3
Imperial24
350
51D1
  3
Metric50
350
5158
  0
FIELDLIST
  5
5186
102
{ACAD_REACTORS
330
C
102
}
330
C
100
AcDbIdSet
 90
        6
330
5184
330
5185
330
5187
330
518B
330
518C
330
518D
100
AcDbFieldList
  0
DICTIONARY
  5
D
102
{ACAD_REACTORS
330
C
102
}
330
C
100
AcDbDictionary
281
     1
  0
DICTIONARY
  5
3F25
102
{ACAD_REACTORS
330
C
102
}
330
C
100
AcDbDictionary
281
     1
  3
Layout1
350
3F28
  3
Model
350
3F27
  0
DICTIONARY
  5
4E6B
102
{ACAD_REACTORS
330
C
102
}
330
C
100
AcDbDictionary
281
     1
  3
ByBlock
350
4F9E
  3
ByLayer
350
4F96
  3
Global
350
4FA6
  0
DICTIONARY
  5
4FD1
102
{ACAD_REACTORS
330
C
102
}
330
C
100
AcDbDictionary
281
     1
  3
Standard
350
4FD2
  0
DICTIONARY
  5
E
102
{ACAD_REACTORS
330
C
102
}
330
C
100
AcDbDictionary
281
     1
  3
STANDARD
350
1C
  0
DICTIONARY
  5
3F26
102
{ACAD_REACTORS
330
C
102
}
330
C
100
AcDbDictionary
281
     1
  3
A3 hoch
350
4E28
  3
A3 quer
350
4E27
  3
A4 hoch
350
4E29
  0
ACDBDICTIONARYWDFLT
  5
3F23
102
{ACAD_REACTORS
330
C
102
}
330
C
100
AcDbDictionary
281
     1
  3
Normal
350
3F24
100
AcDbDictionaryWithDefault
340
3F24
  0
DICTIONARY
  5
4FBF
102
{ACAD_REACTORS
330
C
102
}
330
C
100
AcDbDictionary
281
     1
  3
A0
350
4FC0
  3
A1
350
4FC1
  3
A2
350
4FC2
  3
A3
350
4FC3
  3
A4
350
4FC4
  3
A5
350
4FC5
  3
A6
350
4FC6
  3
A7
350
4FC7
  3
A8
350
4FC8
  3
A9
350
4FC9
  3
B0
350
4FCA
  3
B1
350
4FCB
  3
B2
350
4FCC
  3
B3
350
4FCD
  3
B4
350
4FCE
  3
B5
350
4FCF
  3
B6
350
4FD0
  0
DICTIONARY
  5
5155
102
{ACAD_REACTORS
330
C
102
}
330
C
100
AcDbDictionary
281
     1
  3
Imperial24
350
51D0
  3
Metric50
350
5156
  0
DICTIONARY
  5
4E6D
102
{ACAD_REACTORS
330
C
102
}
330
C
100
AcDbDictionary
281
     1
  3
Standard
350
4E6E
  0
DICTIONARY
  5
4FAE
102
{ACAD_REACTORS
330
C
102
}
330
C
100
AcDbDictionary
281
     1
  3
2dWireframe
350
4FB4
  3
3D Hidden
350
4FB6
  3
3dWireframe
350
4FB5
  3
Basic
350
4FB3
  3
Brighten
350
4FBA
  3
ColorChange
350
4FBE
  3
Conceptual
350
4FB7
  3
Dim
350
4FB9
  3
EdgeColorOff
350
509A
  3
Facepattern
350
4FBD
  3
Flat
350
4FAF
  3
FlatWithEdges
350
4FB0
  3
Gouraud
350
4FB1
  3
GouraudWithEdges
350
4FB2
  3
Hidden
350
5092
  3
JitterOff
350
5098
  3
Linepattern
350
4FBC
  3
OverhangOff
350
5099
  3
Realistic
350
4FB8
  3
Shaded
350
5097
  3
Shaded with edges
350
5096
  3
Shades of Gray
350
5093
  3
Sketchy
350
5094
  3
Thicken
350
4FBB
  3
Wireframe
350
5091
  3
X-Ray
350
5095
  0
XRECORD
  5
5374
102
{ACAD_REACTORS
330
C
102
}
330
C
100
AcDbXrecord
280
     1
 90
        1
330
4E6E
330
5156
330
5158
330
51D0
330
51D1
  0
DICTIONARY
  5
3F39
102
{ACAD_REACTORS
330
C
102
}
330
C
100
AcDbDictionary
281
     1
  3
CANNOSCALE
350
5005
  3
CMLEADERSTYLE
350
5003
  3
CTABLESTYLE
350
4EDE
  3
CVIEWDETAILSTYLE
350
5369
  3
CVIEWSECTIONSTYLE
350
536A
  3
DIMASSOC
350
3F3A
  3
INDEXCTL
350
4D6C
  3
LAYEREVAL
350
5007
  3
LAYERNOTIFY
350
5008
  3
LIGHTINGUNITS
350
5006
  3
MSLTSCALE
350
5004
  0
DICTIONARY
  5
4D05
102
{ACAD_REACTORS
330
C
102
}
330
C
100
AcDbDictionary
281
     1
  3
AcmStdDictionary
350
4D0B
  3
AMDTSECTSYM_ARROWCOLOR
350
4E83
  0
DICTIONARY
  5
4CEB
102
{ACAD_REACTORS
330
C
102
}
330
C
100
AcDbDictionary
281
     1
  0
DICTIONARY
  5
4D45
102
{ACAD_REACTORS
330
C
102
}
330
C
100
AcDbDictionary
281
     1
  0
DICTIONARY
  5
66
102
{ACAD_REACTORS
330
C
102
}
330
C
100
AcDbDictionary
281
     1
  3
CADIMENU_14S
350
67
  0
DICTIONARY
  5
5364
102
{ACAD_REACTORS
330
50F2
102
}
330
50F2
100
AcDbDictionary
281
     1
  0
DICTIONARY
  5
50F3
102
{ACAD_REACTORS
330
50F2
102
}
330
50F2
100
AcDbDictionary
280
     1
281
     1
  0
XRECORD
  5
5338
102
{ACAD_REACTORS
330
5337
102
}
330
5337
100
AcDbXrecord
280
     1
290
     1
  0
XRECORD
  5
533A
102
{ACAD_REACTORS
330
5339
102
}
330
5339
100
AcDbXrecord
280
     1
290
     1
  0
XRECORD
  5
533C
102
{ACAD_REACTORS
330
533B
102
}
330
533B
100
AcDbXrecord
280
     1
290
     1
  0
XRECORD
  5
533E
102
{ACAD_REACTORS
330
533D
102
}
330
533D
100
AcDbXrecord
280
     1
290
     1
  0
XRECORD
  5
5340
102
{ACAD_REACTORS
330
533F
102
}
330
533F
100
AcDbXrecord
280
     1
290
     1
  0
XRECORD
  5
5342
102
{ACAD_REACTORS
330
5341
102
}
330
5341
100
AcDbXrecord
280
     1
290
     1
  0
XRECORD
  5
5344
102
{ACAD_REACTORS
330
5343
102
}
330
5343
100
AcDbXrecord
280
     1
290
     1
  0
XRECORD
  5
5346
102
{ACAD_REACTORS
330
5345
102
}
330
5345
100
AcDbXrecord
280
     1
290
     1
  0
XRECORD
  5
5348
102
{ACAD_REACTORS
330
5347
102
}
330
5347
100
AcDbXrecord
280
     1
290
     1
  0
XRECORD
  5
534A
102
{ACAD_REACTORS
330
5349
102
}
330
5349
100
AcDbXrecord
280
     1
290
     1
  0
XRECORD
  5
534C
102
{ACAD_REACTORS
330
534B
102
}
330
534B
100
AcDbXrecord
280
     1
290
     1
  0
XRECORD
  5
534E
102
{ACAD_REACTORS
330
534D
102
}
330
534D
100
AcDbXrecord
280
     1
290
     1
  0
XRECORD
  5
5350
102
{ACAD_REACTORS
330
534F
102
}
330
534F
100
AcDbXrecord
280
     1
290
     1
  0
XRECORD
  5
5352
102
{ACAD_REACTORS
330
5351
102
}
330
5351
100
AcDbXrecord
280
     1
290
     1
  0
XRECORD
  5
5354
102
{ACAD_REACTORS
330
5353
102
}
330
5353
100
AcDbXrecord
280
     1
290
     1
  0
XRECORD
  5
5356
102
{ACAD_REACTORS
330
5355
102
}
330
5355
100
AcDbXrecord
280
     1
290
     1
  0
XRECORD
  5
5358
102
{ACAD_REACTORS
330
5357
102
}
330
5357
100
AcDbXrecord
280
     1
290
     1
  0
XRECORD
  5
535A
102
{ACAD_REACTORS
330
5359
102
}
330
5359
100
AcDbXrecord
280
     1
290
     1
  0
XRECORD
  5
535C
102
{ACAD_REACTORS
330
535B
102
}
330
535B
100
AcDbXrecord
280
     1
290
     1
  0
XRECORD
  5
535E
102
{ACAD_REACTORS
330
535D
102
}
330
535D
100
AcDbXrecord
280
     1
290
     1
  0
XRECORD
  5
5360
102
{ACAD_REACTORS
330
535F
102
}
330
535F
100
AcDbXrecord
280
     1
290
     1
  0
ACDBDETAILVIEWSTYLE
  5
51D1
102
{ACAD_XDICTIONARY
360
5372
102
}
102
{ACAD_REACTORS
330
5157
330
51E9
102
}
330
5157
100
AcDbModelDocViewStyle
 70
     0
  3
Imperial24
290
     0
100
AcDbDetailViewStyle
 70
     0
 71
     0
 90
        3
 71
     1
340
10
 62
   256
 40
0.24
340
0
 62
   256
 40
0.24
300

 40
0.36
280
     3
 71
     2
340
15
 90
       25
 62
   256
 71
     3
340
10
 62
   256
 40
0.24
 90
        1
 40
0.75
 90
        1
300
%<\AcVar ViewType \f "%tc1">% %<\AcVar ViewDetailId>%\PVARIA %<\AcVar ViewScale \f "%sn">%
 71
     4
340
15
 90
       25
 62
   256
340
15
 90
       25
 62
   256
280
     0
  0
ACDBDETAILVIEWSTYLE
  5
5158
102
{ACAD_XDICTIONARY
360
536E
102
}
102
{ACAD_REACTORS
330
5157
330
517C
102
}
330
5157
100
AcDbModelDocViewStyle
 70
     0
  3
Metric50
290
     0
100
AcDbDetailViewStyle
 70
     0
 71
     0
 90
        3
 71
     1
340
10
 62
   256
 40
5.0
340
0
 62
   256
 40
5.0
300

 40
0.0
280
     1
 71
     2
340
15
 90
       25
 62
   256
 71
     3
340
10
 62
   256
 40
5.0
 90
        0
 40
15.0
 90
        1
300
%<\AcVar ViewDetailId>% (%<\AcVar ViewScale \f "%sn">%)
 71
     4
340
15
 90
       25
 62
   256
340
15
 90
       25
 62
   256
280
     0
  0
LAYOUT
  5
3F28
102
{ACAD_REACTORS
330
3F25
102
}
330
3F25
100
AcDbPlotSettings
  1

  2
none_device
  4
Letter_(8.50_x_11.00_Inches)
  6

 40
6.349999904632568
 41
6.349999904632568
 42
6.350006103515625
 43
6.350006103515625
 44
215.8999938964844
 45
279.3999938964844
 46
0.0
 47
0.0
 48
0.0
 49
0.0
140
0.0
141
0.0
142
1.0
143
1.0
 70
   688
 72
     1
 73
     1
 74
     5
  7
monochrome.ctb
 75
    16
147
1.0
 76
     0
 77
     2
 78
   300
148
0.0
149
0.0
100
AcDbLayout
  1
Layout1
 70
     1
 71
     1
 10
-6.350006103515625
 20
-6.349999904632568
 11
273.0499877929688
 21
209.5499939918518
 12
0.0
 22
0.0
 32
0.0
 14
26.66999878883363
 24
20.31999878883363
 34
0.0
 15
240.0299890995026
 25
182.8799890995025
 35
0.0
146
0.0
 13
0.0
 23
0.0
 33
0.0
 16
1.0
 26
0.0
 36
0.0
 17
0.0
 27
1.0
 37
0.0
 76
     0
330
16
331
4C67
  0
LAYOUT
  5
3F27
102
{ACAD_REACTORS
330
3F25
102
}
330
3F25
100
AcDbPlotSettings
  1
A3 quer
  2
A3quer-MSL.pc3
  4
A3
  6

 40
6.085416793823242
 41
6.12772798538208
 42
5.662078857421875
 43
5.53509521484375
 44
296.9683227539062
 45
419.9889831542968
 46
4.5
 47
2.5
 48
0.0
 49
0.0
140
0.0
141
0.0
142
1.0
143
1.0
 70
 11952
 72
     1
 73
     1
 74
     1
  7
A3 hoch.ctb
 75
    16
147
1.0
 76
     0
 77
     2
 78
   300
148
0.0160923307578855
149
0.4351688123455233
100
AcDbLayout
  1
Model
 70
     1
 71
     0
 10
0.0
 20
0.0
 11
12.0
 21
9.0
 12
0.0
 22
0.0
 32
0.0
 14
0.0
 24
0.0
 34
0.0
 15
0.0
 25
0.0
 35
0.0
146
0.0
 13
0.0
 23
0.0
 33
0.0
 16
1.0
 26
0.0
 36
0.0
 17
0.0
 27
1.0
 37
0.0
 76
     0
330
19
331
4F94
  0
MATERIAL
  5
4F9E
102
{ACAD_XDICTIONARY
360
4F9F
102
}
102
{ACAD_REACTORS
330
4E6B
102
}
330
4E6B
100
AcDbMaterial
  1
ByBlock
 72
     0
 43
0.0208333333333333
 43
0.0
 43
0.0
 43
0.0
 43
0.0
 43
0.0208333333333333
 43
0.0
 43
0.0
 43
0.0
 43
0.0
 43
1.0
 43
0.0
 43
0.0
 43
0.0
 43
0.0
 43
1.0
 77
     0
 47
0.0208333333333333
 47
0.0
 47
0.0
 47
0.0
 47
0.0
 47
0.0208333333333333
 47
0.0
 47
0.0
 47
0.0
 47
0.0
 47
1.0
 47
0.0
 47
0.0
 47
0.0
 47
0.0
 47
1.0
171
     0
 49
0.0208333333333333
 49
0.0
 49
0.0
 49
0.0
 49
0.0
 49
0.0208333333333333
 49
0.0
 49
0.0
 49
0.0
 49
0.0
 49
1.0
 49
0.0
 49
0.0
 49
0.0
 49
0.0
 49
1.0
175
     0
142
0.0208333333333333
142
0.0
142
0.0
142
0.0
142
0.0
142
0.0208333333333333
142
0.0
142
0.0
142
0.0
142
0.0
142
1.0
142
0.0
142
0.0
142
0.0
142
0.0
142
1.0
179
     0
144
0.0208333333333333
144
0.0
144
0.0
144
0.0
144
0.0
144
0.0208333333333333
144
0.0
144
0.0
144
0.0
144
0.0
144
1.0
144
0.0
144
0.0
144
0.0
144
0.0
144
1.0
147
0.0208333333333333
147
0.0
147
0.0
147
0.0
147
0.0
147
0.0208333333333333
147
0.0
147
0.0
147
0.0
147
0.0
147
1.0
147
0.0
147
0.0
147
0.0
147
0.0
147
1.0
  0
MATERIAL
  5
4F96
102
{ACAD_XDICTIONARY
360
4F97
102
}
102
{ACAD_REACTORS
330
4E6B
102
}
330
4E6B
100
AcDbMaterial
  1
ByLayer
 72
     0
 43
0.0208333333333333
 43
0.0
 43
0.0
 43
0.0
 43
0.0
 43
0.0208333333333333
 43
0.0
 43
0.0
 43
0.0
 43
0.0
 43
1.0
 43
0.0
 43
0.0
 43
0.0
 43
0.0
 43
1.0
 77
     0
 47
0.0208333333333333
 47
0.0
 47
0.0
 47
0.0
 47
0.0
 47
0.0208333333333333
 47
0.0
 47
0.0
 47
0.0
 47
0.0
 47
1.0
 47
0.0
 47
0.0
 47
0.0
 47
0.0
 47
1.0
171
     0
 49
0.0208333333333333
 49
0.0
 49
0.0
 49
0.0
 49
0.0
 49
0.0208333333333333
 49
0.0
 49
0.0
 49
0.0
 49
0.0
 49
1.0
 49
0.0
 49
0.0
 49
0.0
 49
0.0
 49
1.0
175
     0
142
0.0208333333333333
142
0.0
142
0.0
142
0.0
142
0.0
142
0.0208333333333333
142
0.0
142
0.0
142
0.0
142
0.0
142
1.0
142
0.0
142
0.0
142
0.0
142
0.0
142
1.0
179
     0
144
0.0208333333333333
144
0.0
144
0.0
144
0.0
144
0.0
144
0.0208333333333333
144
0.0
144
0.0
144
0.0
144
0.0
144
1.0
144
0.0
144
0.0
144
0.0
144
0.0
144
1.0
147
0.0208333333333333
147
0.0
147
0.0
147
0.0
147
0.0
147
0.0208333333333333
147
0.0
147
0.0
147
0.0
147
0.0
147
1.0
147
0.0
147
0.0
147
0.0
147
0.0
147
1.0
  0
MATERIAL
  5
4FA6
102
{ACAD_XDICTIONARY
360
4FA7
102
}
102
{ACAD_REACTORS
330
4E6B
102
}
330
4E6B
100
AcDbMaterial
  1
Global
 72
     0
 43
0.0208333333333333
 43
0.0
 43
0.0
 43
0.0
 43
0.0
 43
0.0208333333333333
 43
0.0
 43
0.0
 43
0.0
 43
0.0
 43
1.0
 43
0.0
 43
0.0
 43
0.0
 43
0.0
 43
1.0
 77
     0
 47
0.0208333333333333
 47
0.0
 47
0.0
 47
0.0
 47
0.0
 47
0.0208333333333333
 47
0.0
 47
0.0
 47
0.0
 47
0.0
 47
1.0
 47
0.0
 47
0.0
 47
0.0
 47
0.0
 47
1.0
171
     0
 49
0.0208333333333333
 49
0.0
 49
0.0
 49
0.0
 49
0.0
 49
0.0208333333333333
 49
0.0
 49
0.0
 49
0.0
 49
0.0
 49
1.0
 49
0.0
 49
0.0
 49
0.0
 49
0.0
 49
1.0
175
     0
142
0.0208333333333333
142
0.0
142
0.0
142
0.0
142
0.0
142
0.0208333333333333
142
0.0
142
0.0
142
0.0
142
0.0
142
1.0
142
0.0
142
0.0
142
0.0
142
0.0
142
1.0
179
     0
144
0.0208333333333333
144
0.0
144
0.0
144
0.0
144
0.0
144
0.0208333333333333
144
0.0
144
0.0
144
0.0
144
0.0
144
1.0
144
0.0
144
0.0
144
0.0
144
0.0
144
1.0
147
0.0208333333333333
147
0.0
147
0.0
147
0.0
147
0.0
147
0.0208333333333333
147
0.0
147
0.0
147
0.0
147
0.0
147
1.0
147
0.0
147
0.0
147
0.0
147
0.0
147
1.0
  0
MLEADERSTYLE
  5
4FD2
102
{ACAD_REACTORS
330
4FD1
102
}
330
4FD1
100
AcDbMLeaderStyle
179
     2
170
     2
171
     1
172
     0
 90
        2
 40
0.0
 41
0.0
173
     1
 91
-1056964608
340
13
 92
       -2
290
     1
 42
2.0
291
     1
 43
0.36
  3
Standard
 44
4.0
300

342
10
174
     1
178
     6
175
     1
176
     0
 93
-1056964608
 45
4.0
292
     0
297
     0
 46
4.0
 94
-1056964608
 47
1.0
 49
1.0
140
1.0
293
     1
141
0.0
294
     1
177
     0
142
1.0
295
     1
296
     0
143
0.125
271
     0
272
     9
273
     9
298
     1
  0
MLINESTYLE
  5
1C
102
{ACAD_REACTORS
330
E
102
}
330
E
100
AcDbMlineStyle
  2
STANDARD
 70
     0
  3

 62
     0
 51
90.0
 52
90.0
 71
     2
 49
0.5
 62
   256
  6
BYLAYER
 49
-0.5
 62
   256
  6
BYLAYER
  0
PLOTSETTINGS
  5
4E28
102
{ACAD_REACTORS
330
3F26
102
}
330
3F26
100
AcDbPlotSettings
  1
A3 hoch
  2
A3hoch-MSL.pc3
  4
A3
  6

 40
6.085416793823242
 41
6.12772798538208
 42
5.662078857421875
 43
5.53509521484375
 44
296.9683227539062
 45
419.9889831542968
 46
0.0
 47
0.0
 48
0.0
 49
0.0
140
0.0
141
0.0
142
1.0
143
1.0
 70
  1712
 72
     1
 73
     0
 74
     2
  7
monochrome.ctb
 75
    16
147
1.0
 76
     0
 77
     2
 78
   300
148
9.5
149
4.0
  0
PLOTSETTINGS
  5
4E27
102
{ACAD_REACTORS
330
3F26
102
}
330
3F26
100
AcDbPlotSettings
  1
A3 quer
  2
A3quer-MSL.pc3
  4
A3
  6

 40
6.085416793823242
 41
6.12772798538208
 42
5.662078857421875
 43
5.53509521484375
 44
296.9683227539062
 45
419.9889831542968
 46
0.0
 47
0.0
 48
0.0
 49
0.0
140
0.0
141
0.0
142
1.0
143
1.0
 70
  1712
 72
     1
 73
     1
 74
     2
  7
monochrome.ctb
 75
    16
147
1.0
 76
     0
 77
     2
 78
   300
148
9.5
149
4.0
  0
PLOTSETTINGS
  5
4E29
102
{ACAD_REACTORS
330
3F26
102
}
330
3F26
100
AcDbPlotSettings
  1
A4 hoch
  2
A4hoch-MSL.pc3
  4
A4
  6

 40
6.011333465576171
 41
4.233306884765625
 42
6.011322021484375
 43
4.23333740234375
 44
209.9733276367187
 45
296.9683227539062
 46
0.0
 47
0.0
 48
0.0
 49
0.0
140
0.0
141
0.0
142
1.0
143
1.0
 70
  3760
 72
     1
 73
     0
 74
     2
  7
monochrome.ctb
 75
    16
147
1.0
 76
     0
 77
     2
 78
   300
148
0.0
149
0.0
1001
ACAD_PSEXT
1000
A4hoch-MSL.pc3
1000
HP Universal Printing PCL 5
1000
HST_mslklp05.msl.ch
1000

1070
     0
  0
ACDBPLACEHOLDER
  5
3F24
102
{ACAD_REACTORS
330
3F23
102
}
330
3F23
  0
SCALE
  5
4FC0
102
{ACAD_REACTORS
330
4FBF
102
}
330
4FBF
100
AcDbScale
 70
     0
300
1:1
140
1.0
141
1.0
290
     1
  0
SCALE
  5
4FC1
102
{ACAD_REACTORS
330
4FBF
102
}
330
4FBF
100
AcDbScale
 70
     0
300
1:2
140
1.0
141
2.0
290
     0
  0
SCALE
  5
4FC2
102
{ACAD_REACTORS
330
4FBF
102
}
330
4FBF
100
AcDbScale
 70
     0
300
1:4
140
1.0
141
4.0
290
     0
  0
SCALE
  5
4FC3
102
{ACAD_REACTORS
330
4FBF
102
}
330
4FBF
100
AcDbScale
 70
     0
300
1:5
140
1.0
141
5.0
290
     0
  0
SCALE
  5
4FC4
102
{ACAD_REACTORS
330
4FBF
102
}
330
4FBF
100
AcDbScale
 70
     0
300
1:8
140
1.0
141
8.0
290
     0
  0
SCALE
  5
4FC5
102
{ACAD_REACTORS
330
4FBF
102
}
330
4FBF
100
AcDbScale
 70
     0
300
1:10
140
1.0
141
10.0
290
     0
  0
SCALE
  5
4FC6
102
{ACAD_REACTORS
330
4FBF
102
}
330
4FBF
100
AcDbScale
 70
     0
300
1:16
140
1.0
141
16.0
290
     0
  0
SCALE
  5
4FC7
102
{ACAD_REACTORS
330
4FBF
102
}
330
4FBF
100
AcDbScale
 70
     0
300
1:20
140
1.0
141
20.0
290
     0
  0
SCALE
  5
4FC8
102
{ACAD_REACTORS
330
4FBF
102
}
330
4FBF
100
AcDbScale
 70
     0
300
1:30
140
1.0
141
30.0
290
     0
  0
SCALE
  5
4FC9
102
{ACAD_REACTORS
330
4FBF
102
}
330
4FBF
100
AcDbScale
 70
     0
300
1:40
140
1.0
141
40.0
290
     0
  0
SCALE
  5
4FCA
102
{ACAD_REACTORS
330
4FBF
102
}
330
4FBF
100
AcDbScale
 70
     0
300
1:50
140
1.0
141
50.0
290
     0
  0
SCALE
  5
4FCB
102
{ACAD_REACTORS
330
4FBF
102
}
330
4FBF
100
AcDbScale
 70
     0
300
1:100
140
1.0
141
100.0
290
     0
  0
SCALE
  5
4FCC
102
{ACAD_REACTORS
330
4FBF
102
}
330
4FBF
100
AcDbScale
 70
     0
300
2:1
140
2.0
141
1.0
290
     0
  0
SCALE
  5
4FCD
102
{ACAD_REACTORS
330
4FBF
102
}
330
4FBF
100
AcDbScale
 70
     0
300
4:1
140
4.0
141
1.0
290
     0
  0
SCALE
  5
4FCE
102
{ACAD_REACTORS
330
4FBF
102
}
330
4FBF
100
AcDbScale
 70
     0
300
8:1
140
8.0
141
1.0
290
     0
  0
SCALE
  5
4FCF
102
{ACAD_REACTORS
330
4FBF
102
}
330
4FBF
100
AcDbScale
 70
     0
300
10:1
140
10.0
141
1.0
290
     0
  0
SCALE
  5
4FD0
102
{ACAD_REACTORS
330
4FBF
102
}
330
4FBF
100
AcDbScale
 70
     0
300
100:1
140
100.0
141
1.0
290
     0
  0
ACDBSECTIONVIEWSTYLE
  5
51D0
102
{ACAD_XDICTIONARY
360
5370
102
}
102
{ACAD_REACTORS
330
5155
330
51E8
102
}
330
5155
100
AcDbModelDocViewStyle
 70
     0
  3
Imperial24
290
     0
100
AcDbSectionViewStyle
 70
     0
 71
     0
 90
       78
 71
     1
340
10
 62
   256
 40
0.24
340
0
340
0
 62
   256
 40
0.24
300
I, O, Q, S, X, Z
 40
0.48
 90
        3
 40
0.18
 90
        1
 71
     2
340
15
 90
       25
 62
   256
340
15
 90
       50
 62
   256
 40
0.24
 40
0.0
 40
0.24
 71
     3
340
10
 62
   256
 40
0.24
 90
        1
 40
0.75
 90
        1
300
%<\AcVar ViewType \f "%tc1">% %<\AcVar ViewSectionStartId>%-%<\AcVar ViewSectionEndId>%\PVARIA %<\AcVar ViewScale \f "%sn">%
 71
     4
 62
   256
 62
   257
300
ANSI31
 40
1.0
 90
        0
290
     0
290
     0
 90
        6
 40
0.0
 40
1.570796326794896
 40
0.2617993877991494
 40
1.308996938995747
 40
-0.2617993877991494
 40
1.832595714594046
  0
ACDBSECTIONVIEWSTYLE
  5
5156
102
{ACAD_XDICTIONARY
360
536C
102
}
102
{ACAD_REACTORS
330
5155
330
517B
102
}
330
5155
100
AcDbModelDocViewStyle
 70
     0
  3
Metric50
290
     0
100
AcDbSectionViewStyle
 70
     0
 71
     0
 90
      102
 71
     1
340
10
 62
   256
 40
5.0
340
0
340
0
 62
   256
 40
5.0
300
I, O, Q, S, X, Z
 40
10.0
 90
        0
 40
2.5
 90
        0
 71
     2
340
15
 90
       25
 62
   256
340
15
 90
       50
 62
   256
 40
5.0
 40
2.5
 40
5.0
 71
     3
340
10
 62
   256
 40
5.0
 90
        0
 40
15.0
 90
        1
300
%<\AcVar ViewSectionStartId>%-%<\AcVar ViewSectionEndId>% (%<\AcVar ViewScale \f "%sn">%)
 71
     4
 62
   256
 62
   257
300
ANSI31
 40
1.0
 90
        0
290
     0
290
     0
 90
        6
 40
0.0
 40
1.570796326794896
 40
0.2617993877991494
 40
1.308996938995747
 40
-0.2617993877991494
 40
1.832595714594046
  0
TABLESTYLE
  5
4E6E
102
{ACAD_XDICTIONARY
360
5000
102
}
102
{ACAD_REACTORS
330
4E6D
102
}
330
4E6D
100
AcDbTableStyle
280
     0
  3
Standard
 70
     0
 71
     0
 40
1.5
 41
1.5
280
     0
281
     0
  7
STANDARD
140
4.5
170
     2
 62
     0
 63
     7
283
     0
 90
        4
 91
        0
  1

274
    -2
284
     1
 64
     0
275
    -2
285
     1
 65
     0
276
    -2
286
     1
 66
     0
277
    -2
287
     1
 67
     0
278
    -2
288
     1
 68
     0
279
    -2
289
     1
 69
     0
  7
STANDARD
140
6.0
170
     5
 62
     0
 63
     7
283
     0
 90
        4
 91
        0
  1

274
    -2
284
     1
 64
     0
275
    -2
285
     1
 65
     0
276
    -2
286
     1
 66
     0
277
    -2
287
     1
 67
     0
278
    -2
288
     1
 68
     0
279
    -2
289
     1
 69
     0
  7
STANDARD
140
4.5
170
     5
 62
     0
 63
     7
283
     0
 90
        4
 91
        0
  1

274
    -2
284
     1
 64
     0
275
    -2
285
     1
 65
     0
276
    -2
286
     1
 66
     0
277
    -2
287
     1
 67
     0
278
    -2
288
     1
 68
     0
279
    -2
289
     1
 69
     0
  0
VISUALSTYLE
  5
4FB4
102
{ACAD_REACTORS
330
4FAE
102
}
330
4FAE
100
AcDbVisualStyle
  2
2dWireframe
 70
     4
177
     3
291
     0
 70
    58
 90
        0
176
     1
 90
        2
176
     1
 90
        0
176
     1
 90
        0
176
     1
 40
0.6
176
     1
 40
30.0
176
     1
 62
     7
420
 16777215
176
     1
 90
        1
176
     1
 90
        4
176
     1
 62
     7
176
     1
 62
   257
176
     1
 90
        1
176
     1
 90
        1
176
     1
 40
1.0
176
     1
 90
        0
176
     1
 62
   257
176
     1
 40
1.0
176
     1
 90
        1
176
     1
 90
        6
176
     1
 90
        2
176
     1
 62
     7
176
     1
 90
        5
176
     1
 90
        0
176
     1
 90
        0
176
     1
290
     0
176
     1
 90
        1
176
     1
 40
0.0
176
     1
 90
        0
176
     1
290
     1
176
     1
290
     1
176
     1
290
     0
176
     1
290
     0
176
     1
290
     0
176
     1
290
     0
176
     1
290
     0
176
     1
290
     0
176
     1
290
     0
176
     1
 90
       50
176
     1
 40
0.0
176
     1
 40
1.0
176
     1
 90
        0
176
     1
 62
    18
420
        0
176
     1
 90
       50
176
     1
 90
        3
176
     1
 62
     5
420
      255
176
     1
290
     0
176
     1
 90
       50
176
     1
 90
       50
176
     1
 90
       50
176
     1
290
     0
176
     1
 90
       50
176
     1
 62
   256
176
     0
 40
1.0
176
     0
 90
        2
176
     1
  1
strokes_ogs.tif
176
     1
290
     0
176
     1
 40
1.0
176
     1
 40
1.0
176
     1
  0
VISUALSTYLE
  5
4FB6
102
{ACAD_REACTORS
330
4FAE
102
}
330
4FAE
100
AcDbVisualStyle
  2
3D Hidden
 70
     6
177
     3
291
     0
 70
    58
 90
        1
176
     1
 90
        2
176
     1
 90
        2
176
     1
 90
        0
176
     1
 40
0.6
176
     1
 40
30.0
176
     1
 62
     7
420
 16777215
176
     1
 90
        2
176
     1
 90
        2
176
     1
 62
     7
176
     1
 62
   257
176
     1
 90
        2
176
     1
 90
        1
176
     1
 40
40.0
176
     1
 90
        0
176
     1
 62
   257
176
     1
 40
1.0
176
     1
 90
        1
176
     1
 90
        6
176
     1
 90
        2
176
     1
 62
     7
176
     1
 90
        3
176
     1
 90
        0
176
     1
 90
        0
176
     1
290
     0
176
     1
 90
        1
176
     1
 40
0.0
176
     1
 90
        0
176
     1
290
     0
176
     1
290
     1
176
     1
290
     1
176
     1
290
     0
176
     1
290
     0
176
     1
290
     0
176
     1
290
     0
176
     1
290
     0
176
     1
290
     0
176
     1
 90
       50
176
     1
 40
0.0
176
     1
 40
1.0
176
     1
 90
        0
176
     1
 62
    18
420
        0
176
     1
 90
       50
176
     1
 90
        3
176
     1
 62
     5
420
      255
176
     1
290
     0
176
     1
 90
       50
176
     1
 90
       50
176
     1
 90
       50
176
     1
290
     0
176
     1
 90
       50
176
     1
 62
   256
176
     0
 40
1.0
176
     0
 90
        2
176
     1
  1
strokes_ogs.tif
176
     1
290
     0
176
     1
 40
1.0
176
     1
 40
1.0
176
     1
  0
VISUALSTYLE
  5
4FB5
102
{ACAD_REACTORS
330
4FAE
102
}
330
4FAE
100
AcDbVisualStyle
  2
3dWireframe
 70
     5
177
     3
291
     0
 70
    58
 90
        0
176
     1
 90
        2
176
     1
 90
        0
176
     1
 90
        0
176
     1
 40
0.6
176
     1
 40
30.0
176
     1
 62
     7
420
 16777215
176
     1
 90
        1
176
     1
 90
        4
176
     1
 62
     7
176
     1
 62
   257
176
     1
 90
        1
176
     1
 90
        1
176
     1
 40
1.0
176
     1
 90
        0
176
     1
 62
   257
176
     1
 40
1.0
176
     1
 90
        1
176
     1
 90
        6
176
     1
 90
        2
176
     1
 62
     7
176
     1
 90
        5
176
     1
 90
        0
176
     1
 90
        0
176
     1
290
     0
176
     1
 90
        1
176
     1
 40
0.0
176
     1
 90
        0
176
     1
290
     0
176
     1
290
     1
176
     1
290
     1
176
     1
290
     0
176
     1
290
     0
176
     1
290
     0
176
     1
290
     0
176
     1
290
     0
176
     1
290
     0
176
     1
 90
       50
176
     1
 40
0.0
176
     1
 40
1.0
176
     1
 90
        0
176
     1
 62
    18
420
        0
176
     1
 90
       50
176
     1
 90
        3
176
     1
 62
     5
420
      255
176
     1
290
     0
176
     1
 90
       50
176
     1
 90
       50
176
     1
 90
       50
176
     1
290
     0
176
     1
 90
       50
176
     1
 62
   256
176
     0
 40
1.0
176
     0
 90
        2
176
     1
  1
strokes_ogs.tif
176
     1
290
     0
176
     1
 40
1.0
176
     1
 40
1.0
176
     1
  0
VISUALSTYLE
  5
4FB3
102
{ACAD_REACTORS
330
4FAE
102
}
330
4FAE
100
AcDbVisualStyle
  2
Basic
 70
     7
177
     3
291
     1
 70
    58
 90
        1
176
     1
 90
        0
176
     1
 90
        1
176
     1
 90
        0
176
     1
 40
0.6
176
     1
 40
30.0
176
     1
 62
     7
420
 16777215
176
     1
 90
        0
176
     1
 90
        4
176
     1
 62
     7
176
     1
 62
   257
176
     1
 90
        1
176
     1
 90
        1
176
     1
 40
1.0
176
     1
 90
        8
176
     1
 62
     7
176
     1
 40
1.0
176
     1
 90
        1
176
     1
 90
        6
176
     1
 90
        2
176
     1
 62
     7
176
     1
 90
        5
176
     1
 90
        0
176
     1
 90
        0
176
     1
290
     0
176
     1
 90
        1
176
     1
 40
0.0
176
     1
 90
        0
176
     1
290
     0
176
     1
290
     1
176
     1
290
     1
176
     1
290
     0
176
     1
290
     0
176
     1
290
     0
176
     1
290
     0
176
     1
290
     0
176
     1
290
     0
176
     1
 90
       50
176
     1
 40
0.0
176
     1
 40
1.0
176
     1
 90
        0
176
     1
 62
    18
420
        0
176
     1
 90
       50
176
     1
 90
        3
176
     1
 62
     5
420
      255
176
     1
290
     0
176
     1
 90
       50
176
     1
 90
       50
176
     1
 90
       50
176
     1
290
     0
176
     1
 90
       50
176
     1
 62
   256
176
     0
 40
1.0
176
     0
 90
        2
176
     1
  1
strokes_ogs.tif
176
     1
290
     0
176
     1
 40
1.0
176
     1
 40
1.0
176
     1
  0
VISUALSTYLE
  5
4FBA
102
{ACAD_REACTORS
330
4FAE
102
}
330
4FAE
100
AcDbVisualStyle
  2
Brighten
 70
    12
177
     3
291
     1
 70
    58
 90
        2
176
     1
 90
        2
176
     1
 90
        0
176
     1
 90
        0
176
     1
 40
0.6
176
     1
 40
30.0
176
     1
 62
     7
420
 16777215
176
     1
 90
        1
176
     1
 90
        4
176
     1
 62
     7
176
     1
 62
   257
176
     1
 90
        1
176
     1
 90
        1
176
     1
 40
1.0
176
     1
 90
        8
176
     1
 62
     7
176
     1
 40
1.0
176
     1
 90
        1
176
     1
 90
        6
176
     1
 90
        2
176
     1
 62
     7
176
     1
 90
        5
176
     1
 90
        0
176
     1
 90
        0
176
     1
290
     0
176
     1
 90
        1
176
     1
 40
50.0
176
     1
 90
        0
176
     1
290
     0
176
     1
290
     1
176
     1
290
     1
176
     1
290
     0
176
     1
290
     0
176
     1
290
     0
176
     1
290
     0
176
     1
290
     0
176
     1
290
     0
176
     1
 90
       50
176
     1
 40
0.0
176
     1
 40
1.0
176
     1
 90
        0
176
     1
 62
    18
420
        0
176
     1
 90
       50
176
     1
 90
        3
176
     1
 62
     5
420
      255
176
     1
290
     0
176
     1
 90
       50
176
     1
 90
       50
176
     1
 90
       50
176
     1
290
     0
176
     1
 90
       50
176
     1
 62
   256
176
     0
 40
1.0
176
     0
 90
        2
176
     1
  1
strokes_ogs.tif
176
     1
290
     0
176
     1
 40
1.0
176
     1
 40
1.0
176
     1
  0
VISUALSTYLE
  5
4FBE
102
{ACAD_REACTORS
330
4FAE
102
}
330
4FAE
100
AcDbVisualStyle
  2
ColorChange
 70
    16
177
     3
291
     1
 70
    58
 90
        2
176
     1
 90
        2
176
     1
 90
        3
176
     1
 90
        0
176
     1
 40
0.6
176
     1
 40
30.0
176
     1
 62
     8
420
  8421504
176
     1
 90
        1
176
     1
 90
        4
176
     1
 62
     7
176
     1
 62
   257
176
     1
 90
        1
176
     1
 90
        1
176
     1
 40
1.0
176
     1
 90
        8
176
     1
 62
     8
420
  8421504
176
     1
 40
1.0
176
     1
 90
        1
176
     1
 90
        6
176
     1
 90
        2
176
     1
 62
     7
176
     1
 90
        5
176
     1
 90
        0
176
     1
 90
        0
176
     1
290
     0
176
     1
 90
        1
176
     1
 40
0.0
176
     1
 90
        0
176
     1
290
     0
176
     1
290
     1
176
     1
290
     1
176
     1
290
     0
176
     1
290
     0
176
     1
290
     0
176
     1
290
     0
176
     1
290
     0
176
     1
290
     0
176
     1
 90
       50
176
     1
 40
0.0
176
     1
 40
1.0
176
     1
 90
        0
176
     1
 62
    18
420
        0
176
     1
 90
       50
176
     1
 90
        3
176
     1
 62
     5
420
      255
176
     1
290
     0
176
     1
 90
       50
176
     1
 90
       50
176
     1
 90
       50
176
     1
290
     0
176
     1
 90
       50
176
     1
 62
   256
176
     0
 40
1.0
176
     0
 90
        2
176
     1
  1
strokes_ogs.tif
176
     1
290
     0
176
     1
 40
1.0
176
     1
 40
1.0
176
     1
  0
VISUALSTYLE
  5
4FB7
102
{ACAD_REACTORS
330
4FAE
102
}
330
4FAE
100
AcDbVisualStyle
  2
Conceptual
 70
     9
177
     3
291
     0
 70
    58
 90
        3
176
     1
 90
        2
176
     1
 90
        0
176
     1
 90
        0
176
     1
 40
0.6
176
     1
 40
30.0
176
     1
 62
     7
420
 16777215
176
     1
 90
        2
176
     1
 90
        2
176
     1
 62
     7
176
     1
 62
   257
176
     1
 90
        1
176
     1
 90
        1
176
     1
 40
40.0
176
     1
 90
        8
176
     1
 62
     7
176
     1
 40
1.0
176
     1
 90
        1
176
     1
 90
        6
176
     1
 90
        2
176
     1
 62
     7
176
     1
 90
        3
176
     1
 90
        0
176
     1
 90
        0
176
     1
290
     0
176
     1
 90
        1
176
     1
 40
0.0
176
     1
 90
        0
176
     1
290
     0
176
     1
290
     1
176
     1
290
     1
176
     1
290
     0
176
     1
290
     0
176
     1
290
     0
176
     1
290
     0
176
     1
290
     0
176
     1
290
     0
176
     1
 90
       50
176
     1
 40
0.0
176
     1
 40
1.0
176
     1
 90
        0
176
     1
 62
    18
420
        0
176
     1
 90
       50
176
     1
 90
        3
176
     1
 62
     5
420
      255
176
     1
290
     0
176
     1
 90
       50
176
     1
 90
       50
176
     1
 90
       50
176
     1
290
     0
176
     1
 90
       50
176
     1
 62
   256
176
     0
 40
1.0
176
     0
 90
        2
176
     1
  1
strokes_ogs.tif
176
     1
290
     0
176
     1
 40
1.0
176
     1
 40
1.0
176
     1
  0
VISUALSTYLE
  5
4FB9
102
{ACAD_REACTORS
330
4FAE
102
}
330
4FAE
100
AcDbVisualStyle
  2
Dim
 70
    11
177
     3
291
     1
 70
    58
 90
        2
176
     1
 90
        2
176
     1
 90
        0
176
     1
 90
        0
176
     1
 40
0.6
176
     1
 40
30.0
176
     1
 62
     7
420
 16777215
176
     1
 90
        1
176
     1
 90
        4
176
     1
 62
     7
176
     1
 62
   257
176
     1
 90
        1
176
     1
 90
        1
176
     1
 40
1.0
176
     1
 90
        8
176
     1
 62
     7
176
     1
 40
1.0
176
     1
 90
        1
176
     1
 90
        6
176
     1
 90
        2
176
     1
 62
     7
176
     1
 90
        5
176
     1
 90
        0
176
     1
 90
        0
176
     1
290
     0
176
     1
 90
        1
176
     1
 40
-50.0
176
     1
 90
        0
176
     1
290
     0
176
     1
290
     1
176
     1
290
     1
176
     1
290
     0
176
     1
290
     0
176
     1
290
     0
176
     1
290
     0
176
     1
290
     0
176
     1
290
     0
176
     1
 90
       50
176
     1
 40
0.0
176
     1
 40
1.0
176
     1
 90
        0
176
     1
 62
    18
420
        0
176
     1
 90
       50
176
     1
 90
        3
176
     1
 62
     5
420
      255
176
     1
290
     0
176
     1
 90
       50
176
     1
 90
       50
176
     1
 90
       50
176
     1
290
     0
176
     1
 90
       50
176
     1
 62
   256
176
     0
 40
1.0
176
     0
 90
        2
176
     1
  1
strokes_ogs.tif
176
     1
290
     0
176
     1
 40
1.0
176
     1
 40
1.0
176
     1
  0
VISUALSTYLE
  5
509A
102
{ACAD_REACTORS
330
4FAE
102
}
330
4FAE
100
AcDbVisualStyle
  2
EdgeColorOff
 70
    22
177
     3
291
     1
 70
    58
 90
        2
176
     0
 90
        2
176
     0
 90
        0
176
     0
 90
        0
176
     0
 40
0.6
176
     0
 40
30.0
176
     0
 62
     7
420
 16777215
176
     0
 90
        1
176
     0
 90
        4
176
     0
 62
     7
176
     0
 62
   257
176
     0
 90
        1
176
     0
 90
        1
176
     0
 40
1.0
176
     0
 90
        8
176
     2
 62
     7
176
     0
 40
1.0
176
     0
 90
        1
176
     0
 90
        6
176
     0
 90
        2
176
     0
 62
     7
176
     0
 90
        5
176
     0
 90
        0
176
     0
 90
        0
176
     0
290
     0
176
     0
 90
        1
176
     0
 40
0.0
176
     0
 90
        0
176
     0
290
     0
176
     1
290
     1
176
     1
290
     1
176
     1
290
     0
176
     1
290
     0
176
     1
290
     0
176
     1
290
     0
176
     1
290
     0
176
     1
290
     0
176
     1
 90
       50
176
     1
 40
0.0
176
     1
 40
1.0
176
     1
 90
        0
176
     1
 62
    18
420
        0
176
     1
 90
       50
176
     1
 90
        3
176
     1
 62
     5
420
      255
176
     1
290
     0
176
     1
 90
       50
176
     1
 90
       50
176
     1
 90
       50
176
     1
290
     0
176
     1
 90
       50
176
     1
 62
   256
176
     0
 40
1.0
176
     0
 90
        2
176
     1
  1
strokes_ogs.tif
176
     1
290
     0
176
     1
 40
1.0
176
     1
 40
1.0
176
     1
  0
VISUALSTYLE
  5
4FBD
102
{ACAD_REACTORS
330
4FAE
102
}
330
4FAE
100
AcDbVisualStyle
  2
Facepattern
 70
    15
177
     3
291
     1
 70
    58
 90
        2
176
     1
 90
        2
176
     1
 90
        0
176
     1
 90
        0
176
     1
 40
0.6
176
     1
 40
30.0
176
     1
 62
     7
420
 16777215
176
     1
 90
        1
176
     1
 90
        4
176
     1
 62
     7
176
     1
 62
   257
176
     1
 90
        1
176
     1
 90
        1
176
     1
 40
1.0
176
     1
 90
        8
176
     1
 62
     7
176
     1
 40
1.0
176
     1
 90
        1
176
     1
 90
        6
176
     1
 90
        2
176
     1
 62
     7
176
     1
 90
        5
176
     1
 90
        0
176
     1
 90
        0
176
     1
290
     0
176
     1
 90
        1
176
     1
 40
0.0
176
     1
 90
        0
176
     1
290
     0
176
     1
290
     1
176
     1
290
     1
176
     1
290
     0
176
     1
290
     0
176
     1
290
     0
176
     1
290
     0
176
     1
290
     0
176
     1
290
     0
176
     1
 90
       50
176
     1
 40
0.0
176
     1
 40
1.0
176
     1
 90
        0
176
     1
 62
    18
420
        0
176
     1
 90
       50
176
     1
 90
        3
176
     1
 62
     5
420
      255
176
     1
290
     0
176
     1
 90
       50
176
     1
 90
       50
176
     1
 90
       50
176
     1
290
     0
176
     1
 90
       50
176
     1
 62
   256
176
     0
 40
1.0
176
     0
 90
        2
176
     1
  1
strokes_ogs.tif
176
     1
290
     0
176
     1
 40
1.0
176
     1
 40
1.0
176
     1
  0
VISUALSTYLE
  5
4FAF
102
{ACAD_REACTORS
330
4FAE
102
}
330
4FAE
100
AcDbVisualStyle
  2
Flat
 70
     0
177
     3
291
     1
 70
    58
 90
        2
176
     1
 90
        1
176
     1
 90
        1
176
     1
 90
        2
176
     1
 40
0.6
176
     1
 40
30.0
176
     1
 62
     7
420
 16777215
176
     1
 90
        0
176
     1
 90
        4
176
     1
 62
     7
176
     1
 62
   257
176
     1
 90
        1
176
     1
 90
        1
176
     1
 40
1.0
176
     1
 90
        8
176
     1
 62
     7
176
     1
 40
1.0
176
     1
 90
        1
176
     1
 90
        6
176
     1
 90
        2
176
     1
 62
     7
176
     1
 90
        5
176
     1
 90
        0
176
     1
 90
        0
176
     1
290
     0
176
     1
 90
       13
176
     1
 40
0.0
176
     1
 90
        0
176
     1
290
     0
176
     1
290
     1
176
     1
290
     1
176
     1
290
     0
176
     1
290
     0
176
     1
290
     0
176
     1
290
     0
176
     1
290
     0
176
     1
290
     0
176
     1
 90
       50
176
     1
 40
0.0
176
     1
 40
1.0
176
     1
 90
        0
176
     1
 62
    18
420
        0
176
     1
 90
       50
176
     1
 90
        3
176
     1
 62
     5
420
      255
176
     1
290
     0
176
     1
 90
       50
176
     1
 90
       50
176
     1
 90
       50
176
     1
290
     0
176
     1
 90
       50
176
     1
 62
   256
176
     0
 40
1.0
176
     0
 90
        2
176
     1
  1
strokes_ogs.tif
176
     1
290
     0
176
     1
 40
1.0
176
     1
 40
1.0
176
     1
  0
VISUALSTYLE
  5
4FB0
102
{ACAD_REACTORS
330
4FAE
102
}
330
4FAE
100
AcDbVisualStyle
  2
FlatWithEdges
 70
     1
177
     3
291
     1
 70
    58
 90
        2
176
     1
 90
        1
176
     1
 90
        1
176
     1
 90
        2
176
     1
 40
0.6
176
     1
 40
30.0
176
     1
 62
     7
420
 16777215
176
     1
 90
        1
176
     1
 90
        4
176
     1
 62
     7
176
     1
 62
   257
176
     1
 90
        1
176
     1
 90
        1
176
     1
 40
1.0
176
     1
 90
        0
176
     1
 62
   257
176
     1
 40
1.0
176
     1
 90
        1
176
     1
 90
        6
176
     1
 90
        2
176
     1
 62
     7
176
     1
 90
        5
176
     1
 90
        0
176
     1
 90
        0
176
     1
290
     0
176
     1
 90
       13
176
     1
 40
0.0
176
     1
 90
        0
176
     1
290
     0
176
     1
290
     1
176
     1
290
     1
176
     1
290
     0
176
     1
290
     0
176
     1
290
     0
176
     1
290
     0
176
     1
290
     0
176
     1
290
     0
176
     1
 90
       50
176
     1
 40
0.0
176
     1
 40
1.0
176
     1
 90
        0
176
     1
 62
    18
420
        0
176
     1
 90
       50
176
     1
 90
        3
176
     1
 62
     5
420
      255
176
     1
290
     0
176
     1
 90
       50
176
     1
 90
       50
176
     1
 90
       50
176
     1
290
     0
176
     1
 90
       50
176
     1
 62
   256
176
     0
 40
1.0
176
     0
 90
        2
176
     1
  1
strokes_ogs.tif
176
     1
290
     0
176
     1
 40
1.0
176
     1
 40
1.0
176
     1
  0
VISUALSTYLE
  5
4FB1
102
{ACAD_REACTORS
330
4FAE
102
}
330
4FAE
100
AcDbVisualStyle
  2
Gouraud
 70
     2
177
     3
291
     1
 70
    58
 90
        2
176
     1
 90
        2
176
     1
 90
        1
176
     1
 90
        2
176
     1
 40
0.6
176
     1
 40
30.0
176
     1
 62
     7
420
 16777215
176
     1
 90
        0
176
     1
 90
        4
176
     1
 62
     7
176
     1
 62
   257
176
     1
 90
        1
176
     1
 90
        1
176
     1
 40
1.0
176
     1
 90
        0
176
     1
 62
     7
176
     1
 40
1.0
176
     1
 90
        1
176
     1
 90
        6
176
     1
 90
        2
176
     1
 62
     7
176
     1
 90
        5
176
     1
 90
        0
176
     1
 90
        0
176
     1
290
     0
176
     1
 90
       13
176
     1
 40
0.0
176
     1
 90
        0
176
     1
290
     0
176
     1
290
     1
176
     1
290
     1
176
     1
290
     0
176
     1
290
     0
176
     1
290
     0
176
     1
290
     0
176
     1
290
     0
176
     1
290
     0
176
     1
 90
       50
176
     1
 40
0.0
176
     1
 40
1.0
176
     1
 90
        0
176
     1
 62
    18
420
        0
176
     1
 90
       50
176
     1
 90
        3
176
     1
 62
     5
420
      255
176
     1
290
     0
176
     1
 90
       50
176
     1
 90
       50
176
     1
 90
       50
176
     1
290
     0
176
     1
 90
       50
176
     1
 62
   256
176
     0
 40
1.0
176
     0
 90
        2
176
     1
  1
strokes_ogs.tif
176
     1
290
     0
176
     1
 40
1.0
176
     1
 40
1.0
176
     1
  0
VISUALSTYLE
  5
4FB2
102
{ACAD_REACTORS
330
4FAE
102
}
330
4FAE
100
AcDbVisualStyle
  2
GouraudWithEdges
 70
     3
177
     3
291
     1
 70
    58
 90
        2
176
     1
 90
        2
176
     1
 90
        1
176
     1
 90
        2
176
     1
 40
0.6
176
     1
 40
30.0
176
     1
 62
     7
420
 16777215
176
     1
 90
        1
176
     1
 90
        4
176
     1
 62
     7
176
     1
 62
   257
176
     1
 90
        1
176
     1
 90
        1
176
     1
 40
1.0
176
     1
 90
        0
176
     1
 62
   257
176
     1
 40
1.0
176
     1
 90
        1
176
     1
 90
        6
176
     1
 90
        2
176
     1
 62
     7
176
     1
 90
        5
176
     1
 90
        0
176
     1
 90
        0
176
     1
290
     0
176
     1
 90
       13
176
     1
 40
0.0
176
     1
 90
        0
176
     1
290
     0
176
     1
290
     1
176
     1
290
     1
176
     1
290
     0
176
     1
290
     0
176
     1
290
     0
176
     1
290
     0
176
     1
290
     0
176
     1
290
     0
176
     1
 90
       50
176
     1
 40
0.0
176
     1
 40
1.0
176
     1
 90
        0
176
     1
 62
    18
420
        0
176
     1
 90
       50
176
     1
 90
        3
176
     1
 62
     5
420
      255
176
     1
290
     0
176
     1
 90
       50
176
     1
 90
       50
176
     1
 90
       50
176
     1
290
     0
176
     1
 90
       50
176
     1
 62
   256
176
     0
 40
1.0
176
     0
 90
        2
176
     1
  1
strokes_ogs.tif
176
     1
290
     0
176
     1
 40
1.0
176
     1
 40
1.0
176
     1
  0
VISUALSTYLE
  5
5092
102
{ACAD_REACTORS
330
4FAE
102
}
330
4FAE
100
AcDbVisualStyle
  2
Hidden
 70
     6
177
     3
291
     0
 70
    58
 90
        1
176
     1
 90
        2
176
     1
 90
        2
176
     1
 90
        0
176
     1
 40
0.6
176
     1
 40
30.0
176
     1
 62
     7
420
 16777215
176
     1
 90
        2
176
     1
 90
        2
176
     1
 62
     7
176
     1
 62
   257
176
     1
 90
        2
176
     1
 90
        1
176
     1
 40
40.0
176
     1
 90
        0
176
     1
 62
   257
176
     1
 40
1.0
176
     1
 90
        1
176
     1
 90
        6
176
     1
 90
        2
176
     1
 62
     7
176
     1
 90
        3
176
     1
 90
        0
176
     1
 90
        0
176
     1
290
     0
176
     1
 90
        1
176
     1
 40
0.0
176
     1
 90
        0
176
     1
290
     0
176
     1
290
     1
176
     1
290
     1
176
     1
290
     0
176
     1
290
     0
176
     1
290
     0
176
     1
290
     0
176
     1
290
     0
176
     1
290
     0
176
     1
 90
       50
176
     1
 40
0.0
176
     1
 40
1.0
176
     1
 90
        0
176
     1
 62
    18
420
        0
176
     1
 90
       50
176
     1
 90
        3
176
     1
 62
     5
420
      255
176
     1
290
     0
176
     1
 90
       50
176
     1
 90
       50
176
     1
 90
       50
176
     1
290
     0
176
     1
 90
       50
176
     1
 62
   256
176
     0
 40
1.0
176
     0
 90
        2
176
     1
  1
strokes_ogs.tif
176
     1
290
     0
176
     1
 40
1.0
176
     1
 40
1.0
176
     1
  0
VISUALSTYLE
  5
5098
102
{ACAD_REACTORS
330
4FAE
102
}
330
4FAE
100
AcDbVisualStyle
  2
JitterOff
 70
    20
177
     3
291
     1
 70
    58
 90
        2
176
     0
 90
        2
176
     0
 90
        0
176
     0
 90
        0
176
     0
 40
0.6
176
     0
 40
30.0
176
     0
 62
     7
420
 16777215
176
     0
 90
        1
176
     0
 90
        4
176
     0
 62
     7
176
     0
 62
   257
176
     0
 90
        1
176
     0
 90
        1
176
     0
 40
1.0
176
     0
 90
       10
176
     2
 62
     7
176
     0
 40
1.0
176
     0
 90
        1
176
     0
 90
        6
176
     0
 90
        2
176
     0
 62
     7
176
     0
 90
        5
176
     0
 90
        0
176
     0
 90
        0
176
     0
290
     0
176
     0
 90
        1
176
     0
 40
0.0
176
     0
 90
        0
176
     0
290
     0
176
     1
290
     1
176
     1
290
     1
176
     1
290
     0
176
     1
290
     0
176
     1
290
     0
176
     1
290
     0
176
     1
290
     0
176
     1
290
     0
176
     1
 90
       50
176
     1
 40
0.0
176
     1
 40
1.0
176
     1
 90
        0
176
     1
 62
    18
420
        0
176
     1
 90
       50
176
     1
 90
        3
176
     1
 62
     5
420
      255
176
     1
290
     0
176
     1
 90
       50
176
     1
 90
       50
176
     1
 90
       50
176
     1
290
     0
176
     1
 90
       50
176
     1
 62
   256
176
     0
 40
1.0
176
     0
 90
        2
176
     1
  1
strokes_ogs.tif
176
     1
290
     0
176
     1
 40
1.0
176
     1
 40
1.0
176
     1
  0
VISUALSTYLE
  5
4FBC
102
{ACAD_REACTORS
330
4FAE
102
}
330
4FAE
100
AcDbVisualStyle
  2
Linepattern
 70
    14
177
     3
291
     1
 70
    58
 90
        2
176
     1
 90
        2
176
     1
 90
        0
176
     1
 90
        0
176
     1
 40
0.6
176
     1
 40
30.0
176
     1
 62
     7
420
 16777215
176
     1
 90
        1
176
     1
 90
        4
176
     1
 62
     7
176
     1
 62
   257
176
     1
 90
        7
176
     1
 90
        7
176
     1
 40
1.0
176
     1
 90
        8
176
     1
 62
     7
176
     1
 40
1.0
176
     1
 90
        1
176
     1
 90
        6
176
     1
 90
        2
176
     1
 62
     7
176
     1
 90
        5
176
     1
 90
        0
176
     1
 90
        0
176
     1
290
     0
176
     1
 90
        1
176
     1
 40
0.0
176
     1
 90
        0
176
     1
290
     0
176
     1
290
     1
176
     1
290
     1
176
     1
290
     0
176
     1
290
     0
176
     1
290
     0
176
     1
290
     0
176
     1
290
     0
176
     1
290
     0
176
     1
 90
       50
176
     1
 40
0.0
176
     1
 40
1.0
176
     1
 90
        0
176
     1
 62
    18
420
        0
176
     1
 90
       50
176
     1
 90
        3
176
     1
 62
     5
420
      255
176
     1
290
     0
176
     1
 90
       50
176
     1
 90
       50
176
     1
 90
       50
176
     1
290
     0
176
     1
 90
       50
176
     1
 62
   256
176
     0
 40
1.0
176
     0
 90
        2
176
     1
  1
strokes_ogs.tif
176
     1
290
     0
176
     1
 40
1.0
176
     1
 40
1.0
176
     1
  0
VISUALSTYLE
  5
5099
102
{ACAD_REACTORS
330
4FAE
102
}
330
4FAE
100
AcDbVisualStyle
  2
OverhangOff
 70
    21
177
     3
291
     1
 70
    58
 90
        2
176
     0
 90
        2
176
     0
 90
        0
176
     0
 90
        0
176
     0
 40
0.6
176
     0
 40
30.0
176
     0
 62
     7
420
 16777215
176
     0
 90
        1
176
     0
 90
        4
176
     0
 62
     7
176
     0
 62
   257
176
     0
 90
        1
176
     0
 90
        1
176
     0
 40
1.0
176
     0
 90
        9
176
     2
 62
     7
176
     0
 40
1.0
176
     0
 90
        1
176
     0
 90
        6
176
     0
 90
        2
176
     0
 62
     7
176
     0
 90
        5
176
     0
 90
        0
176
     0
 90
        0
176
     0
290
     0
176
     0
 90
        1
176
     0
 40
0.0
176
     0
 90
        0
176
     0
290
     0
176
     1
290
     1
176
     1
290
     1
176
     1
290
     0
176
     1
290
     0
176
     1
290
     0
176
     1
290
     0
176
     1
290
     0
176
     1
290
     0
176
     1
 90
       50
176
     1
 40
0.0
176
     1
 40
1.0
176
     1
 90
        0
176
     1
 62
    18
420
        0
176
     1
 90
       50
176
     1
 90
        3
176
     1
 62
     5
420
      255
176
     1
290
     0
176
     1
 90
       50
176
     1
 90
       50
176
     1
 90
       50
176
     1
290
     0
176
     1
 90
       50
176
     1
 62
   256
176
     0
 40
1.0
176
     0
 90
        2
176
     1
  1
strokes_ogs.tif
176
     1
290
     0
176
     1
 40
1.0
176
     1
 40
1.0
176
     1
  0
VISUALSTYLE
  5
4FB8
102
{ACAD_REACTORS
330
4FAE
102
}
330
4FAE
100
AcDbVisualStyle
  2
Realistic
 70
     8
177
     3
291
     0
 70
    58
 90
        2
176
     1
 90
        2
176
     1
 90
        0
176
     1
 90
        0
176
     1
 40
0.6
176
     1
 40
30.0
176
     1
 62
     7
420
 16777215
176
     1
 90
        1
176
     1
 90
        0
176
     1
 62
     7
176
     1
 62
   257
176
     1
 90
        1
176
     1
 90
        1
176
     1
 40
1.0
176
     1
 90
        8
176
     1
 62
     8
420
  7895160
176
     1
 40
1.0
176
     1
 90
        1
176
     1
 90
        6
176
     1
 90
        2
176
     1
 62
     7
176
     1
 90
        5
176
     1
 90
        0
176
     1
 90
        0
176
     1
290
     0
176
     1
 90
       13
176
     1
 40
0.0
176
     1
 90
        0
176
     1
290
     0
176
     1
290
     1
176
     1
290
     1
176
     1
290
     0
176
     1
290
     0
176
     1
290
     0
176
     1
290
     0
176
     1
290
     0
176
     1
290
     0
176
     1
 90
       50
176
     1
 40
0.0
176
     1
 40
1.0
176
     1
 90
        0
176
     1
 62
    18
420
        0
176
     1
 90
       50
176
     1
 90
        3
176
     1
 62
     5
420
      255
176
     1
290
     0
176
     1
 90
       50
176
     1
 90
       50
176
     1
 90
       50
176
     1
290
     0
176
     1
 90
       50
176
     1
 62
   256
176
     0
 40
1.0
176
     0
 90
        2
176
     1
  1
strokes_ogs.tif
176
     1
290
     0
176
     1
 40
1.0
176
     1
 40
1.0
176
     1
  0
VISUALSTYLE
  5
5097
102
{ACAD_REACTORS
330
4FAE
102
}
330
4FAE
100
AcDbVisualStyle
  2
Shaded
 70
    27
177
     3
291
     0
 70
    58
 90
        2
176
     1
 90
        2
176
     1
 90
        1
176
     1
 90
        2
176
     1
 40
0.6
176
     1
 40
30.0
176
     1
 62
     7
420
 16777215
176
     1
 90
        0
176
     1
 90
        4
176
     1
 62
     7
176
     1
 62
   257
176
     1
 90
        1
176
     1
 90
        1
176
     1
 40
1.0
176
     1
 90
        8
176
     1
 62
   257
176
     1
 40
1.0
176
     1
 90
        1
176
     1
 90
        6
176
     1
 90
        2
176
     1
 62
     8
420
  7895160
176
     1
 90
        3
176
     1
 90
        0
176
     1
 90
        0
176
     1
290
     0
176
     1
 90
        5
176
     1
 40
0.0
176
     1
 90
        0
176
     1
290
     0
176
     1
290
     1
176
     1
290
     1
176
     1
290
     0
176
     1
290
     0
176
     1
290
     0
176
     1
290
     0
176
     1
290
     0
176
     1
290
     0
176
     1
 90
       50
176
     1
 40
0.0
176
     1
 40
1.0
176
     1
 90
        0
176
     1
 62
    18
420
        0
176
     1
 90
       50
176
     1
 90
        3
176
     1
 62
     5
420
      255
176
     1
290
     0
176
     1
 90
       50
176
     1
 90
       50
176
     1
 90
       50
176
     1
290
     0
176
     1
 90
       50
176
     1
 62
   256
176
     0
 40
1.0
176
     0
 90
        2
176
     1
  1
strokes_ogs.tif
176
     1
290
     0
176
     1
 40
1.0
176
     1
 40
1.0
176
     1
  0
VISUALSTYLE
  5
5096
102
{ACAD_REACTORS
330
4FAE
102
}
330
4FAE
100
AcDbVisualStyle
  2
Shaded with edges
 70
    26
177
     3
291
     0
 70
    58
 90
        2
176
     1
 90
        2
176
     1
 90
        1
176
     1
 90
        2
176
     1
 40
0.6
176
     1
 40
30.0
176
     1
 62
     7
420
 16777215
176
     1
 90
        1
176
     1
 90
       10
176
     1
 62
     7
176
     1
 62
   257
176
     1
 90
        2
176
     1
 90
        1
176
     1
 40
1.0
176
     1
 90
        8
176
     1
 62
   257
176
     1
 40
1.0
176
     1
 90
        1
176
     1
 90
        6
176
     1
 90
        2
176
     1
 62
     7
176
     1
 90
        3
176
     1
 90
        0
176
     1
 90
        0
176
     1
290
     0
176
     1
 90
        5
176
     1
 40
0.0
176
     1
 90
        0
176
     1
290
     0
176
     1
290
     1
176
     1
290
     1
176
     1
290
     0
176
     1
290
     0
176
     1
290
     0
176
     1
290
     0
176
     1
290
     0
176
     1
290
     0
176
     1
 90
       50
176
     1
 40
0.0
176
     1
 40
1.0
176
     1
 90
        0
176
     1
 62
    18
420
        0
176
     1
 90
       50
176
     1
 90
        3
176
     1
 62
     5
420
      255
176
     1
290
     0
176
     1
 90
       50
176
     1
 90
       50
176
     1
 90
       50
176
     1
290
     0
176
     1
 90
       50
176
     1
 62
   256
176
     0
 40
1.0
176
     0
 90
        2
176
     1
  1
strokes_ogs.tif
176
     1
290
     0
176
     1
 40
1.0
176
     1
 40
1.0
176
     1
  0
VISUALSTYLE
  5
5093
102
{ACAD_REACTORS
330
4FAE
102
}
330
4FAE
100
AcDbVisualStyle
  2
Shades of Gray
 70
    23
177
     3
291
     0
 70
    58
 90
        2
176
     1
 90
        2
176
     1
 90
        3
176
     1
 90
        0
176
     1
 40
0.6
176
     1
 40
30.0
176
     1
 62
     7
420
 16777215
176
     1
 90
        2
176
     1
 90
        2
176
     1
 62
     7
176
     1
 62
     7
176
     1
 90
        1
176
     1
 90
        1
176
     1
 40
40.0
176
     1
 90
        8
176
     1
 62
     7
176
     1
 40
1.0
176
     1
 90
        1
176
     1
 90
        6
176
     1
 90
        2
176
     1
 62
     7
176
     1
 90
        3
176
     1
 90
        0
176
     1
 90
        0
176
     1
290
     0
176
     1
 90
        1
176
     1
 40
0.0
176
     1
 90
        0
176
     1
290
     0
176
     1
290
     1
176
     1
290
     1
176
     1
290
     0
176
     1
290
     0
176
     1
290
     0
176
     1
290
     0
176
     1
290
     0
176
     1
290
     0
176
     1
 90
       50
176
     1
 40
0.0
176
     1
 40
1.0
176
     1
 90
        0
176
     1
 62
    18
420
        0
176
     1
 90
       50
176
     1
 90
        3
176
     1
 62
     5
420
      255
176
     1
290
     0
176
     1
 90
       50
176
     1
 90
       50
176
     1
 90
       50
176
     1
290
     0
176
     1
 90
       50
176
     1
 62
   256
176
     0
 40
1.0
176
     0
 90
        2
176
     1
  1
strokes_ogs.tif
176
     1
290
     0
176
     1
 40
1.0
176
     1
 40
1.0
176
     1
  0
VISUALSTYLE
  5
5094
102
{ACAD_REACTORS
330
4FAE
102
}
330
4FAE
100
AcDbVisualStyle
  2
Sketchy
 70
    24
177
     3
291
     0
 70
    58
 90
        1
176
     1
 90
        2
176
     1
 90
        2
176
     1
 90
        0
176
     1
 40
0.6
176
     1
 40
30.0
176
     1
 62
     7
420
 16777215
176
     1
 90
        2
176
     1
 90
        2
176
     1
 62
     7
176
     1
 62
     7
176
     1
 90
        1
176
     1
 90
        1
176
     1
 40
40.0
176
     1
 90
       11
176
     1
 62
     7
176
     1
 40
1.0
176
     1
 90
        1
176
     1
 90
        6
176
     1
 90
        2
176
     1
 62
     7
176
     1
 90
        6
176
     1
 90
        0
176
     1
 90
        0
176
     1
290
     0
176
     1
 90
        1
176
     1
 40
0.0
176
     1
 90
        0
176
     1
290
     0
176
     1
290
     1
176
     1
290
     1
176
     1
290
     0
176
     1
290
     0
176
     1
290
     0
176
     1
290
     0
176
     1
290
     0
176
     1
290
     0
176
     1
 90
       50
176
     1
 40
0.0
176
     1
 40
1.0
176
     1
 90
        0
176
     1
 62
    18
420
        0
176
     1
 90
       50
176
     1
 90
        3
176
     1
 62
     5
420
      255
176
     1
290
     0
176
     1
 90
       50
176
     1
 90
       50
176
     1
 90
       50
176
     1
290
     0
176
     1
 90
       50
176
     1
 62
   256
176
     0
 40
1.0
176
     0
 90
        2
176
     1
  1
strokes_ogs.tif
176
     1
290
     0
176
     1
 40
1.0
176
     1
 40
1.0
176
     1
  0
VISUALSTYLE
  5
4FBB
102
{ACAD_REACTORS
330
4FAE
102
}
330
4FAE
100
AcDbVisualStyle
  2
Thicken
 70
    13
177
     3
291
     1
 70
    58
 90
        2
176
     1
 90
        2
176
     1
 90
        0
176
     1
 90
        0
176
     1
 40
0.6
176
     1
 40
30.0
176
     1
 62
     7
420
 16777215
176
     1
 90
        1
176
     1
 90
        4
176
     1
 62
     7
176
     1
 62
   257
176
     1
 90
        1
176
     1
 90
        1
176
     1
 40
1.0
176
     1
 90
       12
176
     1
 62
     7
176
     1
 40
1.0
176
     1
 90
        1
176
     1
 90
        6
176
     1
 90
        2
176
     1
 62
     7
176
     1
 90
        5
176
     1
 90
        0
176
     1
 90
        0
176
     1
290
     0
176
     1
 90
        1
176
     1
 40
0.0
176
     1
 90
        0
176
     1
290
     0
176
     1
290
     1
176
     1
290
     1
176
     1
290
     0
176
     1
290
     0
176
     1
290
     0
176
     1
290
     0
176
     1
290
     0
176
     1
290
     0
176
     1
 90
       50
176
     1
 40
0.0
176
     1
 40
1.0
176
     1
 90
        0
176
     1
 62
    18
420
        0
176
     1
 90
       50
176
     1
 90
        3
176
     1
 62
     5
420
      255
176
     1
290
     0
176
     1
 90
       50
176
     1
 90
       50
176
     1
 90
       50
176
     1
290
     0
176
     1
 90
       50
176
     1
 62
   256
176
     0
 40
1.0
176
     0
 90
        2
176
     1
  1
strokes_ogs.tif
176
     1
290
     0
176
     1
 40
1.0
176
     1
 40
1.0
176
     1
  0
VISUALSTYLE
  5
5091
102
{ACAD_REACTORS
330
4FAE
102
}
330
4FAE
100
AcDbVisualStyle
  2
Wireframe
 70
     5
177
     3
291
     0
 70
    58
 90
        0
176
     1
 90
        2
176
     1
 90
        0
176
     1
 90
        0
176
     1
 40
0.6
176
     1
 40
30.0
176
     1
 62
     7
420
 16777215
176
     1
 90
        1
176
     1
 90
        4
176
     1
 62
     7
176
     1
 62
   257
176
     1
 90
        1
176
     1
 90
        1
176
     1
 40
1.0
176
     1
 90
        0
176
     1
 62
   257
176
     1
 40
1.0
176
     1
 90
        1
176
     1
 90
        6
176
     1
 90
        2
176
     1
 62
     7
176
     1
 90
        3
176
     1
 90
        0
176
     1
 90
        0
176
     1
290
     0
176
     1
 90
        1
176
     1
 40
0.0
176
     1
 90
        0
176
     1
290
     0
176
     1
290
     1
176
     1
290
     1
176
     1
290
     0
176
     1
290
     0
176
     1
290
     0
176
     1
290
     0
176
     1
290
     0
176
     1
290
     0
176
     1
 90
       50
176
     1
 40
0.0
176
     1
 40
1.0
176
     1
 90
        0
176
     1
 62
    18
420
        0
176
     1
 90
       50
176
     1
 90
        3
176
     1
 62
     5
420
      255
176
     1
290
     0
176
     1
 90
       50
176
     1
 90
       50
176
     1
 90
       50
176
     1
290
     0
176
     1
 90
       50
176
     1
 62
   256
176
     0
 40
1.0
176
     0
 90
        2
176
     1
  1
strokes_ogs.tif
176
     1
290
     0
176
     1
 40
1.0
176
     1
 40
1.0
176
     1
  0
VISUALSTYLE
  5
5095
102
{ACAD_REACTORS
330
4FAE
102
}
330
4FAE
100
AcDbVisualStyle
  2
X-Ray
 70
    25
177
     3
291
     0
 70
    58
 90
        2
176
     1
 90
        2
176
     1
 90
        1
176
     1
 90
        1
176
     1
 40
0.5
176
     1
 40
30.0
176
     1
 62
     7
420
 16777215
176
     1
 90
        1
176
     1
 90
        0
176
     1
 62
     7
176
     1
 62
   257
176
     1
 90
        1
176
     1
 90
        1
176
     1
 40
1.0
176
     1
 90
        8
176
     1
 62
     7
176
     1
 40
1.0
176
     1
 90
        1
176
     1
 90
        6
176
     1
 90
        2
176
     1
 62
     7
176
     1
 90
        3
176
     1
 90
        0
176
     1
 90
        0
176
     1
290
     0
176
     1
 90
       13
176
     1
 40
0.0
176
     1
 90
        0
176
     1
290
     0
176
     1
290
     1
176
     1
290
     1
176
     1
290
     0
176
     1
290
     0
176
     1
290
     0
176
     1
290
     0
176
     1
290
     0
176
     1
290
     0
176
     1
 90
       50
176
     1
 40
0.0
176
     1
 40
1.0
176
     1
 90
        0
176
     1
 62
    18
420
        0
176
     1
 90
       50
176
     1
 90
        3
176
     1
 62
     5
420
      255
176
     1
290
     0
176
     1
 90
       50
176
     1
 90
       50
176
     1
 90
       50
176
     1
290
     0
176
     1
 90
       50
176
     1
 62
   256
176
     0
 40
1.0
176
     0
 90
        2
176
     1
  1
strokes_ogs.tif
176
     1
290
     0
176
     1
 40
1.0
176
     1
 40
1.0
176
     1
  0
DICTIONARYVAR
  5
5005
102
{ACAD_REACTORS
330
3F39
102
}
330
3F39
100
DictionaryVariables
280
     0
  1
1:1
  0
DICTIONARYVAR
  5
5003
102
{ACAD_REACTORS
330
3F39
102
}
330
3F39
100
DictionaryVariables
280
     0
  1
STANDARD
  0
DICTIONARYVAR
  5
4EDE
102
{ACAD_REACTORS
330
3F39
102
}
330
3F39
100
DictionaryVariables
280
     0
  1
STANDARD
  0
DICTIONARYVAR
  5
5369
102
{ACAD_REACTORS
330
3F39
102
}
330
3F39
100
DictionaryVariables
280
     0
  1
Metric50
  0
DICTIONARYVAR
  5
536A
102
{ACAD_REACTORS
330
3F39
102
}
330
3F39
100
DictionaryVariables
280
     0
  1
Metric50
  0
DICTIONARYVAR
  5
3F3A
102
{ACAD_REACTORS
330
3F39
102
}
330
3F39
100
DictionaryVariables
280
     0
  1
1
  0
DICTIONARYVAR
  5
4D6C
102
{ACAD_REACTORS
330
3F39
102
}
330
3F39
100
DictionaryVariables
280
     0
  1
1
  0
DICTIONARYVAR
  5
5007
102
{ACAD_REACTORS
330
3F39
102
}
330
3F39
100
DictionaryVariables
280
     0
  1
1
  0
DICTIONARYVAR
  5
5008
102
{ACAD_REACTORS
330
3F39
102
}
330
3F39
100
DictionaryVariables
280
     0
  1
15
  0
DICTIONARYVAR
  5
5006
102
{ACAD_REACTORS
330
3F39
102
}
330
3F39
100
DictionaryVariables
280
     0
  1
0
  0
DICTIONARYVAR
  5
5004
102
{ACAD_REACTORS
330
3F39
102
}
330
3F39
100
DictionaryVariables
280
     0
  1
0
  0
DICTIONARY
  5
4D0B
102
{ACAD_REACTORS
330
4D05
102
}
330
4D05
100
AcDbDictionary
281
     1
  0
XRECORD
  5
4E83
102
{ACAD_REACTORS
330
4D05
102
}
330
4D05
100
AcDbXrecord
280
     1
 90
-1023410169
  0
DICTIONARY
  5
67
102
{ACAD_REACTORS
330
66
102
}
330
66
100
AcDbDictionary
281
     1
  3
DATASTORAGE
350
115
  3
SOKRATES
350
68
  0
DICTIONARY
  5
5372
330
51D1
100
AcDbDictionary
280
     1
281
     1
  3
ACAD_XREC_ROUNDTRIP
360
5373
  0
DICTIONARY
  5
536E
330
5158
100
AcDbDictionary
280
     1
281
     1
  3
ACAD_XREC_ROUNDTRIP
360
536F
  0
DICTIONARY
  5
4F9F
330
4F9E
100
AcDbDictionary
280
     1
281
     1
  3
BUMPTILE
360
4FA1
  3
DIFFUSETILE
360
4FA0
  3
OPACITYTILE
360
4FA4
  3
REFLECTIONTILE
360
4FA3
  3
REFRACTIONTILE
360
4FA5
  3
SPECULARTILE
360
4FA2
  0
DICTIONARY
  5
4F97
330
4F96
100
AcDbDictionary
280
     1
281
     1
  3
BUMPTILE
360
4F99
  3
DIFFUSETILE
360
4F98
  3
OPACITYTILE
360
4F9C
  3
REFLECTIONTILE
360
4F9B
  3
REFRACTIONTILE
360
4F9D
  3
SPECULARTILE
360
4F9A
  0
DICTIONARY
  5
4FA7
330
4FA6
100
AcDbDictionary
280
     1
281
     1
  3
BUMPTILE
360
4FA9
  3
DIFFUSETILE
360
4FA8
  3
OPACITYTILE
360
4FAC
  3
REFLECTIONTILE
360
4FAB
  3
REFRACTIONTILE
360
4FAD
  3
SPECULARTILE
360
4FAA
  0
DICTIONARY
  5
5370
330
51D0
100
AcDbDictionary
280
     1
281
     1
  3
ACAD_XREC_ROUNDTRIP
360
5371
  0
DICTIONARY
  5
536C
330
5156
100
AcDbDictionary
280
     1
281
     1
  3
ACAD_XREC_ROUNDTRIP
360
536D
  0
DICTIONARY
  5
5000
330
4E6E
100
AcDbDictionary
280
     1
281
     1
  3
ACAD_ROUNDTRIP_2008_TABLESTYLE_CELLSTYLEMAP
360
536B
  0
DICTIONARY
  5
115
102
{ACAD_REACTORS
330
67
102
}
330
67
100
AcDbDictionary
281
     1
  3
NAMESPACE
350
116
  0
DICTIONARY
  5
68
102
{ACAD_REACTORS
330
67
102
}
330
67
100
AcDbDictionary
281
     1
  3
DIMPROFILE
350
107
  3
GROUPPROFILE
350
C5
  3
HATCHPROFILE
350
CE
  3
LAYERPROFILE
350
69
  3
LAYERSET
350
94
  3
MVIEWPROFILE
350
E7
  3
SETPROFILE
350
EF
  3
TEXTPROFILE
350
7E
  0
XRECORD
  5
5373
102
{ACAD_REACTORS
330
5372
102
}
330
5372
100
AcDbXrecord
280
     1
102
DISPLAYNAME
  1
Imperial24
102
FLAGS
 90
        0
  0
XRECORD
  5
536F
102
{ACAD_REACTORS
330
536E
102
}
330
536E
100
AcDbXrecord
280
     1
102
DISPLAYNAME
  1
Metric50
102
FLAGS
 90
        0
  0
XRECORD
  5
4FA1
102
{ACAD_REACTORS
330
4F9F
102
}
330
4F9F
100
AcDbXrecord
280
     1
270
     1
271
     1
  0
XRECORD
  5
4FA0
102
{ACAD_REACTORS
330
4F9F
102
}
330
4F9F
100
AcDbXrecord
280
     1
270
     1
271
     1
  0
XRECORD
  5
4FA4
102
{ACAD_REACTORS
330
4F9F
102
}
330
4F9F
100
AcDbXrecord
280
     1
270
     1
271
     1
  0
XRECORD
  5
4FA3
102
{ACAD_REACTORS
330
4F9F
102
}
330
4F9F
100
AcDbXrecord
280
     1
270
     1
271
     1
  0
XRECORD
  5
4FA5
102
{ACAD_REACTORS
330
4F9F
102
}
330
4F9F
100
AcDbXrecord
280
     1
270
     1
271
     1
  0
XRECORD
  5
4FA2
102
{ACAD_REACTORS
330
4F9F
102
}
330
4F9F
100
AcDbXrecord
280
     1
270
     1
271
     1
  0
XRECORD
  5
4F99
102
{ACAD_REACTORS
330
4F97
102
}
330
4F97
100
AcDbXrecord
280
     1
270
     1
271
     1
  0
XRECORD
  5
4F98
102
{ACAD_REACTORS
330
4F97
102
}
330
4F97
100
AcDbXrecord
280
     1
270
     1
271
     1
  0
XRECORD
  5
4F9C
102
{ACAD_REACTORS
330
4F97
102
}
330
4F97
100
AcDbXrecord
280
     1
270
     1
271
     1
  0
XRECORD
  5
4F9B
102
{ACAD_REACTORS
330
4F97
102
}
330
4F97
100
AcDbXrecord
280
     1
270
     1
271
     1
  0
XRECORD
  5
4F9D
102
{ACAD_REACTORS
330
4F97
102
}
330
4F97
100
AcDbXrecord
280
     1
270
     1
271
     1
  0
XRECORD
  5
4F9A
102
{ACAD_REACTORS
330
4F97
102
}
330
4F97
100
AcDbXrecord
280
     1
270
     1
271
     1
  0
XRECORD
  5
4FA9
102
{ACAD_REACTORS
330
4FA7
102
}
330
4FA7
100
AcDbXrecord
280
     1
270
     1
271
     1
  0
XRECORD
  5
4FA8
102
{ACAD_REACTORS
330
4FA7
102
}
330
4FA7
100
AcDbXrecord
280
     1
270
     1
271
     1
  0
XRECORD
  5
4FAC
102
{ACAD_REACTORS
330
4FA7
102
}
330
4FA7
100
AcDbXrecord
280
     1
270
     1
271
     1
  0
XRECORD
  5
4FAB
102
{ACAD_REACTORS
330
4FA7
102
}
330
4FA7
100
AcDbXrecord
280
     1
270
     1
271
     1
  0
XRECORD
  5
4FAD
102
{ACAD_REACTORS
330
4FA7
102
}
330
4FA7
100
AcDbXrecord
280
     1
270
     1
271
     1
  0
XRECORD
  5
4FAA
102
{ACAD_REACTORS
330
4FA7
102
}
330
4FA7
100
AcDbXrecord
280
     1
270
     1
271
     1
  0
XRECORD
  5
5371
102
{ACAD_REACTORS
330
5370
102
}
330
5370
100
AcDbXrecord
280
     1
102
DISPLAYNAME
  1
Imperial24
102
FLAGS
 90
        0
  0
XRECORD
  5
536D
102
{ACAD_REACTORS
330
536C
102
}
330
536C
100
AcDbXrecord
280
     1
102
DISPLAYNAME
  1
Metric50
102
FLAGS
 90
        0
  0
CELLSTYLEMAP
  5
536B
102
{ACAD_REACTORS
330
5000
102
}
330
5000
100
AcDbCellStyleMap
 90
        3
300
CELLSTYLE
  1
TABLEFORMAT_BEGIN
 90
        5
170
     1
 91
        0
 92
    32768
 62
   257
 93
        1
300
CONTENTFORMAT
  1
CONTENTFORMAT_BEGIN
 90
        0
 91
        0
 92
        4
 93
        0
300

 40
0.0
140
1.0
 94
        5
 62
     0
340
10
144
6.0
309
CONTENTFORMAT_END
171
     1
301
MARGIN
  1
CELLMARGIN_BEGIN
 40
1.5
 40
1.5
 40
1.5
 40
1.5
 40
0.18
 40
0.18
309
CELLMARGIN_END
 94
        6
 95
        1
302
GRIDFORMAT
  1
GRIDFORMAT_BEGIN
 90
        0
 91
        1
 62
     0
 92
       -2
340
0
 93
        0
 40
0.045
309
GRIDFORMAT_END
 95
        2
302
GRIDFORMAT
  1
GRIDFORMAT_BEGIN
 90
        0
 91
        1
 62
     0
 92
       -2
340
0
 93
        0
 40
0.045
309
GRIDFORMAT_END
 95
        4
302
GRIDFORMAT
  1
GRIDFORMAT_BEGIN
 90
        0
 91
        1
 62
     0
 92
       -2
340
0
 93
        0
 40
0.045
309
GRIDFORMAT_END
 95
        8
302
GRIDFORMAT
  1
GRIDFORMAT_BEGIN
 90
        0
 91
        1
 62
     0
 92
       -2
340
0
 93
        0
 40
0.045
309
GRIDFORMAT_END
 95
       16
302
GRIDFORMAT
  1
GRIDFORMAT_BEGIN
 90
        0
 91
        1
 62
     0
 92
       -2
340
0
 93
        0
 40
0.045
309
GRIDFORMAT_END
 95
       32
302
GRIDFORMAT
  1
GRIDFORMAT_BEGIN
 90
        0
 91
        1
 62
     0
 92
       -2
340
0
 93
        0
 40
0.045
309
GRIDFORMAT_END
309
TABLEFORMAT_END
  1
CELLSTYLE_BEGIN
 90
        1
 91
        1
300
_TITLE
309
CELLSTYLE_END
300
CELLSTYLE
  1
TABLEFORMAT_BEGIN
 90
        5
170
     1
 91
        0
 92
        0
 62
   257
 93
        1
300
CONTENTFORMAT
  1
CONTENTFORMAT_BEGIN
 90
        0
 91
        0
 92
        4
 93
        0
300

 40
0.0
140
1.0
 94
        5
 62
     0
340
10
144
4.5
309
CONTENTFORMAT_END
171
     1
301
MARGIN
  1
CELLMARGIN_BEGIN
 40
1.5
 40
1.5
 40
1.5
 40
1.5
 40
0.18
 40
0.18
309
CELLMARGIN_END
 94
        6
 95
        1
302
GRIDFORMAT
  1
GRIDFORMAT_BEGIN
 90
        0
 91
        1
 62
     0
 92
       -2
340
0
 93
        0
 40
0.045
309
GRIDFORMAT_END
 95
        2
302
GRIDFORMAT
  1
GRIDFORMAT_BEGIN
 90
        0
 91
        1
 62
     0
 92
       -2
340
0
 93
        0
 40
0.045
309
GRIDFORMAT_END
 95
        4
302
GRIDFORMAT
  1
GRIDFORMAT_BEGIN
 90
        0
 91
        1
 62
     0
 92
       -2
340
0
 93
        0
 40
0.045
309
GRIDFORMAT_END
 95
        8
302
GRIDFORMAT
  1
GRIDFORMAT_BEGIN
 90
        0
 91
        1
 62
     0
 92
       -2
340
0
 93
        0
 40
0.045
309
GRIDFORMAT_END
 95
       16
302
GRIDFORMAT
  1
GRIDFORMAT_BEGIN
 90
        0
 91
        1
 62
     0
 92
       -2
340
0
 93
        0
 40
0.045
309
GRIDFORMAT_END
 95
       32
302
GRIDFORMAT
  1
GRIDFORMAT_BEGIN
 90
        0
 91
        1
 62
     0
 92
       -2
340
0
 93
        0
 40
0.045
309
GRIDFORMAT_END
309
TABLEFORMAT_END
  1
CELLSTYLE_BEGIN
 90
        2
 91
        1
300
_HEADER
309
CELLSTYLE_END
300
CELLSTYLE
  1
TABLEFORMAT_BEGIN
 90
        5
170
     1
 91
        0
 92
        0
 62
   257
 93
        1
300
CONTENTFORMAT
  1
CONTENTFORMAT_BEGIN
 90
        0
 91
        0
 92
        4
 93
        0
300

 40
0.0
140
1.0
 94
        2
 62
     0
340
10
144
4.5
309
CONTENTFORMAT_END
171
     1
301
MARGIN
  1
CELLMARGIN_BEGIN
 40
1.5
 40
1.5
 40
1.5
 40
1.5
 40
0.18
 40
0.18
309
CELLMARGIN_END
 94
        6
 95
        1
302
GRIDFORMAT
  1
GRIDFORMAT_BEGIN
 90
        0
 91
        1
 62
     0
 92
       -2
340
0
 93
        0
 40
0.045
309
GRIDFORMAT_END
 95
        2
302
GRIDFORMAT
  1
GRIDFORMAT_BEGIN
 90
        0
 91
        1
 62
     0
 92
       -2
340
0
 93
        0
 40
0.045
309
GRIDFORMAT_END
 95
        4
302
GRIDFORMAT
  1
GRIDFORMAT_BEGIN
 90
        0
 91
        1
 62
     0
 92
       -2
340
0
 93
        0
 40
0.045
309
GRIDFORMAT_END
 95
        8
302
GRIDFORMAT
  1
GRIDFORMAT_BEGIN
 90
        0
 91
        1
 62
     0
 92
       -2
340
0
 93
        0
 40
0.045
309
GRIDFORMAT_END
 95
       16
302
GRIDFORMAT
  1
GRIDFORMAT_BEGIN
 90
        0
 91
        1
 62
     0
 92
       -2
340
0
 93
        0
 40
0.045
309
GRIDFORMAT_END
 95
       32
302
GRIDFORMAT
  1
GRIDFORMAT_BEGIN
 90
        0
 91
        1
 62
     0
 92
       -2
340
0
 93
        0
 40
0.045
309
GRIDFORMAT_END
309
TABLEFORMAT_END
  1
CELLSTYLE_BEGIN
 90
        3
 91
        2
300
_DATA
309
CELLSTYLE_END
  0
DICTIONARY
  5
116
102
{ACAD_REACTORS
330
115
102
}
330
115
100
AcDbDictionary
281
     1
  3
V-DPT-1-PATH
350
3F20
  3
V-DPT-BEDP
350
3F05
  3
V-DPT-CADIICON_END
350
3F06
  3
V-DPT-CADIICON_START
350
3F07
  3
V-DPT-ER
350
3F08
  3
V-DPT-F-CAD1
350
3F09
  3
V-DPT-F-CAD3
350
3F0A
  3
V-DPT-F-CADI
350
3F0B
  3
V-DPT-FDR1
350
3F0C
  3
V-DPT-FFA1
350
3F0D
  3
V-DPT-FXF1
350
3F0E
  3
V-DPT-FYF1
350
3F0F
  3
V-DPT-FZF1
350
3F10
  3
V-DPT-H_WI
350
3F11
  3
V-DPT-HLINE
350
3F12
  3
V-DPT-L-NAME
350
3F13
  3
V-DPT-LLIA
350
3F14
  3
V-DPT-LLIR
350
3F15
  3
V-DPT-MAXROWS
350
3F16
  3
V-DPT-MLST
350
3F17
  3
V-DPT-PARE
350
3F18
  3
V-DPT-PCD1
350
3F19
  3
V-DPT-PCR1
350
3F1A
  3
V-DPT-PDIS
350
3F1B
  3
V-DPT-SETACAD
350
3F1C
  3
V-DPT-TEXA
350
3F1D
  3
V-DPT-ULA
350
3F1E
  3
V-DPT-V_WI
350
3F1F
  0
DICTIONARY
  5
107
102
{ACAD_REACTORS
330
68
102
}
330
68
100
AcDbDictionary
281
     1
  3
201
350
37C9
  3
202
350
37CA
  3
203
350
37CB
  3
204
350
37CC
  3
205
350
37CD
  3
206
350
37CE
  3
207
350
37CF
  3
208
350
37D0
  3
209
350
37D1
  3
210
350
37D2
  3
211
350
37D3
  3
212
350
37D4
  3
PROFILEID
350
3F03
  0
DICTIONARY
  5
C5
102
{ACAD_REACTORS
330
68
102
}
330
68
100
AcDbDictionary
281
     1
  3
401
350
3798
  3
402
350
3799
  3
403
350
379A
  3
404
350
379B
  3
PROFILEID
350
3EFF
  0
DICTIONARY
  5
CE
102
{ACAD_REACTORS
330
68
102
}
330
68
100
AcDbDictionary
281
     1
  3
601
350
379D
  3
602
350
379E
  3
603
350
379F
  3
604
350
37A0
  3
605
350
37A1
  3
606
350
37A2
  3
607
350
37A3
  3
608
350
37A4
  3
609
350
37A5
  3
610
350
37A6
  3
611
350
37A7
  3
612
350
37A8
  3
613
350
37A9
  3
614
350
37AA
  3
615
350
37AB
  3
616
350
37AC
  3
617
350
37AD
  3
618
350
37AE
  3
619
350
37AF
  3
620
350
37B0
  3
621
350
37B1
  3
622
350
37B2
  3
PROFILEID
350
3F00
  0
DICTIONARY
  5
69
102
{ACAD_REACTORS
330
68
102
}
330
68
100
AcDbDictionary
281
     1
  3
101
350
3749
  3
102
350
374A
  3
103
350
374B
  3
107
350
374C
  3
108
350
374D
  3
109
350
374E
  3
110
350
374F
  3
111
350
3750
  3
120
350
3751
  3
121
350
3752
  3
122
350
3753
  3
123
350
3754
  3
124
350
3755
  3
125
350
3756
  3
126
350
3757
  3
127
350
3758
  3
128
350
3759
  3
129
350
375A
  3
130
350
375B
  3
PROFILEID
350
3EFC
  0
DICTIONARY
  5
94
102
{ACAD_REACTORS
330
68
102
}
330
68
100
AcDbDictionary
281
     1
  3
301
350
3768
  3
302
350
3769
  3
303
350
376A
  3
304
350
376B
  3
305
350
376C
  3
306
350
376D
  3
307
350
376E
  3
308
350
376F
  3
309
350
3770
  3
310
350
3772
  3
311
350
3773
  3
312
350
3774
  3
313
350
3775
  3
314
350
3776
  3
315
350
3777
  3
316
350
3778
  3
317
350
3779
  3
318
350
377A
  3
319
350
377B
  3
320
350
377F
  3
321
350
3780
  3
322
350
3781
  3
323
350
3782
  3
324
350
3783
  3
325
350
3786
  3
326
350
3796
  3
327
350
3787
  3
328
350
3788
  3
329
350
3789
  3
330
350
378A
  3
331
350
378B
  3
332
350
378C
  3
333
350
378D
  3
334
350
378E
  3
335
350
378F
  3
336
350
3790
  3
337
350
3791
  3
338
350
3792
  3
339
350
3793
  3
340
350
3771
  3
341
350
3794
  3
342
350
377C
  3
343
350
377D
  3
344
350
3784
  3
345
350
3785
  3
346
350
377E
  3
347
350
3795
  3
PROFILEID
350
3EFE
  0
DICTIONARY
  5
E7
102
{ACAD_REACTORS
330
68
102
}
330
68
100
AcDbDictionary
281
     1
  3
701
350
37B4
  3
702
350
37B5
  3
703
350
37B6
  3
704
350
37B7
  3
705
350
37B8
  3
706
350
37B9
  3
PROFILEID
350
3F01
  0
DICTIONARY
  5
EF
102
{ACAD_REACTORS
330
68
102
}
330
68
100
AcDbDictionary
281
     1
  3
801
350
37BB
  3
802
350
37BC
  3
803
350
37BD
  3
804
350
37BE
  3
805
350
37BF
  3
806
350
37C0
  3
807
350
37C1
  3
808
350
37C2
  3
809
350
37C3
  3
810
350
37C4
  3
811
350
37C5
  3
812
350
37C6
  3
813
350
37C7
  3
PROFILEID
350
3F02
  0
DICTIONARY
  5
7E
102
{ACAD_REACTORS
330
68
102
}
330
68
100
AcDbDictionary
281
     1
  3
901
350
375D
  3
902
350
375E
  3
903
350
375F
  3
904
350
3760
  3
905
350
3761
  3
906
350
3762
  3
907
350
3763
  3
908
350
3764
  3
909
350
3765
  3
910
350
3766
  3
PROFILEID
350
3EFD
  0
XRECORD
  5
3F20
102
{ACAD_REACTORS
330
116
102
}
330
116
100
AcDbXrecord
280
     1
  1
D:\r14\CADiMenu
  0
XRECORD
  5
3F05
102
{ACAD_REACTORS
330
116
102
}
330
116
100
AcDbXrecord
280
     1
  1
SYM:RTT
  0
XRECORD
  5
3F06
102
{ACAD_REACTORS
330
116
102
}
330
116
100
AcDbXrecord
280
     1
 70
   504
  0
XRECORD
  5
3F07
102
{ACAD_REACTORS
330
116
102
}
330
116
100
AcDbXrecord
280
     1
 70
   461
  0
XRECORD
  5
3F08
102
{ACAD_REACTORS
330
116
102
}
330
116
100
AcDbXrecord
280
     1
  1
CM1
  0
XRECORD
  5
3F09
102
{ACAD_REACTORS
330
116
102
}
330
116
100
AcDbXrecord
280
     1
  1
B
  0
XRECORD
  5
3F0A
102
{ACAD_REACTORS
330
116
102
}
330
116
100
AcDbXrecord
280
     1
  1
A
  0
XRECORD
  5
3F0B
102
{ACAD_REACTORS
330
116
102
}
330
116
100
AcDbXrecord
280
     1
  1
CM-INSFZ
  0
XRECORD
  5
3F0C
102
{ACAD_REACTORS
330
116
102
}
330
116
100
AcDbXrecord
280
     1
 40
0.0
  0
XRECORD
  5
3F0D
102
{ACAD_REACTORS
330
116
102
}
330
116
100
AcDbXrecord
280
     1
 40
1.0
  0
XRECORD
  5
3F0E
102
{ACAD_REACTORS
330
116
102
}
330
116
100
AcDbXrecord
280
     1
 40
1.0
  0
XRECORD
  5
3F0F
102
{ACAD_REACTORS
330
116
102
}
330
116
100
AcDbXrecord
280
     1
 40
1.0
  0
XRECORD
  5
3F10
102
{ACAD_REACTORS
330
116
102
}
330
116
100
AcDbXrecord
280
     1
 40
1.0
  0
XRECORD
  5
3F11
102
{ACAD_REACTORS
330
116
102
}
330
116
100
AcDbXrecord
280
     1
 40
0.0
  0
XRECORD
  5
3F12
102
{ACAD_REACTORS
330
116
102
}
330
116
100
AcDbXrecord
280
     1
  1
_.line
  0
XRECORD
  5
3F13
102
{ACAD_REACTORS
330
116
102
}
330
116
100
AcDbXrecord
280
     1
  1
d:\r14\CADiMenu14\Lisp\CADIM-d3
  0
XRECORD
  5
3F14
102
{ACAD_REACTORS
330
116
102
}
330
116
100
AcDbXrecord
280
     1
 40
5.0
  0
XRECORD
  5
3F15
102
{ACAD_REACTORS
330
116
102
}
330
116
100
AcDbXrecord
280
     1
 40
10.0
  0
XRECORD
  5
3F16
102
{ACAD_REACTORS
330
116
102
}
330
116
100
AcDbXrecord
280
     1
 70
    23
  0
XRECORD
  5
3F17
102
{ACAD_REACTORS
330
116
102
}
330
116
100
AcDbXrecord
280
     1
  1
SYM:RTNIL
  0
XRECORD
  5
3F18
102
{ACAD_REACTORS
330
116
102
}
330
116
100
AcDbXrecord
280
     1
  1
 qmm
  0
XRECORD
  5
3F19
102
{ACAD_REACTORS
330
116
102
}
330
116
100
AcDbXrecord
280
     1
 40
1.0
  0
XRECORD
  5
3F1A
102
{ACAD_REACTORS
330
116
102
}
330
116
100
AcDbXrecord
280
     1
 70
     6
  0
XRECORD
  5
3F1B
102
{ACAD_REACTORS
330
116
102
}
330
116
100
AcDbXrecord
280
     1
  1
 mm
  0
XRECORD
  5
3F1C
102
{ACAD_REACTORS
330
116
102
}
330
116
100
AcDbXrecord
280
     1
  1
SYM:RTLB
  1
D:\r14\CADiMenu
  1
D:\r14\CADiMenu\Support
  1
D:\r14\CADiMenu\Support\Bmp
  1
D:\r14\CADiMenu\Icemtrx
  1
D:\r14\Support
  1
D:\r14\Fonts
  1
D:\r14\Help
  1
G:\compass\Vorlagen.de\14\bmp14
  1
D:\r14\drv
  1
D:\r14\CADiMenu14
  1
D:\r14\CADiMenu14\Support
  1
D:\r14\CADiMenu14\Support\Bmp
  1
D:\r14\CADiMenu14\Icemtrx
  1
D:\R14MCAD\Support
  1
D:\R14MCAD\Fonts
  1
D:\R14MCAD\Help
  1
D:\R14MCAD\drv
  1
G:\compass\Vorlagen.de\14\Default\
  1
 (aktuelles Verzeichnis) 
  1
D:\r14\CADiMenu14
  1
D:\r14\CADiMenu14\Support
  1
D:\r14\CADiMenu14\Support\Bmp
  1
D:\r14\CADiMenu14\Icemtrx
  1
D:\R14MCAD\Support
  1
D:\R14MCAD\Fonts
  1
D:\R14MCAD\Help
  1
D:\R14MCAD\drv
  1
D:\r14\CADiMenu14
  1
D:\r14\CADiMenu14\Support
  1
D:\r14\CADiMenu14\Support\Bmp
  1
D:\r14\CADiMenu14\Icemtrx
  1
D:\R14MCAD\Support
  1
D:\R14MCAD\Fonts
  1
D:\R14MCAD\Help
  1
D:\R14MCAD\drv
  1
D:\r14\CADiMenu14
  1
D:\r14\CADiMenu14\Support
  1
D:\r14\CADiMenu14\Support\Bmp
  1
D:\r14\CADiMenu14\Icemtrx
  1
D:\R14MCAD\Support
  1
D:\R14MCAD\Fonts
  1
D:\R14MCAD\Help
  1
D:\R14MCAD\drv
  1
SYM:RTLE
  0
XRECORD
  5
3F1D
102
{ACAD_REACTORS
330
116
102
}
330
116
100
AcDbXrecord
280
     1
  1
SYM:RTVOID
  0
XRECORD
  5
3F1E
102
{ACAD_REACTORS
330
116
102
}
330
116
100
AcDbXrecord
280
     1
 40
2.0
  0
XRECORD
  5
3F1F
102
{ACAD_REACTORS
330
116
102
}
330
116
100
AcDbXrecord
280
     1
 40
0.0
  0
XRECORD
  5
37C9
102
{ACAD_REACTORS
330
107
102
}
330
107
100
AcDbXrecord
280
     1
  1
SwitchRadio
  1
V:DimLayerCurrent
  1
DimLayerCurrent
 70
  1023
 70
  1023
 70
  1025
 70
     0
  0
XRECORD
  5
37CA
102
{ACAD_REACTORS
330
107
102
}
330
107
100
AcDbXrecord
280
     1
  1
SwitchRadio
  1
V:DimLayerDIM
  1
DimLayerDIM
 70
  1024
 70
  1023
 70
  1025
 70
     1
  0
XRECORD
  5
37CB
102
{ACAD_REACTORS
330
107
102
}
330
107
100
AcDbXrecord
280
     1
  1
SwitchTString
  1
V:DimLayerDIMVar
  1
DimLayerDIMVar
 70
     0
  1
L:BEMA
  0
XRECORD
  5
37CC
102
{ACAD_REACTORS
330
107
102
}
330
107
100
AcDbXrecord
280
     1
  1
SwitchTString
  1
V:DimStyleLinear
  1
DimStyleLinear
 70
     0
  1
LINEAR
  0
XRECORD
  5
37CD
102
{ACAD_REACTORS
330
107
102
}
330
107
100
AcDbXrecord
280
     1
  1
SwitchTString
  1
V:DimStyleRadius
  1
DimStyleRadius
 70
     0
  1
RADIUS
  0
XRECORD
  5
37CE
102
{ACAD_REACTORS
330
107
102
}
330
107
100
AcDbXrecord
280
     1
  1
SwitchTString
  1
V:DimStyleDiameter
  1
DimStyleDiameter
 70
     0
  1
DIAMETER
  0
XRECORD
  5
37CF
102
{ACAD_REACTORS
330
107
102
}
330
107
100
AcDbXrecord
280
     1
  1
SwitchTString
  1
V:DimStyleAngular
  1
DimStyleAngular
 70
     0
  1
ANGULAR
  0
XRECORD
  5
37D0
102
{ACAD_REACTORS
330
107
102
}
330
107
100
AcDbXrecord
280
     1
  1
SwitchTString
  1
V:DimStyleOrdinate
  1
DimStyleOrdinate
 70
     0
  1
ORDINATE
  0
XRECORD
  5
37D1
102
{ACAD_REACTORS
330
107
102
}
330
107
100
AcDbXrecord
280
     1
  1
SwitchTString
  1
V:DimStyleLeader
  1
DimStyleLeader
 70
     0
  1
LEADER
  0
XRECORD
  5
37D2
102
{ACAD_REACTORS
330
107
102
}
330
107
100
AcDbXrecord
280
     1
  1
SwitchRadio
  1
V:DimLayerAlt
  1
DimLayerAlt
 70
  1025
 70
  1023
 70
  1025
 70
     1
  0
XRECORD
  5
37D3
102
{ACAD_REACTORS
330
107
102
}
330
107
100
AcDbXrecord
280
     1
  1
SwitchTString
  1
V:DimLayerALTVar
  1
DimLayerAltVar
 70
     0
  1
L:LK35
  0
XRECORD
  5
37D4
102
{ACAD_REACTORS
330
107
102
}
330
107
100
AcDbXrecord
280
     1
  1
SwitchTBoolean
  1
V:DimStyleSwitch
  1
DimStyleSwitch
 70
  1139
 70
     0
  0
XRECORD
  5
3F03
102
{ACAD_REACTORS
330
107
102
}
330
107
100
AcDbXrecord
280
     1
  1
Unbenanntes Profil
  1
Internes Profil
  0
XRECORD
  5
3798
102
{ACAD_REACTORS
330
C5
102
}
330
C5
100
AcDbXrecord
280
     1
  1
SwitchTString
  1
V:GrpPrefix
  1
GrpPrefix
 70
  1033
  1
_-
  0
XRECORD
  5
3799
102
{ACAD_REACTORS
330
C5
102
}
330
C5
100
AcDbXrecord
280
     1
  1
SwitchTString
  1
V:GrpSuffix
  1
GrpSuffix
 70
  1032
  1
-
  0
XRECORD
  5
379A
102
{ACAD_REACTORS
330
C5
102
}
330
C5
100
AcDbXrecord
280
     1
  1
SwitchTString
  1
V:GrpPspace
  1
GrpPspace
 70
  1075
  1
PSPACE
  0
XRECORD
  5
379B
102
{ACAD_REACTORS
330
C5
102
}
330
C5
100
AcDbXrecord
280
     1
  1
SwitchTString
  1
V:GrpMspace
  1
GrpMspace
 70
     0
  1

  0
XRECORD
  5
3EFF
102
{ACAD_REACTORS
330
C5
102
}
330
C5
100
AcDbXrecord
280
     1
  1
Unbenanntes Profil
  1
Internes Profil
  0
XRECORD
  5
379D
102
{ACAD_REACTORS
330
CE
102
}
330
CE
100
AcDbXrecord
280
     1
  1
SwitchRadio
  1
V:HatchStyleNormal
  1
HatchStyleNormal
 70
  1083
 70
  1083
 70
  1085
 70
     1
  0
XRECORD
  5
379E
102
{ACAD_REACTORS
330
CE
102
}
330
CE
100
AcDbXrecord
280
     1
  1
SwitchRadio
  1
V:HatchStyleOuter
  1
HatchStyleOuter
 70
  1084
 70
  1083
 70
  1085
 70
     0
  0
XRECORD
  5
379F
102
{ACAD_REACTORS
330
CE
102
}
330
CE
100
AcDbXrecord
280
     1
  1
SwitchRadio
  1
V:HatchStyleIgnore
  1
HatchStyleIgnore
 70
  1085
 70
  1083
 70
  1085
 70
     0
  0
XRECORD
  5
37A0
102
{ACAD_REACTORS
330
CE
102
}
330
CE
100
AcDbXrecord
280
     1
  1
SwitchRadio
  1
V:HatchLayerCurrent
  1
HatchLayerCurrent
 70
  1086
 70
  1086
 70
  1088
 70
     0
  0
XRECORD
  5
37A1
102
{ACAD_REACTORS
330
CE
102
}
330
CE
100
AcDbXrecord
280
     1
  1
SwitchRadio
  1
V:HatchLayerHatch
  1
HatchLayerHatch
 70
  1087
 70
  1086
 70
  1088
 70
     1
  0
XRECORD
  5
37A2
102
{ACAD_REACTORS
330
CE
102
}
330
CE
100
AcDbXrecord
280
     1
  1
SwitchRadio
  1
V:HatchLayerDim
  1
HatchLayerDim
 70
  1088
 70
  1086
 70
  1088
 70
     0
  0
XRECORD
  5
37A3
102
{ACAD_REACTORS
330
CE
102
}
330
CE
100
AcDbXrecord
280
     1
  1
SwitchTString
  1
V:HatchLayerHatchVar
  1
HatchLayerHatchVar
 70
     0
  1
L:SCHR
  0
XRECORD
  5
37A4
102
{ACAD_REACTORS
330
CE
102
}
330
CE
100
AcDbXrecord
280
     1
  1
SwitchTString
  1
V:HatchLayerDimVar
  1
HatchLayerDimVar
 70
     0
  1
L:LH32
  0
XRECORD
  5
37A5
102
{ACAD_REACTORS
330
CE
102
}
330
CE
100
AcDbXrecord
280
     1
  1
SwitchHatch
  1
H:201U
  1

 70
     0
  1
DIN201_UNIVERSAL
 40
0.0
 40
1.0
 40
1.0
  0
XRECORD
  5
37A6
102
{ACAD_REACTORS
330
CE
102
}
330
CE
100
AcDbXrecord
280
     1
  1
SwitchHatch
  1
H:201S
  1

 70
     0
  1
DIN201_SOLID
 40
0.0
 40
1.0
 40
1.0
  0
XRECORD
  5
37A7
102
{ACAD_REACTORS
330
CE
102
}
330
CE
100
AcDbXrecord
280
     1
  1
SwitchHatch
  1
H:201M
  1

 70
     0
  1
DIN201_METALL
 40
0.0
 40
1.0
 40
1.0
  0
XRECORD
  5
37A8
102
{ACAD_REACTORS
330
CE
102
}
330
CE
100
AcDbXrecord
280
     1
  1
SwitchHatch
  1
H:201P
  1

 70
     0
  1
DIN201_PLASTIK
 40
0.0
 40
1.0
 40
1.0
  0
XRECORD
  5
37A9
102
{ACAD_REACTORS
330
CE
102
}
330
CE
100
AcDbXrecord
280
     1
  1
SwitchHatch
  1
H:201N
  1

 70
     0
  1
DIN201_NATURSTOFF
 40
0.0
 40
1.0
 40
1.0
  0
XRECORD
  5
37AA
102
{ACAD_REACTORS
330
CE
102
}
330
CE
100
AcDbXrecord
280
     1
  1
SwitchHatch
  1
H:201L
  1

 70
     0
  1
DIN201_LIQUID
 40
0.0
 40
1.0
 40
1.0
  0
XRECORD
  5
37AB
102
{ACAD_REACTORS
330
CE
102
}
330
CE
100
AcDbXrecord
280
     1
  1
SwitchHatch
  1
H:201D
  1

 70
     0
  1
DAEMMUNG
 40
0.0
 40
1.0
 40
1.0
  0
XRECORD
  5
37AC
102
{ACAD_REACTORS
330
CE
102
}
330
CE
100
AcDbXrecord
280
     1
  1
SwitchHatch
  1
H:SR07
  1

 70
     0
  1
SR07
 40
0.0
 40
1.0
 40
1.0
  0
XRECORD
  5
37AD
102
{ACAD_REACTORS
330
CE
102
}
330
CE
100
AcDbXrecord
280
     1
  1
SwitchHatch
  1
H:SS05
  1

 70
     0
  1
SS05
 40
0.0
 40
1.0
 40
1.0
  0
XRECORD
  5
37AE
102
{ACAD_REACTORS
330
CE
102
}
330
CE
100
AcDbXrecord
280
     1
  1
SwitchHatch
  1
H:SS06
  1

 70
     0
  1
SS06
 40
0.0
 40
1.0
 40
1.0
  0
XRECORD
  5
37AF
102
{ACAD_REACTORS
330
CE
102
}
330
CE
100
AcDbXrecord
280
     1
  1
SwitchHatch
  1
H:SS07
  1

 70
     0
  1
SS07
 40
0.0
 40
1.0
 40
1.0
  0
XRECORD
  5
37B0
102
{ACAD_REACTORS
330
CE
102
}
330
CE
100
AcDbXrecord
280
     1
  1
SwitchHatch
  1
H:ST05
  1

 70
     0
  1
ST05
 40
0.0
 40
1.0
 40
1.0
  0
XRECORD
  5
37B1
102
{ACAD_REACTORS
330
CE
102
}
330
CE
100
AcDbXrecord
280
     1
  1
SwitchHatch
  1
H:ST06
  1

 70
     0
  1
ST06
 40
0.0
 40
1.0
 40
1.0
  0
XRECORD
  5
37B2
102
{ACAD_REACTORS
330
CE
102
}
330
CE
100
AcDbXrecord
280
     1
  1
SwitchHatch
  1
H:ST07
  1

 70
     0
  1
ST07
 40
0.0
 40
1.0
 40
1.0
  0
XRECORD
  5
3F00
102
{ACAD_REACTORS
330
CE
102
}
330
CE
100
AcDbXrecord
280
     1
  1
Unbenanntes Profil
  1
Internes Profil
  0
XRECORD
  5
3749
102
{ACAD_REACTORS
330
69
102
}
330
69
100
AcDbXrecord
280
     1
  1
SwitchTBoolean
  1
V:SwitchLayerNames
  1
SwitchLayerNames
 70
  1002
 70
     1
  0
XRECORD
  5
374A
102
{ACAD_REACTORS
330
69
102
}
330
69
100
AcDbXrecord
280
     1
  1
SwitchTBoolean
  1
V:SwitchColor
  1
SwitchColor
 70
  1003
 70
     0
  0
XRECORD
  5
374B
102
{ACAD_REACTORS
330
69
102
}
330
69
100
AcDbXrecord
280
     1
  1
SwitchTBoolean
  1
V:SwitchLineType
  1
SwitchLinetype
 70
  1045
 70
     0
  0
XRECORD
  5
374C
102
{ACAD_REACTORS
330
69
102
}
330
69
100
AcDbXrecord
280
     1
  1
SwitchTBoolean
  1
V:CmdSwitchHatch
  1
CmdSwitchHatch
 70
  1046
 70
     1
  0
XRECORD
  5
374D
102
{ACAD_REACTORS
330
69
102
}
330
69
100
AcDbXrecord
280
     1
  1
SwitchTBoolean
  1
V:CmdSwitchDim
  1
CmdSwitchDim
 70
  1009
 70
     1
  0
XRECORD
  5
374E
102
{ACAD_REACTORS
330
69
102
}
330
69
100
AcDbXrecord
280
     1
  1
SwitchTBoolean
  1
V:CmdSwitchMview
  1
CmdSwitchMview
 70
  1010
 70
     1
  0
XRECORD
  5
374F
102
{ACAD_REACTORS
330
69
102
}
330
69
100
AcDbXrecord
280
     1
  1
SwitchTBoolean
  1
V:CmdSwitchText
  1
CmdSwitchText
 70
  1011
 70
     1
  0
XRECORD
  5
3750
102
{ACAD_REACTORS
330
69
102
}
330
69
100
AcDbXrecord
280
     1
  1
SwitchTBoolean
  1
V:CmdSwitchConstr
  1
CmdSwitchConstr
 70
  1012
 70
     1
  0
XRECORD
  5
3751
102
{ACAD_REACTORS
330
69
102
}
330
69
100
AcDbXrecord
280
     1
  1
SwitchRadio
  1
V:SwitchColorNoReset
  1
SwitchColorNoReset
 70
  1064
 70
  1064
 70
  1066
 70
     1
  0
XRECORD
  5
3752
102
{ACAD_REACTORS
330
69
102
}
330
69
100
AcDbXrecord
280
     1
  1
SwitchRadio
  1
V:SwitchColorResetBylayer
  1
SwitchColorResetBylayer
 70
  1065
 70
  1064
 70
  1066
 70
     0
  0
XRECORD
  5
3753
102
{ACAD_REACTORS
330
69
102
}
330
69
100
AcDbXrecord
280
     1
  1
SwitchRadio
  1
V:SwitchColorResetByblock
  1
SwitchColorResetByblock
 70
  1066
 70
  1064
 70
  1066
 70
     0
  0
XRECORD
  5
3754
102
{ACAD_REACTORS
330
69
102
}
330
69
100
AcDbXrecord
280
     1
  1
SwitchRadio
  1
V:SwitchLtypeNoReset
  1
SwitchLtypeNoReset
 70
  1067
 70
  1067
 70
  1069
 70
     1
  0
XRECORD
  5
3755
102
{ACAD_REACTORS
330
69
102
}
330
69
100
AcDbXrecord
280
     1
  1
SwitchRadio
  1
V:SwitchLtypeResetBylayer
  1
SwitchLtypeResetBylayer
 70
  1068
 70
  1067
 70
  1069
 70
     0
  0
XRECORD
  5
3756
102
{ACAD_REACTORS
330
69
102
}
330
69
100
AcDbXrecord
280
     1
  1
SwitchRadio
  1
V:SwitchLtypeResetByblock
  1
SwitchLtypeResetByblock
 70
  1069
 70
  1067
 70
  1069
 70
     0
  0
XRECORD
  5
3757
102
{ACAD_REACTORS
330
69
102
}
330
69
100
AcDbXrecord
280
     1
  1
SwitchRadio
  1
V:GroupsNotActive
  1
GroupsNotActive
 70
  1070
 70
  1070
 70
  1071
 70
     1
  0
XRECORD
  5
3758
102
{ACAD_REACTORS
330
69
102
}
330
69
100
AcDbXrecord
280
     1
  1
SwitchRadio
  1
V:GroupsActive
  1
GroupsActive
 70
  1071
 70
  1070
 70
  1071
 70
     0
  0
XRECORD
  5
3759
102
{ACAD_REACTORS
330
69
102
}
330
69
100
AcDbXrecord
280
     1
  1
SwitchRadio
  1
V:GroupPspace
  1
GroupPspace
 70
  1076
 70
  1076
 70
  1077
 70
     1
  0
XRECORD
  5
375A
102
{ACAD_REACTORS
330
69
102
}
330
69
100
AcDbXrecord
280
     1
  1
SwitchRadio
  1
V:LayerPspace
  1
LayerPspace
 70
  1077
 70
  1076
 70
  1077
 70
     0
  0
XRECORD
  5
375B
102
{ACAD_REACTORS
330
69
102
}
330
69
100
AcDbXrecord
280
     1
  1
SwitchTString
  1
V:LastLayer
  1
LastLayer
 70
     0
  1
L:AVER
  0
XRECORD
  5
3EFC
102
{ACAD_REACTORS
330
69
102
}
330
69
100
AcDbXrecord
280
     1
  1
Unbenanntes Profil
  1
Internes Profil
  0
XRECORD
  5
3768
102
{ACAD_REACTORS
330
94
102
}
330
94
100
AcDbXrecord
280
     1
  1
SwitchLayer
  1
L:ABBI
  1
ABBI
 70
     0
 70
    14
 70
     0
 70
     1
 70
     0
  1
ABBIEGEKANT
  1
DOT
  0
XRECORD
  5
3769
102
{ACAD_REACTORS
330
94
102
}
330
94
100
AcDbXrecord
280
     1
  1
SwitchLayer
  1
L:ACHS
  1
ACHS
 70
     1
 70
    12
 70
     0
 70
     1
 70
     0
  1
ACHSEN
  1
STRICHPUNKT2
  0
XRECORD
  5
376A
102
{ACAD_REACTORS
330
94
102
}
330
94
100
AcDbXrecord
280
     1
  1
SwitchLayer
  1
L:ATRI
  1
ATTR
 70
     2
 70
    11
 70
     0
 70
     1
 70
     0
  1
ATTRIBUTE
  1
CONTINUOUS
  0
XRECORD
  5
376B
102
{ACAD_REACTORS
330
94
102
}
330
94
100
AcDbXrecord
280
     1
  1
SwitchLayer
  1
L:AVER
  1
AVER
 70
     3
 70
    12
 70
     0
 70
     1
 70
     0
  1
AVERDECKTE
  1
VERDECKT2
  0
XRECORD
  5
376C
102
{ACAD_REACTORS
330
94
102
}
330
94
100
AcDbXrecord
280
     1
  1
SwitchLayer
  1
L:BEMA
  1
BEMA
 70
     4
 70
     8
 70
     0
 70
     1
 70
     0
  1
BEMASSUNG
  1
CONTINUOUS
  0
XRECORD
  5
376D
102
{ACAD_REACTORS
330
94
102
}
330
94
100
AcDbXrecord
280
     1
  1
SwitchLayer
  1
L:BEMT
  1
BEMT
 70
     5
 70
     9
 70
     0
 70
     1
 70
     0
  1
BEMTEXT
  1
CONTINUOUS
  0
XRECORD
  5
376E
102
{ACAD_REACTORS
330
94
102
}
330
94
100
AcDbXrecord
280
     1
  1
SwitchLayer
  1
L:HIKO
  1
HIKO
 70
     6
 70
    11
 70
     0
 70
     1
 70
     0
  1
HILFSKONSTR
  1
CONTINUOUS
  0
XRECORD
  5
376F
102
{ACAD_REACTORS
330
94
102
}
330
94
100
AcDbXrecord
280
     1
  1
SwitchLayer
  1
L:HILI
  1
HILI
 70
     7
 70
    11
 70
     0
 70
     1
 70
     0
  1
HILFSLINIEN
  1
CONTINUOUS
  0
XRECORD
  5
3770
102
{ACAD_REACTORS
330
94
102
}
330
94
100
AcDbXrecord
280
     1
  1
SwitchLayer
  1
L:HIPU
  1
HIPU
 70
     8
 70
    11
 70
     0
 70
     1
 70
     0
  1
HILFSPUNKTE
  1
CONTINUOUS
  0
XRECORD
  5
3772
102
{ACAD_REACTORS
330
94
102
}
330
94
100
AcDbXrecord
280
     1
  1
SwitchLayer
  1
L:KO03
  1
KO03
 70
    10
 70
     2
 70
     0
 70
     0
 70
     0
  1
KOPF03
  1
CONTINUOUS
  0
XRECORD
  5
3773
102
{ACAD_REACTORS
330
94
102
}
330
94
100
AcDbXrecord
280
     1
  1
SwitchLayer
  1
L:KO05
  1
KO05
 70
    11
 70
     3
 70
     0
 70
     0
 70
     0
  1
KOPF05
  1
CONTINUOUS
  0
XRECORD
  5
3774
102
{ACAD_REACTORS
330
94
102
}
330
94
100
AcDbXrecord
280
     1
  1
SwitchLayer
  1
L:KO07
  1
KO07
 70
    12
 70
     4
 70
     0
 70
     0
 70
     0
  1
KOPF07
  1
CONTINUOUS
  0
XRECORD
  5
3775
102
{ACAD_REACTORS
330
94
102
}
330
94
100
AcDbXrecord
280
     1
  1
SwitchLayer
  1
L:KO10
  1
KO10
 70
    13
 70
     6
 70
     0
 70
     0
 70
     0
  1
KOPF10
  1
CONTINUOUS
  0
XRECORD
  5
3776
102
{ACAD_REACTORS
330
94
102
}
330
94
100
AcDbXrecord
280
     1
  1
SwitchLayer
  1
L:SCHR
  1
SCHR
 70
    14
 70
     8
 70
     0
 70
     1
 70
     0
  1
SCHRAFFUR
  1
CONTINUOUS
  0
XRECORD
  5
3777
102
{ACAD_REACTORS
330
94
102
}
330
94
100
AcDbXrecord
280
     1
  1
SwitchLayer
  1
L:TE02
  1
TE02
 70
    15
 70
     1
 70
     0
 70
     1
 70
     0
  1
TEXT02
  1
CONTINUOUS
  0
XRECORD
  5
3778
102
{ACAD_REACTORS
330
94
102
}
330
94
100
AcDbXrecord
280
     1
  1
SwitchLayer
  1
L:TE03
  1
TE03
 70
    16
 70
     2
 70
     0
 70
     1
 70
     0
  1
TEXT03
  1
CONTINUOUS
  0
XRECORD
  5
3779
102
{ACAD_REACTORS
330
94
102
}
330
94
100
AcDbXrecord
280
     1
  1
SwitchLayer
  1
L:TE05
  1
TE05
 70
    17
 70
     3
 70
     0
 70
     1
 70
     0
  1
TEXT05
  1
CONTINUOUS
  0
XRECORD
  5
377A
102
{ACAD_REACTORS
330
94
102
}
330
94
100
AcDbXrecord
280
     1
  1
SwitchLayer
  1
L:TE07
  1
TE07
 70
    18
 70
     4
 70
     0
 70
     1
 70
     0
  1
TEXT07
  1
CONTINUOUS
  0
XRECORD
  5
377B
102
{ACAD_REACTORS
330
94
102
}
330
94
100
AcDbXrecord
280
     1
  1
SwitchLayer
  1
L:TE10
  1
TE10
 70
    19
 70
     6
 70
     0
 70
     1
 70
     0
  1
TEXT10
  1
CONTINUOUS
  0
XRECORD
  5
377F
102
{ACAD_REACTORS
330
94
102
}
330
94
100
AcDbXrecord
280
     1
  1
SwitchLayer
  1
L:UM02
  1
UM02
 70
    23
 70
     1
 70
     0
 70
     0
 70
     0
  1
UMRISS02
  1
CONTINUOUS
  0
XRECORD
  5
3780
102
{ACAD_REACTORS
330
94
102
}
330
94
100
AcDbXrecord
280
     1
  1
SwitchLayer
  1
L:UM03
  1
UM03
 70
    24
 70
     2
 70
     0
 70
     1
 70
     0
  1
UMRISS03
  1
CONTINUOUS
  0
XRECORD
  5
3781
102
{ACAD_REACTORS
330
94
102
}
330
94
100
AcDbXrecord
280
     1
  1
SwitchLayer
  1
L:UM05
  1
UM05
 70
    25
 70
     3
 70
     0
 70
     1
 70
     0
  1
UMRISS05
  1
CONTINUOUS
  0
XRECORD
  5
3782
102
{ACAD_REACTORS
330
94
102
}
330
94
100
AcDbXrecord
280
     1
  1
SwitchLayer
  1
L:UM07
  1
UM07
 70
    26
 70
     4
 70
     0
 70
     1
 70
     0
  1
UMRISS07
  1
CONTINUOUS
  0
XRECORD
  5
3783
102
{ACAD_REACTORS
330
94
102
}
330
94
100
AcDbXrecord
280
     1
  1
SwitchLayer
  1
L:UM10
  1
UM10
 70
    27
 70
     6
 70
     0
 70
     1
 70
     0
  1
UMRISS10
  1
CONTINUOUS
  0
XRECORD
  5
3786
102
{ACAD_REACTORS
330
94
102
}
330
94
100
AcDbXrecord
280
     1
  1
SwitchLayer
  1
L:MVIE
  1
MVIE
 70
    30
 70
   210
 70
     0
 70
     0
 70
     0
  1
VIEWPORTS
  1
CONTINUOUS
  0
XRECORD
  5
3796
102
{ACAD_REACTORS
330
94
102
}
330
94
100
AcDbXrecord
280
     1
  1
SwitchTString
  1
V:LtFile
  1
LtFile
 70
  1061
  1
cadi.lin
  0
XRECORD
  5
3787
102
{ACAD_REACTORS
330
94
102
}
330
94
100
AcDbXrecord
280
     1
  1
SwitchLayer
  1
L:OFLZ
  1
OFLZ
 70
    31
 70
     9
 70
     0
 70
     0
 70
     0
  1
OBERFLZEICH
  1
CONTINUOUS
  0
XRECORD
  5
3788
102
{ACAD_REACTORS
330
94
102
}
330
94
100
AcDbXrecord
280
     1
  1
SwitchLayer
  1
L:LG32
  1
LG32
 70
    32
 70
     7
 70
     0
 70
     0
 70
     0
  1
LG32
  1
CONTINUOUS
  0
XRECORD
  5
3789
102
{ACAD_REACTORS
330
94
102
}
330
94
100
AcDbXrecord
280
     1
  1
SwitchLayer
  1
L:LG33
  1
LG33
 70
    33
 70
    80
 70
     0
 70
     0
 70
     0
  1
LG33
  1
CONTINUOUS
  0
XRECORD
  5
378A
102
{ACAD_REACTORS
330
94
102
}
330
94
100
AcDbXrecord
280
     1
  1
SwitchLayer
  1
L:LH32
  1
LH32
 70
    34
 70
    30
 70
     0
 70
     0
 70
     0
  1
LH32
  1
CONTINUOUS
  0
XRECORD
  5
378B
102
{ACAD_REACTORS
330
94
102
}
330
94
100
AcDbXrecord
280
     1
  1
SwitchLayer
  1
L:LH33
  1
LH33
 70
    35
 70
   103
 70
     0
 70
     0
 70
     0
  1
LH33
  1
CONTINUOUS
  0
XRECORD
  5
378C
102
{ACAD_REACTORS
330
94
102
}
330
94
100
AcDbXrecord
280
     1
  1
SwitchLayer
  1
L:LI32
  1
LI32
 70
    36
 70
    40
 70
     0
 70
     0
 70
     0
  1
LI32
  1
CONTINUOUS
  0
XRECORD
  5
378D
102
{ACAD_REACTORS
330
94
102
}
330
94
100
AcDbXrecord
280
     1
  1
SwitchLayer
  1
L:LI33
  1
LI33
 70
    37
 70
   120
 70
     0
 70
     0
 70
     0
  1
LI33
  1
CONTINUOUS
  0
XRECORD
  5
378E
102
{ACAD_REACTORS
330
94
102
}
330
94
100
AcDbXrecord
280
     1
  1
SwitchLayer
  1
L:LJ32
  1
LJ32
 70
    38
 70
    50
 70
     0
 70
     0
 70
     0
  1
LJ32
  1
CONTINUOUS
  0
XRECORD
  5
378F
102
{ACAD_REACTORS
330
94
102
}
330
94
100
AcDbXrecord
280
     1
  1
SwitchLayer
  1
L:LK32
  1
LK32
 70
    39
 70
    60
 70
     0
 70
     0
 70
     0
  1
LK32
  1
CONTINUOUS
  0
XRECORD
  5
3790
102
{ACAD_REACTORS
330
94
102
}
330
94
100
AcDbXrecord
280
     1
  1
SwitchLayer
  1
L:LJ36
  1
LJ36
 70
    40
 70
   220
 70
     0
 70
     0
 70
     0
  1
LJ36
  1
CONTINUOUS
  0
XRECORD
  5
3791
102
{ACAD_REACTORS
330
94
102
}
330
94
100
AcDbXrecord
280
     1
  1
SwitchLayer
  1
L:LK34
  1
LK34
 70
    41
 70
   170
 70
     0
 70
     0
 70
     0
  1
LK34
  1
CONTINUOUS
  0
XRECORD
  5
3792
102
{ACAD_REACTORS
330
94
102
}
330
94
100
AcDbXrecord
280
     1
  1
SwitchLayer
  1
L:LK35
  1
LK35
 70
    42
 70
   200
 70
     0
 70
     0
 70
     0
  1
LK35
  1
CONTINUOUS
  0
XRECORD
  5
3793
102
{ACAD_REACTORS
330
94
102
}
330
94
100
AcDbXrecord
280
     1
  1
SwitchLayer
  1
L:LK36
  1
LK36
 70
    43
 70
   240
 70
     0
 70
     0
 70
     0
  1
LK36
  1
CONTINUOUS
  0
XRECORD
  5
3771
102
{ACAD_REACTORS
330
94
102
}
330
94
100
AcDbXrecord
280
     1
  1
SwitchLayer
  1
L:KO02
  1
KO02
 70
     9
 70
     1
 70
     0
 70
     0
 70
     0
  1
KOPF02
  1
CONTINUOUS
  0
XRECORD
  5
3794
102
{ACAD_REACTORS
330
94
102
}
330
94
100
AcDbXrecord
280
     1
  1
SwitchLayer
  1
L:LJ34
  1
LJ34
 70
    44
 70
   150
 70
     0
 70
     0
 70
     0
  1
LJ34
  1
CONTINUOUS
  0
XRECORD
  5
377C
102
{ACAD_REACTORS
330
94
102
}
330
94
100
AcDbXrecord
280
     1
  1
SwitchLayer
  1
L:TE14
  1
TE14
 70
    20
 70
     5
 70
     0
 70
     0
 70
     0
  1
TEXT14
  1
CONTINUOUS
  0
XRECORD
  5
377D
102
{ACAD_REACTORS
330
94
102
}
330
94
100
AcDbXrecord
280
     1
  1
SwitchLayer
  1
L:TE20
  1
TE20
 70
    21
 70
    90
 70
     0
 70
     0
 70
     0
  1
TEXT20
  1
CONTINUOUS
  0
XRECORD
  5
3784
102
{ACAD_REACTORS
330
94
102
}
330
94
100
AcDbXrecord
280
     1
  1
SwitchLayer
  1
L:UM14
  1
UM14
 70
    28
 70
     5
 70
     0
 70
     0
 70
     0
  1
UMRISS14
  1
CONTINUOUS
  0
XRECORD
  5
3785
102
{ACAD_REACTORS
330
94
102
}
330
94
100
AcDbXrecord
280
     1
  1
SwitchLayer
  1
L:UM20
  1
UM20
 70
    29
 70
    90
 70
     0
 70
     0
 70
     0
  1
UMRISS20
  1
CONTINUOUS
  0
XRECORD
  5
377E
102
{ACAD_REACTORS
330
94
102
}
330
94
100
AcDbXrecord
280
     1
  1
SwitchLayer
  1
L:UM01
  1
UM01
 70
    22
 70
    21
 70
     0
 70
     1
 70
     0
  1
UMRISS01
  1
CONTINUOUS
  0
XRECORD
  5
3795
102
{ACAD_REACTORS
330
94
102
}
330
94
100
AcDbXrecord
280
     1
  1
SwitchLayer
  1
L:NULL
  1
NULL
 70
    45
 70
     7
 70
     0
 70
     0
 70
     0
  1
0
  1
CONTINUOUS
  0
XRECORD
  5
3EFE
102
{ACAD_REACTORS
330
94
102
}
330
94
100
AcDbXrecord
280
     1
  1
unbenanntes Profil
  1
Internes Profil
  0
XRECORD
  5
37B4
102
{ACAD_REACTORS
330
E7
102
}
330
E7
100
AcDbXrecord
280
     1
  1
SwitchTString
  1
V:MviewPrefix
  1
MviewPrefix
 70
  1097
  1
VP
  0
XRECORD
  5
37B5
102
{ACAD_REACTORS
330
E7
102
}
330
E7
100
AcDbXrecord
280
     1
  1
SwitchTString
  1
V:MviewDelimiter
  1
MviewDelimiter
 70
  1045
  1
-
  0
XRECORD
  5
37B6
102
{ACAD_REACTORS
330
E7
102
}
330
E7
100
AcDbXrecord
280
     1
  1
SwitchRadio
  1
V:MviewLayerCurrent
  1
MviewLayerCurrent
 70
  1098
 70
  1098
 70
  1099
 70
     0
  0
XRECORD
  5
37B7
102
{ACAD_REACTORS
330
E7
102
}
330
E7
100
AcDbXrecord
280
     1
  1
SwitchRadio
  1
V:MviewLayerMview
  1
MviewLayerMview
 70
  1099
 70
  1098
 70
  1099
 70
     1
  0
XRECORD
  5
37B8
102
{ACAD_REACTORS
330
E7
102
}
330
E7
100
AcDbXrecord
280
     1
  1
SwitchTString
  1
V:MviewLayerMviewVar
  1
MviewLayerMviewVar
 70
     0
  1
L:MVIE
  0
XRECORD
  5
37B9
102
{ACAD_REACTORS
330
E7
102
}
330
E7
100
AcDbXrecord
280
     1
  1
SwitchTBoolean
  1
V:MviewActivate
  1
MviewActivate
 70
  1135
 70
     0
  0
XRECORD
  5
3F01
102
{ACAD_REACTORS
330
E7
102
}
330
E7
100
AcDbXrecord
280
     1
  1
Unbenanntes Profil
  1
Internes Profil
  0
XRECORD
  5
37BB
102
{ACAD_REACTORS
330
EF
102
}
330
EF
100
AcDbXrecord
280
     1
  1
SwitchRadio
  1
V:UnitsMM
  1
UnitsMM
 70
  1104
 70
  1104
 70
  1109
 70
     1
  0
XRECORD
  5
37BC
102
{ACAD_REACTORS
330
EF
102
}
330
EF
100
AcDbXrecord
280
     1
  1
SwitchRadio
  1
V:UnitsCM
  1
UnitsCM
 70
  1105
 70
  1104
 70
  1109
 70
     0
  0
XRECORD
  5
37BD
102
{ACAD_REACTORS
330
EF
102
}
330
EF
100
AcDbXrecord
280
     1
  1
SwitchRadio
  1
V:UnitsDM
  1
UnitsDM
 70
  1106
 70
  1104
 70
  1109
 70
     0
  0
XRECORD
  5
37BE
102
{ACAD_REACTORS
330
EF
102
}
330
EF
100
AcDbXrecord
280
     1
  1
SwitchRadio
  1
V:UnitsM
  1
UnitsM
 70
  1107
 70
  1104
 70
  1109
 70
     0
  0
XRECORD
  5
37BF
102
{ACAD_REACTORS
330
EF
102
}
330
EF
100
AcDbXrecord
280
     1
  1
SwitchRadio
  1
V:UnitsKM
  1
UnitsKM
 70
  1108
 70
  1104
 70
  1109
 70
     0
  0
XRECORD
  5
37C0
102
{ACAD_REACTORS
330
EF
102
}
330
EF
100
AcDbXrecord
280
     1
  1
SwitchRadio
  1
V:UnitsOther
  1
UnitsOther
 70
  1109
 70
  1104
 70
  1109
 70
     0
  0
XRECORD
  5
37C1
102
{ACAD_REACTORS
330
EF
102
}
330
EF
100
AcDbXrecord
280
     1
  1
SwitchTString
  1
V:UnitsOtherDesc
  1
UnitsOtherDesc
 70
  1110
  1

  0
XRECORD
  5
37C2
102
{ACAD_REACTORS
330
EF
102
}
330
EF
100
AcDbXrecord
280
     1
  1
SwitchFloat
  1
V:UnitsOtherFactor
  1
UnitsOtherFactor
 70
  1111
 40
1.0
  0
XRECORD
  5
37C3
102
{ACAD_REACTORS
330
EF
102
}
330
EF
100
AcDbXrecord
280
     1
  1
SwitchTString
  1
V:EinH
  1
EinH
 70
     0
  1
mm
  0
XRECORD
  5
37C4
102
{ACAD_REACTORS
330
EF
102
}
330
EF
100
AcDbXrecord
280
     1
  1
SwitchFloat
  1
V:MASS
  1
Mass
 70
     0
 40
1.0
  0
XRECORD
  5
37C5
102
{ACAD_REACTORS
330
EF
102
}
330
EF
100
AcDbXrecord
280
     1
  1
SwitchFloat
  1
V:EIFA
  1
Eifa
 70
     0
 40
1.0
  0
XRECORD
  5
37C6
102
{ACAD_REACTORS
330
EF
102
}
330
EF
100
AcDbXrecord
280
     1
  1
SwitchFloat
  1
V:ZEIN
  1
Zein
 70
     0
 40
1.0
  0
XRECORD
  5
37C7
102
{ACAD_REACTORS
330
EF
102
}
330
EF
100
AcDbXrecord
280
     1
  1
SwitchScale
  1

  1

 70
    68
 40
1.0
 40
1.0
 70
     1
  0
XRECORD
  5
3F02
102
{ACAD_REACTORS
330
EF
102
}
330
EF
100
AcDbXrecord
280
     1
  1
Unbenanntes Profil
  1
Internes Profil
  0
XRECORD
  5
375D
102
{ACAD_REACTORS
330
7E
102
}
330
7E
100
AcDbXrecord
280
     1
  1
SwitchRadio
  1
V:TEXTLAYERCURRENT
  1
TextLayerCurrent
 70
  1091
 70
  1091
 70
  1093
 70
     1
  0
XRECORD
  5
375E
102
{ACAD_REACTORS
330
7E
102
}
330
7E
100
AcDbXrecord
280
     1
  1
SwitchRadio
  1
V:TEXTLAYERTEXT
  1
TextLayerText
 70
  1092
 70
  1091
 70
  1093
 70
     0
  0
XRECORD
  5
375F
102
{ACAD_REACTORS
330
7E
102
}
330
7E
100
AcDbXrecord
280
     1
  1
SwitchRadio
  1
V:TEXTLAYERDIM
  1
TextLayerDim
 70
  1093
 70
  1091
 70
  1093
 70
     0
  0
XRECORD
  5
3760
102
{ACAD_REACTORS
330
7E
102
}
330
7E
100
AcDbXrecord
280
     1
  1
SwitchTString
  1
V:TEXTLAYERTEXTVAR
  1
TextLayerTextVar
 70
     0
  1
L:TE03
  0
XRECORD
  5
3761
102
{ACAD_REACTORS
330
7E
102
}
330
7E
100
AcDbXrecord
280
     1
  1
SwitchTString
  1
V:TEXTLAYERDIMVAR
  1
TextLayerDimVar
 70
     0
  1
L:BEMT
  0
XRECORD
  5
3762
102
{ACAD_REACTORS
330
7E
102
}
330
7E
100
AcDbXrecord
280
     1
  1
SwitchTextFloat
  1
T:THT2
  1
THT2
 70
     0
 40
2.5
  0
XRECORD
  5
3763
102
{ACAD_REACTORS
330
7E
102
}
330
7E
100
AcDbXrecord
280
     1
  1
SwitchTextFloat
  1
T:THT3
  1
THT3
 70
     0
 40
3.5
  0
XRECORD
  5
3764
102
{ACAD_REACTORS
330
7E
102
}
330
7E
100
AcDbXrecord
280
     1
  1
SwitchTextFloat
  1
T:THT5
  1
THT5
 70
     0
 40
5.0
  0
XRECORD
  5
3765
102
{ACAD_REACTORS
330
7E
102
}
330
7E
100
AcDbXrecord
280
     1
  1
SwitchTextFloat
  1
T:THT7
  1
THT7
 70
     0
 40
7.0
  0
XRECORD
  5
3766
102
{ACAD_REACTORS
330
7E
102
}
330
7E
100
AcDbXrecord
280
     1
  1
SwitchTextFloat
  1
T:THT10
  1
THT10
 70
     0
 40
10.0
  0
XRECORD
  5
3EFD
102
{ACAD_REACTORS
330
7E
102
}
330
7E
100
AcDbXrecord
280
     1
  1
Unbenanntes Profil
  1
Internes Profil
  0
ENDSEC
  0
SECTION
  2
ACDSDATA
 70
     2
 71
     6
  0
ACDSSCHEMA
 90
        0
  1
AcDb_Thumbnail_Schema
  2
AcDbDs::ID
280
    10
 91
        8
  2
Thumbnail_Data
280
    15
 91
        0
101
ACDSRECORD
 95
        0
 90
        1
  2
AcDbDs::TreatedAsObjectData
280
     1
291
     1
101
ACDSRECORD
 95
        0
 90
        2
  2
AcDbDs::Legacy
280
     1
291
     1
101
ACDSRECORD
  1
AcDbDs::ID
 90
        3
  2
AcDs:Indexable
280
     1
291
     1
101
ACDSRECORD
  1
AcDbDs::ID
 90
        4
  2
AcDbDs::HandleAttribute
280
     7
282
     1
  0
ACDSSCHEMA
 90
        1
  1
AcDbDs::TreatedAsObjectDataSchema
  2
AcDbDs::TreatedAsObjectData
280
     1
 91
        0
  0
ACDSSCHEMA
 90
        2
  1
AcDbDs::LegacySchema
  2
AcDbDs::Legacy
280
     1
 91
        0
  0
ACDSSCHEMA
 90
        3
  1
AcDbDs::IndexedPropertySchema
  2
AcDs:Indexable
280
     1
 91
        0
  0
ACDSSCHEMA
 90
        4
  1
AcDbDs::HandleAttributeSchema
  2
AcDbDs::HandleAttribute
280
     7
 91
        1
284
     1
  0
ACDSRECORD
 90
        0
  2
AcDbDs::ID
280
    10
320
3F27
  2
Thumbnail_Data
280
    15
 94
     1248
310
89504E470D0A1A0A0000000D4948445200000100000000800803000000D36B473800000300504C5445000000000000C8C8C80000000000000000000000000000000000000000000000000000330000660000990000CC0000FF0033000033330033660033990033CC0033FF0066000066330066660066990066CC0066FF0099
310
000099330099660099990099CC0099FF00CC0000CC3300CC6600CC9900CCCC00CCFF00FF0000FF3300FF6600FF9900FFCC00FFFF3300003300333300663300993300CC3300FF3333003333333333663333993333CC3333FF3366003366333366663366993366CC3366FF3399003399333399663399993399CC3399FF33CC00
310
33CC3333CC6633CC9933CCCC33CCFF33FF0033FF3333FF6633FF9933FFCC33FFFF6600006600336600666600996600CC6600FF6633006633336633666633996633CC6633FF6666006666336666666666996666CC6666FF6699006699336699666699996699CC6699FF66CC0066CC3366CC6666CC9966CCCC66CCFF66FF0066
310
FF3366FF6666FF9966FFCC66FFFF9900009900339900669900999900CC9900FF9933009933339933669933999933CC9933FF9966009966339966669966999966CC9966FF9999009999339999669999999999CC9999FF99CC0099CC3399CC6699CC9999CCCC99CCFF99FF0099FF3399FF6699FF9999FFCC99FFFFCC0000CC00
310
33CC0066CC0099CC00CCCC00FFCC3300CC3333CC3366CC3399CC33CCCC33FFCC6600CC6633CC6666CC6699CC66CCCC66FFCC9900CC9933CC9966CC9999CC99CCCC99FFCCCC00CCCC33CCCC66CCCC99CCCCCCCCCCFFCCFF00CCFF33CCFF66CCFF99CCFFCCCCFFFFFF0000FF0033FF0066FF0099FF00CCFF00FFFF3300FF3333
310
FF3366FF3399FF33CCFF33FFFF6600FF6633FF6666FF6699FF66CCFF66FFFF9900FF9933FF9966FF9999FF99CCFF99FFFFCC00FFCC33FFCC66FFCC99FFCCCCFFCCFFFFFF00FFFF33FFFF66FFFF99FFFFCCFFFFFF0000000D0D0D1A1A1A2828283535354343435050505D5D5D6B6B6B787878868686939393A1A1A1AEAEAEBB
310
BBBBC9C9C9D6D6D6E4E4E4F1F1F1FFFFFF00000000000000000000000000000000000000000000000000000000000008F1915C000001964944415478DAED9A51AE02210C45BB9CFE74DFACE2AD641663402780C26462F212D37BCE1835FAC59916CA50330000000000000000F84FDCDC5D79FC5E15288FDF5D5A80680A1C17
310
6808B0E540EB8F2A02BEF90B010840000210905640AD075D3A02BCBD1080003101A21B8263B703D86C12F2A7C020C01080000420207B6D8C000420A0DC1490A72C1C0BDD23B6E41530DEDB36D47504C4A7B8AC02E2A68034E39F05D864A06740A4DC1AD613D03E90525E024A9B09EBDBE922A6086827A72922A03EEDF35D0A
310
EC05E47942D2CEC03702DAE74640AE3A6014D0EB80A78AFC29308FA40B882B019952E06D1518A6C362E76C983C0556027A04245F061773C0BA28CC5D08DDDA0B242E857794E97627DE0C21E0D63CA1F140040108E825A28D9DA287D80D7F56BB43A7AC9E801601A61B016EEA025E9C2B7EBB84567EF5A67100000000000000
310
000098517E3298A741EA5B01F5D21660DA11203F0720000108C8DD21F7B7F886009914B868140D8943F2788F80B359B2581001226D12DA73000258062984288511800004000000000000000000FC040F9E666C6FD17F5C070000000049454E44AE42608244AE426082
  0
ENDSEC
  0
EOF
