  0
SECTION
  2
HEADER
  9
$ACADVER
  1
AC1015
  9
$ACADMAINTVER
 70
    20
  9
$DWGCODEPAGE
  3
ANSI_1252
  9
$INSBASE
 10
0.0
 20
0.0
 30
0.0
  9
$EXTMIN
 10
-21.75176719487164
 20
-0.3167335912842417
 30
0.0
  9
$EXTMAX
 10
520.4347864069656
 20
268.4996058724774
 30
0.0
  9
$LIMMIN
 10
-10.5
 20
-4.0
  9
$LIMMAX
 10
195.0
 20
285.0
  9
$ORTHOMODE
 70
     0
  9
$REGENMODE
 70
     1
  9
$FILLMODE
 70
     1
  9
$QTEXTMODE
 70
     0
  9
$MIRRTEXT
 70
     0
  9
$LTSCALE
 40
1.0
  9
$ATTMODE
 70
     1
  9
$TEXTSIZE
 40
3.5
  9
$TRACEWID
 40
0.05
  9
$TEXTSTYLE
  7
PASSDIN
  9
$CLAYER
  8
0
  9
$CELTYPE
  6
BYLAYER
  9
$CECOLOR
 62
   256
  9
$CELTSCALE
 40
1.0
  9
$DISPSILH
 70
     0
  9
$DIMSCALE
 40
1.0
  9
$DIMASZ
 40
3.5
  9
$DIMEXO
 40
1.0
  9
$DIMDLI
 40
8.0
  9
$DIMRND
 40
0.0
  9
$DIMDLE
 40
0.0
  9
$DIMEXE
 40
0.5
  9
$DIMTP
 40
0.05
  9
$DIMTM
 40
0.05
  9
$DIMTXT
 40
3.5
  9
$DIMCEN
 40
1.5
  9
$DIMTSZ
 40
0.0
  9
$DIMTOL
 70
     0
  9
$DIMLIM
 70
     0
  9
$DIMTIH
 70
     0
  9
$DIMTOH
 70
     0
  9
$DIMSE1
 70
     1
  9
$DIMSE2
 70
     0
  9
$DIMTAD
 70
     1
  9
$DIMZIN
 70
     8
  9
$DIMBLK
  1

  9
$DIMASO
 70
     1
  9
$DIMSHO
 70
     1
  9
$DIMPOST
  1

  9
$DIMAPOST
  1

  9
$DIMALT
 70
     0
  9
$DIMALTD
 70
     2
  9
$DIMALTF
 40
25.4
  9
$DIMLFAC
 40
1.0
  9
$DIMTOFL
 70
     1
  9
$DIMTVP
 40
0.0
  9
$DIMTIX
 70
     1
  9
$DIMSOXD
 70
     0
  9
$DIMSAH
 70
     0
  9
$DIMBLK1
  1

  9
$DIMBLK2
  1

  9
$DIMSTYLE
  2
NORMAL
  9
$DIMCLRD
 70
   256
  9
$DIMCLRE
 70
   256
  9
$DIMCLRT
 70
     3
  9
$DIMTFAC
 40
0.48
  9
$DIMGAP
 40
1.0
  9
$DIMJUST
 70
     0
  9
$DIMSD1
 70
     0
  9
$DIMSD2
 70
     0
  9
$DIMTOLJ
 70
     1
  9
$DIMTZIN
 70
     8
  9
$DIMALTZ
 70
     8
  9
$DIMALTTZ
 70
     8
  9
$DIMUPT
 70
     0
  9
$DIMDEC
 70
     2
  9
$DIMTDEC
 70
     2
  9
$DIMALTU
 70
     2
  9
$DIMALTTD
 70
     2
  9
$DIMTXSTY
  7
ARIAL-STANDARD
  9
$DIMAUNIT
 70
     0
  9
$DIMADEC
 70
     0
  9
$DIMALTRND
 40
0.0
  9
$DIMAZIN
 70
     0
  9
$DIMDSEP
 70
    46
  9
$DIMATFIT
 70
     3
  9
$DIMFRAC
 70
     0
  9
$DIMLDRBLK
  1

  9
$DIMLUNIT
 70
     2
  9
$DIMLWD
 70
    -2
  9
$DIMLWE
 70
    -2
  9
$DIMTMOVE
 70
     2
  9
$LUNITS
 70
     2
  9
$LUPREC
 70
     4
  9
$SKETCHINC
 40
0.1
  9
$FILLETRAD
 40
0.0
  9
$AUNITS
 70
     0
  9
$AUPREC
 70
     0
  9
$MENU
  1
.
  9
$ELEVATION
 40
0.0
  9
$PELEVATION
 40
0.0
  9
$THICKNESS
 40
0.0
  9
$LIMCHECK
 70
     0
  9
$CHAMFERA
 40
1.25
  9
$CHAMFERB
 40
1.25
  9
$CHAMFERC
 40
1.0
  9
$CHAMFERD
 40
0.0
  9
$SKPOLY
 70
     0
  9
$TDCREATE
 40
2451317.515175960
  9
$TDUCREATE
 40
2451317.473509294
  9
$TDUPDATE
 40
2454900.624325891
  9
$TDUUPDATE
 40
2454900.582659225
  9
$TDINDWG
 40
2.8771669213
  9
$TDUSRTIMER
 40
2.8771669213
  9
$USRTIMER
 70
     1
  9
$ANGBASE
 50
0.0
  9
$ANGDIR
 70
     0
  9
$PDMODE
 70
     0
  9
$PDSIZE
 40
0.0
  9
$PLINEWID
 40
0.3
  9
$SPLFRAME
 70
     0
  9
$SPLINETYPE
 70
     6
  9
$SPLINESEGS
 70
     8
  9
$HANDSEED
  5
6A1
  9
$SURFTAB1
 70
     6
  9
$SURFTAB2
 70
     6
  9
$SURFTYPE
 70
     6
  9
$SURFU
 70
     6
  9
$SURFV
 70
     6
  9
$UCSBASE
  2

  9
$UCSNAME
  2

  9
$UCSORG
 10
0.0
 20
0.0
 30
0.0
  9
$UCSXDIR
 10
1.0
 20
0.0
 30
0.0
  9
$UCSYDIR
 10
0.0
 20
1.0
 30
0.0
  9
$UCSORTHOREF
  2

  9
$UCSORTHOVIEW
 70
     0
  9
$UCSORGTOP
 10
0.0
 20
0.0
 30
0.0
  9
$UCSORGBOTTOM
 10
0.0
 20
0.0
 30
0.0
  9
$UCSORGLEFT
 10
0.0
 20
0.0
 30
0.0
  9
$UCSORGRIGHT
 10
0.0
 20
0.0
 30
0.0
  9
$UCSORGFRONT
 10
0.0
 20
0.0
 30
0.0
  9
$UCSORGBACK
 10
0.0
 20
0.0
 30
0.0
  9
$PUCSBASE
  2

  9
$PUCSNAME
  2

  9
$PUCSORG
 10
0.0
 20
0.0
 30
0.0
  9
$PUCSXDIR
 10
1.0
 20
0.0
 30
0.0
  9
$PUCSYDIR
 10
0.0
 20
1.0
 30
0.0
  9
$PUCSORTHOREF
  2

  9
$PUCSORTHOVIEW
 70
     0
  9
$PUCSORGTOP
 10
0.0
 20
0.0
 30
0.0
  9
$PUCSORGBOTTOM
 10
0.0
 20
0.0
 30
0.0
  9
$PUCSORGLEFT
 10
0.0
 20
0.0
 30
0.0
  9
$PUCSORGRIGHT
 10
0.0
 20
0.0
 30
0.0
  9
$PUCSORGFRONT
 10
0.0
 20
0.0
 30
0.0
  9
$PUCSORGBACK
 10
0.0
 20
0.0
 30
0.0
  9
$USERI1
 70
     0
  9
$USERI2
 70
     0
  9
$USERI3
 70
     0
  9
$USERI4
 70
     0
  9
$USERI5
 70
     0
  9
$USERR1
 40
0.0
  9
$USERR2
 40
0.0
  9
$USERR3
 40
0.0
  9
$USERR4
 40
0.0
  9
$USERR5
 40
0.0
  9
$WORLDVIEW
 70
     1
  9
$SHADEDGE
 70
     3
  9
$SHADEDIF
 70
    70
  9
$TILEMODE
 70
     1
  9
$MAXACTVP
 70
    48
  9
$PINSBASE
 10
0.0
 20
0.0
 30
0.0
  9
$PLIMCHECK
 70
     0
  9
$PEXTMIN
 10
-11.30424263383604
 20
0.0
 30
0.0
  9
$PEXTMAX
 10
183.0
 20
277.0
 30
0.0
  9
$PLIMMIN
 10
0.0
 20
0.0
  9
$PLIMMAX
 10
12.0
 20
9.0
  9
$UNITMODE
 70
     0
  9
$VISRETAIN
 70
     1
  9
$PLINEGEN
 70
     0
  9
$PSLTSCALE
 70
     1
  9
$TREEDEPTH
 70
  3020
  9
$CMLSTYLE
  2
STANDARD
  9
$CMLJUST
 70
     0
  9
$CMLSCALE
 40
1.0
  9
$PROXYGRAPHICS
 70
     1
  9
$MEASUREMENT
 70
     1
  9
$CELWEIGHT
370
    -1
  9
$ENDCAPS
280
     0
  9
$JOINSTYLE
280
     0
  9
$LWDISPLAY
290
     0
  9
$INSUNITS
 70
     4
  9
$HYPERLINKBASE
  1

  9
$STYLESHEET
  1

  9
$XEDIT
290
     1
  9
$CEPSNTYPE
380
     0
  9
$PSTYLEMODE
290
     1
  9
$FINGERPRINTGUID
  2
{FCF72B42-1772-4341-9180-4D9C9AD5047E}
  9
$VERSIONGUID
  2
{460601B7-65CB-4C6A-851C-7131DFFC9BD2}
  9
$EXTNAMES
290
     1
  9
$PSVPSCALE
 40
0.0
  9
$OLESTARTUP
290
     0
  0
ENDSEC
  0
SECTION
  2
CLASSES
  0
CLASS
  1
DICTIONARYVAR
  2
AcDbDictionaryVar
  3
ObjectDBX Classes
 90
        0
280
     0
281
     0
  0
CLASS
  1
ACDBDICTIONARYWDFLT
  2
AcDbDictionaryWithDefault
  3
ObjectDBX Classes
 90
        0
280
     0
281
     0
  0
CLASS
  1
TABLESTYLE
  2
AcDbTableStyle
  3
ObjectDBX Classes
 90
     4095
280
     0
281
     0
  0
CLASS
  1
ACME_DOCUMENT
  2
AcMeDbDoc
  3
AcMeServices
 90
    33792
280
     0
281
     0
  0
CLASS
  1
AMGSETTINGSOBJ
  2
AmgSettingsObj
  3
"AcadM|Product Description: AutoCAD Mechanical|Company: Autodesk, Inc."
 90
     1024
280
     0
281
     0
  0
CLASS
  1
ACMESCOPE
  2
AcMeScope
  3
AcMeServices
 90
     1024
280
     0
281
     0
  0
CLASS
  1
ACMECOMMANDHISTORY
  2
AcMeCommandHistory
  3
AcMeServices
 90
    33792
280
     0
281
     0
  0
CLASS
  1
ACIMSYSVARMAN
  2
AcImSysVarManager
  3
AcMeServices
 90
     1024
280
     0
281
     0
  0
CLASS
  1
ACIMINTSYSVAR
  2
AcImIntSysVar
  3
AcMeServices
 90
     1024
280
     0
281
     0
  0
CLASS
  1
ACMEDRAWINGMAN
  2
AcMeDrawingMan
  3
AcMeServices
 90
    33792
280
     0
281
     0
  0
CLASS
  1
ACMEVIEW
  2
AcMeView
  3
AcMeServices
 90
    33792
280
     0
281
     0
  0
CLASS
  1
ACDBENTITYCACHE
  2
AcMeEntityCache
  3
AcMeServices
 90
    33792
280
     0
281
     0
  0
CLASS
  1
GSMANAGER
  2
AcMeGSManager
  3
AcMeServices
 90
    33792
280
     1
281
     0
  0
CLASS
  1
AMDTINTERNALREACTOR
  2
AmdtInternalReactor
  3
AcMeServices
 90
     1024
280
     0
281
     0
  0
CLASS
  1
ACMESTATEMGR
  2
AcMeStateMgr
  3
AcMeServices
 90
     1024
280
     0
281
     0
  0
CLASS
  1
ACGREFMASTER
  2
AcGrefMaster
  3
AcAttribServices
 90
     1024
280
     0
281
     0
  0
CLASS
  1
AM_DRAWING_MGR
  2
AcDmDwgMgr
  3
AcMechDwgViewMgmt
 90
     1024
280
     0
281
     0
  0
CLASS
  1
AM_DWG_DOCUMENT
  2
AcDmDwgDocument
  3
AcMechDwgViewMgmt
 90
     1024
280
     0
281
     0
  0
CLASS
  1
AM_DWG_SHEET
  2
AcDmSheet
  3
AcMechDwgViewMgmt
 90
     1024
280
     0
281
     0
  0
CLASS
  1
AM_VIEWDIMPARMAP
  2
AcDmViewDimParMap
  3
AcMechDwgViewMgmt
 90
     1024
280
     0
281
     0
  0
CLASS
  1
ACIMREALSYSVAR
  2
AcImRealSysVar
  3
AcMeServices
 90
     1024
280
     0
281
     0
  0
CLASS
  1
AM_DWGMGR_NAME
  2
AcDmDwgMgrName
  3
AcMechDwgViewMgmt
 90
     1024
280
     0
281
     0
  0
CLASS
  1
ACME_DATABASE
  2
AcMeDbDatabase
  3
AcMeServices
 90
    33792
280
     0
281
     0
  0
CLASS
  1
ACRFINSADJUSTERMGR
  2
AcRfInsAdjusterMgr
  3
AcMeServices
 90
    33792
280
     0
281
     0
  0
CLASS
  1
ACGREFACADMASTER
  2
AcGrefacadMaster
  3
AcGrefServices
 90
    33792
280
     0
281
     0
  0
CLASS
  1
AMDTMENUSTATEMGR
  2
AmdtMenuStateMgr
  3
McadcomServices
 90
    33792
280
     0
281
     0
  0
CLASS
  1
AMDTMCOMMENUSTATE
  2
AmdtMcomMenuState
  3
McadcomServices
 90
    33792
280
     0
281
     0
  0
CLASS
  1
AMIMASTER
  2
AmiMaster
  3
AmiServices
 90
    33792
280
     0
281
     0
  0
CLASS
  1
MAPIAMMOUDLE
  2
MApiAmModule
  3
MApiAmServices
 90
    33792
280
     0
281
     0
  0
CLASS
  1
ACIMSTRSYSVAR
  2
AcImStrSysVar
  3
AcMeServices
 90
     1024
280
     0
281
     0
  0
CLASS
  1
AMDTADMENUSTATE
  2
AmdtAdMenuState
  3
DesignerServices
 90
    33792
280
     1
281
     0
  0
CLASS
  1
ADAPPL
  2
AcAdAppl
  3
DesignerAssemblies
 90
    33792
280
     0
281
     0
  0
CLASS
  1
DEPMGR
  2
AcAdDepMgr
  3
DesignerAssemblies
 90
    33792
280
     0
281
     0
  0
CLASS
  1
PARAMMGR
  2
AcAdParamMgr
  3
DesignerAssemblies
 90
    33792
280
     0
281
     0
  0
CLASS
  1
PARAMSCOPE
  2
AcAdParamScope
  3
DesignerAssemblies
 90
    33792
280
     0
281
     0
  0
CLASS
  1
NAMEDAPPL
  2
AcAdNamedAppl
  3
DesignerAssemblies
 90
    33792
280
     0
281
     0
  0
CLASS
  1
AMDTDMMENUSTATE
  2
AmdtDmMenuState
  3
AcMechDwgViewMgmt
 90
    33792
280
     1
281
     0
  0
CLASS
  1
AMDTAMMENUSTATE
  2
AmdtAmMenuState
  3
DesignerAssemblies
 90
    33792
280
     0
281
     0
  0
CLASS
  1
ACAMPROJECT
  2
AcAmProject
  3
DesignerAssemblies
 90
    33792
280
     0
281
     0
  0
CLASS
  1
ACAMGRCOMPDEF
  2
AcAmGrCompDef
  3
DesignerAssemblies
 90
    33792
280
     0
281
     0
  0
CLASS
  1
ACCMCONTEXT
  2
AcCmContext
  3
DesignerAssemblies
 90
    33792
280
     0
281
     0
  0
CLASS
  1
ACAMCOMPDEF
  2
AcAmCompDef
  3
DesignerAssemblies
 90
    33792
280
     0
281
     0
  0
CLASS
  1
ACAMCOMPDEFMGR
  2
AcAmCompDefMgr
  3
DesignerAssemblies
 90
    33792
280
     0
281
     0
  0
CLASS
  1
AMCONTEXTMGR
  2
AcAmContextMgr
  3
DesignerAssemblies
 90
    33792
280
     0
281
     0
  0
CLASS
  1
ACAMCONTEXTMODELER
  2
AcAmContextModeler
  3
DesignerAssemblies
 90
    33792
280
     0
281
     0
  0
CLASS
  1
ACMDATADICTIONARY
  2
AcmDataDictionary
  3
"AcmSymBB|Product Description: AutoCAD Mechanical|Company: Autodesk, Inc."
 90
    33792
280
     0
281
     0
  0
CLASS
  1
CATALOGSTATE
  2
AcAmCatalogState
  3
DesignerAssemblies
 90
    33792
280
     0
281
     0
  0
CLASS
  1
ACAMGRCOMPDEFSET
  2
AcAmGrCompDefSet
  3
DesignerAssemblies
 90
    33792
280
     0
281
     0
  0
CLASS
  1
AMDTBROWSERDBTAB
  2
AmdtBrowserDbTab
  3
McadcomServices
 90
    33792
280
     0
281
     0
  0
CLASS
  1
CBROWSERAPPOBJECT
  2
CBrowserAppObject
  3
McadcomServices
 90
    33792
280
     0
281
     0
  0
CLASS
  1
DM_PLACEHOLDER
  2
AcDmSelsetPlaceholder
  3
McadcomServices
 90
    33792
280
     0
281
     0
  0
CLASS
  1
ACMSTANDARDANSI
  2
AcmStandardANSI
  3
"Amdt_StdImp|Product Description: AutoCAD Mechanical|Company: Autodesk, Inc."
 90
    33792
280
     0
281
     0
  0
CLASS
  1
AMGOBJPROPCFG
  2
AmgObjPropCfg
  3
"AmgLay|Product Description: AutoCAD Mechanical|Company: Autodesk, Inc."
 90
     1024
280
     0
281
     0
  0
CLASS
  1
ACMSURFSTANDARDANSI
  2
AcmSurfTextStdANSI
  3
"Amdt_StdImp|Product Description: AutoCAD Mechanical|Company: Autodesk, Inc."
 90
    33792
280
     0
281
     0
  0
CLASS
  1
ACMFCFSTANDARDANSI
  2
AcmFCFStdANSI
  3
"Amdt_StdImp|Product Description: AutoCAD Mechanical|Company: Autodesk, Inc."
 90
    33792
280
     0
281
     0
  0
CLASS
  1
ACMWELDSTANDARDANSI
  2
AcmWeldingStdANSI
  3
"Amdt_StdImp|Product Description: AutoCAD Mechanical|Company: Autodesk, Inc."
 90
    33792
280
     0
281
     0
  0
CLASS
  1
ACMIDSTANDARDANSI
  2
AcmIdStdANSI
  3
"Amdt_StdImp|Product Description: AutoCAD Mechanical|Company: Autodesk, Inc."
 90
    33792
280
     0
281
     0
  0
CLASS
  1
ACMDATUMSTANDARDANSI
  2
AcmDatumStdANSI
  3
"Amdt_StdImp|Product Description: AutoCAD Mechanical|Company: Autodesk, Inc."
 90
    33792
280
     0
281
     0
  0
CLASS
  1
ACMBOMSTANDARDANSI
  2
AcmBOMStdANSI
  3
"Amdt_StdImp|Product Description: AutoCAD Mechanical|Company: Autodesk, Inc."
 90
    33792
280
     0
281
     0
  0
CLASS
  1
ACMDETAILSTANDARDANSI
  2
AmdtDetailSymStdANSI
  3
"Amdt_StdImp|Product Description: AutoCAD Mechanical|Company: Autodesk, Inc."
 90
    33792
280
     0
281
     0
  0
CLASS
  1
ACMSECTIONSTANDARDANSI
  2
AmdtSectionSymStdANSI
  3
"Amdt_StdImp|Product Description: AutoCAD Mechanical|Company: Autodesk, Inc."
 90
    33792
280
     0
281
     0
  0
CLASS
  1
ACMCENTERLINESTANDARDANSI
  2
AmdtCenterLineStdANSI
  3
"Amdt_StdImp|Product Description: AutoCAD Mechanical|Company: Autodesk, Inc."
 90
    33792
280
     0
281
     0
  0
CLASS
  1
ACMTHREADLINESTANDARDANSI
  2
AmdtThreadLineStdANSI
  3
"Amdt_StdImp|Product Description: AutoCAD Mechanical|Company: Autodesk, Inc."
 90
    33792
280
     0
281
     0
  0
CLASS
  1
ACMNOTESTANDARDANSI
  2
AmdtNoteStdANSI
  3
"Amdt_StdImp|Product Description: AutoCAD Mechanical|Company: Autodesk, Inc."
 90
    33792
280
     0
281
     0
  0
CLASS
  1
AMDTNOTETEMPLATEDB
  2
AmdtNoteTemplateDB
  3
AcmSymBB|Product Description: AutoCAD Mechanical|Company: Autodesk, Inc.
 90
     1024
280
     0
281
     0
  0
CLASS
  1
ACAMGLAYSTD
  2
AcAmgLayStd
  3
"AmgLay|Product Description: AutoCAD Mechanical|Company: Autodesk, Inc."
 90
     1024
280
     0
281
     0
  0
CLASS
  1
ACAMGDIMSTD
  2
AcAmgDimStd
  3
"AmgDim|Product Description: AutoCAD Mechanical|Company: Autodesk, Inc."
 90
     1024
280
     0
281
     0
  0
CLASS
  1
ACAMGHOLECHARTSTDANSI
  2
AcAmgHoleChartStdANSI
  3
AmgDim|Product Description: AutoCAD Mechanical|Company: Autodesk, Inc.
 90
    33792
280
     0
281
     0
  0
CLASS
  1
ACAMGTITLESTD
  2
AcAmgTitleStd
  3
"AmgTitle|Product Description: AutoCAD Mechanical|Company: Autodesk, Inc."
 90
     1024
280
     0
281
     0
  0
CLASS
  1
ACAMGFILTERDAT
  2
AcAmgFilterDat
  3
"AcadM|Product Description: AutoCAD Mechanical|Company: Autodesk, Inc."
 90
    33792
280
     0
281
     0
  0
CLASS
  1
SORTENTSTABLE
  2
AcDbSortentsTable
  3
ObjectDBX Classes
 90
        0
280
     0
281
     0
  0
CLASS
  1
ACMSTANDARDDIN
  2
AcmStandardDIN
  3
"Amdt_StdImp|Product Description: AutoCAD Mechanical|Company: Autodesk, Inc."
 90
     1024
280
     0
281
     0
  0
CLASS
  1
AMDTEDGESTANDARDDIN13715
  2
AmdtEdgeStdDIN13715
  3
"Amdt_StdImp|Product Description: AutoCAD Mechanical|Company: Autodesk, Inc."
 90
     1024
280
     0
281
     0
  0
CLASS
  1
ACMSURFSTANDARDDIN
  2
AcmSurfTextStdDIN
  3
"Amdt_StdImp|Product Description: AutoCAD Mechanical|Company: Autodesk, Inc."
 90
     1024
280
     0
281
     0
  0
CLASS
  1
ACMFCFSTANDARDDIN
  2
AcmFCFStdDIN
  3
"Amdt_StdImp|Product Description: AutoCAD Mechanical|Company: Autodesk, Inc."
 90
     1024
280
     0
281
     0
  0
CLASS
  1
ACMWELDSTANDARDDIN
  2
AcmWeldingStdDIN
  3
"Amdt_StdImp|Product Description: AutoCAD Mechanical|Company: Autodesk, Inc."
 90
     1024
280
     0
281
     0
  0
CLASS
  1
ACMIDSTANDARDDIN
  2
AcmIdStdDIN
  3
"Amdt_StdImp|Product Description: AutoCAD Mechanical|Company: Autodesk, Inc."
 90
     1024
280
     0
281
     0
  0
CLASS
  1
ACMDATUMSTANDARDDIN
  2
AcmDatumStdDIN
  3
"Amdt_StdImp|Product Description: AutoCAD Mechanical|Company: Autodesk, Inc."
 90
     1024
280
     0
281
     0
  0
CLASS
  1
ACMBOMSTANDARDDIN
  2
AcmBOMStdDIN
  3
"Amdt_StdImp|Product Description: AutoCAD Mechanical|Company: Autodesk, Inc."
 90
     1024
280
     0
281
     0
  0
CLASS
  1
ACMDETAILSTANDARDDIN
  2
AmdtDetailSymStdDIN
  3
"Amdt_StdImp|Product Description: AutoCAD Mechanical|Company: Autodesk, Inc."
 90
     1024
280
     0
281
     0
  0
CLASS
  1
ACMSECTIONSTANDARDDIN
  2
AmdtSectionSymStdDIN
  3
"Amdt_StdImp|Product Description: AutoCAD Mechanical|Company: Autodesk, Inc."
 90
     1024
280
     0
281
     0
  0
CLASS
  1
ACMCENTERLINESTANDARDDIN
  2
AmdtCenterLineStdDIN
  3
"Amdt_StdImp|Product Description: AutoCAD Mechanical|Company: Autodesk, Inc."
 90
     1024
280
     0
281
     0
  0
CLASS
  1
ACMTHREADLINESTANDARDDIN
  2
AmdtThreadLineStdDIN
  3
"Amdt_StdImp|Product Description: AutoCAD Mechanical|Company: Autodesk, Inc."
 90
     1024
280
     0
281
     0
  0
CLASS
  1
ACMNOTESTANDARDDIN
  2
AmdtNoteStdDIN
  3
"Amdt_StdImp|Product Description: AutoCAD Mechanical|Company: Autodesk, Inc."
 90
     1024
280
     0
281
     0
  0
CLASS
  1
ACAMGHOLECHARTSTDDIN
  2
AcAmgHoleChartStdDIN
  3
AmgDim|Product Description: AutoCAD Mechanical|Company: Autodesk, Inc.
 90
     1024
280
     0
281
     0
  0
CLASS
  1
ACMDATAENTRYBLOCK
  2
AcmDataEntryBlock
  3
AcmSymBB|Product Description: AutoCAD Mechanical|Company: Autodesk, Inc.
 90
    33792
280
     0
281
     0
  0
CLASS
  1
PLOTSETTINGS
  2
AcDbPlotSettings
  3
ObjectDBX Classes
 90
    32768
280
     0
281
     0
  0
CLASS
  1
MATERIAL
  2
AcDbMaterial
  3
ObjectDBX Classes
 90
     1153
280
     0
281
     0
  0
CLASS
  1
VISUALSTYLE
  2
AcDbVisualStyle
  3
ObjectDBX Classes
 90
     4095
280
     0
281
     0
  0
CLASS
  1
SCALE
  2
AcDbScale
  3
ObjectDBX Classes
 90
     1153
280
     0
281
     0
  0
CLASS
  1
MLEADERSTYLE
  2
AcDbMLeaderStyle
  3
ACDB_MLEADERSTYLE_CLASS
 90
    36863
280
     0
281
     0
  0
CLASS
  1
ACMTAPERSTANDARDDIN
  2
AcmTaperStdDIN
  3
"Amdt_StdImp|Product Description: AutoCAD Mechanical|Company: Autodesk, Inc."
 90
     1024
280
     0
281
     0
  0
CLASS
  1
ACMANOOTATIONVIEWSTANDARDDIN
  2
AmdtAnViewStdDIN
  3
"Amdt_StdImp|Product Description: AutoCAD Mechanical|Company: Autodesk, Inc."
 90
     1024
280
     0
281
     0
  0
CLASS
  1
CAMSSTRUCTBTNSTATE
  2
StructBtnState
  3
DesignerAssemblies
 90
    33792
280
     0
281
     0
  0
CLASS
  1
CELLSTYLEMAP
  2
AcDbCellStyleMap
  3
ObjectDBX Classes
 90
     1152
280
     0
281
     0
  0
CLASS
  1
ACMTAPERSTANDARDANSI
  2
AcmTaperStdANSI
  3
"Amdt_StdImp|Product Description: AutoCAD Mechanical|Company: Autodesk, Inc."
 90
    33792
280
     0
281
     0
  0
CLASS
  1
ACMANOOTATIONVIEWSTANDARDANSI
  2
AmdtAnViewStdANSI
  3
"Amdt_StdImp|Product Description: AutoCAD Mechanical|Company: Autodesk, Inc."
 90
    33792
280
     0
281
     0
  0
CLASS
  1
ACDBSECTIONVIEWSTYLE
  2
AcDbSectionViewStyle
  3
ObjectDBX Classes
 90
     1025
280
     0
281
     0
  0
CLASS
  1
ACDBDETAILVIEWSTYLE
  2
AcDbDetailViewStyle
  3
ObjectDBX Classes
 90
     1025
280
     0
281
     0
  0
CLASS
  1
ACMSECTIONSTANDARDCUSTOM
  2
AmdtSectionSymStdCustom
  3
"Amdt_StdImp|Product Description: AutoCAD Mechanical|Company: Autodesk, Inc."
 90
     1024
280
     0
281
     0
  0
CLASS
  1
ACMDETAILTANDARDCUSTOM
  2
AmdtDetailSymStdCustom
  3
"Amdt_StdImp|Product Description: AutoCAD Mechanical|Company: Autodesk, Inc."
 90
     1024
280
     0
281
     0
  0
CLASS
  1
FIELD
  2
AcDbField
  3
ObjectDBX Classes
 90
     1152
280
     0
281
     0
  0
CLASS
  1
FIELDLIST
  2
AcDbFieldList
  3
ObjectDBX Classes
 90
     1152
280
     0
281
     0
  0
CLASS
  1
ACDBPLACEHOLDER
  2
AcDbPlaceHolder
  3
ObjectDBX Classes
 90
        0
280
     0
281
     0
  0
CLASS
  1
LAYOUT
  2
AcDbLayout
  3
ObjectDBX Classes
 90
        0
280
     0
281
     0
  0
ENDSEC
  0
SECTION
  2
TABLES
  0
TABLE
  2
VPORT
  5
2B
330
0
100
AcDbSymbolTable
 70
     1
  0
VPORT
  5
2C
330
2B
100
AcDbSymbolTableRecord
100
AcDbViewportTableRecord
  2
*Active
 70
     0
 10
0.0
 20
0.0
 11
1.0
 21
1.0
 12
268.1088914664232
 22
137.3604994224127
 13
0.0
 23
0.0
 14
10.0
 24
10.0
 15
10.0
 25
10.0
 16
0.0
 26
0.0
 36
1.0
 17
0.0
 27
0.0
 37
0.0
 40
350.7795412555009
 41
2.033022861981371
 42
50.0
 43
0.0
 44
0.0
 50
0.0
 51
0.0
 71
     0
 72
  5000
 73
     1
 74
     0
 75
     0
 76
     0
 77
     0
 78
     2
281
     0
 65
     1
110
0.0
120
0.0
130
0.0
111
1.0
121
0.0
131
0.0
112
0.0
122
1.0
132
0.0
 79
     0
146
0.0
1001
ACAD_NAV_VCDISPLAY
1070
     3
  0
ENDTAB
  0
TABLE
  2
LTYPE
  5
26
330
0
100
AcDbSymbolTable
 70
    13
  0
LTYPE
  5
27
330
26
100
AcDbSymbolTableRecord
100
AcDbLinetypeTableRecord
  2
BYBLOCK
 70
     0
  3

 72
    65
 73
     0
 40
0.0
  0
LTYPE
  5
28
330
26
100
AcDbSymbolTableRecord
100
AcDbLinetypeTableRecord
  2
BYLAYER
 70
     0
  3

 72
    65
 73
     0
 40
0.0
  0
LTYPE
  5
15
330
26
100
AcDbSymbolTableRecord
100
AcDbLinetypeTableRecord
  2
CONTINUOUS
 70
     0
  3
Solid line
 72
    65
 73
     0
 40
0.0
  0
LTYPE
  5
6B
330
26
100
AcDbSymbolTableRecord
100
AcDbLinetypeTableRecord
  2
STRICHPUNKT2
 70
     0
  3
Strichpunkt (.5x) _._._._._._._._._._._._._._._
 72
    65
 73
     4
 40
12.7
 49
6.349999999999999
 74
     0
 49
-3.174999999999999
 74
     0
 49
0.0
 74
     0
 49
-3.174999999999999
 74
     0
  0
LTYPE
  5
602
330
26
100
AcDbSymbolTableRecord
100
AcDbLinetypeTableRecord
  2
Amconstr
 70
     0
  3
_______________________
 72
    65
 73
     2
 40
9999.0
 49
9999.0
 74
     0
 49
0.0
 74
     0
  0
LTYPE
  5
605
330
26
100
AcDbSymbolTableRecord
100
AcDbLinetypeTableRecord
  2
Amzigzag
 70
     0
  3
/\/-/\/-/\/-/\/-/\/-/\/
 72
    65
 73
     2
 40
11.0001
 49
0.0001
 74
     4
 75
   136
340
606
 46
0.04
 50
0.0
 44
0.0
 45
0.0
 49
-11.0
 74
     0
  0
LTYPE
  5
5FF
330
26
100
AcDbSymbolTableRecord
100
AcDbLinetypeTableRecord
  2
AM_DIN_F_W050
 70
     0
  3
__ __ __ __ __ __ __ __ __ __ __ __ __ __ __
 72
    65
 73
     2
 40
6.25
 49
4.75
 74
     0
 49
-1.5
 74
     0
  0
LTYPE
  5
600
330
26
100
AcDbSymbolTableRecord
100
AcDbLinetypeTableRecord
  2
AM_DIN_G_W050
 70
     0
  3
____ . ____ . ____ . ____ . ____ . ____ . ____
 72
    65
 73
     4
 40
13.75
 49
9.75
 74
     0
 49
-1.5
 74
     0
 49
1.0
 74
     0
 49
-1.5
 74
     0
  0
LTYPE
  5
601
330
26
100
AcDbSymbolTableRecord
100
AcDbLinetypeTableRecord
  2
AM_DIN_K_W050
 70
     0
  3
_____ . . _____ . . _____ . . ____ .. ____
 72
    65
 73
     6
 40
16.25
 49
9.75
 74
     0
 49
-1.5
 74
     0
 49
1.0
 74
     0
 49
-1.5
 74
     0
 49
1.0
 74
     0
 49
-1.5
 74
     0
  0
LTYPE
  5
603
330
26
100
AcDbSymbolTableRecord
100
AcDbLinetypeTableRecord
  2
AM_DIN_G_W050x2
 70
     0
  3
__ . __ . __ . __ . __ . __
 72
    65
 73
     4
 40
6.875
 49
4.75
 74
     0
 49
-0.875
 74
     0
 49
0.375
 74
     0
 49
-0.875
 74
     0
  0
LTYPE
  5
604
330
26
100
AcDbSymbolTableRecord
100
AcDbLinetypeTableRecord
  2
AM_DIN_F_W050x2
 70
     0
  3
 _ _ _ _ _ _ _ _ _ _ _ _
 72
    65
 73
     2
 40
3.125
 49
2.25
 74
     0
 49
-0.875
 74
     0
  0
LTYPE
  5
616
330
26
100
AcDbSymbolTableRecord
100
AcDbLinetypeTableRecord
  2
ACDINWELD
 70
     0
  3
_ _ _ _ _
 72
    65
 73
     2
 40
2.0
 49
2.0
 74
     0
 49
-1.0
 74
     0
  0
LTYPE
  5
619
330
26
100
AcDbSymbolTableRecord
100
AcDbLinetypeTableRecord
  2
ACDINTGB
 70
     0
  3
__ . . __ . .
 72
    65
 73
     6
 40
9.0
 49
4.0
 74
     0
 49
-1.0
 74
     0
 49
1.0
 74
     0
 49
-1.0
 74
     0
 49
1.0
 74
     0
 49
-1.0
 74
     0
  0
LTYPE
  5
61A
330
26
100
AcDbSymbolTableRecord
100
AcDbLinetypeTableRecord
  2
ACDINTGL
 70
     0
  3
_ _ _ _ _
 72
    65
 73
     2
 40
3.0
 49
2.0
 74
     0
 49
-1.0
 74
     0
  0
LTYPE
  5
49A
330
26
100
AcDbSymbolTableRecord
100
AcDbLinetypeTableRecord
  2
RANDX2
 70
     0
  3
____  ____  .  ____  ____  .  ____  ____  .  __
 72
    65
 73
     6
 40
3.5
 49
1.0
 74
     0
 49
-0.5
 74
     0
 49
1.0
 74
     0
 49
-0.5
 74
     0
 49
0.0
 74
     0
 49
-0.5
 74
     0
  0
ENDTAB
  0
TABLE
  2
LAYER
  5
1E
102
{ACAD_XDICTIONARY
360
1F
102
}
330
0
100
AcDbSymbolTable
 70
    22
  0
LAYER
  5
6
102
{ACAD_XDICTIONARY
360
7
102
}
330
1E
100
AcDbSymbolTableRecord
100
AcDbLayerTableRecord
  2
0
 70
     0
 62
     7
  6
CONTINUOUS
370
    -3
390
9
  0
LAYER
  5
464
102
{ACAD_XDICTIONARY
360
465
102
}
330
1E
100
AcDbSymbolTableRecord
100
AcDbLayerTableRecord
  2
UMRISS02
 70
     0
 62
     1
  6
CONTINUOUS
370
    -3
390
9
  0
LAYER
  5
E0
102
{ACAD_XDICTIONARY
360
E1
102
}
330
1E
100
AcDbSymbolTableRecord
100
AcDbLayerTableRecord
  2
UMRISS03
 70
     0
 62
     3
  6
CONTINUOUS
370
    -3
390
9
  0
LAYER
  5
D9
102
{ACAD_XDICTIONARY
360
DA
102
}
330
1E
100
AcDbSymbolTableRecord
100
AcDbLayerTableRecord
  2
UMRISS05
 70
     0
 62
     4
  6
CONTINUOUS
370
    -3
390
9
  0
LAYER
  5
D5
102
{ACAD_XDICTIONARY
360
D6
102
}
330
1E
100
AcDbSymbolTableRecord
100
AcDbLayerTableRecord
  2
UMRISS07
 70
     0
 62
     6
  6
CONTINUOUS
370
    -3
390
9
  0
LAYER
  5
49D
102
{ACAD_XDICTIONARY
360
49E
102
}
330
1E
100
AcDbSymbolTableRecord
100
AcDbLayerTableRecord
  2
TEXT03
 70
     0
 62
     3
  6
CONTINUOUS
370
    -3
390
9
  0
LAYER
  5
74
102
{ACAD_XDICTIONARY
360
75
102
}
330
1E
100
AcDbSymbolTableRecord
100
AcDbLayerTableRecord
  2
BEMASSUNG
 70
     0
 62
     2
  6
CONTINUOUS
370
    -3
390
9
  0
LAYER
  5
68
102
{ACAD_XDICTIONARY
360
69
102
}
330
1E
100
AcDbSymbolTableRecord
100
AcDbLayerTableRecord
  2
ACHSEN
 70
     0
 62
     1
  6
STRICHPUNKT2
370
    -3
390
9
  0
LAYER
  5
9A
102
{ACAD_XDICTIONARY
360
9B
102
}
330
1E
100
AcDbSymbolTableRecord
100
AcDbLayerTableRecord
  2
ACA_VARSAVE
 70
     4
 62
     7
  6
CONTINUOUS
370
    -3
390
9
  0
LAYER
  5
80
330
1E
100
AcDbSymbolTableRecord
100
AcDbLayerTableRecord
  2
DEFPOINTS
 70
     0
 62
     7
  6
CONTINUOUS
290
     0
370
    -3
390
9
  0
LAYER
  5
A6
102
{ACAD_XDICTIONARY
360
A7
102
}
330
1E
100
AcDbSymbolTableRecord
100
AcDbLayerTableRecord
  2
ASHADE
 70
     0
 62
     7
  6
CONTINUOUS
370
    -3
390
9
  0
LAYER
  5
C8
102
{ACAD_XDICTIONARY
360
C9
102
}
330
1E
100
AcDbSymbolTableRecord
100
AcDbLayerTableRecord
  2
S-BETRIEB
 70
     0
 62
    -7
  6
CONTINUOUS
370
    -3
390
9
  0
LAYER
  5
C4
102
{ACAD_XDICTIONARY
360
C5
102
}
330
1E
100
AcDbSymbolTableRecord
100
AcDbLayerTableRecord
  2
S-LAGER1
 70
     0
 62
    -7
  6
CONTINUOUS
370
    -3
390
9
  0
LAYER
  5
C0
102
{ACAD_XDICTIONARY
360
C1
102
}
330
1E
100
AcDbSymbolTableRecord
100
AcDbLayerTableRecord
  2
S-LAGER2
 70
     0
 62
    -7
  6
CONTINUOUS
370
    -3
390
9
  0
LAYER
  5
BC
102
{ACAD_XDICTIONARY
360
BD
102
}
330
1E
100
AcDbSymbolTableRecord
100
AcDbLayerTableRecord
  2
S-STANZEREI
 70
     0
 62
    -7
  6
CONTINUOUS
370
    -3
390
9
  0
LAYER
  5
CC
102
{ACAD_XDICTIONARY
360
CD
102
}
330
1E
100
AcDbSymbolTableRecord
100
AcDbLayerTableRecord
  2
S-TECHNIK
 70
     0
 62
    -7
  6
CONTINUOUS
370
    -3
390
9
  0
LAYER
  5
B8
102
{ACAD_XDICTIONARY
360
B9
102
}
330
1E
100
AcDbSymbolTableRecord
100
AcDbLayerTableRecord
  2
S-VORMONTAGE
 70
     0
 62
    -7
  6
CONTINUOUS
370
    -3
390
9
  0
LAYER
  5
B3
102
{ACAD_XDICTIONARY
360
B4
102
}
330
1E
100
AcDbSymbolTableRecord
100
AcDbLayerTableRecord
  2
S-WERKZEUGMACHEREI
 70
     0
 62
    -7
  6
CONTINUOUS
370
    -3
390
9
  0
LAYER
  5
D1
102
{ACAD_XDICTIONARY
360
D2
102
}
330
1E
100
AcDbSymbolTableRecord
100
AcDbLayerTableRecord
  2
S-MONTAGE
 70
     0
 62
    -7
  6
CONTINUOUS
370
    -3
390
9
  0
LAYER
  5
4A2
102
{ACAD_XDICTIONARY
360
4A3
102
}
330
1E
100
AcDbSymbolTableRecord
100
AcDbLayerTableRecord
  2
TEXT05
 70
     0
 62
     4
  6
CONTINUOUS
370
    -3
390
9
  0
LAYER
  5
F0
102
{ACAD_XDICTIONARY
360
F1
102
}
330
1E
100
AcDbSymbolTableRecord
100
AcDbLayerTableRecord
  2
SCHRAFFUR
 70
     0
 62
     8
  6
CONTINUOUS
370
    -3
390
9
  0
LAYER
  5
497
102
{ACAD_XDICTIONARY
360
498
102
}
330
1E
100
AcDbSymbolTableRecord
100
AcDbLayerTableRecord
  2
KOPF03
 70
     0
 62
     1
  6
RANDX2
370
    -3
390
9
  0
ENDTAB
  0
TABLE
  2
STYLE
  5
23
330
0
100
AcDbSymbolTable
 70
     9
  0
STYLE
  5
24
330
23
100
AcDbSymbolTableRecord
100
AcDbTextStyleTableRecord
  2
STANDARD
 70
     0
 40
0.0
 41
1.0
 50
0.0
 71
     0
 42
10.0
  3
txt
  4

  0
STYLE
  5
33
330
23
100
AcDbSymbolTableRecord
100
AcDbTextStyleTableRecord
  2
ARIAL-STANDARD
 70
     0
 40
0.0
 41
1.0
 50
0.0
 71
     0
 42
3.5
  3
arial.ttf
  4

1001
ACAD
1000
Arial
1071
       34
  0
STYLE
  5
4A0
330
23
100
AcDbSymbolTableRecord
100
AcDbTextStyleTableRecord
  2
NORM
 70
     0
 40
0.0
 41
1.0
 50
0.0
 71
     0
 42
2.399999999999999
  3
SIMPLEX
  4

  0
STYLE
  5
B6
330
23
100
AcDbSymbolTableRecord
100
AcDbTextStyleTableRecord
  2
ARIALFETT
 70
     0
 40
0.0
 41
1.0
 50
0.0
 71
     0
 42
6.0
  3

  4

1001
ACAD
1000
Arial Black
1071
       34
  0
STYLE
  5
50
330
23
100
AcDbSymbolTableRecord
100
AcDbTextStyleTableRecord
  2
PASSDIN
 70
     0
 40
0.0
 41
1.0
 50
0.0
 71
     0
 42
3.5
  3
isocp.shx
  4

  0
STYLE
  5
606
330
23
100
AcDbSymbolTableRecord
100
AcDbTextStyleTableRecord
  2

 70
     1
 40
0.0
 41
1.0
 50
0.0
 71
     0
 42
3.5
  3
genltshp.shx
  4

  0
STYLE
  5
610
330
23
100
AcDbSymbolTableRecord
100
AcDbTextStyleTableRecord
  2
ACDINTS
 70
     0
 40
1.0
 41
1.0
 50
0.0
 71
     0
 42
3.5
  3
isocp.shx
  4

  0
STYLE
  5
614
330
23
100
AcDbSymbolTableRecord
100
AcDbTextStyleTableRecord
  2
ACDINGDT
 70
     0
 40
0.0
 41
1.0
 50
0.0
 71
     0
 42
3.5
  3
AMGDT
  4

  0
STYLE
  5
49B
330
23
100
AcDbSymbolTableRecord
100
AcDbTextStyleTableRecord
  2
ARIAL
 70
     0
 40
0.0
 41
0.8
 50
0.0
 71
     0
 42
3.0
  3
ARIALN.TTF
  4

1001
ACAD
1000
Arial Narrow
1071
       34
  0
ENDTAB
  0
TABLE
  2
VIEW
  5
29
330
0
100
AcDbSymbolTable
 70
     0
  0
ENDTAB
  0
TABLE
  2
UCS
  5
2A
330
0
100
AcDbSymbolTable
 70
     0
  0
ENDTAB
  0
TABLE
  2
APPID
  5
30
330
0
100
AcDbSymbolTable
 70
    19
  0
APPID
  5
22
330
30
100
AcDbSymbolTableRecord
100
AcDbRegAppTableRecord
  2
ACAD
 70
     0
  0
APPID
  5
A3
330
30
100
AcDbSymbolTableRecord
100
AcDbRegAppTableRecord
  2
ACA_CADIMENU
 70
     0
  0
APPID
  5
AC
330
30
100
AcDbSymbolTableRecord
100
AcDbRegAppTableRecord
  2
AVE_RENDER
 70
     0
  0
APPID
  5
500
330
30
100
AcDbSymbolTableRecord
100
AcDbRegAppTableRecord
  2
GENIUS_GENREC_14
 70
     0
  0
APPID
  5
501
330
30
100
AcDbSymbolTableRecord
100
AcDbRegAppTableRecord
  2
GENIUS_GENODEF_13
 70
     0
  0
APPID
  5
502
330
30
100
AcDbSymbolTableRecord
100
AcDbRegAppTableRecord
  2
GENIUS_GENOBJ-N-REC_13
 70
     0
  0
APPID
  5
644
330
30
100
AcDbSymbolTableRecord
100
AcDbRegAppTableRecord
  2
ACAD_DSTYLE_DIMJOGGED_JOGANGLE_SYMBOL
 70
     0
  0
APPID
  5
542
330
30
100
AcDbSymbolTableRecord
100
AcDbRegAppTableRecord
  2
GENIUS_GENDTOL_13
 70
     0
  0
APPID
  5
19
330
30
100
AcDbSymbolTableRecord
100
AcDbRegAppTableRecord
  2
ACAD_PSEXT
 70
     0
  0
APPID
  5
36
330
30
100
AcDbSymbolTableRecord
100
AcDbRegAppTableRecord
  2
ACAD_DSTYLE_DIMJAG
 70
     0
  0
APPID
  5
35
330
30
100
AcDbSymbolTableRecord
100
AcDbRegAppTableRecord
  2
ACAD_DSTYLE_DIMBREAK
 70
     0
  0
APPID
  5
37
330
30
100
AcDbSymbolTableRecord
100
AcDbRegAppTableRecord
  2
ACAD_DSTYLE_DIMTALN
 70
     0
  0
APPID
  5
91
330
30
100
AcDbSymbolTableRecord
100
AcDbRegAppTableRecord
  2
ACAD_DSTYLE_DIMINSPECT
 70
     0
  0
APPID
  5
2F
330
30
100
AcDbSymbolTableRecord
100
AcDbRegAppTableRecord
  2
ACAD_NAV_VCDISPLAY
 70
     0
  0
APPID
  5
654
330
30
100
AcDbSymbolTableRecord
100
AcDbRegAppTableRecord
  2
AD_DRAW
 70
     0
  0
APPID
  5
655
330
30
100
AcDbSymbolTableRecord
100
AcDbRegAppTableRecord
  2
MCAD_NO_VIS
 70
     0
  0
APPID
  5
656
330
30
100
AcDbSymbolTableRecord
100
AcDbRegAppTableRecord
  2
ACADM_DIM_EDIT
 70
     0
  0
APPID
  5
657
330
30
100
AcDbSymbolTableRecord
100
AcDbRegAppTableRecord
  2
AMDT_DM_ADJ
 70
     0
  0
APPID
  5
679
330
30
100
AcDbSymbolTableRecord
100
AcDbRegAppTableRecord
  2
ACATTRIBSERVICES
 70
     0
  0
ENDTAB
  0
TABLE
  2
DIMSTYLE
  5
31
330
0
100
AcDbSymbolTable
 70
     9
100
AcDbDimStyleTable
 71
     2
340
32
340
34
  0
DIMSTYLE
105
32
330
31
100
AcDbSymbolTableRecord
100
AcDbDimStyleTableRecord
  2
NORMAL
 70
     0
 41
3.5
 42
1.0
 43
8.0
 44
0.5
 48
0.2
 73
     0
 74
     0
 77
     1
 78
     8
140
3.5
141
1.5
144
20.0
146
0.5
147
1.0
172
     1
174
     1
176
   256
177
   256
178
     3
271
     2
272
     2
279
     2
284
     8
340
33
  0
DIMSTYLE
105
643
330
31
100
AcDbSymbolTableRecord
100
AcDbDimStyleTableRecord
  2
AM_DIN
 70
     0
  4
"
 41
2.5
 42
1.0
 43
10.0
 44
1.0
 47
0.1
 48
0.1
 73
     0
 74
     0
 77
     1
 78
     8
 79
     2
140
3.5
141
0.0
143
0.0393701
146
0.71
147
1.5
172
     1
176
   256
177
   256
178
     2
271
     2
272
     3
274
     4
283
     0
284
     8
340
24
371
    -1
372
    -1
1001
ACAD_DSTYLE_DIMJOGGED_JOGANGLE_SYMBOL
1070
   384
1040
1.570796326794896
  0
DIMSTYLE
105
645
330
31
100
AcDbSymbolTableRecord
100
AcDbDimStyleTableRecord
  2
AM_DIN$3
 70
     0
  4
"
 41
2.5
 42
1.0
 43
10.0
 44
1.0
 47
0.1
 48
0.1
 73
     0
 77
     1
 78
     8
 79
     2
140
3.5
141
0.0
143
0.0393701
146
0.71
147
1.5
176
   256
177
   256
178
     2
271
     2
272
     3
274
     4
283
     0
284
     8
288
     1
289
     0
340
24
371
    -1
372
    -1
1001
ACAD_DSTYLE_DIMJOGGED_JOGANGLE_SYMBOL
1070
   384
1040
1.570796326794896
  0
DIMSTYLE
105
646
330
31
100
AcDbSymbolTableRecord
100
AcDbDimStyleTableRecord
  2
AM_DIN$4
 70
     0
  4
"
 41
2.5
 42
1.0
 43
10.0
 44
1.0
 47
0.1
 48
0.1
 73
     0
 77
     1
 78
     8
 79
     2
140
3.5
141
0.0
143
0.0393701
146
0.71
147
1.5
176
   256
177
   256
178
     2
271
     2
272
     3
274
     4
283
     0
284
     8
288
     1
289
     0
340
24
371
    -1
372
    -1
1001
ACAD_DSTYLE_DIMJOGGED_JOGANGLE_SYMBOL
1070
   384
1040
1.570796326794896
  0
DIMSTYLE
105
647
330
31
100
AcDbSymbolTableRecord
100
AcDbDimStyleTableRecord
  2
AM_DIN$6
 70
     0
  4
"
 41
2.5
 42
1.0
 43
10.0
 44
1.0
 47
0.1
 48
0.1
 73
     0
 74
     0
 78
     8
 79
     2
140
3.5
141
0.0
143
0.0393701
146
0.71
147
1.5
172
     1
176
   256
177
   256
178
     2
271
     2
272
     3
274
     4
283
     0
284
     8
340
24
371
    -1
372
    -1
1001
ACAD_DSTYLE_DIMJOGGED_JOGANGLE_SYMBOL
1070
   384
1040
1.570796326794896
  0
DIMSTYLE
105
648
330
31
100
AcDbSymbolTableRecord
100
AcDbDimStyleTableRecord
  2
AM_DIN$7
 70
     0
  4
"
 41
2.5
 42
1.0
 43
10.0
 44
1.0
 47
0.1
 48
0.1
 73
     0
 74
     0
 77
     1
 78
     8
 79
     2
140
5.0
141
0.0
143
0.0393701
146
0.71
147
1.5
172
     1
176
   256
177
   256
178
     2
271
     2
272
     3
274
     4
283
     0
284
     8
340
24
371
    -1
372
    -1
1001
ACAD_DSTYLE_DIMJOGGED_JOGANGLE_SYMBOL
1070
   384
1040
1.570796326794896
  0
DIMSTYLE
105
649
330
31
100
AcDbSymbolTableRecord
100
AcDbDimStyleTableRecord
  2
AM_DIN$SF
 70
     0
  4
"
 41
2.5
 42
1.0
 43
10.0
 44
1.0
 47
0.1
 48
0.1
 73
     0
 74
     0
 75
     1
 76
     1
 77
     1
 78
     8
 79
     2
140
3.5
141
0.0
143
0.0393701
146
0.71
147
1.5
172
     1
176
   256
177
   256
178
     2
271
     2
272
     3
274
     4
283
     0
284
     8
340
24
371
    -1
372
    -1
1001
ACAD_DSTYLE_DIMJOGGED_JOGANGLE_SYMBOL
1070
   384
1040
1.570796326794896
  0
DIMSTYLE
105
64A
330
31
100
AcDbSymbolTableRecord
100
AcDbDimStyleTableRecord
  2
AM_DIN$SH
 70
     0
  4
"
 41
2.5
 42
1.0
 43
10.0
 44
1.0
 47
0.1
 48
0.1
 73
     0
 74
     0
 75
     1
 76
     1
 77
     1
 78
     8
 79
     2
140
3.5
141
0.0
143
0.0393701
144
2.0
146
0.71
147
1.5
172
     1
173
     1
176
   256
177
   256
178
     2
271
     2
272
     3
274
     4
283
     0
284
     8
340
24
343
64B
371
    -1
372
    -1
1001
ACAD_DSTYLE_DIMJOGGED_JOGANGLE_SYMBOL
1070
   384
1040
1.570796326794896
  0
DIMSTYLE
105
34
102
{ACAD_REACTORS
330
56F
330
84
330
543
330
73
330
533
102
}
330
31
100
AcDbSymbolTableRecord
100
AcDbDimStyleTableRecord
  2
Katalog 09
 70
     0
 41
4.0
 42
0.0
 43
8.0
 44
1.0
 73
     0
 74
     0
 77
     1
 78
     8
140
4.349999999999999
141
1.5
143
25.39999999999999
146
0.4285714285714286
147
1.0
172
     1
174
     1
176
     2
177
     2
178
     3
271
     2
272
     2
284
     8
285
     8
286
     8
340
33
1001
ACAD_DSTYLE_DIMBREAK
1070
   391
1040
3.75
1001
ACAD_DSTYLE_DIMJAG
1070
   388
1040
1.5
1001
ACAD_DSTYLE_DIMTALN
1070
   392
1070
     0
  0
ENDTAB
  0
TABLE
  2
BLOCK_RECORD
  5
1
330
0
100
AcDbSymbolTable
 70
    16
  0
BLOCK_RECORD
  5
2
102
{ACAD_XDICTIONARY
360
3
102
}
330
1
100
AcDbSymbolTableRecord
100
AcDbBlockTableRecord
  2
*MODEL_SPACE
340
17
  0
BLOCK_RECORD
  5
1A
330
1
100
AcDbSymbolTableRecord
100
AcDbBlockTableRecord
  2
*PAPER_SPACE
340
1D
  0
BLOCK_RECORD
  5
A0
330
1
100
AcDbSymbolTableRecord
100
AcDbBlockTableRecord
  2
ACA_CFG
340
0
102
{BLKREFS
331
9F
102
}
  0
BLOCK_RECORD
  5
9D
330
1
100
AcDbSymbolTableRecord
100
AcDbBlockTableRecord
  2
ACA_SAVE_DONT_PURGE
340
0
102
{BLKREFS
331
99
102
}
  0
BLOCK_RECORD
  5
A9
330
1
100
AcDbSymbolTableRecord
100
AcDbBlockTableRecord
  2
AVE_RENDER
340
0
102
{BLKREFS
331
A5
331
AD
331
AE
102
}
  0
BLOCK_RECORD
  5
B0
330
1
100
AcDbSymbolTableRecord
100
AcDbBlockTableRecord
  2
ALLE_STEMPEL_ALS_BLOCK
340
0
102
{BLKREFS
331
AF
102
}
  0
BLOCK_RECORD
  5
64B
330
1
100
AcDbSymbolTableRecord
100
AcDbBlockTableRecord
  2
GENAXEH
340
0
  0
BLOCK_RECORD
  5
77
330
1
100
AcDbSymbolTableRecord
100
AcDbBlockTableRecord
  2
*D5
340
0
  0
BLOCK_RECORD
  5
85
330
1
100
AcDbSymbolTableRecord
100
AcDbBlockTableRecord
  2
*D6
340
0
  0
BLOCK_RECORD
  5
544
330
1
100
AcDbSymbolTableRecord
100
AcDbBlockTableRecord
  2
*D7
340
0
  0
BLOCK_RECORD
  5
570
330
1
100
AcDbSymbolTableRecord
100
AcDbBlockTableRecord
  2
*D8
340
0
  0
BLOCK_RECORD
  5
534
330
1
100
AcDbSymbolTableRecord
100
AcDbBlockTableRecord
  2
*D9
340
0
  0
BLOCK_RECORD
  5
F3
330
1
100
AcDbSymbolTableRecord
100
AcDbBlockTableRecord
  2
SIGNET
340
0
102
{BLKREFS
331
EF
102
}
  0
BLOCK_RECORD
  5
378
330
1
100
AcDbSymbolTableRecord
100
AcDbBlockTableRecord
  2
*X11
340
0
102
{BLKREFS
331
377
102
}
  0
BLOCK_RECORD
  5
F8
330
1
100
AcDbSymbolTableRecord
100
AcDbBlockTableRecord
  2
*X12
340
0
102
{BLKREFS
331
F7
102
}
  0
BLOCK_RECORD
  5
96
102
{ACAD_XDICTIONARY
360
97
102
}
330
1
100
AcDbSymbolTableRecord
100
AcDbBlockTableRecord
  2
MSL_Kopf_quer
340
0
102
{BLKREFS
331
93
102
}
  0
BLOCK_RECORD
  5
624
330
1
100
AcDbSymbolTableRecord
100
AcDbBlockTableRecord
  2
_ACMFILLED15
340
0
  0
BLOCK_RECORD
  5
632
330
1
100
AcDbSymbolTableRecord
100
AcDbBlockTableRecord
  2
_ACMFILLED30
340
0
  0
ENDTAB
  0
ENDSEC
  0
SECTION
  2
BLOCKS
  0
BLOCK
  5
5
330
2
100
AcDbEntity
  8
0
100
AcDbBlockBegin
  2
*MODEL_SPACE
 70
     0
 10
0.0
 20
0.0
 30
0.0
  3
*MODEL_SPACE
  1

  0
ENDBLK
  5
16
330
2
100
AcDbEntity
  8
0
100
AcDbBlockEnd
  0
BLOCK
  5
1B
330
1A
100
AcDbEntity
 67
     1
  8
0
100
AcDbBlockBegin
  2
*PAPER_SPACE
 70
     0
 10
0.0
 20
0.0
 30
0.0
  3
*PAPER_SPACE
  1

  0
ENDBLK
  5
1C
330
1A
100
AcDbEntity
 67
     1
  8
0
100
AcDbBlockEnd
  0
BLOCK
  5
A1
330
A0
100
AcDbEntity
  8
0
100
AcDbBlockBegin
  2
ACA_CFG
 70
     0
 10
0.0
 20
0.0
 30
0.0
  3
ACA_CFG
  1
ACA_CFG
  0
ENDBLK
  5
A2
330
A0
100
AcDbEntity
  8
0
100
AcDbBlockEnd
  0
BLOCK
  5
9E
330
9D
100
AcDbEntity
  8
0
100
AcDbBlockBegin
  2
ACA_SAVE_DONT_PURGE
 70
     0
 10
0.0
 20
0.0
 30
0.0
  3
ACA_SAVE_DONT_PURGE
  1

  0
INSERT
  5
9F
330
9D
100
AcDbEntity
  8
ACA_VARSAVE
100
AcDbBlockReference
  2
ACA_CFG
 10
0.0
 20
0.0
 30
0.0
1001
ACA_CADIMENU
1000
ACA_CFG
1002
{
1000
ACA_V:LAY-GRCODE
1000

1002
}
1002
{
1000
ACA_V:LAY-GRDEL1
1000
_-
1002
}
1002
{
1000
ACA_V:LAY-GRDEL2
1000
_
1002
}
1002
{
1000
ACA_V:LAY-MLAST
1000

1002
}
1002
{
1000
ACA_V:LAY-PRE
1000

1002
}
1002
{
1000
ACA_V:LAY-PRELIST
1000
.nil.
1002
}
1002
{
1000
ACA_V:ZEIN
1040
1.0
1002
}
1002
{
1000
ACA_V:EINH
1000
mm
1002
}
1002
{
1000
ACA_V:Mass
1040
1.0
1002
}
1002
{
1000
ACA_V:EIFA
1040
1.0
1002
}
1002
{
1000
ACA_V:PDIS
1000
 mm
1002
}
1002
{
1000
ACA_V:PARE
1000
 qmm
1002
}
1002
{
1000
ACA_V:FFA1
1040
1.0
1002
}
1002
{
1000
ACA_V:FDR1
1000
0.0
1002
}
1002
{
1000
ACA_V:FXF1
1040
1.0
1002
}
1002
{
1000
ACA_V:FYF1
1040
1.0
1002
}
1002
{
1000
ACA_V:FZF1
1040
1.0
1002
}
1002
{
1000
ACA_V:THT2
1040
2.5
1002
}
1002
{
1000
ACA_V:THT3
1040
3.5
1002
}
1002
{
1000
ACA_V:THT5
1040
5.0
1002
}
1002
{
1000
ACA_V:THT7
1040
7.0
1002
}
1002
{
1000
ACA_V:THT1
1040
10.0
1002
}
1002
{
1000
ACA_V:ZSi
1070
    15
1002
}
1002
{
1000
ACA_V:F-CADI
1000
CM1
1002
}
1002
{
1000
ACA_V:F-CAD1
1000
B
1002
}
1002
{
1000
ACA_V:F-CAD3
1000
A
1002
}
1002
{
1000
ACA_L:ABBI
1000
ABBIEGEKANT
1002
}
1002
{
1000
ACA_L:ACHS
1000
ACHSEN
1002
}
1002
{
1000
ACA_L:ATRI
1000
ATTRIBUTE
1002
}
1002
{
1000
ACA_L:AVER
1000
AVERDECKTE
1002
}
1002
{
1000
ACA_L:A-AL
1000
ABBIEGEKANT*,*ACHSEN*,*AVERDECKTE*,*AVERDECKTE*
1002
}
1002
{
1000
ACA_L:BEMA
1000
BEMASSUNG
1002
}
1002
{
1000
ACA_L:BEMT
1000
BEMTEXT
1002
}
1002
{
1000
ACA_L:B-AL
1000
BEM*
1002
}
1002
{
1000
ACA_L:HIKO
1000
HILFSKONSTR
1002
}
1002
{
1000
ACA_L:HILI
1000
HILFSLINIEN
1002
}
1002
{
1000
ACA_L:HIPU
1000
HILFSPUNKTE
1002
}
1002
{
1000
ACA_L:H-AL
1000
HILFS*
1002
}
1002
{
1000
ACA_L:KO03
1000
KOPF03
1002
}
1002
{
1000
ACA_L:KO05
1000
KOPF05
1002
}
1002
{
1000
ACA_L:KO07
1000
KOPF07
1002
}
1002
{
1000
ACA_L:KO10
1000
KOPF10
1002
}
1002
{
1000
ACA_L:K-AL
1000
KOPF*
1002
}
1002
{
1000
ACA_L:SCHR
1000
SCHRAFFUR
1002
}
1002
{
1000
ACA_L:TE02
1000
TEXT02
1002
}
1002
{
1000
ACA_L:TE03
1000
TEXT03
1002
}
1002
{
1000
ACA_L:TE05
1000
TEXT05
1002
}
1002
{
1000
ACA_L:TE07
1000
TEXT07
1002
}
1002
{
1000
ACA_L:TE10
1000
TEXT10
1002
}
1002
{
1000
ACA_L:T-AL
1000
TEXT*
1002
}
1002
{
1000
ACA_L:UM02
1000
UMRISS02
1002
}
1002
{
1000
ACA_L:UM03
1000
UMRISS03
1002
}
1002
{
1000
ACA_L:UM05
1000
UMRISS05
1002
}
1002
{
1000
ACA_L:UM07
1000
UMRISS07
1002
}
1002
{
1000
ACA_L:UM10
1000
UMRISS10
1002
}
1002
{
1000
ACA_L:U-AL
1000
UMRISS*
1002
}
1002
{
1000
ACA_L:2225
1000
S-FELD225
1002
}
1002
{
1000
ACA_L:2226
1000
S-FELD226
1002
}
1002
{
1000
ACA_L:2227
1000
S-FELD227
1002
}
1002
{
1000
ACA_L:2228
1000
S-FELD228
1002
}
1002
{
1000
ACA_L:2230
1000
S-*,*SCHRAFF*
1002
}
1002
{
1000
ACA_L:2239
1000
0
1002
}
1002
{
1000
ACA_L:2240
1000
*
1002
}
1002
{
1000
ACA_L:2241
1000
R-FELD241
1002
}
1002
{
1000
ACA_L:2242
1000
R-FELD242
1002
}
1002
{
1000
ACA_L:2243
1000
R-FELD243
1002
}
1002
{
1000
ACA_L:2244
1000
R-*
1002
}
1002
{
1000
ACA_L:GRA0
1000
SEIT0
1002
}
1002
{
1000
ACA_L:GRA1
1000
SEIT1
1002
}
1002
{
1000
ACA_L:GRA2
1000
SEIT2
1002
}
1002
{
1000
ACA_L:GRA3
1000
SEIT3
1002
}
1002
{
1000
ACA_L:GRA4
1000
SEIT4
1002
}
1002
{
1000
ACA_L:GRA5
1000
SEIT5
1002
}
1002
{
1000
ACA_L:GRA6
1000
SEIT6
1002
}
1002
{
1000
ACA_L:GRA7
1000
SEIT7
1002
}
1002
{
1000
ACA_L:GRA8
1000
SEIT8
1002
}
1002
{
1000
ACA_L:GRA9
1000
SEIT9
1002
}
1002
{
1000
ACA_L:GRB0
1000
GRUN0
1002
}
1002
{
1000
ACA_L:GRB1
1000
GRUN1
1002
}
1002
{
1000
ACA_L:GRB2
1000
GRUN2
1002
}
1002
{
1000
ACA_L:GRB3
1000
GRUN3
1002
}
1002
{
1000
ACA_L:GRB4
1000
GRUN4
1002
}
1002
{
1000
ACA_L:GRB5
1000
GRUN5
1002
}
1002
{
1000
ACA_L:GRB6
1000
GRUN6
1002
}
1002
{
1000
ACA_L:GRB7
1000
GRUN7
1002
}
1002
{
1000
ACA_L:GRB8
1000
GRUN8
1002
}
1002
{
1000
ACA_L:GRB9
1000
GRUN9
1002
}
1002
{
1000
ACA_L:GRC0
1000
AUFR0
1002
}
1002
{
1000
ACA_L:GRC1
1000
AUFR1
1002
}
1002
{
1000
ACA_L:GRC2
1000
AUFR2
1002
}
1002
{
1000
ACA_L:GRC3
1000
AUFR3
1002
}
1002
{
1000
ACA_L:GRC4
1000
AUFR4
1002
}
1002
{
1000
ACA_L:GRC5
1000
AUFR5
1002
}
1002
{
1000
ACA_L:GRC6
1000
AUFR6
1002
}
1002
{
1000
ACA_L:GRC7
1000
AUFR7
1002
}
1002
{
1000
ACA_L:GRC8
1000
AUFR8
1002
}
1002
{
1000
ACA_L:GRC9
1000
AUFR9
1002
}
1002
{
1000
ACA_L:GRD0
1000
TEIL0
1002
}
1002
{
1000
ACA_L:GRD1
1000
TEIL1
1002
}
1002
{
1000
ACA_L:GRD2
1000
TEIL2
1002
}
1002
{
1000
ACA_L:GRD3
1000
TEIL3
1002
}
1002
{
1000
ACA_L:GRD4
1000
TEIL4
1002
}
1002
{
1000
ACA_L:GRD5
1000
TEIL5
1002
}
1002
{
1000
ACA_L:GRD6
1000
TEIL6
1002
}
1002
{
1000
ACA_L:GRD7
1000
TEIL7
1002
}
1002
{
1000
ACA_L:GRD8
1000
TEIL8
1002
}
1002
{
1000
ACA_L:GRD9
1000
TEIL9
1002
}
  0
ENDBLK
  5
A4
330
9D
100
AcDbEntity
  8
0
100
AcDbBlockEnd
  0
BLOCK
  5
AA
330
A9
100
AcDbEntity
  8
0
100
AcDbBlockBegin
  2
AVE_RENDER
 70
     0
 10
0.0
 20
0.0
 30
0.0
  3
AVE_RENDER
  1
AVE_RENDER
  0
ENDBLK
  5
AB
330
A9
100
AcDbEntity
  8
0
100
AcDbBlockEnd
  0
BLOCK
  5
B1
330
B0
100
AcDbEntity
  8
0
 62
     6
100
AcDbBlockBegin
  2
ALLE_STEMPEL_ALS_BLOCK
 70
     0
 10
0.0
 20
0.0
 30
0.0
  3
ALLE_STEMPEL_ALS_BLOCK
  1

  0
TEXT
  5
B2
330
B0
100
AcDbEntity
  8
S-WERKZEUGMACHEREI
100
AcDbText
 10
-1.660268457994789
 20
105.4226206315326
 30
0.0
 40
6.0
  1
Werkzeugmach.
 50
90.29400666116277
  7
ARIALFETT
 72
     4
 11
-3.96337680965149
 21
141.4890400021095
 31
0.0
100
AcDbText
  0
TEXT
  5
B7
330
B0
100
AcDbEntity
  8
S-VORMONTAGE
100
AcDbText
 10
-0.9252505169633877
 20
113.6251863415616
 30
0.0
 40
6.0
  1
Vormontage
 50
90.29400666116277
  7
ARIALFETT
 72
     4
 11
-3.18600938314689
 21
141.438644791038
 31
0.0
100
AcDbText
  0
TEXT
  5
BB
330
B0
100
AcDbEntity
  8
S-STANZEREI
100
AcDbText
 10
-0.8046960252962662
 20
119.715498970539
 30
0.0
 40
6.0
  1
Stanzerei
 50
90.29400666116277
  7
ARIALFETT
 72
     4
 11
-3.915082313312495
 21
141.2196032850912
 31
0.0
100
AcDbText
  0
TEXT
  5
BF
330
B0
100
AcDbEntity
  8
S-LAGER2
100
AcDbText
 10
-1.656875789099708
 20
123.8735273916688
 30
0.0
 40
6.0
  1
Lager 2
 50
90.29400666116277
  7
ARIALFETT
 72
     4
 11
-3.915082313312495
 21
141.2196032850912
 31
0.0
100
AcDbText
  0
TEXT
  5
C3
330
B0
100
AcDbEntity
  8
S-LAGER1
100
AcDbText
 10
-1.659700488229955
 20
124.4239976341126
 30
0.0
 40
6.0
  1
Lager 1
 50
90.29400666116277
  7
ARIALFETT
 72
     4
 11
-3.915082313312495
 21
141.2196032850912
 31
0.0
100
AcDbText
  0
TEXT
  5
C7
330
B0
100
AcDbEntity
  8
S-BETRIEB
100
AcDbText
 10
-1.7758113758332
 20
113.0701694736242
 30
0.0
 40
6.0
  1
Betriebsbüro
 50
90.29400666116277
  7
ARIALFETT
100
AcDbText
  0
TEXT
  5
CB
330
B0
100
AcDbEntity
  8
S-TECHNIK
100
AcDbText
 10
-1.660110912153802
 20
113.3410641200546
 30
0.0
 40
6.0
  1
Techn. Büro
 50
90.0
  7
ARIALFETT
 72
     4
 11
-4.610997678865942
 21
141.0
 31
0.0
100
AcDbText
  0
ENDBLK
  5
CF
330
B0
100
AcDbEntity
  8
0
 62
     6
100
AcDbBlockEnd
  0
BLOCK
  5
64C
330
64B
100
AcDbEntity
  8
0
100
AcDbBlockBegin
  2
GENAXEH
 70
     0
 10
0.0
 20
0.0
 30
0.0
  3
GENAXEH
  1

  0
LINE
  5
64D
330
64B
100
AcDbEntity
  8
0
100
AcDbLine
 10
-1.0
 20
0.0
 30
0.0
 11
1.0
 21
0.0
 31
0.0
  0
ENDBLK
  5
64E
330
64B
100
AcDbEntity
  8
0
100
AcDbBlockEnd
  0
BLOCK
  5
78
330
77
100
AcDbEntity
  8
0
100
AcDbBlockBegin
  2
*D5
 70
     1
 10
0.0
 20
0.0
 30
0.0
  3
*D5
  1

  0
LINE
  5
79
330
77
100
AcDbEntity
  8
BEMASSUNG
 62
     2
370
    -2
100
AcDbLine
 10
74.04460502283621
 20
118.1096137269046
 30
0.0
 11
58.58288209033028
 21
118.1096137269046
 31
0.0
  0
LINE
  5
7A
330
77
100
AcDbEntity
  8
BEMASSUNG
 62
     2
370
    -2
100
AcDbLine
 10
80.54460502283621
 20
156.3916104405031
 30
0.0
 11
58.58288209033029
 21
156.3916104405031
 31
0.0
  0
LINE
  5
7B
330
77
100
AcDbEntity
  8
BEMASSUNG
 62
     2
370
    -2
100
AcDbLine
 10
59.58288209033028
 20
122.1096137269046
 30
0.0
 11
59.58288209033028
 21
152.3916104405031
 31
0.0
  0
SOLID
  5
7C
330
77
100
AcDbEntity
  8
BEMASSUNG
 62
     2
100
AcDbTrace
 10
58.91621542366362
 20
122.1096137269046
 30
0.0
 11
60.24954875699695
 21
122.1096137269046
 31
0.0
 12
59.58288209033028
 22
118.1096137269046
 32
0.0
 13
59.58288209033028
 23
118.1096137269046
 33
0.0
  0
SOLID
  5
7D
330
77
100
AcDbEntity
  8
BEMASSUNG
 62
     2
100
AcDbTrace
 10
58.91621542366362
 20
152.3916104405031
 30
0.0
 11
60.24954875699695
 21
152.3916104405031
 31
0.0
 12
59.58288209033028
 22
156.3916104405031
 32
0.0
 13
59.58288209033028
 23
156.3916104405031
 33
0.0
  0
MTEXT
  5
7E
330
77
100
AcDbEntity
  8
BEMASSUNG
 62
     3
100
AcDbMText
 10
54.14089709715153
 20
132.1182927399486
 30
0.0
 40
4.349999999999999
 41
0.0
 71
     1
 72
     1
  1
\A1;140
  7
ARIAL-STANDARD
 11
0.0000000000000001
 21
1.0
 31
0.0
 73
     1
 44
1.0
1001
ACAD
1000
MTEXTBEGIN
1070
    73
1070
     1
1070
    44
1040
1.0
1070
    74
1070
     0
1000
MTEXTEND
  0
POINT
  5
7F
330
77
100
AcDbEntity
  8
DEFPOINTS
 62
     0
100
AcDbPoint
 10
74.04460502283621
 20
118.1096137269046
 30
0.0
  0
POINT
  5
81
330
77
100
AcDbEntity
  8
DEFPOINTS
 62
     0
100
AcDbPoint
 10
80.54460502283621
 20
156.3916104405031
 30
0.0
  0
POINT
  5
82
330
77
100
AcDbEntity
  8
DEFPOINTS
 62
     0
100
AcDbPoint
 10
59.58288209033028
 20
156.3916104405031
 30
0.0
  0
ENDBLK
  5
83
330
77
100
AcDbEntity
  8
0
100
AcDbBlockEnd
  0
BLOCK
  5
86
330
85
100
AcDbEntity
  8
0
100
AcDbBlockBegin
  2
*D6
 70
     1
 10
0.0
 20
0.0
 30
0.0
  3
*D6
  1

  0
LINE
  5
87
330
85
100
AcDbEntity
  8
BEMASSUNG
 62
     2
370
    -2
100
AcDbLine
 10
84.74460512283611
 20
253.8317746480835
 30
0.0
 11
98.80707894368519
 21
253.8317746480835
 31
0.0
  0
LINE
  5
88
330
85
100
AcDbEntity
  8
BEMASSUNG
 62
     2
370
    -2
100
AcDbLine
 10
87.04460502283621
 20
118.1096137269046
 30
0.0
 11
98.80707894368518
 21
118.1096137269046
 31
0.0
  0
LINE
  5
89
330
85
100
AcDbEntity
  8
BEMASSUNG
 62
     2
370
    -2
100
AcDbLine
 10
97.8070789436852
 20
249.8317746480835
 30
0.0
 11
97.80707894368518
 21
122.1096137269046
 31
0.0
  0
SOLID
  5
8A
330
85
100
AcDbEntity
  8
BEMASSUNG
 62
     2
100
AcDbTrace
 10
97.14041227701853
 20
249.8317746480835
 30
0.0
 11
98.47374561035188
 21
249.8317746480835
 31
0.0
 12
97.8070789436852
 22
253.8317746480835
 32
0.0
 13
97.8070789436852
 23
253.8317746480835
 33
0.0
  0
SOLID
  5
8B
330
85
100
AcDbEntity
  8
BEMASSUNG
 62
     2
100
AcDbTrace
 10
97.1404122770185
 20
122.1096137269046
 30
0.0
 11
98.47374561035184
 21
122.1096137269046
 31
0.0
 12
97.80707894368518
 22
118.1096137269046
 32
0.0
 13
97.80707894368518
 23
118.1096137269046
 33
0.0
  0
MTEXT
  5
8C
330
85
100
AcDbEntity
  8
BEMASSUNG
 62
     3
100
AcDbMText
 10
92.30871605146143
 20
167.4164471674864
 30
0.0
 40
4.349999999999999
 41
0.0
 71
     1
 72
     1
  1
\A1;900/1287
  7
ARIAL-STANDARD
 11
0.0000000000000001
 21
1.0
 31
0.0
 73
     1
 44
1.0
1001
ACAD
1000
MTEXTBEGIN
1070
    73
1070
     1
1070
    44
1040
1.0
1070
    74
1070
     0
1000
MTEXTEND
  0
POINT
  5
8D
330
85
100
AcDbEntity
  8
DEFPOINTS
 62
     0
100
AcDbPoint
 10
84.74460512283611
 20
253.8317746480835
 30
0.0
  0
POINT
  5
8E
330
85
100
AcDbEntity
  8
DEFPOINTS
 62
     0
100
AcDbPoint
 10
87.04460502283621
 20
118.1096137269046
 30
0.0
  0
POINT
  5
8F
330
85
100
AcDbEntity
  8
DEFPOINTS
 62
     0
100
AcDbPoint
 10
97.80707894368518
 20
118.1096137269046
 30
0.0
  0
ENDBLK
  5
90
330
85
100
AcDbEntity
  8
0
100
AcDbBlockEnd
  0
BLOCK
  5
545
330
544
100
AcDbEntity
  8
0
100
AcDbBlockBegin
  2
*D7
 70
     1
 10
0.0
 20
0.0
 30
0.0
  3
*D7
  1

  0
LINE
  5
546
330
544
100
AcDbEntity
  8
BEMASSUNG
 62
     2
370
    -2
100
AcDbLine
 10
74.54460502283621
 20
101.1577156488692
 30
0.0
 11
58.49007031572502
 21
101.1577156488692
 31
0.0
  0
LINE
  5
547
330
544
100
AcDbEntity
  8
BEMASSUNG
 62
     2
370
    -2
100
AcDbLine
 10
74.54460502283621
 20
96.15771564886919
 30
0.0
 11
58.49007031572502
 21
96.15771564886919
 31
0.0
  0
LINE
  5
548
330
544
100
AcDbEntity
  8
BEMASSUNG
 62
     2
370
    -2
100
AcDbLine
 10
59.49007031572502
 20
105.1577156488691
 30
0.0
 11
59.49007031572502
 21
109.1577156488692
 31
0.0
  0
LINE
  5
549
330
544
100
AcDbEntity
  8
BEMASSUNG
 62
     2
370
    -2
100
AcDbLine
 10
59.49007031572502
 20
92.15771564886919
 30
0.0
 11
59.49007031572502
 21
88.15771564886919
 31
0.0
  0
LINE
  5
54A
330
544
100
AcDbEntity
  8
BEMASSUNG
 62
     2
370
    -2
100
AcDbLine
 10
59.49007031572502
 20
101.1577156488692
 30
0.0
 11
59.49007031572502
 21
96.15771564886919
 31
0.0
  0
SOLID
  5
54B
330
544
100
AcDbEntity
  8
BEMASSUNG
 62
     2
100
AcDbTrace
 10
58.82340364905836
 20
105.1577156488691
 30
0.0
 11
60.15673698239169
 21
105.1577156488691
 31
0.0
 12
59.49007031572502
 22
101.1577156488692
 32
0.0
 13
59.49007031572502
 23
101.1577156488692
 33
0.0
  0
SOLID
  5
54C
330
544
100
AcDbEntity
  8
BEMASSUNG
 62
     2
100
AcDbTrace
 10
58.82340364905836
 20
92.15771564886919
 30
0.0
 11
60.15673698239169
 21
92.15771564886919
 31
0.0
 12
59.49007031572502
 22
96.15771564886919
 32
0.0
 13
59.49007031572502
 23
96.15771564886919
 33
0.0
  0
MTEXT
  5
54D
330
544
100
AcDbEntity
  8
BEMASSUNG
 62
     3
100
AcDbMText
 10
54.06588886961313
 20
97.21562833645448
 30
0.0
 40
4.349999999999999
 41
0.0
 71
     1
 72
     1
  1
\A1;5
  7
ARIAL-STANDARD
 11
0.0000000000000001
 21
1.0
 31
0.0
 73
     1
 44
1.0
1001
ACAD
1000
MTEXTBEGIN
1070
    73
1070
     1
1070
    44
1040
1.0
1070
    74
1070
     0
1000
MTEXTEND
  0
POINT
  5
54E
330
544
100
AcDbEntity
  8
DEFPOINTS
 62
     0
100
AcDbPoint
 10
74.54460502283621
 20
101.1577156488692
 30
0.0
  0
POINT
  5
54F
330
544
100
AcDbEntity
  8
DEFPOINTS
 62
     0
100
AcDbPoint
 10
74.54460502283621
 20
96.15771564886919
 30
0.0
  0
POINT
  5
550
330
544
100
AcDbEntity
  8
DEFPOINTS
 62
     0
100
AcDbPoint
 10
59.49007031572502
 20
96.15771564886919
 30
0.0
  0
ENDBLK
  5
551
330
544
100
AcDbEntity
  8
0
100
AcDbBlockEnd
  0
BLOCK
  5
571
330
570
100
AcDbEntity
  8
0
100
AcDbBlockBegin
  2
*D8
 70
     1
 10
0.0
 20
0.0
 30
0.0
  3
*D8
  1

  0
LINE
  5
572
330
570
100
AcDbEntity
  8
BEMASSUNG
 62
     2
370
    -2
100
AcDbLine
 10
75.54460502283632
 20
253.0317746480835
 30
0.0
 11
75.54460502283632
 21
262.9152266091759
 31
0.0
  0
LINE
  5
573
330
570
100
AcDbEntity
  8
BEMASSUNG
 62
     2
370
    -2
100
AcDbLine
 10
85.54460502283621
 20
253.0317746480835
 30
0.0
 11
85.54460502283621
 21
262.9152266091759
 31
0.0
  0
LINE
  5
574
330
570
100
AcDbEntity
  8
BEMASSUNG
 62
     2
370
    -2
100
AcDbLine
 10
71.54460502283632
 20
261.9152266091759
 30
0.0
 11
67.54460502283632
 21
261.9152266091759
 31
0.0
  0
LINE
  5
575
330
570
100
AcDbEntity
  8
BEMASSUNG
 62
     2
370
    -2
100
AcDbLine
 10
89.54460502283621
 20
261.9152266091759
 30
0.0
 11
93.5446050228362
 21
261.9152266091759
 31
0.0
  0
LINE
  5
576
330
570
100
AcDbEntity
  8
BEMASSUNG
 62
     2
370
    -2
100
AcDbLine
 10
75.54460502283632
 20
261.9152266091759
 30
0.0
 11
85.54460502283621
 21
261.9152266091759
 31
0.0
  0
SOLID
  5
577
330
570
100
AcDbEntity
  8
BEMASSUNG
 62
     2
100
AcDbTrace
 10
71.54460502283632
 20
262.5818932758426
 30
0.0
 11
71.54460502283632
 21
261.2485599425092
 31
0.0
 12
75.54460502283632
 22
261.9152266091759
 32
0.0
 13
75.54460502283632
 23
261.9152266091759
 33
0.0
  0
SOLID
  5
578
330
570
100
AcDbEntity
  8
BEMASSUNG
 62
     2
100
AcDbTrace
 10
89.54460502283621
 20
262.5818932758426
 30
0.0
 11
89.54460502283621
 21
261.2485599425092
 31
0.0
 12
85.54460502283621
 22
261.9152266091759
 32
0.0
 13
85.54460502283621
 23
261.9152266091759
 33
0.0
  0
MTEXT
  5
579
330
570
100
AcDbEntity
  8
BEMASSUNG
 62
     3
100
AcDbMText
 10
80.54460502283626
 20
265.1362191057653
 30
0.0
 40
4.349999999999999
 41
0.0
 71
     5
 72
     1
  1
\A1;M10
  7
ARIAL-STANDARD
 73
     1
 44
1.0
1001
ACAD
1000
MTEXTBEGIN
1070
    73
1070
     1
1070
    44
1040
1.0
1070
    74
1070
     0
1000
MTEXTEND
  0
POINT
  5
57A
330
570
100
AcDbEntity
  8
DEFPOINTS
 62
     0
100
AcDbPoint
 10
75.54460502283632
 20
253.0317746480835
 30
0.0
  0
POINT
  5
57B
330
570
100
AcDbEntity
  8
DEFPOINTS
 62
     0
100
AcDbPoint
 10
85.54460502283621
 20
253.0317746480835
 30
0.0
  0
POINT
  5
57C
330
570
100
AcDbEntity
  8
DEFPOINTS
 62
     0
100
AcDbPoint
 10
85.54460502283621
 20
261.9152266091759
 30
0.0
  0
ENDBLK
  5
57D
330
570
100
AcDbEntity
  8
0
100
AcDbBlockEnd
  0
BLOCK
  5
535
330
534
100
AcDbEntity
  8
0
100
AcDbBlockBegin
  2
*D9
 70
     1
 10
0.0
 20
0.0
 30
0.0
  3
*D9
  1

  0
LINE
  5
536
330
534
100
AcDbEntity
  8
BEMASSUNG
 62
     2
370
    -2
100
AcDbLine
 10
74.04460502283621
 20
98.65771564886919
 30
0.0
 11
74.04460502283621
 21
83.54747646239966
 31
0.0
  0
LINE
  5
537
330
534
100
AcDbEntity
  8
BEMASSUNG
 62
     2
370
    -2
100
AcDbLine
 10
87.04460502283621
 20
98.65771564886919
 30
0.0
 11
87.04460502283621
 21
83.54747646239966
 31
0.0
  0
LINE
  5
538
330
534
100
AcDbEntity
  8
BEMASSUNG
 62
     2
370
    -2
100
AcDbLine
 10
70.0446050228362
 20
84.54747646239965
 30
0.0
 11
66.04460502283621
 21
84.54747646239965
 31
0.0
  0
LINE
  5
539
330
534
100
AcDbEntity
  8
BEMASSUNG
 62
     2
370
    -2
100
AcDbLine
 10
91.0446050228362
 20
84.54747646239965
 30
0.0
 11
95.0446050228362
 21
84.54747646239965
 31
0.0
  0
LINE
  5
53A
330
534
100
AcDbEntity
  8
BEMASSUNG
 62
     2
370
    -2
100
AcDbLine
 10
74.04460502283621
 20
84.54747646239965
 30
0.0
 11
87.04460502283621
 21
84.54747646239965
 31
0.0
  0
SOLID
  5
53B
330
534
100
AcDbEntity
  8
BEMASSUNG
 62
     2
100
AcDbTrace
 10
70.0446050228362
 20
85.21414312906633
 30
0.0
 11
70.0446050228362
 21
83.88080979573299
 31
0.0
 12
74.04460502283621
 22
84.54747646239965
 32
0.0
 13
74.04460502283621
 23
84.54747646239965
 33
0.0
  0
SOLID
  5
53C
330
534
100
AcDbEntity
  8
BEMASSUNG
 62
     2
100
AcDbTrace
 10
91.0446050228362
 20
85.21414312906633
 30
0.0
 11
91.0446050228362
 21
83.88080979573299
 31
0.0
 12
87.04460502283621
 22
84.54747646239965
 32
0.0
 13
87.04460502283621
 23
84.54747646239965
 33
0.0
  0
MTEXT
  5
53D
102
{ACAD_XDICTIONARY
360
69B
102
}
330
534
100
AcDbEntity
  8
BEMASSUNG
 62
     3
100
AcDbMText
 10
80.54460502283621
 20
89.3332424924133
 30
0.0
 40
4.349999999999999
 41
0.0
 71
     5
 72
     1
  1
\A1;\U+00F813{}{\H0.71x;\C3;\S 0^ -0.2;}
  7
ARIAL-STANDARD
 73
     1
 44
1.0
1001
ACAD
1000
MTEXTBEGIN
1070
    73
1070
     1
1070
    44
1040
1.0
1070
    74
1070
     0
1000
MTEXTEND
  0
POINT
  5
53E
330
534
100
AcDbEntity
  8
DEFPOINTS
 62
     0
100
AcDbPoint
 10
74.04460502283621
 20
98.65771564886919
 30
0.0
  0
POINT
  5
53F
330
534
100
AcDbEntity
  8
DEFPOINTS
 62
     0
100
AcDbPoint
 10
87.04460502283621
 20
98.65771564886919
 30
0.0
  0
POINT
  5
540
330
534
100
AcDbEntity
  8
DEFPOINTS
 62
     0
100
AcDbPoint
 10
87.04460502283621
 20
84.54747646239965
 30
0.0
  0
ENDBLK
  5
541
330
534
100
AcDbEntity
  8
0
100
AcDbBlockEnd
  0
BLOCK
  5
F4
330
F3
100
AcDbEntity
  8
0
100
AcDbBlockBegin
  2
SIGNET
 70
     0
 10
0.0
 20
0.0
 30
0.0
  3
SIGNET
  1

  0
LINE
  5
F5
330
F3
100
AcDbEntity
  8
SCHRAFFUR
100
AcDbLine
 10
0.0
 20
10.0
 30
0.0
 11
0.0
 21
0.0
 31
0.0
  0
LINE
  5
F6
330
F3
100
AcDbEntity
  8
SCHRAFFUR
100
AcDbLine
 10
10.0
 20
0.0
 30
0.0
 11
10.0
 21
10.0
 31
0.0
  0
INSERT
  5
F7
330
F3
100
AcDbEntity
  8
SCHRAFFUR
100
AcDbBlockReference
  2
*X12
 10
-49.7
 20
-49.29999999999999
 30
0.0
1001
ACAD
1000
HATCH
1002
{
1070
    16
1000
ANSI37,I
1040
1.0
1040
0.0
1002
}
  0
INSERT
  5
377
330
F3
100
AcDbEntity
  8
SCHRAFFUR
100
AcDbBlockReference
  2
*X11
 10
-49.7
 20
-49.29999999999999
 30
0.0
1001
ACAD
1000
HATCH
1002
{
1070
    16
1000
DOTS
1040
4.0
1040
0.0
1002
}
  0
LINE
  5
462
330
F3
100
AcDbEntity
  8
SCHRAFFUR
100
AcDbLine
 10
0.0
 20
0.0
 30
0.0
 11
10.0
 21
0.0
 31
0.0
  0
LINE
  5
463
330
F3
100
AcDbEntity
  8
UMRISS02
100
AcDbLine
 10
1.077517607517663
 20
0.7000000000000029
 30
0.0
 11
3.842347010369678
 21
5.488825000000005
 31
0.0
  0
LINE
  5
467
330
F3
100
AcDbEntity
  8
UMRISS02
100
AcDbLine
 10
1.379240858196169
 20
0.7000000000000029
 30
0.0
 11
4.068639448378547
 21
5.358175000000002
 31
0.0
  0
LINE
  5
468
330
F3
100
AcDbEntity
  8
UMRISS02
100
AcDbLine
 10
2.156758465713835
 20
0.7000000000000029
 30
0.0
 11
4.921587868565843
 21
5.488825000000005
 31
0.0
  0
LINE
  5
469
330
F3
100
AcDbEntity
  8
UMRISS02
100
AcDbLine
 10
2.458481716392327
 20
0.7000000000000029
 30
0.0
 11
5.14788030657472
 21
5.358175000000002
 31
0.0
  0
LINE
  5
46A
330
F3
100
AcDbEntity
  8
UMRISS02
100
AcDbLine
 10
3.23599932391
 20
0.7000000000000029
 30
0.0
 11
5.844164731217404
 21
5.217475000000007
 31
0.0
  0
ARC
  5
46B
330
F3
100
AcDbEntity
  8
UMRISS02
100
AcDbCircle
 10
4.419682845802569
 20
4.619500000000002
 30
0.0
 40
1.608
100
AcDbArc
 50
98.9287091438004
 51
150.0
  0
LINE
  5
46C
330
F3
100
AcDbEntity
  8
UMRISS02
100
AcDbLine
 10
0.2999999999999971
 20
0.7000000000000029
 30
0.0
 11
1.077517607517663
 21
0.7000000000000029
 31
0.0
  0
LINE
  5
46D
330
F3
100
AcDbEntity
  8
UMRISS02
100
AcDbLine
 10
1.379240858196169
 20
0.7000000000000029
 30
0.0
 11
2.156758465713835
 21
0.7000000000000029
 31
0.0
  0
LINE
  5
46E
330
F3
100
AcDbEntity
  8
UMRISS02
100
AcDbLine
 10
2.458481716392327
 20
0.7000000000000029
 30
0.0
 11
3.23599932391
 21
0.7000000000000029
 31
0.0
  0
LINE
  5
46F
330
F3
100
AcDbEntity
  8
UMRISS02
100
AcDbLine
 10
0.2999999999999971
 20
0.7000000000000029
 30
0.0
 11
3.027113996517201
 21
5.423500000000004
 31
0.0
  0
LINE
  5
470
330
F3
100
AcDbEntity
  8
UMRISS02
100
AcDbLine
 10
6.879887812873406
 20
1.403499999999993
 30
0.0
 11
9.665025511444156
 21
6.227500000000006
 31
0.0
  0
LINE
  5
471
330
F3
100
AcDbEntity
  8
UMRISS02
100
AcDbLine
 10
5.69620429098083
 20
0.7000000000000029
 30
0.0
 11
8.88750790392649
 21
6.227500000000006
 31
0.0
  0
ARC
  5
472
330
F3
100
AcDbEntity
  8
UMRISS02
100
AcDbCircle
 10
3.955493229374113
 20
5.423500000000004
 30
0.0
 40
0.1306499999999998
100
AcDbArc
 50
329.9999999999999
 51
150.0000000000001
  0
ARC
  5
473
330
F3
100
AcDbEntity
  8
UMRISS02
100
AcDbCircle
 10
5.034734087570285
 20
5.423500000000004
 30
0.0
 40
0.1306500000000005
100
AcDbArc
 50
329.9999999999999
 51
149.9999999999999
  0
ARC
  5
474
330
F3
100
AcDbEntity
  8
UMRISS02
100
AcDbCircle
 10
5.261026525579154
 20
5.554149999999992
 30
0.0
 40
0.6733500000000002
100
AcDbArc
 50
330.0
 51
143.2636796026461
  0
ARC
  5
475
330
F3
100
AcDbEntity
  8
UMRISS02
100
AcDbCircle
 10
4.181785667382982
 20
5.554149999999992
 30
0.0
 40
0.6733500000000002
100
AcDbArc
 50
36.73632039735384
 51
67.15977161156269
  0
ARC
  5
476
330
F3
100
AcDbEntity
  8
UMRISS02
100
AcDbCircle
 10
4.248103272782898
 20
5.711603795489409
 30
0.0
 40
0.5025000000000001
100
AcDbArc
 50
67.15977161156267
 51
98.92870914380042
  0
LINE
  5
477
330
F3
100
AcDbEntity
  8
UMRISS02
100
AcDbLine
 10
5.737049999999996
 20
3.162646843292364
 30
0.0
 11
5.737049999999996
 21
2.640046843292367
 31
0.0
  0
LINE
  5
478
330
F3
100
AcDbEntity
  8
UMRISS02
100
AcDbLine
 10
5.043437642878316
 20
1.438675000000003
 30
0.0
 11
5.737049999999996
 21
2.640046843292367
 31
0.0
  0
ARC
  5
479
330
F3
100
AcDbEntity
  8
UMRISS02
100
AcDbCircle
 10
4.930291423873882
 20
1.504000000000004
 30
0.0
 40
0.1306499999999997
100
AcDbArc
 50
149.9999999999999
 51
330.0000000000001
  0
LINE
  5
47A
330
F3
100
AcDbEntity
  8
UMRISS02
100
AcDbLine
 10
4.81714520486944
 20
1.569325000000006
 30
0.0
 11
5.475749999999997
 21
2.710061967274612
 31
0.0
  0
LINE
  5
47B
330
F3
100
AcDbEntity
  8
UMRISS02
100
AcDbLine
 10
5.475749999999997
 20
2.710061967274612
 30
0.0
 11
5.475749999999997
 21
4.05676196727461
 31
0.0
  0
LINE
  5
47C
330
F3
100
AcDbEntity
  8
UMRISS02
100
AcDbLine
 10
4.120860780226749
 20
1.710025000000001
 30
0.0
 11
5.475749999999997
 21
4.05676196727461
 31
0.0
  0
ARC
  5
47D
330
F3
100
AcDbEntity
  8
UMRISS02
100
AcDbCircle
 10
4.703998985864998
 20
1.373350000000002
 30
0.0
 40
0.6733500000000002
100
AcDbArc
 50
150.0
 51
247.159771611563
  0
ARC
  5
47E
330
F3
100
AcDbEntity
  8
UMRISS02
100
AcDbCircle
 10
4.637681380465096
 20
1.215896204510585
 30
0.0
 40
0.5025000000000001
100
AcDbArc
 50
247.159771611563
 51
278.9287091438005
  0
ARC
  5
47F
330
F3
100
AcDbEntity
  8
UMRISS02
100
AcDbCircle
 10
4.466101807445419
 20
2.308000000000006
 30
0.0
 40
1.608
100
AcDbArc
 50
278.9287091438005
 51
330.0
  0
LINE
  5
480
330
F3
100
AcDbEntity
  8
UMRISS02
100
AcDbLine
 10
5.858670656730794
 20
1.504000000000004
 30
0.0
 11
6.410399999999995
 21
2.459623254568867
 31
0.0
  0
LINE
  5
481
330
F3
100
AcDbEntity
  8
UMRISS02
100
AcDbLine
 10
6.410399999999995
 20
2.459623254568867
 30
0.0
 11
6.410399999999995
 21
3.806323254568866
 31
0.0
  0
LINE
  5
482
330
F3
100
AcDbEntity
  8
UMRISS02
100
AcDbLine
 10
6.410399999999995
 20
3.806323254568866
 30
0.0
 11
6.410399999999995
 21
4.328923254568863
 31
0.0
  0
LINE
  5
483
330
F3
100
AcDbEntity
  8
UMRISS02
100
AcDbLine
 10
6.410399999999995
 20
4.328923254568863
 30
0.0
 11
7.080069584958181
 21
5.488825000000005
 31
0.0
  0
ARC
  5
484
330
F3
100
AcDbEntity
  8
UMRISS02
100
AcDbCircle
 10
7.193215803962615
 20
5.423500000000004
 30
0.0
 40
0.1306500000000009
100
AcDbArc
 50
330.0000000000001
 51
150.0
  0
LINE
  5
485
330
F3
100
AcDbEntity
  8
UMRISS02
100
AcDbLine
 10
6.671700000000001
 20
4.258908130586618
 30
0.0
 11
7.30636202296705
 21
5.358175000000002
 31
0.0
  0
LINE
  5
486
330
F3
100
AcDbEntity
  8
UMRISS02
100
AcDbLine
 10
6.671700000000001
 20
2.91220813058662
 30
0.0
 11
6.671700000000001
 21
4.258908130586618
 31
0.0
  0
LINE
  5
487
330
F3
100
AcDbEntity
  8
UMRISS02
100
AcDbLine
 10
6.671700000000001
 20
2.91220813058662
 30
0.0
 11
8.002646447609748
 21
5.217475000000007
 31
0.0
  0
ARC
  5
488
330
F3
100
AcDbEntity
  8
UMRISS02
100
AcDbCircle
 10
7.419508241971485
 20
5.554149999999992
 30
0.0
 40
0.6733500000000002
100
AcDbArc
 50
330.0000000000001
 51
67.15977161156274
  0
ARC
  5
489
330
F3
100
AcDbEntity
  8
UMRISS02
100
AcDbCircle
 10
7.485825847371401
 20
5.711603795489409
 30
0.0
 40
0.5025000000000001
100
AcDbArc
 50
67.15977161156278
 51
98.92870914380052
  0
ARC
  5
48A
330
F3
100
AcDbEntity
  8
UMRISS02
100
AcDbCircle
 10
7.657405420391071
 20
4.619500000000002
 30
0.0
 40
1.608
100
AcDbArc
 50
98.92870914380047
 51
150.0
  0
LINE
  5
48B
330
F3
100
AcDbEntity
  8
UMRISS02
100
AcDbLine
 10
5.737049999999996
 20
4.509346843292362
 30
0.0
 11
6.264836571105703
 21
5.423500000000004
 31
0.0
  0
LINE
  5
48C
330
F3
100
AcDbEntity
  8
UMRISS02
100
AcDbLine
 10
5.737049999999996
 20
3.162646843292364
 30
0.0
 11
5.737049999999996
 21
4.509346843292362
 31
0.0
  0
LINE
  5
48D
330
F3
100
AcDbEntity
  8
UMRISS02
100
AcDbLine
 10
5.69620429098083
 20
0.7000000000000029
 30
0.0
 11
7.541358016283965
 21
0.7000000000000029
 31
0.0
  0
LINE
  5
48E
330
F3
100
AcDbEntity
  8
UMRISS02
100
AcDbLine
 10
7.541358016283965
 20
0.7000000000000029
 30
0.0
 11
7.94752393065886
 21
1.403499999999993
 31
0.0
  0
LINE
  5
48F
330
F3
100
AcDbEntity
  8
UMRISS02
100
AcDbLine
 10
6.879887812873406
 20
1.403499999999993
 30
0.0
 11
7.94752393065886
 21
1.403499999999993
 31
0.0
  0
ARC
  5
490
330
F3
100
AcDbEntity
  8
UMRISS02
100
AcDbCircle
 10
7.485825847371401
 20
5.711603795489409
 30
0.0
 40
0.5025000000000001
100
AcDbArc
 50
67.15977161156278
 51
98.92870914380052
  0
ARC
  5
491
330
F3
100
AcDbEntity
  8
UMRISS02
100
AcDbCircle
 10
4.181785667382982
 20
5.554149999999992
 30
0.0
 40
0.6733500000000002
100
AcDbArc
 50
41.99441531255474
 51
67.15977161156269
  0
LINE
  5
492
330
F3
100
AcDbEntity
  8
UMRISS02
100
AcDbLine
 10
8.88750790392649
 20
6.227500000000006
 30
0.0
 11
9.665025511444156
 21
6.227500000000006
 31
0.0
  0
LINE
  5
493
330
F3
100
AcDbEntity
  8
SCHRAFFUR
100
AcDbLine
 10
10.0
 20
10.0
 30
0.0
 11
0.0
 21
10.0
 31
0.0
  0
ENDBLK
  5
494
330
F3
100
AcDbEntity
  8
0
100
AcDbBlockEnd
  0
BLOCK
  5
379
330
378
100
AcDbEntity
  8
0
100
AcDbBlockBegin
  2
*X11
 70
     1
 10
0.0
 20
0.0
 30
0.0
  3
*X11
  1

  0
LINE
  5
37A
330
378
100
AcDbEntity
  8
0
 62
     0
100
AcDbLine
 10
49.125
 20
53.75
 30
0.0
 11
49.125
 21
53.75
 31
0.0
  0
LINE
  5
37B
330
378
100
AcDbEntity
  8
0
 62
     0
100
AcDbLine
 10
49.375
 20
53.75
 30
0.0
 11
49.375
 21
53.75
 31
0.0
  0
LINE
  5
37C
330
378
100
AcDbEntity
  8
0
 62
     0
100
AcDbLine
 10
49.625
 20
53.75
 30
0.0
 11
49.625
 21
53.75
 31
0.0
  0
LINE
  5
37D
330
378
100
AcDbEntity
  8
0
 62
     0
100
AcDbLine
 10
49.0
 20
54.0
 30
0.0
 11
49.0
 21
54.0
 31
0.0
  0
LINE
  5
37E
330
378
100
AcDbEntity
  8
0
 62
     0
100
AcDbLine
 10
49.25
 20
54.0
 30
0.0
 11
49.25
 21
54.0
 31
0.0
  0
LINE
  5
37F
330
378
100
AcDbEntity
  8
0
 62
     0
100
AcDbLine
 10
49.5
 20
54.0
 30
0.0
 11
49.5
 21
54.0
 31
0.0
  0
LINE
  5
380
330
378
100
AcDbEntity
  8
0
 62
     0
100
AcDbLine
 10
49.125
 20
54.25
 30
0.0
 11
49.125
 21
54.25
 31
0.0
  0
LINE
  5
381
330
378
100
AcDbEntity
  8
0
 62
     0
100
AcDbLine
 10
49.375
 20
54.25
 30
0.0
 11
49.375
 21
54.25
 31
0.0
  0
LINE
  5
382
330
378
100
AcDbEntity
  8
0
 62
     0
100
AcDbLine
 10
49.625
 20
54.25
 30
0.0
 11
49.625
 21
54.25
 31
0.0
  0
LINE
  5
383
330
378
100
AcDbEntity
  8
0
 62
     0
100
AcDbLine
 10
49.0
 20
54.5
 30
0.0
 11
49.0
 21
54.5
 31
0.0
  0
LINE
  5
384
330
378
100
AcDbEntity
  8
0
 62
     0
100
AcDbLine
 10
49.25
 20
54.5
 30
0.0
 11
49.25
 21
54.5
 31
0.0
  0
LINE
  5
385
330
378
100
AcDbEntity
  8
0
 62
     0
100
AcDbLine
 10
49.5
 20
54.5
 30
0.0
 11
49.5
 21
54.5
 31
0.0
  0
LINE
  5
386
330
378
100
AcDbEntity
  8
0
 62
     0
100
AcDbLine
 10
49.125
 20
54.75
 30
0.0
 11
49.125
 21
54.75
 31
0.0
  0
LINE
  5
387
330
378
100
AcDbEntity
  8
0
 62
     0
100
AcDbLine
 10
49.375
 20
54.75
 30
0.0
 11
49.375
 21
54.75
 31
0.0
  0
LINE
  5
388
330
378
100
AcDbEntity
  8
0
 62
     0
100
AcDbLine
 10
49.625
 20
54.75
 30
0.0
 11
49.625
 21
54.75
 31
0.0
  0
LINE
  5
389
330
378
100
AcDbEntity
  8
0
 62
     0
100
AcDbLine
 10
49.0
 20
55.0
 30
0.0
 11
49.0
 21
55.0
 31
0.0
  0
LINE
  5
38A
330
378
100
AcDbEntity
  8
0
 62
     0
100
AcDbLine
 10
49.25
 20
55.0
 30
0.0
 11
49.25
 21
55.0
 31
0.0
  0
LINE
  5
38B
330
378
100
AcDbEntity
  8
0
 62
     0
100
AcDbLine
 10
49.5
 20
55.0
 30
0.0
 11
49.5
 21
55.0
 31
0.0
  0
LINE
  5
38C
330
378
100
AcDbEntity
  8
0
 62
     0
100
AcDbLine
 10
49.125
 20
55.25
 30
0.0
 11
49.125
 21
55.25
 31
0.0
  0
LINE
  5
38D
330
378
100
AcDbEntity
  8
0
 62
     0
100
AcDbLine
 10
49.375
 20
55.25
 30
0.0
 11
49.375
 21
55.25
 31
0.0
  0
LINE
  5
38E
330
378
100
AcDbEntity
  8
0
 62
     0
100
AcDbLine
 10
49.625
 20
55.25
 30
0.0
 11
49.625
 21
55.25
 31
0.0
  0
LINE
  5
38F
330
378
100
AcDbEntity
  8
0
 62
     0
100
AcDbLine
 10
49.0
 20
55.5
 30
0.0
 11
49.0
 21
55.5
 31
0.0
  0
LINE
  5
390
330
378
100
AcDbEntity
  8
0
 62
     0
100
AcDbLine
 10
49.25
 20
55.5
 30
0.0
 11
49.25
 21
55.5
 31
0.0
  0
LINE
  5
391
330
378
100
AcDbEntity
  8
0
 62
     0
100
AcDbLine
 10
49.5
 20
55.5
 30
0.0
 11
49.5
 21
55.5
 31
0.0
  0
LINE
  5
392
330
378
100
AcDbEntity
  8
0
 62
     0
100
AcDbLine
 10
49.125
 20
55.75
 30
0.0
 11
49.125
 21
55.75
 31
0.0
  0
LINE
  5
393
330
378
100
AcDbEntity
  8
0
 62
     0
100
AcDbLine
 10
49.375
 20
55.75
 30
0.0
 11
49.375
 21
55.75
 31
0.0
  0
LINE
  5
394
330
378
100
AcDbEntity
  8
0
 62
     0
100
AcDbLine
 10
49.625
 20
55.75
 30
0.0
 11
49.625
 21
55.75
 31
0.0
  0
LINE
  5
395
330
378
100
AcDbEntity
  8
0
 62
     0
100
AcDbLine
 10
49.0
 20
56.0
 30
0.0
 11
49.0
 21
56.0
 31
0.0
  0
LINE
  5
396
330
378
100
AcDbEntity
  8
0
 62
     0
100
AcDbLine
 10
49.25
 20
56.0
 30
0.0
 11
49.25
 21
56.0
 31
0.0
  0
LINE
  5
397
330
378
100
AcDbEntity
  8
0
 62
     0
100
AcDbLine
 10
49.5
 20
56.0
 30
0.0
 11
49.5
 21
56.0
 31
0.0
  0
LINE
  5
398
330
378
100
AcDbEntity
  8
0
 62
     0
100
AcDbLine
 10
49.125
 20
56.25
 30
0.0
 11
49.125
 21
56.25
 31
0.0
  0
LINE
  5
399
330
378
100
AcDbEntity
  8
0
 62
     0
100
AcDbLine
 10
49.375
 20
56.25
 30
0.0
 11
49.375
 21
56.25
 31
0.0
  0
LINE
  5
39A
330
378
100
AcDbEntity
  8
0
 62
     0
100
AcDbLine
 10
49.625
 20
56.25
 30
0.0
 11
49.625
 21
56.25
 31
0.0
  0
LINE
  5
39B
330
378
100
AcDbEntity
  8
0
 62
     0
100
AcDbLine
 10
49.0
 20
56.5
 30
0.0
 11
49.0
 21
56.5
 31
0.0
  0
LINE
  5
39C
330
378
100
AcDbEntity
  8
0
 62
     0
100
AcDbLine
 10
49.25
 20
56.5
 30
0.0
 11
49.25
 21
56.5
 31
0.0
  0
LINE
  5
39D
330
378
100
AcDbEntity
  8
0
 62
     0
100
AcDbLine
 10
49.5
 20
56.5
 30
0.0
 11
49.5
 21
56.5
 31
0.0
  0
LINE
  5
39E
330
378
100
AcDbEntity
  8
0
 62
     0
100
AcDbLine
 10
49.125
 20
56.75
 30
0.0
 11
49.125
 21
56.75
 31
0.0
  0
LINE
  5
39F
330
378
100
AcDbEntity
  8
0
 62
     0
100
AcDbLine
 10
49.375
 20
56.75
 30
0.0
 11
49.375
 21
56.75
 31
0.0
  0
LINE
  5
3A0
330
378
100
AcDbEntity
  8
0
 62
     0
100
AcDbLine
 10
49.625
 20
56.75
 30
0.0
 11
49.625
 21
56.75
 31
0.0
  0
LINE
  5
3A1
330
378
100
AcDbEntity
  8
0
 62
     0
100
AcDbLine
 10
49.0
 20
57.0
 30
0.0
 11
49.0
 21
57.0
 31
0.0
  0
LINE
  5
3A2
330
378
100
AcDbEntity
  8
0
 62
     0
100
AcDbLine
 10
49.25
 20
57.0
 30
0.0
 11
49.25
 21
57.0
 31
0.0
  0
LINE
  5
3A3
330
378
100
AcDbEntity
  8
0
 62
     0
100
AcDbLine
 10
49.5
 20
57.0
 30
0.0
 11
49.5
 21
57.0
 31
0.0
  0
LINE
  5
3A4
330
378
100
AcDbEntity
  8
0
 62
     0
100
AcDbLine
 10
49.125
 20
57.25
 30
0.0
 11
49.125
 21
57.25
 31
0.0
  0
LINE
  5
3A5
330
378
100
AcDbEntity
  8
0
 62
     0
100
AcDbLine
 10
49.375
 20
57.25
 30
0.0
 11
49.375
 21
57.25
 31
0.0
  0
LINE
  5
3A6
330
378
100
AcDbEntity
  8
0
 62
     0
100
AcDbLine
 10
49.625
 20
57.25
 30
0.0
 11
49.625
 21
57.25
 31
0.0
  0
LINE
  5
3A7
330
378
100
AcDbEntity
  8
0
 62
     0
100
AcDbLine
 10
49.0
 20
57.5
 30
0.0
 11
49.0
 21
57.5
 31
0.0
  0
LINE
  5
3A8
330
378
100
AcDbEntity
  8
0
 62
     0
100
AcDbLine
 10
49.25
 20
57.5
 30
0.0
 11
49.25
 21
57.5
 31
0.0
  0
LINE
  5
3A9
330
378
100
AcDbEntity
  8
0
 62
     0
100
AcDbLine
 10
49.5
 20
57.5
 30
0.0
 11
49.5
 21
57.5
 31
0.0
  0
LINE
  5
3AA
330
378
100
AcDbEntity
  8
0
 62
     0
100
AcDbLine
 10
49.125
 20
57.75
 30
0.0
 11
49.125
 21
57.75
 31
0.0
  0
LINE
  5
3AB
330
378
100
AcDbEntity
  8
0
 62
     0
100
AcDbLine
 10
49.375
 20
57.75
 30
0.0
 11
49.375
 21
57.75
 31
0.0
  0
LINE
  5
3AC
330
378
100
AcDbEntity
  8
0
 62
     0
100
AcDbLine
 10
49.625
 20
57.75
 30
0.0
 11
49.625
 21
57.75
 31
0.0
  0
LINE
  5
3AD
330
378
100
AcDbEntity
  8
0
 62
     0
100
AcDbLine
 10
49.0
 20
58.0
 30
0.0
 11
49.0
 21
58.0
 31
0.0
  0
LINE
  5
3AE
330
378
100
AcDbEntity
  8
0
 62
     0
100
AcDbLine
 10
49.25
 20
58.0
 30
0.0
 11
49.25
 21
58.0
 31
0.0
  0
LINE
  5
3AF
330
378
100
AcDbEntity
  8
0
 62
     0
100
AcDbLine
 10
49.5
 20
58.0
 30
0.0
 11
49.5
 21
58.0
 31
0.0
  0
LINE
  5
3B0
330
378
100
AcDbEntity
  8
0
 62
     0
100
AcDbLine
 10
49.125
 20
58.25
 30
0.0
 11
49.125
 21
58.25
 31
0.0
  0
LINE
  5
3B1
330
378
100
AcDbEntity
  8
0
 62
     0
100
AcDbLine
 10
49.375
 20
58.25
 30
0.0
 11
49.375
 21
58.25
 31
0.0
  0
LINE
  5
3B2
330
378
100
AcDbEntity
  8
0
 62
     0
100
AcDbLine
 10
49.625
 20
58.25
 30
0.0
 11
49.625
 21
58.25
 31
0.0
  0
LINE
  5
3B3
330
378
100
AcDbEntity
  8
0
 62
     0
100
AcDbLine
 10
49.0
 20
58.5
 30
0.0
 11
49.0
 21
58.5
 31
0.0
  0
LINE
  5
3B4
330
378
100
AcDbEntity
  8
0
 62
     0
100
AcDbLine
 10
49.25
 20
58.5
 30
0.0
 11
49.25
 21
58.5
 31
0.0
  0
LINE
  5
3B5
330
378
100
AcDbEntity
  8
0
 62
     0
100
AcDbLine
 10
49.5
 20
58.5
 30
0.0
 11
49.5
 21
58.5
 31
0.0
  0
LINE
  5
3B6
330
378
100
AcDbEntity
  8
0
 62
     0
100
AcDbLine
 10
49.0
 20
53.5
 30
0.0
 11
49.0
 21
53.5
 31
0.0
  0
LINE
  5
3B7
330
378
100
AcDbEntity
  8
0
 62
     0
100
AcDbLine
 10
49.25
 20
53.5
 30
0.0
 11
49.25
 21
53.5
 31
0.0
  0
LINE
  5
3B8
330
378
100
AcDbEntity
  8
0
 62
     0
100
AcDbLine
 10
49.5
 20
53.5
 30
0.0
 11
49.5
 21
53.5
 31
0.0
  0
LINE
  5
3B9
330
378
100
AcDbEntity
  8
0
 62
     0
100
AcDbLine
 10
49.125
 20
53.25
 30
0.0
 11
49.125
 21
53.25
 31
0.0
  0
LINE
  5
3BA
330
378
100
AcDbEntity
  8
0
 62
     0
100
AcDbLine
 10
49.375
 20
53.25
 30
0.0
 11
49.375
 21
53.25
 31
0.0
  0
LINE
  5
3BB
330
378
100
AcDbEntity
  8
0
 62
     0
100
AcDbLine
 10
49.625
 20
53.25
 30
0.0
 11
49.625
 21
53.25
 31
0.0
  0
LINE
  5
3BC
330
378
100
AcDbEntity
  8
0
 62
     0
100
AcDbLine
 10
49.0
 20
53.0
 30
0.0
 11
49.0
 21
53.0
 31
0.0
  0
LINE
  5
3BD
330
378
100
AcDbEntity
  8
0
 62
     0
100
AcDbLine
 10
49.25
 20
53.0
 30
0.0
 11
49.25
 21
53.0
 31
0.0
  0
LINE
  5
3BE
330
378
100
AcDbEntity
  8
0
 62
     0
100
AcDbLine
 10
49.5
 20
53.0
 30
0.0
 11
49.5
 21
53.0
 31
0.0
  0
LINE
  5
3BF
330
378
100
AcDbEntity
  8
0
 62
     0
100
AcDbLine
 10
49.125
 20
52.75
 30
0.0
 11
49.125
 21
52.75
 31
0.0
  0
LINE
  5
3C0
330
378
100
AcDbEntity
  8
0
 62
     0
100
AcDbLine
 10
49.375
 20
52.75
 30
0.0
 11
49.375
 21
52.75
 31
0.0
  0
LINE
  5
3C1
330
378
100
AcDbEntity
  8
0
 62
     0
100
AcDbLine
 10
49.625
 20
52.75
 30
0.0
 11
49.625
 21
52.75
 31
0.0
  0
LINE
  5
3C2
330
378
100
AcDbEntity
  8
0
 62
     0
100
AcDbLine
 10
49.0
 20
52.5
 30
0.0
 11
49.0
 21
52.5
 31
0.0
  0
LINE
  5
3C3
330
378
100
AcDbEntity
  8
0
 62
     0
100
AcDbLine
 10
49.25
 20
52.5
 30
0.0
 11
49.25
 21
52.5
 31
0.0
  0
LINE
  5
3C4
330
378
100
AcDbEntity
  8
0
 62
     0
100
AcDbLine
 10
49.5
 20
52.5
 30
0.0
 11
49.5
 21
52.5
 31
0.0
  0
LINE
  5
3C5
330
378
100
AcDbEntity
  8
0
 62
     0
100
AcDbLine
 10
49.125
 20
52.25
 30
0.0
 11
49.125
 21
52.25
 31
0.0
  0
LINE
  5
3C6
330
378
100
AcDbEntity
  8
0
 62
     0
100
AcDbLine
 10
49.375
 20
52.25
 30
0.0
 11
49.375
 21
52.25
 31
0.0
  0
LINE
  5
3C7
330
378
100
AcDbEntity
  8
0
 62
     0
100
AcDbLine
 10
49.625
 20
52.25
 30
0.0
 11
49.625
 21
52.25
 31
0.0
  0
LINE
  5
3C8
330
378
100
AcDbEntity
  8
0
 62
     0
100
AcDbLine
 10
49.0
 20
52.0
 30
0.0
 11
49.0
 21
52.0
 31
0.0
  0
LINE
  5
3C9
330
378
100
AcDbEntity
  8
0
 62
     0
100
AcDbLine
 10
49.25
 20
52.0
 30
0.0
 11
49.25
 21
52.0
 31
0.0
  0
LINE
  5
3CA
330
378
100
AcDbEntity
  8
0
 62
     0
100
AcDbLine
 10
49.5
 20
52.0
 30
0.0
 11
49.5
 21
52.0
 31
0.0
  0
LINE
  5
3CB
330
378
100
AcDbEntity
  8
0
 62
     0
100
AcDbLine
 10
49.125
 20
51.75
 30
0.0
 11
49.125
 21
51.75
 31
0.0
  0
LINE
  5
3CC
330
378
100
AcDbEntity
  8
0
 62
     0
100
AcDbLine
 10
49.375
 20
51.75
 30
0.0
 11
49.375
 21
51.75
 31
0.0
  0
LINE
  5
3CD
330
378
100
AcDbEntity
  8
0
 62
     0
100
AcDbLine
 10
49.625
 20
51.75
 30
0.0
 11
49.625
 21
51.75
 31
0.0
  0
LINE
  5
3CE
330
378
100
AcDbEntity
  8
0
 62
     0
100
AcDbLine
 10
49.0
 20
51.5
 30
0.0
 11
49.0
 21
51.5
 31
0.0
  0
LINE
  5
3CF
330
378
100
AcDbEntity
  8
0
 62
     0
100
AcDbLine
 10
49.25
 20
51.5
 30
0.0
 11
49.25
 21
51.5
 31
0.0
  0
LINE
  5
3D0
330
378
100
AcDbEntity
  8
0
 62
     0
100
AcDbLine
 10
49.5
 20
51.5
 30
0.0
 11
49.5
 21
51.5
 31
0.0
  0
LINE
  5
3D1
330
378
100
AcDbEntity
  8
0
 62
     0
100
AcDbLine
 10
49.125
 20
51.25
 30
0.0
 11
49.125
 21
51.25
 31
0.0
  0
LINE
  5
3D2
330
378
100
AcDbEntity
  8
0
 62
     0
100
AcDbLine
 10
49.375
 20
51.25
 30
0.0
 11
49.375
 21
51.25
 31
0.0
  0
LINE
  5
3D3
330
378
100
AcDbEntity
  8
0
 62
     0
100
AcDbLine
 10
49.625
 20
51.25
 30
0.0
 11
49.625
 21
51.25
 31
0.0
  0
LINE
  5
3D4
330
378
100
AcDbEntity
  8
0
 62
     0
100
AcDbLine
 10
49.0
 20
51.0
 30
0.0
 11
49.0
 21
51.0
 31
0.0
  0
LINE
  5
3D5
330
378
100
AcDbEntity
  8
0
 62
     0
100
AcDbLine
 10
49.25
 20
51.0
 30
0.0
 11
49.25
 21
51.0
 31
0.0
  0
LINE
  5
3D6
330
378
100
AcDbEntity
  8
0
 62
     0
100
AcDbLine
 10
49.5
 20
51.0
 30
0.0
 11
49.5
 21
51.0
 31
0.0
  0
LINE
  5
3D7
330
378
100
AcDbEntity
  8
0
 62
     0
100
AcDbLine
 10
49.125
 20
50.75
 30
0.0
 11
49.125
 21
50.75
 31
0.0
  0
LINE
  5
3D8
330
378
100
AcDbEntity
  8
0
 62
     0
100
AcDbLine
 10
49.375
 20
50.75
 30
0.0
 11
49.375
 21
50.75
 31
0.0
  0
LINE
  5
3D9
330
378
100
AcDbEntity
  8
0
 62
     0
100
AcDbLine
 10
49.625
 20
50.75
 30
0.0
 11
49.625
 21
50.75
 31
0.0
  0
LINE
  5
3DA
330
378
100
AcDbEntity
  8
0
 62
     0
100
AcDbLine
 10
49.0
 20
50.5
 30
0.0
 11
49.0
 21
50.5
 31
0.0
  0
LINE
  5
3DB
330
378
100
AcDbEntity
  8
0
 62
     0
100
AcDbLine
 10
49.25
 20
50.5
 30
0.0
 11
49.25
 21
50.5
 31
0.0
  0
LINE
  5
3DC
330
378
100
AcDbEntity
  8
0
 62
     0
100
AcDbLine
 10
49.5
 20
50.5
 30
0.0
 11
49.5
 21
50.5
 31
0.0
  0
LINE
  5
3DD
330
378
100
AcDbEntity
  8
0
 62
     0
100
AcDbLine
 10
49.125
 20
50.25
 30
0.0
 11
49.125
 21
50.25
 31
0.0
  0
LINE
  5
3DE
330
378
100
AcDbEntity
  8
0
 62
     0
100
AcDbLine
 10
49.375
 20
50.25
 30
0.0
 11
49.375
 21
50.25
 31
0.0
  0
LINE
  5
3DF
330
378
100
AcDbEntity
  8
0
 62
     0
100
AcDbLine
 10
49.625
 20
50.25
 30
0.0
 11
49.625
 21
50.25
 31
0.0
  0
LINE
  5
3E0
330
378
100
AcDbEntity
  8
0
 62
     0
100
AcDbLine
 10
49.0
 20
50.0
 30
0.0
 11
49.0
 21
50.0
 31
0.0
  0
LINE
  5
3E1
330
378
100
AcDbEntity
  8
0
 62
     0
100
AcDbLine
 10
49.25
 20
50.0
 30
0.0
 11
49.25
 21
50.0
 31
0.0
  0
LINE
  5
3E2
330
378
100
AcDbEntity
  8
0
 62
     0
100
AcDbLine
 10
49.5
 20
50.0
 30
0.0
 11
49.5
 21
50.0
 31
0.0
  0
LINE
  5
3E3
330
378
100
AcDbEntity
  8
0
 62
     0
100
AcDbLine
 10
49.125
 20
49.75
 30
0.0
 11
49.125
 21
49.75
 31
0.0
  0
LINE
  5
3E4
330
378
100
AcDbEntity
  8
0
 62
     0
100
AcDbLine
 10
49.375
 20
49.75
 30
0.0
 11
49.375
 21
49.75
 31
0.0
  0
LINE
  5
3E5
330
378
100
AcDbEntity
  8
0
 62
     0
100
AcDbLine
 10
49.625
 20
49.75
 30
0.0
 11
49.625
 21
49.75
 31
0.0
  0
LINE
  5
3E6
330
378
100
AcDbEntity
  8
0
 62
     0
100
AcDbLine
 10
49.0
 20
49.5
 30
0.0
 11
49.0
 21
49.5
 31
0.0
  0
LINE
  5
3E7
330
378
100
AcDbEntity
  8
0
 62
     0
100
AcDbLine
 10
49.25
 20
49.5
 30
0.0
 11
49.25
 21
49.5
 31
0.0
  0
LINE
  5
3E8
330
378
100
AcDbEntity
  8
0
 62
     0
100
AcDbLine
 10
49.5
 20
49.5
 30
0.0
 11
49.5
 21
49.5
 31
0.0
  0
LINE
  5
3E9
330
378
100
AcDbEntity
  8
0
 62
     0
100
AcDbLine
 10
49.125
 20
49.25
 30
0.0
 11
49.125
 21
49.25
 31
0.0
  0
LINE
  5
3EA
330
378
100
AcDbEntity
  8
0
 62
     0
100
AcDbLine
 10
49.375
 20
49.25
 30
0.0
 11
49.375
 21
49.25
 31
0.0
  0
LINE
  5
3EB
330
378
100
AcDbEntity
  8
0
 62
     0
100
AcDbLine
 10
49.625
 20
49.25
 30
0.0
 11
49.625
 21
49.25
 31
0.0
  0
LINE
  5
3EC
330
378
100
AcDbEntity
  8
0
 62
     0
100
AcDbLine
 10
49.875
 20
49.25
 30
0.0
 11
49.875
 21
49.25
 31
0.0
  0
LINE
  5
3ED
330
378
100
AcDbEntity
  8
0
 62
     0
100
AcDbLine
 10
50.125
 20
49.25
 30
0.0
 11
50.125
 21
49.25
 31
0.0
  0
LINE
  5
3EE
330
378
100
AcDbEntity
  8
0
 62
     0
100
AcDbLine
 10
50.375
 20
49.25
 30
0.0
 11
50.375
 21
49.25
 31
0.0
  0
LINE
  5
3EF
330
378
100
AcDbEntity
  8
0
 62
     0
100
AcDbLine
 10
50.625
 20
49.25
 30
0.0
 11
50.625
 21
49.25
 31
0.0
  0
LINE
  5
3F0
330
378
100
AcDbEntity
  8
0
 62
     0
100
AcDbLine
 10
50.875
 20
49.25
 30
0.0
 11
50.875
 21
49.25
 31
0.0
  0
LINE
  5
3F1
330
378
100
AcDbEntity
  8
0
 62
     0
100
AcDbLine
 10
51.125
 20
49.25
 30
0.0
 11
51.125
 21
49.25
 31
0.0
  0
LINE
  5
3F2
330
378
100
AcDbEntity
  8
0
 62
     0
100
AcDbLine
 10
51.375
 20
49.25
 30
0.0
 11
51.375
 21
49.25
 31
0.0
  0
LINE
  5
3F3
330
378
100
AcDbEntity
  8
0
 62
     0
100
AcDbLine
 10
51.625
 20
49.25
 30
0.0
 11
51.625
 21
49.25
 31
0.0
  0
LINE
  5
3F4
330
378
100
AcDbEntity
  8
0
 62
     0
100
AcDbLine
 10
51.875
 20
49.25
 30
0.0
 11
51.875
 21
49.25
 31
0.0
  0
LINE
  5
3F5
330
378
100
AcDbEntity
  8
0
 62
     0
100
AcDbLine
 10
52.125
 20
49.25
 30
0.0
 11
52.125
 21
49.25
 31
0.0
  0
LINE
  5
3F6
330
378
100
AcDbEntity
  8
0
 62
     0
100
AcDbLine
 10
52.375
 20
49.25
 30
0.0
 11
52.375
 21
49.25
 31
0.0
  0
LINE
  5
3F7
330
378
100
AcDbEntity
  8
0
 62
     0
100
AcDbLine
 10
52.625
 20
49.25
 30
0.0
 11
52.625
 21
49.25
 31
0.0
  0
LINE
  5
3F8
330
378
100
AcDbEntity
  8
0
 62
     0
100
AcDbLine
 10
52.875
 20
49.25
 30
0.0
 11
52.875
 21
49.25
 31
0.0
  0
LINE
  5
3F9
330
378
100
AcDbEntity
  8
0
 62
     0
100
AcDbLine
 10
53.125
 20
49.25
 30
0.0
 11
53.125
 21
49.25
 31
0.0
  0
LINE
  5
3FA
330
378
100
AcDbEntity
  8
0
 62
     0
100
AcDbLine
 10
53.375
 20
49.25
 30
0.0
 11
53.375
 21
49.25
 31
0.0
  0
LINE
  5
3FB
330
378
100
AcDbEntity
  8
0
 62
     0
100
AcDbLine
 10
53.625
 20
49.25
 30
0.0
 11
53.625
 21
49.25
 31
0.0
  0
LINE
  5
3FC
330
378
100
AcDbEntity
  8
0
 62
     0
100
AcDbLine
 10
53.875
 20
49.25
 30
0.0
 11
53.875
 21
49.25
 31
0.0
  0
LINE
  5
3FD
330
378
100
AcDbEntity
  8
0
 62
     0
100
AcDbLine
 10
54.125
 20
49.25
 30
0.0
 11
54.125
 21
49.25
 31
0.0
  0
LINE
  5
3FE
330
378
100
AcDbEntity
  8
0
 62
     0
100
AcDbLine
 10
54.375
 20
49.25
 30
0.0
 11
54.375
 21
49.25
 31
0.0
  0
LINE
  5
3FF
330
378
100
AcDbEntity
  8
0
 62
     0
100
AcDbLine
 10
54.625
 20
49.25
 30
0.0
 11
54.625
 21
49.25
 31
0.0
  0
LINE
  5
400
330
378
100
AcDbEntity
  8
0
 62
     0
100
AcDbLine
 10
54.875
 20
49.25
 30
0.0
 11
54.875
 21
49.25
 31
0.0
  0
LINE
  5
401
330
378
100
AcDbEntity
  8
0
 62
     0
100
AcDbLine
 10
55.125
 20
49.25
 30
0.0
 11
55.125
 21
49.25
 31
0.0
  0
LINE
  5
402
330
378
100
AcDbEntity
  8
0
 62
     0
100
AcDbLine
 10
55.375
 20
49.25
 30
0.0
 11
55.375
 21
49.25
 31
0.0
  0
LINE
  5
403
330
378
100
AcDbEntity
  8
0
 62
     0
100
AcDbLine
 10
55.625
 20
49.25
 30
0.0
 11
55.625
 21
49.25
 31
0.0
  0
LINE
  5
404
330
378
100
AcDbEntity
  8
0
 62
     0
100
AcDbLine
 10
55.875
 20
49.25
 30
0.0
 11
55.875
 21
49.25
 31
0.0
  0
LINE
  5
405
330
378
100
AcDbEntity
  8
0
 62
     0
100
AcDbLine
 10
56.125
 20
49.25
 30
0.0
 11
56.125
 21
49.25
 31
0.0
  0
LINE
  5
406
330
378
100
AcDbEntity
  8
0
 62
     0
100
AcDbLine
 10
56.375
 20
49.25
 30
0.0
 11
56.375
 21
49.25
 31
0.0
  0
LINE
  5
407
330
378
100
AcDbEntity
  8
0
 62
     0
100
AcDbLine
 10
56.625
 20
49.25
 30
0.0
 11
56.625
 21
49.25
 31
0.0
  0
LINE
  5
408
330
378
100
AcDbEntity
  8
0
 62
     0
100
AcDbLine
 10
56.875
 20
49.25
 30
0.0
 11
56.875
 21
49.25
 31
0.0
  0
LINE
  5
409
330
378
100
AcDbEntity
  8
0
 62
     0
100
AcDbLine
 10
57.125
 20
49.25
 30
0.0
 11
57.125
 21
49.25
 31
0.0
  0
LINE
  5
40A
330
378
100
AcDbEntity
  8
0
 62
     0
100
AcDbLine
 10
57.375
 20
49.25
 30
0.0
 11
57.375
 21
49.25
 31
0.0
  0
LINE
  5
40B
330
378
100
AcDbEntity
  8
0
 62
     0
100
AcDbLine
 10
57.625
 20
49.25
 30
0.0
 11
57.625
 21
49.25
 31
0.0
  0
LINE
  5
40C
330
378
100
AcDbEntity
  8
0
 62
     0
100
AcDbLine
 10
57.875
 20
49.25
 30
0.0
 11
57.875
 21
49.25
 31
0.0
  0
LINE
  5
40D
330
378
100
AcDbEntity
  8
0
 62
     0
100
AcDbLine
 10
58.125
 20
49.25
 30
0.0
 11
58.125
 21
49.25
 31
0.0
  0
LINE
  5
40E
330
378
100
AcDbEntity
  8
0
 62
     0
100
AcDbLine
 10
58.375
 20
49.25
 30
0.0
 11
58.375
 21
49.25
 31
0.0
  0
LINE
  5
40F
330
378
100
AcDbEntity
  8
0
 62
     0
100
AcDbLine
 10
58.625
 20
49.25
 30
0.0
 11
58.625
 21
49.25
 31
0.0
  0
LINE
  5
410
330
378
100
AcDbEntity
  8
0
 62
     0
100
AcDbLine
 10
58.875
 20
49.25
 30
0.0
 11
58.875
 21
49.25
 31
0.0
  0
LINE
  5
411
330
378
100
AcDbEntity
  8
0
 62
     0
100
AcDbLine
 10
49.0
 20
49.0
 30
0.0
 11
49.0
 21
49.0
 31
0.0
  0
LINE
  5
412
330
378
100
AcDbEntity
  8
0
 62
     0
100
AcDbLine
 10
49.25
 20
49.0
 30
0.0
 11
49.25
 21
49.0
 31
0.0
  0
LINE
  5
413
330
378
100
AcDbEntity
  8
0
 62
     0
100
AcDbLine
 10
49.5
 20
49.0
 30
0.0
 11
49.5
 21
49.0
 31
0.0
  0
LINE
  5
414
330
378
100
AcDbEntity
  8
0
 62
     0
100
AcDbLine
 10
49.75
 20
49.0
 30
0.0
 11
49.75
 21
49.0
 31
0.0
  0
LINE
  5
415
330
378
100
AcDbEntity
  8
0
 62
     0
100
AcDbLine
 10
50.0
 20
49.0
 30
0.0
 11
50.0
 21
49.0
 31
0.0
  0
LINE
  5
416
330
378
100
AcDbEntity
  8
0
 62
     0
100
AcDbLine
 10
50.25
 20
49.0
 30
0.0
 11
50.25
 21
49.0
 31
0.0
  0
LINE
  5
417
330
378
100
AcDbEntity
  8
0
 62
     0
100
AcDbLine
 10
50.5
 20
49.0
 30
0.0
 11
50.5
 21
49.0
 31
0.0
  0
LINE
  5
418
330
378
100
AcDbEntity
  8
0
 62
     0
100
AcDbLine
 10
50.75
 20
49.0
 30
0.0
 11
50.75
 21
49.0
 31
0.0
  0
LINE
  5
419
330
378
100
AcDbEntity
  8
0
 62
     0
100
AcDbLine
 10
51.0
 20
49.0
 30
0.0
 11
51.0
 21
49.0
 31
0.0
  0
LINE
  5
41A
330
378
100
AcDbEntity
  8
0
 62
     0
100
AcDbLine
 10
51.25
 20
49.0
 30
0.0
 11
51.25
 21
49.0
 31
0.0
  0
LINE
  5
41B
330
378
100
AcDbEntity
  8
0
 62
     0
100
AcDbLine
 10
51.5
 20
49.0
 30
0.0
 11
51.5
 21
49.0
 31
0.0
  0
LINE
  5
41C
330
378
100
AcDbEntity
  8
0
 62
     0
100
AcDbLine
 10
51.75
 20
49.0
 30
0.0
 11
51.75
 21
49.0
 31
0.0
  0
LINE
  5
41D
330
378
100
AcDbEntity
  8
0
 62
     0
100
AcDbLine
 10
52.0
 20
49.0
 30
0.0
 11
52.0
 21
49.0
 31
0.0
  0
LINE
  5
41E
330
378
100
AcDbEntity
  8
0
 62
     0
100
AcDbLine
 10
52.25
 20
49.0
 30
0.0
 11
52.25
 21
49.0
 31
0.0
  0
LINE
  5
41F
330
378
100
AcDbEntity
  8
0
 62
     0
100
AcDbLine
 10
52.5
 20
49.0
 30
0.0
 11
52.5
 21
49.0
 31
0.0
  0
LINE
  5
420
330
378
100
AcDbEntity
  8
0
 62
     0
100
AcDbLine
 10
52.75
 20
49.0
 30
0.0
 11
52.75
 21
49.0
 31
0.0
  0
LINE
  5
421
330
378
100
AcDbEntity
  8
0
 62
     0
100
AcDbLine
 10
53.0
 20
49.0
 30
0.0
 11
53.0
 21
49.0
 31
0.0
  0
LINE
  5
422
330
378
100
AcDbEntity
  8
0
 62
     0
100
AcDbLine
 10
53.25
 20
49.0
 30
0.0
 11
53.25
 21
49.0
 31
0.0
  0
LINE
  5
423
330
378
100
AcDbEntity
  8
0
 62
     0
100
AcDbLine
 10
53.5
 20
49.0
 30
0.0
 11
53.5
 21
49.0
 31
0.0
  0
LINE
  5
424
330
378
100
AcDbEntity
  8
0
 62
     0
100
AcDbLine
 10
53.75
 20
49.0
 30
0.0
 11
53.75
 21
49.0
 31
0.0
  0
LINE
  5
425
330
378
100
AcDbEntity
  8
0
 62
     0
100
AcDbLine
 10
54.0
 20
49.0
 30
0.0
 11
54.0
 21
49.0
 31
0.0
  0
LINE
  5
426
330
378
100
AcDbEntity
  8
0
 62
     0
100
AcDbLine
 10
54.25
 20
49.0
 30
0.0
 11
54.25
 21
49.0
 31
0.0
  0
LINE
  5
427
330
378
100
AcDbEntity
  8
0
 62
     0
100
AcDbLine
 10
54.5
 20
49.0
 30
0.0
 11
54.5
 21
49.0
 31
0.0
  0
LINE
  5
428
330
378
100
AcDbEntity
  8
0
 62
     0
100
AcDbLine
 10
54.75
 20
49.0
 30
0.0
 11
54.75
 21
49.0
 31
0.0
  0
LINE
  5
429
330
378
100
AcDbEntity
  8
0
 62
     0
100
AcDbLine
 10
55.0
 20
49.0
 30
0.0
 11
55.0
 21
49.0
 31
0.0
  0
LINE
  5
42A
330
378
100
AcDbEntity
  8
0
 62
     0
100
AcDbLine
 10
55.25
 20
49.0
 30
0.0
 11
55.25
 21
49.0
 31
0.0
  0
LINE
  5
42B
330
378
100
AcDbEntity
  8
0
 62
     0
100
AcDbLine
 10
55.5
 20
49.0
 30
0.0
 11
55.5
 21
49.0
 31
0.0
  0
LINE
  5
42C
330
378
100
AcDbEntity
  8
0
 62
     0
100
AcDbLine
 10
55.75
 20
49.0
 30
0.0
 11
55.75
 21
49.0
 31
0.0
  0
LINE
  5
42D
330
378
100
AcDbEntity
  8
0
 62
     0
100
AcDbLine
 10
56.0
 20
49.0
 30
0.0
 11
56.0
 21
49.0
 31
0.0
  0
LINE
  5
42E
330
378
100
AcDbEntity
  8
0
 62
     0
100
AcDbLine
 10
56.25
 20
49.0
 30
0.0
 11
56.25
 21
49.0
 31
0.0
  0
LINE
  5
42F
330
378
100
AcDbEntity
  8
0
 62
     0
100
AcDbLine
 10
56.5
 20
49.0
 30
0.0
 11
56.5
 21
49.0
 31
0.0
  0
LINE
  5
430
330
378
100
AcDbEntity
  8
0
 62
     0
100
AcDbLine
 10
56.75
 20
49.0
 30
0.0
 11
56.75
 21
49.0
 31
0.0
  0
LINE
  5
431
330
378
100
AcDbEntity
  8
0
 62
     0
100
AcDbLine
 10
57.0
 20
49.0
 30
0.0
 11
57.0
 21
49.0
 31
0.0
  0
LINE
  5
432
330
378
100
AcDbEntity
  8
0
 62
     0
100
AcDbLine
 10
57.25
 20
49.0
 30
0.0
 11
57.25
 21
49.0
 31
0.0
  0
LINE
  5
433
330
378
100
AcDbEntity
  8
0
 62
     0
100
AcDbLine
 10
57.5
 20
49.0
 30
0.0
 11
57.5
 21
49.0
 31
0.0
  0
LINE
  5
434
330
378
100
AcDbEntity
  8
0
 62
     0
100
AcDbLine
 10
57.75
 20
49.0
 30
0.0
 11
57.75
 21
49.0
 31
0.0
  0
LINE
  5
435
330
378
100
AcDbEntity
  8
0
 62
     0
100
AcDbLine
 10
58.0
 20
49.0
 30
0.0
 11
58.0
 21
49.0
 31
0.0
  0
LINE
  5
436
330
378
100
AcDbEntity
  8
0
 62
     0
100
AcDbLine
 10
58.25
 20
49.0
 30
0.0
 11
58.25
 21
49.0
 31
0.0
  0
LINE
  5
437
330
378
100
AcDbEntity
  8
0
 62
     0
100
AcDbLine
 10
58.5
 20
49.0
 30
0.0
 11
58.5
 21
49.0
 31
0.0
  0
LINE
  5
438
330
378
100
AcDbEntity
  8
0
 62
     0
100
AcDbLine
 10
58.75
 20
49.0
 30
0.0
 11
58.75
 21
49.0
 31
0.0
  0
LINE
  5
439
330
378
100
AcDbEntity
  8
0
 62
     0
100
AcDbLine
 10
49.125
 20
48.75
 30
0.0
 11
49.125
 21
48.75
 31
0.0
  0
LINE
  5
43A
330
378
100
AcDbEntity
  8
0
 62
     0
100
AcDbLine
 10
49.375
 20
48.75
 30
0.0
 11
49.375
 21
48.75
 31
0.0
  0
LINE
  5
43B
330
378
100
AcDbEntity
  8
0
 62
     0
100
AcDbLine
 10
49.625
 20
48.75
 30
0.0
 11
49.625
 21
48.75
 31
0.0
  0
LINE
  5
43C
330
378
100
AcDbEntity
  8
0
 62
     0
100
AcDbLine
 10
49.875
 20
48.75
 30
0.0
 11
49.875
 21
48.75
 31
0.0
  0
LINE
  5
43D
330
378
100
AcDbEntity
  8
0
 62
     0
100
AcDbLine
 10
50.125
 20
48.75
 30
0.0
 11
50.125
 21
48.75
 31
0.0
  0
LINE
  5
43E
330
378
100
AcDbEntity
  8
0
 62
     0
100
AcDbLine
 10
50.375
 20
48.75
 30
0.0
 11
50.375
 21
48.75
 31
0.0
  0
LINE
  5
43F
330
378
100
AcDbEntity
  8
0
 62
     0
100
AcDbLine
 10
50.625
 20
48.75
 30
0.0
 11
50.625
 21
48.75
 31
0.0
  0
LINE
  5
440
330
378
100
AcDbEntity
  8
0
 62
     0
100
AcDbLine
 10
50.875
 20
48.75
 30
0.0
 11
50.875
 21
48.75
 31
0.0
  0
LINE
  5
441
330
378
100
AcDbEntity
  8
0
 62
     0
100
AcDbLine
 10
51.125
 20
48.75
 30
0.0
 11
51.125
 21
48.75
 31
0.0
  0
LINE
  5
442
330
378
100
AcDbEntity
  8
0
 62
     0
100
AcDbLine
 10
51.375
 20
48.75
 30
0.0
 11
51.375
 21
48.75
 31
0.0
  0
LINE
  5
443
330
378
100
AcDbEntity
  8
0
 62
     0
100
AcDbLine
 10
51.625
 20
48.75
 30
0.0
 11
51.625
 21
48.75
 31
0.0
  0
LINE
  5
444
330
378
100
AcDbEntity
  8
0
 62
     0
100
AcDbLine
 10
51.875
 20
48.75
 30
0.0
 11
51.875
 21
48.75
 31
0.0
  0
LINE
  5
445
330
378
100
AcDbEntity
  8
0
 62
     0
100
AcDbLine
 10
52.125
 20
48.75
 30
0.0
 11
52.125
 21
48.75
 31
0.0
  0
LINE
  5
446
330
378
100
AcDbEntity
  8
0
 62
     0
100
AcDbLine
 10
52.375
 20
48.75
 30
0.0
 11
52.375
 21
48.75
 31
0.0
  0
LINE
  5
447
330
378
100
AcDbEntity
  8
0
 62
     0
100
AcDbLine
 10
52.625
 20
48.75
 30
0.0
 11
52.625
 21
48.75
 31
0.0
  0
LINE
  5
448
330
378
100
AcDbEntity
  8
0
 62
     0
100
AcDbLine
 10
52.875
 20
48.75
 30
0.0
 11
52.875
 21
48.75
 31
0.0
  0
LINE
  5
449
330
378
100
AcDbEntity
  8
0
 62
     0
100
AcDbLine
 10
53.125
 20
48.75
 30
0.0
 11
53.125
 21
48.75
 31
0.0
  0
LINE
  5
44A
330
378
100
AcDbEntity
  8
0
 62
     0
100
AcDbLine
 10
53.375
 20
48.75
 30
0.0
 11
53.375
 21
48.75
 31
0.0
  0
LINE
  5
44B
330
378
100
AcDbEntity
  8
0
 62
     0
100
AcDbLine
 10
53.625
 20
48.75
 30
0.0
 11
53.625
 21
48.75
 31
0.0
  0
LINE
  5
44C
330
378
100
AcDbEntity
  8
0
 62
     0
100
AcDbLine
 10
53.875
 20
48.75
 30
0.0
 11
53.875
 21
48.75
 31
0.0
  0
LINE
  5
44D
330
378
100
AcDbEntity
  8
0
 62
     0
100
AcDbLine
 10
54.125
 20
48.75
 30
0.0
 11
54.125
 21
48.75
 31
0.0
  0
LINE
  5
44E
330
378
100
AcDbEntity
  8
0
 62
     0
100
AcDbLine
 10
54.375
 20
48.75
 30
0.0
 11
54.375
 21
48.75
 31
0.0
  0
LINE
  5
44F
330
378
100
AcDbEntity
  8
0
 62
     0
100
AcDbLine
 10
54.625
 20
48.75
 30
0.0
 11
54.625
 21
48.75
 31
0.0
  0
LINE
  5
450
330
378
100
AcDbEntity
  8
0
 62
     0
100
AcDbLine
 10
54.875
 20
48.75
 30
0.0
 11
54.875
 21
48.75
 31
0.0
  0
LINE
  5
451
330
378
100
AcDbEntity
  8
0
 62
     0
100
AcDbLine
 10
55.125
 20
48.75
 30
0.0
 11
55.125
 21
48.75
 31
0.0
  0
LINE
  5
452
330
378
100
AcDbEntity
  8
0
 62
     0
100
AcDbLine
 10
55.375
 20
48.75
 30
0.0
 11
55.375
 21
48.75
 31
0.0
  0
LINE
  5
453
330
378
100
AcDbEntity
  8
0
 62
     0
100
AcDbLine
 10
55.625
 20
48.75
 30
0.0
 11
55.625
 21
48.75
 31
0.0
  0
LINE
  5
454
330
378
100
AcDbEntity
  8
0
 62
     0
100
AcDbLine
 10
55.875
 20
48.75
 30
0.0
 11
55.875
 21
48.75
 31
0.0
  0
LINE
  5
455
330
378
100
AcDbEntity
  8
0
 62
     0
100
AcDbLine
 10
56.125
 20
48.75
 30
0.0
 11
56.125
 21
48.75
 31
0.0
  0
LINE
  5
456
330
378
100
AcDbEntity
  8
0
 62
     0
100
AcDbLine
 10
56.375
 20
48.75
 30
0.0
 11
56.375
 21
48.75
 31
0.0
  0
LINE
  5
457
330
378
100
AcDbEntity
  8
0
 62
     0
100
AcDbLine
 10
56.625
 20
48.75
 30
0.0
 11
56.625
 21
48.75
 31
0.0
  0
LINE
  5
458
330
378
100
AcDbEntity
  8
0
 62
     0
100
AcDbLine
 10
56.875
 20
48.75
 30
0.0
 11
56.875
 21
48.75
 31
0.0
  0
LINE
  5
459
330
378
100
AcDbEntity
  8
0
 62
     0
100
AcDbLine
 10
57.125
 20
48.75
 30
0.0
 11
57.125
 21
48.75
 31
0.0
  0
LINE
  5
45A
330
378
100
AcDbEntity
  8
0
 62
     0
100
AcDbLine
 10
57.375
 20
48.75
 30
0.0
 11
57.375
 21
48.75
 31
0.0
  0
LINE
  5
45B
330
378
100
AcDbEntity
  8
0
 62
     0
100
AcDbLine
 10
57.625
 20
48.75
 30
0.0
 11
57.625
 21
48.75
 31
0.0
  0
LINE
  5
45C
330
378
100
AcDbEntity
  8
0
 62
     0
100
AcDbLine
 10
57.875
 20
48.75
 30
0.0
 11
57.875
 21
48.75
 31
0.0
  0
LINE
  5
45D
330
378
100
AcDbEntity
  8
0
 62
     0
100
AcDbLine
 10
58.125
 20
48.75
 30
0.0
 11
58.125
 21
48.75
 31
0.0
  0
LINE
  5
45E
330
378
100
AcDbEntity
  8
0
 62
     0
100
AcDbLine
 10
58.375
 20
48.75
 30
0.0
 11
58.375
 21
48.75
 31
0.0
  0
LINE
  5
45F
330
378
100
AcDbEntity
  8
0
 62
     0
100
AcDbLine
 10
58.625
 20
48.75
 30
0.0
 11
58.625
 21
48.75
 31
0.0
  0
LINE
  5
460
330
378
100
AcDbEntity
  8
0
 62
     0
100
AcDbLine
 10
58.875
 20
48.75
 30
0.0
 11
58.875
 21
48.75
 31
0.0
  0
ENDBLK
  5
461
330
378
100
AcDbEntity
  8
0
100
AcDbBlockEnd
  0
BLOCK
  5
F9
330
F8
100
AcDbEntity
  8
0
100
AcDbBlockBegin
  2
*X12
 70
     1
 10
0.0
 20
0.0
 30
0.0
  3
*X12
  1

  0
LINE
  5
FA
330
F8
100
AcDbEntity
  8
0
 62
     0
100
AcDbLine
 10
49.7
 20
49.34644660940673
 30
0.0
 11
50.35355339059328
 21
50.0
 31
0.0
  0
LINE
  5
FB
330
F8
100
AcDbEntity
  8
0
 62
     0
100
AcDbLine
 10
55.54424292267771
 20
55.19068953208443
 30
0.0
 11
59.65355339059327
 21
59.29999999999999
 31
0.0
  0
LINE
  5
FC
330
F8
100
AcDbEntity
  8
0
 62
     0
100
AcDbLine
 10
51.35666349813197
 20
51.0031101075387
 30
0.0
 11
52.07054837414972
 21
51.71699498355645
 31
0.0
  0
LINE
  5
FD
330
F8
100
AcDbEntity
  8
0
 62
     0
100
AcDbLine
 10
53.91017478542622
 20
53.55662139483294
 30
0.0
 11
54.62405966144397
 21
54.2705062708507
 31
0.0
  0
LINE
  5
FE
330
F8
100
AcDbEntity
  8
0
 62
     0
100
AcDbLine
 10
49.7
 20
49.52322330470336
 30
0.0
 11
50.17677669529664
 21
50.0
 31
0.0
  0
LINE
  5
FF
330
F8
100
AcDbEntity
  8
0
 62
     0
100
AcDbLine
 10
55.47082248313605
 20
55.29404578783942
 30
0.0
 11
59.47677669529664
 21
59.29999999999999
 31
0.0
  0
LINE
  5
100
330
F8
100
AcDbEntity
  8
0
 62
     0
100
AcDbLine
 10
51.59814495470424
 20
51.4213682594076
 30
0.0
 11
52.31202983072199
 21
52.13525313542535
 31
0.0
  0
LINE
  5
101
330
F8
100
AcDbEntity
  8
0
 62
     0
100
AcDbLine
 10
54.15165624199849
 20
53.97487954670185
 30
0.0
 11
54.85853736075898
 21
54.68176066546234
 31
0.0
  0
LINE
  5
102
330
F8
100
AcDbEntity
  8
0
 62
     0
100
AcDbLine
 10
49.7
 20
49.7
 30
0.0
 11
50.0
 21
50.0
 31
0.0
  0
LINE
  5
103
330
F8
100
AcDbEntity
  8
0
 62
     0
100
AcDbLine
 10
55.38071030129565
 20
55.38071030129565
 30
0.0
 11
59.29999999999999
 21
59.29999999999999
 31
0.0
  0
LINE
  5
104
330
F8
100
AcDbEntity
  8
0
 62
     0
100
AcDbLine
 10
51.8396264112765
 20
51.8396264112765
 30
0.0
 11
52.55351128729426
 21
52.55351128729426
 31
0.0
  0
LINE
  5
105
330
F8
100
AcDbEntity
  8
0
 62
     0
100
AcDbLine
 10
54.39313769857076
 20
54.39313769857076
 30
0.0
 11
54.8213296246462
 21
54.8213296246462
 31
0.0
  0
LINE
  5
106
330
F8
100
AcDbEntity
  8
0
 62
     0
100
AcDbLine
 10
49.7
 20
49.87677669529663
 30
0.0
 11
50.24148145657227
 21
50.4182581518689
 31
0.0
  0
LINE
  5
107
330
F8
100
AcDbEntity
  8
0
 62
     0
100
AcDbLine
 10
55.27371649770102
 20
55.45049319299765
 30
0.0
 11
59.12322330470336
 21
59.29999999999999
 31
0.0
  0
LINE
  5
108
330
F8
100
AcDbEntity
  8
0
 62
     0
100
AcDbLine
 10
52.08110786784877
 20
52.25788456314541
 30
0.0
 11
52.79499274386652
 21
52.97176943916316
 31
0.0
  0
LINE
  5
109
330
F8
100
AcDbEntity
  8
0
 62
     0
100
AcDbLine
 10
49.7
 20
50.05355339059327
 30
0.0
 11
50.48296291314454
 21
50.83651630373781
 31
0.0
  0
LINE
  5
10A
330
F8
100
AcDbEntity
  8
0
 62
     0
100
AcDbLine
 10
55.1475863079985
 20
55.50113969859176
 30
0.0
 11
58.94644660940673
 21
59.29999999999999
 31
0.0
  0
LINE
  5
10B
330
F8
100
AcDbEntity
  8
0
 62
     0
100
AcDbLine
 10
52.32258932442104
 20
52.67614271501432
 30
0.0
 11
53.03647420043879
 21
53.39002759103206
 31
0.0
  0
LINE
  5
10C
330
F8
100
AcDbEntity
  8
0
 62
     0
100
AcDbLine
 10
49.7
 20
50.23033008588991
 30
0.0
 11
50.72444436971681
 21
51.25477445560671
 31
0.0
  0
LINE
  5
10D
330
F8
100
AcDbEntity
  8
0
 62
     0
100
AcDbLine
 10
54.99624809859843
 20
55.52657818448833
 30
0.0
 11
58.76966991411009
 21
59.29999999999999
 31
0.0
  0
LINE
  5
10E
330
F8
100
AcDbEntity
  8
0
 62
     0
100
AcDbLine
 10
52.56407078099331
 20
53.09440086688322
 30
0.0
 11
53.27795565701105
 21
53.80828574290096
 31
0.0
  0
LINE
  5
10F
330
F8
100
AcDbEntity
  8
0
 62
     0
100
AcDbLine
 10
49.7
 20
50.40710678118655
 30
0.0
 11
50.96592582628908
 21
51.67303260747562
 31
0.0
  0
LINE
  5
110
330
F8
100
AcDbEntity
  8
0
 62
     0
100
AcDbLine
 10
54.80113385100201
 20
55.50824063218856
 30
0.0
 11
58.59289321881345
 21
59.29999999999999
 31
0.0
  0
LINE
  5
111
330
F8
100
AcDbEntity
  8
0
 62
     0
100
AcDbLine
 10
52.80555223756557
 20
53.51265901875212
 30
0.0
 11
53.51943711358332
 21
54.22654389476987
 31
0.0
  0
LINE
  5
112
330
F8
100
AcDbEntity
  8
0
 62
     0
100
AcDbLine
 10
49.7
 20
50.58388347648318
 30
0.0
 11
51.20740728286134
 21
52.09129075934452
 31
0.0
  0
LINE
  5
113
330
F8
100
AcDbEntity
  8
0
 62
     0
100
AcDbLine
 10
54.4000966553612
 20
55.28398013184439
 30
0.0
 11
58.41611652351681
 21
59.29999999999999
 31
0.0
  0
LINE
  5
114
330
F8
100
AcDbEntity
  8
0
 62
     0
100
AcDbLine
 10
53.04703369413784
 20
53.93091717062103
 30
0.0
 11
53.76091857015559
 21
54.64480204663877
 31
0.0
  0
LINE
  5
115
330
F8
100
AcDbEntity
  8
0
 62
     0
100
AcDbLine
 10
49.7
 20
50.76066017177982
 30
0.0
 11
51.44888873943362
 21
52.50954891121343
 31
0.0
  0
LINE
  5
116
330
F8
100
AcDbEntity
  8
0
 62
     0
100
AcDbLine
 10
54.3117169315323
 20
55.37237710331212
 30
0.0
 11
58.23933982822018
 21
59.29999999999999
 31
0.0
  0
LINE
  5
117
330
F8
100
AcDbEntity
  8
0
 62
     0
100
AcDbLine
 10
53.28851515071011
 20
54.34917532248993
 30
0.0
 11
53.75147697306691
 21
54.81213714484673
 31
0.0
  0
LINE
  5
118
330
F8
100
AcDbEntity
  8
0
 62
     0
100
AcDbLine
 10
49.7
 20
50.93743686707646
 30
0.0
 11
51.69037019600588
 21
52.92780706308234
 31
0.0
  0
LINE
  5
119
330
F8
100
AcDbEntity
  8
0
 62
     0
100
AcDbLine
 10
54.20656138241368
 20
55.44399824949014
 30
0.0
 11
58.06256313292355
 21
59.29999999999999
 31
0.0
  0
LINE
  5
11A
330
F8
100
AcDbEntity
  8
0
 62
     0
100
AcDbLine
 10
53.52999660728238
 20
54.76743347435884
 30
0.0
 11
53.60763020760763
 21
54.84506707468408
 31
0.0
  0
LINE
  5
11B
330
F8
100
AcDbEntity
  8
0
 62
     0
100
AcDbLine
 10
49.7
 20
51.11421356237309
 30
0.0
 11
51.93185165257815
 21
53.34606521495125
 31
0.0
  0
LINE
  5
11C
330
F8
100
AcDbEntity
  8
0
 62
     0
100
AcDbLine
 10
54.08178269900108
 20
55.49599626137418
 30
0.0
 11
57.8857864376269
 21
59.29999999999999
 31
0.0
  0
LINE
  5
11D
330
F8
100
AcDbEntity
  8
0
 62
     0
100
AcDbLine
 10
49.7
 20
51.29099025766973
 30
0.0
 11
52.17333310915041
 21
53.76432336682015
 31
0.0
  0
LINE
  5
11E
330
F8
100
AcDbEntity
  8
0
 62
     0
100
AcDbLine
 10
53.92245874103624
 20
55.51344899870596
 30
0.0
 11
57.70900974233026
 21
59.29999999999999
 31
0.0
  0
LINE
  5
11F
330
F8
100
AcDbEntity
  8
0
 62
     0
100
AcDbLine
 10
49.7
 20
51.46776695296637
 30
0.0
 11
52.41481456572269
 21
54.18258151868905
 31
0.0
  0
LINE
  5
120
330
F8
100
AcDbEntity
  8
0
 62
     0
100
AcDbLine
 10
53.70546701600912
 20
55.47323396897549
 30
0.0
 11
57.53223304703363
 21
59.29999999999999
 31
0.0
  0
LINE
  5
121
330
F8
100
AcDbEntity
  8
0
 62
     0
100
AcDbLine
 10
49.7
 20
51.644543648263
 30
0.0
 11
52.65629602229495
 21
54.60083967055796
 31
0.0
  0
LINE
  5
122
330
F8
100
AcDbEntity
  8
0
 62
     0
100
AcDbLine
 10
53.42529984483192
 20
55.36984349309493
 30
0.0
 11
57.355456351737
 21
59.29999999999999
 31
0.0
  0
LINE
  5
123
330
F8
100
AcDbEntity
  8
0
 62
     0
100
AcDbLine
 10
49.7
 20
51.82132034355964
 30
0.0
 11
57.17867965644035
 21
59.29999999999999
 31
0.0
  0
LINE
  5
124
330
F8
100
AcDbEntity
  8
0
 62
     0
100
AcDbLine
 10
49.7
 20
51.99809703885628
 30
0.0
 11
57.00190296114372
 21
59.29999999999999
 31
0.0
  0
LINE
  5
125
330
F8
100
AcDbEntity
  8
0
 62
     0
100
AcDbLine
 10
49.7
 20
52.17487373415291
 30
0.0
 11
56.82512626584708
 21
59.29999999999999
 31
0.0
  0
LINE
  5
126
330
F8
100
AcDbEntity
  8
0
 62
     0
100
AcDbLine
 10
49.7
 20
52.35165042944956
 30
0.0
 11
56.64834957055044
 21
59.29999999999999
 31
0.0
  0
LINE
  5
127
330
F8
100
AcDbEntity
  8
0
 62
     0
100
AcDbLine
 10
49.7
 20
52.52842712474619
 30
0.0
 11
56.47157287525381
 21
59.29999999999999
 31
0.0
  0
LINE
  5
128
330
F8
100
AcDbEntity
  8
0
 62
     0
100
AcDbLine
 10
49.7
 20
52.70520382004282
 30
0.0
 11
56.29479617995717
 21
59.29999999999999
 31
0.0
  0
LINE
  5
129
330
F8
100
AcDbEntity
  8
0
 62
     0
100
AcDbLine
 10
49.7
 20
52.88198051533946
 30
0.0
 11
56.11801948466053
 21
59.29999999999999
 31
0.0
  0
LINE
  5
12A
330
F8
100
AcDbEntity
  8
0
 62
     0
100
AcDbLine
 10
49.7
 20
53.0587572106361
 30
0.0
 11
55.9412427893639
 21
59.29999999999999
 31
0.0
  0
LINE
  5
12B
330
F8
100
AcDbEntity
  8
0
 62
     0
100
AcDbLine
 10
49.7
 20
53.23553390593274
 30
0.0
 11
55.76446609406726
 21
59.29999999999999
 31
0.0
  0
LINE
  5
12C
330
F8
100
AcDbEntity
  8
0
 62
     0
100
AcDbLine
 10
49.7
 20
53.41231060122937
 30
0.0
 11
55.58768939877062
 21
59.29999999999999
 31
0.0
  0
LINE
  5
12D
330
F8
100
AcDbEntity
  8
0
 62
     0
100
AcDbLine
 10
49.7
 20
53.58908729652601
 30
0.0
 11
55.41091270347399
 21
59.29999999999999
 31
0.0
  0
LINE
  5
12E
330
F8
100
AcDbEntity
  8
0
 62
     0
100
AcDbLine
 10
49.7
 20
53.76586399182265
 30
0.0
 11
55.23413600817735
 21
59.29999999999999
 31
0.0
  0
LINE
  5
12F
330
F8
100
AcDbEntity
  8
0
 62
     0
100
AcDbLine
 10
49.7
 20
53.94264068711929
 30
0.0
 11
55.05735931288072
 21
59.29999999999999
 31
0.0
  0
LINE
  5
130
330
F8
100
AcDbEntity
  8
0
 62
     0
100
AcDbLine
 10
49.7
 20
54.11941738241592
 30
0.0
 11
54.88058261758407
 21
59.29999999999999
 31
0.0
  0
LINE
  5
131
330
F8
100
AcDbEntity
  8
0
 62
     0
100
AcDbLine
 10
49.7
 20
54.29619407771255
 30
0.0
 11
54.70380592228744
 21
59.29999999999999
 31
0.0
  0
LINE
  5
132
330
F8
100
AcDbEntity
  8
0
 62
     0
100
AcDbLine
 10
49.7
 20
54.4729707730092
 30
0.0
 11
54.52702922699081
 21
59.29999999999999
 31
0.0
  0
LINE
  5
133
330
F8
100
AcDbEntity
  8
0
 62
     0
100
AcDbLine
 10
49.7
 20
54.64974746830583
 30
0.0
 11
54.35025253169417
 21
59.29999999999999
 31
0.0
  0
LINE
  5
134
330
F8
100
AcDbEntity
  8
0
 62
     0
100
AcDbLine
 10
49.7
 20
54.82652416360247
 30
0.0
 11
54.17347583639752
 21
59.29999999999999
 31
0.0
  0
LINE
  5
135
330
F8
100
AcDbEntity
  8
0
 62
     0
100
AcDbLine
 10
49.7
 20
55.00330085889911
 30
0.0
 11
53.99669914110089
 21
59.29999999999999
 31
0.0
  0
LINE
  5
136
330
F8
100
AcDbEntity
  8
0
 62
     0
100
AcDbLine
 10
49.7
 20
55.18007755419574
 30
0.0
 11
53.81992244580426
 21
59.29999999999999
 31
0.0
  0
LINE
  5
137
330
F8
100
AcDbEntity
  8
0
 62
     0
100
AcDbLine
 10
49.7
 20
55.35685424949238
 30
0.0
 11
53.64314575050762
 21
59.29999999999999
 31
0.0
  0
LINE
  5
138
330
F8
100
AcDbEntity
  8
0
 62
     0
100
AcDbLine
 10
49.7
 20
55.53363094478902
 30
0.0
 11
53.46636905521098
 21
59.29999999999999
 31
0.0
  0
LINE
  5
139
330
F8
100
AcDbEntity
  8
0
 62
     0
100
AcDbLine
 10
49.7
 20
55.71040764008565
 30
0.0
 11
53.28959235991434
 21
59.29999999999999
 31
0.0
  0
LINE
  5
13A
330
F8
100
AcDbEntity
  8
0
 62
     0
100
AcDbLine
 10
49.7
 20
55.88718433538229
 30
0.0
 11
53.11281566461771
 21
59.29999999999999
 31
0.0
  0
LINE
  5
13B
330
F8
100
AcDbEntity
  8
0
 62
     0
100
AcDbLine
 10
49.7
 20
56.06396103067893
 30
0.0
 11
52.93603896932108
 21
59.29999999999999
 31
0.0
  0
LINE
  5
13C
330
F8
100
AcDbEntity
  8
0
 62
     0
100
AcDbLine
 10
49.7
 20
56.24073772597556
 30
0.0
 11
52.75926227402443
 21
59.29999999999999
 31
0.0
  0
LINE
  5
13D
330
F8
100
AcDbEntity
  8
0
 62
     0
100
AcDbLine
 10
49.7
 20
56.4175144212722
 30
0.0
 11
52.5824855787278
 21
59.29999999999999
 31
0.0
  0
LINE
  5
13E
330
F8
100
AcDbEntity
  8
0
 62
     0
100
AcDbLine
 10
49.7
 20
56.59429111656884
 30
0.0
 11
52.40570888343116
 21
59.29999999999999
 31
0.0
  0
LINE
  5
13F
330
F8
100
AcDbEntity
  8
0
 62
     0
100
AcDbLine
 10
49.7
 20
56.77106781186547
 30
0.0
 11
52.22893218813453
 21
59.29999999999999
 31
0.0
  0
LINE
  5
140
330
F8
100
AcDbEntity
  8
0
 62
     0
100
AcDbLine
 10
49.7
 20
56.94784450716211
 30
0.0
 11
52.05215549283789
 21
59.29999999999999
 31
0.0
  0
LINE
  5
141
330
F8
100
AcDbEntity
  8
0
 62
     0
100
AcDbLine
 10
49.7
 20
57.12462120245874
 30
0.0
 11
51.87537879754125
 21
59.29999999999999
 31
0.0
  0
LINE
  5
142
330
F8
100
AcDbEntity
  8
0
 62
     0
100
AcDbLine
 10
49.7
 20
57.30139789775538
 30
0.0
 11
51.69860210224461
 21
59.29999999999999
 31
0.0
  0
LINE
  5
143
330
F8
100
AcDbEntity
  8
0
 62
     0
100
AcDbLine
 10
49.7
 20
57.47817459305203
 30
0.0
 11
51.52182540694798
 21
59.29999999999999
 31
0.0
  0
LINE
  5
144
330
F8
100
AcDbEntity
  8
0
 62
     0
100
AcDbLine
 10
49.7
 20
57.65495128834865
 30
0.0
 11
51.34504871165134
 21
59.29999999999999
 31
0.0
  0
LINE
  5
145
330
F8
100
AcDbEntity
  8
0
 62
     0
100
AcDbLine
 10
49.7
 20
57.83172798364529
 30
0.0
 11
51.1682720163547
 21
59.29999999999999
 31
0.0
  0
LINE
  5
146
330
F8
100
AcDbEntity
  8
0
 62
     0
100
AcDbLine
 10
49.7
 20
58.00850467894193
 30
0.0
 11
50.99149532105807
 21
59.29999999999999
 31
0.0
  0
LINE
  5
147
330
F8
100
AcDbEntity
  8
0
 62
     0
100
AcDbLine
 10
49.7
 20
58.18528137423857
 30
0.0
 11
50.81471862576143
 21
59.29999999999999
 31
0.0
  0
LINE
  5
148
330
F8
100
AcDbEntity
  8
0
 62
     0
100
AcDbLine
 10
49.7
 20
58.36205806953521
 30
0.0
 11
50.63794193046479
 21
59.29999999999999
 31
0.0
  0
LINE
  5
149
330
F8
100
AcDbEntity
  8
0
 62
     0
100
AcDbLine
 10
49.7
 20
58.53883476483184
 30
0.0
 11
50.46116523516816
 21
59.29999999999999
 31
0.0
  0
LINE
  5
14A
330
F8
100
AcDbEntity
  8
0
 62
     0
100
AcDbLine
 10
49.7
 20
58.71561146012847
 30
0.0
 11
50.28438853987152
 21
59.29999999999999
 31
0.0
  0
LINE
  5
14B
330
F8
100
AcDbEntity
  8
0
 62
     0
100
AcDbLine
 10
49.7
 20
58.89238815542512
 30
0.0
 11
50.10761184457488
 21
59.29999999999999
 31
0.0
  0
LINE
  5
14C
330
F8
100
AcDbEntity
  8
0
 62
     0
100
AcDbLine
 10
49.7
 20
59.06916485072176
 30
0.0
 11
49.93083514927825
 21
59.29999999999999
 31
0.0
  0
LINE
  5
14D
330
F8
100
AcDbEntity
  8
0
 62
     0
100
AcDbLine
 10
49.7
 20
59.24594154601839
 30
0.0
 11
49.7540584539816
 21
59.29999999999999
 31
0.0
  0
LINE
  5
14E
330
F8
100
AcDbEntity
  8
0
 62
     0
100
AcDbLine
 10
49.83033008588991
 20
49.29999999999999
 30
0.0
 11
50.53033008588991
 21
50.0
 31
0.0
  0
LINE
  5
14F
330
F8
100
AcDbEntity
  8
0
 62
     0
100
AcDbLine
 10
55.59921770262501
 20
55.0688876167351
 30
0.0
 11
59.7
 21
59.16966991411008
 31
0.0
  0
LINE
  5
150
330
F8
100
AcDbEntity
  8
0
 62
     0
100
AcDbLine
 10
51.1151820415597
 20
50.58485195566979
 30
0.0
 11
51.82906691757747
 21
51.29873683168755
 31
0.0
  0
LINE
  5
151
330
F8
100
AcDbEntity
  8
0
 62
     0
100
AcDbLine
 10
53.66869332885396
 20
53.13836324296405
 30
0.0
 11
54.3825782048717
 21
53.85224811898179
 31
0.0
  0
LINE
  5
152
330
F8
100
AcDbEntity
  8
0
 62
     0
100
AcDbLine
 10
50.00710678118655
 20
49.29999999999999
 30
0.0
 11
50.70710678118654
 21
50.0
 31
0.0
  0
LINE
  5
153
330
F8
100
AcDbEntity
  8
0
 62
     0
100
AcDbLine
 10
55.63077798995369
 20
54.92367120876714
 30
0.0
 11
59.7
 21
58.99289321881345
 31
0.0
  0
LINE
  5
154
330
F8
100
AcDbEntity
  8
0
 62
     0
100
AcDbLine
 10
50.87370058498743
 20
50.16659380380088
 30
0.0
 11
51.5875854610052
 21
50.88047867981864
 31
0.0
  0
LINE
  5
155
330
F8
100
AcDbEntity
  8
0
 62
     0
100
AcDbLine
 10
53.42721187228169
 20
52.72010509109514
 30
0.0
 11
54.14109674829944
 21
53.4339899671129
 31
0.0
  0
LINE
  5
156
330
F8
100
AcDbEntity
  8
0
 62
     0
100
AcDbLine
 10
50.18388347648318
 20
49.29999999999999
 30
0.0
 11
51.34610400443293
 21
50.46222052794974
 31
0.0
  0
LINE
  5
157
330
F8
100
AcDbEntity
  8
0
 62
     0
100
AcDbLine
 10
55.62478472090326
 20
54.74090124442008
 30
0.0
 11
59.7
 21
58.81611652351682
 31
0.0
  0
LINE
  5
158
330
F8
100
AcDbEntity
  8
0
 62
     0
100
AcDbLine
 10
53.18573041570942
 20
52.30184693922623
 30
0.0
 11
53.89961529172717
 21
53.01573181524399
 31
0.0
  0
LINE
  5
159
330
F8
100
AcDbEntity
  8
0
 62
     0
100
AcDbLine
 10
50.36066017177982
 20
49.29999999999999
 30
0.0
 11
51.10462254786066
 21
50.04396237608084
 31
0.0
  0
LINE
  5
15A
330
F8
100
AcDbEntity
  8
0
 62
     0
100
AcDbLine
 10
55.49776024643138
 20
54.43710007465156
 30
0.0
 11
59.7
 21
58.63933982822018
 31
0.0
  0
LINE
  5
15B
330
F8
100
AcDbEntity
  8
0
 62
     0
100
AcDbLine
 10
52.94424895913715
 20
51.88358878735733
 30
0.0
 11
53.6581338351549
 21
52.59747366337507
 31
0.0
  0
LINE
  5
15C
330
F8
100
AcDbEntity
  8
0
 62
     0
100
AcDbLine
 10
50.53743686707646
 20
49.29999999999999
 30
0.0
 11
51.23743686707646
 21
50.0
 31
0.0
  0
LINE
  5
15D
330
F8
100
AcDbEntity
  8
0
 62
     0
100
AcDbLine
 10
56.54407972929465
 20
55.30664286221821
 30
0.0
 11
59.7
 21
58.46256313292354
 31
0.0
  0
LINE
  5
15E
330
F8
100
AcDbEntity
  8
0
 62
     0
100
AcDbLine
 10
52.70276750256488
 20
51.46533063548843
 30
0.0
 11
53.41665237858263
 21
52.17921551150617
 31
0.0
  0
LINE
  5
15F
330
F8
100
AcDbEntity
  8
0
 62
     0
100
AcDbLine
 10
55.25627878985911
 20
54.01884192278266
 30
0.0
 11
55.97026255817288
 21
54.73282569109643
 31
0.0
  0
LINE
  5
160
330
F8
100
AcDbEntity
  8
0
 62
     0
100
AcDbLine
 10
50.71421356237309
 20
49.29999999999999
 30
0.0
 11
51.4142135623731
 21
50.0
 31
0.0
  0
LINE
  5
161
330
F8
100
AcDbEntity
  8
0
 62
     0
100
AcDbLine
 10
56.86421141314476
 20
55.44999785077167
 30
0.0
 11
59.7
 21
58.2857864376269
 31
0.0
  0
LINE
  5
162
330
F8
100
AcDbEntity
  8
0
 62
     0
100
AcDbLine
 10
52.46128604599262
 20
51.04707248361953
 30
0.0
 11
53.17517092201036
 21
51.76095735963727
 31
0.0
  0
LINE
  5
163
330
F8
100
AcDbEntity
  8
0
 62
     0
100
AcDbLine
 10
55.01479733328685
 20
53.60058377091376
 30
0.0
 11
55.72868220930462
 21
54.31446864693153
 31
0.0
  0
LINE
  5
164
330
F8
100
AcDbEntity
  8
0
 62
     0
100
AcDbLine
 10
50.89099025766973
 20
49.29999999999999
 30
0.0
 11
51.59099025766973
 21
50.0
 31
0.0
  0
LINE
  5
165
330
F8
100
AcDbEntity
  8
0
 62
     0
100
AcDbLine
 10
57.09731658673238
 20
55.50632632906264
 30
0.0
 11
59.7
 21
58.10900974233026
 31
0.0
  0
LINE
  5
166
330
F8
100
AcDbEntity
  8
0
 62
     0
100
AcDbLine
 10
52.21980458942035
 20
50.62881433175062
 30
0.0
 11
52.93368946543809
 21
51.34269920776836
 31
0.0
  0
LINE
  5
167
330
F8
100
AcDbEntity
  8
0
 62
     0
100
AcDbLine
 10
54.77331587671458
 20
53.18232561904485
 30
0.0
 11
55.48720075273235
 21
53.89621049506263
 31
0.0
  0
LINE
  5
168
330
F8
100
AcDbEntity
  8
0
 62
     0
100
AcDbLine
 10
51.06776695296637
 20
49.29999999999999
 30
0.0
 11
51.76776695296637
 21
50.0
 31
0.0
  0
LINE
  5
169
330
F8
100
AcDbEntity
  8
0
 62
     0
100
AcDbLine
 10
57.27406302672513
 20
55.50629607375876
 30
0.0
 11
59.7
 21
57.93223304703364
 31
0.0
  0
LINE
  5
16A
330
F8
100
AcDbEntity
  8
0
 62
     0
100
AcDbLine
 10
51.97832313284809
 20
50.21055617988172
 30
0.0
 11
52.69220800886582
 21
50.92444105589946
 31
0.0
  0
LINE
  5
16B
330
F8
100
AcDbEntity
  8
0
 62
     0
100
AcDbLine
 10
54.53183442014232
 20
52.76406746717595
 30
0.0
 11
55.43705
 21
53.66928304703363
 31
0.0
  0
LINE
  5
16C
330
F8
100
AcDbEntity
  8
0
 62
     0
100
AcDbLine
 10
51.244543648263
 20
49.29999999999999
 30
0.0
 11
52.45072655229356
 21
50.50618290403055
 31
0.0
  0
LINE
  5
16D
330
F8
100
AcDbEntity
  8
0
 62
     0
100
AcDbLine
 10
57.40739728724565
 20
55.46285363898264
 30
0.0
 11
59.7
 21
57.75545635173699
 31
0.0
  0
LINE
  5
16E
330
F8
100
AcDbEntity
  8
0
 62
     0
100
AcDbLine
 10
54.29035296357006
 20
52.34580931530705
 30
0.0
 11
55.00423783958783
 21
53.05969419132482
 31
0.0
  0
LINE
  5
16F
330
F8
100
AcDbEntity
  8
0
 62
     0
100
AcDbLine
 10
55.17575
 20
53.231206351737
 30
0.0
 11
55.43705
 21
53.49250635173699
 31
0.0
  0
LINE
  5
170
330
F8
100
AcDbEntity
  8
0
 62
     0
100
AcDbLine
 10
51.42132034355964
 20
49.29999999999999
 30
0.0
 11
52.20924509572128
 21
50.08792475216164
 31
0.0
  0
LINE
  5
171
330
F8
100
AcDbEntity
  8
0
 62
     0
100
AcDbLine
 10
57.51814137467434
 20
55.3968210311147
 30
0.0
 11
59.7
 21
57.57867965644035
 31
0.0
  0
LINE
  5
172
330
F8
100
AcDbEntity
  8
0
 62
     0
100
AcDbLine
 10
54.04887150699779
 20
51.92755116343814
 30
0.0
 11
54.76275638301556
 21
52.64143603945591
 31
0.0
  0
LINE
  5
173
330
F8
100
AcDbEntity
  8
0
 62
     0
100
AcDbLine
 10
56.60238279429206
 20
54.48106245073241
 30
0.0
 11
56.95817625399858
 21
54.83685591043893
 31
0.0
  0
LINE
  5
174
330
F8
100
AcDbEntity
  8
0
 62
     0
100
AcDbLine
 10
55.17575
 20
53.05442965644036
 30
0.0
 11
55.43705
 21
53.31572965644035
 31
0.0
  0
LINE
  5
175
330
F8
100
AcDbEntity
  8
0
 62
     0
100
AcDbLine
 10
51.59809703885628
 20
49.29999999999999
 30
0.0
 11
52.29809703885628
 21
50.0
 31
0.0
  0
LINE
  5
176
330
F8
100
AcDbEntity
  8
0
 62
     0
100
AcDbLine
 10
57.61172651773149
 20
55.31362947887521
 30
0.0
 11
59.7
 21
57.40190296114372
 31
0.0
  0
LINE
  5
177
330
F8
100
AcDbEntity
  8
0
 62
     0
100
AcDbLine
 10
53.80739005042553
 20
51.50929301156924
 30
0.0
 11
54.52127492644329
 21
52.22317788758701
 31
0.0
  0
LINE
  5
178
330
F8
100
AcDbEntity
  8
0
 62
     0
100
AcDbLine
 10
56.36090133771979
 20
54.06280429886352
 30
0.0
 11
57.02384643858247
 21
54.72574939972619
 31
0.0
  0
LINE
  5
179
330
F8
100
AcDbEntity
  8
0
 62
     0
100
AcDbLine
 10
55.17575
 20
52.87765296114372
 30
0.0
 11
55.43705
 21
53.13895296114371
 31
0.0
  0
LINE
  5
17A
330
F8
100
AcDbEntity
  8
0
 62
     0
100
AcDbLine
 10
51.77487373415292
 20
49.29999999999999
 30
0.0
 11
52.47487373415292
 21
50.0
 31
0.0
  0
LINE
  5
17B
330
F8
100
AcDbEntity
  8
0
 62
     0
100
AcDbLine
 10
57.68872903921244
 20
55.21385530505952
 30
0.0
 11
59.7
 21
57.22512626584708
 31
0.0
  0
LINE
  5
17C
330
F8
100
AcDbEntity
  8
0
 62
     0
100
AcDbLine
 10
53.56590859385326
 20
51.09103485970035
 30
0.0
 11
54.27979346987102
 21
51.8049197357181
 31
0.0
  0
LINE
  5
17D
330
F8
100
AcDbEntity
  8
0
 62
     0
100
AcDbLine
 10
56.11941988114753
 20
53.64454614699461
 30
0.0
 11
56.83330475716526
 21
54.35843102301234
 31
0.0
  0
LINE
  5
17E
330
F8
100
AcDbEntity
  8
0
 62
     0
100
AcDbLine
 10
55.17575
 20
52.70087626584709
 30
0.0
 11
55.43705
 21
52.96217626584708
 31
0.0
  0
LINE
  5
17F
330
F8
100
AcDbEntity
  8
0
 62
     0
100
AcDbLine
 10
51.95165042944955
 20
49.29999999999999
 30
0.0
 11
52.65165042944956
 21
50.0
 31
0.0
  0
LINE
  5
180
330
F8
100
AcDbEntity
  8
0
 62
     0
100
AcDbLine
 10
57.74784934685282
 20
55.09619891740327
 30
0.0
 11
59.7
 21
57.04834957055044
 31
0.0
  0
LINE
  5
181
330
F8
100
AcDbEntity
  8
0
 62
     0
100
AcDbLine
 10
53.32442713728099
 20
50.67277670783144
 30
0.0
 11
54.03831201329875
 21
51.3866615838492
 31
0.0
  0
LINE
  5
182
330
F8
100
AcDbEntity
  8
0
 62
     0
100
AcDbLine
 10
56.11039999999999
 20
53.45874957055044
 30
0.0
 11
56.591823300593
 21
53.94017287114344
 31
0.0
  0
LINE
  5
183
330
F8
100
AcDbEntity
  8
0
 62
     0
100
AcDbLine
 10
55.17575
 20
52.52409957055045
 30
0.0
 11
55.43705
 21
52.78539957055045
 31
0.0
  0
LINE
  5
184
330
F8
100
AcDbEntity
  8
0
 62
     0
100
AcDbLine
 10
52.12842712474619
 20
49.29999999999999
 30
0.0
 11
52.82842712474619
 21
50.0
 31
0.0
  0
LINE
  5
185
330
F8
100
AcDbEntity
  8
0
 62
     0
100
AcDbLine
 10
57.78501985658989
 20
54.9565927318437
 30
0.0
 11
59.7
 21
56.87157287525381
 31
0.0
  0
LINE
  5
186
330
F8
100
AcDbEntity
  8
0
 62
     0
100
AcDbLine
 10
53.08294568070873
 20
50.25451855596254
 30
0.0
 11
53.80057574595507
 21
50.97214862120889
 31
0.0
  0
LINE
  5
187
330
F8
100
AcDbEntity
  8
0
 62
     0
100
AcDbLine
 10
56.11039999999999
 20
53.2819728752538
 30
0.0
 11
56.37170000000001
 21
53.54327287525381
 31
0.0
  0
LINE
  5
188
330
F8
100
AcDbEntity
  8
0
 62
     0
100
AcDbLine
 10
55.17575
 20
52.34732287525382
 30
0.0
 11
55.43705
 21
52.6086228752538
 31
0.0
  0
LINE
  5
189
330
F8
100
AcDbEntity
  8
0
 62
     0
100
AcDbLine
 10
52.30520382004282
 20
49.29999999999999
 30
0.0
 11
53.73284093304786
 21
50.72763711300503
 31
0.0
  0
LINE
  5
18A
330
F8
100
AcDbEntity
  8
0
 62
     0
100
AcDbLine
 10
57.78919300558344
 20
54.78398918554061
 30
0.0
 11
59.7
 21
56.69479617995717
 31
0.0
  0
LINE
  5
18B
330
F8
100
AcDbEntity
  8
0
 62
     0
100
AcDbLine
 10
55.17575
 20
52.17054617995717
 30
0.0
 11
55.43704999999999
 21
52.43184617995717
 31
0.0
  0
LINE
  5
18C
330
F8
100
AcDbEntity
  8
0
 62
     0
100
AcDbLine
 10
56.11039999999999
 20
53.10519617995717
 30
0.0
 11
56.37170000000001
 21
53.36649617995718
 31
0.0
  0
LINE
  5
18D
330
F8
100
AcDbEntity
  8
0
 62
     0
100
AcDbLine
 10
52.48198051533947
 20
49.29999999999999
 30
0.0
 11
53.74051074688051
 21
50.55853023154105
 31
0.0
  0
LINE
  5
18E
330
F8
100
AcDbEntity
  8
0
 62
     0
100
AcDbLine
 10
58.70948051533947
 20
55.52750000000001
 30
0.0
 11
59.7
 21
56.51801948466053
 31
0.0
  0
LINE
  5
18F
330
F8
100
AcDbEntity
  8
0
 62
     0
100
AcDbLine
 10
55.15349405485847
 20
51.971513539519
 30
0.0
 11
55.43704999999999
 21
52.25506948466053
 31
0.0
  0
LINE
  5
190
330
F8
100
AcDbEntity
  8
0
 62
     0
100
AcDbLine
 10
57.70685818383142
 20
54.52487766849196
 30
0.0
 11
58.42089021817043
 21
55.23890970283098
 31
0.0
  0
LINE
  5
191
330
F8
100
AcDbEntity
  8
0
 62
     0
100
AcDbLine
 10
56.1104
 20
52.92841948466054
 30
0.0
 11
56.37170000000001
 21
53.18971948466053
 31
0.0
  0
LINE
  5
192
330
F8
100
AcDbEntity
  8
0
 62
     0
100
AcDbLine
 10
52.6587572106361
 20
49.29999999999999
 30
0.0
 11
53.77973330845191
 21
50.42097609781581
 31
0.0
  0
LINE
  5
193
330
F8
100
AcDbEntity
  8
0
 62
     0
100
AcDbLine
 10
58.88625721063611
 20
55.52750000000001
 30
0.0
 11
59.7
 21
56.3412427893639
 31
0.0
  0
LINE
  5
194
330
F8
100
AcDbEntity
  8
0
 62
     0
100
AcDbLine
 10
54.9120125982862
 20
51.55325538765009
 30
0.0
 11
55.43704999999999
 21
52.07829278936389
 31
0.0
  0
LINE
  5
195
330
F8
100
AcDbEntity
  8
0
 62
     0
100
AcDbLine
 10
57.46552388558045
 20
54.10676667494435
 30
0.0
 11
58.17940876159816
 21
54.82065155096207
 31
0.0
  0
LINE
  5
196
330
F8
100
AcDbEntity
  8
0
 62
     0
100
AcDbLine
 10
56.1104
 20
52.7516427893639
 30
0.0
 11
56.37170000000001
 21
53.01294278936389
 31
0.0
  0
LINE
  5
197
330
F8
100
AcDbEntity
  8
0
 62
     0
100
AcDbLine
 10
52.83553390593273
 20
49.29999999999999
 30
0.0
 11
53.84041286561049
 21
50.30487895967775
 31
0.0
  0
LINE
  5
198
330
F8
100
AcDbEntity
  8
0
 62
     0
100
AcDbLine
 10
59.06303390593275
 20
55.52750000000001
 30
0.0
 11
59.7
 21
56.16446609406726
 31
0.0
  0
LINE
  5
199
330
F8
100
AcDbEntity
  8
0
 62
     0
100
AcDbLine
 10
54.67053114171392
 20
51.13499723578119
 30
0.0
 11
55.38441601773166
 21
51.84888211179892
 31
0.0
  0
LINE
  5
19A
330
F8
100
AcDbEntity
  8
0
 62
     0
100
AcDbLine
 10
57.22404242900818
 20
53.68850852307545
 30
0.0
 11
57.9379273050259
 21
54.40239339909316
 31
0.0
  0
LINE
  5
19B
330
F8
100
AcDbEntity
  8
0
 62
     0
100
AcDbLine
 10
56.1104
 20
52.57486609406726
 30
0.0
 11
56.37170000000001
 21
52.83616609406727
 31
0.0
  0
LINE
  5
19C
330
F8
100
AcDbEntity
  8
0
 62
     0
100
AcDbLine
 10
53.01231060122937
 20
49.29999999999999
 30
0.0
 11
53.91878773956237
 21
50.20647713833299
 31
0.0
  0
LINE
  5
19D
330
F8
100
AcDbEntity
  8
0
 62
     0
100
AcDbLine
 10
59.23981060122939
 20
55.52750000000001
 30
0.0
 11
59.7
 21
55.98768939877063
 31
0.0
  0
LINE
  5
19E
330
F8
100
AcDbEntity
  8
0
 62
     0
100
AcDbLine
 10
54.50059059880533
 20
50.78827999757597
 30
0.0
 11
55.1429345611594
 21
51.43062395993002
 31
0.0
  0
LINE
  5
19F
330
F8
100
AcDbEntity
  8
0
 62
     0
100
AcDbLine
 10
56.98256097243592
 20
53.27025037120654
 30
0.0
 11
57.69644584845363
 21
53.98413524722426
 31
0.0
  0
LINE
  5
1A0
330
F8
100
AcDbEntity
  8
0
 62
     0
100
AcDbLine
 10
56.1104
 20
52.39808939877062
 30
0.0
 11
56.37170000000001
 21
52.65938939877063
 31
0.0
  0
LINE
  5
1A1
330
F8
100
AcDbEntity
  8
0
 62
     0
100
AcDbLine
 10
53.18908729652601
 20
49.29999999999999
 30
0.0
 11
54.01372433220696
 21
50.12463703568095
 31
0.0
  0
LINE
  5
1A2
330
F8
100
AcDbEntity
  8
0
 62
     0
100
AcDbLine
 10
59.29459080315787
 20
55.40550350663186
 30
0.0
 11
59.7
 21
55.81091270347399
 31
0.0
  0
LINE
  5
1A3
330
F8
100
AcDbEntity
  8
0
 62
     0
100
AcDbLine
 10
54.57480506447108
 20
50.68571776794507
 30
0.0
 11
54.90145310458713
 21
51.01236580806112
 31
0.0
  0
LINE
  5
1A4
330
F8
100
AcDbEntity
  8
0
 62
     0
100
AcDbLine
 10
56.74107951586364
 20
52.85199221933764
 30
0.0
 11
57.45496439188137
 21
53.56587709535535
 31
0.0
  0
LINE
  5
1A5
330
F8
100
AcDbEntity
  8
0
 62
     0
100
AcDbLine
 10
56.1104
 20
52.22131270347399
 30
0.0
 11
56.37170000000001
 21
52.48261270347398
 31
0.0
  0
LINE
  5
1A6
330
F8
100
AcDbEntity
  8
0
 62
     0
100
AcDbLine
 10
53.36586399182265
 20
49.29999999999999
 30
0.0
 11
54.1259520978691
 21
50.06008810604646
 31
0.0
  0
LINE
  5
1A7
330
F8
100
AcDbEntity
  8
0
 62
     0
100
AcDbLine
 10
59.0531093465856
 20
54.98724535476295
 30
0.0
 11
59.7
 21
55.63413600817735
 31
0.0
  0
LINE
  5
1A8
330
F8
100
AcDbEntity
  8
0
 62
     0
100
AcDbLine
 10
56.1104
 20
52.04453600817736
 30
0.0
 11
56.37170000000001
 21
52.30583600817735
 31
0.0
  0
LINE
  5
1A9
330
F8
100
AcDbEntity
  8
0
 62
     0
100
AcDbLine
 10
56.49959805929138
 20
52.43373406746873
 30
0.0
 11
57.2134829353091
 21
53.14761894348645
 31
0.0
  0
LINE
  5
1AA
330
F8
100
AcDbEntity
  8
0
 62
     0
100
AcDbLine
 10
53.54264068711929
 20
49.29999999999999
 30
0.0
 11
54.26179936555334
 21
50.01915867843406
 31
0.0
  0
LINE
  5
1AB
330
F8
100
AcDbEntity
  8
0
 62
     0
100
AcDbLine
 10
58.81162789001334
 20
54.56898720289405
 30
0.0
 11
59.7
 21
55.45735931288071
 31
0.0
  0
LINE
  5
1AC
330
F8
100
AcDbEntity
  8
0
 62
     0
100
AcDbLine
 10
56.1104
 20
51.86775931288071
 30
0.0
 11
56.97200147873683
 21
52.72936079161754
 31
0.0
  0
LINE
  5
1AD
330
F8
100
AcDbEntity
  8
0
 62
     0
100
AcDbLine
 10
53.71941738241591
 20
49.29999999999999
 30
0.0
 11
54.44353062849305
 21
50.02411324607713
 31
0.0
  0
LINE
  5
1AE
330
F8
100
AcDbEntity
  8
0
 62
     0
100
AcDbLine
 10
58.57014643344108
 20
54.15072905102515
 30
0.0
 11
59.7
 21
55.28058261758408
 31
0.0
  0
LINE
  5
1AF
330
F8
100
AcDbEntity
  8
0
 62
     0
100
AcDbLine
 10
56.01663514614683
 20
51.59721776373091
 30
0.0
 11
56.73052002216456
 21
52.31110263974864
 31
0.0
  0
LINE
  5
1B0
330
F8
100
AcDbEntity
  8
0
 62
     0
100
AcDbLine
 10
53.89619407771256
 20
49.29999999999999
 30
0.0
 11
54.68078996012066
 21
50.0845958824081
 31
0.0
  0
LINE
  5
1B1
330
F8
100
AcDbEntity
  8
0
 62
     0
100
AcDbLine
 10
58.32866497686881
 20
53.73247089915625
 30
0.0
 11
59.7
 21
55.10380592228744
 31
0.0
  0
LINE
  5
1B2
330
F8
100
AcDbEntity
  8
0
 62
     0
100
AcDbLine
 10
55.77515368957456
 20
51.17895961186199
 30
0.0
 11
56.48903856559229
 21
51.89284448787973
 31
0.0
  0
LINE
  5
1B3
330
F8
100
AcDbEntity
  8
0
 62
     0
100
AcDbLine
 10
54.0729707730092
 20
49.29999999999999
 30
0.0
 11
55.01581383031022
 21
50.24284305730102
 31
0.0
  0
LINE
  5
1B4
330
F8
100
AcDbEntity
  8
0
 62
     0
100
AcDbLine
 10
58.08718352029654
 20
53.31421274728735
 30
0.0
 11
59.7
 21
54.92702922699081
 31
0.0
  0
LINE
  5
1B5
330
F8
100
AcDbEntity
  8
0
 62
     0
100
AcDbLine
 10
55.5312587501444
 20
50.75828797713522
 30
0.0
 11
56.24755710902003
 21
51.47458633601083
 31
0.0
  0
LINE
  5
1B6
330
F8
100
AcDbEntity
  8
0
 62
     0
100
AcDbLine
 10
54.24974746830583
 20
49.29999999999999
 30
0.0
 11
56.00607565244776
 21
51.05632818414193
 31
0.0
  0
LINE
  5
1B7
330
F8
100
AcDbEntity
  8
0
 62
     0
100
AcDbLine
 10
57.84570206372428
 20
52.89595459541844
 30
0.0
 11
59.7
 21
54.75025253169416
 31
0.0
  0
LINE
  5
1B8
330
F8
100
AcDbEntity
  8
0
 62
     0
100
AcDbLine
 10
54.42652416360247
 20
49.29999999999999
 30
0.0
 11
55.7645941958755
 21
50.63807003227303
 31
0.0
  0
LINE
  5
1B9
330
F8
100
AcDbEntity
  8
0
 62
     0
100
AcDbLine
 10
57.60422060715201
 20
52.47769644354955
 30
0.0
 11
59.7
 21
54.57347583639752
 31
0.0
  0
LINE
  5
1BA
330
F8
100
AcDbEntity
  8
0
 62
     0
100
AcDbLine
 10
54.60330085889911
 20
49.29999999999999
 30
0.0
 11
55.52311273930323
 21
50.21981188040412
 31
0.0
  0
LINE
  5
1BB
330
F8
100
AcDbEntity
  8
0
 62
     0
100
AcDbLine
 10
57.36273915057974
 20
52.05943829168064
 30
0.0
 11
59.7
 21
54.3966991411009
 31
0.0
  0
LINE
  5
1BC
330
F8
100
AcDbEntity
  8
0
 62
     0
100
AcDbLine
 10
54.78007755419574
 20
49.29999999999999
 30
0.0
 11
55.48007755419575
 21
50.0
 31
0.0
  0
LINE
  5
1BD
330
F8
100
AcDbEntity
  8
0
 62
     0
100
AcDbLine
 10
57.12125769400748
 20
51.64118013981174
 30
0.0
 11
59.7
 21
54.21992244580426
 31
0.0
  0
LINE
  5
1BE
330
F8
100
AcDbEntity
  8
0
 62
     0
100
AcDbLine
 10
54.95685424949238
 20
49.29999999999999
 30
0.0
 11
55.65685424949238
 21
50.0
 31
0.0
  0
LINE
  5
1BF
330
F8
100
AcDbEntity
  8
0
 62
     0
100
AcDbLine
 10
56.87977623743522
 20
51.22292198794283
 30
0.0
 11
59.7
 21
54.04314575050761
 31
0.0
  0
LINE
  5
1C0
330
F8
100
AcDbEntity
  8
0
 62
     0
100
AcDbLine
 10
55.13363094478902
 20
49.29999999999999
 30
0.0
 11
55.83363094478902
 21
50.0
 31
0.0
  0
LINE
  5
1C1
330
F8
100
AcDbEntity
  8
0
 62
     0
100
AcDbLine
 10
56.63829478086295
 20
50.80466383607394
 30
0.0
 11
59.7
 21
53.86636905521098
 31
0.0
  0
LINE
  5
1C2
330
F8
100
AcDbEntity
  8
0
 62
     0
100
AcDbLine
 10
55.31040764008565
 20
49.29999999999999
 30
0.0
 11
56.01040764008565
 21
50.0
 31
0.0
  0
LINE
  5
1C3
330
F8
100
AcDbEntity
  8
0
 62
     0
100
AcDbLine
 10
56.71390764008564
 20
50.70349999999999
 30
0.0
 11
59.7
 21
53.68959235991435
 31
0.0
  0
LINE
  5
1C4
330
F8
100
AcDbEntity
  8
0
 62
     0
100
AcDbLine
 10
55.48718433538229
 20
49.29999999999999
 30
0.0
 11
56.1871843353823
 21
50.0
 31
0.0
  0
LINE
  5
1C5
330
F8
100
AcDbEntity
  8
0
 62
     0
100
AcDbLine
 10
56.89068433538228
 20
50.70349999999999
 30
0.0
 11
59.7
 21
53.51281566461771
 31
0.0
  0
LINE
  5
1C6
330
F8
100
AcDbEntity
  8
0
 62
     0
100
AcDbLine
 10
55.66396103067893
 20
49.29999999999999
 30
0.0
 11
56.36396103067893
 21
50.0
 31
0.0
  0
LINE
  5
1C7
330
F8
100
AcDbEntity
  8
0
 62
     0
100
AcDbLine
 10
57.06746103067892
 20
50.70349999999999
 30
0.0
 11
59.7
 21
53.33603896932107
 31
0.0
  0
LINE
  5
1C8
330
F8
100
AcDbEntity
  8
0
 62
     0
100
AcDbLine
 10
55.84073772597556
 20
49.29999999999999
 30
0.0
 11
56.54073772597556
 21
50.0
 31
0.0
  0
LINE
  5
1C9
330
F8
100
AcDbEntity
  8
0
 62
     0
100
AcDbLine
 10
57.24423772597556
 20
50.70349999999999
 30
0.0
 11
59.7
 21
53.15926227402443
 31
0.0
  0
LINE
  5
1CA
330
F8
100
AcDbEntity
  8
0
 62
     0
100
AcDbLine
 10
56.0175144212722
 20
49.29999999999999
 30
0.0
 11
56.7175144212722
 21
50.0
 31
0.0
  0
LINE
  5
1CB
330
F8
100
AcDbEntity
  8
0
 62
     0
100
AcDbLine
 10
57.42101442127219
 20
50.70349999999999
 30
0.0
 11
59.7
 21
52.9824855787278
 31
0.0
  0
LINE
  5
1CC
330
F8
100
AcDbEntity
  8
0
 62
     0
100
AcDbLine
 10
56.19429111656883
 20
49.29999999999999
 30
0.0
 11
56.89429111656885
 21
50.0
 31
0.0
  0
LINE
  5
1CD
330
F8
100
AcDbEntity
  8
0
 62
     0
100
AcDbLine
 10
57.59779111656882
 20
50.70349999999999
 30
0.0
 11
59.7
 21
52.80570888343117
 31
0.0
  0
LINE
  5
1CE
330
F8
100
AcDbEntity
  8
0
 62
     0
100
AcDbLine
 10
56.37106781186547
 20
49.29999999999999
 30
0.0
 11
57.07106781186548
 21
50.0
 31
0.0
  0
LINE
  5
1CF
330
F8
100
AcDbEntity
  8
0
 62
     0
100
AcDbLine
 10
57.47397876153527
 20
50.40291094966979
 30
0.0
 11
59.7
 21
52.62893218813452
 31
0.0
  0
LINE
  5
1D0
330
F8
100
AcDbEntity
  8
0
 62
     0
100
AcDbLine
 10
56.54784450716211
 20
49.29999999999999
 30
0.0
 11
59.7
 21
52.45215549283789
 31
0.0
  0
LINE
  5
1D1
330
F8
100
AcDbEntity
  8
0
 62
     0
100
AcDbLine
 10
56.72462120245874
 20
49.29999999999999
 30
0.0
 11
59.7
 21
52.27537879754125
 31
0.0
  0
LINE
  5
1D2
330
F8
100
AcDbEntity
  8
0
 62
     0
100
AcDbLine
 10
56.90139789775539
 20
49.29999999999999
 30
0.0
 11
59.7
 21
52.09860210224461
 31
0.0
  0
LINE
  5
1D3
330
F8
100
AcDbEntity
  8
0
 62
     0
100
AcDbLine
 10
57.07817459305202
 20
49.29999999999999
 30
0.0
 11
59.7
 21
51.92182540694798
 31
0.0
  0
LINE
  5
1D4
330
F8
100
AcDbEntity
  8
0
 62
     0
100
AcDbLine
 10
57.25495128834865
 20
49.29999999999999
 30
0.0
 11
59.7
 21
51.74504871165134
 31
0.0
  0
LINE
  5
1D5
330
F8
100
AcDbEntity
  8
0
 62
     0
100
AcDbLine
 10
57.43172798364529
 20
49.29999999999999
 30
0.0
 11
59.7
 21
51.5682720163547
 31
0.0
  0
LINE
  5
1D6
330
F8
100
AcDbEntity
  8
0
 62
     0
100
AcDbLine
 10
57.60850467894194
 20
49.29999999999999
 30
0.0
 11
59.7
 21
51.39149532105807
 31
0.0
  0
LINE
  5
1D7
330
F8
100
AcDbEntity
  8
0
 62
     0
100
AcDbLine
 10
57.78528137423857
 20
49.29999999999999
 30
0.0
 11
59.7
 21
51.21471862576143
 31
0.0
  0
LINE
  5
1D8
330
F8
100
AcDbEntity
  8
0
 62
     0
100
AcDbLine
 10
57.9620580695352
 20
49.29999999999999
 30
0.0
 11
59.7
 21
51.03794193046479
 31
0.0
  0
LINE
  5
1D9
330
F8
100
AcDbEntity
  8
0
 62
     0
100
AcDbLine
 10
58.13883476483184
 20
49.29999999999999
 30
0.0
 11
59.7
 21
50.86116523516816
 31
0.0
  0
LINE
  5
1DA
330
F8
100
AcDbEntity
  8
0
 62
     0
100
AcDbLine
 10
58.31561146012848
 20
49.29999999999999
 30
0.0
 11
59.7
 21
50.68438853987152
 31
0.0
  0
LINE
  5
1DB
330
F8
100
AcDbEntity
  8
0
 62
     0
100
AcDbLine
 10
58.49238815542512
 20
49.29999999999999
 30
0.0
 11
59.7
 21
50.50761184457488
 31
0.0
  0
LINE
  5
1DC
330
F8
100
AcDbEntity
  8
0
 62
     0
100
AcDbLine
 10
58.66916485072176
 20
49.29999999999999
 30
0.0
 11
59.7
 21
50.33083514927824
 31
0.0
  0
LINE
  5
1DD
330
F8
100
AcDbEntity
  8
0
 62
     0
100
AcDbLine
 10
58.84594154601838
 20
49.29999999999999
 30
0.0
 11
59.7
 21
50.15405845398161
 31
0.0
  0
LINE
  5
1DE
330
F8
100
AcDbEntity
  8
0
 62
     0
100
AcDbLine
 10
59.02271824131503
 20
49.29999999999999
 30
0.0
 11
59.7
 21
49.97728175868497
 31
0.0
  0
LINE
  5
1DF
330
F8
100
AcDbEntity
  8
0
 62
     0
100
AcDbLine
 10
59.19949493661166
 20
49.29999999999999
 30
0.0
 11
59.7
 21
49.80050506338834
 31
0.0
  0
LINE
  5
1E0
330
F8
100
AcDbEntity
  8
0
 62
     0
100
AcDbLine
 10
59.3762716319083
 20
49.29999999999999
 30
0.0
 11
59.7
 21
49.62372836809169
 31
0.0
  0
LINE
  5
1E1
330
F8
100
AcDbEntity
  8
0
 62
     0
100
AcDbLine
 10
59.55304832720494
 20
49.29999999999999
 30
0.0
 11
59.7
 21
49.44695167279506
 31
0.0
  0
LINE
  5
1E2
330
F8
100
AcDbEntity
  8
0
 62
     0
100
AcDbLine
 10
59.59444430272831
 20
49.29999999999999
 30
0.0
 11
57.16957541509209
 21
51.72486888763621
 31
0.0
  0
LINE
  5
1E3
330
F8
100
AcDbEntity
  8
0
 62
     0
100
AcDbLine
 10
53.49376530291086
 20
55.40067899981744
 30
0.0
 11
49.7
 21
59.19444430272831
 31
0.0
  0
LINE
  5
1E4
330
F8
100
AcDbEntity
  8
0
 62
     0
100
AcDbLine
 10
56.67664900381558
 20
52.21779529891272
 30
0.0
 11
56.48536412779784
 21
52.40908017493048
 31
0.0
  0
LINE
  5
1E5
330
F8
100
AcDbEntity
  8
0
 62
     0
100
AcDbLine
 10
54.62401514193283
 20
54.27042916079547
 30
0.0
 11
54.43273026591509
 21
54.46171403681322
 31
0.0
  0
LINE
  5
1E6
330
F8
100
AcDbEntity
  8
0
 62
     0
100
AcDbLine
 10
56.37170000000001
 20
52.52274430272831
 30
0.0
 11
56.1104
 21
52.78404430272831
 31
0.0
  0
LINE
  5
1E7
330
F8
100
AcDbEntity
  8
0
 62
     0
100
AcDbLine
 10
55.43705
 20
53.45739430272832
 30
0.0
 11
55.11694155320934
 21
53.77750274951898
 31
0.0
  0
LINE
  5
1E8
330
F8
100
AcDbEntity
  8
0
 62
     0
100
AcDbLine
 10
59.41766760743167
 20
49.29999999999999
 30
0.0
 11
57.10487065381646
 21
51.61279695361521
 31
0.0
  0
LINE
  5
1E9
330
F8
100
AcDbEntity
  8
0
 62
     0
100
AcDbLine
 10
53.37368488132066
 20
55.34398272611101
 30
0.0
 11
49.7
 21
59.01766760743167
 31
0.0
  0
LINE
  5
1EA
330
F8
100
AcDbEntity
  8
0
 62
     0
100
AcDbLine
 10
56.61194424253995
 20
52.10572336489172
 30
0.0
 11
56.42065936652221
 21
52.29700824090946
 31
0.0
  0
LINE
  5
1EB
330
F8
100
AcDbEntity
  8
0
 62
     0
100
AcDbLine
 10
54.5593103806572
 20
54.15835722677446
 30
0.0
 11
54.36802550463945
 21
54.34964210279222
 31
0.0
  0
LINE
  5
1EC
330
F8
100
AcDbEntity
  8
0
 62
     0
100
AcDbLine
 10
56.37170000000001
 20
52.34596760743167
 30
0.0
 11
56.1104
 21
52.60726760743168
 31
0.0
  0
LINE
  5
1ED
330
F8
100
AcDbEntity
  8
0
 62
     0
100
AcDbLine
 10
55.43705
 20
53.28061760743167
 30
0.0
 11
55.0522367919337
 21
53.66543081549798
 31
0.0
  0
LINE
  5
1EE
330
F8
100
AcDbEntity
  8
0
 62
     0
100
AcDbLine
 10
59.24089091213503
 20
49.29999999999999
 30
0.0
 11
57.04016589254083
 21
51.50072501959421
 31
0.0
  0
LINE
  5
1EF
330
F8
100
AcDbEntity
  8
0
 62
     0
100
AcDbLine
 10
53.26152639477844
 20
55.27936451735659
 30
0.0
 11
49.7
 21
58.84089091213503
 31
0.0
  0
LINE
  5
1F0
330
F8
100
AcDbEntity
  8
0
 62
     0
100
AcDbLine
 10
56.54723948126432
 20
51.99365143087071
 30
0.0
 11
56.1104
 21
52.43049091213504
 31
0.0
  0
LINE
  5
1F1
330
F8
100
AcDbEntity
  8
0
 62
     0
100
AcDbLine
 10
53.78096168810573
 20
54.7599292240293
 30
0.0
 11
53.69192245340341
 21
54.84896845873162
 31
0.0
  0
LINE
  5
1F2
330
F8
100
AcDbEntity
  8
0
 62
     0
100
AcDbLine
 10
55.43705
 20
53.10384091213504
 30
0.0
 11
54.98753203065807
 21
53.55335888147696
 31
0.0
  0
LINE
  5
1F3
330
F8
100
AcDbEntity
  8
0
 62
     0
100
AcDbLine
 10
54.49460561938157
 20
54.04628529275345
 30
0.0
 11
54.30332074336382
 21
54.23757016877122
 31
0.0
  0
LINE
  5
1F4
330
F8
100
AcDbEntity
  8
0
 62
     0
100
AcDbLine
 10
59.0641142168384
 20
49.29999999999999
 30
0.0
 11
56.9754611312652
 21
51.38865308557321
 31
0.0
  0
LINE
  5
1F5
330
F8
100
AcDbEntity
  8
0
 62
     0
100
AcDbLine
 10
53.15678774427079
 20
55.2073264725676
 30
0.0
 11
49.7
 21
58.6641142168384
 31
0.0
  0
LINE
  5
1F6
330
F8
100
AcDbEntity
  8
0
 62
     0
100
AcDbLine
 10
56.48253471998869
 20
51.88157949684971
 30
0.0
 11
56.1104
 21
52.2537142168384
 31
0.0
  0
LINE
  5
1F7
330
F8
100
AcDbEntity
  8
0
 62
     0
100
AcDbLine
 10
53.74568957081169
 20
54.61842464602671
 30
0.0
 11
53.55597025555414
 21
54.80814396128426
 31
0.0
  0
LINE
  5
1F8
330
F8
100
AcDbEntity
  8
0
 62
     0
100
AcDbLine
 10
55.43705
 20
52.9270642168384
 30
0.0
 11
55.17575
 21
53.18836421683839
 31
0.0
  0
LINE
  5
1F9
330
F8
100
AcDbEntity
  8
0
 62
     0
100
AcDbLine
 10
54.42990085810594
 20
53.93421335873245
 30
0.0
 11
54.23861598208819
 21
54.1254982347502
 31
0.0
  0
LINE
  5
1FA
330
F8
100
AcDbEntity
  8
0
 62
     0
100
AcDbLine
 10
55.11411214540019
 20
53.2500020714382
 30
0.0
 11
54.92282726938245
 21
53.44128694745596
 31
0.0
  0
LINE
  5
1FB
330
F8
100
AcDbEntity
  8
0
 62
     0
100
AcDbLine
 10
58.88733752154176
 20
49.29999999999999
 30
0.0
 11
57.58761054666775
 21
50.599726974874
 31
0.0
  0
LINE
  5
1FC
330
F8
100
AcDbEntity
  8
0
 62
     0
100
AcDbLine
 10
53.05914811427838
 20
55.12818940726338
 30
0.0
 11
49.7
 21
58.48733752154176
 31
0.0
  0
LINE
  5
1FD
330
F8
100
AcDbEntity
  8
0
 62
     0
100
AcDbLine
 10
57.48383752154177
 20
50.70349999999999
 30
0.0
 11
56.91075636998957
 21
51.27658115155219
 31
0.0
  0
LINE
  5
1FE
330
F8
100
AcDbEntity
  8
0
 62
     0
100
AcDbLine
 10
53.68098480953606
 20
54.50635271200571
 30
0.0
 11
53.48969993351831
 21
54.69763758802344
 31
0.0
  0
LINE
  5
1FF
330
F8
100
AcDbEntity
  8
0
 62
     0
100
AcDbLine
 10
56.41782995871306
 20
51.7695075628287
 30
0.0
 11
56.1104
 21
52.07693752154177
 31
0.0
  0
LINE
  5
200
330
F8
100
AcDbEntity
  8
0
 62
     0
100
AcDbLine
 10
54.36519609683031
 20
53.82214142471145
 30
0.0
 11
54.17391122081256
 21
54.0134263007292
 31
0.0
  0
LINE
  5
201
330
F8
100
AcDbEntity
  8
0
 62
     0
100
AcDbLine
 10
55.43705
 20
52.75028752154176
 30
0.0
 11
55.17575
 21
53.01158752154176
 31
0.0
  0
LINE
  5
202
330
F8
100
AcDbEntity
  8
0
 62
     0
100
AcDbLine
 10
55.04940738412456
 20
53.13793013741719
 30
0.0
 11
54.85812250810681
 21
53.32921501343495
 31
0.0
  0
LINE
  5
203
330
F8
100
AcDbEntity
  8
0
 62
     0
100
AcDbLine
 10
58.71056082624512
 20
49.29999999999999
 30
0.0
 11
57.52290578539212
 21
50.487655040853
 31
0.0
  0
LINE
  5
204
330
F8
100
AcDbEntity
  8
0
 62
     0
100
AcDbLine
 10
52.96843419701324
 20
55.04212662923188
 30
0.0
 11
49.7
 21
58.31056082624512
 31
0.0
  0
LINE
  5
205
330
F8
100
AcDbEntity
  8
0
 62
     0
100
AcDbLine
 10
57.30706082624513
 20
50.70349999999999
 30
0.0
 11
56.84605160871394
 21
51.16450921753119
 31
0.0
  0
LINE
  5
206
330
F8
100
AcDbEntity
  8
0
 62
     0
100
AcDbLine
 10
53.61628004826044
 20
54.3942807779847
 30
0.0
 11
53.42499517224268
 21
54.58556565400243
 31
0.0
  0
LINE
  5
207
330
F8
100
AcDbEntity
  8
0
 62
     0
100
AcDbLine
 10
56.35312519743743
 20
51.6574356288077
 30
0.0
 11
56.1104
 21
51.90016082624513
 31
0.0
  0
LINE
  5
208
330
F8
100
AcDbEntity
  8
0
 62
     0
100
AcDbLine
 10
54.30049133555468
 20
53.71006949069044
 30
0.0
 11
54.10920645953694
 21
53.90135436670819
 31
0.0
  0
LINE
  5
209
330
F8
100
AcDbEntity
  8
0
 62
     0
100
AcDbLine
 10
55.43705
 20
52.57351082624513
 30
0.0
 11
55.17575
 21
52.83481082624511
 31
0.0
  0
LINE
  5
20A
330
F8
100
AcDbEntity
  8
0
 62
     0
100
AcDbLine
 10
54.98470262284893
 20
53.02585820339619
 30
0.0
 11
54.79341774683118
 21
53.21714307941395
 31
0.0
  0
LINE
  5
20B
330
F8
100
AcDbEntity
  8
0
 62
     0
100
AcDbLine
 10
58.53378413094849
 20
49.29999999999999
 30
0.0
 11
57.45820102411649
 21
50.37558310683198
 31
0.0
  0
LINE
  5
20C
330
F8
100
AcDbEntity
  8
0
 62
     0
100
AcDbLine
 10
52.88460332165414
 20
54.94918080929435
 30
0.0
 11
49.7
 21
58.13378413094849
 31
0.0
  0
LINE
  5
20D
330
F8
100
AcDbEntity
  8
0
 62
     0
100
AcDbLine
 10
57.1302841309485
 20
50.70349999999999
 30
0.0
 11
56.78134684743831
 21
51.05243728351018
 31
0.0
  0
LINE
  5
20E
330
F8
100
AcDbEntity
  8
0
 62
     0
100
AcDbLine
 10
53.5515752869848
 20
54.28220884396369
 30
0.0
 11
53.36029041096704
 21
54.47349371998143
 31
0.0
  0
LINE
  5
20F
330
F8
100
AcDbEntity
  8
0
 62
     0
100
AcDbLine
 10
56.2884204361618
 20
51.54536369478669
 30
0.0
 11
56.09713556014406
 21
51.73664857080443
 31
0.0
  0
LINE
  5
210
330
F8
100
AcDbEntity
  8
0
 62
     0
100
AcDbLine
 10
54.23578657427905
 20
53.59799755666943
 30
0.0
 11
54.0445016982613
 21
53.78928243268718
 31
0.0
  0
LINE
  5
211
330
F8
100
AcDbEntity
  8
0
 62
     0
100
AcDbLine
 10
55.43704999999999
 20
52.39673413094848
 30
0.0
 11
55.17575
 21
52.65803413094849
 31
0.0
  0
LINE
  5
212
330
F8
100
AcDbEntity
  8
0
 62
     0
100
AcDbLine
 10
54.9199978615733
 20
52.91378626937518
 30
0.0
 11
54.72871298555555
 21
53.10507114539294
 31
0.0
  0
LINE
  5
213
330
F8
100
AcDbEntity
  8
0
 62
     0
100
AcDbLine
 10
58.35700743565185
 20
49.29999999999999
 30
0.0
 11
57.39349626284086
 21
50.26351117281098
 31
0.0
  0
LINE
  5
214
330
F8
100
AcDbEntity
  8
0
 62
     0
100
AcDbLine
 10
52.80773944574729
 20
54.84926798990456
 30
0.0
 11
49.7
 21
57.95700743565185
 31
0.0
  0
LINE
  5
215
330
F8
100
AcDbEntity
  8
0
 62
     0
100
AcDbLine
 10
56.95350743565186
 20
50.70349999999999
 30
0.0
 11
56.71664208616268
 21
50.94036534948918
 31
0.0
  0
LINE
  5
216
330
F8
100
AcDbEntity
  8
0
 62
     0
100
AcDbLine
 10
53.48687052570917
 20
54.17013690994268
 30
0.0
 11
53.29558564969142
 21
54.36142178596043
 31
0.0
  0
LINE
  5
217
330
F8
100
AcDbEntity
  8
0
 62
     0
100
AcDbLine
 10
56.22371567488617
 20
51.43329176076568
 30
0.0
 11
56.03243079886842
 21
51.62457663678342
 31
0.0
  0
LINE
  5
218
330
F8
100
AcDbEntity
  8
0
 62
     0
100
AcDbLine
 10
54.17108181300342
 20
53.48592562264842
 30
0.0
 11
53.97979693698567
 21
53.67721049866617
 31
0.0
  0
LINE
  5
219
330
F8
100
AcDbEntity
  8
0
 62
     0
100
AcDbLine
 10
55.43704999999999
 20
52.21995743565185
 30
0.0
 11
55.17575
 21
52.48125743565185
 31
0.0
  0
LINE
  5
21A
330
F8
100
AcDbEntity
  8
0
 62
     0
100
AcDbLine
 10
54.85529310029767
 20
52.80171433535418
 30
0.0
 11
54.66400822427992
 21
52.99299921137194
 31
0.0
  0
LINE
  5
21B
330
F8
100
AcDbEntity
  8
0
 62
     0
100
AcDbLine
 10
58.18023074035521
 20
49.29999999999999
 30
0.0
 11
57.32879150156523
 21
50.15143923878998
 31
0.0
  0
LINE
  5
21C
330
F8
100
AcDbEntity
  8
0
 62
     0
100
AcDbLine
 10
52.73806109674202
 20
54.74216964361319
 30
0.0
 11
49.7
 21
57.78023074035521
 31
0.0
  0
LINE
  5
21D
330
F8
100
AcDbEntity
  8
0
 62
     0
100
AcDbLine
 10
56.77673074035523
 20
50.70349999999999
 30
0.0
 11
56.65193732488705
 21
50.82829341546816
 31
0.0
  0
LINE
  5
21E
330
F8
100
AcDbEntity
  8
0
 62
     0
100
AcDbLine
 10
53.42216576443354
 20
54.05806497592168
 30
0.0
 11
53.23088088841579
 21
54.24934985193942
 31
0.0
  0
LINE
  5
21F
330
F8
100
AcDbEntity
  8
0
 62
     0
100
AcDbLine
 10
56.15901091361054
 20
51.32121982674467
 30
0.0
 11
55.9677260375928
 21
51.51250470276242
 31
0.0
  0
LINE
  5
220
330
F8
100
AcDbEntity
  8
0
 62
     0
100
AcDbLine
 10
54.10637705172779
 20
53.37385368862742
 30
0.0
 11
53.91509217571004
 21
53.56513856464516
 31
0.0
  0
LINE
  5
221
330
F8
100
AcDbEntity
  8
0
 62
     0
100
AcDbLine
 10
55.43704999999999
 20
52.04318074035521
 30
0.0
 11
55.17575
 21
52.30448074035521
 31
0.0
  0
LINE
  5
222
330
F8
100
AcDbEntity
  8
0
 62
     0
100
AcDbLine
 10
54.79058833902204
 20
52.68964240133317
 30
0.0
 11
54.5993034630043
 21
52.88092727735093
 31
0.0
  0
LINE
  5
223
330
F8
100
AcDbEntity
  8
0
 62
     0
100
AcDbLine
 10
58.00345404505858
 20
49.29999999999999
 30
0.0
 11
57.26408674028959
 21
50.03936730476897
 31
0.0
  0
LINE
  5
224
330
F8
100
AcDbEntity
  8
0
 62
     0
100
AcDbLine
 10
52.67324971586366
 20
54.63020432919492
 30
0.0
 11
49.7
 21
57.60345404505858
 31
0.0
  0
LINE
  5
225
330
F8
100
AcDbEntity
  8
0
 62
     0
100
AcDbLine
 10
56.59995404505859
 20
50.70349999999999
 30
0.0
 11
56.58723256361142
 21
50.71622148144715
 31
0.0
  0
LINE
  5
226
330
F8
100
AcDbEntity
  8
0
 62
     0
100
AcDbLine
 10
53.35746100315791
 20
53.94599304190067
 30
0.0
 11
53.16617612714015
 21
54.13727791791841
 31
0.0
  0
LINE
  5
227
330
F8
100
AcDbEntity
  8
0
 62
     0
100
AcDbLine
 10
56.09430615233491
 20
51.20914789272367
 30
0.0
 11
55.90302127631717
 21
51.40043276874141
 31
0.0
  0
LINE
  5
228
330
F8
100
AcDbEntity
  8
0
 62
     0
100
AcDbLine
 10
54.04167229045215
 20
53.26178175460641
 30
0.0
 11
53.85038741443441
 21
53.45306663062416
 31
0.0
  0
LINE
  5
229
330
F8
100
AcDbEntity
  8
0
 62
     0
100
AcDbLine
 10
55.41009486504066
 20
51.89335918001791
 30
0.0
 11
55.17575
 21
52.12770404505857
 31
0.0
  0
LINE
  5
22A
330
F8
100
AcDbEntity
  8
0
 62
     0
100
AcDbLine
 10
54.72588357774641
 20
52.57757046731216
 30
0.0
 11
54.53459870172866
 21
52.76885534332992
 31
0.0
  0
LINE
  5
22B
330
F8
100
AcDbEntity
  8
0
 62
     0
100
AcDbLine
 10
57.82667734976193
 20
49.29999999999999
 30
0.0
 11
57.12667734976194
 21
50.0
 31
0.0
  0
LINE
  5
22C
330
F8
100
AcDbEntity
  8
0
 62
     0
100
AcDbLine
 10
52.60854495458803
 20
54.51813239517391
 30
0.0
 11
49.7
 21
57.42667734976194
 31
0.0
  0
LINE
  5
22D
330
F8
100
AcDbEntity
  8
0
 62
     0
100
AcDbLine
 10
56.02960139105928
 20
51.09707595870266
 30
0.0
 11
55.83831651504153
 21
51.28836083472041
 31
0.0
  0
LINE
  5
22E
330
F8
100
AcDbEntity
  8
0
 62
     0
100
AcDbLine
 10
53.29275624188228
 20
53.83392110787966
 30
0.0
 11
53.10147136586452
 21
54.02520598389741
 31
0.0
  0
LINE
  5
22F
330
F8
100
AcDbEntity
  8
0
 62
     0
100
AcDbLine
 10
55.34539010376502
 20
51.78128724599691
 30
0.0
 11
55.15410522774729
 21
51.97257212201465
 31
0.0
  0
LINE
  5
230
330
F8
100
AcDbEntity
  8
0
 62
     0
100
AcDbLine
 10
53.97696752917653
 20
53.1497098205854
 30
0.0
 11
53.78568265315878
 21
53.34099469660316
 31
0.0
  0
LINE
  5
231
330
F8
100
AcDbEntity
  8
0
 62
     0
100
AcDbLine
 10
54.66117881647078
 20
52.46549853329115
 30
0.0
 11
54.46989394045303
 21
52.65678340930891
 31
0.0
  0
LINE
  5
232
330
F8
100
AcDbEntity
  8
0
 62
     0
100
AcDbLine
 10
57.6499006544653
 20
49.29999999999999
 30
0.0
 11
56.94990065446531
 21
50.0
 31
0.0
  0
LINE
  5
233
330
F8
100
AcDbEntity
  8
0
 62
     0
100
AcDbLine
 10
52.5438401933124
 20
54.4060604611529
 30
0.0
 11
49.7
 21
57.24990065446529
 31
0.0
  0
LINE
  5
234
330
F8
100
AcDbEntity
  8
0
 62
     0
100
AcDbLine
 10
55.96489662978365
 20
50.98500402468165
 30
0.0
 11
55.77361175376591
 21
51.17628890069941
 31
0.0
  0
LINE
  5
235
330
F8
100
AcDbEntity
  8
0
 62
     0
100
AcDbLine
 10
53.22805148060665
 20
53.72184917385865
 30
0.0
 11
53.0367666045889
 21
53.9131340498764
 31
0.0
  0
LINE
  5
236
330
F8
100
AcDbEntity
  8
0
 62
     0
100
AcDbLine
 10
55.2806853424894
 20
51.6692153119759
 30
0.0
 11
55.08940046647166
 21
51.86050018799364
 31
0.0
  0
LINE
  5
237
330
F8
100
AcDbEntity
  8
0
 62
     0
100
AcDbLine
 10
53.9122627679009
 20
53.03763788656439
 30
0.0
 11
53.72097789188315
 21
53.22892276258215
 31
0.0
  0
LINE
  5
238
330
F8
100
AcDbEntity
  8
0
 62
     0
100
AcDbLine
 10
54.59647405519515
 20
52.35342659927015
 30
0.0
 11
54.4051891791774
 21
52.5447114752879
 31
0.0
  0
LINE
  5
239
330
F8
100
AcDbEntity
  8
0
 62
     0
100
AcDbLine
 10
57.47312395916867
 20
49.29999999999999
 30
0.0
 11
56.77312395916867
 21
50.0
 31
0.0
  0
LINE
  5
23A
330
F8
100
AcDbEntity
  8
0
 62
     0
100
AcDbLine
 10
52.47913543203677
 20
54.29398852713189
 30
0.0
 11
49.7
 21
57.07312395916867
 31
0.0
  0
LINE
  5
23B
330
F8
100
AcDbEntity
  8
0
 62
     0
100
AcDbLine
 10
55.90019186850802
 20
50.87293209066064
 30
0.0
 11
55.70890699249027
 21
51.06421696667839
 31
0.0
  0
LINE
  5
23C
330
F8
100
AcDbEntity
  8
0
 62
     0
100
AcDbLine
 10
53.16334671933102
 20
53.60977723983765
 30
0.0
 11
52.97206184331327
 21
53.80106211585538
 31
0.0
  0
LINE
  5
23D
330
F8
100
AcDbEntity
  8
0
 62
     0
100
AcDbLine
 10
55.21598058121377
 20
51.55714337795489
 30
0.0
 11
55.02469570519603
 21
51.74842825397264
 31
0.0
  0
LINE
  5
23E
330
F8
100
AcDbEntity
  8
0
 62
     0
100
AcDbLine
 10
53.84755800662527
 20
52.92556595254339
 30
0.0
 11
53.65627313060752
 21
53.11685082856114
 31
0.0
  0
LINE
  5
23F
330
F8
100
AcDbEntity
  8
0
 62
     0
100
AcDbLine
 10
54.53176929391952
 20
52.24135466524914
 30
0.0
 11
54.34048441790177
 21
52.4326395412669
 31
0.0
  0
LINE
  5
240
330
F8
100
AcDbEntity
  8
0
 62
     0
100
AcDbLine
 10
57.29634726387203
 20
49.29999999999999
 30
0.0
 11
56.59634726387203
 21
50.0
 31
0.0
  0
LINE
  5
241
330
F8
100
AcDbEntity
  8
0
 62
     0
100
AcDbLine
 10
52.41443067076114
 20
54.18191659311089
 30
0.0
 11
49.7
 21
56.89634726387203
 31
0.0
  0
LINE
  5
242
330
F8
100
AcDbEntity
  8
0
 62
     0
100
AcDbLine
 10
55.83548710723238
 20
50.76086015663964
 30
0.0
 11
55.64420223121464
 21
50.95214503265739
 31
0.0
  0
LINE
  5
243
330
F8
100
AcDbEntity
  8
0
 62
     0
100
AcDbLine
 10
53.09864195805539
 20
53.49770530581665
 30
0.0
 11
52.90735708203763
 21
53.68899018183438
 31
0.0
  0
LINE
  5
244
330
F8
100
AcDbEntity
  8
0
 62
     0
100
AcDbLine
 10
55.15127581993813
 20
51.44507144393388
 30
0.0
 11
54.9599909439204
 21
51.63635631995163
 31
0.0
  0
LINE
  5
245
330
F8
100
AcDbEntity
  8
0
 62
     0
100
AcDbLine
 10
53.78285324534964
 20
52.81349401852239
 30
0.0
 11
53.59156836933189
 21
53.00477889454014
 31
0.0
  0
LINE
  5
246
330
F8
100
AcDbEntity
  8
0
 62
     0
100
AcDbLine
 10
54.46706453264389
 20
52.12928273122813
 30
0.0
 11
54.27577965662614
 21
52.32056760724589
 31
0.0
  0
LINE
  5
247
330
F8
100
AcDbEntity
  8
0
 62
     0
100
AcDbLine
 10
57.11957056857539
 20
49.29999999999999
 30
0.0
 11
56.41957056857539
 21
50.0
 31
0.0
  0
LINE
  5
248
330
F8
100
AcDbEntity
  8
0
 62
     0
100
AcDbLine
 10
52.34972590948551
 20
54.06984465908988
 30
0.0
 11
49.7
 21
56.71957056857539
 31
0.0
  0
LINE
  5
249
330
F8
100
AcDbEntity
  8
0
 62
     0
100
AcDbLine
 10
55.77078234595676
 20
50.64878822261864
 30
0.0
 11
55.57949746993902
 21
50.84007309863638
 31
0.0
  0
LINE
  5
24A
330
F8
100
AcDbEntity
  8
0
 62
     0
100
AcDbLine
 10
53.03393719677976
 20
53.38563337179563
 30
0.0
 11
52.84265232076201
 21
53.57691824781337
 31
0.0
  0
LINE
  5
24B
330
F8
100
AcDbEntity
  8
0
 62
     0
100
AcDbLine
 10
55.08657105866251
 20
51.33299950991287
 30
0.0
 11
54.89528618264476
 21
51.52428438593062
 31
0.0
  0
LINE
  5
24C
330
F8
100
AcDbEntity
  8
0
 62
     0
100
AcDbLine
 10
53.718148484074
 20
52.70142208450138
 30
0.0
 11
53.52686360805626
 21
52.89270696051913
 31
0.0
  0
LINE
  5
24D
330
F8
100
AcDbEntity
  8
0
 62
     0
100
AcDbLine
 10
54.40235977136826
 20
52.01721079720712
 30
0.0
 11
54.21107489535051
 21
52.20849567322488
 31
0.0
  0
LINE
  5
24E
330
F8
100
AcDbEntity
  8
0
 62
     0
100
AcDbLine
 10
56.94279387327875
 20
49.29999999999999
 30
0.0
 11
56.24279387327876
 21
50.0
 31
0.0
  0
LINE
  5
24F
330
F8
100
AcDbEntity
  8
0
 62
     0
100
AcDbLine
 10
52.28502114820988
 20
53.95777272506887
 30
0.0
 11
49.7
 21
56.54279387327875
 31
0.0
  0
LINE
  5
250
330
F8
100
AcDbEntity
  8
0
 62
     0
100
AcDbLine
 10
55.70607758468113
 20
50.53671628859763
 30
0.0
 11
55.51306364865187
 21
50.72973022462688
 31
0.0
  0
LINE
  5
251
330
F8
100
AcDbEntity
  8
0
 62
     0
100
AcDbLine
 10
52.96923243550413
 20
53.27356143777463
 30
0.0
 11
52.77794755948638
 21
53.46484631379237
 31
0.0
  0
LINE
  5
252
330
F8
100
AcDbEntity
  8
0
 62
     0
100
AcDbLine
 10
55.02186629738687
 20
51.22092757589187
 30
0.0
 11
54.83058142136914
 21
51.41221245190962
 31
0.0
  0
LINE
  5
253
330
F8
100
AcDbEntity
  8
0
 62
     0
100
AcDbLine
 10
53.65344372279838
 20
52.58935015048037
 30
0.0
 11
53.46215884678063
 21
52.78063502649812
 31
0.0
  0
LINE
  5
254
330
F8
100
AcDbEntity
  8
0
 62
     0
100
AcDbLine
 10
54.33765501009263
 20
51.90513886318612
 30
0.0
 11
54.14637013407489
 21
52.09642373920388
 31
0.0
  0
LINE
  5
255
330
F8
100
AcDbEntity
  8
0
 62
     0
100
AcDbLine
 10
56.76601717798212
 20
49.29999999999999
 30
0.0
 11
56.06601717798213
 21
50.0
 31
0.0
  0
LINE
  5
256
330
F8
100
AcDbEntity
  8
0
 62
     0
100
AcDbLine
 10
52.22031638693425
 20
53.84570079104786
 30
0.0
 11
49.7
 21
56.36601717798211
 31
0.0
  0
LINE
  5
257
330
F8
100
AcDbEntity
  8
0
 62
     0
100
AcDbLine
 10
55.64137282340549
 20
50.42464435457662
 30
0.0
 11
55.43968015326909
 21
50.62633702471303
 31
0.0
  0
LINE
  5
258
330
F8
100
AcDbEntity
  8
0
 62
     0
100
AcDbLine
 10
52.9045276742285
 20
53.16148950375362
 30
0.0
 11
52.71324279821074
 21
53.35277437977136
 31
0.0
  0
LINE
  5
259
330
F8
100
AcDbEntity
  8
0
 62
     0
100
AcDbLine
 10
54.95716153611124
 20
51.10885564187086
 30
0.0
 11
54.76587666009351
 21
51.30014051788862
 31
0.0
  0
LINE
  5
25A
330
F8
100
AcDbEntity
  8
0
 62
     0
100
AcDbLine
 10
53.58873896152275
 20
52.47727821645937
 30
0.0
 11
53.39745408550499
 21
52.66856309247711
 31
0.0
  0
LINE
  5
25B
330
F8
100
AcDbEntity
  8
0
 62
     0
100
AcDbLine
 10
54.272950248817
 20
51.79306692916512
 30
0.0
 11
54.08166537279925
 21
51.98435180518288
 31
0.0
  0
LINE
  5
25C
330
F8
100
AcDbEntity
  8
0
 62
     0
100
AcDbLine
 10
56.58924048268549
 20
49.29999999999999
 30
0.0
 11
55.88924048268548
 21
50.0
 31
0.0
  0
LINE
  5
25D
330
F8
100
AcDbEntity
  8
0
 62
     0
100
AcDbLine
 10
52.15561162565862
 20
53.73362885702686
 30
0.0
 11
49.7
 21
56.18924048268548
 31
0.0
  0
LINE
  5
25E
330
F8
100
AcDbEntity
  8
0
 62
     0
100
AcDbLine
 10
55.57666806212987
 20
50.31257242055562
 30
0.0
 11
55.35924050506338
 21
50.5299999776221
 31
0.0
  0
LINE
  5
25F
330
F8
100
AcDbEntity
  8
0
 62
     0
100
AcDbLine
 10
52.83982291295287
 20
53.04941756973262
 30
0.0
 11
52.64853803693512
 21
53.24070244575036
 31
0.0
  0
LINE
  5
260
330
F8
100
AcDbEntity
  8
0
 62
     0
100
AcDbLine
 10
54.89245677483562
 20
50.99678370784985
 30
0.0
 11
54.70117189881787
 21
51.18806858386761
 31
0.0
  0
LINE
  5
261
330
F8
100
AcDbEntity
  8
0
 62
     0
100
AcDbLine
 10
53.52403420024711
 20
52.36520628243836
 30
0.0
 11
53.33274932422937
 21
52.55649115845611
 31
0.0
  0
LINE
  5
262
330
F8
100
AcDbEntity
  8
0
 62
     0
100
AcDbLine
 10
54.20824548754136
 20
51.68099499514411
 30
0.0
 11
54.01696061152362
 21
51.87227987116187
 31
0.0
  0
LINE
  5
263
330
F8
100
AcDbEntity
  8
0
 62
     0
100
AcDbLine
 10
56.41246378738884
 20
49.29999999999999
 30
0.0
 11
55.71246378738885
 21
50.0
 31
0.0
  0
LINE
  5
264
330
F8
100
AcDbEntity
  8
0
 62
     0
100
AcDbLine
 10
52.09090686438298
 20
53.62155692300586
 30
0.0
 11
49.7
 21
56.01246378738885
 31
0.0
  0
LINE
  5
265
330
F8
100
AcDbEntity
  8
0
 62
     0
100
AcDbLine
 10
55.51196330085424
 20
50.20050048653461
 30
0.0
 11
55.27189275189623
 21
50.44057103549261
 31
0.0
  0
LINE
  5
266
330
F8
100
AcDbEntity
  8
0
 62
     0
100
AcDbLine
 10
52.77511815167724
 20
52.93734563571161
 30
0.0
 11
52.58383327565948
 21
53.12863051172935
 31
0.0
  0
LINE
  5
267
330
F8
100
AcDbEntity
  8
0
 62
     0
100
AcDbLine
 10
54.82775201355998
 20
50.88471177382885
 30
0.0
 11
54.63646713754225
 21
51.0759966498466
 31
0.0
  0
LINE
  5
268
330
F8
100
AcDbEntity
  8
0
 62
     0
100
AcDbLine
 10
53.45932943897149
 20
52.25313434841735
 30
0.0
 11
53.26804456295374
 21
52.4444192244351
 31
0.0
  0
LINE
  5
269
330
F8
100
AcDbEntity
  8
0
 62
     0
100
AcDbLine
 10
54.14354072626574
 20
51.5689230611231
 30
0.0
 11
53.952255850248
 21
51.76020793714086
 31
0.0
  0
LINE
  5
26A
330
F8
100
AcDbEntity
  8
0
 62
     0
100
AcDbLine
 10
56.2356870920922
 20
49.29999999999999
 30
0.0
 11
55.53568709209221
 21
50.0
 31
0.0
  0
LINE
  5
26B
330
F8
100
AcDbEntity
  8
0
 62
     0
100
AcDbLine
 10
52.02620210310736
 20
53.50948498898485
 30
0.0
 11
49.7
 21
55.8356870920922
 31
0.0
  0
LINE
  5
26C
330
F8
100
AcDbEntity
  8
0
 62
     0
100
AcDbLine
 10
55.4472585395786
 20
50.0884285525136
 30
0.0
 11
55.17765596568446
 21
50.35803112640774
 31
0.0
  0
LINE
  5
26D
330
F8
100
AcDbEntity
  8
0
 62
     0
100
AcDbLine
 10
52.71041339040161
 20
52.8252737016906
 30
0.0
 11
52.51912851438386
 21
53.01655857770835
 31
0.0
  0
LINE
  5
26E
330
F8
100
AcDbEntity
  8
0
 62
     0
100
AcDbLine
 10
54.76304725228436
 20
50.77263983980785
 30
0.0
 11
54.57176237626661
 21
50.9639247158256
 31
0.0
  0
LINE
  5
26F
330
F8
100
AcDbEntity
  8
0
 62
     0
100
AcDbLine
 10
53.39462467769585
 20
52.14106241439634
 30
0.0
 11
53.20333980167811
 21
52.33234729041409
 31
0.0
  0
LINE
  5
270
330
F8
100
AcDbEntity
  8
0
 62
     0
100
AcDbLine
 10
54.07883596499011
 20
51.4568511271021
 30
0.0
 11
53.88755108897236
 21
51.64813600311985
 31
0.0
  0
LINE
  5
271
330
F8
100
AcDbEntity
  8
0
 62
     0
100
AcDbLine
 10
56.05891039679557
 20
49.29999999999999
 30
0.0
 11
55.07642203059219
 21
50.28248836620337
 31
0.0
  0
LINE
  5
272
330
F8
100
AcDbEntity
  8
0
 62
     0
100
AcDbLine
 10
51.96149734183173
 20
53.39741305496384
 30
0.0
 11
49.7
 21
55.65891039679557
 31
0.0
  0
LINE
  5
273
330
F8
100
AcDbEntity
  8
0
 62
     0
100
AcDbLine
 10
54.67694625068611
 20
50.68196414610945
 30
0.0
 11
54.50825556998334
 21
50.85065482681223
 31
0.0
  0
LINE
  5
274
330
F8
100
AcDbEntity
  8
0
 62
     0
100
AcDbLine
 10
52.64570862912599
 20
52.71320176766959
 30
0.0
 11
52.45442375310823
 21
52.90448664368733
 31
0.0
  0
LINE
  5
275
330
F8
100
AcDbEntity
  8
0
 62
     0
100
AcDbLine
 10
54.01413120371447
 20
51.34477919308109
 30
0.0
 11
53.82284632769673
 21
51.53606406909885
 31
0.0
  0
LINE
  5
276
330
F8
100
AcDbEntity
  8
0
 62
     0
100
AcDbLine
 10
53.32991991642022
 20
52.02899048037534
 30
0.0
 11
53.13863504040248
 21
52.22027535639309
 31
0.0
  0
LINE
  5
277
330
F8
100
AcDbEntity
  8
0
 62
     0
100
AcDbLine
 10
55.88213370149894
 20
49.29999999999999
 30
0.0
 11
54.96794535495671
 21
50.21418834654222
 31
0.0
  0
LINE
  5
278
330
F8
100
AcDbEntity
  8
0
 62
     0
100
AcDbLine
 10
51.89679258055609
 20
53.28534112094284
 30
0.0
 11
49.7
 21
55.48213370149893
 31
0.0
  0
LINE
  5
279
330
F8
100
AcDbEntity
  8
0
 62
     0
100
AcDbLine
 10
53.94942644243885
 20
51.23270725906008
 30
0.0
 11
53.7581415664211
 21
51.42399213507784
 31
0.0
  0
LINE
  5
27A
330
F8
100
AcDbEntity
  8
0
 62
     0
100
AcDbLine
 10
52.58100386785034
 20
52.60112983364859
 30
0.0
 11
52.38971899183259
 21
52.79241470966633
 31
0.0
  0
LINE
  5
27B
330
F8
100
AcDbEntity
  8
0
 62
     0
100
AcDbLine
 10
53.2652151551446
 20
51.91691854635433
 30
0.0
 11
53.07393027912684
 21
52.10820342237209
 31
0.0
  0
LINE
  5
27C
330
F8
100
AcDbEntity
  8
0
 62
     0
100
AcDbLine
 10
55.70535700620229
 20
49.29999999999999
 30
0.0
 11
54.85181812166974
 21
50.15353888453255
 31
0.0
  0
LINE
  5
27D
330
F8
100
AcDbEntity
  8
0
 62
     0
100
AcDbLine
 10
51.83208781928047
 20
53.17326918692183
 30
0.0
 11
49.7
 21
55.3053570062023
 31
0.0
  0
LINE
  5
27E
330
F8
100
AcDbEntity
  8
0
 62
     0
100
AcDbLine
 10
53.88472168116321
 20
51.12063532503907
 30
0.0
 11
53.69343680514547
 21
51.31192020105683
 31
0.0
  0
LINE
  5
27F
330
F8
100
AcDbEntity
  8
0
 62
     0
100
AcDbLine
 10
52.51629910657472
 20
52.48905789962758
 30
0.0
 11
52.32501423055697
 21
52.68034277564532
 31
0.0
  0
LINE
  5
280
330
F8
100
AcDbEntity
  8
0
 62
     0
100
AcDbLine
 10
53.20051039386896
 20
51.80484661233332
 30
0.0
 11
53.00922551785122
 21
51.99613148835108
 31
0.0
  0
LINE
  5
281
330
F8
100
AcDbEntity
  8
0
 62
     0
100
AcDbLine
 10
55.52858031090566
 20
49.29999999999999
 30
0.0
 11
54.72742484441511
 21
50.10115546649054
 31
0.0
  0
LINE
  5
282
330
F8
100
AcDbEntity
  8
0
 62
     0
100
AcDbLine
 10
51.76738305800483
 20
53.06119725290082
 30
0.0
 11
49.7
 21
55.12858031090566
 31
0.0
  0
LINE
  5
283
330
F8
100
AcDbEntity
  8
0
 62
     0
100
AcDbLine
 10
53.82001846928937
 20
51.00856184161628
 30
0.0
 11
53.62873204386985
 21
51.19984826703582
 31
0.0
  0
LINE
  5
284
330
F8
100
AcDbEntity
  8
0
 62
     0
100
AcDbLine
 10
52.45159434529909
 20
52.37698596560658
 30
0.0
 11
52.26030946928133
 21
52.56827084162432
 31
0.0
  0
LINE
  5
285
330
F8
100
AcDbEntity
  8
0
 62
     0
100
AcDbLine
 10
53.13580563259333
 20
51.69277467831232
 30
0.0
 11
52.94452075657559
 21
51.88405955433007
 31
0.0
  0
LINE
  5
286
330
F8
100
AcDbEntity
  8
0
 62
     0
100
AcDbLine
 10
55.35180361560902
 20
49.29999999999999
 30
0.0
 11
54.59386306750004
 21
50.05794054810898
 31
0.0
  0
LINE
  5
287
330
F8
100
AcDbEntity
  8
0
 62
     0
100
AcDbLine
 10
51.70267829672921
 20
52.94912531887981
 30
0.0
 11
49.7
 21
54.95180361560902
 31
0.0
  0
LINE
  5
288
330
F8
100
AcDbEntity
  8
0
 62
     0
100
AcDbLine
 10
53.76528276490945
 20
50.88652085069957
 30
0.0
 11
53.56402728259421
 21
51.08777633301482
 31
0.0
  0
LINE
  5
289
330
F8
100
AcDbEntity
  8
0
 62
     0
100
AcDbLine
 10
52.38688958402345
 20
52.26491403158557
 30
0.0
 11
52.1956047080057
 21
52.4561989076033
 31
0.0
  0
LINE
  5
28A
330
F8
100
AcDbEntity
  8
0
 62
     0
100
AcDbLine
 10
53.0711008713177
 20
51.58070274429132
 30
0.0
 11
52.87981599529995
 21
51.77198762030906
 31
0.0
  0
LINE
  5
28B
330
F8
100
AcDbEntity
  8
0
 62
     0
100
AcDbLine
 10
55.17502692031238
 20
49.29999999999999
 30
0.0
 11
54.44980233428365
 21
50.02522458602873
 31
0.0
  0
LINE
  5
28C
330
F8
100
AcDbEntity
  8
0
 62
     0
100
AcDbLine
 10
51.63797353545358
 20
52.83705338485881
 30
0.0
 11
49.7
 21
54.77502692031238
 31
0.0
  0
LINE
  5
28D
330
F8
100
AcDbEntity
  8
0
 62
     0
100
AcDbLine
 10
53.73405326850029
 20
50.74097365181209
 30
0.0
 11
53.49932252131858
 21
50.97570439899381
 31
0.0
  0
LINE
  5
28E
330
F8
100
AcDbEntity
  8
0
 62
     0
100
AcDbLine
 10
52.32218482274783
 20
52.15284209756457
 30
0.0
 11
52.13089994673008
 21
52.3441269735823
 31
0.0
  0
LINE
  5
28F
330
F8
100
AcDbEntity
  8
0
 62
     0
100
AcDbLine
 10
53.00639611004207
 20
51.46863081027031
 30
0.0
 11
52.81511123402433
 21
51.65991568628806
 31
0.0
  0
LINE
  5
290
330
F8
100
AcDbEntity
  8
0
 62
     0
100
AcDbLine
 10
54.99825022501575
 20
49.29999999999999
 30
0.0
 11
54.28172923789315
 21
50.01652098712259
 31
0.0
  0
LINE
  5
291
330
F8
100
AcDbEntity
  8
0
 62
     0
100
AcDbLine
 10
51.57326877417794
 20
52.7249814508378
 30
0.0
 11
49.7
 21
54.59825022501575
 31
0.0
  0
LINE
  5
292
330
F8
100
AcDbEntity
  8
0
 62
     0
100
AcDbLine
 10
53.74067708771692
 20
50.55757313729883
 30
0.0
 11
53.43461776004295
 21
50.8636324649728
 31
0.0
  0
LINE
  5
293
330
F8
100
AcDbEntity
  8
0
 62
     0
100
AcDbLine
 10
52.2574800614722
 20
52.04077016354355
 30
0.0
 11
52.06619518545444
 21
52.2320550395613
 31
0.0
  0
LINE
  5
294
330
F8
100
AcDbEntity
  8
0
 62
     0
100
AcDbLine
 10
52.94169134876644
 20
51.3565588762493
 30
0.0
 11
52.7504064727487
 21
51.54784375226705
 31
0.0
  0
LINE
  5
295
330
F8
100
AcDbEntity
  8
0
 62
     0
100
AcDbLine
 10
54.82147352971911
 20
49.29999999999999
 30
0.0
 11
53.36991299876732
 21
50.7515605309518
 31
0.0
  0
LINE
  5
296
330
F8
100
AcDbEntity
  8
0
 62
     0
100
AcDbLine
 10
51.50856401290232
 20
52.61290951681679
 30
0.0
 11
49.7
 21
54.42147352971911
 31
0.0
  0
LINE
  5
297
330
F8
100
AcDbEntity
  8
0
 62
     0
100
AcDbLine
 10
52.87698658749081
 20
51.24448694222829
 30
0.0
 11
52.68570171147306
 21
51.43577181824603
 31
0.0
  0
LINE
  5
298
330
F8
100
AcDbEntity
  8
0
 62
     0
100
AcDbLine
 10
52.19277530019657
 20
51.92869822952254
 30
0.0
 11
52.00149042417881
 21
52.11998310554029
 31
0.0
  0
LINE
  5
299
330
F8
100
AcDbEntity
  8
0
 62
     0
100
AcDbLine
 10
54.64469683442247
 20
49.29999999999999
 30
0.0
 11
53.30520823749169
 21
50.63948859693079
 31
0.0
  0
LINE
  5
29A
330
F8
100
AcDbEntity
  8
0
 62
     0
100
AcDbLine
 10
51.44385925162668
 20
52.50083758279579
 30
0.0
 11
49.7
 21
54.24469683442247
 31
0.0
  0
LINE
  5
29B
330
F8
100
AcDbEntity
  8
0
 62
     0
100
AcDbLine
 10
52.81228182621518
 20
51.13241500820729
 30
0.0
 11
52.62099695019744
 21
51.32369988422503
 31
0.0
  0
LINE
  5
29C
330
F8
100
AcDbEntity
  8
0
 62
     0
100
AcDbLine
 10
52.12807053892094
 20
51.81662629550154
 30
0.0
 11
51.93678566290318
 21
52.00791117151928
 31
0.0
  0
LINE
  5
29D
330
F8
100
AcDbEntity
  8
0
 62
     0
100
AcDbLine
 10
54.46792013912584
 20
49.29999999999999
 30
0.0
 11
53.24050347621606
 21
50.52741666290978
 31
0.0
  0
LINE
  5
29E
330
F8
100
AcDbEntity
  8
0
 62
     0
100
AcDbLine
 10
51.37915449035105
 20
52.38876564877479
 30
0.0
 11
49.7
 21
54.06792013912584
 31
0.0
  0
LINE
  5
29F
330
F8
100
AcDbEntity
  8
0
 62
     0
100
AcDbLine
 10
52.74757706493955
 20
51.02034307418628
 30
0.0
 11
52.55629218892181
 21
51.21162795020403
 31
0.0
  0
LINE
  5
2A0
330
F8
100
AcDbEntity
  8
0
 62
     0
100
AcDbLine
 10
52.06336577764531
 20
51.70455436148053
 30
0.0
 11
51.87208090162755
 21
51.89583923749828
 31
0.0
  0
LINE
  5
2A1
330
F8
100
AcDbEntity
  8
0
 62
     0
100
AcDbLine
 10
54.2911434438292
 20
49.29999999999999
 30
0.0
 11
53.17579871494043
 21
50.41534472888877
 31
0.0
  0
LINE
  5
2A2
330
F8
100
AcDbEntity
  8
0
 62
     0
100
AcDbLine
 10
51.31444972907543
 20
52.27669371475378
 30
0.0
 11
49.7
 21
53.8911434438292
 31
0.0
  0
LINE
  5
2A3
330
F8
100
AcDbEntity
  8
0
 62
     0
100
AcDbLine
 10
52.68287230366392
 20
50.90827114016527
 30
0.0
 11
52.49158742764618
 21
51.09955601618302
 31
0.0
  0
LINE
  5
2A4
330
F8
100
AcDbEntity
  8
0
 62
     0
100
AcDbLine
 10
51.99866101636968
 20
51.59248242745952
 30
0.0
 11
51.80737614035192
 21
51.78376730347727
 31
0.0
  0
LINE
  5
2A5
330
F8
100
AcDbEntity
  8
0
 62
     0
100
AcDbLine
 10
54.11436674853256
 20
49.29999999999999
 30
0.0
 11
53.1110939536648
 21
50.30327279486777
 31
0.0
  0
LINE
  5
2A6
330
F8
100
AcDbEntity
  8
0
 62
     0
100
AcDbLine
 10
51.2497449677998
 20
52.16462178073277
 30
0.0
 11
49.7
 21
53.71436674853256
 31
0.0
  0
LINE
  5
2A7
330
F8
100
AcDbEntity
  8
0
 62
     0
100
AcDbLine
 10
52.61816754238829
 20
50.79619920614426
 30
0.0
 11
52.42688266637054
 21
50.98748408216201
 31
0.0
  0
LINE
  5
2A8
330
F8
100
AcDbEntity
  8
0
 62
     0
100
AcDbLine
 10
51.93395625509405
 20
51.48041049343852
 30
0.0
 11
51.74267137907629
 21
51.67169536945626
 31
0.0
  0
LINE
  5
2A9
330
F8
100
AcDbEntity
  8
0
 62
     0
100
AcDbLine
 10
53.93759005323593
 20
49.29999999999999
 30
0.0
 11
53.04638919238917
 21
50.19120086084676
 31
0.0
  0
LINE
  5
2AA
330
F8
100
AcDbEntity
  8
0
 62
     0
100
AcDbLine
 10
51.18504020652416
 20
52.05254984671176
 30
0.0
 11
49.7
 21
53.53759005323593
 31
0.0
  0
LINE
  5
2AB
330
F8
100
AcDbEntity
  8
0
 62
     0
100
AcDbLine
 10
52.55346278111266
 20
50.68412727212326
 30
0.0
 11
52.36217790509492
 21
50.87541214814101
 31
0.0
  0
LINE
  5
2AC
330
F8
100
AcDbEntity
  8
0
 62
     0
100
AcDbLine
 10
51.86925149381842
 20
51.36833855941752
 30
0.0
 11
51.67796661780066
 21
51.55962343543525
 31
0.0
  0
LINE
  5
2AD
330
F8
100
AcDbEntity
  8
0
 62
     0
100
AcDbLine
 10
53.76081335793929
 20
49.29999999999999
 30
0.0
 11
52.98168443111354
 21
50.07912892682576
 31
0.0
  0
LINE
  5
2AE
330
F8
100
AcDbEntity
  8
0
 62
     0
100
AcDbLine
 10
51.12033544524853
 20
51.94047791269076
 30
0.0
 11
49.7
 21
53.36081335793929
 31
0.0
  0
LINE
  5
2AF
330
F8
100
AcDbEntity
  8
0
 62
     0
100
AcDbLine
 10
52.48875801983703
 20
50.57205533810225
 30
0.0
 11
52.29747314381929
 21
50.76334021412
 31
0.0
  0
LINE
  5
2B0
330
F8
100
AcDbEntity
  8
0
 62
     0
100
AcDbLine
 10
51.80454673254279
 20
51.25626662539651
 30
0.0
 11
51.61326185652503
 21
51.44755150141425
 31
0.0
  0
LINE
  5
2B1
330
F8
100
AcDbEntity
  8
0
 62
     0
100
AcDbLine
 10
53.58403666264266
 20
49.29999999999999
 30
0.0
 11
52.88403666264265
 21
50.0
 31
0.0
  0
LINE
  5
2B2
330
F8
100
AcDbEntity
  8
0
 62
     0
100
AcDbLine
 10
51.05563068397291
 20
51.82840597866975
 30
0.0
 11
49.7
 21
53.18403666264265
 31
0.0
  0
LINE
  5
2B3
330
F8
100
AcDbEntity
  8
0
 62
     0
100
AcDbLine
 10
52.4240532585614
 20
50.45998340408125
 30
0.0
 11
52.23276838254366
 21
50.65126828009899
 31
0.0
  0
LINE
  5
2B4
330
F8
100
AcDbEntity
  8
0
 62
     0
100
AcDbLine
 10
51.73984197126716
 20
51.1441946913755
 30
0.0
 11
51.5485570952494
 21
51.33547956739324
 31
0.0
  0
LINE
  5
2B5
330
F8
100
AcDbEntity
  8
0
 62
     0
100
AcDbLine
 10
53.40725996734601
 20
49.29999999999999
 30
0.0
 11
52.70725996734602
 21
50.0
 31
0.0
  0
LINE
  5
2B6
330
F8
100
AcDbEntity
  8
0
 62
     0
100
AcDbLine
 10
50.99092592269727
 20
51.71633404464874
 30
0.0
 11
49.7
 21
53.00725996734602
 31
0.0
  0
LINE
  5
2B7
330
F8
100
AcDbEntity
  8
0
 62
     0
100
AcDbLine
 10
52.35934849728577
 20
50.34791147006024
 30
0.0
 11
52.16806362126803
 21
50.53919634607798
 31
0.0
  0
LINE
  5
2B8
330
F8
100
AcDbEntity
  8
0
 62
     0
100
AcDbLine
 10
51.67513720999153
 20
51.03212275735449
 30
0.0
 11
51.48385233397377
 21
51.22340763337223
 31
0.0
  0
LINE
  5
2B9
330
F8
100
AcDbEntity
  8
0
 62
     0
100
AcDbLine
 10
53.23048327204938
 20
49.29999999999999
 30
0.0
 11
52.53048327204939
 21
50.0
 31
0.0
  0
LINE
  5
2BA
330
F8
100
AcDbEntity
  8
0
 62
     0
100
AcDbLine
 10
50.92622116142164
 20
51.60426211062773
 30
0.0
 11
49.7
 21
52.83048327204937
 31
0.0
  0
LINE
  5
2BB
330
F8
100
AcDbEntity
  8
0
 62
     0
100
AcDbLine
 10
52.29464373601014
 20
50.23583953603924
 30
0.0
 11
52.10335885999239
 21
50.42712441205698
 31
0.0
  0
LINE
  5
2BC
330
F8
100
AcDbEntity
  8
0
 62
     0
100
AcDbLine
 10
51.61043244871589
 20
50.92005082333349
 30
0.0
 11
51.41914757269814
 21
51.11133569935123
 31
0.0
  0
LINE
  5
2BD
330
F8
100
AcDbEntity
  8
0
 62
     0
100
AcDbLine
 10
53.05370657675275
 20
49.29999999999999
 30
0.0
 11
52.35370657675275
 21
50.0
 31
0.0
  0
LINE
  5
2BE
330
F8
100
AcDbEntity
  8
0
 62
     0
100
AcDbLine
 10
50.86151640014602
 20
51.49219017660673
 30
0.0
 11
49.7
 21
52.65370657675275
 31
0.0
  0
LINE
  5
2BF
330
F8
100
AcDbEntity
  8
0
 62
     0
100
AcDbLine
 10
52.2299389747345
 20
50.12376760201822
 30
0.0
 11
52.03865409871677
 21
50.31505247803597
 31
0.0
  0
LINE
  5
2C0
330
F8
100
AcDbEntity
  8
0
 62
     0
100
AcDbLine
 10
51.54572768744027
 20
50.80797888931248
 30
0.0
 11
51.35444281142251
 21
50.99926376533023
 31
0.0
  0
LINE
  5
2C1
330
F8
100
AcDbEntity
  8
0
 62
     0
100
AcDbLine
 10
52.87692988145611
 20
49.29999999999999
 30
0.0
 11
52.17692988145611
 21
50.0
 31
0.0
  0
LINE
  5
2C2
330
F8
100
AcDbEntity
  8
0
 62
     0
100
AcDbLine
 10
50.79681163887038
 20
51.38011824258573
 30
0.0
 11
49.7
 21
52.47692988145611
 31
0.0
  0
LINE
  5
2C3
330
F8
100
AcDbEntity
  8
0
 62
     0
100
AcDbLine
 10
52.16523421345888
 20
50.01169566799722
 30
0.0
 11
51.97394933744114
 21
50.20298054401497
 31
0.0
  0
LINE
  5
2C4
330
F8
100
AcDbEntity
  8
0
 62
     0
100
AcDbLine
 10
51.48102292616464
 20
50.69590695529147
 30
0.0
 11
51.28973805014688
 21
50.88719183130922
 31
0.0
  0
LINE
  5
2C5
330
F8
100
AcDbEntity
  8
0
 62
     0
100
AcDbLine
 10
52.70015318615946
 20
49.29999999999999
 30
0.0
 11
51.9092445761655
 21
50.09090860999396
 31
0.0
  0
LINE
  5
2C6
330
F8
100
AcDbEntity
  8
0
 62
     0
100
AcDbLine
 10
50.73210687759475
 20
51.26804630856472
 30
0.0
 11
49.7
 21
52.30015318615947
 31
0.0
  0
LINE
  5
2C7
330
F8
100
AcDbEntity
  8
0
 62
     0
100
AcDbLine
 10
51.416318164889
 20
50.58383502127046
 30
0.0
 11
51.22503328887125
 21
50.77511989728821
 31
0.0
  0
LINE
  5
2C8
330
F8
100
AcDbEntity
  8
0
 62
     0
100
AcDbLine
 10
52.52337649086283
 20
49.29999999999999
 30
0.0
 11
51.82337649086283
 21
50.0
 31
0.0
  0
LINE
  5
2C9
330
F8
100
AcDbEntity
  8
0
 62
     0
100
AcDbLine
 10
50.66740211631913
 20
51.15597437454371
 30
0.0
 11
49.7
 21
52.12337649086283
 31
0.0
  0
LINE
  5
2CA
330
F8
100
AcDbEntity
  8
0
 62
     0
100
AcDbLine
 10
51.35161340361338
 20
50.47176308724946
 30
0.0
 11
51.16032852759562
 21
50.6630479632672
 31
0.0
  0
LINE
  5
2CB
330
F8
100
AcDbEntity
  8
0
 62
     0
100
AcDbLine
 10
52.3465997955662
 20
49.29999999999999
 30
0.0
 11
51.6465997955662
 21
50.0
 31
0.0
  0
LINE
  5
2CC
330
F8
100
AcDbEntity
  8
0
 62
     0
100
AcDbLine
 10
50.60269735504349
 20
51.04390244052271
 30
0.0
 11
49.7
 21
51.94659979556619
 31
0.0
  0
LINE
  5
2CD
330
F8
100
AcDbEntity
  8
0
 62
     0
100
AcDbLine
 10
51.28690864233774
 20
50.35969115322846
 30
0.0
 11
51.09562376631998
 21
50.5509760292462
 31
0.0
  0
LINE
  5
2CE
330
F8
100
AcDbEntity
  8
0
 62
     0
100
AcDbLine
 10
52.16982310026956
 20
49.29999999999999
 30
0.0
 11
51.46982310026956
 21
50.0
 31
0.0
  0
LINE
  5
2CF
330
F8
100
AcDbEntity
  8
0
 62
     0
100
AcDbLine
 10
50.53799259376786
 20
50.9318305065017
 30
0.0
 11
49.7
 21
51.76982310026956
 31
0.0
  0
LINE
  5
2D0
330
F8
100
AcDbEntity
  8
0
 62
     0
100
AcDbLine
 10
51.22220388106212
 20
50.24761921920744
 30
0.0
 11
51.03091900504436
 21
50.43890409522519
 31
0.0
  0
LINE
  5
2D1
330
F8
100
AcDbEntity
  8
0
 62
     0
100
AcDbLine
 10
51.99304640497292
 20
49.29999999999999
 30
0.0
 11
51.29304640497292
 21
50.0
 31
0.0
  0
LINE
  5
2D2
330
F8
100
AcDbEntity
  8
0
 62
     0
100
AcDbLine
 10
50.47328783249223
 20
50.81975857248069
 30
0.0
 11
49.7
 21
51.59304640497293
 31
0.0
  0
LINE
  5
2D3
330
F8
100
AcDbEntity
  8
0
 62
     0
100
AcDbLine
 10
51.15749911978649
 20
50.13554728518644
 30
0.0
 11
50.96621424376873
 21
50.32683216120418
 31
0.0
  0
LINE
  5
2D4
330
F8
100
AcDbEntity
  8
0
 62
     0
100
AcDbLine
 10
51.81626970967628
 20
49.29999999999999
 30
0.0
 11
51.11626970967629
 21
50.0
 31
0.0
  0
LINE
  5
2D5
330
F8
100
AcDbEntity
  8
0
 62
     0
100
AcDbLine
 10
50.4085830712166
 20
50.70768663845968
 30
0.0
 11
49.7
 21
51.41626970967628
 31
0.0
  0
LINE
  5
2D6
330
F8
100
AcDbEntity
  8
0
 62
     0
100
AcDbLine
 10
51.09279435851085
 20
50.02347535116543
 30
0.0
 11
50.90150948249309
 21
50.21476022718317
 31
0.0
  0
LINE
  5
2D7
330
F8
100
AcDbEntity
  8
0
 62
     0
100
AcDbLine
 10
51.63949301437964
 20
49.29999999999999
 30
0.0
 11
50.83680472121747
 21
50.10268829316217
 31
0.0
  0
LINE
  5
2D8
330
F8
100
AcDbEntity
  8
0
 62
     0
100
AcDbLine
 10
50.34387830994097
 20
50.59561470443868
 30
0.0
 11
49.7
 21
51.23949301437964
 31
0.0
  0
LINE
  5
2D9
330
F8
100
AcDbEntity
  8
0
 62
     0
100
AcDbLine
 10
51.46271631908302
 20
49.29999999999999
 30
0.0
 11
50.76271631908301
 21
50.0
 31
0.0
  0
LINE
  5
2DA
330
F8
100
AcDbEntity
  8
0
 62
     0
100
AcDbLine
 10
50.27917354866534
 20
50.48354277041767
 30
0.0
 11
49.7
 21
51.06271631908301
 31
0.0
  0
LINE
  5
2DB
330
F8
100
AcDbEntity
  8
0
 62
     0
100
AcDbLine
 10
51.28593962378637
 20
49.29999999999999
 30
0.0
 11
50.58593962378637
 21
50.0
 31
0.0
  0
LINE
  5
2DC
330
F8
100
AcDbEntity
  8
0
 62
     0
100
AcDbLine
 10
50.21446878738971
 20
50.37147083639666
 30
0.0
 11
49.7
 21
50.88593962378638
 31
0.0
  0
LINE
  5
2DD
330
F8
100
AcDbEntity
  8
0
 62
     0
100
AcDbLine
 10
51.10916292848973
 20
49.29999999999999
 30
0.0
 11
50.40916292848974
 21
50.0
 31
0.0
  0
LINE
  5
2DE
330
F8
100
AcDbEntity
  8
0
 62
     0
100
AcDbLine
 10
50.14976402611408
 20
50.25939890237566
 30
0.0
 11
49.7
 21
50.70916292848973
 31
0.0
  0
LINE
  5
2DF
330
F8
100
AcDbEntity
  8
0
 62
     0
100
AcDbLine
 10
50.9323862331931
 20
49.29999999999999
 30
0.0
 11
50.2323862331931
 21
50.0
 31
0.0
  0
LINE
  5
2E0
330
F8
100
AcDbEntity
  8
0
 62
     0
100
AcDbLine
 10
50.08505926483845
 20
50.14732696835466
 30
0.0
 11
49.7
 21
50.5323862331931
 31
0.0
  0
LINE
  5
2E1
330
F8
100
AcDbEntity
  8
0
 62
     0
100
AcDbLine
 10
50.75560953789646
 20
49.29999999999999
 30
0.0
 11
50.05560953789647
 21
50.0
 31
0.0
  0
LINE
  5
2E2
330
F8
100
AcDbEntity
  8
0
 62
     0
100
AcDbLine
 10
50.02035450356282
 20
50.03525503433364
 30
0.0
 11
49.7
 21
50.35560953789646
 31
0.0
  0
LINE
  5
2E3
330
F8
100
AcDbEntity
  8
0
 62
     0
100
AcDbLine
 10
50.57883284259983
 20
49.29999999999999
 30
0.0
 11
49.7
 21
50.17883284259982
 31
0.0
  0
LINE
  5
2E4
330
F8
100
AcDbEntity
  8
0
 62
     0
100
AcDbLine
 10
50.40205614730319
 20
49.29999999999999
 30
0.0
 11
49.7
 21
50.00205614730319
 31
0.0
  0
LINE
  5
2E5
330
F8
100
AcDbEntity
  8
0
 62
     0
100
AcDbLine
 10
50.22527945200655
 20
49.29999999999999
 30
0.0
 11
49.7
 21
49.82527945200655
 31
0.0
  0
LINE
  5
2E6
330
F8
100
AcDbEntity
  8
0
 62
     0
100
AcDbLine
 10
50.04850275670992
 20
49.29999999999999
 30
0.0
 11
49.7
 21
49.64850275670992
 31
0.0
  0
LINE
  5
2E7
330
F8
100
AcDbEntity
  8
0
 62
     0
100
AcDbLine
 10
49.87172606141328
 20
49.29999999999999
 30
0.0
 11
49.7
 21
49.47172606141328
 31
0.0
  0
LINE
  5
2E8
330
F8
100
AcDbEntity
  8
0
 62
     0
100
AcDbLine
 10
59.7
 20
49.37122099802494
 30
0.0
 11
57.23428017636773
 21
51.83694082165723
 31
0.0
  0
LINE
  5
2E9
330
F8
100
AcDbEntity
  8
0
 62
     0
100
AcDbLine
 10
53.62251076863159
 20
55.44871022939336
 30
0.0
 11
49.77122099802494
 21
59.29999999999999
 31
0.0
  0
LINE
  5
2EA
330
F8
100
AcDbEntity
  8
0
 62
     0
100
AcDbLine
 10
56.74135376509121
 20
52.32986723293373
 30
0.0
 11
56.55006888907347
 21
52.52115210895148
 31
0.0
  0
LINE
  5
2EB
330
F8
100
AcDbEntity
  8
0
 62
     0
100
AcDbLine
 10
54.68871990320845
 20
54.38250109481647
 30
0.0
 11
54.49743502719071
 21
54.57378597083422
 31
0.0
  0
LINE
  5
2EC
330
F8
100
AcDbEntity
  8
0
 62
     0
100
AcDbLine
 10
56.37170000000001
 20
52.69952099802495
 30
0.0
 11
56.1104
 21
52.96082099802495
 31
0.0
  0
LINE
  5
2ED
330
F8
100
AcDbEntity
  8
0
 62
     0
100
AcDbLine
 10
55.43705
 20
53.63417099802495
 30
0.0
 11
55.18164631448496
 21
53.88957468353999
 31
0.0
  0
LINE
  5
2EE
330
F8
100
AcDbEntity
  8
0
 62
     0
100
AcDbLine
 10
59.7
 20
49.54799769332158
 30
0.0
 11
57.29898493764335
 21
51.94901275567823
 31
0.0
  0
LINE
  5
2EF
330
F8
100
AcDbEntity
  8
0
 62
     0
100
AcDbLine
 10
53.76100996859839
 20
55.48698772472319
 30
0.0
 11
49.94799769332158
 21
59.29999999999999
 31
0.0
  0
LINE
  5
2F0
330
F8
100
AcDbEntity
  8
0
 62
     0
100
AcDbLine
 10
56.80605852636684
 20
52.44193916695474
 30
0.0
 11
56.6147736503491
 21
52.63322404297248
 31
0.0
  0
LINE
  5
2F1
330
F8
100
AcDbEntity
  8
0
 62
     0
100
AcDbLine
 10
54.7534246644841
 20
54.49457302883748
 30
0.0
 11
54.56213978846633
 21
54.68585790485524
 31
0.0
  0
LINE
  5
2F2
330
F8
100
AcDbEntity
  8
0
 62
     0
100
AcDbLine
 10
56.37170000000001
 20
52.87629769332158
 30
0.0
 11
56.11039999999999
 21
53.13759769332158
 31
0.0
  0
LINE
  5
2F3
330
F8
100
AcDbEntity
  8
0
 62
     0
100
AcDbLine
 10
55.43763595177835
 20
53.81036174154324
 30
0.0
 11
55.2463510757606
 21
54.00164661756099
 31
0.0
  0
LINE
  5
2F4
330
F8
100
AcDbEntity
  8
0
 62
     0
100
AcDbLine
 10
59.7
 20
49.72477438861822
 30
0.0
 11
57.36368969891898
 21
52.06108468969924
 31
0.0
  0
LINE
  5
2F5
330
F8
100
AcDbEntity
  8
0
 62
     0
100
AcDbLine
 10
53.91197130082819
 20
55.51280308779002
 30
0.0
 11
50.12477438861822
 21
59.29999999999999
 31
0.0
  0
LINE
  5
2F6
330
F8
100
AcDbEntity
  8
0
 62
     0
100
AcDbLine
 10
56.87076328764248
 20
52.55401110097575
 30
0.0
 11
56.67947841162472
 21
52.74529597699348
 31
0.0
  0
LINE
  5
2F7
330
F8
100
AcDbEntity
  8
0
 62
     0
100
AcDbLine
 10
54.81812942575972
 20
54.60664496285849
 30
0.0
 11
54.62714817948256
 21
54.79762620913565
 31
0.0
  0
LINE
  5
2F8
330
F8
100
AcDbEntity
  8
0
 62
     0
100
AcDbLine
 10
56.37170000000001
 20
53.05307438861822
 30
0.0
 11
56.11039999999999
 21
53.31437438861822
 31
0.0
  0
LINE
  5
2F9
330
F8
100
AcDbEntity
  8
0
 62
     0
100
AcDbLine
 10
55.50234071305397
 20
53.92243367556424
 30
0.0
 11
55.31105583703623
 21
54.11371855158201
 31
0.0
  0
LINE
  5
2FA
330
F8
100
AcDbEntity
  8
0
 62
     0
100
AcDbLine
 10
59.7
 20
49.90155108391485
 30
0.0
 11
57.42839446019461
 21
52.17315662372024
 31
0.0
  0
LINE
  5
2FB
330
F8
100
AcDbEntity
  8
0
 62
     0
100
AcDbLine
 10
54.11650580677893
 20
55.48504527713593
 30
0.0
 11
50.30155108391486
 21
59.29999999999999
 31
0.0
  0
LINE
  5
2FC
330
F8
100
AcDbEntity
  8
0
 62
     0
100
AcDbLine
 10
56.9354680489181
 20
52.66608303499675
 30
0.0
 11
56.74418317290037
 21
52.8573679110145
 31
0.0
  0
LINE
  5
2FD
330
F8
100
AcDbEntity
  8
0
 62
     0
100
AcDbLine
 10
54.86470014005274
 20
54.73685094386212
 30
0.0
 11
54.7480850314324
 21
54.85346605248246
 31
0.0
  0
LINE
  5
2FE
330
F8
100
AcDbEntity
  8
0
 62
     0
100
AcDbLine
 10
56.37170000000001
 20
53.22985108391486
 30
0.0
 11
56.11039999999999
 21
53.49115108391485
 31
0.0
  0
LINE
  5
2FF
330
F8
100
AcDbEntity
  8
0
 62
     0
100
AcDbLine
 10
55.56704547432961
 20
54.03450560958525
 30
0.0
 11
55.37576059831185
 21
54.22579048560301
 31
0.0
  0
LINE
  5
300
330
F8
100
AcDbEntity
  8
0
 62
     0
100
AcDbLine
 10
59.7
 20
50.07832777921149
 30
0.0
 11
57.49309922147024
 21
52.28522855774126
 31
0.0
  0
LINE
  5
301
330
F8
100
AcDbEntity
  8
0
 62
     0
100
AcDbLine
 10
54.46682841024159
 20
55.31149936896989
 30
0.0
 11
50.47832777921149
 21
59.29999999999999
 31
0.0
  0
LINE
  5
302
330
F8
100
AcDbEntity
  8
0
 62
     0
100
AcDbLine
 10
57.00017281019373
 20
52.77815496901776
 30
0.0
 11
56.80888793417599
 21
52.9694398450355
 31
0.0
  0
LINE
  5
303
330
F8
100
AcDbEntity
  8
0
 62
     0
100
AcDbLine
 10
55.63175023560524
 20
54.14657754360626
 30
0.0
 11
55.44046535958749
 21
54.33786241962401
 31
0.0
  0
LINE
  5
304
330
F8
100
AcDbEntity
  8
0
 62
     0
100
AcDbLine
 10
56.37170000000001
 20
53.40662777921149
 30
0.0
 11
56.12467664688175
 21
53.65365113232975
 31
0.0
  0
LINE
  5
305
330
F8
100
AcDbEntity
  8
0
 62
     0
100
AcDbLine
 10
59.7
 20
50.25510447450812
 30
0.0
 11
57.55780398274588
 21
52.39730049176227
 31
0.0
  0
LINE
  5
306
330
F8
100
AcDbEntity
  8
0
 62
     0
100
AcDbLine
 10
54.56002855516136
 20
55.39507591934675
 30
0.0
 11
50.65510447450813
 21
59.29999999999999
 31
0.0
  0
LINE
  5
307
330
F8
100
AcDbEntity
  8
0
 62
     0
100
AcDbLine
 10
57.06487757146937
 20
52.89022690303877
 30
0.0
 11
56.87359269545162
 21
53.08151177905651
 31
0.0
  0
LINE
  5
308
330
F8
100
AcDbEntity
  8
0
 62
     0
100
AcDbLine
 10
55.69645499688086
 20
54.25864947762726
 30
0.0
 11
55.50517012086311
 21
54.44993435364501
 31
0.0
  0
LINE
  5
309
330
F8
100
AcDbEntity
  8
0
 62
     0
100
AcDbLine
 10
56.38066628417512
 20
53.57443819033301
 30
0.0
 11
56.18938140815737
 21
53.76572306635076
 31
0.0
  0
LINE
  5
30A
330
F8
100
AcDbEntity
  8
0
 62
     0
100
AcDbLine
 10
59.7
 20
50.43188116980477
 30
0.0
 11
57.6225087440215
 21
52.50937242578327
 31
0.0
  0
LINE
  5
30B
330
F8
100
AcDbEntity
  8
0
 62
     0
100
AcDbLine
 10
54.67035250845157
 20
55.4615286613532
 30
0.0
 11
50.83188116980476
 21
59.29999999999999
 31
0.0
  0
LINE
  5
30C
330
F8
100
AcDbEntity
  8
0
 62
     0
100
AcDbLine
 10
57.12958233274499
 20
53.00229883705977
 30
0.0
 11
56.93829745672726
 21
53.19358371307751
 31
0.0
  0
LINE
  5
30D
330
F8
100
AcDbEntity
  8
0
 62
     0
100
AcDbLine
 10
55.7611597581565
 20
54.37072141164827
 30
0.0
 11
55.56840518693239
 21
54.56347598287237
 31
0.0
  0
LINE
  5
30E
330
F8
100
AcDbEntity
  8
0
 62
     0
100
AcDbLine
 10
56.44537104545074
 20
53.68651012435401
 30
0.0
 11
56.254086169433
 21
53.87779500037177
 31
0.0
  0
LINE
  5
30F
330
F8
100
AcDbEntity
  8
0
 62
     0
100
AcDbLine
 10
59.7
 20
50.60865786510141
 30
0.0
 11
57.68721350529713
 21
52.62144435980427
 31
0.0
  0
LINE
  5
310
330
F8
100
AcDbEntity
  8
0
 62
     0
100
AcDbLine
 10
54.80055821565544
 20
55.50809964944596
 30
0.0
 11
51.00865786510141
 21
59.29999999999999
 31
0.0
  0
LINE
  5
311
330
F8
100
AcDbEntity
  8
0
 62
     0
100
AcDbLine
 10
57.19428709402063
 20
53.11437077108077
 30
0.0
 11
57.00300221800288
 21
53.30565564709853
 31
0.0
  0
LINE
  5
312
330
F8
100
AcDbEntity
  8
0
 62
     0
100
AcDbLine
 10
55.82586451943213
 20
54.48279334566929
 30
0.0
 11
55.61497617502515
 21
54.69368169007625
 31
0.0
  0
LINE
  5
313
330
F8
100
AcDbEntity
  8
0
 62
     0
100
AcDbLine
 10
56.51007580672637
 20
53.79858205837503
 30
0.0
 11
56.31879093070864
 21
53.98986693439278
 31
0.0
  0
LINE
  5
314
330
F8
100
AcDbEntity
  8
0
 62
     0
100
AcDbLine
 10
59.7
 20
50.78543456039803
 30
0.0
 11
57.75191826657277
 21
52.73351629382528
 31
0.0
  0
LINE
  5
315
330
F8
100
AcDbEntity
  8
0
 62
     0
100
AcDbLine
 10
54.95794162704146
 20
55.52749293335658
 30
0.0
 11
51.18543456039804
 21
59.29999999999999
 31
0.0
  0
LINE
  5
316
330
F8
100
AcDbEntity
  8
0
 62
     0
100
AcDbLine
 10
57.25899185529625
 20
53.22644270510179
 30
0.0
 11
57.06770697927851
 21
53.41772758111953
 31
0.0
  0
LINE
  5
317
330
F8
100
AcDbEntity
  8
0
 62
     0
100
AcDbLine
 10
55.89056928070776
 20
54.59486527969029
 30
0.0
 11
55.63436945893577
 21
54.85106510146226
 31
0.0
  0
LINE
  5
318
330
F8
100
AcDbEntity
  8
0
 62
     0
100
AcDbLine
 10
56.57478056800201
 20
53.91065399239604
 30
0.0
 11
56.38349569198426
 21
54.10193886841378
 31
0.0
  0
LINE
  5
319
330
F8
100
AcDbEntity
  8
0
 62
     0
100
AcDbLine
 10
59.7
 20
50.96221125569467
 30
0.0
 11
57.81662302784839
 21
52.84558822784629
 31
0.0
  0
LINE
  5
31A
330
F8
100
AcDbEntity
  8
0
 62
     0
100
AcDbLine
 10
55.1669820540372
 20
55.49522920165747
 30
0.0
 11
51.36221125569467
 21
59.29999999999999
 31
0.0
  0
LINE
  5
31B
330
F8
100
AcDbEntity
  8
0
 62
     0
100
AcDbLine
 10
57.32369661657188
 20
53.33851463912279
 30
0.0
 11
57.13241174055415
 21
53.52979951514054
 31
0.0
  0
LINE
  5
31C
330
F8
100
AcDbEntity
  8
0
 62
     0
100
AcDbLine
 10
55.95527404198339
 20
54.7069372137113
 30
0.0
 11
55.60210572723667
 21
55.060105528458
 31
0.0
  0
LINE
  5
31D
330
F8
100
AcDbEntity
  8
0
 62
     0
100
AcDbLine
 10
56.63948532927763
 20
54.02272592641704
 30
0.0
 11
56.44820045325989
 21
54.21401080243479
 31
0.0
  0
LINE
  5
31E
330
F8
100
AcDbEntity
  8
0
 62
     0
100
AcDbLine
 10
59.7
 20
51.13898795099132
 30
0.0
 11
57.88132778912402
 21
52.95766016186729
 31
0.0
  0
LINE
  5
31F
330
F8
100
AcDbEntity
  8
0
 62
     0
100
AcDbLine
 10
56.02270071437926
 20
54.81628723661205
 30
0.0
 11
51.53898795099131
 21
59.29999999999999
 31
0.0
  0
LINE
  5
320
330
F8
100
AcDbEntity
  8
0
 62
     0
100
AcDbLine
 10
57.38840137784752
 20
53.4505865731438
 30
0.0
 11
57.19711650182977
 21
53.64187144916154
 31
0.0
  0
LINE
  5
321
330
F8
100
AcDbEntity
  8
0
 62
     0
100
AcDbLine
 10
56.70419009055326
 20
54.13479786043804
 30
0.0
 11
56.51290521453552
 21
54.3260827364558
 31
0.0
  0
LINE
  5
322
330
F8
100
AcDbEntity
  8
0
 62
     0
100
AcDbLine
 10
59.7
 20
51.31576464628795
 30
0.0
 11
57.94603255039966
 21
53.0697320958883
 31
0.0
  0
LINE
  5
323
330
F8
100
AcDbEntity
  8
0
 62
     0
100
AcDbLine
 10
56.09732922369293
 20
54.91843542259502
 30
0.0
 11
51.71576464628795
 21
59.29999999999999
 31
0.0
  0
LINE
  5
324
330
F8
100
AcDbEntity
  8
0
 62
     0
100
AcDbLine
 10
57.45310613912314
 20
53.5626585071648
 30
0.0
 11
57.2618212631054
 21
53.75394338318255
 31
0.0
  0
LINE
  5
325
330
F8
100
AcDbEntity
  8
0
 62
     0
100
AcDbLine
 10
56.7688948518289
 20
54.24686979445905
 30
0.0
 11
56.57760997581116
 21
54.43815467047681
 31
0.0
  0
LINE
  5
326
330
F8
100
AcDbEntity
  8
0
 62
     0
100
AcDbLine
 10
59.7
 20
51.49254134158459
 30
0.0
 11
58.01073731167528
 21
53.18180402990931
 31
0.0
  0
LINE
  5
327
330
F8
100
AcDbEntity
  8
0
 62
     0
100
AcDbLine
 10
56.17897839175709
 20
55.01356294982749
 30
0.0
 11
51.89254134158459
 21
59.29999999999999
 31
0.0
  0
LINE
  5
328
330
F8
100
AcDbEntity
  8
0
 62
     0
100
AcDbLine
 10
57.51781090039878
 20
53.67473044118582
 30
0.0
 11
57.32652602438103
 21
53.86601531720355
 31
0.0
  0
LINE
  5
329
330
F8
100
AcDbEntity
  8
0
 62
     0
100
AcDbLine
 10
56.83359961310452
 20
54.35894172848006
 30
0.0
 11
56.64231473708678
 21
54.55022660449781
 31
0.0
  0
LINE
  5
32A
330
F8
100
AcDbEntity
  8
0
 62
     0
100
AcDbLine
 10
59.7
 20
51.66931803688122
 30
0.0
 11
58.07544207295091
 21
53.29387596393032
 31
0.0
  0
LINE
  5
32B
330
F8
100
AcDbEntity
  8
0
 62
     0
100
AcDbLine
 10
56.26752327385872
 20
55.1017947630225
 30
0.0
 11
52.06931803688123
 21
59.29999999999999
 31
0.0
  0
LINE
  5
32C
330
F8
100
AcDbEntity
  8
0
 62
     0
100
AcDbLine
 10
57.58251566167441
 20
53.78680237520683
 30
0.0
 11
57.39123078565667
 21
53.97808725122456
 31
0.0
  0
LINE
  5
32D
330
F8
100
AcDbEntity
  8
0
 62
     0
100
AcDbLine
 10
56.89830437438015
 20
54.47101366250106
 30
0.0
 11
56.70701949836241
 21
54.66229853851881
 31
0.0
  0
LINE
  5
32E
330
F8
100
AcDbEntity
  8
0
 62
     0
100
AcDbLine
 10
59.7
 20
51.84609473217786
 30
0.0
 11
58.14014683422654
 21
53.40594789795132
 31
0.0
  0
LINE
  5
32F
330
F8
100
AcDbEntity
  8
0
 62
     0
100
AcDbLine
 10
56.36296673815618
 20
55.18312799402169
 30
0.0
 11
52.24609473217785
 21
59.29999999999999
 31
0.0
  0
LINE
  5
330
330
F8
100
AcDbEntity
  8
0
 62
     0
100
AcDbLine
 10
57.64722042295003
 20
53.89887430922783
 30
0.0
 11
57.45593554693229
 21
54.09015918524556
 31
0.0
  0
LINE
  5
331
330
F8
100
AcDbEntity
  8
0
 62
     0
100
AcDbLine
 10
56.96300913565578
 20
54.58308559652207
 30
0.0
 11
56.77172425963805
 21
54.77437047253983
 31
0.0
  0
LINE
  5
332
330
F8
100
AcDbEntity
  8
0
 62
     0
100
AcDbLine
 10
59.7
 20
52.0228714274745
 30
0.0
 11
58.20485159550218
 21
53.51801983197233
 31
0.0
  0
LINE
  5
333
330
F8
100
AcDbEntity
  8
0
 62
     0
100
AcDbLine
 10
56.46543973447138
 20
55.25743169300311
 30
0.0
 11
52.4228714274745
 21
59.29999999999999
 31
0.0
  0
LINE
  5
334
330
F8
100
AcDbEntity
  8
0
 62
     0
100
AcDbLine
 10
57.71192518422566
 20
54.01094624324883
 30
0.0
 11
57.52064030820792
 21
54.20223111926658
 31
0.0
  0
LINE
  5
335
330
F8
100
AcDbEntity
  8
0
 62
     0
100
AcDbLine
 10
57.02190748448188
 20
54.70096394299261
 30
0.0
 11
56.87067974695523
 21
54.85219168051926
 31
0.0
  0
LINE
  5
336
330
F8
100
AcDbEntity
  8
0
 62
     0
100
AcDbLine
 10
59.7
 20
52.19964812277114
 30
0.0
 11
58.2695563567778
 21
53.63009176599334
 31
0.0
  0
LINE
  5
337
330
F8
100
AcDbEntity
  8
0
 62
     0
100
AcDbLine
 10
56.57521384167799
 20
55.32443428109313
 30
0.0
 11
52.59964812277114
 21
59.29999999999999
 31
0.0
  0
LINE
  5
338
330
F8
100
AcDbEntity
  8
0
 62
     0
100
AcDbLine
 10
57.7766299455013
 20
54.12301817726984
 30
0.0
 11
57.58534506948356
 21
54.31430305328758
 31
0.0
  0
LINE
  5
339
330
F8
100
AcDbEntity
  8
0
 62
     0
100
AcDbLine
 10
59.7
 20
52.37642481806777
 30
0.0
 11
58.33426111805343
 21
53.74216370001434
 31
0.0
  0
LINE
  5
33A
330
F8
100
AcDbEntity
  8
0
 62
     0
100
AcDbLine
 10
56.6927290322872
 20
55.38369578578056
 30
0.0
 11
52.77642481806777
 21
59.29999999999999
 31
0.0
  0
LINE
  5
33B
330
F8
100
AcDbEntity
  8
0
 62
     0
100
AcDbLine
 10
57.84133470677693
 20
54.23509011129085
 30
0.0
 11
57.65004983075918
 21
54.42637498730859
 31
0.0
  0
LINE
  5
33C
330
F8
100
AcDbEntity
  8
0
 62
     0
100
AcDbLine
 10
59.7
 20
52.55320151336441
 30
0.0
 11
58.39896587932906
 21
53.85423563403535
 31
0.0
  0
LINE
  5
33D
330
F8
100
AcDbEntity
  8
0
 62
     0
100
AcDbLine
 10
56.81864378988009
 20
55.43455772348433
 30
0.0
 11
52.95320151336441
 21
59.29999999999999
 31
0.0
  0
LINE
  5
33E
330
F8
100
AcDbEntity
  8
0
 62
     0
100
AcDbLine
 10
57.90603946805255
 20
54.34716204531185
 30
0.0
 11
57.71443260050341
 21
54.538768912861
 31
0.0
  0
LINE
  5
33F
330
F8
100
AcDbEntity
  8
0
 62
     0
100
AcDbLine
 10
59.7
 20
52.72997820866105
 30
0.0
 11
58.46367064060469
 21
53.96630756805635
 31
0.0
  0
LINE
  5
340
330
F8
100
AcDbEntity
  8
0
 62
     0
100
AcDbLine
 10
56.95392253602282
 20
55.47605567263823
 30
0.0
 11
53.12997820866105
 21
59.29999999999999
 31
0.0
  0
LINE
  5
341
330
F8
100
AcDbEntity
  8
0
 62
     0
100
AcDbLine
 10
57.97074422932819
 20
54.45923397933286
 30
0.0
 11
57.76557148355902
 21
54.66440672510202
 31
0.0
  0
LINE
  5
342
330
F8
100
AcDbEntity
  8
0
 62
     0
100
AcDbLine
 10
59.7
 20
52.90675490395768
 30
0.0
 11
58.52837540188033
 21
54.07837950207737
 31
0.0
  0
LINE
  5
343
330
F8
100
AcDbEntity
  8
0
 62
     0
100
AcDbLine
 10
57.09999232398025
 20
55.50676257997742
 30
0.0
 11
53.30675490395768
 21
59.29999999999999
 31
0.0
  0
LINE
  5
344
330
F8
100
AcDbEntity
  8
0
 62
     0
100
AcDbLine
 10
58.03544899060382
 20
54.57130591335387
 30
0.0
 11
57.79172111350143
 21
54.81503379045626
 31
0.0
  0
LINE
  5
345
330
F8
100
AcDbEntity
  8
0
 62
     0
100
AcDbLine
 10
59.7
 20
53.08353159925432
 30
0.0
 11
58.59308016315595
 21
54.19045143609837
 31
0.0
  0
LINE
  5
346
330
F8
100
AcDbEntity
  8
0
 62
     0
100
AcDbLine
 10
57.27794338092108
 20
55.50558821833323
 30
0.0
 11
53.48353159925432
 21
59.29999999999999
 31
0.0
  0
LINE
  5
347
330
F8
100
AcDbEntity
  8
0
 62
     0
100
AcDbLine
 10
58.10015375187944
 20
54.68337784737488
 30
0.0
 11
57.77489730638843
 21
55.00863429286589
 31
0.0
  0
LINE
  5
348
330
F8
100
AcDbEntity
  8
0
 62
     0
100
AcDbLine
 10
59.7
 20
53.26030829455095
 30
0.0
 11
58.65778492443158
 21
54.30252337011938
 31
0.0
  0
LINE
  5
349
330
F8
100
AcDbEntity
  8
0
 62
     0
100
AcDbLine
 10
58.16485851315507
 20
54.79544978139588
 30
0.0
 11
53.66030829455096
 21
59.29999999999999
 31
0.0
  0
LINE
  5
34A
330
F8
100
AcDbEntity
  8
0
 62
     0
100
AcDbLine
 10
59.7
 20
53.43708498984759
 30
0.0
 11
58.72248968570722
 21
54.41459530414038
 31
0.0
  0
LINE
  5
34B
330
F8
100
AcDbEntity
  8
0
 62
     0
100
AcDbLine
 10
58.22956327443071
 20
54.90752171541689
 30
0.0
 11
53.83708498984759
 21
59.29999999999999
 31
0.0
  0
LINE
  5
34C
330
F8
100
AcDbEntity
  8
0
 62
     0
100
AcDbLine
 10
59.7
 20
53.61386168514423
 30
0.0
 11
58.78719444698284
 21
54.5266672381614
 31
0.0
  0
LINE
  5
34D
330
F8
100
AcDbEntity
  8
0
 62
     0
100
AcDbLine
 10
58.29426803570633
 20
55.0195936494379
 30
0.0
 11
54.01386168514423
 21
59.29999999999999
 31
0.0
  0
LINE
  5
34E
330
F8
100
AcDbEntity
  8
0
 62
     0
100
AcDbLine
 10
59.7
 20
53.79063838044086
 30
0.0
 11
58.85189920825848
 21
54.6387391721824
 31
0.0
  0
LINE
  5
34F
330
F8
100
AcDbEntity
  8
0
 62
     0
100
AcDbLine
 10
58.35897279698197
 20
55.1316655834589
 30
0.0
 11
54.19063838044086
 21
59.29999999999999
 31
0.0
  0
LINE
  5
350
330
F8
100
AcDbEntity
  8
0
 62
     0
100
AcDbLine
 10
59.7
 20
53.9674150757375
 30
0.0
 11
58.9166039695341
 21
54.7508111062034
 31
0.0
  0
LINE
  5
351
330
F8
100
AcDbEntity
  8
0
 62
     0
100
AcDbLine
 10
58.4236775582576
 20
55.2437375174799
 30
0.0
 11
54.3674150757375
 21
59.29999999999999
 31
0.0
  0
LINE
  5
352
330
F8
100
AcDbEntity
  8
0
 62
     0
100
AcDbLine
 10
59.7
 20
54.14419177103415
 30
0.0
 11
58.98130873080973
 21
54.86288304022441
 31
0.0
  0
LINE
  5
353
330
F8
100
AcDbEntity
  8
0
 62
     0
100
AcDbLine
 10
58.48838231953322
 20
55.35580945150091
 30
0.0
 11
54.54419177103414
 21
59.29999999999999
 31
0.0
  0
LINE
  5
354
330
F8
100
AcDbEntity
  8
0
 62
     0
100
AcDbLine
 10
59.7
 20
54.32096846633077
 30
0.0
 11
59.04601349208537
 21
54.97495497424542
 31
0.0
  0
LINE
  5
355
330
F8
100
AcDbEntity
  8
0
 62
     0
100
AcDbLine
 10
58.55308708080886
 20
55.46788138552192
 30
0.0
 11
54.72096846633078
 21
59.29999999999999
 31
0.0
  0
LINE
  5
356
330
F8
100
AcDbEntity
  8
0
 62
     0
100
AcDbLine
 10
59.7
 20
54.49774516162741
 30
0.0
 11
59.11071825336099
 21
55.08702690826643
 31
0.0
  0
LINE
  5
357
330
F8
100
AcDbEntity
  8
0
 62
     0
100
AcDbLine
 10
58.67024516162741
 20
55.52750000000001
 30
0.0
 11
54.89774516162741
 21
59.29999999999999
 31
0.0
  0
LINE
  5
358
330
F8
100
AcDbEntity
  8
0
 62
     0
100
AcDbLine
 10
59.7
 20
54.67452185692405
 30
0.0
 11
59.17542301463662
 21
55.19909884228743
 31
0.0
  0
LINE
  5
359
330
F8
100
AcDbEntity
  8
0
 62
     0
100
AcDbLine
 10
58.84702185692404
 20
55.52750000000001
 30
0.0
 11
55.07452185692405
 21
59.29999999999999
 31
0.0
  0
LINE
  5
35A
330
F8
100
AcDbEntity
  8
0
 62
     0
100
AcDbLine
 10
59.7
 20
54.85129855222069
 30
0.0
 11
59.24012777591226
 21
55.31117077630844
 31
0.0
  0
LINE
  5
35B
330
F8
100
AcDbEntity
  8
0
 62
     0
100
AcDbLine
 10
59.02379855222068
 20
55.52750000000001
 30
0.0
 11
55.25129855222068
 21
59.29999999999999
 31
0.0
  0
LINE
  5
35C
330
F8
100
AcDbEntity
  8
0
 62
     0
100
AcDbLine
 10
59.7
 20
55.02807524751733
 30
0.0
 11
59.30483253718788
 21
55.42324271032945
 31
0.0
  0
LINE
  5
35D
330
F8
100
AcDbEntity
  8
0
 62
     0
100
AcDbLine
 10
59.20057524751732
 20
55.52750000000001
 30
0.0
 11
55.42807524751733
 21
59.29999999999999
 31
0.0
  0
LINE
  5
35E
330
F8
100
AcDbEntity
  8
0
 62
     0
100
AcDbLine
 10
59.7
 20
55.20485194281396
 30
0.0
 11
55.60485194281397
 21
59.29999999999999
 31
0.0
  0
LINE
  5
35F
330
F8
100
AcDbEntity
  8
0
 62
     0
100
AcDbLine
 10
59.7
 20
55.38162863811059
 30
0.0
 11
55.78162863811059
 21
59.29999999999999
 31
0.0
  0
LINE
  5
360
330
F8
100
AcDbEntity
  8
0
 62
     0
100
AcDbLine
 10
59.7
 20
55.55840533340724
 30
0.0
 11
55.95840533340723
 21
59.29999999999999
 31
0.0
  0
LINE
  5
361
330
F8
100
AcDbEntity
  8
0
 62
     0
100
AcDbLine
 10
59.7
 20
55.73518202870388
 30
0.0
 11
56.13518202870388
 21
59.29999999999999
 31
0.0
  0
LINE
  5
362
330
F8
100
AcDbEntity
  8
0
 62
     0
100
AcDbLine
 10
59.7
 20
55.91195872400051
 30
0.0
 11
56.31195872400051
 21
59.29999999999999
 31
0.0
  0
LINE
  5
363
330
F8
100
AcDbEntity
  8
0
 62
     0
100
AcDbLine
 10
59.7
 20
56.08873541929714
 30
0.0
 11
56.48873541929715
 21
59.29999999999999
 31
0.0
  0
LINE
  5
364
330
F8
100
AcDbEntity
  8
0
 62
     0
100
AcDbLine
 10
59.7
 20
56.26551211459378
 30
0.0
 11
56.66551211459378
 21
59.29999999999999
 31
0.0
  0
LINE
  5
365
330
F8
100
AcDbEntity
  8
0
 62
     0
100
AcDbLine
 10
59.7
 20
56.44228880989042
 30
0.0
 11
56.84228880989042
 21
59.29999999999999
 31
0.0
  0
LINE
  5
366
330
F8
100
AcDbEntity
  8
0
 62
     0
100
AcDbLine
 10
59.7
 20
56.61906550518706
 30
0.0
 11
57.01906550518706
 21
59.29999999999999
 31
0.0
  0
LINE
  5
367
330
F8
100
AcDbEntity
  8
0
 62
     0
100
AcDbLine
 10
59.7
 20
56.79584220048369
 30
0.0
 11
57.19584220048369
 21
59.29999999999999
 31
0.0
  0
LINE
  5
368
330
F8
100
AcDbEntity
  8
0
 62
     0
100
AcDbLine
 10
59.7
 20
56.97261889578033
 30
0.0
 11
57.37261889578033
 21
59.29999999999999
 31
0.0
  0
LINE
  5
369
330
F8
100
AcDbEntity
  8
0
 62
     0
100
AcDbLine
 10
59.7
 20
57.14939559107697
 30
0.0
 11
57.54939559107697
 21
59.29999999999999
 31
0.0
  0
LINE
  5
36A
330
F8
100
AcDbEntity
  8
0
 62
     0
100
AcDbLine
 10
59.7
 20
57.3261722863736
 30
0.0
 11
57.7261722863736
 21
59.29999999999999
 31
0.0
  0
LINE
  5
36B
330
F8
100
AcDbEntity
  8
0
 62
     0
100
AcDbLine
 10
59.7
 20
57.50294898167024
 30
0.0
 11
57.90294898167024
 21
59.29999999999999
 31
0.0
  0
LINE
  5
36C
330
F8
100
AcDbEntity
  8
0
 62
     0
100
AcDbLine
 10
59.7
 20
57.67972567696688
 30
0.0
 11
58.07972567696688
 21
59.29999999999999
 31
0.0
  0
LINE
  5
36D
330
F8
100
AcDbEntity
  8
0
 62
     0
100
AcDbLine
 10
59.7
 20
57.85650237226351
 30
0.0
 11
58.25650237226351
 21
59.29999999999999
 31
0.0
  0
LINE
  5
36E
330
F8
100
AcDbEntity
  8
0
 62
     0
100
AcDbLine
 10
59.7
 20
58.03327906756015
 30
0.0
 11
58.43327906756015
 21
59.29999999999999
 31
0.0
  0
LINE
  5
36F
330
F8
100
AcDbEntity
  8
0
 62
     0
100
AcDbLine
 10
59.7
 20
58.21005576285679
 30
0.0
 11
58.61005576285679
 21
59.29999999999999
 31
0.0
  0
LINE
  5
370
330
F8
100
AcDbEntity
  8
0
 62
     0
100
AcDbLine
 10
59.7
 20
58.38683245815342
 30
0.0
 11
58.78683245815342
 21
59.29999999999999
 31
0.0
  0
LINE
  5
371
330
F8
100
AcDbEntity
  8
0
 62
     0
100
AcDbLine
 10
59.7
 20
58.56360915345007
 30
0.0
 11
58.96360915345006
 21
59.29999999999999
 31
0.0
  0
LINE
  5
372
330
F8
100
AcDbEntity
  8
0
 62
     0
100
AcDbLine
 10
59.7
 20
58.7403858487467
 30
0.0
 11
59.14038584874671
 21
59.29999999999999
 31
0.0
  0
LINE
  5
373
330
F8
100
AcDbEntity
  8
0
 62
     0
100
AcDbLine
 10
59.7
 20
58.91716254404333
 30
0.0
 11
59.31716254404333
 21
59.29999999999999
 31
0.0
  0
LINE
  5
374
330
F8
100
AcDbEntity
  8
0
 62
     0
100
AcDbLine
 10
59.7
 20
59.09393923933997
 30
0.0
 11
59.49393923933997
 21
59.29999999999999
 31
0.0
  0
LINE
  5
375
330
F8
100
AcDbEntity
  8
0
 62
     0
100
AcDbLine
 10
59.7
 20
59.27071593463661
 30
0.0
 11
59.67071593463661
 21
59.29999999999999
 31
0.0
  0
ENDBLK
  5
376
330
F8
100
AcDbEntity
  8
0
100
AcDbBlockEnd
  0
BLOCK
  5
98
330
96
100
AcDbEntity
  8
0
100
AcDbBlockBegin
  2
MSL_Kopf_quer
 70
     2
 10
0.0
 20
0.0
 30
0.0
  3
MSL_Kopf_quer
  1

  0
INSERT
  5
99
330
96
100
AcDbEntity
  8
ACA_VARSAVE
100
AcDbBlockReference
  2
ACA_SAVE_DONT_PURGE
 10
10.0
 20
-3.0
 30
0.0
  0
INSERT
  5
A5
330
96
100
AcDbEntity
  8
ASHADE
 62
     4
100
AcDbBlockReference
  2
AVE_RENDER
 10
10.0
 20
-3.0
 30
0.0
1001
AVE_RENDER
1002
{
1070
     0
1000
Quick Opt
1070
     0
1070
     1
1070
     1
1070
     1
1070
     0
1070
     0
1070
     1
1002
}
  0
INSERT
  5
AD
330
96
100
AcDbEntity
  8
ASHADE
 62
     3
100
AcDbBlockReference
  2
AVE_RENDER
 10
10.0
 20
-3.0
 30
0.0
1001
AVE_RENDER
1002
{
1070
     0
1000
Full Opt
1070
     0
1070
     1
1070
     1
1070
     1
1070
     0
1070
     0
1070
     0
1070
     1
1070
     1
1040
0.0001
1040
0.0001
1002
}
  0
INSERT
  5
AE
330
96
100
AcDbEntity
  8
ASHADE
 62
     1
100
AcDbBlockReference
  2
AVE_RENDER
 10
10.0
 20
-3.0
 30
0.0
1001
AVE_RENDER
1002
{
1070
     2
1000
Pref
1070
    30
1070
    20
1070
     0
1070
     0
1000

1070
    10
1070
     0
1070
    30
1040
1.0
1070
     1
1040
0.3
1040
0.7
1040
0.0
1040
10.0
1010
-1.0
1020
-1.0
1030
-1.0
1040
0.3
1070
    49
1002
}
  0
INSERT
  5
AF
330
96
100
AcDbEntity
  8
ACHSEN
100
AcDbBlockReference
  2
ALLE_STEMPEL_ALS_BLOCK
 10
9.0
 20
4.0
 30
0.0
  0
TEXT
  5
D0
330
96
100
AcDbEntity
  8
S-MONTAGE
100
AcDbText
 10
-1.823660009323792
 20
121.6986599697445
 30
0.0
 40
6.0
  1
Montage
 50
90.29400666116277
  7
ARIALFETT
 72
     4
 11
-4.043203469982302
 21
141.4801641382094
 31
0.0
100
AcDbText
  0
LINE
  5
D4
330
96
100
AcDbEntity
  8
UMRISS07
100
AcDbLine
 10
193.5
 20
65.4
 30
0.0
 11
10.5
 21
65.4
 31
0.0
  0
LINE
  5
D8
330
96
100
AcDbEntity
  8
UMRISS05
100
AcDbLine
 10
193.5
 20
16.7
 30
0.0
 11
10.5
 21
16.7
 31
0.0
  0
LINE
  5
DC
330
96
100
AcDbEntity
  8
UMRISS05
100
AcDbLine
 10
193.5
 20
52.40000000000001
 30
0.0
 11
10.5
 21
52.40000000000001
 31
0.0
  0
LINE
  5
DD
330
96
100
AcDbEntity
  8
UMRISS05
100
AcDbLine
 10
193.5
 20
58.9
 30
0.0
 11
10.5
 21
58.9
 31
0.0
  0
LINE
  5
DE
330
96
100
AcDbEntity
  8
UMRISS07
100
AcDbLine
 10
193.5
 20
4.0
 30
0.0
 11
10.5
 21
4.0
 31
0.0
  0
LINE
  5
DF
330
96
100
AcDbEntity
  8
UMRISS03
100
AcDbLine
 10
178.0
 20
42.2
 30
0.0
 11
121.5
 21
42.2
 31
0.0
  0
LINE
  5
E3
330
96
100
AcDbEntity
  8
UMRISS03
100
AcDbLine
 10
178.0
 20
47.3
 30
0.0
 11
121.5
 21
47.3
 31
0.0
  0
LINE
  5
E4
330
96
100
AcDbEntity
  8
UMRISS03
100
AcDbLine
 10
178.0
 20
37.1
 30
0.0
 11
121.5
 21
37.1
 31
0.0
  0
LINE
  5
E5
330
96
100
AcDbEntity
  8
UMRISS03
100
AcDbLine
 10
121.5
 20
32.0
 30
0.0
 11
178.0
 21
32.0
 31
0.0
  0
LINE
  5
E6
330
96
100
AcDbEntity
  8
UMRISS03
100
AcDbLine
 10
172.6147260415504
 20
26.9
 30
0.0
 11
121.5
 21
26.89999999999999
 31
0.0
  0
LINE
  5
E7
330
96
100
AcDbEntity
  8
UMRISS03
100
AcDbLine
 10
162.5
 20
21.8
 30
0.0
 11
121.5
 21
21.8
 31
0.0
  0
LINE
  5
E8
330
96
100
AcDbEntity
  8
UMRISS03
100
AcDbLine
 10
162.5
 20
21.8
 30
0.0
 11
121.5
 21
21.8
 31
0.0
  0
LINE
  5
E9
330
96
100
AcDbEntity
  8
UMRISS05
100
AcDbLine
 10
20.5
 20
52.40000000000001
 30
0.0
 11
20.5
 21
65.4
 31
0.0
  0
LINE
  5
EA
330
96
100
AcDbEntity
  8
UMRISS05
100
AcDbLine
 10
33.0
 20
52.40000000000001
 30
0.0
 11
33.0
 21
65.4
 31
0.0
  0
LINE
  5
EB
330
96
100
AcDbEntity
  8
UMRISS05
100
AcDbLine
 10
81.5
 20
52.40000000000001
 30
0.0
 11
81.5
 21
65.4
 31
0.0
  0
LINE
  5
EC
330
96
100
AcDbEntity
  8
UMRISS05
100
AcDbLine
 10
41.0
 20
52.40000000000001
 30
0.0
 11
41.0
 21
65.4
 31
0.0
  0
LINE
  5
ED
330
96
100
AcDbEntity
  8
UMRISS07
100
AcDbLine
 10
10.5
 20
4.0
 30
0.0
 11
10.5
 21
65.4
 31
0.0
  0
LINE
  5
EE
330
96
100
AcDbEntity
  8
UMRISS05
100
AcDbLine
 10
101.5
 20
32.0
 30
0.0
 11
10.5
 21
32.0
 31
0.0
  0
INSERT
  5
EF
330
96
100
AcDbEntity
  8
SCHRAFFUR
100
AcDbBlockReference
  2
SIGNET
 10
12.19999999999999
 20
5.700000000000002
 30
0.0
  0
LINE
  5
495
330
96
100
AcDbEntity
  8
UMRISS05
100
AcDbLine
 10
56.10000000000002
 20
16.7
 30
0.0
 11
56.10000000000002
 21
4.0
 31
0.0
  0
ATTDEF
  5
496
330
96
100
AcDbEntity
  8
KOPF03
 62
     4
100
AcDbText
 10
57.35455393428111
 20
7.164981045680804
 30
0.0
 40
6.0
  1

 41
0.8
  7
ARIAL
100
AcDbAttributeDefinition
  3
Bezeichnung
  2
BEZ
 70
     0
  0
TEXT
  5
49C
330
96
100
AcDbEntity
  8
TEXT03
100
AcDbText
 10
24.5
 20
5.700000000000002
 30
0.0
 40
2.0
  1
4245 Kleinlützel
  7
NORM
100
AcDbText
  0
TEXT
  5
4A1
330
96
100
AcDbEntity
  8
TEXT05
100
AcDbText
 10
24.5
 20
9.700000000000002
 30
0.0
 40
2.0
  1
Beschlägefabrik AG
  7
NORM
100
AcDbText
  0
TEXT
  5
4A5
330
96
100
AcDbEntity
  8
TEXT05
100
AcDbText
 10
24.5
 20
13.7
 30
0.0
 40
2.0
  1
Schloss- und
  7
NORM
100
AcDbText
  0
LINE
  5
4A6
330
96
100
AcDbEntity
  8
UMRISS03
100
AcDbLine
 10
51.0
 20
21.8
 30
0.0
 11
10.5
 21
21.8
 31
0.0
  0
LINE
  5
4A7
330
96
100
AcDbEntity
  8
UMRISS03
100
AcDbLine
 10
51.0
 20
21.8
 30
0.0
 11
10.5
 21
21.8
 31
0.0
  0
LINE
  5
4A8
330
96
100
AcDbEntity
  8
UMRISS03
100
AcDbLine
 10
51.0
 20
26.9
 30
0.0
 11
10.5
 21
26.89999999999999
 31
0.0
  0
TEXT
  5
4A9
330
96
100
AcDbEntity
  8
TEXT03
100
AcDbText
 10
11.5
 20
18.5
 30
0.0
 40
2.0
  1
Sep.Stückliste anderer Nr.
 41
0.9
  7
NORM
100
AcDbText
  0
TEXT
  5
4AA
330
96
100
AcDbEntity
  8
TEXT03
100
AcDbText
 10
11.5
 20
23.6
 30
0.0
 40
2.0
  1
Sep.Stückliste gleicher Nr.
 41
0.9
  7
NORM
100
AcDbText
  0
TEXT
  5
4AB
330
96
100
AcDbEntity
  8
TEXT03
100
AcDbText
 10
34.0
 20
53.0
 30
0.0
 40
2.0
  1
heit
  7
NORM
100
AcDbText
  0
TEXT
  5
4AC
330
96
100
AcDbEntity
  8
TEXT03
100
AcDbText
 10
11.5
 20
28.7
 30
0.0
 40
2.0
  1
Ohne sep.Stückliste
 41
0.9
  7
NORM
100
AcDbText
  0
ATTDEF
  5
4AD
330
96
100
AcDbEntity
  8
TEXT03
100
AcDbText
 10
15.49971426826835
 20
33.32554326766729
 30
0.0
 40
2.399999999999999
  1
#(AEN 4 8)ZUST_BEZ
 41
0.8
  7
NORM
100
AcDbAttributeDefinition
  3
4.Aenderung
  2
4AEN
 70
     0
  0
ATTDEF
  5
4AE
330
96
100
AcDbEntity
  8
TEXT03
100
AcDbText
 10
11.46131005522119
 20
33.3609284994812
 30
0.0
 40
2.399999999999999
  1
#(AEN 4 8)ZUST_KENN
 41
0.8
  7
NORM
100
AcDbAttributeDefinition
  3
4.Aender.Ind
  2
4AIN
 70
     0
  0
TEXT
  5
4AF
330
96
100
AcDbEntity
  8
TEXT03
100
AcDbText
 10
21.09999999999999
 20
54.0
 30
0.0
 40
2.5
  1
Menge
  7
NORM
100
AcDbText
  0
ATTDEF
  5
4B0
330
96
100
AcDbEntity
  8
TEXT03
100
AcDbText
 10
15.49971426826829
 20
48.62554326766729
 30
0.0
 40
2.399999999999999
  1
#(AEN 1 8)ZUST_BEZ
 41
0.8
  7
NORM
100
AcDbAttributeDefinition
  3
1.Aenderung
  2
1AEN
 70
     0
  0
ATTDEF
  5
4B1
330
96
100
AcDbEntity
  8
TEXT03
100
AcDbText
 10
15.49971426826829
 20
43.52554326766728
 30
0.0
 40
2.399999999999999
  1
#(AEN 2 8)ZUST_BEZ
 41
0.8
  7
NORM
100
AcDbAttributeDefinition
  3
2.Aenderung
  2
2AEN
 70
     0
  0
ATTDEF
  5
4B2
330
96
100
AcDbEntity
  8
TEXT03
100
AcDbText
 10
15.49971426826835
 20
38.42554326766729
 30
0.0
 40
2.399999999999999
  1
#(AEN 3 8)ZUST_BEZ
 41
0.8
  7
NORM
100
AcDbAttributeDefinition
  3
3.Aenderung
  2
3AEN
 70
     0
  0
ATTDEF
  5
4B3
330
96
100
AcDbEntity
  8
TEXT03
100
AcDbText
 10
11.46131005522113
 20
43.56092849948119
 30
0.0
 40
2.399999999999999
  1
#(AEN 2 8)ZUST_KENN
 41
0.8
  7
NORM
100
AcDbAttributeDefinition
  3
2.Aender.Ind
  2
2AIN
 70
     0
  0
ATTDEF
  5
4B4
330
96
100
AcDbEntity
  8
TEXT03
100
AcDbText
 10
11.46131005522119
 20
38.46092849948119
 30
0.0
 40
2.399999999999999
  1
#(AEN 3 8)ZUST_KENN
 41
0.8
  7
NORM
100
AcDbAttributeDefinition
  3
3.Aender.Ind
  2
3AIN
 70
     0
  0
TEXT
  5
4B5
330
96
100
AcDbEntity
  8
TEXT03
100
AcDbText
 10
13.0
 20
54.0
 30
0.0
 40
2.5
  1
Pos
  7
NORM
100
AcDbText
  0
ATTDEF
  5
4B6
330
96
100
AcDbEntity
  8
TEXT03
100
AcDbText
 10
11.46131005522113
 20
48.66092849948119
 30
0.0
 40
2.399999999999999
  1
#(AEN 1 8)ZUST_KENN
 41
0.8
  7
NORM
100
AcDbAttributeDefinition
  3
1.Aender.Ind
  2
1AIN
 70
     0
  0
TEXT
  5
4B7
330
96
100
AcDbEntity
  8
TEXT03
100
AcDbText
 10
34.0
 20
56.0
 30
0.0
 40
2.0
  1
Ein
  7
NORM
100
AcDbText
  0
LINE
  5
4B8
330
96
100
AcDbEntity
  8
UMRISS05
100
AcDbLine
 10
51.0
 20
26.9
 30
0.0
 11
56.10000000000002
 21
26.9
 31
0.0
  0
LINE
  5
4B9
330
96
100
AcDbEntity
  8
UMRISS05
100
AcDbLine
 10
51.0
 20
21.8
 30
0.0
 11
56.10000000000002
 21
21.8
 31
0.0
  0
LINE
  5
4BA
330
96
100
AcDbEntity
  8
UMRISS05
100
AcDbLine
 10
51.0
 20
16.7
 30
0.0
 11
51.0
 21
32.0
 31
0.0
  0
LINE
  5
4BB
330
96
100
AcDbEntity
  8
UMRISS05
100
AcDbLine
 10
56.10000000000002
 20
16.7
 30
0.0
 11
56.10000000000002
 21
32.0
 31
0.0
  0
ATTDEF
  5
4BC
330
96
100
AcDbEntity
  8
TEXT03
100
AcDbText
 10
57.10000000000002
 20
22.8
 30
0.0
 40
2.399999999999999
  1

  7
NORM
100
AcDbAttributeDefinition
  3
Bezeichnung 3
  2
BE3
 70
     0
  0
ATTDEF
  5
4BD
330
96
100
AcDbEntity
  8
TEXT03
100
AcDbText
 10
57.10000000000002
 20
17.7
 30
0.0
 40
2.399999999999999
  1

  7
NORM
100
AcDbAttributeDefinition
  3
Bezeichnung  4
  2
BE4
 70
     0
  0
ATTDEF
  5
4BE
330
96
100
AcDbEntity
  8
TEXT03
100
AcDbText
 10
57.10000000000002
 20
28.0
 30
0.0
 40
2.399999999999999
  1

  7
NORM
100
AcDbAttributeDefinition
  3
Bezeichnung 2
  2
BE2
 70
     0
  0
TEXT
  5
4BF
330
96
100
AcDbEntity
  8
TEXT03
100
AcDbText
 10
53.45238095238095
 20
54.07770346779495
 30
0.0
 40
2.5
  1
Standort
  7
NORM
 72
     4
 11
61.25
 21
55.32770346779495
 31
0.0
100
AcDbText
  0
LINE
  5
4C0
330
96
100
AcDbEntity
  8
TEXT03
100
AcDbLine
 10
39.09919355586047
 20
56.80593833944097
 30
0.0
 11
40.47213998341152
 21
56.80593833944097
 31
0.0
  0
LINE
  5
4C1
330
96
100
AcDbEntity
  8
UMRISS05
100
AcDbLine
 10
101.5
 20
32.0
 30
0.0
 11
121.5
 21
32.0
 31
0.0
  0
ATTDEF
  5
4C2
330
96
100
AcDbEntity
  8
TEXT03
100
AcDbText
 10
98.09971204301673
 20
33.3609284994812
 30
0.0
 40
2.399999999999999
  1
#(AEN 4 8)ZUST_DATE
 41
0.8
  7
NORM
100
AcDbAttributeDefinition
  3
4.Aender.Datum
  2
4ADT
 70
     0
  0
ATTDEF
  5
4C3
330
96
100
AcDbEntity
  8
TEXT03
100
AcDbText
 10
98.09971204301673
 20
38.46092849948119
 30
0.0
 40
2.399999999999999
  1
#(AEN 3 8)ZUST_DATE
 41
0.8
  7
NORM
100
AcDbAttributeDefinition
  3
3.Aender.Datum
  2
3ADT
 70
     0
  0
ATTDEF
  5
4C4
330
96
100
AcDbEntity
  8
TEXT03
100
AcDbText
 10
98.09971204301668
 20
43.56092849948119
 30
0.0
 40
2.399999999999999
  1
#(AEN 2 2)ZUST_DATE
 41
0.8
  7
NORM
100
AcDbAttributeDefinition
  3
2.Aender.Datum
  2
2ADT
 70
     0
  0
ATTDEF
  5
4C5
330
96
100
AcDbEntity
  8
TEXT03
100
AcDbText
 10
98.09971204301668
 20
48.66092849948119
 30
0.0
 40
2.399999999999999
  1
#(AEN 1 8)ZUST_DATE
 41
0.8
  7
NORM
100
AcDbAttributeDefinition
  3
1.Aender.Datum
  2
1ADT
 70
     0
  0
LINE
  5
4C6
330
96
100
AcDbEntity
  8
UMRISS05
100
AcDbLine
 10
121.5
 20
16.7
 30
0.0
 11
121.5
 21
52.40000000000001
 31
0.0
  0
LINE
  5
4C7
330
96
100
AcDbEntity
  8
UMRISS03
100
AcDbLine
 10
139.5
 20
16.7
 30
0.0
 11
139.5
 21
52.40000000000001
 31
0.0
  0
TEXT
  5
4C8
330
96
100
AcDbEntity
  8
TEXT03
100
AcDbText
 10
122.5
 20
28.6
 30
0.0
 40
2.0
  1
Oberfläche
  7
NORM
100
AcDbText
  0
TEXT
  5
4C9
330
96
100
AcDbEntity
  8
TEXT03
100
AcDbText
 10
122.5
 20
18.4
 30
0.0
 40
2.0
  1
Ersatz für
  7
NORM
100
AcDbText
  0
TEXT
  5
4CA
330
96
100
AcDbEntity
  8
TEXT03
100
AcDbText
 10
122.5
 20
23.5
 30
0.0
 40
2.0
  1
Ursprung
  7
NORM
100
AcDbText
  0
TEXT
  5
4CB
330
96
100
AcDbEntity
  8
TEXT03
100
AcDbText
 10
122.5
 20
33.7
 30
0.0
 40
2.0
  1
Kunde
  7
NORM
100
AcDbText
  0
ATTDEF
  5
4CC
330
96
100
AcDbEntity
  8
TEXT03
100
AcDbText
 10
113.9300263604044
 20
33.3609284994812
 30
0.0
 40
2.399999999999999
  1
#(AEN 4 8)ZUST_NAME
 41
0.8
  7
NORM
100
AcDbAttributeDefinition
  3
4.Aender.Name
  2
4ANM
 70
     0
  0
TEXT
  5
4CD
330
96
100
AcDbEntity
  8
TEXT03
100
AcDbText
 10
111.9161827513578
 20
54.53177023000556
 30
0.0
 40
2.5
  1
Gegenstand
  7
NORM
 72
     4
 11
122.3923732275483
 21
55.36510356333889
 31
0.0
100
AcDbText
  0
TEXT
  5
4CE
330
96
100
AcDbEntity
  8
TEXT03
100
AcDbText
 10
122.5
 20
49.0
 30
0.0
 40
2.0
  1
Gezeichnet
  7
NORM
100
AcDbText
  0
TEXT
  5
4CF
330
96
100
AcDbEntity
  8
TEXT03
100
AcDbText
 10
122.5
 20
38.8
 30
0.0
 40
1.9
  1
Freigegeben
  7
NORM
100
AcDbText
  0
TEXT
  5
4D0
330
96
100
AcDbEntity
  8
TEXT03
100
AcDbText
 10
122.5
 20
43.89999999999999
 30
0.0
 40
2.0
  1
Geprüft
  7
NORM
100
AcDbText
  0
ATTDEF
  5
4D1
330
96
100
AcDbEntity
  8
TEXT03
100
AcDbText
 10
113.9300263604043
 20
43.56092849948119
 30
0.0
 40
2.399999999999999
  1
#(AEN 2 8)ZUST_NAME
 41
0.8
  7
NORM
100
AcDbAttributeDefinition
  3
2.Aender.Name
  2
2ANM
 70
     0
  0
ATTDEF
  5
4D2
330
96
100
AcDbEntity
  8
TEXT03
100
AcDbText
 10
113.9300263604044
 20
38.46092849948119
 30
0.0
 40
2.399999999999999
  1
#(AEN 3 8)ZUST_NAME
 41
0.8
  7
NORM
100
AcDbAttributeDefinition
  3
3.Aender.Name
  2
3ANM
 70
     0
  0
ATTDEF
  5
4D3
330
96
100
AcDbEntity
  8
TEXT03
100
AcDbText
 10
113.9300263604043
 20
48.66092849948119
 30
0.0
 40
2.399999999999999
  1
#(AEN 1 8)ZUST_NAME
 41
0.8
  7
NORM
100
AcDbAttributeDefinition
  3
1.Aender.Name
  2
1ANM
 70
     0
  0
ATTDEF
  5
4D4
330
96
100
AcDbEntity
  8
KOPF03
 62
     3
100
AcDbText
 10
121.6845854642519
 20
61.99569430846174
 30
0.0
 40
2.399999999999999
  1

  7
NORM
 72
     4
 11
121.6845854642519
 21
61.99569430846174
 31
0.0
100
AcDbAttributeDefinition
  3
Bezeichnung
  2
BEZ
 70
     0
  0
LINE
  5
4D5
330
96
100
AcDbEntity
  8
UMRISS05
100
AcDbLine
 10
164.0
 20
65.4
 30
0.0
 11
164.0
 21
52.40000000000001
 31
0.0
  0
LINE
  5
4D6
330
96
100
AcDbEntity
  8
UMRISS07
100
AcDbLine
 10
193.5
 20
4.0
 30
0.0
 11
193.5
 21
65.4
 31
0.0
  0
LINE
  5
4D7
330
96
100
AcDbEntity
  8
UMRISS05
100
AcDbLine
 10
147.5
 20
16.7
 30
0.0
 11
147.5
 21
4.0
 31
0.0
  0
LINE
  5
4D8
330
96
100
AcDbEntity
  8
UMRISS05
100
AcDbLine
 10
184.5
 20
16.69999999999999
 30
0.0
 11
184.5
 21
4.0
 31
0.0
  0
ATTDEF
  5
4D9
330
96
100
AcDbEntity
  8
KOPF03
 62
     4
100
AcDbText
 10
166.0544405150153
 20
7.164981045680804
 30
0.0
 40
6.0
  1

 41
0.8
  7
ARIAL
 72
     1
 11
166.0544405150153
 21
7.164981045680804
 31
0.0
100
AcDbAttributeDefinition
  3
Zeichnungsnummer
  2
DOCID
 70
     0
  0
ATTDEF
  5
4DA
330
96
100
AcDbEntity
  8
TEXT05
100
AcDbText
 10
187.5
 20
5.153252766150956
 30
0.0
 40
5.0
  1

 41
0.8
  7
ARIAL
100
AcDbAttributeDefinition
  3
Index
  2
INDEX
 70
     0
  0
LINE
  5
4DB
330
96
100
AcDbEntity
  8
UMRISS05
100
AcDbLine
 10
193.5
 20
11.6
 30
0.0
 11
184.5
 21
11.6
 31
0.0
  0
LINE
  5
4DC
330
96
100
AcDbEntity
  8
UMRISS03
100
AcDbLine
 10
162.5
 20
26.9
 30
0.0
 11
178.0
 21
26.9
 31
0.0
  0
LINE
  5
4DD
330
96
100
AcDbEntity
  8
UMRISS03
100
AcDbLine
 10
162.5
 20
21.8
 30
0.0
 11
178.0
 21
21.8
 31
0.0
  0
ATTDEF
  5
4DE
330
96
100
AcDbEntity
  8
TEXT03
100
AcDbText
 10
157.2970331481801
 20
48.39999999999999
 30
0.0
 40
2.399999999999999
  1

  7
NORM
100
AcDbAttributeDefinition
  3
Erstellt von
  2
CREATE_USER
 70
     0
  0
LINE
  5
4DF
330
96
100
AcDbEntity
  8
UMRISS03
100
AcDbLine
 10
178.0
 20
26.9
 30
0.0
 11
172.6147260415504
 21
26.9
 31
0.0
  0
TEXT
  5
4E0
330
96
100
AcDbEntity
  8
TEXT03
100
AcDbText
 10
171.0033292543938
 20
54.30998239240421
 30
0.0
 40
2.5
  1
Material
  7
NORM
100
AcDbText
  0
ATTDEF
  5
4E1
330
96
100
AcDbEntity
  8
TEXT03
100
AcDbText
 10
140.5
 20
17.80000000000001
 30
0.0
 40
2.399999999999999
  1

  7
NORM
100
AcDbAttributeDefinition
  3
ERSETZT: 
  2
ERSETZT
 70
     0
  0
ATTDEF
  5
4E2
330
96
100
AcDbEntity
  8
TEXT03
100
AcDbText
 10
140.5
 20
28.0
 30
0.0
 40
2.399999999999999
  1

  7
NORM
100
AcDbAttributeDefinition
  3
Oberfläche
  2
OBERFL
 70
     0
  0
ATTDEF
  5
4E3
330
96
100
AcDbEntity
  8
TEXT03
100
AcDbText
 10
140.5
 20
33.1
 30
0.0
 40
2.399999999999999
  1

  7
NORM
100
AcDbAttributeDefinition
  3
Firma
  2
FIRMA
 70
     0
  0
ATTDEF
  5
4E4
330
96
100
AcDbEntity
  8
TEXT03
100
AcDbText
 10
140.5
 20
48.39999999999999
 30
0.0
 40
2.399999999999999
  1

  7
NORM
100
AcDbAttributeDefinition
  3
Erstellungsdatum
  2
CREATE_DATE
 70
     0
  0
ATTDEF
  5
4E5
330
96
100
AcDbEntity
  8
TEXT03
100
AcDbText
 10
140.5
 20
43.3
 30
0.0
 40
2.399999999999999
  1

  7
NORM
100
AcDbAttributeDefinition
  3
Gepr.Datum
  2
GEPRÜFT
 70
     0
  0
ATTDEF
  5
4E6
330
96
100
AcDbEntity
  8
TEXT03
100
AcDbText
 10
140.5
 20
38.2
 30
0.0
 40
2.399999999999999
  1

  7
NORM
100
AcDbAttributeDefinition
  3
Norm.Datum
  2
GEPRÜFT
 70
     0
  0
ATTDEF
  5
4E7
330
96
100
AcDbEntity
  8
TEXT03
100
AcDbText
 10
157.2970331481801
 20
43.3
 30
0.0
 40
2.399999999999999
  1

  7
NORM
100
AcDbAttributeDefinition
  3
Gepr.Name
  2
GNAME
 70
     0
  0
ATTDEF
  5
4E8
330
96
100
AcDbEntity
  8
TEXT03
100
AcDbText
 10
157.2970331481801
 20
38.20000000000002
 30
0.0
 40
2.399999999999999
  1

  7
NORM
100
AcDbAttributeDefinition
  3
Norm.Name
  2
GNAME
 70
     0
  0
LINE
  5
4E9
330
96
100
AcDbEntity
  8
ACHSEN
100
AcDbLine
 10
192.8060579200331
 20
21.8
 30
0.0
 11
178.4741001156848
 21
21.8
 31
0.0
  0
LINE
  5
4EA
330
96
100
AcDbEntity
  8
UMRISS03
100
AcDbLine
 10
178.0
 20
32.0
 30
0.0
 11
193.5
 21
32.0
 31
0.0
  0
LINE
  5
4EB
330
96
100
AcDbEntity
  8
UMRISS05
100
AcDbLine
 10
178.0
 20
26.9
 30
0.0
 11
193.5
 21
26.9
 31
0.0
  0
LINE
  5
4EC
330
96
100
AcDbEntity
  8
ACHSEN
100
AcDbLine
 10
188.7863742236852
 20
21.8
 30
0.0
 11
192.8060579200331
 21
21.8
 31
0.0
  0
LINE
  5
4ED
330
96
100
AcDbEntity
  8
ACHSEN
100
AcDbLine
 10
192.9810662376517
 20
21.8
 30
0.0
 11
187.388143552363
 21
21.8
 31
0.0
  0
TEXT
  5
4EE
330
96
100
AcDbEntity
  8
TEXT03
100
AcDbText
 10
187.323820594534
 20
13.16734989480926
 30
0.0
 40
2.5
  1
Ae
  7
NORM
100
AcDbText
  0
CIRCLE
  5
4EF
330
96
100
AcDbEntity
  8
UMRISS05
100
AcDbCircle
 10
188.7863742236852
 20
21.8
 30
0.0
 40
2.5
  0
CIRCLE
  5
4F0
330
96
100
AcDbEntity
  8
UMRISS05
100
AcDbCircle
 10
188.7863742236852
 20
21.8
 30
0.0
 40
1.399999999999999
  0
LINE
  5
4F1
330
96
100
AcDbEntity
  8
UMRISS05
100
AcDbLine
 10
178.0
 20
26.9
 30
0.0
 11
178.0
 21
16.7
 31
0.0
  0
LINE
  5
4F2
330
96
100
AcDbEntity
  8
ACHSEN
100
AcDbLine
 10
188.7863742236852
 20
25.81732748891818
 30
0.0
 11
188.7863742236852
 21
17.42908316525288
 31
0.0
  0
LINE
  5
4F3
330
96
100
AcDbEntity
  8
ACHSEN
100
AcDbLine
 10
188.7863742236852
 20
21.62320474500892
 30
0.0
 11
188.7863742236852
 21
25.81732748891818
 31
0.0
  0
LINE
  5
4F4
330
96
100
AcDbEntity
  8
UMRISS05
100
AcDbLine
 10
179.5193396765278
 20
23.16767983953888
 30
0.0
 11
184.5646591694761
 21
24.2683280668824
 31
0.0
  0
LINE
  5
4F5
330
96
100
AcDbEntity
  8
UMRISS05
100
AcDbLine
 10
179.5193396765278
 20
20.32434200276218
 30
0.0
 11
184.5646591694761
 21
19.40713492617844
 31
0.0
  0
LINE
  5
4F6
330
96
100
AcDbEntity
  8
UMRISS05
100
AcDbLine
 10
179.5193396765278
 20
23.16767983953888
 30
0.0
 11
179.5193396765278
 21
20.32434200276218
 31
0.0
  0
LINE
  5
4F7
330
96
100
AcDbEntity
  8
UMRISS05
100
AcDbLine
 10
179.5193396765278
 20
23.16767983953888
 30
0.0
 11
179.5193396765278
 21
20.32434200276218
 31
0.0
  0
LINE
  5
4F8
330
96
100
AcDbEntity
  8
UMRISS05
100
AcDbLine
 10
184.5646591694761
 20
21.88359178422037
 30
0.0
 11
184.5646591694761
 21
24.2683280668824
 31
0.0
  0
LINE
  5
4F9
330
96
100
AcDbEntity
  8
UMRISS05
100
AcDbLine
 10
184.5646591694761
 20
24.2683280668824
 30
0.0
 11
184.5646591694761
 21
19.40713492617844
 31
0.0
  0
ATTDEF
  5
4FA
330
96
100
AcDbEntity
  8
TEXT03
100
AcDbText
 10
182.5
 20
40.8
 30
0.0
 40
2.399999999999999
  1

  7
NORM
100
AcDbAttributeDefinition
  3
Masstab
  2
MASSTAB
 70
     0
  0
TEXT
  5
4FB
330
96
100
AcDbEntity
  8
TEXT03
100
AcDbText
 10
179.0
 20
48.0
 30
0.0
 40
2.0
  1
Massstab
  7
NORM
100
AcDbText
  0
LINE
  5
4FC
330
96
100
AcDbEntity
  8
UMRISS03
100
AcDbLine
 10
178.0
 20
37.1
 30
0.0
 11
193.5
 21
37.1
 31
0.0
  0
LINE
  5
4FD
330
96
100
AcDbEntity
  8
UMRISS05
100
AcDbLine
 10
178.0
 20
52.40000000000001
 30
0.0
 11
178.0
 21
37.1
 31
0.0
  0
ATTDEF
  5
4FE
330
96
100
AcDbEntity
  8
TEXT03
100
AcDbText
 10
177.9309878663589
 20
61.95152979541115
 30
0.0
 40
2.399999999999999
  1

 41
0.8
  7
NORM
 72
     4
 11
177.9309878663589
 21
61.95152979541115
 31
0.0
100
AcDbAttributeDefinition
  3
Werkstoff
  2
WKST
 70
     0
  0
LINE
  5
4FF
330
96
100
AcDbEntity
  8
0
 62
     6
100
AcDbLine
 10
10.5
 20
4.0
 30
0.0
 11
193.5
 21
4.0
 31
0.0
1001
GENIUS_GENREC_14
1002
{
1000
PYDIR
1011
10.50000000000002
1021
281.0
1031
0.0
1002
}
1002
{
1000
PXDIR
1011
193.5
1021
4.0
1031
0.0
1002
}
1002
{
1000
PORI
1011
10.5
1021
4.0
1031
0.0
1002
}
1002
{
1000
PINS
1011
10.5
1021
4.0
1031
0.0
1002
}
1002
{
1000
PINS2
1011
193.5
1021
281.0
1031
0.0
1002
}
1002
{
1000
C
1070
     1
1002
}
1001
GENIUS_GENODEF_13
1002
{
1000
HIER
1070
     0
1002
}
1002
{
1000
MANEDIT
1070
     0
1002
}
1002
{
1000
NOSEL
1070
     0
1002
}
1002
{
1000
BEHIND
1070
     0
1002
}
1002
{
1000
REACTOR
1002
}
1001
GENIUS_GENOBJ-N-REC_13
1002
{
1000
OWNER
1000
GEN
1002
}
  0
ENDBLK
  5
503
330
96
100
AcDbEntity
  8
0
100
AcDbBlockEnd
  0
BLOCK
  5
625
330
624
100
AcDbEntity
  8
0
100
AcDbBlockBegin
  2
_ACMFILLED15
 70
     0
 10
0.0
 20
0.0
 30
0.0
  3
_ACMFILLED15
  1

  0
TRACE
  5
626
330
624
100
AcDbEntity
  8
0
 62
     0
100
AcDbTrace
 10
-1.0
 20
-0.131652497
 30
0.0
 11
-1.0
 21
0.131652497
 31
0.0
 12
0.0
 22
0.0
 32
0.0
 13
0.0
 23
0.0
 33
0.0
  0
ENDBLK
  5
627
330
624
100
AcDbEntity
  8
0
100
AcDbBlockEnd
  0
BLOCK
  5
633
330
632
100
AcDbEntity
  8
0
100
AcDbBlockBegin
  2
_ACMFILLED30
 70
     0
 10
0.0
 20
0.0
 30
0.0
  3
_ACMFILLED30
  1

  0
TRACE
  5
634
330
632
100
AcDbEntity
  8
0
 62
     0
100
AcDbTrace
 10
-1.0
 20
-0.26794919
 30
0.0
 11
-1.0
 21
0.26794919
 31
0.0
 12
0.0
 22
0.0
 32
0.0
 13
0.0
 23
0.0
 33
0.0
  0
ENDBLK
  5
635
330
632
100
AcDbEntity
  8
0
100
AcDbBlockEnd
  0
ENDSEC
  0
SECTION
  2
ENTITIES
  0
POLYLINE
  5
67
330
2
100
AcDbEntity
  8
ACHSEN
100
AcDb2dPolyline
 66
     1
 10
0.0
 20
0.0
 30
0.0
 70
   128
  0
VERTEX
  5
6C
330
67
100
AcDbEntity
  8
ACHSEN
100
AcDbVertex
100
AcDb2dVertex
 10
70.86960530893851
 20
140.6194416316468
 30
0.0
  0
VERTEX
  5
6D
330
67
100
AcDbEntity
  8
ACHSEN
100
AcDbVertex
100
AcDb2dVertex
 10
80.12195530401516
 20
140.6194416316468
 30
0.0
  0
VERTEX
  5
6E
330
67
100
AcDbEntity
  8
ACHSEN
100
AcDbVertex
100
AcDb2dVertex
 10
80.25592987479615
 20
141.1194435389954
 30
0.0
  0
VERTEX
  5
6F
330
67
100
AcDbEntity
  8
ACHSEN
100
AcDbVertex
100
AcDb2dVertex
 10
80.83328017087627
 20
140.1194444926697
 30
0.0
  0
VERTEX
  5
70
330
67
100
AcDbEntity
  8
ACHSEN
100
AcDbVertex
100
AcDb2dVertex
 10
80.96725474165726
 20
140.6194416316468
 30
0.0
  0
VERTEX
  5
71
330
67
100
AcDbEntity
  8
ACHSEN
100
AcDbVertex
100
AcDb2dVertex
 10
90.21960473673392
 20
140.6194416316468
 30
0.0
  0
SEQEND
  5
72
330
67
100
AcDbEntity
  8
ACHSEN
  0
DIMENSION
  5
73
330
2
100
AcDbEntity
  8
BEMASSUNG
100
AcDbDimension
  2
*D5
 10
59.58288209033028
 20
156.3916104405031
 30
0.0
 11
59.58288209033026
 21
136.7116078831955
 31
0.0
 70
   128
  1
140
 42
38.28199671359853
  3
Katalog 09
100
AcDbAlignedDimension
 13
74.04460502283621
 23
118.1096137269046
 33
0.0
 14
80.54460502283621
 24
156.3916104405031
 34
0.0
 50
270.0
100
AcDbRotatedDimension
  0
DIMENSION
  5
84
330
2
100
AcDbEntity
  8
BEMASSUNG
100
AcDbDimension
  2
*D6
 10
97.80707894368518
 20
118.1096137269046
 30
0.0
 11
97.80707894368516
 21
179.8255194730799
 31
0.0
 70
   128
  1
900/1287
 42
135.7221609211789
  3
Katalog 09
100
AcDbAlignedDimension
 13
84.74460512283611
 23
253.8317746480835
 33
0.0
 14
87.04460502283621
 24
118.1096137269046
 34
0.0
 50
90.0
100
AcDbRotatedDimension
1001
ACAD_DSTYLE_DIMINSPECT
1070
   396
1000
100%
1070
   395
1000

1070
   394
1070
    33
1070
   393
1070
     0
  0
LINE
  5
92
330
2
100
AcDbEntity
  8
ACHSEN
100
AcDbLine
 10
80.54460502283621
 20
257.2859984099999
 30
0.0
 11
80.54460502283621
 21
115.4342629116063
 31
0.0
  0
INSERT
  5
93
102
{ACAD_XDICTIONARY
360
94
102
}
330
2
100
AcDbEntity
  8
0
100
AcDbBlockReference
 66
     1
  2
MSL_Kopf_quer
 10
-10.5
 20
-4.0
 30
0.0
  0
ATTRIB
  5
504
330
93
100
AcDbEntity
  8
KOPF03
 62
     4
100
AcDbText
 10
46.85455393428111
 20
3.164981045680804
 30
0.0
 40
6.0
  1
1825.010 MSL Katalogzeichnung
 41
0.8000000000000001
  7
ARIAL
100
AcDbAttribute
  2
BEZ
 70
     0
  0
ATTRIB
  5
505
330
93
100
AcDbEntity
  8
TEXT03
100
AcDbText
 10
4.999714268268348
 20
29.32554326766729
 30
0.0
 40
2.399999999999999
  1
 
 41
0.8
  7
NORM
100
AcDbAttribute
  2
4AEN
 70
     0
  0
ATTRIB
  5
506
330
93
100
AcDbEntity
  8
TEXT03
100
AcDbText
 10
0.9613100552211903
 20
29.3609284994812
 30
0.0
 40
2.399999999999999
  1
 
 41
0.8
  7
NORM
100
AcDbAttribute
  2
4AIN
 70
     0
  0
ATTRIB
  5
507
330
93
100
AcDbEntity
  8
TEXT03
100
AcDbText
 10
4.999714268268292
 20
44.62554326766729
 30
0.0
 40
2.399999999999999
  1
 
 41
0.8
  7
NORM
100
AcDbAttribute
  2
1AEN
 70
     0
  0
ATTRIB
  5
508
330
93
100
AcDbEntity
  8
TEXT03
100
AcDbText
 10
4.999714268268292
 20
39.52554326766729
 30
0.0
 40
2.399999999999999
  1
 
 41
0.8
  7
NORM
100
AcDbAttribute
  2
2AEN
 70
     0
  0
ATTRIB
  5
509
330
93
100
AcDbEntity
  8
TEXT03
100
AcDbText
 10
4.999714268268348
 20
34.42554326766729
 30
0.0
 40
2.399999999999999
  1
 
 41
0.8
  7
NORM
100
AcDbAttribute
  2
3AEN
 70
     0
  0
ATTRIB
  5
50A
330
93
100
AcDbEntity
  8
TEXT03
100
AcDbText
 10
0.9613100552211335
 20
39.56092849948119
 30
0.0
 40
2.399999999999999
  1
 
 41
0.8
  7
NORM
100
AcDbAttribute
  2
2AIN
 70
     0
  0
ATTRIB
  5
50B
330
93
100
AcDbEntity
  8
TEXT03
100
AcDbText
 10
0.9613100552211903
 20
34.46092849948119
 30
0.0
 40
2.399999999999999
  1
 
 41
0.8
  7
NORM
100
AcDbAttribute
  2
3AIN
 70
     0
  0
ATTRIB
  5
50C
330
93
100
AcDbEntity
  8
TEXT03
100
AcDbText
 10
0.9613100552211335
 20
44.66092849948119
 30
0.0
 40
2.399999999999999
  1
 
 41
0.8
  7
NORM
100
AcDbAttribute
  2
1AIN
 70
     0
  0
ATTRIB
  5
50D
330
93
100
AcDbEntity
  8
TEXT03
100
AcDbText
 10
46.60000000000002
 20
18.8
 30
0.0
 40
2.399999999999999
  1
 
  7
NORM
100
AcDbAttribute
  2
BE3
 70
     0
  0
ATTRIB
  5
50E
330
93
100
AcDbEntity
  8
TEXT03
100
AcDbText
 10
46.60000000000002
 20
13.7
 30
0.0
 40
2.399999999999999
  1
 
  7
NORM
100
AcDbAttribute
  2
BE4
 70
     0
  0
ATTRIB
  5
50F
330
93
100
AcDbEntity
  8
TEXT03
100
AcDbText
 10
46.60000000000002
 20
24.0
 30
0.0
 40
2.399999999999999
  1
Katalog 09
  7
NORM
100
AcDbAttribute
  2
BE2
 70
     0
  0
ATTRIB
  5
510
330
93
100
AcDbEntity
  8
TEXT03
100
AcDbText
 10
87.59971204301672
 20
29.3609284994812
 30
0.0
 40
2.399999999999999
  1
 
 41
0.8
  7
NORM
100
AcDbAttribute
  2
4ADT
 70
     0
  0
ATTRIB
  5
511
330
93
100
AcDbEntity
  8
TEXT03
100
AcDbText
 10
87.59971204301672
 20
34.46092849948119
 30
0.0
 40
2.399999999999999
  1
 
 41
0.8
  7
NORM
100
AcDbAttribute
  2
3ADT
 70
     0
  0
ATTRIB
  5
512
330
93
100
AcDbEntity
  8
TEXT03
100
AcDbText
 10
87.59971204301667
 20
39.56092849948119
 30
0.0
 40
2.399999999999999
  1
 
 41
0.8
  7
NORM
100
AcDbAttribute
  2
2ADT
 70
     0
  0
ATTRIB
  5
513
330
93
100
AcDbEntity
  8
TEXT03
100
AcDbText
 10
87.59971204301667
 20
44.66092849948119
 30
0.0
 40
2.399999999999999
  1
 
 41
0.8
  7
NORM
100
AcDbAttribute
  2
1ADT
 70
     0
  0
ATTRIB
  5
514
330
93
100
AcDbEntity
  8
TEXT03
100
AcDbText
 10
103.4300263604044
 20
29.3609284994812
 30
0.0
 40
2.399999999999999
  1
 
 41
0.8
  7
NORM
100
AcDbAttribute
  2
4ANM
 70
     0
  0
ATTRIB
  5
515
330
93
100
AcDbEntity
  8
TEXT03
100
AcDbText
 10
103.4300263604043
 20
39.56092849948119
 30
0.0
 40
2.399999999999999
  1
 
 41
0.8
  7
NORM
100
AcDbAttribute
  2
2ANM
 70
     0
  0
ATTRIB
  5
516
330
93
100
AcDbEntity
  8
TEXT03
100
AcDbText
 10
103.4300263604044
 20
34.46092849948119
 30
0.0
 40
2.399999999999999
  1
 
 41
0.8
  7
NORM
100
AcDbAttribute
  2
3ANM
 70
     0
  0
ATTRIB
  5
517
330
93
100
AcDbEntity
  8
TEXT03
100
AcDbText
 10
103.4300263604043
 20
44.66092849948119
 30
0.0
 40
2.399999999999999
  1
 
 41
0.8
  7
NORM
100
AcDbAttribute
  2
1ANM
 70
     0
  0
ATTRIB
  5
518
330
93
100
AcDbEntity
  8
KOPF03
 62
     3
100
AcDbText
 10
82.09887117853762
 20
57.19569430846174
 30
0.0
 40
2.399999999999999
  1
1825.010 MSL Katalogzeichnung
  7
NORM
 72
     4
 11
111.1845854642519
 21
57.99569430846173
 31
0.0
100
AcDbAttribute
  2
BEZ
 70
     0
  0
ATTRIB
  5
519
330
93
100
AcDbEntity
  8
KOPF03
 62
     4
100
AcDbText
 10
136.2955046350698
 20
3.164981045680804
 30
0.0
 40
6.0
  1
PR1825-010 09
 41
0.8000000000000001
  7
ARIAL
 72
     1
 11
155.5544405150153
 21
3.164981045680804
 31
0.0
100
AcDbAttribute
  2
DOCID
 70
     0
  0
ATTRIB
  5
51A
330
93
100
AcDbEntity
  8
TEXT05
100
AcDbText
 10
177.0
 20
1.153252766150956
 30
0.0
 40
5.0
  1
 
 41
0.8
  7
ARIAL
100
AcDbAttribute
  2
INDEX
 70
     0
  0
ATTRIB
  5
51B
330
93
100
AcDbEntity
  8
TEXT03
100
AcDbText
 10
146.7970331481801
 20
44.4
 30
0.0
 40
2.399999999999999
  1
Cs
  7
NORM
100
AcDbAttribute
  2
CREATE_USER
 70
     0
  0
ATTRIB
  5
51C
330
93
100
AcDbEntity
  8
TEXT03
100
AcDbText
 10
130.0
 20
13.80000000000001
 30
0.0
 40
2.399999999999999
  1
 
  7
NORM
100
AcDbAttribute
  2
ERSETZT
 70
     0
  0
ATTRIB
  5
51D
330
93
100
AcDbEntity
  8
TEXT03
100
AcDbText
 10
130.0
 20
24.0
 30
0.0
 40
2.399999999999999
  1
 
  7
NORM
100
AcDbAttribute
  2
OBERFL
 70
     0
  0
ATTRIB
  5
51E
330
93
100
AcDbEntity
  8
TEXT03
100
AcDbText
 10
130.0
 20
29.1
 30
0.0
 40
2.399999999999999
  1
 
  7
NORM
100
AcDbAttribute
  2
FIRMA
 70
     0
  0
ATTRIB
  5
51F
330
93
100
AcDbEntity
  8
TEXT03
100
AcDbText
 10
130.0
 20
44.4
 30
0.0
 40
2.399999999999999
  1
19.12.08
  7
NORM
100
AcDbAttribute
  2
CREATE_DATE
 70
     0
  0
ATTRIB
  5
520
330
93
100
AcDbEntity
  8
TEXT03
100
AcDbText
 10
130.0
 20
39.3
 30
0.0
 40
2.399999999999999
  1
                
  7
NORM
100
AcDbAttribute
  2
GEPRÜFT
 70
     0
  0
ATTRIB
  5
521
330
93
100
AcDbEntity
  8
TEXT03
100
AcDbText
 10
130.0
 20
34.2
 30
0.0
 40
2.399999999999999
  1
                
  7
NORM
100
AcDbAttribute
  2
GEPRÜFT
 70
     0
  0
ATTRIB
  5
522
330
93
100
AcDbEntity
  8
TEXT03
100
AcDbText
 10
146.7970331481801
 20
39.30000000000001
 30
0.0
 40
2.399999999999999
  1
 
  7
NORM
100
AcDbAttribute
  2
GNAME
 70
     0
  0
ATTRIB
  5
523
330
93
100
AcDbEntity
  8
TEXT03
100
AcDbText
 10
146.7970331481801
 20
34.20000000000002
 30
0.0
 40
2.399999999999999
  1
 
  7
NORM
100
AcDbAttribute
  2
GNAME
 70
     0
  0
ATTRIB
  5
524
330
93
100
AcDbEntity
  8
TEXT03
100
AcDbText
 10
172.0
 20
36.8
 30
0.0
 40
2.399999999999999
  1
1:1
  7
NORM
100
AcDbAttribute
  2
MASSTAB
 70
     0
  0
ATTRIB
  5
525
330
93
100
AcDbEntity
  8
TEXT03
100
AcDbText
 10
166.5624164377875
 20
57.95152979541114
 30
0.0
 40
2.399999999999999
  1
 
 41
0.8
  7
NORM
 72
     4
 11
167.4309878663589
 21
57.95152979541114
 31
0.0
100
AcDbAttribute
  2
WKST
 70
     0
  0
SEQEND
  5
526
330
93
100
AcDbEntity
  8
0
  0
LINE
  5
527
330
2
100
AcDbEntity
  8
UMRISS05
100
AcDbLine
 10
74.54460502283621
 20
118.1096137269047
 30
0.0
 11
86.54460502283621
 21
118.1096137269047
 31
0.0
  0
POLYLINE
  5
528
330
2
100
AcDbEntity
  8
ACHSEN
100
AcDb2dPolyline
 66
     1
 10
0.0
 20
0.0
 30
0.0
 70
   128
  0
VERTEX
  5
529
330
528
100
AcDbEntity
  8
ACHSEN
100
AcDbVertex
100
AcDb2dVertex
 10
70.86960530893851
 20
138.6194435389954
 30
0.0
  0
VERTEX
  5
52A
330
528
100
AcDbEntity
  8
ACHSEN
100
AcDbVertex
100
AcDb2dVertex
 10
80.12195530401516
 20
138.6194435389954
 30
0.0
  0
VERTEX
  5
52B
330
528
100
AcDbEntity
  8
ACHSEN
100
AcDbVertex
100
AcDb2dVertex
 10
80.25592987479615
 20
139.1194454463441
 30
0.0
  0
VERTEX
  5
52C
330
528
100
AcDbEntity
  8
ACHSEN
100
AcDbVertex
100
AcDb2dVertex
 10
80.83328017087627
 20
138.1194416316468
 30
0.0
  0
VERTEX
  5
52D
330
528
100
AcDbEntity
  8
ACHSEN
100
AcDbVertex
100
AcDb2dVertex
 10
80.96725474165726
 20
138.6194435389954
 30
0.0
  0
VERTEX
  5
52E
330
528
100
AcDbEntity
  8
ACHSEN
100
AcDbVertex
100
AcDb2dVertex
 10
90.21960473673392
 20
138.6194435389954
 30
0.0
  0
SEQEND
  5
52F
330
528
100
AcDbEntity
  8
ACHSEN
  0
LINE
  5
530
330
2
100
AcDbEntity
  8
UMRISS05
100
AcDbLine
 10
74.54460502283621
 20
96.15771564886919
 30
0.0
 11
86.54460502283621
 21
96.15771564886919
 31
0.0
  0
LINE
  5
531
330
2
100
AcDbEntity
  8
UMRISS05
100
AcDbLine
 10
86.54460502283621
 20
101.1577156488692
 30
0.0
 11
74.54460502283621
 21
101.1577156488692
 31
0.0
  0
HATCH
  5
532
330
2
100
AcDbEntity
  8
UMRISS02
100
AcDbHatch
 10
0.0
 20
0.0
 30
0.0
210
0.0
220
0.0
230
1.0
  2
ANSI31
 70
     0
 71
     0
 91
        1
 92
        1
 93
        4
 72
     1
 10
86.54460502283621
 20
101.1577156488692
 11
74.54460502283621
 21
101.1577156488692
 72
     3
 10
80.54460502283621
 20
98.65771564886919
 11
-5.999999999999989
 21
2.499999999999999
 40
1.0
 50
0.0
 51
45.23972989608088
 73
     1
 72
     1
 10
74.54460502283621
 20
96.15771564886919
 11
86.54460502283621
 21
96.15771564886919
 72
     3
 10
80.54460502283621
 20
98.65771564886919
 11
5.999999999999989
 21
-2.499999999999999
 40
1.0
 50
0.0
 51
45.23972989608088
 73
     1
 97
        0
 75
     0
 76
     1
 52
0.0
 41
25.4
 77
     0
 78
     1
 53
45.0
 43
-60.97094563646351
 44
1.030176946921557
 45
-2.245064030267288
 46
2.245064030267288
 79
     0
 98
        1
 10
-60.97094563646351
 20
1.030176946921557
  0
DIMENSION
  5
533
330
2
100
AcDbEntity
  8
BEMASSUNG
100
AcDbDimension
  2
*D9
 10
87.04460502283621
 20
84.54747646239965
 30
0.0
 11
80.54460502283621
 21
89.3332424924133
 31
0.0
  1
ø<>{}{\H0.71x;\C3;\S 0^ -0.2;}
 71
     5
 42
13.0
  3
Katalog 09
100
AcDbAlignedDimension
 13
74.04460502283621
 23
98.65771564886919
 33
0.0
 14
87.04460502283621
 24
98.65771564886919
 34
0.0
100
AcDbRotatedDimension
1001
ACAD_DSTYLE_DIMINSPECT
1070
   396
1000
100%
1070
   395
1000

1070
   394
1070
    33
1070
   393
1070
     0
1001
ACAD
1000
DSTYLE
1002
{
1070
   286
1070
     8
1070
   284
1070
     8
1070
   274
1070
     2
1070
   272
1070
     2
1070
    47
1040
0.0
1070
    48
1040
0.2
1002
}
1001
GENIUS_GENDTOL_13
1000
TolSmNrm
1000

1000
{\H0.71x;$2\S$+$P^ $-$M;}
1040
13.0
  0
DIMENSION
  5
543
330
2
100
AcDbEntity
  8
BEMASSUNG
100
AcDbDimension
  2
*D7
 10
59.49007031572502
 20
96.15771564886919
 30
0.0
 11
59.490070315725
 21
98.65771564886919
 31
0.0
 70
   128
  1
<>
 42
5.0
  3
Katalog 09
100
AcDbAlignedDimension
 13
74.54460502283621
 23
101.1577156488692
 33
0.0
 14
74.54460502283621
 24
96.15771564886919
 34
0.0
 50
90.0
100
AcDbRotatedDimension
  0
ARC
  5
552
330
2
100
AcDbEntity
  8
UMRISS05
100
AcDbCircle
 10
80.54460502283621
 20
98.65771564886919
 30
0.0
 40
6.499999999999989
100
AcDbArc
 50
157.3801350519583
 51
202.6198649480417
  0
LINE
  5
553
330
2
100
AcDbEntity
  8
UMRISS05
100
AcDbLine
 10
74.04460502283621
 20
138.6194435389954
 30
0.0
 11
74.04460502283621
 21
118.1096137269047
 31
0.0
  0
LINE
  5
554
330
2
100
AcDbEntity
  8
UMRISS05
100
AcDbLine
 10
74.54460502283621
 20
138.6194435389954
 30
0.0
 11
74.54460502283621
 21
118.1096137269047
 31
0.0
  0
LINE
  5
555
330
2
100
AcDbEntity
  8
UMRISS05
100
AcDbLine
 10
74.54460502283621
 20
118.1096137269046
 30
0.0
 11
74.04460502283621
 21
118.1096137269046
 31
0.0
  0
LINE
  5
556
330
2
100
AcDbEntity
  8
ACHSEN
100
AcDbLine
 10
80.54460502283621
 20
102.9356424456053
 30
0.0
 11
80.54460502283621
 21
94.08848595147091
 31
0.0
  0
ARC
  5
557
330
2
100
AcDbEntity
  8
UMRISS05
100
AcDbCircle
 10
80.54460502283621
 20
98.65771564886919
 30
0.0
 40
6.499999999999989
100
AcDbArc
 50
337.3801350519583
 51
22.61986494804168
  0
LINE
  5
558
330
2
100
AcDbEntity
  8
UMRISS05
100
AcDbLine
 10
87.04460502283621
 20
138.6194435389954
 30
0.0
 11
87.04460502283621
 21
118.1096137269047
 31
0.0
  0
LINE
  5
559
330
2
100
AcDbEntity
  8
UMRISS05
100
AcDbLine
 10
86.54460502283621
 20
138.6194435389954
 30
0.0
 11
86.54460502283621
 21
118.1096137269047
 31
0.0
  0
LINE
  5
55A
330
2
100
AcDbEntity
  8
UMRISS05
100
AcDbLine
 10
87.04460502283621
 20
118.1096137269046
 30
0.0
 11
86.54460502283621
 21
118.1096137269046
 31
0.0
  0
LINE
  5
55B
330
2
100
AcDbEntity
  8
UMRISS05
100
AcDbLine
 10
82.20291741801384
 20
156.3916104405029
 30
0.0
 11
78.88629262765846
 21
156.3916104405029
 31
0.0
  0
LINE
  5
55C
330
2
100
AcDbEntity
  8
UMRISS05
100
AcDbLine
 10
85.54460502283609
 20
253.0317746480835
 30
0.0
 11
75.54460502283632
 21
253.0317746480835
 31
0.0
  0
LINE
  5
55D
330
2
100
AcDbEntity
  8
UMRISS05
100
AcDbLine
 10
76.34460502283627
 20
253.8317746480835
 30
0.0
 11
84.74460502283603
 21
253.8317746480835
 31
0.0
  0
POLYLINE
  5
55E
330
2
100
AcDbEntity
  8
ACHSEN
100
AcDb2dPolyline
 66
     1
 10
0.0
 20
0.0
 30
0.0
 70
   128
  0
VERTEX
  5
55F
330
55E
100
AcDbEntity
  8
ACHSEN
100
AcDbVertex
100
AcDb2dVertex
 10
72.36960507051993
 20
191.3625410827119
 30
0.0
  0
VERTEX
  5
560
330
55E
100
AcDbEntity
  8
ACHSEN
100
AcDbVertex
100
AcDb2dVertex
 10
80.12195530401516
 20
191.3625410827119
 30
0.0
  0
VERTEX
  5
561
330
55E
100
AcDbEntity
  8
ACHSEN
100
AcDbVertex
100
AcDb2dVertex
 10
80.25592987479615
 20
191.8625429900605
 30
0.0
  0
VERTEX
  5
562
330
55E
100
AcDbEntity
  8
ACHSEN
100
AcDbVertex
100
AcDb2dVertex
 10
80.83328017087627
 20
190.862544241758
 30
0.0
  0
VERTEX
  5
563
330
55E
100
AcDbEntity
  8
ACHSEN
100
AcDbVertex
100
AcDb2dVertex
 10
80.96725474165726
 20
191.3625410827119
 30
0.0
  0
VERTEX
  5
564
330
55E
100
AcDbEntity
  8
ACHSEN
100
AcDbVertex
100
AcDb2dVertex
 10
88.71960497515249
 20
191.3625410827119
 30
0.0
  0
SEQEND
  5
565
330
55E
100
AcDbEntity
  8
ACHSEN
  0
POLYLINE
  5
566
330
2
100
AcDbEntity
  8
ACHSEN
100
AcDb2dPolyline
 66
     1
 10
0.0
 20
0.0
 30
0.0
 70
   128
  0
VERTEX
  5
567
330
566
100
AcDbEntity
  8
ACHSEN
100
AcDbVertex
100
AcDb2dVertex
 10
72.36960507051993
 20
189.3625432880837
 30
0.0
  0
VERTEX
  5
568
330
566
100
AcDbEntity
  8
ACHSEN
100
AcDbVertex
100
AcDb2dVertex
 10
80.12195530401516
 20
189.3625432880837
 30
0.0
  0
VERTEX
  5
569
330
566
100
AcDbEntity
  8
ACHSEN
100
AcDbVertex
100
AcDb2dVertex
 10
80.25592987479615
 20
189.8625404270608
 30
0.0
  0
VERTEX
  5
56A
330
566
100
AcDbEntity
  8
ACHSEN
100
AcDbVertex
100
AcDb2dVertex
 10
80.83328017087627
 20
188.8625413807351
 30
0.0
  0
VERTEX
  5
56B
330
566
100
AcDbEntity
  8
ACHSEN
100
AcDbVertex
100
AcDb2dVertex
 10
80.96725474165726
 20
189.3625432880837
 30
0.0
  0
VERTEX
  5
56C
330
566
100
AcDbEntity
  8
ACHSEN
100
AcDbVertex
100
AcDb2dVertex
 10
88.71960497515249
 20
189.3625432880837
 30
0.0
  0
SEQEND
  5
56D
330
566
100
AcDbEntity
  8
ACHSEN
  0
LINE
  5
56E
330
2
100
AcDbEntity
  8
UMRISS05
100
AcDbLine
 10
85.54460502283621
 20
228.8317746480835
 30
0.0
 11
75.54460502283621
 21
228.8317746480835
 31
0.0
  0
DIMENSION
  5
56F
330
2
100
AcDbEntity
  8
BEMASSUNG
100
AcDbDimension
  2
*D8
 10
85.54460502283621
 20
261.9152266091759
 30
0.0
 11
80.54460502283626
 21
265.1362191057653
 31
0.0
  1
M<>
 71
     5
 42
9.999999999999886
  3
Katalog 09
100
AcDbAlignedDimension
 13
75.54460502283632
 23
253.0317746480835
 33
0.0
 14
85.54460502283621
 24
253.0317746480835
 34
0.0
100
AcDbRotatedDimension
  0
LINE
  5
57E
330
2
100
AcDbEntity
  8
UMRISS05
100
AcDbLine
 10
75.54460502283621
 20
191.3625413144344
 30
0.0
 11
75.54460502283621
 21
253.0317746480835
 31
0.0
  0
LINE
  5
57F
330
2
100
AcDbEntity
  8
UMRISS02
100
AcDbLine
 10
76.28860502283635
 20
253.7757746480837
 30
0.0
 11
76.28860502283635
 21
228.8317746480835
 31
0.0
  0
LINE
  5
580
330
2
100
AcDbEntity
  8
UMRISS05
100
AcDbLine
 10
75.54460502283621
 20
158.3281021136068
 30
0.0
 11
75.54460502283621
 21
189.3625432217834
 31
0.0
  0
LINE
  5
581
330
2
100
AcDbEntity
  8
UMRISS05
100
AcDbLine
 10
74.54460502283621
 20
156.3916104405031
 30
0.0
 11
74.54460502283621
 21
140.6194416316468
 31
0.0
  0
LINE
  5
582
330
2
100
AcDbEntity
  8
UMRISS05
100
AcDbLine
 10
74.04460502283621
 20
156.3916104405031
 30
0.0
 11
74.04460502283621
 21
140.6194416316468
 31
0.0
  0
POLYLINE
  5
583
330
2
100
AcDbEntity
  8
UMRISS05
100
AcDb2dPolyline
 66
     1
 10
0.0
 20
0.0
 30
0.0
 70
   128
  0
VERTEX
  5
584
330
583
100
AcDbEntity
  8
UMRISS05
100
AcDbVertex
100
AcDb2dVertex
 10
74.54412735121298
 20
156.3936525615175
 30
0.0
  0
VERTEX
  5
585
330
583
100
AcDbEntity
  8
UMRISS05
100
AcDbVertex
100
AcDb2dVertex
 10
74.65717352049399
 20
156.4227968486268
 30
0.0
  0
VERTEX
  5
586
330
583
100
AcDbEntity
  8
UMRISS05
100
AcDbVertex
100
AcDb2dVertex
 10
74.76613259928274
 20
156.4564424785096
 30
0.0
  0
VERTEX
  5
587
330
583
100
AcDbEntity
  8
UMRISS05
100
AcDbVertex
100
AcDb2dVertex
 10
74.86948466913748
 20
156.4945131572206
 30
0.0
  0
VERTEX
  5
588
330
583
100
AcDbEntity
  8
UMRISS05
100
AcDbVertex
100
AcDb2dVertex
 10
74.97165179865408
 20
156.5386873515565
 30
0.0
  0
VERTEX
  5
589
330
583
100
AcDbEntity
  8
UMRISS05
100
AcDbVertex
100
AcDb2dVertex
 10
75.07472432272482
 20
156.5897280009706
 30
0.0
  0
VERTEX
  5
58A
330
583
100
AcDbEntity
  8
UMRISS05
100
AcDbVertex
100
AcDb2dVertex
 10
75.17724669592428
 20
156.6466432841737
 30
0.0
  0
VERTEX
  5
58B
330
583
100
AcDbEntity
  8
UMRISS05
100
AcDbVertex
100
AcDb2dVertex
 10
75.27776456491995
 20
156.7087465556581
 30
0.0
  0
VERTEX
  5
58C
330
583
100
AcDbEntity
  8
UMRISS05
100
AcDbVertex
100
AcDb2dVertex
 10
75.37482119219351
 20
156.7749697001893
 30
0.0
  0
VERTEX
  5
58D
330
583
100
AcDbEntity
  8
UMRISS05
100
AcDbVertex
100
AcDb2dVertex
 10
75.466961628366
 20
156.844702366205
 30
0.0
  0
VERTEX
  5
58E
330
583
100
AcDbEntity
  8
UMRISS05
100
AcDbVertex
100
AcDb2dVertex
 10
75.55273122208166
 20
156.9168764384706
 30
0.0
  0
VERTEX
  5
58F
330
583
100
AcDbEntity
  8
UMRISS05
100
AcDbVertex
100
AcDb2dVertex
 10
75.63238001482535
 20
156.9923311503846
 30
0.0
  0
VERTEX
  5
590
330
583
100
AcDbEntity
  8
UMRISS05
100
AcDbVertex
100
AcDb2dVertex
 10
75.71018046753454
 20
157.0751100810487
 30
0.0
  0
VERTEX
  5
591
330
583
100
AcDbEntity
  8
UMRISS05
100
AcDbVertex
100
AcDb2dVertex
 10
75.78534788506079
 20
157.1642214091737
 30
0.0
  0
VERTEX
  5
592
330
583
100
AcDbEntity
  8
UMRISS05
100
AcDbVertex
100
AcDb2dVertex
 10
75.85666156427908
 20
157.2580629619081
 30
0.0
  0
VERTEX
  5
593
330
583
100
AcDbEntity
  8
UMRISS05
100
AcDbVertex
100
AcDb2dVertex
 10
75.92289990799475
 20
157.3553377421815
 30
0.0
  0
VERTEX
  5
594
330
583
100
AcDbEntity
  8
UMRISS05
100
AcDbVertex
100
AcDb2dVertex
 10
75.98284191505957
 20
157.4544435771425
 30
0.0
  0
VERTEX
  5
595
330
583
100
AcDbEntity
  8
UMRISS05
100
AcDbVertex
100
AcDb2dVertex
 10
76.03526628630209
 20
157.5540834697206
 30
0.0
  0
VERTEX
  5
596
330
583
100
AcDbEntity
  8
UMRISS05
100
AcDbVertex
100
AcDb2dVertex
 10
76.07970959560919
 20
157.6543337138612
 30
0.0
  0
VERTEX
  5
597
330
583
100
AcDbEntity
  8
UMRISS05
100
AcDbVertex
100
AcDb2dVertex
 10
76.11854529993582
 20
157.7609163554628
 30
0.0
  0
VERTEX
  5
598
330
583
100
AcDbEntity
  8
UMRISS05
100
AcDbVertex
100
AcDb2dVertex
 10
76.15158117430258
 20
157.8727632792909
 30
0.0
  0
VERTEX
  5
599
330
583
100
AcDbEntity
  8
UMRISS05
100
AcDbVertex
100
AcDb2dVertex
 10
76.17825484888602
 20
157.9875093730409
 30
0.0
  0
VERTEX
  5
59A
330
583
100
AcDbEntity
  8
UMRISS05
100
AcDbVertex
100
AcDb2dVertex
 10
76.19800395386267
 20
158.1030947001893
 30
0.0
  0
VERTEX
  5
59B
330
583
100
AcDbEntity
  8
UMRISS05
100
AcDbVertex
100
AcDb2dVertex
 10
76.21026582138586
 20
158.2173067363221
 30
0.0
  0
VERTEX
  5
59C
330
583
100
AcDbEntity
  8
UMRISS05
100
AcDbVertex
100
AcDb2dVertex
 10
76.21447808163214
 20
158.3280855449159
 30
0.0
  0
SEQEND
  5
59D
330
583
100
AcDbEntity
  8
UMRISS05
  0
ARC
  5
59E
330
2
100
AcDbEntity
  8
UMRISS05
100
AcDbCircle
 10
73.54460502283621
 20
158.3281021136066
 30
0.0
 40
2.0
100
AcDbArc
 50
284.4775121859299
 51
0.0
  0
POLYLINE
  5
59F
330
2
100
AcDbEntity
  8
UMRISS05
100
AcDb2dPolyline
 66
     1
 10
0.0
 20
0.0
 30
0.0
 70
   128
  0
VERTEX
  5
5A0
330
59F
100
AcDbEntity
  8
UMRISS05
100
AcDbVertex
100
AcDb2dVertex
 10
78.88629264252234
 20
156.391592624994
 30
0.0
  0
VERTEX
  5
5A1
330
59F
100
AcDbEntity
  8
UMRISS05
100
AcDbVertex
100
AcDb2dVertex
 10
78.73657873885679
 20
156.394034031244
 30
0.0
  0
VERTEX
  5
5A2
330
59F
100
AcDbEntity
  8
UMRISS05
100
AcDbVertex
100
AcDb2dVertex
 10
78.58206219093847
 20
156.4014345439393
 30
0.0
  0
VERTEX
  5
5A3
330
59F
100
AcDbEntity
  8
UMRISS05
100
AcDbVertex
100
AcDb2dVertex
 10
78.42454410212088
 20
156.4140993388612
 30
0.0
  0
VERTEX
  5
5A4
330
59F
100
AcDbEntity
  8
UMRISS05
100
AcDbVertex
100
AcDb2dVertex
 10
78.26582527773428
 20
156.4324098857362
 30
0.0
  0
VERTEX
  5
5A5
330
59F
100
AcDbEntity
  8
UMRISS05
100
AcDbVertex
100
AcDb2dVertex
 10
78.10770682113219
 20
156.4566713603456
 30
0.0
  0
VERTEX
  5
5A6
330
59F
100
AcDbEntity
  8
UMRISS05
100
AcDbVertex
100
AcDb2dVertex
 10
77.95198983566809
 20
156.4871889384706
 30
0.0
  0
VERTEX
  5
5A7
330
59F
100
AcDbEntity
  8
UMRISS05
100
AcDbVertex
100
AcDb2dVertex
 10
77.80047542469549
 20
156.5242677958925
 30
0.0
  0
VERTEX
  5
5A8
330
59F
100
AcDbEntity
  8
UMRISS05
100
AcDbVertex
100
AcDb2dVertex
 10
77.65496439354468
 20
156.5681368144471
 30
0.0
  0
VERTEX
  5
5A9
330
59F
100
AcDbEntity
  8
UMRISS05
100
AcDbVertex
100
AcDb2dVertex
 10
77.51583493368674
 20
156.6197878154237
 30
0.0
  0
VERTEX
  5
5AA
330
59F
100
AcDbEntity
  8
UMRISS05
100
AcDbVertex
100
AcDb2dVertex
 10
77.37539774792242
 20
156.6828829081972
 30
0.0
  0
VERTEX
  5
5AB
330
59F
100
AcDbEntity
  8
UMRISS05
100
AcDbVertex
100
AcDb2dVertex
 10
77.23509884493399
 20
156.756582859369
 30
0.0
  0
VERTEX
  5
5AC
330
59F
100
AcDbEntity
  8
UMRISS05
100
AcDbVertex
100
AcDb2dVertex
 10
77.09843791143942
 20
156.8394380839784
 30
0.0
  0
VERTEX
  5
5AD
330
59F
100
AcDbEntity
  8
UMRISS05
100
AcDbVertex
100
AcDb2dVertex
 10
76.9689158262496
 20
156.9296938212831
 30
0.0
  0
VERTEX
  5
5AE
330
59F
100
AcDbEntity
  8
UMRISS05
100
AcDbVertex
100
AcDb2dVertex
 10
76.85003227608252
 20
157.0259004863221
 30
0.0
  0
VERTEX
  5
5AF
330
59F
100
AcDbEntity
  8
UMRISS05
100
AcDbVertex
100
AcDb2dVertex
 10
76.74226141588736
 20
157.12912619433
 30
0.0
  0
VERTEX
  5
5B0
330
59F
100
AcDbEntity
  8
UMRISS05
100
AcDbVertex
100
AcDb2dVertex
 10
76.63898742811728
 20
157.2458559306581
 30
0.0
  0
VERTEX
  5
5B1
330
59F
100
AcDbEntity
  8
UMRISS05
100
AcDbVertex
100
AcDb2dVertex
 10
76.54268062727499
 20
157.3729616435487
 30
0.0
  0
VERTEX
  5
5B2
330
59F
100
AcDbEntity
  8
UMRISS05
100
AcDbVertex
100
AcDb2dVertex
 10
76.45659900324393
 20
157.5061708720643
 30
0.0
  0
VERTEX
  5
5B3
330
59F
100
AcDbEntity
  8
UMRISS05
100
AcDbVertex
100
AcDb2dVertex
 10
76.38400024788428
 20
157.6416689189393
 30
0.0
  0
VERTEX
  5
5B4
330
59F
100
AcDbEntity
  8
UMRISS05
100
AcDbVertex
100
AcDb2dVertex
 10
76.32624066488791
 20
157.7794557841737
 30
0.0
  0
VERTEX
  5
5B5
330
59F
100
AcDbEntity
  8
UMRISS05
100
AcDbVertex
100
AcDb2dVertex
 10
76.27935267107535
 20
157.9285341533143
 30
0.0
  0
VERTEX
  5
5B6
330
59F
100
AcDbEntity
  8
UMRISS05
100
AcDbVertex
100
AcDb2dVertex
 10
76.2442038120513
 20
158.0840975078065
 30
0.0
  0
VERTEX
  5
5B7
330
59F
100
AcDbEntity
  8
UMRISS05
100
AcDbVertex
100
AcDb2dVertex
 10
76.22213251011419
 20
158.2404238017518
 30
0.0
  0
VERTEX
  5
5B8
330
59F
100
AcDbEntity
  8
UMRISS05
100
AcDbVertex
100
AcDb2dVertex
 10
76.21447808163214
 20
158.3916384013612
 30
0.0
  0
SEQEND
  5
5B9
330
59F
100
AcDbEntity
  8
UMRISS05
  0
LINE
  5
5BA
330
2
100
AcDbEntity
  8
UMRISS05
100
AcDbLine
 10
74.54460502283621
 20
156.3916104405029
 30
0.0
 11
74.04460502283621
 21
156.3916104405029
 31
0.0
  0
LINE
  5
5BB
330
2
100
AcDbEntity
  8
UMRISS05
100
AcDbLine
 10
76.214478003914
 20
158.3916104405032
 30
0.0
 11
76.214478003914
 21
158.3281021136068
 31
0.0
  0
LINE
  5
5BC
330
2
100
AcDbEntity
  8
UMRISS05
100
AcDbLine
 10
76.34460502283616
 20
253.8317746480835
 30
0.0
 11
75.54460502283621
 21
253.0317746480835
 31
0.0
  0
LINE
  5
5BD
330
2
100
AcDbEntity
  8
UMRISS05
100
AcDbLine
 10
85.54460502283621
 20
191.3625413144344
 30
0.0
 11
85.54460502283621
 21
253.0317746480835
 31
0.0
  0
LINE
  5
5BE
330
2
100
AcDbEntity
  8
UMRISS02
100
AcDbLine
 10
84.80060502283606
 20
228.8317746480835
 30
0.0
 11
84.80060502283606
 21
253.7757746480837
 31
0.0
  0
LINE
  5
5BF
330
2
100
AcDbEntity
  8
UMRISS05
100
AcDbLine
 10
85.54460502283621
 20
158.3281021136068
 30
0.0
 11
85.54460502283621
 21
189.3625432217834
 31
0.0
  0
LINE
  5
5C0
330
2
100
AcDbEntity
  8
UMRISS05
100
AcDbLine
 10
86.54460502283621
 20
156.3916104405031
 30
0.0
 11
86.54460502283621
 21
140.6194416316468
 31
0.0
  0
LINE
  5
5C1
330
2
100
AcDbEntity
  8
UMRISS05
100
AcDbLine
 10
87.04460502283621
 20
156.3916104405031
 30
0.0
 11
87.04460502283621
 21
140.6194416316468
 31
0.0
  0
POLYLINE
  5
5C2
330
2
100
AcDbEntity
  8
UMRISS05
100
AcDb2dPolyline
 66
     1
 10
0.0
 20
0.0
 30
0.0
 70
   128
  0
VERTEX
  5
5C3
330
5C2
100
AcDbEntity
  8
UMRISS05
100
AcDbVertex
100
AcDb2dVertex
 10
84.87473196404028
 20
158.3280855449159
 30
0.0
  0
VERTEX
  5
5C4
330
5C2
100
AcDbEntity
  8
UMRISS05
100
AcDbVertex
100
AcDb2dVertex
 10
84.87894422428656
 20
158.2173067363221
 30
0.0
  0
VERTEX
  5
5C5
330
5C2
100
AcDbEntity
  8
UMRISS05
100
AcDbVertex
100
AcDb2dVertex
 10
84.89120609180975
 20
158.1030947001893
 30
0.0
  0
VERTEX
  5
5C6
330
5C2
100
AcDbEntity
  8
UMRISS05
100
AcDbVertex
100
AcDb2dVertex
 10
84.91095519678641
 20
157.9875093730409
 30
0.0
  0
VERTEX
  5
5C7
330
5C2
100
AcDbEntity
  8
UMRISS05
100
AcDbVertex
100
AcDb2dVertex
 10
84.93762887136984
 20
157.8727632792909
 30
0.0
  0
VERTEX
  5
5C8
330
5C2
100
AcDbEntity
  8
UMRISS05
100
AcDbVertex
100
AcDb2dVertex
 10
84.9706647457366
 20
157.7609163554628
 30
0.0
  0
VERTEX
  5
5C9
330
5C2
100
AcDbEntity
  8
UMRISS05
100
AcDbVertex
100
AcDb2dVertex
 10
85.00950045006323
 20
157.6543337138612
 30
0.0
  0
VERTEX
  5
5CA
330
5C2
100
AcDbEntity
  8
UMRISS05
100
AcDbVertex
100
AcDb2dVertex
 10
85.05394375937033
 20
157.5540834697206
 30
0.0
  0
VERTEX
  5
5CB
330
5C2
100
AcDbEntity
  8
UMRISS05
100
AcDbVertex
100
AcDb2dVertex
 10
85.10636813061285
 20
157.4544435771425
 30
0.0
  0
VERTEX
  5
5CC
330
5C2
100
AcDbEntity
  8
UMRISS05
100
AcDbVertex
100
AcDb2dVertex
 10
85.16631013767767
 20
157.3553377421815
 30
0.0
  0
VERTEX
  5
5CD
330
5C2
100
AcDbEntity
  8
UMRISS05
100
AcDbVertex
100
AcDb2dVertex
 10
85.23254848139334
 20
157.2580629619081
 30
0.0
  0
VERTEX
  5
5CE
330
5C2
100
AcDbEntity
  8
UMRISS05
100
AcDbVertex
100
AcDb2dVertex
 10
85.30386216061163
 20
157.1642214091737
 30
0.0
  0
VERTEX
  5
5CF
330
5C2
100
AcDbEntity
  8
UMRISS05
100
AcDbVertex
100
AcDb2dVertex
 10
85.37902957813788
 20
157.0751100810487
 30
0.0
  0
VERTEX
  5
5D0
330
5C2
100
AcDbEntity
  8
UMRISS05
100
AcDbVertex
100
AcDb2dVertex
 10
85.45683003084707
 20
156.9923311503846
 30
0.0
  0
VERTEX
  5
5D1
330
5C2
100
AcDbEntity
  8
UMRISS05
100
AcDbVertex
100
AcDb2dVertex
 10
85.53647882359076
 20
156.9168764384706
 30
0.0
  0
VERTEX
  5
5D2
330
5C2
100
AcDbEntity
  8
UMRISS05
100
AcDbVertex
100
AcDb2dVertex
 10
85.62224841730643
 20
156.844702366205
 30
0.0
  0
VERTEX
  5
5D3
330
5C2
100
AcDbEntity
  8
UMRISS05
100
AcDbVertex
100
AcDb2dVertex
 10
85.71438885347891
 20
156.7749697001893
 30
0.0
  0
VERTEX
  5
5D4
330
5C2
100
AcDbEntity
  8
UMRISS05
100
AcDbVertex
100
AcDb2dVertex
 10
85.81144548075247
 20
156.7087465556581
 30
0.0
  0
VERTEX
  5
5D5
330
5C2
100
AcDbEntity
  8
UMRISS05
100
AcDbVertex
100
AcDb2dVertex
 10
85.91196334974814
 20
156.6466432841737
 30
0.0
  0
VERTEX
  5
5D6
330
5C2
100
AcDbEntity
  8
UMRISS05
100
AcDbVertex
100
AcDb2dVertex
 10
86.0144857229476
 20
156.5897280009706
 30
0.0
  0
VERTEX
  5
5D7
330
5C2
100
AcDbEntity
  8
UMRISS05
100
AcDbVertex
100
AcDb2dVertex
 10
86.11755824701834
 20
156.5386873515565
 30
0.0
  0
VERTEX
  5
5D8
330
5C2
100
AcDbEntity
  8
UMRISS05
100
AcDbVertex
100
AcDb2dVertex
 10
86.21972537653494
 20
156.4945131572206
 30
0.0
  0
VERTEX
  5
5D9
330
5C2
100
AcDbEntity
  8
UMRISS05
100
AcDbVertex
100
AcDb2dVertex
 10
86.32307744638968
 20
156.4564424785096
 30
0.0
  0
VERTEX
  5
5DA
330
5C2
100
AcDbEntity
  8
UMRISS05
100
AcDbVertex
100
AcDb2dVertex
 10
86.43203652517843
 20
156.4227968486268
 30
0.0
  0
VERTEX
  5
5DB
330
5C2
100
AcDbEntity
  8
UMRISS05
100
AcDbVertex
100
AcDb2dVertex
 10
86.54508269445944
 20
156.3936525615175
 30
0.0
  0
SEQEND
  5
5DC
330
5C2
100
AcDbEntity
  8
UMRISS05
  0
ARC
  5
5DD
330
2
100
AcDbEntity
  8
UMRISS05
100
AcDbCircle
 10
87.5446050228362
 20
158.3281021136066
 30
0.0
 40
2.0
100
AcDbArc
 50
180.0
 51
255.5224878140701
  0
POLYLINE
  5
5DE
330
2
100
AcDbEntity
  8
UMRISS05
100
AcDb2dPolyline
 66
     1
 10
0.0
 20
0.0
 30
0.0
 70
   128
  0
VERTEX
  5
5DF
330
5DE
100
AcDbEntity
  8
UMRISS05
100
AcDbVertex
100
AcDb2dVertex
 10
84.87473196404028
 20
158.3916384013612
 30
0.0
  0
VERTEX
  5
5E0
330
5DE
100
AcDbEntity
  8
UMRISS05
100
AcDbVertex
100
AcDb2dVertex
 10
84.86707753555823
 20
158.2404238017518
 30
0.0
  0
VERTEX
  5
5E1
330
5DE
100
AcDbEntity
  8
UMRISS05
100
AcDbVertex
100
AcDb2dVertex
 10
84.84500623362112
 20
158.0840975078065
 30
0.0
  0
VERTEX
  5
5E2
330
5DE
100
AcDbEntity
  8
UMRISS05
100
AcDbVertex
100
AcDb2dVertex
 10
84.80985737459707
 20
157.9285341533143
 30
0.0
  0
VERTEX
  5
5E3
330
5DE
100
AcDbEntity
  8
UMRISS05
100
AcDbVertex
100
AcDb2dVertex
 10
84.76296938078451
 20
157.7794557841737
 30
0.0
  0
VERTEX
  5
5E4
330
5DE
100
AcDbEntity
  8
UMRISS05
100
AcDbVertex
100
AcDb2dVertex
 10
84.70520979778815
 20
157.6416689189393
 30
0.0
  0
VERTEX
  5
5E5
330
5DE
100
AcDbEntity
  8
UMRISS05
100
AcDbVertex
100
AcDb2dVertex
 10
84.6326110424285
 20
157.5061708720643
 30
0.0
  0
VERTEX
  5
5E6
330
5DE
100
AcDbEntity
  8
UMRISS05
100
AcDbVertex
100
AcDb2dVertex
 10
84.54652941839743
 20
157.3729616435487
 30
0.0
  0
VERTEX
  5
5E7
330
5DE
100
AcDbEntity
  8
UMRISS05
100
AcDbVertex
100
AcDb2dVertex
 10
84.45022261755514
 20
157.2458559306581
 30
0.0
  0
VERTEX
  5
5E8
330
5DE
100
AcDbEntity
  8
UMRISS05
100
AcDbVertex
100
AcDb2dVertex
 10
84.34694862978506
 20
157.12912619433
 30
0.0
  0
VERTEX
  5
5E9
330
5DE
100
AcDbEntity
  8
UMRISS05
100
AcDbVertex
100
AcDb2dVertex
 10
84.2391777695899
 20
157.0259004863221
 30
0.0
  0
VERTEX
  5
5EA
330
5DE
100
AcDbEntity
  8
UMRISS05
100
AcDbVertex
100
AcDb2dVertex
 10
84.12029421942282
 20
156.9296938212831
 30
0.0
  0
VERTEX
  5
5EB
330
5DE
100
AcDbEntity
  8
UMRISS05
100
AcDbVertex
100
AcDb2dVertex
 10
83.990772134233
 20
156.8394380839784
 30
0.0
  0
VERTEX
  5
5EC
330
5DE
100
AcDbEntity
  8
UMRISS05
100
AcDbVertex
100
AcDb2dVertex
 10
83.85411120073843
 20
156.756582859369
 30
0.0
  0
VERTEX
  5
5ED
330
5DE
100
AcDbEntity
  8
UMRISS05
100
AcDbVertex
100
AcDb2dVertex
 10
83.71381229775
 20
156.6828829081972
 30
0.0
  0
VERTEX
  5
5EE
330
5DE
100
AcDbEntity
  8
UMRISS05
100
AcDbVertex
100
AcDb2dVertex
 10
83.57337511198569
 20
156.6197878154237
 30
0.0
  0
VERTEX
  5
5EF
330
5DE
100
AcDbEntity
  8
UMRISS05
100
AcDbVertex
100
AcDb2dVertex
 10
83.43424565212774
 20
156.5681368144471
 30
0.0
  0
VERTEX
  5
5F0
330
5DE
100
AcDbEntity
  8
UMRISS05
100
AcDbVertex
100
AcDb2dVertex
 10
83.28873462097693
 20
156.5242677958925
 30
0.0
  0
VERTEX
  5
5F1
330
5DE
100
AcDbEntity
  8
UMRISS05
100
AcDbVertex
100
AcDb2dVertex
 10
83.13722021000433
 20
156.4871889384706
 30
0.0
  0
VERTEX
  5
5F2
330
5DE
100
AcDbEntity
  8
UMRISS05
100
AcDbVertex
100
AcDb2dVertex
 10
82.98150322454024
 20
156.4566713603456
 30
0.0
  0
VERTEX
  5
5F3
330
5DE
100
AcDbEntity
  8
UMRISS05
100
AcDbVertex
100
AcDb2dVertex
 10
82.82338476793814
 20
156.4324098857362
 30
0.0
  0
VERTEX
  5
5F4
330
5DE
100
AcDbEntity
  8
UMRISS05
100
AcDbVertex
100
AcDb2dVertex
 10
82.66466594355154
 20
156.4140993388612
 30
0.0
  0
VERTEX
  5
5F5
330
5DE
100
AcDbEntity
  8
UMRISS05
100
AcDbVertex
100
AcDb2dVertex
 10
82.50714785473395
 20
156.4014345439393
 30
0.0
  0
VERTEX
  5
5F6
330
5DE
100
AcDbEntity
  8
UMRISS05
100
AcDbVertex
100
AcDb2dVertex
 10
82.35263130681563
 20
156.394034031244
 30
0.0
  0
VERTEX
  5
5F7
330
5DE
100
AcDbEntity
  8
UMRISS05
100
AcDbVertex
100
AcDb2dVertex
 10
82.20291740315008
 20
156.391592624994
 30
0.0
  0
SEQEND
  5
5F8
330
5DE
100
AcDbEntity
  8
UMRISS05
  0
LINE
  5
5F9
330
2
100
AcDbEntity
  8
UMRISS05
100
AcDbLine
 10
87.04460502283621
 20
156.3916104405029
 30
0.0
 11
86.54460502283621
 21
156.3916104405029
 31
0.0
  0
LINE
  5
5FA
330
2
100
AcDbEntity
  8
UMRISS05
100
AcDbLine
 10
84.87473204175842
 20
158.3281021136068
 30
0.0
 11
84.87473204175842
 21
158.3916104405032
 31
0.0
  0
LINE
  5
5FB
330
2
100
AcDbEntity
  8
UMRISS05
100
AcDbLine
 10
84.74460502283614
 20
253.8317746480835
 30
0.0
 11
85.54460502283621
 21
253.0317746480835
 31
0.0
  0
ENDSEC
  0
SECTION
  2
OBJECTS
  0
DICTIONARY
  5
B
330
0
100
AcDbDictionary
281
     1
  3
ACAD_2007HEADERVARS_RT
350
68B
  3
ACAD_COLOR
350
4C
  3
ACAD_DETAILVIEWSTYLE
350
61E
  3
ACAD_FIELDLIST
350
653
  3
ACAD_GROUP
350
39
  3
ACAD_LAYOUT
350
18
  3
ACAD_MATERIAL
350
D
  3
ACAD_MLEADERSTYLE
350
4F
  3
ACAD_MLINESTYLE
350
3A
  3
ACAD_PLOTSETTINGS
350
3B
  3
ACAD_PLOTSTYLENAME
350
A
  3
ACAD_SCALELIST
350
4D
  3
ACAD_SECTIONVIEWSTYLE
350
62C
  3
ACAD_TABLESTYLE
350
4E
  3
ACAD_VISUALSTYLE
350
2E
  3
ACDB_RECOMPOSE_DATA
350
68A
  3
AcDbVariableDictionary
350
67C
  3
AcmDictionary
350
60D
  3
AMG
350
5FE
  0
DICTIONARY
  5
1F
330
1E
100
AcDbDictionary
280
     1
281
     1
  3
ACAD_LAYERFILTERS
360
20
  3
ACLYDICTIONARY
360
21
  0
DICTIONARY
  5
7
330
6
100
AcDbDictionary
280
     1
281
     1
  3
ADSK_XREC_LAYER_RECONCILED
360
8
  0
DICTIONARY
  5
465
330
464
100
AcDbDictionary
280
     1
281
     1
  3
ADSK_XREC_LAYER_RECONCILED
360
466
  0
DICTIONARY
  5
E1
330
E0
100
AcDbDictionary
280
     1
281
     1
  3
ADSK_XREC_LAYER_RECONCILED
360
E2
  0
DICTIONARY
  5
DA
330
D9
100
AcDbDictionary
280
     1
281
     1
  3
ADSK_XREC_LAYER_RECONCILED
360
DB
  0
DICTIONARY
  5
D6
330
D5
100
AcDbDictionary
280
     1
281
     1
  3
ADSK_XREC_LAYER_RECONCILED
360
D7
  0
DICTIONARY
  5
49E
330
49D
100
AcDbDictionary
280
     1
281
     1
  3
ADSK_XREC_LAYER_RECONCILED
360
49F
  0
DICTIONARY
  5
75
330
74
100
AcDbDictionary
280
     1
281
     1
  3
ADSK_XREC_LAYER_RECONCILED
360
76
  0
DICTIONARY
  5
69
330
68
100
AcDbDictionary
280
     1
281
     1
  3
ADSK_XREC_LAYER_RECONCILED
360
6A
  0
DICTIONARY
  5
9B
330
9A
100
AcDbDictionary
280
     1
281
     1
  3
ADSK_XREC_LAYER_RECONCILED
360
9C
  0
DICTIONARY
  5
A7
330
A6
100
AcDbDictionary
280
     1
281
     1
  3
ADSK_XREC_LAYER_RECONCILED
360
A8
  0
DICTIONARY
  5
C9
330
C8
100
AcDbDictionary
280
     1
281
     1
  3
ADSK_XREC_LAYER_RECONCILED
360
CA
  0
DICTIONARY
  5
C5
330
C4
100
AcDbDictionary
280
     1
281
     1
  3
ADSK_XREC_LAYER_RECONCILED
360
C6
  0
DICTIONARY
  5
C1
330
C0
100
AcDbDictionary
280
     1
281
     1
  3
ADSK_XREC_LAYER_RECONCILED
360
C2
  0
DICTIONARY
  5
BD
330
BC
100
AcDbDictionary
280
     1
281
     1
  3
ADSK_XREC_LAYER_RECONCILED
360
BE
  0
DICTIONARY
  5
CD
330
CC
100
AcDbDictionary
280
     1
281
     1
  3
ADSK_XREC_LAYER_RECONCILED
360
CE
  0
DICTIONARY
  5
B9
330
B8
100
AcDbDictionary
280
     1
281
     1
  3
ADSK_XREC_LAYER_RECONCILED
360
BA
  0
DICTIONARY
  5
B4
330
B3
100
AcDbDictionary
280
     1
281
     1
  3
ADSK_XREC_LAYER_RECONCILED
360
B5
  0
DICTIONARY
  5
D2
330
D1
100
AcDbDictionary
280
     1
281
     1
  3
ADSK_XREC_LAYER_RECONCILED
360
D3
  0
DICTIONARY
  5
4A3
330
4A2
100
AcDbDictionary
280
     1
281
     1
  3
ADSK_XREC_LAYER_RECONCILED
360
4A4
  0
DICTIONARY
  5
F1
330
F0
100
AcDbDictionary
280
     1
281
     1
  3
ADSK_XREC_LAYER_RECONCILED
360
F2
  0
DICTIONARY
  5
498
330
497
100
AcDbDictionary
280
     1
281
     1
  3
ADSK_XREC_LAYER_RECONCILED
360
499
  0
DICTIONARY
  5
3
330
2
100
AcDbDictionary
280
     1
281
     1
  3
ACAD_SORTENTS
360
5FC
  0
DICTIONARY
  5
97
330
96
100
AcDbDictionary
280
     1
281
     1
  0
DICTIONARY
  5
69B
330
53D
100
AcDbDictionary
280
     1
281
     1
  3
ACAD_MTEXT_RT
360
69C
  0
DICTIONARY
  5
94
330
93
100
AcDbDictionary
280
     1
281
     1
  3
AIMD_TITLE
360
95
  0
DICTIONARY
  5
68B
102
{ACAD_REACTORS
330
B
102
}
330
B
100
AcDbDictionary
281
     1
  3
DIMJOGANG
350
68C
  0
DICTIONARY
  5
4C
102
{ACAD_REACTORS
330
B
102
}
330
B
100
AcDbDictionary
281
     1
  0
DICTIONARY
  5
61E
102
{ACAD_REACTORS
330
B
102
}
330
B
100
AcDbDictionary
281
     1
  3
Metric50
350
629
  0
FIELDLIST
  5
653
102
{ACAD_REACTORS
330
B
102
}
330
B
100
AcDbIdSet
 90
        6
330
621
330
622
330
623
330
62F
330
630
330
631
100
AcDbFieldList
  0
DICTIONARY
  5
39
102
{ACAD_REACTORS
330
B
102
}
330
B
100
AcDbDictionary
281
     1
  0
DICTIONARY
  5
18
102
{ACAD_REACTORS
330
B
102
}
330
B
100
AcDbDictionary
281
     1
  3
Layout1
350
1D
  3
Model
350
17
  0
DICTIONARY
  5
D
102
{ACAD_REACTORS
330
B
102
}
330
B
100
AcDbDictionary
281
     1
  3
ByBlock
350
44
  3
ByLayer
350
3C
  3
Global
350
C
  0
DICTIONARY
  5
4F
102
{ACAD_REACTORS
330
B
102
}
330
B
100
AcDbDictionary
281
     1
  0
DICTIONARY
  5
3A
102
{ACAD_REACTORS
330
B
102
}
330
B
100
AcDbDictionary
281
     1
  3
STANDARD
350
51
  0
DICTIONARY
  5
3B
102
{ACAD_REACTORS
330
B
102
}
330
B
100
AcDbDictionary
281
     1
  0
ACDBDICTIONARYWDFLT
  5
A
102
{ACAD_REACTORS
330
B
102
}
330
B
100
AcDbDictionary
281
     1
  3
Normal
350
9
100
AcDbDictionaryWithDefault
340
9
  0
DICTIONARY
  5
4D
102
{ACAD_REACTORS
330
B
102
}
330
B
100
AcDbDictionary
281
     1
  3
A0
350
56
  3
A1
350
57
  3
A2
350
58
  3
A3
350
59
  3
A4
350
5A
  3
A5
350
5B
  3
A6
350
5C
  3
A7
350
5D
  3
A8
350
5E
  3
A9
350
5F
  3
B0
350
60
  3
B1
350
61
  3
B2
350
62
  3
B3
350
63
  3
B4
350
64
  3
B5
350
65
  3
B6
350
66
  0
DICTIONARY
  5
62C
102
{ACAD_REACTORS
330
B
102
}
330
B
100
AcDbDictionary
281
     1
  3
Metric50
350
637
  0
DICTIONARY
  5
4E
102
{ACAD_REACTORS
330
B
102
}
330
B
100
AcDbDictionary
281
     1
  3
Standard
350
52
  0
DICTIONARY
  5
2E
102
{ACAD_REACTORS
330
B
102
}
330
B
100
AcDbDictionary
281
     1
  3
2dWireframe
350
2D
  3
Realistic
350
54
  3
Wireframe
350
55
  0
XRECORD
  5
68A
102
{ACAD_REACTORS
330
B
102
}
330
B
100
AcDbXrecord
280
     1
 90
        1
330
52
  0
DICTIONARY
  5
67C
102
{ACAD_REACTORS
330
B
102
}
330
B
100
AcDbDictionary
281
     1
  3
CANNOSCALE
350
681
  3
CMLEADERSTYLE
350
67E
  3
CTABLESTYLE
350
67D
  3
CVIEWDETAILSTYLE
350
67F
  3
CVIEWSECTIONSTYLE
350
680
  3
DIMASSOC
350
686
  3
HIDETEXT
350
684
  3
INDEXCTL
350
683
  3
SOLIDHIST
350
687
  3
SORTENTS
350
682
  3
XCLIPFRAME
350
685
  0
DICTIONARY
  5
60D
102
{ACAD_REACTORS
330
B
102
}
330
B
100
AcDbDictionary
281
     1
  3
AcmStdDictionary
350
60E
  0
DICTIONARY
  5
5FE
102
{ACAD_REACTORS
330
B
102
}
330
B
100
AcDbDictionary
281
     1
  3
AcMgSettings
350
608
  0
DICTIONARY
  5
20
102
{ACAD_REACTORS
330
1F
102
}
330
1F
100
AcDbDictionary
281
     1
  0
DICTIONARY
  5
21
102
{ACAD_REACTORS
330
1F
102
}
330
1F
100
AcDbDictionary
281
     1
1001
ACAD
1000
<All
  0
XRECORD
  5
8
102
{ACAD_REACTORS
330
7
102
}
330
7
100
AcDbXrecord
280
     1
290
     1
  0
XRECORD
  5
466
102
{ACAD_REACTORS
330
465
102
}
330
465
100
AcDbXrecord
280
     1
290
     1
  0
XRECORD
  5
E2
102
{ACAD_REACTORS
330
E1
102
}
330
E1
100
AcDbXrecord
280
     1
290
     1
  0
XRECORD
  5
DB
102
{ACAD_REACTORS
330
DA
102
}
330
DA
100
AcDbXrecord
280
     1
290
     1
  0
XRECORD
  5
D7
102
{ACAD_REACTORS
330
D6
102
}
330
D6
100
AcDbXrecord
280
     1
290
     1
  0
XRECORD
  5
49F
102
{ACAD_REACTORS
330
49E
102
}
330
49E
100
AcDbXrecord
280
     1
290
     1
  0
XRECORD
  5
76
102
{ACAD_REACTORS
330
75
102
}
330
75
100
AcDbXrecord
280
     1
290
     1
  0
XRECORD
  5
6A
102
{ACAD_REACTORS
330
69
102
}
330
69
100
AcDbXrecord
280
     1
290
     1
  0
XRECORD
  5
9C
102
{ACAD_REACTORS
330
9B
102
}
330
9B
100
AcDbXrecord
280
     1
290
     1
  0
XRECORD
  5
A8
102
{ACAD_REACTORS
330
A7
102
}
330
A7
100
AcDbXrecord
280
     1
290
     1
  0
XRECORD
  5
CA
102
{ACAD_REACTORS
330
C9
102
}
330
C9
100
AcDbXrecord
280
     1
290
     1
  0
XRECORD
  5
C6
102
{ACAD_REACTORS
330
C5
102
}
330
C5
100
AcDbXrecord
280
     1
290
     1
  0
XRECORD
  5
C2
102
{ACAD_REACTORS
330
C1
102
}
330
C1
100
AcDbXrecord
280
     1
290
     1
  0
XRECORD
  5
BE
102
{ACAD_REACTORS
330
BD
102
}
330
BD
100
AcDbXrecord
280
     1
290
     1
  0
XRECORD
  5
CE
102
{ACAD_REACTORS
330
CD
102
}
330
CD
100
AcDbXrecord
280
     1
290
     1
  0
XRECORD
  5
BA
102
{ACAD_REACTORS
330
B9
102
}
330
B9
100
AcDbXrecord
280
     1
290
     1
  0
XRECORD
  5
B5
102
{ACAD_REACTORS
330
B4
102
}
330
B4
100
AcDbXrecord
280
     1
290
     1
  0
XRECORD
  5
D3
102
{ACAD_REACTORS
330
D2
102
}
330
D2
100
AcDbXrecord
280
     1
290
     1
  0
XRECORD
  5
4A4
102
{ACAD_REACTORS
330
4A3
102
}
330
4A3
100
AcDbXrecord
280
     1
290
     1
  0
XRECORD
  5
F2
102
{ACAD_REACTORS
330
F1
102
}
330
F1
100
AcDbXrecord
280
     1
290
     1
  0
XRECORD
  5
499
102
{ACAD_REACTORS
330
498
102
}
330
498
100
AcDbXrecord
280
     1
290
     1
  0
SORTENTSTABLE
  5
5FC
102
{ACAD_REACTORS
330
3
102
}
330
3
100
AcDbSortentsTable
330
2
331
57F
  5
581
331
59E
  5
93
331
5BD
  5
57F
331
5FB
  5
55E
331
73
  5
5BA
331
5C1
  5
554
331
56E
  5
5DD
331
530
  5
5BE
331
67
  5
59F
331
558
  5
531
331
554
  5
556
331
5BA
  5
67
331
581
  5
532
331
528
  5
59E
331
543
  5
5C2
331
5BF
  5
56F
331
5DE
  5
559
331
84
  5
5BB
331
532
  5
5C1
331
92
  5
5BC
331
55A
  5
555
331
556
  5
5F9
331
5BC
  5
566
331
5FA
  5
530
331
5C0
  5
543
331
583
  5
73
331
553
  5
552
331
580
  5
56E
331
5BE
  5
580
331
5DD
  5
527
331
59F
  5
55A
331
5C2
  5
84
331
566
  5
583
331
56F
  5
5DE
331
531
  5
5C0
331
559
  5
557
331
555
  5
558
331
55E
  5
582
331
5BB
  5
528
331
5F9
  5
92
331
527
  5
533
331
582
  5
553
331
533
  5
5FA
331
552
  5
5BD
331
93
  5
5FB
331
557
  5
5BF
  0
XRECORD
  5
69C
102
{ACAD_REACTORS
330
69B
102
}
330
69B
100
AcDbXrecord
280
     1
 40
53617.0
  1
\A1;ø13{}{\H0.71x;\C3;\S 0^ -0.2;}
  0
XRECORD
  5
95
102
{ACAD_REACTORS
330
94
102
}
330
94
100
AcDbXrecord
280
     1
280
     1
  1

  0
XRECORD
  5
68C
102
{ACAD_REACTORS
330
68B
102
}
330
68B
100
AcDbXrecord
280
     1
 40
1.570796326794896
  0
ACDBDETAILVIEWSTYLE
  5
629
102
{ACAD_XDICTIONARY
360
69D
102
}
102
{ACAD_REACTORS
330
61E
330
628
102
}
330
61E
100
AcDbModelDocViewStyle
 70
     0
  3
Metric50
290
     0
100
AcDbDetailViewStyle
 70
     0
 71
     0
 90
        3
 71
     1
340
24
 40
5.0
340
0
 40
5.0
300

 40
0.0
280
     1
 71
     2
340
15
 90
       25
 71
     3
340
24
 40
5.0
 90
        0
 40
15.0
 90
        1
300
%<\AcVar ViewDetailId>% (%<\AcVar ViewScale \f "%sn">%)
 71
     4
340
15
 90
       25
340
15
 90
       25
280
     0
  0
LAYOUT
  5
1D
102
{ACAD_XDICTIONARY
360
690
102
}
102
{ACAD_REACTORS
330
18
102
}
330
18
100
AcDbPlotSettings
  1

  2
\\mslklsv1\MSLKLP05
  4

  6

 40
0.0
 41
0.0
 42
0.0
 43
0.0
 44
0.0
 45
0.0
 46
0.0
 47
0.0
 48
0.0
 49
0.0
140
0.0
141
0.0
142
1.0
143
1.0
 70
   688
 72
     0
 73
     0
 74
     5
  7
Katalog 09.ctb
 75
    16
147
1.0
148
0.0
149
0.0
100
AcDbLayout
  1
Layout1
 70
     1
 71
     1
 10
0.0
 20
0.0
 11
12.0
 21
9.0
 12
0.0
 22
0.0
 32
0.0
 14
-11.30424263383604
 24
0.0
 34
0.0
 15
183.0
 25
277.0
 35
0.0
146
0.0
 13
0.0
 23
0.0
 33
0.0
 16
1.0
 26
0.0
 36
0.0
 17
0.0
 27
1.0
 37
0.0
 76
     0
330
1A
  0
LAYOUT
  5
17
102
{ACAD_XDICTIONARY
360
68E
102
}
102
{ACAD_REACTORS
330
18
102
}
330
18
100
AcDbPlotSettings
  1

  2
\\mslklsv1\MSLKLP05
  4
A4
  6

 40
6.720416545867919
 41
6.720392704010009
 42
7.694076538085937
 43
4.011077880859375
 44
209.9733276367187
 45
296.9683227539062
 46
0.0
 47
0.0
 48
0.0
 49
0.0
140
0.0
141
0.0
142
1.0
143
2.203635465632209
 70
 11952
 72
     1
 73
     1
 74
     0
  7
Katalog 09.ctb
 75
     0
147
0.4537955644642461
148
108.9801614753229
149
7.035562395860836
100
AcDbLayout
  1
Model
 70
     1
 71
     0
 10
0.0
 20
0.0
 11
12.0
 21
9.0
 12
0.0
 22
0.0
 32
0.0
 14
0.0
 24
0.0
 34
0.0
 15
0.0
 25
0.0
 35
0.0
146
0.0
 13
0.0
 23
0.0
 33
0.0
 16
1.0
 26
0.0
 36
0.0
 17
0.0
 27
1.0
 37
0.0
 76
     0
330
2
331
2C
1001
ACAD_PSEXT
1000
\\mslklsv1\MSLKLP05
1000
HP LaserJet 5000 Series PCL
1000
CAD
1000
HP LaserJet 5000N
1070
     0
  0
MATERIAL
  5
44
102
{ACAD_XDICTIONARY
360
45
102
}
102
{ACAD_REACTORS
330
D
102
}
330
D
100
AcDbMaterial
  1
ByBlock
 72
     0
 43
0.0008202099737533
 43
0.0
 43
0.0
 43
0.0
 43
0.0
 43
0.0008202099737533
 43
0.0
 43
0.0
 43
0.0
 43
0.0
 43
1.0
 43
0.0
 43
0.0
 43
0.0
 43
0.0
 43
1.0
 77
     0
 47
0.0008202099737533
 47
0.0
 47
0.0
 47
0.0
 47
0.0
 47
0.0008202099737533
 47
0.0
 47
0.0
 47
0.0
 47
0.0
 47
1.0
 47
0.0
 47
0.0
 47
0.0
 47
0.0
 47
1.0
171
     0
 49
0.0008202099737533
 49
0.0
 49
0.0
 49
0.0
 49
0.0
 49
0.0008202099737533
 49
0.0
 49
0.0
 49
0.0
 49
0.0
 49
1.0
 49
0.0
 49
0.0
 49
0.0
 49
0.0
 49
1.0
175
     0
142
0.0008202099737533
142
0.0
142
0.0
142
0.0
142
0.0
142
0.0008202099737533
142
0.0
142
0.0
142
0.0
142
0.0
142
1.0
142
0.0
142
0.0
142
0.0
142
0.0
142
1.0
179
     0
144
0.0008202099737533
144
0.0
144
0.0
144
0.0
144
0.0
144
0.0008202099737533
144
0.0
144
0.0
144
0.0
144
0.0
144
1.0
144
0.0
144
0.0
144
0.0
144
0.0
144
1.0
147
0.0008202099737533
147
0.0
147
0.0
147
0.0
147
0.0
147
0.0008202099737533
147
0.0
147
0.0
147
0.0
147
0.0
147
1.0
147
0.0
147
0.0
147
0.0
147
0.0
147
1.0
  0
MATERIAL
  5
3C
102
{ACAD_XDICTIONARY
360
3D
102
}
102
{ACAD_REACTORS
330
D
102
}
330
D
100
AcDbMaterial
  1
ByLayer
 72
     0
 43
0.0008202099737533
 43
0.0
 43
0.0
 43
0.0
 43
0.0
 43
0.0008202099737533
 43
0.0
 43
0.0
 43
0.0
 43
0.0
 43
1.0
 43
0.0
 43
0.0
 43
0.0
 43
0.0
 43
1.0
 77
     0
 47
0.0008202099737533
 47
0.0
 47
0.0
 47
0.0
 47
0.0
 47
0.0008202099737533
 47
0.0
 47
0.0
 47
0.0
 47
0.0
 47
1.0
 47
0.0
 47
0.0
 47
0.0
 47
0.0
 47
1.0
171
     0
 49
0.0008202099737533
 49
0.0
 49
0.0
 49
0.0
 49
0.0
 49
0.0008202099737533
 49
0.0
 49
0.0
 49
0.0
 49
0.0
 49
1.0
 49
0.0
 49
0.0
 49
0.0
 49
0.0
 49
1.0
175
     0
142
0.0008202099737533
142
0.0
142
0.0
142
0.0
142
0.0
142
0.0008202099737533
142
0.0
142
0.0
142
0.0
142
0.0
142
1.0
142
0.0
142
0.0
142
0.0
142
0.0
142
1.0
179
     0
144
0.0008202099737533
144
0.0
144
0.0
144
0.0
144
0.0
144
0.0008202099737533
144
0.0
144
0.0
144
0.0
144
0.0
144
1.0
144
0.0
144
0.0
144
0.0
144
0.0
144
1.0
147
0.0008202099737533
147
0.0
147
0.0
147
0.0
147
0.0
147
0.0008202099737533
147
0.0
147
0.0
147
0.0
147
0.0
147
1.0
147
0.0
147
0.0
147
0.0
147
0.0
147
1.0
  0
MATERIAL
  5
C
102
{ACAD_XDICTIONARY
360
E
102
}
102
{ACAD_REACTORS
330
D
102
}
330
D
100
AcDbMaterial
  1
Global
 72
     0
 43
0.0008202099737533
 43
0.0
 43
0.0
 43
0.0
 43
0.0
 43
0.0008202099737533
 43
0.0
 43
0.0
 43
0.0
 43
0.0
 43
1.0
 43
0.0
 43
0.0
 43
0.0
 43
0.0
 43
1.0
 77
     0
 47
0.0008202099737533
 47
0.0
 47
0.0
 47
0.0
 47
0.0
 47
0.0008202099737533
 47
0.0
 47
0.0
 47
0.0
 47
0.0
 47
1.0
 47
0.0
 47
0.0
 47
0.0
 47
0.0
 47
1.0
171
     0
 49
0.0008202099737533
 49
0.0
 49
0.0
 49
0.0
 49
0.0
 49
0.0008202099737533
 49
0.0
 49
0.0
 49
0.0
 49
0.0
 49
1.0
 49
0.0
 49
0.0
 49
0.0
 49
0.0
 49
1.0
175
     0
142
0.0008202099737533
142
0.0
142
0.0
142
0.0
142
0.0
142
0.0008202099737533
142
0.0
142
0.0
142
0.0
142
0.0
142
1.0
142
0.0
142
0.0
142
0.0
142
0.0
142
1.0
179
     0
144
0.0008202099737533
144
0.0
144
0.0
144
0.0
144
0.0
144
0.0008202099737533
144
0.0
144
0.0
144
0.0
144
0.0
144
1.0
144
0.0
144
0.0
144
0.0
144
0.0
144
1.0
147
0.0008202099737533
147
0.0
147
0.0
147
0.0
147
0.0
147
0.0008202099737533
147
0.0
147
0.0
147
0.0
147
0.0
147
1.0
147
0.0
147
0.0
147
0.0
147
0.0
147
1.0
  0
MLINESTYLE
  5
51
102
{ACAD_REACTORS
330
3A
102
}
330
3A
100
AcDbMlineStyle
  2
STANDARD
 70
     0
  3

 62
     0
 51
90.0
 52
90.0
 71
     2
 49
0.5
 62
   256
  6
BYLAYER
 49
-0.5
 62
   256
  6
BYLAYER
  0
ACDBPLACEHOLDER
  5
9
102
{ACAD_REACTORS
330
A
102
}
330
A
  0
SCALE
  5
56
102
{ACAD_REACTORS
330
4D
102
}
330
4D
100
AcDbScale
 70
     0
300
1:1
140
1.0
141
1.0
290
     1
  0
SCALE
  5
57
102
{ACAD_REACTORS
330
4D
102
}
330
4D
100
AcDbScale
 70
     0
300
1:2
140
1.0
141
2.0
290
     0
  0
SCALE
  5
58
102
{ACAD_REACTORS
330
4D
102
}
330
4D
100
AcDbScale
 70
     0
300
1:4
140
1.0
141
4.0
290
     0
  0
SCALE
  5
59
102
{ACAD_REACTORS
330
4D
102
}
330
4D
100
AcDbScale
 70
     0
300
1:5
140
1.0
141
5.0
290
     0
  0
SCALE
  5
5A
102
{ACAD_REACTORS
330
4D
102
}
330
4D
100
AcDbScale
 70
     0
300
1:8
140
1.0
141
8.0
290
     0
  0
SCALE
  5
5B
102
{ACAD_REACTORS
330
4D
102
}
330
4D
100
AcDbScale
 70
     0
300
1:10
140
1.0
141
10.0
290
     0
  0
SCALE
  5
5C
102
{ACAD_REACTORS
330
4D
102
}
330
4D
100
AcDbScale
 70
     0
300
1:16
140
1.0
141
16.0
290
     0
  0
SCALE
  5
5D
102
{ACAD_REACTORS
330
4D
102
}
330
4D
100
AcDbScale
 70
     0
300
1:20
140
1.0
141
20.0
290
     0
  0
SCALE
  5
5E
102
{ACAD_REACTORS
330
4D
102
}
330
4D
100
AcDbScale
 70
     0
300
1:30
140
1.0
141
30.0
290
     0
  0
SCALE
  5
5F
102
{ACAD_REACTORS
330
4D
102
}
330
4D
100
AcDbScale
 70
     0
300
1:40
140
1.0
141
40.0
290
     0
  0
SCALE
  5
60
102
{ACAD_REACTORS
330
4D
102
}
330
4D
100
AcDbScale
 70
     0
300
1:50
140
1.0
141
50.0
290
     0
  0
SCALE
  5
61
102
{ACAD_REACTORS
330
4D
102
}
330
4D
100
AcDbScale
 70
     0
300
1:100
140
1.0
141
100.0
290
     0
  0
SCALE
  5
62
102
{ACAD_REACTORS
330
4D
102
}
330
4D
100
AcDbScale
 70
     0
300
2:1
140
2.0
141
1.0
290
     0
  0
SCALE
  5
63
102
{ACAD_REACTORS
330
4D
102
}
330
4D
100
AcDbScale
 70
     0
300
4:1
140
4.0
141
1.0
290
     0
  0
SCALE
  5
64
102
{ACAD_REACTORS
330
4D
102
}
330
4D
100
AcDbScale
 70
     0
300
8:1
140
8.0
141
1.0
290
     0
  0
SCALE
  5
65
102
{ACAD_REACTORS
330
4D
102
}
330
4D
100
AcDbScale
 70
     0
300
10:1
140
10.0
141
1.0
290
     0
  0
SCALE
  5
66
102
{ACAD_REACTORS
330
4D
102
}
330
4D
100
AcDbScale
 70
     0
300
100:1
140
100.0
141
1.0
290
     0
  0
ACDBSECTIONVIEWSTYLE
  5
637
102
{ACAD_XDICTIONARY
360
69F
102
}
102
{ACAD_REACTORS
330
62C
330
636
102
}
330
62C
100
AcDbModelDocViewStyle
 70
     0
  3
Metric50
290
     0
100
AcDbSectionViewStyle
 70
     0
 71
     0
 90
      102
 71
     1
340
24
 40
5.0
340
0
340
0
 40
5.0
300
I, O, Q, S, X, Z
 40
10.0
 90
        0
 40
2.5
 90
        0
 71
     2
340
15
 90
       25
340
15
 90
       50
 40
5.0
 40
2.5
 40
5.0
 71
     3
340
24
 40
5.0
 90
        0
 40
15.0
 90
        1
300
%<\AcVar ViewSectionStartId>%-%<\AcVar ViewSectionEndId>% (%<\AcVar ViewScale \f "%sn">%)
 71
     4
300
ANSI31
 40
1.0
 90
        0
290
     0
290
     0
 90
        6
 40
0.0
 40
1.570796326794896
 40
0.2617993877991494
 40
1.308996938995747
 40
-0.2617993877991494
 40
1.832595714594046
  0
TABLESTYLE
  5
52
102
{ACAD_XDICTIONARY
360
53
102
}
102
{ACAD_REACTORS
330
4E
102
}
330
4E
100
AcDbTableStyle
  3
Standard
 70
     0
 71
     0
 40
0.06
 41
0.06
280
     0
281
     0
  7
STANDARD
140
0.18
170
     2
 62
     0
 63
     7
283
     0
274
    -2
284
     1
 64
     0
275
    -2
285
     1
 65
     0
276
    -2
286
     1
 66
     0
277
    -2
287
     1
 67
     0
278
    -2
288
     1
 68
     0
279
    -2
289
     1
 69
     0
  7
STANDARD
140
0.25
170
     5
 62
     0
 63
     7
283
     0
274
    -2
284
     1
 64
     0
275
    -2
285
     1
 65
     0
276
    -2
286
     1
 66
     0
277
    -2
287
     1
 67
     0
278
    -2
288
     1
 68
     0
279
    -2
289
     1
 69
     0
  7
STANDARD
140
0.18
170
     5
 62
     0
 63
     7
283
     0
274
    -2
284
     1
 64
     0
275
    -2
285
     1
 65
     0
276
    -2
286
     1
 66
     0
277
    -2
287
     1
 67
     0
278
    -2
288
     1
 68
     0
279
    -2
289
     1
 69
     0
  0
VISUALSTYLE
  5
2D
102
{ACAD_XDICTIONARY
360
692
102
}
102
{ACAD_REACTORS
330
2E
102
}
330
2E
100
AcDbVisualStyle
  2
2dWireframe
 70
     4
 71
     0
 72
     2
 73
     0
 90
        0
 40
-0.6
 41
-30.0
 62
     5
 63
     7
 74
     1
 91
        4
 64
     7
 65
   257
 75
     1
175
     1
 42
1.0
 92
        0
 66
   257
 43
1.0
 76
     1
 77
     6
 78
     2
 67
     7
 79
     5
170
     0
171
     0
290
     0
174
     0
 93
        1
 44
0.0
173
     0
291
     0
 45
0.0
1001
ACAD
1000
AcDbSavedByObjectVersion
1070
     0
  0
VISUALSTYLE
  5
54
102
{ACAD_XDICTIONARY
360
697
102
}
102
{ACAD_REACTORS
330
2E
102
}
330
2E
100
AcDbVisualStyle
  2
Realistic
 70
     8
 71
     2
 72
     2
 73
     0
 90
        0
 40
-0.6
 41
-30.0
 62
     5
 63
     7
 74
     1
 91
        0
 64
     7
 65
   257
 75
     1
175
     1
 42
1.0
 92
        8
 66
     8
 43
1.0
 76
     1
 77
     6
 78
     2
 67
     7
 79
     5
170
     0
171
     0
290
     0
174
     0
 93
       13
 44
0.0
173
     0
291
     0
 45
0.0
1001
ACAD
1000
AcDbSavedByObjectVersion
1070
     0
  0
VISUALSTYLE
  5
55
102
{ACAD_XDICTIONARY
360
699
102
}
102
{ACAD_REACTORS
330
2E
102
}
330
2E
100
AcDbVisualStyle
  2
Wireframe
 70
     5
 71
     0
 72
     2
 73
     0
 90
        0
 40
-0.6
 41
-30.0
 62
     5
 63
     7
 74
     1
 91
        4
 64
     7
 65
   257
 75
     1
175
     1
 42
1.0
 92
        0
 66
   257
 43
1.0
 76
     1
 77
     6
 78
     2
 67
     7
 79
     3
170
     0
171
     0
290
     0
174
     0
 93
        1
 44
0.0
173
     0
291
     0
 45
0.0
1001
ACAD
1000
AcDbSavedByObjectVersion
1070
     0
  0
DICTIONARYVAR
  5
681
102
{ACAD_REACTORS
330
67C
102
}
330
67C
100
DictionaryVariables
280
     0
  1
1:1
  0
DICTIONARYVAR
  5
67E
102
{ACAD_REACTORS
330
67C
102
}
330
67C
100
DictionaryVariables
280
     0
  1
STANDARD
  0
DICTIONARYVAR
  5
67D
102
{ACAD_REACTORS
330
67C
102
}
330
67C
100
DictionaryVariables
280
     0
  1
STANDARD
  0
DICTIONARYVAR
  5
67F
102
{ACAD_REACTORS
330
67C
102
}
330
67C
100
DictionaryVariables
280
     0
  1

  0
DICTIONARYVAR
  5
680
102
{ACAD_REACTORS
330
67C
102
}
330
67C
100
DictionaryVariables
280
     0
  1

  0
DICTIONARYVAR
  5
686
102
{ACAD_REACTORS
330
67C
102
}
330
67C
100
DictionaryVariables
280
     0
  1
1
  0
DICTIONARYVAR
  5
684
102
{ACAD_REACTORS
330
67C
102
}
330
67C
100
DictionaryVariables
280
     0
  1
1
  0
DICTIONARYVAR
  5
683
102
{ACAD_REACTORS
330
67C
102
}
330
67C
100
DictionaryVariables
280
     0
  1
0
  0
DICTIONARYVAR
  5
687
102
{ACAD_REACTORS
330
67C
102
}
330
67C
100
DictionaryVariables
280
     0
  1
1
  0
DICTIONARYVAR
  5
682
102
{ACAD_REACTORS
330
67C
102
}
330
67C
100
DictionaryVariables
280
     0
  1
127
  0
DICTIONARYVAR
  5
685
102
{ACAD_REACTORS
330
67C
102
}
330
67C
100
DictionaryVariables
280
     0
  1
0
  0
DICTIONARY
  5
60E
102
{ACAD_REACTORS
330
60D
102
}
330
60D
100
AcDbDictionary
281
     1
  0
DICTIONARY
  5
608
102
{ACAD_REACTORS
330
5FE
102
}
330
5FE
100
AcDbDictionary
281
     1
  3
DWGSETTINGS
350
607
  3
TRANSSETTINGS
350
609
  0
DICTIONARY
  5
69D
330
629
100
AcDbDictionary
280
     1
281
     1
  3
ACAD_XREC_ROUNDTRIP
360
69E
  0
DICTIONARY
  5
690
330
1D
100
AcDbDictionary
280
     1
281
     1
  3
ACAD_XREC_ROUNDTRIP
360
691
  0
DICTIONARY
  5
68E
330
17
100
AcDbDictionary
280
     1
281
     1
  3
ACAD_XREC_ROUNDTRIP
360
68F
  0
DICTIONARY
  5
45
330
44
100
AcDbDictionary
280
     1
281
     1
  3
ACAD_XREC_ROUNDTRIP
360
695
  3
BUMPTILE
360
46
  3
DIFFUSETILE
360
47
  3
OPACITYTILE
360
48
  3
REFLECTIONTILE
360
49
  3
REFRACTIONTILE
360
4A
  3
SPECULARTILE
360
4B
  0
DICTIONARY
  5
3D
330
3C
100
AcDbDictionary
280
     1
281
     1
  3
ACAD_XREC_ROUNDTRIP
360
694
  3
BUMPTILE
360
3E
  3
DIFFUSETILE
360
3F
  3
OPACITYTILE
360
40
  3
REFLECTIONTILE
360
41
  3
REFRACTIONTILE
360
42
  3
SPECULARTILE
360
43
  0
DICTIONARY
  5
E
330
C
100
AcDbDictionary
280
     1
281
     1
  3
ACAD_XREC_ROUNDTRIP
360
68D
  3
BUMPTILE
360
F
  3
DIFFUSETILE
360
10
  3
OPACITYTILE
360
11
  3
REFLECTIONTILE
360
12
  3
REFRACTIONTILE
360
13
  3
SPECULARTILE
360
14
  0
DICTIONARY
  5
69F
330
637
100
AcDbDictionary
280
     1
281
     1
  3
ACAD_XREC_ROUNDTRIP
360
6A0
  0
DICTIONARY
  5
53
330
52
100
AcDbDictionary
280
     1
281
     1
  3
ACAD_ROUNDTRIP_2008_TABLESTYLE_CELLSTYLEMAP
360
688
  3
ACAD_XREC_ROUNDTRIP
360
696
  0
DICTIONARY
  5
692
330
2D
100
AcDbDictionary
280
     1
281
     1
  3
ACAD_XREC_ROUNDTRIP
360
693
  0
DICTIONARY
  5
697
330
54
100
AcDbDictionary
280
     1
281
     1
  3
ACAD_XREC_ROUNDTRIP
360
698
  0
DICTIONARY
  5
699
330
55
100
AcDbDictionary
280
     1
281
     1
  3
ACAD_XREC_ROUNDTRIP
360
69A
  0
XRECORD
  5
69E
102
{ACAD_REACTORS
330
69D
102
}
330
69D
100
AcDbXrecord
280
     1
102
DISPLAYNAME
  1
Metric50
102
FLAGS
 90
        0
  0
XRECORD
  5
691
102
{ACAD_REACTORS
330
690
102
}
330
690
100
AcDbXrecord
280
     1
102
SHADEPLOT
 70
     0
102
SHADEPLOTRESLEVEL
 70
     2
102
SHADEPLOTCUSTOMDPI
 70
   300
  0
XRECORD
  5
68F
102
{ACAD_REACTORS
330
68E
102
}
330
68E
100
AcDbXrecord
280
     1
102
SHADEPLOT
 70
     0
102
SHADEPLOTRESLEVEL
 70
     2
102
SHADEPLOTCUSTOMDPI
 70
   300
  0
XRECORD
  5
695
102
{ACAD_REACTORS
330
45
102
}
330
45
100
AcDbXrecord
280
     1
102
MATERIAL
148
0.0
149
0.0
149
0.0
 93
        0
 94
      127
282
     0
 72
     0
 77
     0
171
     0
175
     0
179
     0
273
     0
  0
XRECORD
  5
46
102
{ACAD_REACTORS
330
45
102
}
330
45
100
AcDbXrecord
280
     1
270
     1
271
     1
  0
XRECORD
  5
47
102
{ACAD_REACTORS
330
45
102
}
330
45
100
AcDbXrecord
280
     1
270
     1
271
     1
  0
XRECORD
  5
48
102
{ACAD_REACTORS
330
45
102
}
330
45
100
AcDbXrecord
280
     1
270
     1
271
     1
  0
XRECORD
  5
49
102
{ACAD_REACTORS
330
45
102
}
330
45
100
AcDbXrecord
280
     1
270
     1
271
     1
  0
XRECORD
  5
4A
102
{ACAD_REACTORS
330
45
102
}
330
45
100
AcDbXrecord
280
     1
270
     1
271
     1
  0
XRECORD
  5
4B
102
{ACAD_REACTORS
330
45
102
}
330
45
100
AcDbXrecord
280
     1
270
     1
271
     1
  0
XRECORD
  5
694
102
{ACAD_REACTORS
330
3D
102
}
330
3D
100
AcDbXrecord
280
     1
102
MATERIAL
148
0.0
149
0.0
149
0.0
 93
        0
 94
      127
282
     0
 72
     0
 77
     0
171
     0
175
     0
179
     0
273
     0
  0
XRECORD
  5
3E
102
{ACAD_REACTORS
330
3D
102
}
330
3D
100
AcDbXrecord
280
     1
270
     1
271
     1
  0
XRECORD
  5
3F
102
{ACAD_REACTORS
330
3D
102
}
330
3D
100
AcDbXrecord
280
     1
270
     1
271
     1
  0
XRECORD
  5
40
102
{ACAD_REACTORS
330
3D
102
}
330
3D
100
AcDbXrecord
280
     1
270
     1
271
     1
  0
XRECORD
  5
41
102
{ACAD_REACTORS
330
3D
102
}
330
3D
100
AcDbXrecord
280
     1
270
     1
271
     1
  0
XRECORD
  5
42
102
{ACAD_REACTORS
330
3D
102
}
330
3D
100
AcDbXrecord
280
     1
270
     1
271
     1
  0
XRECORD
  5
43
102
{ACAD_REACTORS
330
3D
102
}
330
3D
100
AcDbXrecord
280
     1
270
     1
271
     1
  0
XRECORD
  5
68D
102
{ACAD_REACTORS
330
E
102
}
330
E
100
AcDbXrecord
280
     1
102
MATERIAL
148
0.0
149
0.0
149
0.0
 93
        0
 94
      127
282
     0
 72
     0
 77
     0
171
     0
175
     0
179
     0
273
     0
  0
XRECORD
  5
F
102
{ACAD_REACTORS
330
E
102
}
330
E
100
AcDbXrecord
280
     1
270
     1
271
     1
  0
XRECORD
  5
10
102
{ACAD_REACTORS
330
E
102
}
330
E
100
AcDbXrecord
280
     1
270
     1
271
     1
  0
XRECORD
  5
11
102
{ACAD_REACTORS
330
E
102
}
330
E
100
AcDbXrecord
280
     1
270
     1
271
     1
  0
XRECORD
  5
12
102
{ACAD_REACTORS
330
E
102
}
330
E
100
AcDbXrecord
280
     1
270
     1
271
     1
  0
XRECORD
  5
13
102
{ACAD_REACTORS
330
E
102
}
330
E
100
AcDbXrecord
280
     1
270
     1
271
     1
  0
XRECORD
  5
14
102
{ACAD_REACTORS
330
E
102
}
330
E
100
AcDbXrecord
280
     1
270
     1
271
     1
  0
XRECORD
  5
6A0
102
{ACAD_REACTORS
330
69F
102
}
330
69F
100
AcDbXrecord
280
     1
102
DISPLAYNAME
  1
Metric50
102
FLAGS
 90
        0
  0
CELLSTYLEMAP
  5
688
102
{ACAD_REACTORS
330
53
102
}
330
53
100
AcDbCellStyleMap
 90
        3
300
CELLSTYLE
  1
TABLEFORMAT_BEGIN
 90
        5
170
     1
 91
        0
 92
    32768
 62
   257
 93
        1
300
CONTENTFORMAT
  1
CONTENTFORMAT_BEGIN
 90
        0
 91
        0
 92
        4
 93
        0
300

 40
0.0
140
1.0
 94
        5
 62
     0
340
24
144
0.25
309
CONTENTFORMAT_END
171
     0
 94
        6
 95
        1
302
GRIDFORMAT
  1
GRIDFORMAT_BEGIN
 90
        0
 91
        1
 62
     0
 92
       -2
340
0
 93
        0
 40
0.045
309
GRIDFORMAT_END
 95
        2
302
GRIDFORMAT
  1
GRIDFORMAT_BEGIN
 90
        0
 91
        1
 62
     0
 92
       -2
340
0
 93
        0
 40
0.045
309
GRIDFORMAT_END
 95
        4
302
GRIDFORMAT
  1
GRIDFORMAT_BEGIN
 90
        0
 91
        1
 62
     0
 92
       -2
340
0
 93
        0
 40
0.045
309
GRIDFORMAT_END
 95
        8
302
GRIDFORMAT
  1
GRIDFORMAT_BEGIN
 90
        0
 91
        1
 62
     0
 92
       -2
340
0
 93
        0
 40
0.045
309
GRIDFORMAT_END
 95
       16
302
GRIDFORMAT
  1
GRIDFORMAT_BEGIN
 90
        0
 91
        1
 62
     0
 92
       -2
340
0
 93
        0
 40
0.045
309
GRIDFORMAT_END
 95
       32
302
GRIDFORMAT
  1
GRIDFORMAT_BEGIN
 90
        0
 91
        1
 62
     0
 92
       -2
340
0
 93
        0
 40
0.045
309
GRIDFORMAT_END
309
TABLEFORMAT_END
  1
CELLSTYLE_BEGIN
 90
        1
 91
        1
300
_TITLE
309
CELLSTYLE_END
300
CELLSTYLE
  1
TABLEFORMAT_BEGIN
 90
        5
170
     1
 91
        0
 92
        0
 62
   257
 93
        1
300
CONTENTFORMAT
  1
CONTENTFORMAT_BEGIN
 90
        0
 91
        0
 92
        4
 93
        0
300

 40
0.0
140
1.0
 94
        5
 62
     0
340
24
144
0.18
309
CONTENTFORMAT_END
171
     0
 94
        6
 95
        1
302
GRIDFORMAT
  1
GRIDFORMAT_BEGIN
 90
        0
 91
        1
 62
     0
 92
       -2
340
0
 93
        0
 40
0.045
309
GRIDFORMAT_END
 95
        2
302
GRIDFORMAT
  1
GRIDFORMAT_BEGIN
 90
        0
 91
        1
 62
     0
 92
       -2
340
0
 93
        0
 40
0.045
309
GRIDFORMAT_END
 95
        4
302
GRIDFORMAT
  1
GRIDFORMAT_BEGIN
 90
        0
 91
        1
 62
     0
 92
       -2
340
0
 93
        0
 40
0.045
309
GRIDFORMAT_END
 95
        8
302
GRIDFORMAT
  1
GRIDFORMAT_BEGIN
 90
        0
 91
        1
 62
     0
 92
       -2
340
0
 93
        0
 40
0.045
309
GRIDFORMAT_END
 95
       16
302
GRIDFORMAT
  1
GRIDFORMAT_BEGIN
 90
        0
 91
        1
 62
     0
 92
       -2
340
0
 93
        0
 40
0.045
309
GRIDFORMAT_END
 95
       32
302
GRIDFORMAT
  1
GRIDFORMAT_BEGIN
 90
        0
 91
        1
 62
     0
 92
       -2
340
0
 93
        0
 40
0.045
309
GRIDFORMAT_END
309
TABLEFORMAT_END
  1
CELLSTYLE_BEGIN
 90
        2
 91
        1
300
_HEADER
309
CELLSTYLE_END
300
CELLSTYLE
  1
TABLEFORMAT_BEGIN
 90
        5
170
     1
 91
        0
 92
        0
 62
   257
 93
        1
300
CONTENTFORMAT
  1
CONTENTFORMAT_BEGIN
 90
        0
 91
        0
 92
        4
 93
        0
300

 40
0.0
140
1.0
 94
        2
 62
     0
340
24
144
0.18
309
CONTENTFORMAT_END
171
     0
 94
        6
 95
        1
302
GRIDFORMAT
  1
GRIDFORMAT_BEGIN
 90
        0
 91
        1
 62
     0
 92
       -2
340
0
 93
        0
 40
0.045
309
GRIDFORMAT_END
 95
        2
302
GRIDFORMAT
  1
GRIDFORMAT_BEGIN
 90
        0
 91
        1
 62
     0
 92
       -2
340
0
 93
        0
 40
0.045
309
GRIDFORMAT_END
 95
        4
302
GRIDFORMAT
  1
GRIDFORMAT_BEGIN
 90
        0
 91
        1
 62
     0
 92
       -2
340
0
 93
        0
 40
0.045
309
GRIDFORMAT_END
 95
        8
302
GRIDFORMAT
  1
GRIDFORMAT_BEGIN
 90
        0
 91
        1
 62
     0
 92
       -2
340
0
 93
        0
 40
0.045
309
GRIDFORMAT_END
 95
       16
302
GRIDFORMAT
  1
GRIDFORMAT_BEGIN
 90
        0
 91
        1
 62
     0
 92
       -2
340
0
 93
        0
 40
0.045
309
GRIDFORMAT_END
 95
       32
302
GRIDFORMAT
  1
GRIDFORMAT_BEGIN
 90
        0
 91
        1
 62
     0
 92
       -2
340
0
 93
        0
 40
0.045
309
GRIDFORMAT_END
309
TABLEFORMAT_END
  1
CELLSTYLE_BEGIN
 90
        3
 91
        2
300
_DATA
309
CELLSTYLE_END
  0
XRECORD
  5
696
102
{ACAD_REACTORS
330
53
102
}
330
53
100
AcDbXrecord
280
     1
102
ACAD_ROUNDTRIP_PRE2007_TABLESTYLE
 90
        4
 91
        0
  1

 92
        4
 93
        0
  2

 94
        4
 95
        0
  3

  0
XRECORD
  5
693
102
{ACAD_REACTORS
330
692
102
}
330
692
100
AcDbXrecord
280
     1
102
RTVSPost2010Prop28
280
     1
102
RTVSPost2010PropOp28
 70
     1
102
RTVSPost2010Prop29
280
     1
102
RTVSPost2010PropOp29
 70
     1
102
RTVSPost2010Prop30
280
     0
102
RTVSPost2010PropOp30
 70
     1
102
RTVSPost2010Prop31
280
     0
102
RTVSPost2010PropOp31
 70
     1
102
RTVSPost2010Prop32
280
     0
102
RTVSPost2010PropOp32
 70
     1
102
RTVSPost2010Prop33
280
     0
102
RTVSPost2010PropOp33
 70
     1
102
RTVSPost2010Prop34
280
     0
102
RTVSPost2010PropOp34
 70
     1
102
RTVSPost2010Prop35
280
     0
102
RTVSPost2010PropOp35
 70
     1
102
RTVSPost2010Prop36
280
     0
102
RTVSPost2010PropOp36
 70
     1
102
RTVSPost2010Prop37
 90
       50
102
RTVSPost2010PropOp37
 70
     1
102
RTVSPost2010Prop38
140
0.0
102
RTVSPost2010PropOp38
 70
     1
102
RTVSPost2010Prop39
140
1.0
102
RTVSPost2010PropOp39
 70
     1
102
RTVSPost2010Prop40
 90
        0
102
RTVSPost2010PropOp40
 70
     1
102
RTVSPost2010Prop41ColorIndex
 90
       18
102
RTVSPost2010Prop41ColorRGB
 90
        0
102
RTVSPost2010PropOp41
 70
     1
102
RTVSPost2010Prop42
 90
       50
102
RTVSPost2010PropOp42
 70
     1
102
RTVSPost2010Prop43
 90
        3
102
RTVSPost2010PropOp43
 70
     1
102
RTVSPost2010Prop44ColorIndex
 90
        5
102
RTVSPost2010Prop44ColorRGB
 90
      255
102
RTVSPost2010PropOp44
 70
     1
102
RTVSPost2010Prop45
280
     0
102
RTVSPost2010PropOp45
 70
     1
102
RTVSPost2010Prop46
 90
       50
102
RTVSPost2010PropOp46
 70
     1
102
RTVSPost2010Prop47
 90
       50
102
RTVSPost2010PropOp47
 70
     1
102
RTVSPost2010Prop48
 90
       50
102
RTVSPost2010PropOp48
 70
     1
102
RTVSPost2010Prop49
280
     0
102
RTVSPost2010PropOp49
 70
     1
102
RTVSPost2010Prop50
 90
       50
102
RTVSPost2010PropOp50
 70
     1
102
RTVSPost2010Prop51ColorIndex
 90
      256
102
RTVSPost2010Prop51ColorRGB
 90
-16777216
102
RTVSPost2010PropOp51
 70
     0
102
RTVSPost2010Prop52
140
1.0
102
RTVSPost2010PropOp52
 70
     0
102
RTVSPost2010Prop53
 90
        2
102
RTVSPost2010PropOp53
 70
     1
102
RTVSPost2010Prop54
  1
strokes_ogs.tif
102
RTVSPost2010PropOp54
 70
     1
102
RTVSPost2010Prop55
280
     0
102
RTVSPost2010PropOp55
 70
     1
102
RTVSPost2010Prop56
140
1.0
102
RTVSPost2010PropOp56
 70
     1
102
RTVSPost2010Prop57
140
1.0
102
RTVSPost2010PropOp57
 70
     1
102
RTVSPropertyOp0
 70
     1
102
RTVSPropertyOp1
 70
     1
102
RTVSPropertyOp2
 70
     1
102
RTVSPropertyOp3
 70
     1
102
RTVSPropertyOp4
 70
     1
102
RTVSPropertyOp5
 70
     1
102
RTVSPropertyOp6
 70
     1
102
RTVSPropertyOp7
 70
     1
102
RTVSPropertyOp8
 70
     1
102
RTVSPropertyOp9
 70
     1
102
RTVSPropertyOp10
 70
     1
102
RTVSPropertyOp11
 70
     1
102
RTVSPropertyOp12
 70
     1
102
RTVSPropertyOp13
 70
     1
102
RTVSPropertyOp14
 70
     1
102
RTVSPropertyOp15
 70
     1
102
RTVSPropertyOp16
 70
     1
102
RTVSPropertyOp17
 70
     1
102
RTVSPropertyOp18
 70
     1
102
RTVSPropertyOp19
 70
     1
102
RTVSPropertyOp20
 70
     1
102
RTVSPropertyOp21
 70
     1
102
RTVSPropertyOp22
 70
     1
102
RTVSPropertyOp23
 70
     1
102
RTVSPropertyOp24
 70
     1
102
RTVSPropertyOp25
 70
     1
102
RTVSPropertyOp26
 70
     1
102
RTVSPropertyOp27
 70
     1
102
RTVSPropertyOp28
 70
     1
102
RTVSPropertyOp29
 70
     1
102
RTVSPropertyOp30
 70
     1
102
RTVSPropertyOp31
 70
     1
102
RTVSPropertyOp32
 70
     1
102
RTVSPropertyOp33
 70
     1
102
RTVSPropertyOp34
 70
     1
102
RTVSPropertyOp35
 70
     1
102
RTVSPropertyOp36
 70
     1
102
RTVSPropertyOp37
 70
     1
102
RTVSPropertyOp38
 70
     1
102
RTVSPropertyOp39
 70
     1
102
RTVSPropertyOp40
 70
     1
102
RTVSPropertyOp41
 70
     1
102
RTVSPropertyOp42
 70
     1
102
RTVSPropertyOp43
 70
     1
102
RTVSPropertyOp44
 70
     1
102
RTVSPropertyOp45
 70
     1
102
RTVSPropertyOp46
 70
     1
102
RTVSPropertyOp47
 70
     1
102
RTVSPropertyOp48
 70
     1
102
RTVSPropertyOp49
 70
     1
102
RTVSPropertyOp50
 70
     1
102
RTVSPropertyOp51
 70
     0
102
RTVSPropertyOp52
 70
     0
102
RTVSPropertyOp53
 70
     1
102
RTVSPropertyOp54
 70
     1
102
RTVSPropertyOp55
 70
     1
102
RTVSPropertyOp56
 70
     1
102
RTVSPropertyOp57
 70
     1
102
RTVSPropertyOp58
 70
     1
102
RTVSPropertyOp59
 70
     1
102
RTVSPropertyOp60
 70
     1
102
RTVSPropertyOp61
 70
     1
102
RTVSPropertyOp62
 70
     1
  0
XRECORD
  5
698
102
{ACAD_REACTORS
330
697
102
}
330
697
100
AcDbXrecord
280
     1
102
RTVSPost2010Prop28
280
     0
102
RTVSPost2010PropOp28
 70
     1
102
RTVSPost2010Prop29
280
     1
102
RTVSPost2010PropOp29
 70
     1
102
RTVSPost2010Prop30
280
     1
102
RTVSPost2010PropOp30
 70
     1
102
RTVSPost2010Prop31
280
     0
102
RTVSPost2010PropOp31
 70
     1
102
RTVSPost2010Prop32
280
     0
102
RTVSPost2010PropOp32
 70
     1
102
RTVSPost2010Prop33
280
     0
102
RTVSPost2010PropOp33
 70
     1
102
RTVSPost2010Prop34
280
     0
102
RTVSPost2010PropOp34
 70
     1
102
RTVSPost2010Prop35
280
     0
102
RTVSPost2010PropOp35
 70
     1
102
RTVSPost2010Prop36
280
     0
102
RTVSPost2010PropOp36
 70
     1
102
RTVSPost2010Prop37
 90
       50
102
RTVSPost2010PropOp37
 70
     1
102
RTVSPost2010Prop38
140
0.0
102
RTVSPost2010PropOp38
 70
     1
102
RTVSPost2010Prop39
140
1.0
102
RTVSPost2010PropOp39
 70
     1
102
RTVSPost2010Prop40
 90
        0
102
RTVSPost2010PropOp40
 70
     1
102
RTVSPost2010Prop41ColorIndex
 90
       18
102
RTVSPost2010Prop41ColorRGB
 90
        0
102
RTVSPost2010PropOp41
 70
     1
102
RTVSPost2010Prop42
 90
       50
102
RTVSPost2010PropOp42
 70
     1
102
RTVSPost2010Prop43
 90
        3
102
RTVSPost2010PropOp43
 70
     1
102
RTVSPost2010Prop44ColorIndex
 90
        5
102
RTVSPost2010Prop44ColorRGB
 90
      255
102
RTVSPost2010PropOp44
 70
     1
102
RTVSPost2010Prop45
280
     0
102
RTVSPost2010PropOp45
 70
     1
102
RTVSPost2010Prop46
 90
       50
102
RTVSPost2010PropOp46
 70
     1
102
RTVSPost2010Prop47
 90
       50
102
RTVSPost2010PropOp47
 70
     1
102
RTVSPost2010Prop48
 90
       50
102
RTVSPost2010PropOp48
 70
     1
102
RTVSPost2010Prop49
280
     0
102
RTVSPost2010PropOp49
 70
     1
102
RTVSPost2010Prop50
 90
       50
102
RTVSPost2010PropOp50
 70
     1
102
RTVSPost2010Prop51ColorIndex
 90
      256
102
RTVSPost2010Prop51ColorRGB
 90
-16777216
102
RTVSPost2010PropOp51
 70
     0
102
RTVSPost2010Prop52
140
1.0
102
RTVSPost2010PropOp52
 70
     0
102
RTVSPost2010Prop53
 90
        2
102
RTVSPost2010PropOp53
 70
     1
102
RTVSPost2010Prop54
  1
strokes_ogs.tif
102
RTVSPost2010PropOp54
 70
     1
102
RTVSPost2010Prop55
280
     0
102
RTVSPost2010PropOp55
 70
     1
102
RTVSPost2010Prop56
140
1.0
102
RTVSPost2010PropOp56
 70
     1
102
RTVSPost2010Prop57
140
1.0
102
RTVSPost2010PropOp57
 70
     1
102
RTVSPropertyOp0
 70
     1
102
RTVSPropertyOp1
 70
     1
102
RTVSPropertyOp2
 70
     1
102
RTVSPropertyOp3
 70
     1
102
RTVSPropertyOp4
 70
     1
102
RTVSPropertyOp5
 70
     1
102
RTVSPropertyOp6
 70
     1
102
RTVSPropertyOp7
 70
     1
102
RTVSPropertyOp8
 70
     1
102
RTVSPropertyOp9
 70
     1
102
RTVSPropertyOp10
 70
     1
102
RTVSPropertyOp11
 70
     1
102
RTVSPropertyOp12
 70
     1
102
RTVSPropertyOp13
 70
     1
102
RTVSPropertyOp14
 70
     1
102
RTVSPropertyOp15
 70
     1
102
RTVSPropertyOp16
 70
     1
102
RTVSPropertyOp17
 70
     1
102
RTVSPropertyOp18
 70
     1
102
RTVSPropertyOp19
 70
     1
102
RTVSPropertyOp20
 70
     1
102
RTVSPropertyOp21
 70
     1
102
RTVSPropertyOp22
 70
     1
102
RTVSPropertyOp23
 70
     1
102
RTVSPropertyOp24
 70
     1
102
RTVSPropertyOp25
 70
     1
102
RTVSPropertyOp26
 70
     1
102
RTVSPropertyOp27
 70
     1
102
RTVSPropertyOp28
 70
     1
102
RTVSPropertyOp29
 70
     1
102
RTVSPropertyOp30
 70
     1
102
RTVSPropertyOp31
 70
     1
102
RTVSPropertyOp32
 70
     1
102
RTVSPropertyOp33
 70
     1
102
RTVSPropertyOp34
 70
     1
102
RTVSPropertyOp35
 70
     1
102
RTVSPropertyOp36
 70
     1
102
RTVSPropertyOp37
 70
     1
102
RTVSPropertyOp38
 70
     1
102
RTVSPropertyOp39
 70
     1
102
RTVSPropertyOp40
 70
     1
102
RTVSPropertyOp41
 70
     1
102
RTVSPropertyOp42
 70
     1
102
RTVSPropertyOp43
 70
     1
102
RTVSPropertyOp44
 70
     1
102
RTVSPropertyOp45
 70
     1
102
RTVSPropertyOp46
 70
     1
102
RTVSPropertyOp47
 70
     1
102
RTVSPropertyOp48
 70
     1
102
RTVSPropertyOp49
 70
     1
102
RTVSPropertyOp50
 70
     1
102
RTVSPropertyOp51
 70
     0
102
RTVSPropertyOp52
 70
     0
102
RTVSPropertyOp53
 70
     1
102
RTVSPropertyOp54
 70
     1
102
RTVSPropertyOp55
 70
     1
102
RTVSPropertyOp56
 70
     1
102
RTVSPropertyOp57
 70
     1
102
RTVSPropertyOp58
 70
     1
102
RTVSPropertyOp59
 70
     1
102
RTVSPropertyOp60
 70
     1
102
RTVSPropertyOp61
 70
     1
102
RTVSPropertyOp62
 70
     1
  0
XRECORD
  5
69A
102
{ACAD_REACTORS
330
699
102
}
330
699
100
AcDbXrecord
280
     1
102
RTVSPost2010Prop28
280
     0
102
RTVSPost2010PropOp28
 70
     1
102
RTVSPost2010Prop29
280
     1
102
RTVSPost2010PropOp29
 70
     1
102
RTVSPost2010Prop30
280
     1
102
RTVSPost2010PropOp30
 70
     1
102
RTVSPost2010Prop31
280
     0
102
RTVSPost2010PropOp31
 70
     1
102
RTVSPost2010Prop32
280
     0
102
RTVSPost2010PropOp32
 70
     1
102
RTVSPost2010Prop33
280
     0
102
RTVSPost2010PropOp33
 70
     1
102
RTVSPost2010Prop34
280
     0
102
RTVSPost2010PropOp34
 70
     1
102
RTVSPost2010Prop35
280
     0
102
RTVSPost2010PropOp35
 70
     1
102
RTVSPost2010Prop36
280
     0
102
RTVSPost2010PropOp36
 70
     1
102
RTVSPost2010Prop37
 90
       50
102
RTVSPost2010PropOp37
 70
     1
102
RTVSPost2010Prop38
140
0.0
102
RTVSPost2010PropOp38
 70
     1
102
RTVSPost2010Prop39
140
1.0
102
RTVSPost2010PropOp39
 70
     1
102
RTVSPost2010Prop40
 90
        0
102
RTVSPost2010PropOp40
 70
     1
102
RTVSPost2010Prop41ColorIndex
 90
       18
102
RTVSPost2010Prop41ColorRGB
 90
        0
102
RTVSPost2010PropOp41
 70
     1
102
RTVSPost2010Prop42
 90
       50
102
RTVSPost2010PropOp42
 70
     1
102
RTVSPost2010Prop43
 90
        3
102
RTVSPost2010PropOp43
 70
     1
102
RTVSPost2010Prop44ColorIndex
 90
        5
102
RTVSPost2010Prop44ColorRGB
 90
      255
102
RTVSPost2010PropOp44
 70
     1
102
RTVSPost2010Prop45
280
     0
102
RTVSPost2010PropOp45
 70
     1
102
RTVSPost2010Prop46
 90
       50
102
RTVSPost2010PropOp46
 70
     1
102
RTVSPost2010Prop47
 90
       50
102
RTVSPost2010PropOp47
 70
     1
102
RTVSPost2010Prop48
 90
       50
102
RTVSPost2010PropOp48
 70
     1
102
RTVSPost2010Prop49
280
     0
102
RTVSPost2010PropOp49
 70
     1
102
RTVSPost2010Prop50
 90
       50
102
RTVSPost2010PropOp50
 70
     1
102
RTVSPost2010Prop51ColorIndex
 90
      256
102
RTVSPost2010Prop51ColorRGB
 90
-16777216
102
RTVSPost2010PropOp51
 70
     0
102
RTVSPost2010Prop52
140
1.0
102
RTVSPost2010PropOp52
 70
     0
102
RTVSPost2010Prop53
 90
        2
102
RTVSPost2010PropOp53
 70
     1
102
RTVSPost2010Prop54
  1
strokes_ogs.tif
102
RTVSPost2010PropOp54
 70
     1
102
RTVSPost2010Prop55
280
     0
102
RTVSPost2010PropOp55
 70
     1
102
RTVSPost2010Prop56
140
1.0
102
RTVSPost2010PropOp56
 70
     1
102
RTVSPost2010Prop57
140
1.0
102
RTVSPost2010PropOp57
 70
     1
102
RTVSPropertyOp0
 70
     1
102
RTVSPropertyOp1
 70
     1
102
RTVSPropertyOp2
 70
     1
102
RTVSPropertyOp3
 70
     1
102
RTVSPropertyOp4
 70
     1
102
RTVSPropertyOp5
 70
     1
102
RTVSPropertyOp6
 70
     1
102
RTVSPropertyOp7
 70
     1
102
RTVSPropertyOp8
 70
     1
102
RTVSPropertyOp9
 70
     1
102
RTVSPropertyOp10
 70
     1
102
RTVSPropertyOp11
 70
     1
102
RTVSPropertyOp12
 70
     1
102
RTVSPropertyOp13
 70
     1
102
RTVSPropertyOp14
 70
     1
102
RTVSPropertyOp15
 70
     1
102
RTVSPropertyOp16
 70
     1
102
RTVSPropertyOp17
 70
     1
102
RTVSPropertyOp18
 70
     1
102
RTVSPropertyOp19
 70
     1
102
RTVSPropertyOp20
 70
     1
102
RTVSPropertyOp21
 70
     1
102
RTVSPropertyOp22
 70
     1
102
RTVSPropertyOp23
 70
     1
102
RTVSPropertyOp24
 70
     1
102
RTVSPropertyOp25
 70
     1
102
RTVSPropertyOp26
 70
     1
102
RTVSPropertyOp27
 70
     1
102
RTVSPropertyOp28
 70
     1
102
RTVSPropertyOp29
 70
     1
102
RTVSPropertyOp30
 70
     1
102
RTVSPropertyOp31
 70
     1
102
RTVSPropertyOp32
 70
     1
102
RTVSPropertyOp33
 70
     1
102
RTVSPropertyOp34
 70
     1
102
RTVSPropertyOp35
 70
     1
102
RTVSPropertyOp36
 70
     1
102
RTVSPropertyOp37
 70
     1
102
RTVSPropertyOp38
 70
     1
102
RTVSPropertyOp39
 70
     1
102
RTVSPropertyOp40
 70
     1
102
RTVSPropertyOp41
 70
     1
102
RTVSPropertyOp42
 70
     1
102
RTVSPropertyOp43
 70
     1
102
RTVSPropertyOp44
 70
     1
102
RTVSPropertyOp45
 70
     1
102
RTVSPropertyOp46
 70
     1
102
RTVSPropertyOp47
 70
     1
102
RTVSPropertyOp48
 70
     1
102
RTVSPropertyOp49
 70
     1
102
RTVSPropertyOp50
 70
     1
102
RTVSPropertyOp51
 70
     0
102
RTVSPropertyOp52
 70
     0
102
RTVSPropertyOp53
 70
     1
102
RTVSPropertyOp54
 70
     1
102
RTVSPropertyOp55
 70
     1
102
RTVSPropertyOp56
 70
     1
102
RTVSPropertyOp57
 70
     1
102
RTVSPropertyOp58
 70
     1
102
RTVSPropertyOp59
 70
     1
102
RTVSPropertyOp60
 70
     1
102
RTVSPropertyOp61
 70
     1
102
RTVSPropertyOp62
 70
     1
  0
ENDSEC
  0
EOF
