  0
SECTION
  2
HEADER
  9
$ACADVER
  1
AC1015
  9
$ACADMAINTVER
 70
    20
  9
$DWGCODEPAGE
  3
ANSI_1252
  9
$INSBASE
 10
0.0
 20
0.0
 30
0.0
  9
$EXTMIN
 10
0.0
 20
-12.80424263383599
 30
0.0
  9
$EXTMAX
 10
277.0
 20
393.0
 30
0.0
  9
$LIMMIN
 10
-4.5
 20
-8.5
  9
$LIMMAX
 10
285.0
 20
405.0
  9
$ORTHOMODE
 70
     1
  9
$REGENMODE
 70
     1
  9
$FILLMODE
 70
     1
  9
$QTEXTMODE
 70
     0
  9
$MIRRTEXT
 70
     1
  9
$LTSCALE
 40
8.0
  9
$ATTMODE
 70
     1
  9
$TEXTSIZE
 40
3.5
  9
$TRACEWID
 40
0.05
  9
$TEXTSTYLE
  7
ARIAL-STANDARD
  9
$CLAYER
  8
AVERDECKT
  9
$CELTYPE
  6
BYLAYER
  9
$CECOLOR
 62
   256
  9
$CELTSCALE
 40
1.0
  9
$DISPSILH
 70
     0
  9
$DIMSCALE
 40
1.0
  9
$DIMASZ
 40
4.0
  9
$DIMEXO
 40
0.0
  9
$DIMDLI
 40
8.0
  9
$DIMRND
 40
0.0
  9
$DIMDLE
 40
0.0
  9
$DIMEXE
 40
1.0
  9
$DIMTP
 40
0.0
  9
$DIMTM
 40
0.0
  9
$DIMTXT
 40
3.5
  9
$DIMCEN
 40
1.5
  9
$DIMTSZ
 40
0.0
  9
$DIMTOL
 70
     0
  9
$DIMLIM
 70
     0
  9
$DIMTIH
 70
     0
  9
$DIMTOH
 70
     0
  9
$DIMSE1
 70
     0
  9
$DIMSE2
 70
     0
  9
$DIMTAD
 70
     1
  9
$DIMZIN
 70
     8
  9
$DIMBLK
  1

  9
$DIMASO
 70
     1
  9
$DIMSHO
 70
     1
  9
$DIMPOST
  1

  9
$DIMAPOST
  1

  9
$DIMALT
 70
     0
  9
$DIMALTD
 70
     2
  9
$DIMALTF
 40
25.39999999999999
  9
$DIMLFAC
 40
1.0
  9
$DIMTOFL
 70
     1
  9
$DIMTVP
 40
0.0
  9
$DIMTIX
 70
     1
  9
$DIMSOXD
 70
     0
  9
$DIMSAH
 70
     0
  9
$DIMBLK1
  1

  9
$DIMBLK2
  1

  9
$DIMSTYLE
  2
Katalog 09
  9
$DIMCLRD
 70
     2
  9
$DIMCLRE
 70
     2
  9
$DIMCLRT
 70
     3
  9
$DIMTFAC
 40
0.4285714285714286
  9
$DIMGAP
 40
1.0
  9
$DIMJUST
 70
     0
  9
$DIMSD1
 70
     0
  9
$DIMSD2
 70
     0
  9
$DIMTOLJ
 70
     1
  9
$DIMTZIN
 70
     8
  9
$DIMALTZ
 70
     8
  9
$DIMALTTZ
 70
     8
  9
$DIMUPT
 70
     0
  9
$DIMDEC
 70
     2
  9
$DIMTDEC
 70
     2
  9
$DIMALTU
 70
     2
  9
$DIMALTTD
 70
     2
  9
$DIMTXSTY
  7
ARIAL-STANDARD
  9
$DIMAUNIT
 70
     0
  9
$DIMADEC
 70
     0
  9
$DIMALTRND
 40
0.0
  9
$DIMAZIN
 70
     0
  9
$DIMDSEP
 70
    46
  9
$DIMATFIT
 70
     3
  9
$DIMFRAC
 70
     0
  9
$DIMLDRBLK
  1

  9
$DIMLUNIT
 70
     2
  9
$DIMLWD
 70
    -2
  9
$DIMLWE
 70
    -2
  9
$DIMTMOVE
 70
     0
  9
$LUNITS
 70
     2
  9
$LUPREC
 70
     4
  9
$SKETCHINC
 40
0.1
  9
$FILLETRAD
 40
0.0
  9
$AUNITS
 70
     0
  9
$AUPREC
 70
     0
  9
$MENU
  1
.
  9
$ELEVATION
 40
0.0
  9
$PELEVATION
 40
0.0
  9
$THICKNESS
 40
0.0
  9
$LIMCHECK
 70
     0
  9
$CHAMFERA
 40
0.5
  9
$CHAMFERB
 40
0.5
  9
$CHAMFERC
 40
1.0
  9
$CHAMFERD
 40
0.0
  9
$SKPOLY
 70
     0
  9
$TDCREATE
 40
2451187.496084341
  9
$TDUCREATE
 40
2451187.454417674
  9
$TDUPDATE
 40
2456821.540280047
  9
$TDUUPDATE
 40
2456821.498613380
  9
$TDINDWG
 40
0.5793220255
  9
$TDUSRTIMER
 40
0.5793220255
  9
$USRTIMER
 70
     1
  9
$ANGBASE
 50
0.0
  9
$ANGDIR
 70
     0
  9
$PDMODE
 70
     0
  9
$PDSIZE
 40
0.0
  9
$PLINEWID
 40
0.0
  9
$SPLFRAME
 70
     0
  9
$SPLINETYPE
 70
     6
  9
$SPLINESEGS
 70
     8
  9
$HANDSEED
  5
2DF
  9
$SURFTAB1
 70
     6
  9
$SURFTAB2
 70
     6
  9
$SURFTYPE
 70
     6
  9
$SURFU
 70
     6
  9
$SURFV
 70
     6
  9
$UCSBASE
  2

  9
$UCSNAME
  2

  9
$UCSORG
 10
0.0
 20
0.0
 30
0.0
  9
$UCSXDIR
 10
1.0
 20
0.0
 30
0.0
  9
$UCSYDIR
 10
0.0
 20
1.0
 30
0.0
  9
$UCSORTHOREF
  2

  9
$UCSORTHOVIEW
 70
     0
  9
$UCSORGTOP
 10
0.0
 20
0.0
 30
0.0
  9
$UCSORGBOTTOM
 10
0.0
 20
0.0
 30
0.0
  9
$UCSORGLEFT
 10
0.0
 20
0.0
 30
0.0
  9
$UCSORGRIGHT
 10
0.0
 20
0.0
 30
0.0
  9
$UCSORGFRONT
 10
0.0
 20
0.0
 30
0.0
  9
$UCSORGBACK
 10
0.0
 20
0.0
 30
0.0
  9
$PUCSBASE
  2

  9
$PUCSNAME
  2

  9
$PUCSORG
 10
0.0
 20
0.0
 30
0.0
  9
$PUCSXDIR
 10
1.0
 20
0.0
 30
0.0
  9
$PUCSYDIR
 10
0.0
 20
1.0
 30
0.0
  9
$PUCSORTHOREF
  2

  9
$PUCSORTHOVIEW
 70
     0
  9
$PUCSORGTOP
 10
0.0
 20
0.0
 30
0.0
  9
$PUCSORGBOTTOM
 10
0.0
 20
0.0
 30
0.0
  9
$PUCSORGLEFT
 10
0.0
 20
0.0
 30
0.0
  9
$PUCSORGRIGHT
 10
0.0
 20
0.0
 30
0.0
  9
$PUCSORGFRONT
 10
0.0
 20
0.0
 30
0.0
  9
$PUCSORGBACK
 10
0.0
 20
0.0
 30
0.0
  9
$USERI1
 70
     0
  9
$USERI2
 70
     0
  9
$USERI3
 70
     0
  9
$USERI4
 70
     0
  9
$USERI5
 70
     0
  9
$USERR1
 40
0.0
  9
$USERR2
 40
0.0
  9
$USERR3
 40
0.0
  9
$USERR4
 40
0.0
  9
$USERR5
 40
0.0
  9
$WORLDVIEW
 70
     1
  9
$SHADEDGE
 70
     3
  9
$SHADEDIF
 70
    70
  9
$TILEMODE
 70
     1
  9
$MAXACTVP
 70
    48
  9
$PINSBASE
 10
0.0
 20
0.0
 30
0.0
  9
$PLIMCHECK
 70
     0
  9
$PEXTMIN
 10
1.000000000000000E+20
 20
1.000000000000000E+20
 30
1.000000000000000E+20
  9
$PEXTMAX
 10
-1.000000000000000E+20
 20
-1.000000000000000E+20
 30
-1.000000000000000E+20
  9
$PLIMMIN
 10
0.0
 20
0.0
  9
$PLIMMAX
 10
12.0
 20
9.0
  9
$UNITMODE
 70
     0
  9
$VISRETAIN
 70
     1
  9
$PLINEGEN
 70
     0
  9
$PSLTSCALE
 70
     1
  9
$TREEDEPTH
 70
  3020
  9
$CMLSTYLE
  2
STANDARD
  9
$CMLJUST
 70
     0
  9
$CMLSCALE
 40
1.0
  9
$PROXYGRAPHICS
 70
     1
  9
$MEASUREMENT
 70
     0
  9
$CELWEIGHT
370
    -1
  9
$ENDCAPS
280
     0
  9
$JOINSTYLE
280
     0
  9
$LWDISPLAY
290
     0
  9
$INSUNITS
 70
     0
  9
$HYPERLINKBASE
  1

  9
$STYLESHEET
  1

  9
$XEDIT
290
     1
  9
$CEPSNTYPE
380
     0
  9
$PSTYLEMODE
290
     1
  9
$FINGERPRINTGUID
  2
{3729EBC0-F4DC-4579-97BC-2AE3F14152DB}
  9
$VERSIONGUID
  2
{8669D0F7-001E-4A4B-B132-A1B76386BB7B}
  9
$EXTNAMES
290
     1
  9
$PSVPSCALE
 40
0.0
  9
$OLESTARTUP
290
     0
  0
ENDSEC
  0
SECTION
  2
CLASSES
  0
CLASS
  1
ACDBDICTIONARYWDFLT
  2
AcDbDictionaryWithDefault
  3
ObjectDBX Classes
 90
        0
280
     0
281
     0
  0
CLASS
  1
ACDBPLACEHOLDER
  2
AcDbPlaceHolder
  3
ObjectDBX Classes
 90
        0
280
     0
281
     0
  0
CLASS
  1
LAYOUT
  2
AcDbLayout
  3
ObjectDBX Classes
 90
        0
280
     0
281
     0
  0
CLASS
  1
ACME_DOCUMENT
  2
AcMeDbDoc
  3
AcMeServices
 90
    33792
280
     0
281
     0
  0
CLASS
  1
AMGSETTINGSOBJ
  2
AmgSettingsObj
  3
"AcadM|Product Description: AutoCAD Mechanical|Company: Autodesk, Inc."
 90
     1024
280
     0
281
     0
  0
CLASS
  1
ACMESCOPE
  2
AcMeScope
  3
AcMeServices
 90
     1024
280
     0
281
     0
  0
CLASS
  1
ACMECOMMANDHISTORY
  2
AcMeCommandHistory
  3
AcMeServices
 90
    33792
280
     0
281
     0
  0
CLASS
  1
ACIMSYSVARMAN
  2
AcImSysVarManager
  3
AcMeServices
 90
     1024
280
     0
281
     0
  0
CLASS
  1
ACIMREALSYSVAR
  2
AcImRealSysVar
  3
AcMeServices
 90
    33792
280
     0
281
     0
  0
CLASS
  1
ACIMINTSYSVAR
  2
AcImIntSysVar
  3
AcMeServices
 90
    33792
280
     0
281
     0
  0
CLASS
  1
ACMEDRAWINGMAN
  2
AcMeDrawingMan
  3
AcMeServices
 90
    33792
280
     0
281
     0
  0
CLASS
  1
ACMEVIEW
  2
AcMeView
  3
AcMeServices
 90
    33792
280
     0
281
     0
  0
CLASS
  1
ACDBENTITYCACHE
  2
AcMeEntityCache
  3
AcMeServices
 90
    33792
280
     0
281
     0
  0
CLASS
  1
GSMANAGER
  2
AcMeGSManager
  3
AcMeServices
 90
    33792
280
     1
281
     0
  0
CLASS
  1
AMDTINTERNALREACTOR
  2
AmdtInternalReactor
  3
AcMeServices
 90
    33792
280
     0
281
     0
  0
CLASS
  1
ACMESTATEMGR
  2
AcMeStateMgr
  3
AcMeServices
 90
     1024
280
     0
281
     0
  0
CLASS
  1
ACGREFMASTER
  2
AcGrefMaster
  3
AcAttribServices
 90
     1024
280
     0
281
     0
  0
CLASS
  1
ACME_DATABASE
  2
AcMeDbDatabase
  3
AcMeServices
 90
    33792
280
     0
281
     0
  0
CLASS
  1
ACRFINSADJUSTERMGR
  2
AcRfInsAdjusterMgr
  3
AcMeServices
 90
    33792
280
     0
281
     0
  0
CLASS
  1
ACGREFACADMASTER
  2
AcGrefacadMaster
  3
AcGrefServices
 90
    33792
280
     0
281
     0
  0
CLASS
  1
AMIMASTER
  2
AmiMaster
  3
AmiServices
 90
    33792
280
     0
281
     0
  0
CLASS
  1
ACMDATADICTIONARY
  2
AcmDataDictionary
  3
"AcmSymBB|Product Description: AutoCAD Mechanical|Company: Autodesk, Inc."
 90
    33792
280
     0
281
     0
  0
CLASS
  1
ACMDATAENTRYBLOCK
  2
AcmDataEntryBlock
  3
AcmSymBB|Product Description: AutoCAD Mechanical|Company: Autodesk, Inc.
 90
    33792
280
     0
281
     0
  0
CLASS
  1
ACIMSTRSYSVAR
  2
AcImStrSysVar
  3
AcMeServices
 90
     1024
280
     0
281
     0
  0
CLASS
  1
ACMSTANDARDANSI
  2
AcmStandardANSI
  3
"Amdt_StdImp|Product Description: AutoCAD Mechanical|Company: Autodesk, Inc."
 90
     1024
280
     0
281
     0
  0
CLASS
  1
AMGOBJPROPCFG
  2
AmgObjPropCfg
  3
"AmgLay|Product Description: AutoCAD Mechanical|Company: Autodesk, Inc."
 90
     1024
280
     0
281
     0
  0
CLASS
  1
ACMSURFSTANDARDANSI
  2
AcmSurfTextStdANSI
  3
"Amdt_StdImp|Product Description: AutoCAD Mechanical|Company: Autodesk, Inc."
 90
     1024
280
     0
281
     0
  0
CLASS
  1
ACMFCFSTANDARDANSI
  2
AcmFCFStdANSI
  3
"Amdt_StdImp|Product Description: AutoCAD Mechanical|Company: Autodesk, Inc."
 90
     1024
280
     0
281
     0
  0
CLASS
  1
ACMWELDSTANDARDANSI
  2
AcmWeldingStdANSI
  3
"Amdt_StdImp|Product Description: AutoCAD Mechanical|Company: Autodesk, Inc."
 90
     1024
280
     0
281
     0
  0
CLASS
  1
ACMIDSTANDARDANSI
  2
AcmIdStdANSI
  3
"Amdt_StdImp|Product Description: AutoCAD Mechanical|Company: Autodesk, Inc."
 90
     1024
280
     0
281
     0
  0
CLASS
  1
ACMDATUMSTANDARDANSI
  2
AcmDatumStdANSI
  3
"Amdt_StdImp|Product Description: AutoCAD Mechanical|Company: Autodesk, Inc."
 90
     1024
280
     0
281
     0
  0
CLASS
  1
ACMBOMSTANDARDANSI
  2
AcmBOMStdANSI
  3
"Amdt_StdImp|Product Description: AutoCAD Mechanical|Company: Autodesk, Inc."
 90
     1024
280
     0
281
     0
  0
CLASS
  1
ACMDETAILSTANDARDANSI
  2
AmdtDetailSymStdANSI
  3
"Amdt_StdImp|Product Description: AutoCAD Mechanical|Company: Autodesk, Inc."
 90
     1024
280
     0
281
     0
  0
CLASS
  1
ACMSECTIONSTANDARDANSI
  2
AmdtSectionSymStdANSI
  3
"Amdt_StdImp|Product Description: AutoCAD Mechanical|Company: Autodesk, Inc."
 90
     1024
280
     0
281
     0
  0
CLASS
  1
ACMCENTERLINESTANDARDANSI
  2
AmdtCenterLineStdANSI
  3
"Amdt_StdImp|Product Description: AutoCAD Mechanical|Company: Autodesk, Inc."
 90
     1024
280
     0
281
     0
  0
CLASS
  1
ACMNOTESTANDARDANSI
  2
AmdtNoteStdANSI
  3
"Amdt_StdImp|Product Description: AutoCAD Mechanical|Company: Autodesk, Inc."
 90
     1024
280
     0
281
     0
  0
CLASS
  1
ACAMGLAYSTD
  2
AcAmgLayStd
  3
"AmgLay|Product Description: AutoCAD Mechanical|Company: Autodesk, Inc."
 90
     1024
280
     0
281
     0
  0
CLASS
  1
ACAMGDIMSTD
  2
AcAmgDimStd
  3
"AmgDim|Product Description: AutoCAD Mechanical|Company: Autodesk, Inc."
 90
     1024
280
     0
281
     0
  0
CLASS
  1
ACAMGHOLECHARTSTDANSI
  2
AcAmgHoleChartStdANSI
  3
AmgDim|Product Description: AutoCAD Mechanical|Company: Autodesk, Inc.
 90
     1024
280
     0
281
     0
  0
CLASS
  1
ACAMGTITLESTD
  2
AcAmgTitleStd
  3
"AmgTitle|Product Description: AutoCAD Mechanical|Company: Autodesk, Inc."
 90
     1024
280
     0
281
     0
  0
CLASS
  1
ACAMGFILTERDAT
  2
AcAmgFilterDat
  3
"AcadM|Product Description: AutoCAD Mechanical|Company: Autodesk, Inc."
 90
    33792
280
     0
281
     0
  0
CLASS
  1
LAYER_INDEX
  2
AcDbLayerIndex
  3
ObjectDBX Classes
 90
    32768
280
     0
281
     0
  0
CLASS
  1
IDBUFFER
  2
AcDbIdBuffer
  3
ObjectDBX Classes
 90
    32768
280
     0
281
     0
  0
CLASS
  1
DICTIONARYVAR
  2
AcDbDictionaryVar
  3
ObjectDBX Classes
 90
        0
280
     0
281
     0
  0
CLASS
  1
TABLESTYLE
  2
AcDbTableStyle
  3
ObjectDBX Classes
 90
     4095
280
     0
281
     0
  0
CLASS
  1
AM_DRAWING_MGR
  2
AcDmDwgMgr
  3
AcMechDwgViewMgmt
 90
    33792
280
     0
281
     0
  0
CLASS
  1
AM_DWG_DOCUMENT
  2
AcDmDwgDocument
  3
AcMechDwgViewMgmt
 90
    33792
280
     0
281
     0
  0
CLASS
  1
AM_DWG_SHEET
  2
AcDmSheet
  3
AcMechDwgViewMgmt
 90
    33792
280
     0
281
     0
  0
CLASS
  1
AM_VIEWDIMPARMAP
  2
AcDmViewDimParMap
  3
AcMechDwgViewMgmt
 90
    33792
280
     0
281
     0
  0
CLASS
  1
AM_DWGMGR_NAME
  2
AcDmDwgMgrName
  3
AcMechDwgViewMgmt
 90
    33792
280
     0
281
     0
  0
CLASS
  1
AMDTMENUSTATEMGR
  2
AmdtMenuStateMgr
  3
McadcomServices
 90
    33792
280
     0
281
     0
  0
CLASS
  1
AMDTMCOMMENUSTATE
  2
AmdtMcomMenuState
  3
McadcomServices
 90
    33792
280
     0
281
     0
  0
CLASS
  1
MAPIAMMOUDLE
  2
MApiAmModule
  3
MApiAmServices
 90
    33792
280
     0
281
     0
  0
CLASS
  1
AMDTADMENUSTATE
  2
AmdtAdMenuState
  3
DesignerServices
 90
    33792
280
     1
281
     0
  0
CLASS
  1
ADAPPL
  2
AcAdAppl
  3
DesignerAssemblies
 90
    33792
280
     0
281
     0
  0
CLASS
  1
DEPMGR
  2
AcAdDepMgr
  3
DesignerAssemblies
 90
    33792
280
     0
281
     0
  0
CLASS
  1
PARAMMGR
  2
AcAdParamMgr
  3
DesignerAssemblies
 90
    33792
280
     0
281
     0
  0
CLASS
  1
PARAMSCOPE
  2
AcAdParamScope
  3
DesignerAssemblies
 90
    33792
280
     0
281
     0
  0
CLASS
  1
NAMEDAPPL
  2
AcAdNamedAppl
  3
DesignerAssemblies
 90
    33792
280
     0
281
     0
  0
CLASS
  1
AMDTDMMENUSTATE
  2
AmdtDmMenuState
  3
AcMechDwgViewMgmt
 90
    33792
280
     1
281
     0
  0
CLASS
  1
AMDTAMMENUSTATE
  2
AmdtAmMenuState
  3
DesignerAssemblies
 90
    33792
280
     0
281
     0
  0
CLASS
  1
ACAMPROJECT
  2
AcAmProject
  3
DesignerAssemblies
 90
    33792
280
     0
281
     0
  0
CLASS
  1
ACAMGRCOMPDEF
  2
AcAmGrCompDef
  3
DesignerAssemblies
 90
    33792
280
     0
281
     0
  0
CLASS
  1
ACCMCONTEXT
  2
AcCmContext
  3
DesignerAssemblies
 90
    33792
280
     0
281
     0
  0
CLASS
  1
ACAMCOMPDEF
  2
AcAmCompDef
  3
DesignerAssemblies
 90
    33792
280
     0
281
     0
  0
CLASS
  1
ACAMCOMPDEFMGR
  2
AcAmCompDefMgr
  3
DesignerAssemblies
 90
    33792
280
     0
281
     0
  0
CLASS
  1
AMCONTEXTMGR
  2
AcAmContextMgr
  3
DesignerAssemblies
 90
    33792
280
     0
281
     0
  0
CLASS
  1
ACAMCONTEXTMODELER
  2
AcAmContextModeler
  3
DesignerAssemblies
 90
    33792
280
     0
281
     0
  0
CLASS
  1
ACRFATTGENMGR
  2
AcRfAttGeneralMgr
  3
AcAttribServices
 90
    33792
280
     0
281
     0
  0
CLASS
  1
ACRFOBJATTMGR
  2
AcRfObjAttGroupMgr
  3
AcAttribServices
 90
    33792
280
     0
281
     0
  0
CLASS
  1
ACRFMCADAPIATTHOLDER
  2
AcRfMCADAPIAttHolder
  3
AcAttribServices
 90
    33792
280
     0
281
     0
  0
CLASS
  1
AMDTSYSATTR
  2
AmdtSystemAttribute
  3
AcAttribServices
 90
    33792
280
     0
281
     0
  0
CLASS
  1
ACMTHREADLINESTANDARDANSI
  2
AmdtThreadLineStdANSI
  3
"Amdt_StdImp|Product Description: AutoCAD Mechanical|Company: Autodesk, Inc."
 90
     1024
280
     0
281
     0
  0
CLASS
  1
CATALOGSTATE
  2
AcAmCatalogState
  3
DesignerAssemblies
 90
    33792
280
     0
281
     0
  0
CLASS
  1
ACAMGRCOMPDEFSET
  2
AcAmGrCompDefSet
  3
DesignerAssemblies
 90
    33792
280
     0
281
     0
  0
CLASS
  1
AMDTBROWSERDBTAB
  2
AmdtBrowserDbTab
  3
McadcomServices
 90
    33792
280
     0
281
     0
  0
CLASS
  1
CBROWSERAPPOBJECT
  2
CBrowserAppObject
  3
McadcomServices
 90
    33792
280
     0
281
     0
  0
CLASS
  1
DM_PLACEHOLDER
  2
AcDmSelsetPlaceholder
  3
McadcomServices
 90
    33792
280
     0
281
     0
  0
CLASS
  1
MATERIAL
  2
AcDbMaterial
  3
ObjectDBX Classes
 90
     1153
280
     0
281
     0
  0
CLASS
  1
VISUALSTYLE
  2
AcDbVisualStyle
  3
ObjectDBX Classes
 90
     4095
280
     0
281
     0
  0
CLASS
  1
SCALE
  2
AcDbScale
  3
ObjectDBX Classes
 90
     1153
280
     0
281
     0
  0
CLASS
  1
MLEADERSTYLE
  2
AcDbMLeaderStyle
  3
ACDB_MLEADERSTYLE_CLASS
 90
    36863
280
     0
281
     0
  0
CLASS
  1
ACMTAPERSTANDARDANSI
  2
AcmTaperStdANSI
  3
"Amdt_StdImp|Product Description: AutoCAD Mechanical|Company: Autodesk, Inc."
 90
     1024
280
     0
281
     0
  0
CLASS
  1
ACMANOOTATIONVIEWSTANDARDANSI
  2
AmdtAnViewStdANSI
  3
"Amdt_StdImp|Product Description: AutoCAD Mechanical|Company: Autodesk, Inc."
 90
     1024
280
     0
281
     0
  0
CLASS
  1
PLOTSETTINGS
  2
AcDbPlotSettings
  3
ObjectDBX Classes
 90
    32768
280
     0
281
     0
  0
CLASS
  1
ACMSTANDARDDIN
  2
AcmStandardDIN
  3
"Amdt_StdImp|Product Description: AutoCAD Mechanical|Company: Autodesk, Inc."
 90
    33792
280
     0
281
     0
  0
CLASS
  1
AMDTEDGESTANDARDDIN
  2
AmdtEdgeStdDIN
  3
"Amdt_StdImp|Product Description: AutoCAD Mechanical|Company: Autodesk, Inc."
 90
    33792
280
     0
281
     0
  0
CLASS
  1
ACMSURFSTANDARDDIN
  2
AcmSurfTextStdDIN
  3
"Amdt_StdImp|Product Description: AutoCAD Mechanical|Company: Autodesk, Inc."
 90
    33792
280
     0
281
     0
  0
CLASS
  1
ACMFCFSTANDARDDIN
  2
AcmFCFStdDIN
  3
"Amdt_StdImp|Product Description: AutoCAD Mechanical|Company: Autodesk, Inc."
 90
    33792
280
     0
281
     0
  0
CLASS
  1
ACMWELDSTANDARDDIN
  2
AcmWeldingStdDIN
  3
"Amdt_StdImp|Product Description: AutoCAD Mechanical|Company: Autodesk, Inc."
 90
    33792
280
     0
281
     0
  0
CLASS
  1
ACMIDSTANDARDDIN
  2
AcmIdStdDIN
  3
"Amdt_StdImp|Product Description: AutoCAD Mechanical|Company: Autodesk, Inc."
 90
    33792
280
     0
281
     0
  0
CLASS
  1
ACMDATUMSTANDARDDIN
  2
AcmDatumStdDIN
  3
"Amdt_StdImp|Product Description: AutoCAD Mechanical|Company: Autodesk, Inc."
 90
    33792
280
     0
281
     0
  0
CLASS
  1
ACMBOMSTANDARDDIN
  2
AcmBOMStdDIN
  3
"Amdt_StdImp|Product Description: AutoCAD Mechanical|Company: Autodesk, Inc."
 90
    33792
280
     0
281
     0
  0
CLASS
  1
ACMDETAILSTANDARDDIN
  2
AmdtDetailSymStdDIN
  3
"Amdt_StdImp|Product Description: AutoCAD Mechanical|Company: Autodesk, Inc."
 90
    33792
280
     0
281
     0
  0
CLASS
  1
ACMSECTIONSTANDARDDIN
  2
AmdtSectionSymStdDIN
  3
"Amdt_StdImp|Product Description: AutoCAD Mechanical|Company: Autodesk, Inc."
 90
    33792
280
     0
281
     0
  0
CLASS
  1
ACMCENTERLINESTANDARDDIN
  2
AmdtCenterLineStdDIN
  3
"Amdt_StdImp|Product Description: AutoCAD Mechanical|Company: Autodesk, Inc."
 90
    33792
280
     0
281
     0
  0
CLASS
  1
ACMNOTESTANDARDDIN
  2
AmdtNoteStdDIN
  3
"Amdt_StdImp|Product Description: AutoCAD Mechanical|Company: Autodesk, Inc."
 90
    33792
280
     0
281
     0
  0
CLASS
  1
ACAMGHOLECHARTSTDDIN
  2
AcAmgHoleChartStdDIN
  3
AmgDim|Product Description: AutoCAD Mechanical|Company: Autodesk, Inc.
 90
    33792
280
     0
281
     0
  0
CLASS
  1
ACMTHREADLINESTANDARDDIN
  2
AmdtThreadLineStdDIN
  3
"Amdt_StdImp|Product Description: AutoCAD Mechanical|Company: Autodesk, Inc."
 90
    33792
280
     0
281
     0
  0
CLASS
  1
ACMTAPERSTANDARDDIN
  2
AcmTaperStdDIN
  3
"Amdt_StdImp|Product Description: AutoCAD Mechanical|Company: Autodesk, Inc."
 90
    33792
280
     0
281
     0
  0
CLASS
  1
ACMANOOTATIONVIEWSTANDARDDIN
  2
AmdtAnViewStdDIN
  3
"Amdt_StdImp|Product Description: AutoCAD Mechanical|Company: Autodesk, Inc."
 90
    33792
280
     0
281
     0
  0
CLASS
  1
SORTENTSTABLE
  2
AcDbSortentsTable
  3
ObjectDBX Classes
 90
        0
280
     0
281
     0
  0
CLASS
  1
CAMSSTRUCTBTNSTATE
  2
StructBtnState
  3
DesignerAssemblies
 90
    33792
280
     0
281
     0
  0
CLASS
  1
CELLSTYLEMAP
  2
AcDbCellStyleMap
  3
ObjectDBX Classes
 90
     1152
280
     0
281
     0
  0
CLASS
  1
VLO-VL
  2
vlo_VL
  3
VL|AutoLISP based application
 90
    32897
280
     0
281
     0
  0
CLASS
  1
AMDTNOTETEMPLATEDB
  2
AmdtNoteTemplateDB
  3
AcmSymBB|Product Description: AutoCAD Mechanical|Company: Autodesk, Inc.
 90
     1024
280
     0
281
     0
  0
CLASS
  1
ACDBSECTIONVIEWSTYLE
  2
AcDbSectionViewStyle
  3
ObjectDBX Classes
 90
     1025
280
     0
281
     0
  0
CLASS
  1
ACDBDETAILVIEWSTYLE
  2
AcDbDetailViewStyle
  3
ObjectDBX Classes
 90
     1025
280
     0
281
     0
  0
CLASS
  1
ACMSECTIONSTANDARDCUSTOM
  2
AmdtSectionSymStdCustom
  3
"Amdt_StdImp|Product Description: AutoCAD Mechanical|Company: Autodesk, Inc."
 90
     1024
280
     0
281
     0
  0
CLASS
  1
ACMDETAILTANDARDCUSTOM
  2
AmdtDetailSymStdCustom
  3
"Amdt_StdImp|Product Description: AutoCAD Mechanical|Company: Autodesk, Inc."
 90
     1024
280
     0
281
     0
  0
CLASS
  1
FIELD
  2
AcDbField
  3
ObjectDBX Classes
 90
     1152
280
     0
281
     0
  0
CLASS
  1
FIELDLIST
  2
AcDbFieldList
  3
ObjectDBX Classes
 90
     1152
280
     0
281
     0
  0
ENDSEC
  0
SECTION
  2
TABLES
  0
TABLE
  2
VPORT
  5
2B
330
0
100
AcDbSymbolTable
 70
     1
  0
VPORT
  5
2C
330
2B
100
AcDbSymbolTableRecord
100
AcDbViewportTableRecord
  2
*Active
 70
     0
 10
0.0
 20
0.0
 11
1.0
 21
1.0
 12
151.3065313373578
 22
198.4531339636229
 13
0.0
 23
0.0
 14
10.0
 24
10.0
 15
10.0
 25
10.0
 16
0.0
 26
0.0
 36
1.0
 17
0.0
 27
0.0
 37
0.0
 40
636.6853840549485
 41
2.033022861981371
 42
50.0
 43
0.0
 44
0.0
 50
0.0
 51
0.0
 71
     0
 72
  5000
 73
     1
 74
     0
 75
     0
 76
     0
 77
     0
 78
     0
281
     0
 65
     1
110
0.0
120
0.0
130
0.0
111
1.0
121
0.0
131
0.0
112
0.0
122
1.0
132
0.0
 79
     0
146
0.0
1001
ACAD_NAV_VCDISPLAY
1070
     3
  0
ENDTAB
  0
TABLE
  2
LTYPE
  5
26
330
0
100
AcDbSymbolTable
 70
    12
  0
LTYPE
  5
27
330
26
100
AcDbSymbolTableRecord
100
AcDbLinetypeTableRecord
  2
BYBLOCK
 70
     0
  3

 72
    65
 73
     0
 40
0.0
  0
LTYPE
  5
28
330
26
100
AcDbSymbolTableRecord
100
AcDbLinetypeTableRecord
  2
BYLAYER
 70
     0
  3

 72
    65
 73
     0
 40
0.0
  0
LTYPE
  5
15
330
26
100
AcDbSymbolTableRecord
100
AcDbLinetypeTableRecord
  2
CONTINUOUS
 70
     0
  3
Solid line
 72
    65
 73
     0
 40
0.0
  0
LTYPE
  5
B3
330
26
100
AcDbSymbolTableRecord
100
AcDbLinetypeTableRecord
  2
STRICHPUNKT
 70
     0
  3
__ . __ . __ . __ . __ . __ . __ . __ . __ . __
 72
    65
 73
     4
 40
1.0
 49
0.5
 74
     0
 49
-0.25
 74
     0
 49
0.0
 74
     0
 49
-0.25
 74
     0
  0
LTYPE
  5
26A
330
26
100
AcDbSymbolTableRecord
100
AcDbLinetypeTableRecord
  2
Amconstr
 70
     0
  3
_______________________
 72
    65
 73
     2
 40
9999.0
 49
9999.0
 74
     0
 49
0.0
 74
     0
  0
LTYPE
  5
267
330
26
100
AcDbSymbolTableRecord
100
AcDbLinetypeTableRecord
  2
HIDDEN
 70
     0
  3
Hidden __ __ __ __ __ __ __ __ __ __ __ __ __ _
 72
    65
 73
     2
 40
0.375
 49
0.25
 74
     0
 49
-0.125
 74
     0
  0
LTYPE
  5
268
330
26
100
AcDbSymbolTableRecord
100
AcDbLinetypeTableRecord
  2
CENTER
 70
     0
  3
Center ____ _ ____ _ ____ _ ____ _ ____ _ ____
 72
    65
 73
     4
 40
2.0
 49
1.25
 74
     0
 49
-0.25
 74
     0
 49
0.25
 74
     0
 49
-0.25
 74
     0
  0
LTYPE
  5
269
330
26
100
AcDbSymbolTableRecord
100
AcDbLinetypeTableRecord
  2
PHANTOM2
 70
     0
  3
Phantom (.5x) ___ _ _ ___ _ _ ___ _ _ ___ _ _
 72
    65
 73
     6
 40
1.25
 49
0.625
 74
     0
 49
-0.125
 74
     0
 49
0.125
 74
     0
 49
-0.125
 74
     0
 49
0.125
 74
     0
 49
-0.125
 74
     0
  0
LTYPE
  5
26B
330
26
100
AcDbSymbolTableRecord
100
AcDbLinetypeTableRecord
  2
CENTER2
 70
     0
  3
Center (.5x) ___ _ ___ _ ___ _ ___ _ ___ _ ___
 72
    65
 73
     4
 40
1.125
 49
0.75
 74
     0
 49
-0.125
 74
     0
 49
0.125
 74
     0
 49
-0.125
 74
     0
  0
LTYPE
  5
26C
330
26
100
AcDbSymbolTableRecord
100
AcDbLinetypeTableRecord
  2
HIDDEN2
 70
     0
  3
Hidden (.5x) _ _ _ _ _ _ _ _ _ _ _ _ _ _ _ _ _
 72
    65
 73
     2
 40
0.1875
 49
0.125
 74
     0
 49
-0.0625
 74
     0
  0
LTYPE
  5
26D
330
26
100
AcDbSymbolTableRecord
100
AcDbLinetypeTableRecord
  2
Amzigzag2
 70
     0
  3
/\/-/\/-/\/-/\/-/\/-/\/
 72
    65
 73
     2
 40
0.4401
 49
0.0001
 74
     4
 75
   135
340
26E
 46
0.0016
 50
0.0
 44
0.0
 45
0.0
 49
-0.4400000000000001
 74
     0
  0
LTYPE
  5
27E
330
26
100
AcDbSymbolTableRecord
100
AcDbLinetypeTableRecord
  2
ACANSTGB
 70
     0
  3
__ . . __ . .
 72
    65
 73
     6
 40
0.35433070866
 49
0.15748031496
 74
     0
 49
-0.03937007874
 74
     0
 49
0.03937007874
 74
     0
 49
-0.03937007874
 74
     0
 49
0.03937007874
 74
     0
 49
-0.03937007874
 74
     0
  0
LTYPE
  5
27F
330
26
100
AcDbSymbolTableRecord
100
AcDbLinetypeTableRecord
  2
ACANSTGL
 70
     0
  3
_ _ _ _ _
 72
    65
 73
     2
 40
0.11811023622
 49
0.07874015748
 74
     0
 49
-0.03937007874
 74
     0
  0
LTYPE
  5
51
330
26
100
AcDbSymbolTableRecord
100
AcDbLinetypeTableRecord
  2
DASHED
 70
     0
  3
Dashed __ __ __ __ __ __ __ __ __ __ __ __ __ _
 72
    65
 73
     2
 40
19.05
 49
12.7
 74
     0
 49
-6.349999999999999
 74
     0
  0
ENDTAB
  0
TABLE
  2
LAYER
  5
20
102
{ACAD_XDICTIONARY
360
21
102
}
330
0
100
AcDbSymbolTable
 70
     7
  0
LAYER
  5
6
102
{ACAD_XDICTIONARY
360
7
102
}
330
20
100
AcDbSymbolTableRecord
100
AcDbLayerTableRecord
  2
0
 70
     0
 62
     7
  6
CONTINUOUS
370
    -3
390
9
  0
LAYER
  5
91
330
20
100
AcDbSymbolTableRecord
100
AcDbLayerTableRecord
  2
DEFPOINTS
 70
     0
 62
     7
  6
CONTINUOUS
290
     0
370
    -3
390
9
  0
LAYER
  5
C1
102
{ACAD_XDICTIONARY
360
C2
102
}
330
20
100
AcDbSymbolTableRecord
100
AcDbLayerTableRecord
  2
BEMASSUNG
 70
     0
 62
     2
  6
CONTINUOUS
370
    -3
390
9
  0
LAYER
  5
13E
102
{ACAD_XDICTIONARY
360
13F
102
}
330
20
100
AcDbSymbolTableRecord
100
AcDbLayerTableRecord
  2
UMRISS02
 70
     0
 62
     1
  6
CONTINUOUS
370
    -3
390
9
  0
LAYER
  5
B6
102
{ACAD_XDICTIONARY
360
B7
102
}
330
20
100
AcDbSymbolTableRecord
100
AcDbLayerTableRecord
  2
UMRISS05
 70
     0
 62
     4
  6
CONTINUOUS
370
    -3
390
9
  0
LAYER
  5
B0
102
{ACAD_XDICTIONARY
360
B1
102
}
330
20
100
AcDbSymbolTableRecord
100
AcDbLayerTableRecord
  2
ACHSEN
 70
     0
 62
     1
  6
STRICHPUNKT
370
    -3
390
9
  0
LAYER
  5
50
330
20
100
AcDbSymbolTableRecord
100
AcDbLayerTableRecord
  2
AVERDECKT
 70
     0
 62
    13
  6
DASHED
370
    -3
390
9
  0
ENDTAB
  0
TABLE
  2
STYLE
  5
23
330
0
100
AcDbSymbolTable
 70
     4
  0
STYLE
  5
24
330
23
100
AcDbSymbolTableRecord
100
AcDbTextStyleTableRecord
  2
STANDARD
 70
     0
 40
0.0
 41
1.0
 50
0.0
 71
     0
 42
10.0
  3
txt
  4

  0
STYLE
  5
34
330
23
100
AcDbSymbolTableRecord
100
AcDbTextStyleTableRecord
  2
ARIAL-STANDARD
 70
     0
 40
3.5
 41
1.0
 50
0.0
 71
     0
 42
3.5
  3
arial.ttf
  4

1001
ACAD
1000
Arial
1071
       34
  0
STYLE
  5
26E
330
23
100
AcDbSymbolTableRecord
100
AcDbTextStyleTableRecord
  2

 70
     1
 40
0.0
 41
1.0
 50
0.0
 71
     0
 42
3.5
  3
ltypeshp.shx
  4

  0
STYLE
  5
27A
330
23
100
AcDbSymbolTableRecord
100
AcDbTextStyleTableRecord
  2
ACANSGDT
 70
     0
 40
0.0
 41
1.0
 50
0.0
 71
     0
 42
3.5
  3
amgdt.shx
  4

  0
ENDTAB
  0
TABLE
  2
VIEW
  5
29
330
0
100
AcDbSymbolTable
 70
     0
  0
ENDTAB
  0
TABLE
  2
UCS
  5
2A
330
0
100
AcDbSymbolTable
 70
     0
  0
ENDTAB
  0
TABLE
  2
APPID
  5
30
330
0
100
AcDbSymbolTable
 70
    12
  0
APPID
  5
31
330
30
100
AcDbSymbolTableRecord
100
AcDbRegAppTableRecord
  2
ACAD
 70
     0
  0
APPID
  5
2AA
330
30
100
AcDbSymbolTableRecord
100
AcDbRegAppTableRecord
  2
ACAD_DSTYLE_DIMJOGGED_JOGANGLE_SYMBOL
 70
     0
  0
APPID
  5
241
330
30
100
AcDbSymbolTableRecord
100
AcDbRegAppTableRecord
  2
GENIUS_GENODEF_13
 70
     0
  0
APPID
  5
36
330
30
100
AcDbSymbolTableRecord
100
AcDbRegAppTableRecord
  2
ACAD_DSTYLE_DIMJAG
 70
     0
  0
APPID
  5
35
330
30
100
AcDbSymbolTableRecord
100
AcDbRegAppTableRecord
  2
ACAD_DSTYLE_DIMBREAK
 70
     0
  0
APPID
  5
37
330
30
100
AcDbSymbolTableRecord
100
AcDbRegAppTableRecord
  2
ACAD_DSTYLE_DIMTALN
 70
     0
  0
APPID
  5
1B
330
30
100
AcDbSymbolTableRecord
100
AcDbRegAppTableRecord
  2
ACAD_PSEXT
 70
     0
  0
APPID
  5
2F
330
30
100
AcDbSymbolTableRecord
100
AcDbRegAppTableRecord
  2
ACAD_NAV_VCDISPLAY
 70
     0
  0
APPID
  5
1BD
330
30
100
AcDbSymbolTableRecord
100
AcDbRegAppTableRecord
  2
ACAD_DSTYLE_DIMINSPECT
 70
     0
  0
APPID
  5
242
330
30
100
AcDbSymbolTableRecord
100
AcDbRegAppTableRecord
  2
GENIUS_GENOBJ-N-FIL_13
 70
     0
  0
APPID
  5
2B7
330
30
100
AcDbSymbolTableRecord
100
AcDbRegAppTableRecord
  2
ACATTRIBSERVICES
 70
     0
  0
APPID
  5
2DC
330
30
100
AcDbSymbolTableRecord
100
AcDbRegAppTableRecord
  2
ACAD_DSTYLE_DIMARC_LENGTH_SYMBOL
 70
     0
  0
ENDTAB
  0
TABLE
  2
DIMSTYLE
  5
32
330
0
100
AcDbSymbolTable
 70
     7
100
AcDbDimStyleTable
 71
     1
340
33
  0
DIMSTYLE
105
2A9
102
{ACAD_REACTORS
330
277
102
}
330
32
100
AcDbSymbolTableRecord
100
AcDbDimStyleTableRecord
  2
AM_ANSI
 70
     0
  4
mm
 41
0.1
 42
0.05
 43
0.5
 44
0.1
 47
0.1
 48
0.1
 78
     7
 79
     2
140
0.12
141
0.0
146
0.71
147
0.06
176
   256
177
   256
178
     2
274
     4
284
     7
340
24
371
    -1
372
    -1
1001
ACAD_DSTYLE_DIMJOGGED_JOGANGLE_SYMBOL
1070
   384
1040
0.7853981633974483
1001
ACAD_DSTYLE_DIMARC_LENGTH_SYMBOL
1070
   379
1070
     1
  0
DIMSTYLE
105
2AB
330
32
100
AcDbSymbolTableRecord
100
AcDbDimStyleTableRecord
  2
AM_ANSI$3
 70
     0
  4
mm
 41
0.1
 42
0.05
 43
0.5
 44
0.1
 47
0.1
 48
0.1
 78
     7
 79
     2
140
0.12
141
0.0
146
0.71
147
0.06
176
   256
177
   256
178
     2
274
     4
284
     7
288
     1
289
     0
340
24
371
    -1
372
    -1
1001
ACAD_DSTYLE_DIMJOGGED_JOGANGLE_SYMBOL
1070
   384
1040
0.7853981633974483
1001
ACAD_DSTYLE_DIMARC_LENGTH_SYMBOL
1070
   379
1070
     1
  0
DIMSTYLE
105
2AC
330
32
100
AcDbSymbolTableRecord
100
AcDbDimStyleTableRecord
  2
AM_ANSI$4
 70
     0
  4
mm
 41
0.1
 42
0.05
 43
0.5
 44
0.1
 47
0.1
 48
0.1
 78
     7
 79
     2
140
0.12
141
0.0
146
0.71
147
0.06
176
   256
177
   256
178
     2
274
     4
284
     7
288
     1
289
     0
340
24
371
    -1
372
    -1
1001
ACAD_DSTYLE_DIMJOGGED_JOGANGLE_SYMBOL
1070
   384
1040
0.7853981633974483
1001
ACAD_DSTYLE_DIMARC_LENGTH_SYMBOL
1070
   379
1070
     1
  0
DIMSTYLE
105
2AD
330
32
100
AcDbSymbolTableRecord
100
AcDbDimStyleTableRecord
  2
AM_ANSI$7
 70
     0
  4
mm
 41
0.1
 42
0.05
 43
0.5
 44
0.1
 47
0.1
 48
0.1
 78
     7
 79
     2
140
0.24
141
0.0
146
0.71
147
0.06
176
   256
177
   256
178
     2
274
     4
284
     7
340
24
371
    -1
372
    -1
1001
ACAD_DSTYLE_DIMJOGGED_JOGANGLE_SYMBOL
1070
   384
1040
0.7853981633974483
1001
ACAD_DSTYLE_DIMARC_LENGTH_SYMBOL
1070
   379
1070
     1
  0
DIMSTYLE
105
2AE
330
32
100
AcDbSymbolTableRecord
100
AcDbDimStyleTableRecord
  2
AM_ANSI$SF
 70
     0
  4
mm
 41
0.1
 42
0.05
 43
0.5
 44
0.1
 47
0.1
 48
0.1
 75
     1
 76
     1
 78
     7
 79
     2
140
0.12
141
0.0
146
0.71
147
0.06
176
   256
177
   256
178
     2
274
     4
284
     7
340
24
371
    -1
372
    -1
1001
ACAD_DSTYLE_DIMJOGGED_JOGANGLE_SYMBOL
1070
   384
1040
0.7853981633974483
1001
ACAD_DSTYLE_DIMARC_LENGTH_SYMBOL
1070
   379
1070
     1
  0
DIMSTYLE
105
2AF
330
32
100
AcDbSymbolTableRecord
100
AcDbDimStyleTableRecord
  2
AM_ANSI$SH
 70
     0
  4
mm
 41
0.1
 42
0.05
 43
0.5
 44
0.1
 47
0.1
 48
0.1
 75
     1
 76
     1
 78
     7
 79
     2
140
0.12
141
0.0
146
0.71
147
0.06
173
     1
176
   256
177
   256
178
     2
274
     4
284
     7
340
24
343
2B0
371
    -1
372
    -1
1001
ACAD_DSTYLE_DIMJOGGED_JOGANGLE_SYMBOL
1070
   384
1040
0.7853981633974483
1001
ACAD_DSTYLE_DIMARC_LENGTH_SYMBOL
1070
   379
1070
     1
  0
DIMSTYLE
105
33
102
{ACAD_REACTORS
330
146
330
190
330
24A
330
204
330
257
330
1B0
330
1C1
330
1E7
330
1F5
330
220
330
22D
330
181
330
12E
330
121
330
95
330
85
330
114
330
FD
330
E7
330
D5
330
C0
102
}
330
32
100
AcDbSymbolTableRecord
100
AcDbDimStyleTableRecord
  2
Katalog 09
 70
     0
 41
4.0
 42
0.0
 43
8.0
 44
1.0
 73
     0
 74
     0
 77
     1
 78
     8
140
3.5
141
1.5
143
25.39999999999999
146
0.4285714285714286
147
1.0
172
     1
174
     1
176
     2
177
     2
178
     3
271
     2
272
     2
284
     8
285
     8
286
     8
340
34
1001
ACAD_DSTYLE_DIMBREAK
1070
   391
1040
3.75
1001
ACAD_DSTYLE_DIMJAG
1070
   388
1040
1.5
1001
ACAD_DSTYLE_DIMTALN
1070
   392
1070
     0
  0
ENDTAB
  0
TABLE
  2
BLOCK_RECORD
  5
1
330
0
100
AcDbSymbolTable
 70
    23
  0
BLOCK_RECORD
  5
2
102
{ACAD_XDICTIONARY
360
3
102
}
330
1
100
AcDbSymbolTableRecord
100
AcDbBlockTableRecord
  2
*MODEL_SPACE
340
17
  0
BLOCK_RECORD
  5
1C
330
1
100
AcDbSymbolTableRecord
100
AcDbBlockTableRecord
  2
*PAPER_SPACE
340
1F
  0
BLOCK_RECORD
  5
2B0
330
1
100
AcDbSymbolTableRecord
100
AcDbBlockTableRecord
  2
GENAXEH
340
0
  0
BLOCK_RECORD
  5
1B1
330
1
100
AcDbSymbolTableRecord
100
AcDbBlockTableRecord
  2
*D1
340
0
  0
BLOCK_RECORD
  5
258
330
1
100
AcDbSymbolTableRecord
100
AcDbBlockTableRecord
  2
*D2
340
0
  0
BLOCK_RECORD
  5
24B
330
1
100
AcDbSymbolTableRecord
100
AcDbBlockTableRecord
  2
*D3
340
0
  0
BLOCK_RECORD
  5
22E
330
1
100
AcDbSymbolTableRecord
100
AcDbBlockTableRecord
  2
*D4
340
0
  0
BLOCK_RECORD
  5
221
330
1
100
AcDbSymbolTableRecord
100
AcDbBlockTableRecord
  2
*D5
340
0
  0
BLOCK_RECORD
  5
205
330
1
100
AcDbSymbolTableRecord
100
AcDbBlockTableRecord
  2
*D6
340
0
  0
BLOCK_RECORD
  5
1F6
330
1
100
AcDbSymbolTableRecord
100
AcDbBlockTableRecord
  2
*D7
340
0
  0
BLOCK_RECORD
  5
1E8
330
1
100
AcDbSymbolTableRecord
100
AcDbBlockTableRecord
  2
*D8
340
0
  0
BLOCK_RECORD
  5
1C2
330
1
100
AcDbSymbolTableRecord
100
AcDbBlockTableRecord
  2
*D9
340
0
  0
BLOCK_RECORD
  5
191
330
1
100
AcDbSymbolTableRecord
100
AcDbBlockTableRecord
  2
*D10
340
0
  0
BLOCK_RECORD
  5
182
330
1
100
AcDbSymbolTableRecord
100
AcDbBlockTableRecord
  2
*D11
340
0
  0
BLOCK_RECORD
  5
147
330
1
100
AcDbSymbolTableRecord
100
AcDbBlockTableRecord
  2
*D12
340
0
  0
BLOCK_RECORD
  5
12F
330
1
100
AcDbSymbolTableRecord
100
AcDbBlockTableRecord
  2
*D13
340
0
  0
BLOCK_RECORD
  5
122
330
1
100
AcDbSymbolTableRecord
100
AcDbBlockTableRecord
  2
*D14
340
0
  0
BLOCK_RECORD
  5
96
330
1
100
AcDbSymbolTableRecord
100
AcDbBlockTableRecord
  2
*D15
340
0
  0
BLOCK_RECORD
  5
86
330
1
100
AcDbSymbolTableRecord
100
AcDbBlockTableRecord
  2
*D16
340
0
  0
BLOCK_RECORD
  5
115
330
1
100
AcDbSymbolTableRecord
100
AcDbBlockTableRecord
  2
*D17
340
0
  0
BLOCK_RECORD
  5
FE
330
1
100
AcDbSymbolTableRecord
100
AcDbBlockTableRecord
  2
*D18
340
0
  0
BLOCK_RECORD
  5
E8
330
1
100
AcDbSymbolTableRecord
100
AcDbBlockTableRecord
  2
*D19
340
0
  0
BLOCK_RECORD
  5
D6
330
1
100
AcDbSymbolTableRecord
100
AcDbBlockTableRecord
  2
*D20
340
0
  0
BLOCK_RECORD
  5
C4
330
1
100
AcDbSymbolTableRecord
100
AcDbBlockTableRecord
  2
*D21
340
0
  0
BLOCK_RECORD
  5
28A
330
1
100
AcDbSymbolTableRecord
100
AcDbBlockTableRecord
  2
_ACMFILLEDHALF
340
0
  0
ENDTAB
  0
ENDSEC
  0
SECTION
  2
BLOCKS
  0
BLOCK
  5
5
330
2
100
AcDbEntity
  8
0
100
AcDbBlockBegin
  2
*MODEL_SPACE
 70
     0
 10
0.0
 20
0.0
 30
0.0
  3
*MODEL_SPACE
  1

  0
ENDBLK
  5
16
330
2
100
AcDbEntity
  8
0
100
AcDbBlockEnd
  0
BLOCK
  5
1D
330
1C
100
AcDbEntity
 67
     1
  8
0
100
AcDbBlockBegin
  2
*PAPER_SPACE
 70
     0
 10
0.0
 20
0.0
 30
0.0
  3
*PAPER_SPACE
  1

  0
ENDBLK
  5
1E
330
1C
100
AcDbEntity
 67
     1
  8
0
100
AcDbBlockEnd
  0
BLOCK
  5
2B1
330
2B0
100
AcDbEntity
  8
0
100
AcDbBlockBegin
  2
GENAXEH
 70
     0
 10
0.0
 20
0.0
 30
0.0
  3
GENAXEH
  1

  0
LINE
  5
2B2
330
2B0
100
AcDbEntity
  8
0
100
AcDbLine
 10
-1.0
 20
0.0
 30
0.0
 11
1.0
 21
0.0
 31
0.0
  0
ENDBLK
  5
2B3
330
2B0
100
AcDbEntity
  8
0
100
AcDbBlockEnd
  0
BLOCK
  5
1B2
330
1B1
100
AcDbEntity
  8
0
100
AcDbBlockBegin
  2
*D1
 70
     1
 10
0.0
 20
0.0
 30
0.0
  3
*D1
  1

  0
LINE
  5
1B3
330
1B1
100
AcDbEntity
  8
BEMASSUNG
  6
Continuous
 62
     2
370
    -2
100
AcDbLine
 10
164.6945413059131
 20
120.3773126292808
 30
0.0
 11
164.6945413059131
 21
98.07565041932072
 31
0.0
  0
LINE
  5
1B4
330
1B1
100
AcDbEntity
  8
BEMASSUNG
  6
Continuous
 62
     2
370
    -2
100
AcDbLine
 10
184.6945413059131
 20
120.3773126292808
 30
0.0
 11
184.6945413059131
 21
98.07565041932072
 31
0.0
  0
LINE
  5
1B5
330
1B1
100
AcDbEntity
  8
BEMASSUNG
  6
Continuous
 62
     2
370
    -2
100
AcDbLine
 10
168.6945413059131
 20
99.07565041932071
 30
0.0
 11
180.6945413059131
 21
99.07565041932071
 31
0.0
  0
SOLID
  5
1B6
330
1B1
100
AcDbEntity
  8
BEMASSUNG
  6
Continuous
 62
     2
100
AcDbTrace
 10
168.6945413059131
 20
99.74231708598738
 30
0.0
 11
168.6945413059131
 21
98.40898375265403
 31
0.0
 12
164.6945413059131
 22
99.07565041932071
 32
0.0
 13
164.6945413059131
 23
99.07565041932071
 33
0.0
  0
SOLID
  5
1B7
330
1B1
100
AcDbEntity
  8
BEMASSUNG
  6
Continuous
 62
     2
100
AcDbTrace
 10
180.6945413059131
 20
99.74231708598738
 30
0.0
 11
180.6945413059131
 21
98.40898375265403
 31
0.0
 12
184.6945413059131
 22
99.07565041932071
 32
0.0
 13
184.6945413059131
 23
99.07565041932071
 33
0.0
  0
MTEXT
  5
1B8
330
1B1
100
AcDbEntity
  8
BEMASSUNG
  6
Continuous
 62
     3
100
AcDbMText
 10
174.2471027611595
 20
101.8626558763466
 30
0.0
 40
3.5
 41
0.0
 71
     5
 72
     1
  1
\A1;20
  7
ARIAL-STANDARD
 73
     1
 44
1.0
1001
ACAD
1000
MTEXTBEGIN
1070
    73
1070
     1
1070
    44
1040
1.0
1070
    74
1070
     0
1000
MTEXTEND
  0
POINT
  5
1B9
330
1B1
100
AcDbEntity
  8
DEFPOINTS
  6
Continuous
 62
     0
100
AcDbPoint
 10
164.6945413059131
 20
120.3773126292808
 30
0.0
  0
POINT
  5
1BA
330
1B1
100
AcDbEntity
  8
DEFPOINTS
  6
Continuous
 62
     0
100
AcDbPoint
 10
184.6945413059131
 20
120.3773126292808
 30
0.0
  0
POINT
  5
1BB
330
1B1
100
AcDbEntity
  8
DEFPOINTS
  6
Continuous
 62
     0
100
AcDbPoint
 10
184.6945413059131
 20
99.07565041932071
 30
0.0
  0
ENDBLK
  5
1BC
330
1B1
100
AcDbEntity
  8
0
100
AcDbBlockEnd
  0
BLOCK
  5
259
330
258
100
AcDbEntity
  8
0
100
AcDbBlockBegin
  2
*D2
 70
     1
 10
0.0
 20
0.0
 30
0.0
  3
*D2
  1

  0
LINE
  5
25A
330
258
100
AcDbEntity
  8
BEMASSUNG
  6
Continuous
 62
     2
370
    -2
100
AcDbLine
 10
68.70983565861411
 20
185.3773126292806
 30
0.0
 11
98.64377678832845
 21
185.3773126292806
 31
0.0
  0
LINE
  5
25B
330
258
100
AcDbEntity
  8
BEMASSUNG
  6
Continuous
 62
     2
370
    -2
100
AcDbLine
 10
68.70983565861433
 20
305.3773126292809
 30
0.0
 11
98.64377678832846
 21
305.3773126292809
 31
0.0
  0
LINE
  5
25C
330
258
100
AcDbEntity
  8
BEMASSUNG
  6
Continuous
 62
     2
370
    -2
100
AcDbLine
 10
97.64377678832843
 20
189.3773126292806
 30
0.0
 11
97.64377678832847
 21
301.3773126292809
 31
0.0
  0
SOLID
  5
25D
330
258
100
AcDbEntity
  8
BEMASSUNG
  6
Continuous
 62
     2
100
AcDbTrace
 10
96.97711012166177
 20
189.3773126292806
 30
0.0
 11
98.31044345499512
 21
189.3773126292806
 31
0.0
 12
97.64377678832843
 22
185.3773126292806
 32
0.0
 13
97.64377678832843
 23
185.3773126292806
 33
0.0
  0
SOLID
  5
25E
330
258
100
AcDbEntity
  8
BEMASSUNG
  6
Continuous
 62
     2
100
AcDbTrace
 10
96.9771101216618
 20
301.3773126292809
 30
0.0
 11
98.31044345499513
 21
301.3773126292809
 31
0.0
 12
97.64377678832847
 22
305.3773126292809
 32
0.0
 13
97.64377678832847
 23
305.3773126292809
 33
0.0
  0
MTEXT
  5
25F
330
258
100
AcDbEntity
  8
BEMASSUNG
  6
Continuous
 62
     3
100
AcDbMText
 10
94.85677133130248
 20
245.3773126292808
 30
0.0
 40
3.5
 41
0.0
 71
     5
 72
     1
  1
\A1;120
  7
ARIAL-STANDARD
 11
0.0000000000000001
 21
1.0
 31
0.0
 73
     1
 44
1.0
1001
ACAD
1000
MTEXTBEGIN
1070
    73
1070
     1
1070
    44
1040
1.0
1070
    74
1070
     0
1000
MTEXTEND
  0
POINT
  5
260
330
258
100
AcDbEntity
  8
DEFPOINTS
  6
Continuous
 62
     0
100
AcDbPoint
 10
68.70983565861411
 20
185.3773126292806
 30
0.0
  0
POINT
  5
261
330
258
100
AcDbEntity
  8
DEFPOINTS
  6
Continuous
 62
     0
100
AcDbPoint
 10
68.70983565861433
 20
305.3773126292809
 30
0.0
  0
POINT
  5
262
330
258
100
AcDbEntity
  8
DEFPOINTS
  6
Continuous
 62
     0
100
AcDbPoint
 10
97.64377678832847
 20
305.3773126292809
 30
0.0
  0
ENDBLK
  5
263
330
258
100
AcDbEntity
  8
0
100
AcDbBlockEnd
  0
BLOCK
  5
24C
330
24B
100
AcDbEntity
  8
0
100
AcDbBlockBegin
  2
*D3
 70
     1
 10
0.0
 20
0.0
 30
0.0
  3
*D3
  1

  0
LINE
  5
24D
330
24B
100
AcDbEntity
  8
BEMASSUNG
  6
Continuous
 62
     2
370
    -2
100
AcDbLine
 10
174.6945413059131
 20
380.3773126292808
 30
0.0
 11
200.5977740282829
 21
380.3773126292808
 31
0.0
  0
LINE
  5
24E
330
24B
100
AcDbEntity
  8
BEMASSUNG
  6
Continuous
 62
     2
370
    -2
100
AcDbLine
 10
174.6945413059131
 20
110.3773126292808
 30
0.0
 11
200.5977740282828
 21
110.3773126292808
 31
0.0
  0
LINE
  5
24F
330
24B
100
AcDbEntity
  8
BEMASSUNG
  6
Continuous
 62
     2
370
    -2
100
AcDbLine
 10
199.5977740282829
 20
376.3773126292808
 30
0.0
 11
199.5977740282828
 21
114.3773126292808
 31
0.0
  0
SOLID
  5
250
330
24B
100
AcDbEntity
  8
BEMASSUNG
  6
Continuous
 62
     2
100
AcDbTrace
 10
198.9311073616162
 20
376.3773126292808
 30
0.0
 11
200.2644406949495
 21
376.3773126292808
 31
0.0
 12
199.5977740282829
 22
380.3773126292808
 32
0.0
 13
199.5977740282829
 23
380.3773126292808
 33
0.0
  0
SOLID
  5
251
330
24B
100
AcDbEntity
  8
BEMASSUNG
  6
Continuous
 62
     2
100
AcDbTrace
 10
198.9311073616162
 20
114.3773126292808
 30
0.0
 11
200.2644406949495
 21
114.3773126292808
 31
0.0
 12
199.5977740282828
 22
110.3773126292808
 32
0.0
 13
199.5977740282828
 23
110.3773126292808
 33
0.0
  0
MTEXT
  5
252
330
24B
100
AcDbEntity
  8
BEMASSUNG
  6
Continuous
 62
     3
100
AcDbMText
 10
196.8107685712569
 20
245.3773126292809
 30
0.0
 40
3.5
 41
0.0
 71
     5
 72
     1
  1
\A1;270
  7
ARIAL-STANDARD
 11
0.0000000000000001
 21
1.0
 31
0.0
 73
     1
 44
1.0
1001
ACAD
1000
MTEXTBEGIN
1070
    73
1070
     1
1070
    44
1040
1.0
1070
    74
1070
     0
1000
MTEXTEND
  0
POINT
  5
253
330
24B
100
AcDbEntity
  8
DEFPOINTS
  6
Continuous
 62
     0
100
AcDbPoint
 10
174.6945413059131
 20
380.3773126292808
 30
0.0
  0
POINT
  5
254
330
24B
100
AcDbEntity
  8
DEFPOINTS
  6
Continuous
 62
     0
100
AcDbPoint
 10
174.6945413059131
 20
110.3773126292808
 30
0.0
  0
POINT
  5
255
330
24B
100
AcDbEntity
  8
DEFPOINTS
  6
Continuous
 62
     0
100
AcDbPoint
 10
199.5977740282828
 20
110.3773126292808
 30
0.0
  0
ENDBLK
  5
256
330
24B
100
AcDbEntity
  8
0
100
AcDbBlockEnd
  0
BLOCK
  5
22F
330
22E
100
AcDbEntity
  8
0
100
AcDbBlockBegin
  2
*D4
 70
     1
 10
0.0
 20
0.0
 30
0.0
  3
*D4
  1

  0
LINE
  5
230
330
22E
100
AcDbEntity
  8
BEMASSUNG
  6
Continuous
 62
     2
370
    -2
100
AcDbLine
 10
40.70983565861434
 20
42.75692565812209
 30
0.0
 11
97.60008325833497
 21
42.75692565812208
 31
0.0
  0
LINE
  5
231
330
22E
100
AcDbEntity
  8
BEMASSUNG
  6
Continuous
 62
     2
370
    -2
100
AcDbLine
 10
40.70983565861434
 20
25.7569256581221
 30
0.0
 11
97.60008325833496
 21
25.75692565812209
 31
0.0
  0
LINE
  5
232
330
22E
100
AcDbEntity
  8
BEMASSUNG
  6
Continuous
 62
     2
370
    -2
100
AcDbLine
 10
96.60008325833498
 20
38.75692565812208
 30
0.0
 11
96.60008325833496
 21
29.75692565812209
 31
0.0
  0
SOLID
  5
233
330
22E
100
AcDbEntity
  8
BEMASSUNG
  6
Continuous
 62
     2
100
AcDbTrace
 10
95.9334165916683
 20
38.75692565812208
 30
0.0
 11
97.26674992500164
 21
38.75692565812208
 31
0.0
 12
96.60008325833498
 22
42.75692565812208
 32
0.0
 13
96.60008325833498
 23
42.75692565812208
 33
0.0
  0
SOLID
  5
234
330
22E
100
AcDbEntity
  8
BEMASSUNG
  6
Continuous
 62
     2
100
AcDbTrace
 10
95.9334165916683
 20
29.75692565812209
 30
0.0
 11
97.26674992500164
 21
29.75692565812209
 31
0.0
 12
96.60008325833496
 22
25.75692565812209
 32
0.0
 13
96.60008325833496
 23
25.75692565812209
 33
0.0
  0
MTEXT
  5
235
330
22E
100
AcDbEntity
  8
BEMASSUNG
  6
Continuous
 62
     3
100
AcDbMText
 10
93.84292091181382
 20
34.2569256581221
 30
0.0
 40
3.5
 41
0.0
 71
     5
 72
     1
  1
\A1;17
  7
ARIAL-STANDARD
 11
0.0000000000000001
 21
1.0
 31
0.0
 73
     1
 44
1.0
1001
ACAD
1000
MTEXTBEGIN
1070
    73
1070
     1
1070
    44
1040
1.0
1070
    74
1070
     0
1000
MTEXTEND
  0
POINT
  5
236
330
22E
100
AcDbEntity
  8
DEFPOINTS
  6
Continuous
 62
     0
100
AcDbPoint
 10
40.70983565861434
 20
42.75692565812209
 30
0.0
  0
POINT
  5
237
330
22E
100
AcDbEntity
  8
DEFPOINTS
  6
Continuous
 62
     0
100
AcDbPoint
 10
40.70983565861434
 20
25.7569256581221
 30
0.0
  0
POINT
  5
238
330
22E
100
AcDbEntity
  8
DEFPOINTS
  6
Continuous
 62
     0
100
AcDbPoint
 10
96.60008325833496
 20
25.75692565812209
 30
0.0
  0
ENDBLK
  5
239
330
22E
100
AcDbEntity
  8
0
100
AcDbBlockEnd
  0
BLOCK
  5
222
330
221
100
AcDbEntity
  8
0
100
AcDbBlockBegin
  2
*D5
 70
     1
 10
0.0
 20
0.0
 30
0.0
  3
*D5
  1

  0
LINE
  5
223
330
221
100
AcDbEntity
  8
BEMASSUNG
  6
Continuous
 62
     2
370
    -2
100
AcDbLine
 10
68.70983565861433
 20
27.2569256581221
 30
0.0
 11
85.20138473012002
 21
27.2569256581221
 31
0.0
  0
LINE
  5
224
330
221
100
AcDbEntity
  8
BEMASSUNG
  6
Continuous
 62
     2
370
    -2
100
AcDbLine
 10
67.20983565861434
 20
41.2569256581221
 30
0.0
 11
85.20138473012002
 21
41.25692565812209
 31
0.0
  0
LINE
  5
225
330
221
100
AcDbEntity
  8
BEMASSUNG
  6
Continuous
 62
     2
370
    -2
100
AcDbLine
 10
84.20138473012
 20
31.2569256581221
 30
0.0
 11
84.20138473012002
 21
37.25692565812209
 31
0.0
  0
SOLID
  5
226
330
221
100
AcDbEntity
  8
BEMASSUNG
  6
Continuous
 62
     2
100
AcDbTrace
 10
83.53471806345334
 20
31.2569256581221
 30
0.0
 11
84.86805139678669
 21
31.2569256581221
 31
0.0
 12
84.20138473012
 22
27.2569256581221
 32
0.0
 13
84.20138473012
 23
27.2569256581221
 33
0.0
  0
SOLID
  5
227
330
221
100
AcDbEntity
  8
BEMASSUNG
  6
Continuous
 62
     2
100
AcDbTrace
 10
83.53471806345336
 20
37.25692565812209
 30
0.0
 11
84.8680513967867
 21
37.25692565812209
 31
0.0
 12
84.20138473012002
 22
41.25692565812209
 32
0.0
 13
84.20138473012002
 23
41.25692565812209
 33
0.0
  0
MTEXT
  5
228
330
221
100
AcDbEntity
  8
BEMASSUNG
  6
Continuous
 62
     3
100
AcDbMText
 10
81.44422238359886
 20
34.25692565812211
 30
0.0
 40
3.5
 41
0.0
 71
     5
 72
     1
  1
\A1;14
  7
ARIAL-STANDARD
 11
0.0000000000000001
 21
1.0
 31
0.0
 73
     1
 44
1.0
1001
ACAD
1000
MTEXTBEGIN
1070
    73
1070
     1
1070
    44
1040
1.0
1070
    74
1070
     0
1000
MTEXTEND
  0
POINT
  5
229
330
221
100
AcDbEntity
  8
DEFPOINTS
  6
Continuous
 62
     0
100
AcDbPoint
 10
68.70983565861433
 20
27.2569256581221
 30
0.0
  0
POINT
  5
22A
330
221
100
AcDbEntity
  8
DEFPOINTS
  6
Continuous
 62
     0
100
AcDbPoint
 10
67.20983565861434
 20
41.2569256581221
 30
0.0
  0
POINT
  5
22B
330
221
100
AcDbEntity
  8
DEFPOINTS
  6
Continuous
 62
     0
100
AcDbPoint
 10
84.20138473012002
 20
41.25692565812209
 30
0.0
  0
ENDBLK
  5
22C
330
221
100
AcDbEntity
  8
0
100
AcDbBlockEnd
  0
BLOCK
  5
206
330
205
100
AcDbEntity
  8
0
100
AcDbBlockBegin
  2
*D6
 70
     1
 10
0.0
 20
0.0
 30
0.0
  3
*D6
  1

  0
LINE
  5
207
330
205
100
AcDbEntity
  8
BEMASSUNG
  6
Continuous
 62
     2
370
    -2
100
AcDbLine
 10
69.45983565861411
 20
185.3773126292806
 30
0.0
 11
98.60454297771276
 21
185.3773126292806
 31
0.0
  0
LINE
  5
208
330
205
100
AcDbEntity
  8
BEMASSUNG
  6
Continuous
 62
     2
370
    -2
100
AcDbLine
 10
32.20983565861434
 20
110.3773126292808
 30
0.0
 11
98.60454297771276
 21
110.3773126292808
 31
0.0
  0
LINE
  5
209
330
205
100
AcDbEntity
  8
BEMASSUNG
  6
Continuous
 62
     2
370
    -2
100
AcDbLine
 10
97.60454297771277
 20
181.3773126292806
 30
0.0
 11
97.60454297771275
 21
114.3773126292808
 31
0.0
  0
SOLID
  5
20A
330
205
100
AcDbEntity
  8
BEMASSUNG
  6
Continuous
 62
     2
100
AcDbTrace
 10
96.9378763110461
 20
181.3773126292806
 30
0.0
 11
98.27120964437945
 21
181.3773126292806
 31
0.0
 12
97.60454297771277
 22
185.3773126292806
 32
0.0
 13
97.60454297771277
 23
185.3773126292806
 33
0.0
  0
SOLID
  5
20B
330
205
100
AcDbEntity
  8
BEMASSUNG
  6
Continuous
 62
     2
100
AcDbTrace
 10
96.93787631104608
 20
114.3773126292808
 30
0.0
 11
98.27120964437943
 21
114.3773126292808
 31
0.0
 12
97.60454297771275
 22
110.3773126292808
 32
0.0
 13
97.60454297771275
 23
110.3773126292808
 33
0.0
  0
MTEXT
  5
20C
330
205
100
AcDbEntity
  8
BEMASSUNG
  6
Continuous
 62
     3
100
AcDbMText
 10
94.82469986720797
 20
147.8773126292807
 30
0.0
 40
3.5
 41
0.0
 71
     5
 72
     1
  1
\A1;75
  7
ARIAL-STANDARD
 11
0.0000000000000001
 21
1.0
 31
0.0
 73
     1
 44
1.0
1001
ACAD
1000
MTEXTBEGIN
1070
    73
1070
     1
1070
    44
1040
1.0
1070
    74
1070
     0
1000
MTEXTEND
  0
POINT
  5
20D
330
205
100
AcDbEntity
  8
DEFPOINTS
  6
Continuous
 62
     0
100
AcDbPoint
 10
69.45983565861411
 20
185.3773126292806
 30
0.0
  0
POINT
  5
20E
330
205
100
AcDbEntity
  8
DEFPOINTS
  6
Continuous
 62
     0
100
AcDbPoint
 10
32.20983565861434
 20
110.3773126292808
 30
0.0
  0
POINT
  5
20F
330
205
100
AcDbEntity
  8
DEFPOINTS
  6
Continuous
 62
     0
100
AcDbPoint
 10
97.60454297771275
 20
110.3773126292808
 30
0.0
  0
ENDBLK
  5
210
330
205
100
AcDbEntity
  8
0
100
AcDbBlockEnd
  0
BLOCK
  5
1F7
330
1F6
100
AcDbEntity
  8
0
100
AcDbBlockBegin
  2
*D7
 70
     1
 10
0.0
 20
0.0
 30
0.0
  3
*D7
  1

  0
LINE
  5
1F8
330
1F6
100
AcDbEntity
  8
BEMASSUNG
  6
Continuous
 62
     2
370
    -2
100
AcDbLine
 10
32.20983565861434
 20
110.3773126292808
 30
0.0
 11
32.20983565861434
 21
98.034350119372
 31
0.0
  0
LINE
  5
1F9
330
1F6
100
AcDbEntity
  8
BEMASSUNG
  6
Continuous
 62
     2
370
    -2
100
AcDbLine
 10
29.20983565861434
 20
110.3773126292808
 30
0.0
 11
29.20983565861434
 21
98.034350119372
 31
0.0
  0
LINE
  5
1FA
330
1F6
100
AcDbEntity
  8
BEMASSUNG
  6
Continuous
 62
     2
370
    -2
100
AcDbLine
 10
36.20983565861434
 20
99.03435011937199
 30
0.0
 11
40.20983565861434
 21
99.03435011937199
 31
0.0
  0
LINE
  5
1FB
330
1F6
100
AcDbEntity
  8
BEMASSUNG
  6
Continuous
 62
     2
370
    -2
100
AcDbLine
 10
25.20983565861434
 20
99.03435011937199
 30
0.0
 11
16.91788477184762
 21
99.03435011937199
 31
0.0
  0
LINE
  5
1FC
330
1F6
100
AcDbEntity
  8
BEMASSUNG
  6
Continuous
 62
     2
370
    -2
100
AcDbLine
 10
32.20983565861434
 20
99.03435011937199
 30
0.0
 11
29.20983565861434
 21
99.03435011937199
 31
0.0
  0
SOLID
  5
1FD
330
1F6
100
AcDbEntity
  8
BEMASSUNG
  6
Continuous
 62
     2
100
AcDbTrace
 10
36.20983565861434
 20
99.70101678603867
 30
0.0
 11
36.20983565861434
 21
98.36768345270533
 31
0.0
 12
32.20983565861434
 22
99.03435011937199
 32
0.0
 13
32.20983565861434
 23
99.03435011937199
 33
0.0
  0
SOLID
  5
1FE
330
1F6
100
AcDbEntity
  8
BEMASSUNG
  6
Continuous
 62
     2
100
AcDbTrace
 10
25.20983565861434
 20
99.70101678603867
 30
0.0
 11
25.20983565861434
 21
98.36768345270533
 31
0.0
 12
29.20983565861434
 22
99.03435011937199
 32
0.0
 13
29.20983565861434
 23
99.03435011937199
 33
0.0
  0
MTEXT
  5
1FF
330
1F6
100
AcDbEntity
  8
BEMASSUNG
  6
Continuous
 62
     3
100
AcDbMText
 10
19.06386021523098
 20
101.8225493008181
 30
0.0
 40
3.5
 41
0.0
 71
     5
 72
     1
  1
\A1;3
  7
ARIAL-STANDARD
 73
     1
 44
1.0
1001
ACAD
1000
MTEXTBEGIN
1070
    73
1070
     1
1070
    44
1040
1.0
1070
    74
1070
     0
1000
MTEXTEND
  0
POINT
  5
200
330
1F6
100
AcDbEntity
  8
DEFPOINTS
  6
Continuous
 62
     0
100
AcDbPoint
 10
32.20983565861434
 20
110.3773126292808
 30
0.0
  0
POINT
  5
201
330
1F6
100
AcDbEntity
  8
DEFPOINTS
  6
Continuous
 62
     0
100
AcDbPoint
 10
29.20983565861434
 20
110.3773126292808
 30
0.0
  0
POINT
  5
202
330
1F6
100
AcDbEntity
  8
DEFPOINTS
  6
Continuous
 62
     0
100
AcDbPoint
 10
29.20983565861434
 20
99.03435011937199
 30
0.0
  0
ENDBLK
  5
203
330
1F6
100
AcDbEntity
  8
0
100
AcDbBlockEnd
  0
BLOCK
  5
1E9
330
1E8
100
AcDbEntity
  8
0
100
AcDbBlockBegin
  2
*D8
 70
     1
 10
0.0
 20
0.0
 30
0.0
  3
*D8
  1

  0
LINE
  5
1EA
330
1E8
100
AcDbEntity
  8
BEMASSUNG
  6
Continuous
 62
     2
370
    -2
100
AcDbLine
 10
58.709835658614
 20
41.2569256581221
 30
0.0
 11
58.709835658614
 21
54.40310685500981
 31
0.0
  0
LINE
  5
1EB
330
1E8
100
AcDbEntity
  8
BEMASSUNG
  6
Continuous
 62
     2
370
    -2
100
AcDbLine
 10
29.20983565861434
 20
44.2569256581221
 30
0.0
 11
29.20983565861434
 21
54.40310685500981
 31
0.0
  0
LINE
  5
1EC
330
1E8
100
AcDbEntity
  8
BEMASSUNG
  6
Continuous
 62
     2
370
    -2
100
AcDbLine
 10
54.70983565861399
 20
53.4031068550098
 30
0.0
 11
33.20983565861434
 21
53.4031068550098
 31
0.0
  0
SOLID
  5
1ED
330
1E8
100
AcDbEntity
  8
BEMASSUNG
  6
Continuous
 62
     2
100
AcDbTrace
 10
54.70983565861399
 20
54.06977352167647
 30
0.0
 11
54.70983565861399
 21
52.73644018834314
 31
0.0
 12
58.709835658614
 22
53.4031068550098
 32
0.0
 13
58.709835658614
 23
53.4031068550098
 33
0.0
  0
SOLID
  5
1EE
330
1E8
100
AcDbEntity
  8
BEMASSUNG
  6
Continuous
 62
     2
100
AcDbTrace
 10
33.20983565861434
 20
54.06977352167647
 30
0.0
 11
33.20983565861434
 21
52.73644018834314
 31
0.0
 12
29.20983565861434
 22
53.4031068550098
 32
0.0
 13
29.20983565861434
 23
53.4031068550098
 33
0.0
  0
MTEXT
  5
1EF
330
1E8
100
AcDbEntity
  8
BEMASSUNG
  6
Continuous
 62
     3
100
AcDbMText
 10
43.95983565861416
 20
56.19011231203573
 30
0.0
 40
3.5
 41
0.0
 71
     5
 72
     1
  1
\A1;29.5
  7
ARIAL-STANDARD
 73
     1
 44
1.0
1001
ACAD
1000
MTEXTBEGIN
1070
    73
1070
     1
1070
    44
1040
1.0
1070
    74
1070
     0
1000
MTEXTEND
  0
POINT
  5
1F0
330
1E8
100
AcDbEntity
  8
DEFPOINTS
  6
Continuous
 62
     0
100
AcDbPoint
 10
58.709835658614
 20
41.2569256581221
 30
0.0
  0
POINT
  5
1F1
330
1E8
100
AcDbEntity
  8
DEFPOINTS
  6
Continuous
 62
     0
100
AcDbPoint
 10
29.20983565861434
 20
44.2569256581221
 30
0.0
  0
POINT
  5
1F2
330
1E8
100
AcDbEntity
  8
DEFPOINTS
  6
Continuous
 62
     0
100
AcDbPoint
 10
29.20983565861434
 20
53.4031068550098
 30
0.0
  0
ENDBLK
  5
1F3
330
1E8
100
AcDbEntity
  8
0
100
AcDbBlockEnd
  0
BLOCK
  5
1C3
330
1C2
100
AcDbEntity
  8
0
100
AcDbBlockBegin
  2
*D9
 70
     1
 10
0.0
 20
0.0
 30
0.0
  3
*D9
  1

  0
LINE
  5
1C4
330
1C2
100
AcDbEntity
  8
BEMASSUNG
  6
Continuous
 62
     2
370
    -2
100
AcDbLine
 10
174.6945413059131
 20
110.3773126292808
 30
0.0
 11
150.8378071122188
 21
110.3773126292808
 31
0.0
  0
LINE
  5
1C5
330
1C2
100
AcDbEntity
  8
BEMASSUNG
  6
Continuous
 62
     2
370
    -2
100
AcDbLine
 10
167.9445413059131
 20
120.3773126292808
 30
0.0
 11
150.8378071122188
 21
120.3773126292808
 31
0.0
  0
LINE
  5
1C6
330
1C2
100
AcDbEntity
  8
BEMASSUNG
  6
Continuous
 62
     2
370
    -2
100
AcDbLine
 10
151.8378071122188
 20
106.3773126292808
 30
0.0
 11
151.8378071122188
 21
102.3773126292808
 31
0.0
  0
LINE
  5
1C7
330
1C2
100
AcDbEntity
  8
BEMASSUNG
  6
Continuous
 62
     2
370
    -2
100
AcDbLine
 10
151.8378071122188
 20
124.3773126292808
 30
0.0
 11
151.8378071122188
 21
128.3773126292808
 31
0.0
  0
LINE
  5
1C8
330
1C2
100
AcDbEntity
  8
BEMASSUNG
  6
Continuous
 62
     2
370
    -2
100
AcDbLine
 10
151.8378071122188
 20
110.3773126292808
 30
0.0
 11
151.8378071122188
 21
120.3773126292808
 31
0.0
  0
SOLID
  5
1C9
330
1C2
100
AcDbEntity
  8
BEMASSUNG
  6
Continuous
 62
     2
100
AcDbTrace
 10
151.1711404455521
 20
106.3773126292808
 30
0.0
 11
152.5044737788854
 21
106.3773126292808
 31
0.0
 12
151.8378071122188
 22
110.3773126292808
 32
0.0
 13
151.8378071122188
 23
110.3773126292808
 33
0.0
  0
SOLID
  5
1CA
330
1C2
100
AcDbEntity
  8
BEMASSUNG
  6
Continuous
 62
     2
100
AcDbTrace
 10
151.1711404455521
 20
124.3773126292808
 30
0.0
 11
152.5044737788854
 21
124.3773126292808
 31
0.0
 12
151.8378071122188
 22
120.3773126292808
 32
0.0
 13
151.8378071122188
 23
120.3773126292808
 33
0.0
  0
MTEXT
  5
1CB
330
1C2
100
AcDbEntity
  8
BEMASSUNG
  6
Continuous
 62
     3
100
AcDbMText
 10
149.0508016551928
 20
115.3773126292808
 30
0.0
 40
3.5
 41
0.0
 71
     5
 72
     1
  1
\A1;10
  7
ARIAL-STANDARD
 11
0.0000000000000001
 21
1.0
 31
0.0
 73
     1
 44
1.0
1001
ACAD
1000
MTEXTBEGIN
1070
    73
1070
     1
1070
    44
1040
1.0
1070
    74
1070
     0
1000
MTEXTEND
  0
POINT
  5
1CC
330
1C2
100
AcDbEntity
  8
DEFPOINTS
  6
Continuous
 62
     0
100
AcDbPoint
 10
174.6945413059131
 20
110.3773126292808
 30
0.0
  0
POINT
  5
1CD
330
1C2
100
AcDbEntity
  8
DEFPOINTS
  6
Continuous
 62
     0
100
AcDbPoint
 10
167.9445413059131
 20
120.3773126292808
 30
0.0
  0
POINT
  5
1CE
330
1C2
100
AcDbEntity
  8
DEFPOINTS
  6
Continuous
 62
     0
100
AcDbPoint
 10
151.8378071122188
 20
120.3773126292808
 30
0.0
  0
ENDBLK
  5
1CF
330
1C2
100
AcDbEntity
  8
0
100
AcDbBlockEnd
  0
BLOCK
  5
192
330
191
100
AcDbEntity
  8
0
100
AcDbBlockBegin
  2
*D10
 70
     1
 10
0.0
 20
0.0
 30
0.0
  3
*D10
  1

  0
LINE
  5
193
330
191
100
AcDbEntity
  8
BEMASSUNG
  6
Continuous
 62
     2
370
    -2
100
AcDbLine
 10
69.45983565861434
 20
305.3773126292809
 30
0.0
 11
98.84907233218244
 21
305.3773126292809
 31
0.0
  0
LINE
  5
194
330
191
100
AcDbEntity
  8
BEMASSUNG
  6
Continuous
 62
     2
370
    -2
100
AcDbLine
 10
32.20983565861434
 20
380.3773126292808
 30
0.0
 11
98.84907233218246
 21
380.3773126292808
 31
0.0
  0
LINE
  5
195
330
191
100
AcDbEntity
  8
BEMASSUNG
  6
Continuous
 62
     2
370
    -2
100
AcDbLine
 10
97.84907233218245
 20
309.3773126292809
 30
0.0
 11
97.84907233218246
 21
376.3773126292808
 31
0.0
  0
SOLID
  5
196
330
191
100
AcDbEntity
  8
BEMASSUNG
  6
Continuous
 62
     2
100
AcDbTrace
 10
97.18240566551578
 20
309.3773126292809
 30
0.0
 11
98.51573899884911
 21
309.3773126292809
 31
0.0
 12
97.84907233218245
 22
305.3773126292809
 32
0.0
 13
97.84907233218245
 23
305.3773126292809
 33
0.0
  0
SOLID
  5
197
330
191
100
AcDbEntity
  8
BEMASSUNG
  6
Continuous
 62
     2
100
AcDbTrace
 10
97.18240566551578
 20
376.3773126292808
 30
0.0
 11
98.51573899884913
 21
376.3773126292808
 31
0.0
 12
97.84907233218246
 22
380.3773126292808
 32
0.0
 13
97.84907233218246
 23
380.3773126292808
 33
0.0
  0
MTEXT
  5
198
330
191
100
AcDbEntity
  8
BEMASSUNG
  6
Continuous
 62
     3
100
AcDbMText
 10
95.06922922167762
 20
342.8773126292808
 30
0.0
 40
3.5
 41
0.0
 71
     5
 72
     1
  1
\A1;75
  7
ARIAL-STANDARD
 11
0.0000000000000001
 21
1.0
 31
0.0
 73
     1
 44
1.0
1001
ACAD
1000
MTEXTBEGIN
1070
    73
1070
     1
1070
    44
1040
1.0
1070
    74
1070
     0
1000
MTEXTEND
  0
POINT
  5
199
330
191
100
AcDbEntity
  8
DEFPOINTS
  6
Continuous
 62
     0
100
AcDbPoint
 10
69.45983565861434
 20
305.3773126292809
 30
0.0
  0
POINT
  5
19A
330
191
100
AcDbEntity
  8
DEFPOINTS
  6
Continuous
 62
     0
100
AcDbPoint
 10
32.20983565861434
 20
380.3773126292808
 30
0.0
  0
POINT
  5
19B
330
191
100
AcDbEntity
  8
DEFPOINTS
  6
Continuous
 62
     0
100
AcDbPoint
 10
97.84907233218246
 20
380.3773126292808
 30
0.0
  0
ENDBLK
  5
19C
330
191
100
AcDbEntity
  8
0
100
AcDbBlockEnd
  0
BLOCK
  5
183
330
182
100
AcDbEntity
  8
0
100
AcDbBlockBegin
  2
*D11
 70
     1
 10
0.0
 20
0.0
 30
0.0
  3
*D11
  1

  0
LINE
  5
184
330
182
100
AcDbEntity
  8
BEMASSUNG
  6
Continuous
 62
     2
370
    -2
100
AcDbLine
 10
29.20983565861434
 20
245.3773126292808
 30
0.0
 11
29.20983565861434
 21
247.4005360139911
 31
0.0
  0
LINE
  5
185
330
182
100
AcDbEntity
  8
BEMASSUNG
  6
Continuous
 62
     2
370
    -2
100
AcDbLine
 10
68.70983565861422
 20
245.3773126292807
 30
0.0
 11
68.70983565861422
 21
247.4005360139911
 31
0.0
  0
LINE
  5
186
330
182
100
AcDbEntity
  8
BEMASSUNG
  6
Continuous
 62
     2
370
    -2
100
AcDbLine
 10
33.20983565861434
 20
246.4005360139911
 30
0.0
 11
64.70983565861422
 21
246.4005360139911
 31
0.0
  0
SOLID
  5
187
330
182
100
AcDbEntity
  8
BEMASSUNG
  6
Continuous
 62
     2
100
AcDbTrace
 10
33.20983565861434
 20
247.0672026806577
 30
0.0
 11
33.20983565861434
 21
245.7338693473244
 31
0.0
 12
29.20983565861434
 22
246.4005360139911
 32
0.0
 13
29.20983565861434
 23
246.4005360139911
 33
0.0
  0
SOLID
  5
188
330
182
100
AcDbEntity
  8
BEMASSUNG
  6
Continuous
 62
     2
100
AcDbTrace
 10
64.70983565861422
 20
247.0672026806577
 30
0.0
 11
64.70983565861422
 21
245.7338693473244
 31
0.0
 12
68.70983565861422
 22
246.4005360139911
 32
0.0
 13
68.70983565861422
 23
246.4005360139911
 33
0.0
  0
MTEXT
  5
189
330
182
100
AcDbEntity
  8
BEMASSUNG
  6
Continuous
 62
     3
100
AcDbMText
 10
48.95983565861428
 20
249.1887351954372
 30
0.0
 40
3.5
 41
0.0
 71
     5
 72
     1
  1
\A1;39.5
  7
ARIAL-STANDARD
 73
     1
 44
1.0
1001
ACAD
1000
MTEXTBEGIN
1070
    73
1070
     1
1070
    44
1040
1.0
1070
    74
1070
     0
1000
MTEXTEND
  0
POINT
  5
18A
330
182
100
AcDbEntity
  8
DEFPOINTS
  6
Continuous
 62
     0
100
AcDbPoint
 10
29.20983565861434
 20
245.3773126292808
 30
0.0
  0
POINT
  5
18B
330
182
100
AcDbEntity
  8
DEFPOINTS
  6
Continuous
 62
     0
100
AcDbPoint
 10
68.70983565861422
 20
245.3773126292807
 30
0.0
  0
POINT
  5
18C
330
182
100
AcDbEntity
  8
DEFPOINTS
  6
Continuous
 62
     0
100
AcDbPoint
 10
68.70983565861422
 20
246.4005360139911
 30
0.0
  0
ENDBLK
  5
18D
330
182
100
AcDbEntity
  8
0
100
AcDbBlockEnd
  0
BLOCK
  5
148
330
147
100
AcDbEntity
  8
0
100
AcDbBlockBegin
  2
*D12
 70
     1
 10
0.0
 20
0.0
 30
0.0
  3
*D12
  1

  0
LINE
  5
149
330
147
100
AcDbEntity
  8
BEMASSUNG
  6
Continuous
 62
     2
370
    -2
100
AcDbLine
 10
174.6945413059131
 20
380.3773126292808
 30
0.0
 11
150.8378071122188
 21
380.3773126292808
 31
0.0
  0
LINE
  5
14A
330
147
100
AcDbEntity
  8
BEMASSUNG
  6
Continuous
 62
     2
370
    -2
100
AcDbLine
 10
164.6945413059131
 20
370.3773126292808
 30
0.0
 11
150.8378071122188
 21
370.3773126292808
 31
0.0
  0
LINE
  5
14B
330
147
100
AcDbEntity
  8
BEMASSUNG
  6
Continuous
 62
     2
370
    -2
100
AcDbLine
 10
151.8378071122188
 20
384.3773126292808
 30
0.0
 11
151.8378071122188
 21
388.3773126292808
 31
0.0
  0
LINE
  5
14C
330
147
100
AcDbEntity
  8
BEMASSUNG
  6
Continuous
 62
     2
370
    -2
100
AcDbLine
 10
151.8378071122188
 20
366.3773126292808
 30
0.0
 11
151.8378071122188
 21
362.3773126292808
 31
0.0
  0
LINE
  5
14D
330
147
100
AcDbEntity
  8
BEMASSUNG
  6
Continuous
 62
     2
370
    -2
100
AcDbLine
 10
151.8378071122188
 20
380.3773126292808
 30
0.0
 11
151.8378071122188
 21
370.3773126292808
 31
0.0
  0
SOLID
  5
14E
330
147
100
AcDbEntity
  8
BEMASSUNG
  6
Continuous
 62
     2
100
AcDbTrace
 10
151.1711404455522
 20
384.3773126292808
 30
0.0
 11
152.5044737788855
 21
384.3773126292808
 31
0.0
 12
151.8378071122188
 22
380.3773126292808
 32
0.0
 13
151.8378071122188
 23
380.3773126292808
 33
0.0
  0
SOLID
  5
14F
330
147
100
AcDbEntity
  8
BEMASSUNG
  6
Continuous
 62
     2
100
AcDbTrace
 10
151.1711404455522
 20
366.3773126292808
 30
0.0
 11
152.5044737788855
 21
366.3773126292808
 31
0.0
 12
151.8378071122188
 22
370.3773126292808
 32
0.0
 13
151.8378071122188
 23
370.3773126292808
 33
0.0
  0
MTEXT
  5
150
330
147
100
AcDbEntity
  8
BEMASSUNG
  6
Continuous
 62
     3
100
AcDbMText
 10
149.0508016551929
 20
375.3773126292809
 30
0.0
 40
3.5
 41
0.0
 71
     5
 72
     1
  1
\A1;10
  7
ARIAL-STANDARD
 11
0.0000000000000001
 21
1.0
 31
0.0
 73
     1
 44
1.0
1001
ACAD
1000
MTEXTBEGIN
1070
    73
1070
     1
1070
    44
1040
1.0
1070
    74
1070
     0
1000
MTEXTEND
  0
POINT
  5
151
330
147
100
AcDbEntity
  8
DEFPOINTS
  6
Continuous
 62
     0
100
AcDbPoint
 10
174.6945413059131
 20
380.3773126292808
 30
0.0
  0
POINT
  5
152
330
147
100
AcDbEntity
  8
DEFPOINTS
  6
Continuous
 62
     0
100
AcDbPoint
 10
164.6945413059131
 20
370.3773126292808
 30
0.0
  0
POINT
  5
153
330
147
100
AcDbEntity
  8
DEFPOINTS
  6
Continuous
 62
     0
100
AcDbPoint
 10
151.8378071122188
 20
370.3773126292808
 30
0.0
  0
ENDBLK
  5
154
330
147
100
AcDbEntity
  8
0
100
AcDbBlockEnd
  0
BLOCK
  5
130
330
12F
100
AcDbEntity
  8
0
100
AcDbBlockBegin
  2
*D13
 70
     1
 10
0.0
 20
0.0
 30
0.0
  3
*D13
  1

  0
LINE
  5
131
330
12F
100
AcDbEntity
  8
UMRISS05
 62
     2
370
    -2
100
AcDbLine
 10
55.71047454664364
 20
34.2569256581221
 30
0.0
 11
55.71047454664364
 21
15.90383509708476
 31
0.0
  0
LINE
  5
132
330
12F
100
AcDbEntity
  8
UMRISS05
 62
     2
370
    -2
100
AcDbLine
 10
61.70919677058435
 20
34.2569256581221
 30
0.0
 11
61.70919677058435
 21
15.90383509708476
 31
0.0
  0
LINE
  5
133
330
12F
100
AcDbEntity
  8
UMRISS05
 62
     2
370
    -2
100
AcDbLine
 10
51.71047454664364
 20
16.90383509708476
 30
0.0
 11
47.71047454664365
 21
16.90383509708476
 31
0.0
  0
LINE
  5
134
330
12F
100
AcDbEntity
  8
UMRISS05
 62
     2
370
    -2
100
AcDbLine
 10
65.70919677058435
 20
16.90383509708476
 30
0.0
 11
77.91417630673715
 21
16.90383509708476
 31
0.0
  0
LINE
  5
135
330
12F
100
AcDbEntity
  8
UMRISS05
 62
     2
370
    -2
100
AcDbLine
 10
55.71047454664364
 20
16.90383509708476
 30
0.0
 11
61.70919677058435
 21
16.90383509708476
 31
0.0
  0
SOLID
  5
136
330
12F
100
AcDbEntity
  8
UMRISS05
 62
     2
100
AcDbTrace
 10
51.71047454664364
 20
17.57050176375143
 30
0.0
 11
51.71047454664364
 21
16.2371684304181
 31
0.0
 12
55.71047454664364
 22
16.90383509708476
 32
0.0
 13
55.71047454664364
 23
16.90383509708476
 33
0.0
  0
SOLID
  5
137
330
12F
100
AcDbEntity
  8
UMRISS05
 62
     2
100
AcDbTrace
 10
65.70919677058435
 20
17.57050176375143
 30
0.0
 11
65.70919677058435
 21
16.2371684304181
 31
0.0
 12
61.70919677058435
 22
16.90383509708476
 32
0.0
 13
61.70919677058435
 23
16.90383509708476
 33
0.0
  0
MTEXT
  5
138
330
12F
100
AcDbEntity
  8
UMRISS05
 62
     3
100
AcDbMText
 10
73.81168653866075
 20
19.69084055411068
 30
0.0
 40
3.5
 41
0.0
 71
     5
 72
     1
  1
\A1;M6
  7
ARIAL-STANDARD
 73
     1
 44
1.0
1001
ACAD
1000
MTEXTBEGIN
1070
    73
1070
     1
1070
    44
1040
1.0
1070
    74
1070
     0
1000
MTEXTEND
  0
POINT
  5
139
330
12F
100
AcDbEntity
  8
DEFPOINTS
 62
     0
100
AcDbPoint
 10
55.71047454664364
 20
34.2569256581221
 30
0.0
  0
POINT
  5
13A
330
12F
100
AcDbEntity
  8
DEFPOINTS
 62
     0
100
AcDbPoint
 10
61.70919677058435
 20
34.2569256581221
 30
0.0
  0
POINT
  5
13B
330
12F
100
AcDbEntity
  8
DEFPOINTS
 62
     0
100
AcDbPoint
 10
61.70919677058435
 20
16.90383509708476
 30
0.0
  0
ENDBLK
  5
13C
330
12F
100
AcDbEntity
  8
0
100
AcDbBlockEnd
  0
BLOCK
  5
123
330
122
100
AcDbEntity
  8
0
100
AcDbBlockBegin
  2
*D14
 70
     1
 10
0.0
 20
0.0
 30
0.0
  3
*D14
  1

  0
LINE
  5
124
330
122
100
AcDbEntity
  8
UMRISS05
 62
     2
370
    -2
100
AcDbLine
 10
167.9445413059131
 20
370.3773126292808
 30
0.0
 11
150.8378071122188
 21
370.3773126292808
 31
0.0
  0
LINE
  5
125
330
122
100
AcDbEntity
  8
UMRISS05
 62
     2
370
    -2
100
AcDbLine
 10
167.9445413059131
 20
120.3773126292808
 30
0.0
 11
150.8378071122188
 21
120.3773126292808
 31
0.0
  0
LINE
  5
126
330
122
100
AcDbEntity
  8
UMRISS05
 62
     2
370
    -2
100
AcDbLine
 10
151.8378071122188
 20
366.3773126292808
 30
0.0
 11
151.8378071122188
 21
124.3773126292808
 31
0.0
  0
SOLID
  5
127
330
122
100
AcDbEntity
  8
UMRISS05
 62
     2
100
AcDbTrace
 10
151.1711404455522
 20
366.3773126292808
 30
0.0
 11
152.5044737788855
 21
366.3773126292808
 31
0.0
 12
151.8378071122188
 22
370.3773126292808
 32
0.0
 13
151.8378071122188
 23
370.3773126292808
 33
0.0
  0
SOLID
  5
128
330
122
100
AcDbEntity
  8
UMRISS05
 62
     2
100
AcDbTrace
 10
151.1711404455521
 20
124.3773126292808
 30
0.0
 11
152.5044737788854
 21
124.3773126292808
 31
0.0
 12
151.8378071122188
 22
120.3773126292808
 32
0.0
 13
151.8378071122188
 23
120.3773126292808
 33
0.0
  0
MTEXT
  5
129
330
122
100
AcDbEntity
  8
UMRISS05
 62
     3
100
AcDbMText
 10
149.0508016551929
 20
245.3773126292809
 30
0.0
 40
3.5
 41
0.0
 71
     5
 72
     1
  1
\A1;250
  7
ARIAL-STANDARD
 11
0.0000000000000001
 21
1.0
 31
0.0
 73
     1
 44
1.0
1001
ACAD
1000
MTEXTBEGIN
1070
    73
1070
     1
1070
    44
1040
1.0
1070
    74
1070
     0
1000
MTEXTEND
  0
POINT
  5
12A
330
122
100
AcDbEntity
  8
DEFPOINTS
 62
     0
100
AcDbPoint
 10
167.9445413059131
 20
370.3773126292808
 30
0.0
  0
POINT
  5
12B
330
122
100
AcDbEntity
  8
DEFPOINTS
 62
     0
100
AcDbPoint
 10
167.9445413059131
 20
120.3773126292808
 30
0.0
  0
POINT
  5
12C
330
122
100
AcDbEntity
  8
DEFPOINTS
 62
     0
100
AcDbPoint
 10
151.8378071122188
 20
120.3773126292808
 30
0.0
  0
ENDBLK
  5
12D
330
122
100
AcDbEntity
  8
0
100
AcDbBlockEnd
  0
BLOCK
  5
97
330
96
100
AcDbEntity
  8
0
100
AcDbBlockBegin
  2
*D15
 70
     1
 10
0.0
 20
0.0
 30
0.0
  3
*D15
  1

  0
LINE
  5
98
330
96
100
AcDbEntity
  8
AVERDECKT
 62
     2
370
    -2
100
AcDbLine
 10
55.20983565861405
 20
133.3773126292805
 30
0.0
 11
55.20983565861405
 21
101.1128162720424
 31
0.0
  0
LINE
  5
99
330
96
100
AcDbEntity
  8
AVERDECKT
 62
     2
370
    -2
100
AcDbLine
 10
62.20983565861394
 20
133.3773126292805
 30
0.0
 11
62.20983565861394
 21
101.1128162720424
 31
0.0
  0
LINE
  5
9A
330
96
100
AcDbEntity
  8
AVERDECKT
 62
     2
370
    -2
100
AcDbLine
 10
51.20983565861405
 20
102.1128162720424
 30
0.0
 11
47.20983565861405
 21
102.1128162720424
 31
0.0
  0
LINE
  5
9B
330
96
100
AcDbEntity
  8
AVERDECKT
 62
     2
370
    -2
100
AcDbLine
 10
66.20983565861394
 20
102.1128162720424
 30
0.0
 11
90.04817126570813
 21
102.1128162720424
 31
0.0
  0
LINE
  5
9C
330
96
100
AcDbEntity
  8
AVERDECKT
 62
     2
370
    -2
100
AcDbLine
 10
55.20983565861405
 20
102.1128162720424
 30
0.0
 11
62.20983565861394
 21
102.1128162720424
 31
0.0
  0
SOLID
  5
9D
330
96
100
AcDbEntity
  8
AVERDECKT
 62
     2
100
AcDbTrace
 10
51.20983565861405
 20
102.7794829387091
 30
0.0
 11
51.20983565861405
 21
101.4461496053757
 31
0.0
 12
55.20983565861405
 22
102.1128162720424
 32
0.0
 13
55.20983565861405
 23
102.1128162720424
 33
0.0
  0
SOLID
  5
9E
330
96
100
AcDbEntity
  8
AVERDECKT
 62
     2
100
AcDbTrace
 10
66.20983565861394
 20
102.7794829387091
 30
0.0
 11
66.20983565861394
 21
101.4461496053757
 31
0.0
 12
62.20983565861394
 22
102.1128162720424
 32
0.0
 13
62.20983565861394
 23
102.1128162720424
 33
0.0
  0
MTEXT
  5
9F
102
{ACAD_XDICTIONARY
360
2D6
102
}
330
96
100
AcDbEntity
  8
AVERDECKT
 62
     3
100
AcDbMText
 10
81.12900346216108
 20
104.997707131524
 30
0.0
 40
3.5
 41
0.0
 71
     5
 72
     1
  1
\A1;%%c7x90\U+00B0
  7
ARIAL-STANDARD
 73
     1
 44
1.0
1001
ACAD
1000
MTEXTBEGIN
1070
    73
1070
     1
1070
    44
1040
1.0
1070
    74
1070
     0
1000
MTEXTEND
  0
POINT
  5
A0
330
96
100
AcDbEntity
  8
DEFPOINTS
 62
     0
100
AcDbPoint
 10
55.20983565861405
 20
133.3773126292805
 30
0.0
  0
POINT
  5
A1
330
96
100
AcDbEntity
  8
DEFPOINTS
 62
     0
100
AcDbPoint
 10
62.20983565861394
 20
133.3773126292805
 30
0.0
  0
POINT
  5
A2
330
96
100
AcDbEntity
  8
DEFPOINTS
 62
     0
100
AcDbPoint
 10
62.20983565861394
 20
102.1128162720424
 30
0.0
  0
ENDBLK
  5
A3
330
96
100
AcDbEntity
  8
0
100
AcDbBlockEnd
  0
BLOCK
  5
87
330
86
100
AcDbEntity
  8
0
100
AcDbBlockBegin
  2
*D16
 70
     1
 10
0.0
 20
0.0
 30
0.0
  3
*D16
  1

  0
LINE
  5
88
330
86
100
AcDbEntity
  8
AVERDECKT
 62
     2
370
    -2
100
AcDbLine
 10
55.70983565861405
 20
133.8773126292806
 30
0.0
 11
55.70983565861405
 21
112.9843472227978
 31
0.0
  0
LINE
  5
89
330
86
100
AcDbEntity
  8
AVERDECKT
 62
     2
370
    -2
100
AcDbLine
 10
61.70983565861405
 20
133.8773126292805
 30
0.0
 11
61.70983565861405
 21
112.9843472227978
 31
0.0
  0
LINE
  5
8A
330
86
100
AcDbEntity
  8
AVERDECKT
 62
     2
370
    -2
100
AcDbLine
 10
51.70983565861405
 20
113.9843472227978
 30
0.0
 11
47.70983565861405
 21
113.9843472227978
 31
0.0
  0
LINE
  5
8B
330
86
100
AcDbEntity
  8
AVERDECKT
 62
     2
370
    -2
100
AcDbLine
 10
65.70983565861405
 20
113.9843472227978
 30
0.0
 11
69.70983565861406
 21
113.9843472227978
 31
0.0
  0
LINE
  5
8C
330
86
100
AcDbEntity
  8
AVERDECKT
 62
     2
370
    -2
100
AcDbLine
 10
55.70983565861405
 20
113.9843472227978
 30
0.0
 11
61.70983565861405
 21
113.9843472227978
 31
0.0
  0
SOLID
  5
8D
330
86
100
AcDbEntity
  8
AVERDECKT
 62
     2
100
AcDbTrace
 10
51.70983565861405
 20
114.6510138894645
 30
0.0
 11
51.70983565861405
 21
113.3176805561312
 31
0.0
 12
55.70983565861405
 22
113.9843472227978
 32
0.0
 13
55.70983565861405
 23
113.9843472227978
 33
0.0
  0
SOLID
  5
8E
330
86
100
AcDbEntity
  8
AVERDECKT
 62
     2
100
AcDbTrace
 10
65.70983565861405
 20
114.6510138894645
 30
0.0
 11
65.70983565861405
 21
113.3176805561312
 31
0.0
 12
61.70983565861405
 22
113.9843472227978
 32
0.0
 13
61.70983565861405
 23
113.9843472227978
 33
0.0
  0
MTEXT
  5
8F
330
86
100
AcDbEntity
  8
AVERDECKT
 62
     3
100
AcDbMText
 10
58.70983565861405
 20
116.7713526798237
 30
0.0
 40
3.5
 41
0.0
 71
     5
 72
     1
  1
\A1;M6
  7
ARIAL-STANDARD
 73
     1
 44
1.0
1001
ACAD
1000
MTEXTBEGIN
1070
    73
1070
     1
1070
    44
1040
1.0
1070
    74
1070
     0
1000
MTEXTEND
  0
POINT
  5
90
330
86
100
AcDbEntity
  8
DEFPOINTS
 62
     0
100
AcDbPoint
 10
55.70983565861405
 20
133.8773126292806
 30
0.0
  0
POINT
  5
92
330
86
100
AcDbEntity
  8
DEFPOINTS
 62
     0
100
AcDbPoint
 10
61.70983565861405
 20
133.8773126292805
 30
0.0
  0
POINT
  5
93
330
86
100
AcDbEntity
  8
DEFPOINTS
 62
     0
100
AcDbPoint
 10
61.70983565861405
 20
113.9843472227978
 30
0.0
  0
ENDBLK
  5
94
330
86
100
AcDbEntity
  8
0
100
AcDbBlockEnd
  0
BLOCK
  5
116
330
115
100
AcDbEntity
  8
0
100
AcDbBlockBegin
  2
*D17
 70
     1
 10
0.0
 20
0.0
 30
0.0
  3
*D17
  1

  0
LINE
  5
117
330
115
100
AcDbEntity
  8
BEMASSUNG
  6
Continuous
 62
     2
370
    -2
100
AcDbLine
 10
29.20983565861434
 20
110.3773126292808
 30
0.0
 11
29.20983565861434
 21
79.89314973955925
 31
0.0
  0
LINE
  5
118
330
115
100
AcDbEntity
  8
BEMASSUNG
  6
Continuous
 62
     2
370
    -2
100
AcDbLine
 10
65.70983565861394
 20
133.3773126292805
 30
0.0
 11
65.70983565861394
 21
79.89314973955925
 31
0.0
  0
LINE
  5
119
330
115
100
AcDbEntity
  8
BEMASSUNG
  6
Continuous
 62
     2
370
    -2
100
AcDbLine
 10
33.20983565861434
 20
80.89314973955925
 30
0.0
 11
61.70983565861394
 21
80.89314973955925
 31
0.0
  0
SOLID
  5
11A
330
115
100
AcDbEntity
  8
BEMASSUNG
  6
Continuous
 62
     2
100
AcDbTrace
 10
33.20983565861434
 20
81.55981640622592
 30
0.0
 11
33.20983565861434
 21
80.22648307289257
 31
0.0
 12
29.20983565861434
 22
80.89314973955925
 32
0.0
 13
29.20983565861434
 23
80.89314973955925
 33
0.0
  0
SOLID
  5
11B
330
115
100
AcDbEntity
  8
BEMASSUNG
  6
Continuous
 62
     2
100
AcDbTrace
 10
61.70983565861394
 20
81.55981640622592
 30
0.0
 11
61.70983565861394
 21
80.22648307289257
 31
0.0
 12
65.70983565861394
 22
80.89314973955925
 32
0.0
 13
65.70983565861394
 23
80.89314973955925
 33
0.0
  0
MTEXT
  5
11C
330
115
100
AcDbEntity
  8
BEMASSUNG
  6
Continuous
 62
     3
100
AcDbMText
 10
47.45983565861414
 20
83.68134892100536
 30
0.0
 40
3.5
 41
0.0
 71
     5
 72
     1
  1
\A1;36.5
  7
ARIAL-STANDARD
 73
     1
 44
1.0
1001
ACAD
1000
MTEXTBEGIN
1070
    73
1070
     1
1070
    44
1040
1.0
1070
    74
1070
     0
1000
MTEXTEND
  0
POINT
  5
11D
330
115
100
AcDbEntity
  8
DEFPOINTS
  6
Continuous
 62
     0
100
AcDbPoint
 10
29.20983565861434
 20
110.3773126292808
 30
0.0
  0
POINT
  5
11E
330
115
100
AcDbEntity
  8
DEFPOINTS
  6
Continuous
 62
     0
100
AcDbPoint
 10
65.70983565861394
 20
133.3773126292805
 30
0.0
  0
POINT
  5
11F
330
115
100
AcDbEntity
  8
DEFPOINTS
  6
Continuous
 62
     0
100
AcDbPoint
 10
65.70983565861394
 20
80.89314973955925
 30
0.0
  0
ENDBLK
  5
120
330
115
100
AcDbEntity
  8
0
100
AcDbBlockEnd
  0
BLOCK
  5
FF
330
FE
100
AcDbEntity
  8
0
100
AcDbBlockBegin
  2
*D18
 70
     1
 10
0.0
 20
0.0
 30
0.0
  3
*D18
  1

  0
LINE
  5
100
330
FE
100
AcDbEntity
  8
BEMASSUNG
  6
Continuous
 62
     2
370
    -2
100
AcDbLine
 10
68.70983565861411
 20
185.3773126292806
 30
0.0
 11
84.08904864878277
 21
185.3773126292806
 31
0.0
  0
LINE
  5
101
330
FE
100
AcDbEntity
  8
BEMASSUNG
  6
Continuous
 62
     2
370
    -2
100
AcDbLine
 10
65.709835658614
 20
147.3773126292805
 30
0.0
 11
84.08904864878275
 21
147.3773126292805
 31
0.0
  0
LINE
  5
102
330
FE
100
AcDbEntity
  8
BEMASSUNG
  6
Continuous
 62
     2
370
    -2
100
AcDbLine
 10
83.08904864878277
 20
181.3773126292806
 30
0.0
 11
83.08904864878275
 21
151.3773126292805
 31
0.0
  0
SOLID
  5
103
330
FE
100
AcDbEntity
  8
BEMASSUNG
  6
Continuous
 62
     2
100
AcDbTrace
 10
82.42238198211609
 20
181.3773126292806
 30
0.0
 11
83.75571531544943
 21
181.3773126292806
 31
0.0
 12
83.08904864878277
 22
185.3773126292806
 32
0.0
 13
83.08904864878277
 23
185.3773126292806
 33
0.0
  0
SOLID
  5
104
330
FE
100
AcDbEntity
  8
BEMASSUNG
  6
Continuous
 62
     2
100
AcDbTrace
 10
82.42238198211607
 20
151.3773126292805
 30
0.0
 11
83.75571531544942
 21
151.3773126292805
 31
0.0
 12
83.08904864878275
 22
147.3773126292805
 32
0.0
 13
83.08904864878275
 23
147.3773126292805
 33
0.0
  0
MTEXT
  5
105
330
FE
100
AcDbEntity
  8
BEMASSUNG
  6
Continuous
 62
     3
100
AcDbMText
 10
80.30084946733662
 20
166.3773126292806
 30
0.0
 40
3.5
 41
0.0
 71
     5
 72
     1
  1
\A1;38
  7
ARIAL-STANDARD
 11
0.0000000000000001
 21
1.0
 31
0.0
 73
     1
 44
1.0
1001
ACAD
1000
MTEXTBEGIN
1070
    73
1070
     1
1070
    44
1040
1.0
1070
    74
1070
     0
1000
MTEXTEND
  0
POINT
  5
106
330
FE
100
AcDbEntity
  8
DEFPOINTS
  6
Continuous
 62
     0
100
AcDbPoint
 10
68.70983565861411
 20
185.3773126292806
 30
0.0
  0
POINT
  5
107
330
FE
100
AcDbEntity
  8
DEFPOINTS
  6
Continuous
 62
     0
100
AcDbPoint
 10
65.709835658614
 20
147.3773126292805
 30
0.0
  0
POINT
  5
108
330
FE
100
AcDbEntity
  8
DEFPOINTS
  6
Continuous
 62
     0
100
AcDbPoint
 10
83.08904864878275
 20
147.3773126292805
 30
0.0
  0
ENDBLK
  5
109
330
FE
100
AcDbEntity
  8
0
100
AcDbBlockEnd
  0
BLOCK
  5
E9
330
E8
100
AcDbEntity
  8
0
100
AcDbBlockBegin
  2
*D19
 70
     1
 10
0.0
 20
0.0
 30
0.0
  3
*D19
  1

  0
LINE
  5
EA
330
E8
100
AcDbEntity
  8
BEMASSUNG
  6
Continuous
 62
     2
370
    -2
100
AcDbLine
 10
65.709835658614
 20
147.3773126292805
 30
0.0
 11
84.08904864878275
 21
147.3773126292805
 31
0.0
  0
LINE
  5
EB
330
E8
100
AcDbEntity
  8
BEMASSUNG
  6
Continuous
 62
     2
370
    -2
100
AcDbLine
 10
65.709835658614
 20
133.3773126292805
 30
0.0
 11
84.08904864878275
 21
133.3773126292805
 31
0.0
  0
LINE
  5
EC
330
E8
100
AcDbEntity
  8
BEMASSUNG
  6
Continuous
 62
     2
370
    -2
100
AcDbLine
 10
83.08904864878275
 20
143.3773126292805
 30
0.0
 11
83.08904864878275
 21
137.3773126292805
 31
0.0
  0
SOLID
  5
ED
330
E8
100
AcDbEntity
  8
BEMASSUNG
  6
Continuous
 62
     2
100
AcDbTrace
 10
82.42238198211607
 20
143.3773126292805
 30
0.0
 11
83.75571531544942
 21
143.3773126292805
 31
0.0
 12
83.08904864878275
 22
147.3773126292805
 32
0.0
 13
83.08904864878275
 23
147.3773126292805
 33
0.0
  0
SOLID
  5
EE
330
E8
100
AcDbEntity
  8
BEMASSUNG
  6
Continuous
 62
     2
100
AcDbTrace
 10
82.42238198211607
 20
137.3773126292805
 30
0.0
 11
83.75571531544942
 21
137.3773126292805
 31
0.0
 12
83.08904864878275
 22
133.3773126292805
 32
0.0
 13
83.08904864878275
 23
133.3773126292805
 33
0.0
  0
MTEXT
  5
EF
330
E8
100
AcDbEntity
  8
BEMASSUNG
  6
Continuous
 62
     3
100
AcDbMText
 10
80.3318863022616
 20
140.3773126292805
 30
0.0
 40
3.5
 41
0.0
 71
     5
 72
     1
  1
\A1;14
  7
ARIAL-STANDARD
 11
0.0000000000000001
 21
1.0
 31
0.0
 73
     1
 44
1.0
1001
ACAD
1000
MTEXTBEGIN
1070
    73
1070
     1
1070
    44
1040
1.0
1070
    74
1070
     0
1000
MTEXTEND
  0
POINT
  5
F0
330
E8
100
AcDbEntity
  8
DEFPOINTS
  6
Continuous
 62
     0
100
AcDbPoint
 10
65.709835658614
 20
147.3773126292805
 30
0.0
  0
POINT
  5
F1
330
E8
100
AcDbEntity
  8
DEFPOINTS
  6
Continuous
 62
     0
100
AcDbPoint
 10
65.709835658614
 20
133.3773126292805
 30
0.0
  0
POINT
  5
F2
330
E8
100
AcDbEntity
  8
DEFPOINTS
  6
Continuous
 62
     0
100
AcDbPoint
 10
83.08904864878275
 20
133.3773126292805
 30
0.0
  0
ENDBLK
  5
F3
330
E8
100
AcDbEntity
  8
0
100
AcDbBlockEnd
  0
BLOCK
  5
D7
330
D6
100
AcDbEntity
  8
0
100
AcDbBlockBegin
  2
*D20
 70
     1
 10
0.0
 20
0.0
 30
0.0
  3
*D20
  1

  0
LINE
  5
D8
330
D6
100
AcDbEntity
  8
BEMASSUNG
  6
Continuous
 62
     2
370
    -2
100
AcDbLine
 10
68.70983565861433
 20
305.3773126292809
 30
0.0
 11
84.08904864878275
 21
305.3773126292809
 31
0.0
  0
LINE
  5
D9
330
D6
100
AcDbEntity
  8
BEMASSUNG
  6
Continuous
 62
     2
370
    -2
100
AcDbLine
 10
65.709835658614
 20
343.3773126292808
 30
0.0
 11
84.08904864878275
 21
343.3773126292808
 31
0.0
  0
LINE
  5
DA
330
D6
100
AcDbEntity
  8
BEMASSUNG
  6
Continuous
 62
     2
370
    -2
100
AcDbLine
 10
83.08904864878275
 20
309.3773126292809
 30
0.0
 11
83.08904864878275
 21
339.3773126292808
 31
0.0
  0
SOLID
  5
DB
330
D6
100
AcDbEntity
  8
BEMASSUNG
  6
Continuous
 62
     2
100
AcDbTrace
 10
82.42238198211607
 20
309.3773126292809
 30
0.0
 11
83.75571531544942
 21
309.3773126292809
 31
0.0
 12
83.08904864878275
 22
305.3773126292809
 32
0.0
 13
83.08904864878275
 23
305.3773126292809
 33
0.0
  0
SOLID
  5
DC
330
D6
100
AcDbEntity
  8
BEMASSUNG
  6
Continuous
 62
     2
100
AcDbTrace
 10
82.42238198211607
 20
339.3773126292808
 30
0.0
 11
83.75571531544942
 21
339.3773126292808
 31
0.0
 12
83.08904864878275
 22
343.3773126292808
 32
0.0
 13
83.08904864878275
 23
343.3773126292808
 33
0.0
  0
MTEXT
  5
DD
330
D6
100
AcDbEntity
  8
BEMASSUNG
  6
Continuous
 62
     3
100
AcDbMText
 10
80.30084946733657
 20
324.3773126292808
 30
0.0
 40
3.5
 41
0.0
 71
     5
 72
     1
  1
\A1;38
  7
ARIAL-STANDARD
 11
0.0000000000000001
 21
1.0
 31
0.0
 73
     1
 44
1.0
1001
ACAD
1000
MTEXTBEGIN
1070
    73
1070
     1
1070
    44
1040
1.0
1070
    74
1070
     0
1000
MTEXTEND
  0
POINT
  5
DE
330
D6
100
AcDbEntity
  8
DEFPOINTS
  6
Continuous
 62
     0
100
AcDbPoint
 10
68.70983565861433
 20
305.3773126292809
 30
0.0
  0
POINT
  5
DF
330
D6
100
AcDbEntity
  8
DEFPOINTS
  6
Continuous
 62
     0
100
AcDbPoint
 10
65.709835658614
 20
343.3773126292808
 30
0.0
  0
POINT
  5
E0
330
D6
100
AcDbEntity
  8
DEFPOINTS
  6
Continuous
 62
     0
100
AcDbPoint
 10
83.08904864878275
 20
343.3773126292808
 30
0.0
  0
ENDBLK
  5
E1
330
D6
100
AcDbEntity
  8
0
100
AcDbBlockEnd
  0
BLOCK
  5
C5
330
C4
100
AcDbEntity
  8
0
100
AcDbBlockBegin
  2
*D21
 70
     1
 10
0.0
 20
0.0
 30
0.0
  3
*D21
  1

  0
LINE
  5
C6
330
C4
100
AcDbEntity
  8
BEMASSUNG
  6
Continuous
 62
     2
370
    -2
100
AcDbLine
 10
65.709835658614
 20
343.3773126292808
 30
0.0
 11
84.08904864878273
 21
343.3773126292808
 31
0.0
  0
LINE
  5
C7
330
C4
100
AcDbEntity
  8
BEMASSUNG
  6
Continuous
 62
     2
370
    -2
100
AcDbLine
 10
65.709835658614
 20
357.3773126292808
 30
0.0
 11
84.08904864878275
 21
357.3773126292808
 31
0.0
  0
LINE
  5
C8
330
C4
100
AcDbEntity
  8
BEMASSUNG
  6
Continuous
 62
     2
370
    -2
100
AcDbLine
 10
83.08904864878273
 20
347.3773126292808
 30
0.0
 11
83.08904864878275
 21
353.3773126292808
 31
0.0
  0
SOLID
  5
C9
330
C4
100
AcDbEntity
  8
BEMASSUNG
  6
Continuous
 62
     2
100
AcDbTrace
 10
82.42238198211607
 20
347.3773126292808
 30
0.0
 11
83.7557153154494
 21
347.3773126292808
 31
0.0
 12
83.08904864878273
 22
343.3773126292808
 32
0.0
 13
83.08904864878273
 23
343.3773126292808
 33
0.0
  0
SOLID
  5
CA
330
C4
100
AcDbEntity
  8
BEMASSUNG
  6
Continuous
 62
     2
100
AcDbTrace
 10
82.42238198211607
 20
353.3773126292808
 30
0.0
 11
83.75571531544942
 21
353.3773126292808
 31
0.0
 12
83.08904864878275
 22
357.3773126292808
 32
0.0
 13
83.08904864878275
 23
357.3773126292808
 33
0.0
  0
MTEXT
  5
CB
330
C4
100
AcDbEntity
  8
BEMASSUNG
  6
Continuous
 62
     3
100
AcDbMText
 10
80.33188630226154
 20
350.3773126292808
 30
0.0
 40
3.5
 41
0.0
 71
     5
 72
     1
  1
\A1;14
  7
ARIAL-STANDARD
 11
0.0000000000000001
 21
1.0
 31
0.0
 73
     1
 44
1.0
1001
ACAD
1000
MTEXTBEGIN
1070
    73
1070
     1
1070
    44
1040
1.0
1070
    74
1070
     0
1000
MTEXTEND
  0
POINT
  5
CC
330
C4
100
AcDbEntity
  8
DEFPOINTS
  6
Continuous
 62
     0
100
AcDbPoint
 10
65.709835658614
 20
343.3773126292808
 30
0.0
  0
POINT
  5
CD
330
C4
100
AcDbEntity
  8
DEFPOINTS
  6
Continuous
 62
     0
100
AcDbPoint
 10
65.709835658614
 20
357.3773126292808
 30
0.0
  0
POINT
  5
CE
330
C4
100
AcDbEntity
  8
DEFPOINTS
  6
Continuous
 62
     0
100
AcDbPoint
 10
83.08904864878275
 20
357.3773126292808
 30
0.0
  0
ENDBLK
  5
CF
330
C4
100
AcDbEntity
  8
0
100
AcDbBlockEnd
  0
BLOCK
  5
28B
330
28A
100
AcDbEntity
  8
0
100
AcDbBlockBegin
  2
_ACMFILLEDHALF
 70
     0
 10
0.0
 20
0.0
 30
0.0
  3
_ACMFILLEDHALF
  1

  0
TRACE
  5
28C
330
28A
100
AcDbEntity
  8
AVERDECKT
 62
     0
100
AcDbTrace
 10
-0.8
 20
0.0
 30
0.0
 11
-1.0
 21
0.166666666
 31
0.0
 12
0.0
 22
0.0
 32
0.0
 13
0.0
 23
0.0
 33
0.0
  0
LINE
  5
28D
330
28A
100
AcDbEntity
  8
AVERDECKT
 62
     0
100
AcDbLine
 10
-1.0
 20
0.0
 30
0.0
 11
-0.8
 21
0.0
 31
0.0
  0
ENDBLK
  5
28E
330
28A
100
AcDbEntity
  8
0
100
AcDbBlockEnd
  0
ENDSEC
  0
SECTION
  2
ENTITIES
  0
LINE
  5
78
330
2
100
AcDbEntity
  8
AVERDECKT
100
AcDbLine
 10
61.70983565861405
 20
348.3773126292809
 30
0.0
 11
61.10983565861403
 21
347.3380821447396
 31
0.0
  0
LINE
  5
79
330
2
100
AcDbEntity
  8
AVERDECKT
100
AcDbLine
 10
55.70983565861405
 20
348.3773126292809
 30
0.0
 11
56.30983565861402
 21
347.3380821447396
 31
0.0
  0
LINE
  5
7A
330
2
100
AcDbEntity
  8
AVERDECKT
100
AcDbLine
 10
61.10983565861403
 20
344.3773126292809
 30
0.0
 11
58.70983565861405
 21
342.9916719832259
 31
0.0
  0
LINE
  5
7B
330
2
100
AcDbEntity
  8
AVERDECKT
100
AcDbLine
 10
56.30983565861402
 20
344.3773126292809
 30
0.0
 11
58.709835658614
 21
342.9916719832259
 31
0.0
  0
LINE
  5
7C
330
2
100
AcDbEntity
  8
AVERDECKT
100
AcDbLine
 10
55.70983565861405
 20
356.8773126292809
 30
0.0
 11
61.70983565861405
 21
356.8773126292809
 31
0.0
  0
LINE
  5
7D
330
2
100
AcDbEntity
  8
AVERDECKT
100
AcDbLine
 10
62.20983565861388
 20
357.3773126292808
 30
0.0
 11
61.709835658614
 21
356.8773126292809
 31
0.0
  0
LINE
  5
7E
330
2
100
AcDbEntity
  8
AVERDECKT
100
AcDbLine
 10
55.20983565861411
 20
357.3773126292808
 30
0.0
 11
55.70983565861405
 21
356.8773126292809
 31
0.0
  0
LINE
  5
7F
330
2
100
AcDbEntity
  8
AVERDECKT
100
AcDbLine
 10
56.30983565861402
 20
344.3773126292809
 30
0.0
 11
56.30983565861402
 21
356.8773126292809
 31
0.0
  0
LINE
  5
80
330
2
100
AcDbEntity
  8
AVERDECKT
100
AcDbLine
 10
55.70983565861405
 20
348.3773126292809
 30
0.0
 11
55.70983565861405
 21
356.8773126292809
 31
0.0
  0
LINE
  5
81
330
2
100
AcDbEntity
  8
AVERDECKT
100
AcDbLine
 10
61.10983565861403
 20
344.3773126292809
 30
0.0
 11
61.10983565861403
 21
356.8773126292809
 31
0.0
  0
LINE
  5
82
330
2
100
AcDbEntity
  8
AVERDECKT
100
AcDbLine
 10
61.70983565861405
 20
348.3773126292809
 30
0.0
 11
61.70983565861405
 21
356.8773126292809
 31
0.0
  0
LINE
  5
83
330
2
100
AcDbEntity
  8
AVERDECKT
100
AcDbLine
 10
56.30983565861402
 20
344.3773126292809
 30
0.0
 11
61.10983565861403
 21
344.3773126292809
 31
0.0
  0
LINE
  5
84
330
2
100
AcDbEntity
  8
AVERDECKT
100
AcDbLine
 10
55.70983565861405
 20
348.3773126292809
 30
0.0
 11
61.70983565861405
 21
348.3773126292809
 31
0.0
  0
DIMENSION
  5
85
330
2
100
AcDbEntity
  8
AVERDECKT
100
AcDbDimension
  2
*D16
 10
61.70983565861405
 20
113.9843472227978
 30
0.0
 11
58.70983565861405
 21
116.7713526798237
 31
0.0
  1
M<>
 71
     5
 42
6.0
  3
Katalog 09
100
AcDbAlignedDimension
 13
55.70983565861405
 23
133.8773126292806
 33
0.0
 14
61.70983565861405
 24
133.8773126292805
 34
0.0
100
AcDbRotatedDimension
  0
DIMENSION
  5
95
330
2
100
AcDbEntity
  8
AVERDECKT
100
AcDbDimension
  2
*D15
 10
62.20983565861394
 20
102.1128162720424
 30
0.0
 11
81.12900346216108
 21
102.1128162720424
 31
0.0
 70
   128
  1
%%c<>x90°
 71
     5
 42
6.999999999999886
  3
Katalog 09
100
AcDbAlignedDimension
 13
55.20983565861405
 23
133.3773126292805
 33
0.0
 14
62.20983565861394
 24
133.3773126292805
 34
0.0
100
AcDbRotatedDimension
  0
LINE
  5
A4
330
2
100
AcDbEntity
  8
AVERDECKT
100
AcDbLine
 10
61.70983565861405
 20
142.3773126292805
 30
0.0
 11
61.10983565861403
 21
143.4165431138218
 31
0.0
  0
LINE
  5
A5
330
2
100
AcDbEntity
  8
AVERDECKT
100
AcDbLine
 10
55.70983565861405
 20
142.3773126292805
 30
0.0
 11
56.30983565861402
 21
143.4165431138219
 31
0.0
  0
LINE
  5
A6
330
2
100
AcDbEntity
  8
AVERDECKT
100
AcDbLine
 10
61.10983565861403
 20
146.3773126292806
 30
0.0
 11
58.70983565861405
 21
147.7629532753356
 31
0.0
  0
LINE
  5
A7
330
2
100
AcDbEntity
  8
AVERDECKT
100
AcDbLine
 10
56.30983565861402
 20
146.3773126292806
 30
0.0
 11
58.709835658614
 21
147.7629532753356
 31
0.0
  0
LINE
  5
A8
330
2
100
AcDbEntity
  8
AVERDECKT
100
AcDbLine
 10
55.70983565861405
 20
133.8773126292806
 30
0.0
 11
61.70983565861405
 21
133.8773126292805
 31
0.0
  0
LINE
  5
A9
330
2
100
AcDbEntity
  8
AVERDECKT
100
AcDbLine
 10
62.20983565861394
 20
133.3773126292805
 30
0.0
 11
61.709835658614
 21
133.8773126292805
 31
0.0
  0
LINE
  5
AA
330
2
100
AcDbEntity
  8
AVERDECKT
100
AcDbLine
 10
55.20983565861405
 20
133.3773126292806
 30
0.0
 11
55.70983565861405
 21
133.8773126292806
 31
0.0
  0
LINE
  5
AB
330
2
100
AcDbEntity
  8
AVERDECKT
100
AcDbLine
 10
56.30983565861402
 20
146.3773126292806
 30
0.0
 11
56.30983565861402
 21
133.8773126292806
 31
0.0
  0
LINE
  5
AC
330
2
100
AcDbEntity
  8
AVERDECKT
100
AcDbLine
 10
55.70983565861405
 20
142.3773126292805
 30
0.0
 11
55.70983565861405
 21
133.8773126292806
 31
0.0
  0
LINE
  5
AD
330
2
100
AcDbEntity
  8
AVERDECKT
100
AcDbLine
 10
61.10983565861403
 20
146.3773126292806
 30
0.0
 11
61.10983565861403
 21
133.8773126292805
 31
0.0
  0
LINE
  5
AE
330
2
100
AcDbEntity
  8
AVERDECKT
100
AcDbLine
 10
61.70983565861405
 20
142.3773126292805
 30
0.0
 11
61.70983565861405
 21
133.8773126292805
 31
0.0
  0
LINE
  5
AF
330
2
100
AcDbEntity
  8
ACHSEN
100
AcDbLine
 10
58.70983565861405
 20
141.3773126292805
 30
0.0
 11
58.70983565861405
 21
120.3773126292806
 31
0.0
  0
LINE
  5
B4
330
2
100
AcDbEntity
  8
ACHSEN
100
AcDbLine
 10
51.709835658614
 20
357.3773126292808
 30
0.0
 11
65.70983565861394
 21
357.3773126292808
 31
0.0
  0
LINE
  5
B5
330
2
100
AcDbEntity
  8
UMRISS05
100
AcDbLine
 10
51.709835658614
 20
317.3773126292809
 30
0.0
 11
51.70983565861405
 21
343.3773126292808
 31
0.0
  0
LWPOLYLINE
  5
B9
330
2
100
AcDbEntity
  8
ACHSEN
100
AcDbPolyline
 90
        3
 70
     0
 43
0.0
 10
64.60983565861425
 20
318.3773126292796
 42
0.4142135623732172
 10
61.60983565861426
 20
321.3773126292808
 10
51.709835658614
 20
321.3773126292808
  0
LINE
  5
BA
330
2
100
AcDbEntity
  8
UMRISS05
100
AcDbLine
 10
51.70983565861405
 20
343.3773126292808
 30
0.0
 11
65.709835658614
 21
343.3773126292808
 31
0.0
  0
LINE
  5
BB
330
2
100
AcDbEntity
  8
UMRISS05
100
AcDbLine
 10
62.96148220285937
 20
328.3773126292808
 30
0.0
 11
65.709835658614
 21
328.3773126292808
 31
0.0
  0
LINE
  5
BC
330
2
100
AcDbEntity
  8
UMRISS05
100
AcDbLine
 10
62.96148220285926
 20
317.3773126292808
 30
0.0
 11
65.709835658614
 21
317.3773126292808
 31
0.0
  0
LWPOLYLINE
  5
BD
330
2
100
AcDbEntity
  8
ACHSEN
100
AcDbPolyline
 90
        6
 70
     0
 43
0.0
 10
51.709835658614
 20
331.3773126292808
 10
62.96148220285926
 20
331.3773126292808
 42
0.2997006283190854
 10
62.96148220285937
 20
342.3773126292808
 10
44.70983565861422
 20
342.3773126292808
 42
0.4142135623730951
 10
41.709835658614
 20
339.3773126292808
 10
41.709835658614
 20
325.3773126292814
  0
LINE
  5
BE
330
2
100
AcDbEntity
  8
ACHSEN
100
AcDbLine
 10
62.96148220285937
 20
342.3773126292808
 30
0.0
 11
65.709835658614
 21
342.3773126292808
 31
0.0
  0
LINE
  5
BF
330
2
100
AcDbEntity
  8
ACHSEN
100
AcDbLine
 10
62.96148220285926
 20
331.3773126292808
 30
0.0
 11
65.70983565861388
 21
331.3773126292808
 31
0.0
  0
DIMENSION
  5
C0
330
2
100
AcDbEntity
  8
BEMASSUNG
  6
Continuous
100
AcDbDimension
  2
*D21
 10
83.08904864878275
 20
357.3773126292808
 30
0.0
 11
80.33188630226154
 21
350.3773126292808
 31
0.0
 71
     5
 42
14.0
  3
Katalog 09
100
AcDbAlignedDimension
 13
65.709835658614
 23
343.3773126292808
 33
0.0
 14
65.709835658614
 24
357.3773126292808
 34
0.0
 50
90.0
100
AcDbRotatedDimension
  0
LINE
  5
D0
330
2
100
AcDbEntity
  8
ACHSEN
100
AcDbLine
 10
51.70983565861405
 20
343.3773126292808
 30
0.0
 11
51.709835658614
 21
357.3773126292808
 31
0.0
  0
LINE
  5
D1
330
2
100
AcDbEntity
  8
ACHSEN
100
AcDbLine
 10
65.70983565861394
 20
357.3773126292808
 30
0.0
 11
65.709835658614
 21
343.3773126292808
 31
0.0
  0
LINE
  5
D2
330
2
100
AcDbEntity
  8
UMRISS05
100
AcDbLine
 10
61.60983565861363
 20
307.3094363888468
 30
0.0
 11
65.709835658614
 21
307.3094363888468
 31
0.0
  0
LWPOLYLINE
  5
D3
330
2
100
AcDbEntity
  8
UMRISS05
100
AcDbPolyline
 90
        9
 70
     0
 43
0.0
 10
64.41334066754797
 20
305.3773126292808
 42
0.311215399799477
 10
61.60983565861426
 20
307.3094363888468
 10
51.709835658614
 20
307.3094363888468
 10
51.709835658614
 20
317.3773126292809
 10
62.96148220285926
 20
317.3773126292808
 42
0.2997006283190854
 10
62.96148220285937
 20
328.3773126292808
 10
44.70983565861422
 20
328.3773126292808
 42
0.4142135623730951
 10
41.709835658614
 20
325.3773126292808
 10
41.70983565861405
 20
305.3773126292808
  0
LINE
  5
D4
330
2
100
AcDbEntity
  8
ACHSEN
100
AcDbLine
 10
64.60983565861425
 20
318.3773126292809
 30
0.0
 11
64.60983565861425
 21
305.3773126292808
 31
0.0
  0
DIMENSION
  5
D5
330
2
100
AcDbEntity
  8
BEMASSUNG
  6
Continuous
100
AcDbDimension
  2
*D20
 10
83.08904864878275
 20
343.3773126292808
 30
0.0
 11
80.30084946733657
 21
324.3773126292808
 31
0.0
 71
     5
 42
37.99999999999994
  3
Katalog 09
100
AcDbAlignedDimension
 13
68.70983565861433
 23
305.3773126292809
 33
0.0
 14
65.709835658614
 24
343.3773126292808
 34
0.0
 50
90.0
100
AcDbRotatedDimension
  0
LINE
  5
E2
330
2
100
AcDbEntity
  8
UMRISS05
100
AcDbLine
 10
65.709835658614
 20
307.3094363888468
 30
0.0
 11
65.709835658614
 21
343.3773126292808
 31
0.0
  0
LINE
  5
E3
330
2
100
AcDbEntity
  8
ACHSEN
100
AcDbLine
 10
64.60983565861425
 20
172.3773126292805
 30
0.0
 11
64.60983565861425
 21
185.3773126292806
 31
0.0
  0
LWPOLYLINE
  5
E4
330
2
100
AcDbEntity
  8
ACHSEN
100
AcDbPolyline
 90
        3
 70
     0
 43
0.0
 10
64.60983565861425
 20
172.3773126292818
 42
-0.4142135623732172
 10
61.60983565861426
 20
169.3773126292805
 10
51.709835658614
 20
169.3773126292805
  0
LINE
  5
E5
330
2
100
AcDbEntity
  8
UMRISS05
100
AcDbLine
 10
62.96148220285926
 20
173.3773126292806
 30
0.0
 11
65.709835658614
 21
173.3773126292806
 31
0.0
  0
LINE
  5
E6
330
2
100
AcDbEntity
  8
ACHSEN
100
AcDbLine
 10
65.70983565861394
 20
133.3773126292805
 30
0.0
 11
65.709835658614
 21
147.3773126292805
 31
0.0
  0
DIMENSION
  5
E7
330
2
100
AcDbEntity
  8
BEMASSUNG
  6
Continuous
100
AcDbDimension
  2
*D19
 10
83.08904864878275
 20
133.3773126292805
 30
0.0
 11
80.3318863022616
 21
140.3773126292805
 31
0.0
 71
     5
 42
14.0
  3
Katalog 09
100
AcDbAlignedDimension
 13
65.709835658614
 23
147.3773126292805
 33
0.0
 14
65.709835658614
 24
133.3773126292805
 34
0.0
 50
90.0
100
AcDbRotatedDimension
  0
LINE
  5
F4
330
2
100
AcDbEntity
  8
ACHSEN
100
AcDbLine
 10
51.70983565861405
 20
147.3773126292806
 30
0.0
 11
51.709835658614
 21
133.3773126292806
 31
0.0
  0
LWPOLYLINE
  5
F5
330
2
100
AcDbEntity
  8
ACHSEN
100
AcDbPolyline
 90
        6
 70
     0
 43
0.0
 10
51.709835658614
 20
159.3773126292805
 10
62.96148220285926
 20
159.3773126292806
 42
-0.2997006283190854
 10
62.96148220285937
 20
148.3773126292805
 10
44.70983565861422
 20
148.3773126292805
 42
-0.4142135623730951
 10
41.709835658614
 20
151.3773126292805
 10
41.709835658614
 20
165.37731262928
  0
LINE
  5
F6
330
2
100
AcDbEntity
  8
ACHSEN
100
AcDbLine
 10
62.96148220285926
 20
159.3773126292806
 30
0.0
 11
65.70983565861388
 21
159.3773126292806
 31
0.0
  0
LINE
  5
F7
330
2
100
AcDbEntity
  8
UMRISS05
100
AcDbLine
 10
62.96148220285937
 20
162.3773126292805
 30
0.0
 11
65.709835658614
 21
162.3773126292805
 31
0.0
  0
LINE
  5
F8
330
2
100
AcDbEntity
  8
ACHSEN
100
AcDbLine
 10
62.96148220285937
 20
148.3773126292805
 30
0.0
 11
65.709835658614
 21
148.3773126292805
 31
0.0
  0
LINE
  5
F9
330
2
100
AcDbEntity
  8
UMRISS05
100
AcDbLine
 10
51.70983565861405
 20
147.3773126292806
 30
0.0
 11
65.709835658614
 21
147.3773126292805
 31
0.0
  0
LINE
  5
FA
330
2
100
AcDbEntity
  8
AVERDECKT
100
AcDbLine
 10
56.30983565861402
 20
146.3773126292805
 30
0.0
 11
61.10983565861403
 21
146.3773126292805
 31
0.0
  0
LINE
  5
FB
330
2
100
AcDbEntity
  8
AVERDECKT
100
AcDbLine
 10
55.70983565861405
 20
142.3773126292805
 30
0.0
 11
61.70983565861405
 21
142.3773126292805
 31
0.0
  0
LINE
  5
FC
330
2
100
AcDbEntity
  8
ACHSEN
100
AcDbLine
 10
51.709835658614
 20
133.3773126292806
 30
0.0
 11
65.70983565861394
 21
133.3773126292805
 31
0.0
  0
DIMENSION
  5
FD
330
2
100
AcDbEntity
  8
BEMASSUNG
  6
Continuous
100
AcDbDimension
  2
*D18
 10
83.08904864878275
 20
147.3773126292805
 30
0.0
 11
80.30084946733662
 21
166.3773126292806
 31
0.0
 71
     5
 42
38.00000000000006
  3
Katalog 09
100
AcDbAlignedDimension
 13
68.70983565861411
 23
185.3773126292806
 33
0.0
 14
65.709835658614
 24
147.3773126292805
 34
0.0
 50
90.0
100
AcDbRotatedDimension
  0
LINE
  5
10A
330
2
100
AcDbEntity
  8
UMRISS05
100
AcDbLine
 10
65.709835658614
 20
183.4451888697147
 30
0.0
 11
65.709835658614
 21
147.3773126292805
 31
0.0
  0
LINE
  5
10B
330
2
100
AcDbEntity
  8
UMRISS05
100
AcDbLine
 10
41.709835658614
 20
165.3773126292805
 30
0.0
 11
41.70983565861405
 21
185.3773126292806
 31
0.0
  0
ARC
  5
10C
330
2
100
AcDbEntity
  8
UMRISS05
100
AcDbCircle
 10
44.70983565861411
 20
165.3773126292806
 30
0.0
 40
3.000000000000113
100
AcDbArc
 50
180.0000000000021
 51
270.0000000000021
  0
LINE
  5
10D
330
2
100
AcDbEntity
  8
UMRISS05
100
AcDbLine
 10
62.96148220285937
 20
162.3773126292805
 30
0.0
 11
44.70983565861422
 21
162.3773126292805
 31
0.0
  0
ARC
  5
10E
330
2
100
AcDbEntity
  8
UMRISS05
100
AcDbCircle
 10
54.60983565861425
 20
167.8773126292805
 30
0.0
 40
10.00000000000003
100
AcDbArc
 50
326.6329870307687
 51
33.3670129692324
  0
LINE
  5
10F
330
2
100
AcDbEntity
  8
UMRISS05
100
AcDbLine
 10
51.709835658614
 20
173.3773126292805
 30
0.0
 11
62.96148220285926
 21
173.3773126292806
 31
0.0
  0
LINE
  5
110
330
2
100
AcDbEntity
  8
UMRISS05
100
AcDbLine
 10
51.709835658614
 20
183.4451888697147
 30
0.0
 11
51.709835658614
 21
173.3773126292805
 31
0.0
  0
LINE
  5
111
330
2
100
AcDbEntity
  8
UMRISS05
100
AcDbLine
 10
65.709835658614
 20
183.4451888697147
 30
0.0
 11
51.709835658614
 21
183.4451888697147
 31
0.0
  0
ARC
  5
112
330
2
100
AcDbEntity
  8
UMRISS05
100
AcDbCircle
 10
61.60983565861426
 20
186.4451888697147
 30
0.0
 40
3.000000000000002
100
AcDbArc
 50
269.9999999999999
 51
339.1477848028216
  0
LINE
  5
113
330
2
100
AcDbEntity
  8
UMRISS05
100
AcDbLine
 10
51.709835658614
 20
173.3773126292805
 30
0.0
 11
51.70983565861405
 21
147.3773126292806
 31
0.0
  0
DIMENSION
  5
114
330
2
100
AcDbEntity
  8
BEMASSUNG
  6
Continuous
100
AcDbDimension
  2
*D17
 10
65.70983565861394
 20
80.89314973955925
 30
0.0
 11
47.45983565861414
 21
83.68134892100536
 31
0.0
 71
     5
 42
36.4999999999996
  3
Katalog 09
100
AcDbAlignedDimension
 13
29.20983565861434
 23
110.3773126292808
 33
0.0
 14
65.70983565861394
 24
133.3773126292805
 34
0.0
100
AcDbRotatedDimension
  0
DIMENSION
  5
121
330
2
100
AcDbEntity
  8
UMRISS05
100
AcDbDimension
  2
*D14
 10
151.8378071122188
 20
120.3773126292808
 30
0.0
 11
149.0508016551929
 21
245.3773126292809
 31
0.0
 71
     5
 42
250.0
  3
Katalog 09
100
AcDbAlignedDimension
 13
167.9445413059131
 23
370.3773126292808
 33
0.0
 14
167.9445413059131
 24
120.3773126292808
 34
0.0
 50
90.0
100
AcDbRotatedDimension
  0
DIMENSION
  5
12E
330
2
100
AcDbEntity
  8
UMRISS05
100
AcDbDimension
  2
*D13
 10
61.70919677058435
 20
16.90383509708476
 30
0.0
 11
73.81168653866075
 21
16.90383509708476
 31
0.0
 70
   128
  1
M<>
 71
     5
 42
5.998722223940703
  3
Katalog 09
100
AcDbAlignedDimension
 13
55.71047454664364
 23
34.2569256581221
 33
0.0
 14
61.70919677058435
 24
34.2569256581221
 34
0.0
100
AcDbRotatedDimension
  0
ARC
  5
13D
330
2
100
AcDbEntity
  8
UMRISS02
100
AcDbCircle
 10
58.709835658614
 20
34.2569256581221
 30
0.0
 40
2.999361111970348
100
AcDbArc
 50
157.5255997399826
 51
99.99934841922874
  0
CIRCLE
  5
141
330
2
100
AcDbEntity
  8
UMRISS05
100
AcDbCircle
 10
58.709835658614
 20
34.2569256581221
 30
0.0
 40
2.386499999999999
  0
LINE
  5
142
330
2
100
AcDbEntity
  8
ACHSEN
100
AcDbLine
 10
167.9445413059131
 20
370.3773126292808
 30
0.0
 11
181.4445413059131
 21
370.3773126292808
 31
0.0
  0
LINE
  5
143
330
2
100
AcDbEntity
  8
ACHSEN
100
AcDbLine
 10
174.6945413059131
 20
377.1273126292808
 30
0.0
 11
174.6945413059131
 21
363.6273126292808
 31
0.0
  0
CIRCLE
  5
144
330
2
100
AcDbEntity
  8
UMRISS05
100
AcDbCircle
 10
174.6945413059131
 20
370.3773126292808
 30
0.0
 40
4.75
  0
CIRCLE
  5
145
330
2
100
AcDbEntity
  8
UMRISS05
100
AcDbCircle
 10
174.6945413059131
 20
370.3773126292808
 30
0.0
 40
2.6
  0
DIMENSION
  5
146
330
2
100
AcDbEntity
  8
BEMASSUNG
  6
Continuous
100
AcDbDimension
  2
*D12
 10
151.8378071122188
 20
370.3773126292808
 30
0.0
 11
149.0508016551929
 21
375.3773126292809
 31
0.0
 71
     5
 42
10.0
  3
Katalog 09
100
AcDbAlignedDimension
 13
174.6945413059131
 23
380.3773126292808
 33
0.0
 14
164.6945413059131
 24
370.3773126292808
 34
0.0
 50
90.0
100
AcDbRotatedDimension
  0
LINE
  5
155
330
2
100
AcDbEntity
  8
ACHSEN
100
AcDbLine
 10
165.5945413059131
 20
339.3773126292808
 30
0.0
 11
183.7945413059132
 21
339.3773126292808
 31
0.0
  0
ARC
  5
156
330
2
100
AcDbEntity
  8
UMRISS05
100
AcDbCircle
 10
174.6945413059131
 20
339.3773126292808
 30
0.0
 40
7.099999999999999
100
AcDbArc
 50
0.0
 51
180.0
  0
LINE
  5
157
330
2
100
AcDbEntity
  8
ACHSEN
100
AcDbLine
 10
165.5945413059131
 20
321.1273126292808
 30
0.0
 11
183.7945413059132
 21
321.1273126292808
 31
0.0
  0
ARC
  5
158
330
2
100
AcDbEntity
  8
UMRISS05
100
AcDbCircle
 10
174.6945413059131
 20
321.1273126292808
 30
0.0
 40
7.099999999999999
100
AcDbArc
 50
290.6165903826538
 51
0.0
  0
LINE
  5
159
330
2
100
AcDbEntity
  8
ACHSEN
100
AcDbLine
 10
174.6945413059131
 20
348.4773126292808
 30
0.0
 11
174.6945413059131
 21
312.0273126292808
 31
0.0
  0
ARC
  5
15A
330
2
100
AcDbEntity
  8
UMRISS05
100
AcDbCircle
 10
174.6945413059131
 20
321.1273126292808
 30
0.0
 40
7.099999999999999
100
AcDbArc
 50
180.0
 51
249.383409617344
  0
LINE
  5
15B
330
2
100
AcDbEntity
  8
UMRISS05
100
AcDbLine
 10
177.1945413059131
 20
314.4820135389464
 30
0.0
 11
172.1945413059131
 21
314.4820135389464
 31
0.0
  0
LINE
  5
15C
330
2
100
AcDbEntity
  8
UMRISS05
100
AcDbLine
 10
181.7945413059133
 20
321.1273126292808
 30
0.0
 11
181.7945413059133
 21
339.3773126292808
 31
0.0
  0
LINE
  5
15D
330
2
100
AcDbEntity
  8
UMRISS05
100
AcDbLine
 10
167.5945413059132
 20
321.1273126292808
 30
0.0
 11
167.5945413059132
 21
339.3773126292808
 31
0.0
  0
LINE
  5
15E
330
2
100
AcDbEntity
  8
UMRISS05
100
AcDbLine
 10
181.8945413059132
 20
292.4773126292807
 30
0.0
 11
177.1945413059131
 21
292.4773126292807
 31
0.0
  0
LINE
  5
15F
330
2
100
AcDbEntity
  8
UMRISS05
100
AcDbLine
 10
172.1945413059131
 20
286.8773126292806
 30
0.0
 11
177.1945413059131
 21
286.8773126292806
 31
0.0
  0
LINE
  5
160
330
2
100
AcDbEntity
  8
UMRISS05
100
AcDbLine
 10
172.1945413059131
 20
293.1273126292806
 30
0.0
 11
177.1945413059131
 21
293.1273126292806
 31
0.0
  0
LINE
  5
161
330
2
100
AcDbEntity
  8
UMRISS05
100
AcDbLine
 10
172.1945413059131
 20
305.3773126292806
 30
0.0
 11
177.1945413059131
 21
305.3773126292806
 31
0.0
  0
LINE
  5
162
330
2
100
AcDbEntity
  8
UMRISS05
100
AcDbLine
 10
172.1945413059131
 20
303.8773126292806
 30
0.0
 11
177.1945413059131
 21
303.8773126292806
 31
0.0
  0
LINE
  5
163
330
2
100
AcDbEntity
  8
UMRISS05
100
AcDbLine
 10
177.1945413059131
 20
280.2773126292809
 30
0.0
 11
181.8945413059132
 21
280.2773126292809
 31
0.0
  0
LINE
  5
164
330
2
100
AcDbEntity
  8
UMRISS05
100
AcDbLine
 10
181.8945413059132
 20
280.2773126292809
 30
0.0
 11
181.8945413059132
 21
292.4773126292807
 31
0.0
  0
LINE
  5
165
330
2
100
AcDbEntity
  8
UMRISS05
100
AcDbLine
 10
172.1945413059131
 20
280.2773126292809
 30
0.0
 11
172.1945413059131
 21
292.4773126292807
 31
0.0
  0
LINE
  5
166
330
2
100
AcDbEntity
  8
UMRISS05
100
AcDbLine
 10
177.1945413059131
 20
280.2773126292809
 30
0.0
 11
177.1945413059131
 21
292.4773126292807
 31
0.0
  0
LINE
  5
167
330
2
100
AcDbEntity
  8
UMRISS05
100
AcDbLine
 10
180.3945413059132
 20
280.2773126292809
 30
0.0
 11
180.3945413059132
 21
292.4773126292807
 31
0.0
  0
LINE
  5
168
330
2
100
AcDbEntity
  8
ACHSEN
100
AcDbLine
 10
162.6945413059131
 20
245.3773126292808
 30
0.0
 11
186.6945413059131
 21
245.3773126292808
 31
0.0
  0
LINE
  5
169
330
2
100
AcDbEntity
  8
UMRISS05
100
AcDbLine
 10
172.1945413059131
 20
257.4463779578459
 30
0.0
 11
177.1945413059131
 21
257.4463779578459
 31
0.0
  0
LINE
  5
16A
330
2
100
AcDbEntity
  8
UMRISS05
100
AcDbLine
 10
172.1945413059131
 20
226.0769569078914
 30
0.0
 11
177.1945413059131
 21
226.0769569078914
 31
0.0
  0
LINE
  5
16B
330
2
100
AcDbEntity
  8
UMRISS05
100
AcDbLine
 10
177.1945413059131
 20
292.4773126292807
 30
0.0
 11
177.1945413059131
 21
314.4820135389464
 31
0.0
  0
LINE
  5
16C
330
2
100
AcDbEntity
  8
UMRISS05
100
AcDbLine
 10
172.1945413059131
 20
314.4820135389464
 30
0.0
 11
172.1945413059131
 21
292.4773126292807
 31
0.0
  0
LINE
  5
16D
330
2
100
AcDbEntity
  8
UMRISS05
100
AcDbLine
 10
29.20983565861434
 20
380.3773126292808
 30
0.0
 11
32.20983565861434
 21
380.3773126292808
 31
0.0
  0
LINE
  5
16E
330
2
100
AcDbEntity
  8
UMRISS05
100
AcDbLine
 10
33.20983565861434
 20
347.4820135389464
 30
0.0
 11
39.70983565861434
 21
347.4820135389464
 31
0.0
  0
LINE
  5
16F
330
2
100
AcDbEntity
  8
UMRISS05
100
AcDbLine
 10
32.20983565861434
 20
346.4820135389464
 30
0.0
 11
39.70983565861434
 21
346.4820135389464
 31
0.0
  0
LINE
  5
170
330
2
100
AcDbEntity
  8
UMRISS05
100
AcDbLine
 10
33.20983565861434
 20
353.4820135389464
 30
0.0
 11
33.20983565861434
 21
347.4820135389464
 31
0.0
  0
LINE
  5
171
330
2
100
AcDbEntity
  8
UMRISS05
100
AcDbLine
 10
32.20983565861434
 20
353.4820135389464
 30
0.0
 11
32.20983565861434
 21
347.4820135389464
 31
0.0
  0
LINE
  5
172
330
2
100
AcDbEntity
  8
UMRISS05
100
AcDbLine
 10
33.20983565861434
 20
353.4820135389464
 30
0.0
 11
32.20983565861434
 21
353.4820135389464
 31
0.0
  0
ARC
  5
173
330
2
100
AcDbEntity
  8
UMRISS05
100
AcDbCircle
 10
33.20983565861434
 20
347.4820135389464
 30
0.0
 40
1.0
100
AcDbArc
 50
180.0
 51
270.0
  0
ARC
  5
174
330
2
100
AcDbEntity
  8
UMRISS05
100
AcDbCircle
 10
39.70983565861434
 20
346.4820135389464
 30
0.0
 40
1.0
100
AcDbArc
 50
0.0
 51
90.0
  0
LINE
  5
175
330
2
100
AcDbEntity
  8
UMRISS05
100
AcDbLine
 10
39.70983565861434
 20
313.4820135389464
 30
0.0
 11
33.20983565861434
 21
313.4820135389464
 31
0.0
  0
LINE
  5
176
330
2
100
AcDbEntity
  8
UMRISS05
100
AcDbLine
 10
39.70983565861434
 20
314.4820135389464
 30
0.0
 11
32.20983565861434
 21
314.4820135389464
 31
0.0
  0
ARC
  5
177
330
2
100
AcDbEntity
  8
UMRISS05
100
AcDbCircle
 10
33.20983565861434
 20
313.4820135389464
 30
0.0
 40
1.0
100
AcDbArc
 50
90.0
 51
180.0
  0
ARC
  5
178
330
2
100
AcDbEntity
  8
UMRISS05
100
AcDbCircle
 10
39.70983565861434
 20
314.4820135389464
 30
0.0
 40
1.0
100
AcDbArc
 50
270.0
 51
0.0
  0
LINE
  5
179
330
2
100
AcDbEntity
  8
UMRISS05
100
AcDbLine
 10
40.70983565861434
 20
346.4820135389464
 30
0.0
 11
40.70983565861434
 21
314.4820135389464
 31
0.0
  0
LINE
  5
17A
330
2
100
AcDbEntity
  8
UMRISS05
100
AcDbLine
 10
32.20983565861434
 20
346.4820135389464
 30
0.0
 11
32.20983565861434
 21
314.4820135389464
 31
0.0
  0
LINE
  5
17B
330
2
100
AcDbEntity
  8
UMRISS05
100
AcDbLine
 10
68.70983565861433
 20
265.3773126292808
 30
0.0
 11
67.20983565861434
 21
265.3773126292808
 31
0.0
  0
LINE
  5
17C
330
2
100
AcDbEntity
  8
UMRISS05
100
AcDbLine
 10
67.20983565861434
 20
305.3773126292808
 30
0.0
 11
67.20983565861428
 21
265.3773126292808
 31
0.0
  0
LINE
  5
17D
330
2
100
AcDbEntity
  8
UMRISS05
100
AcDbLine
 10
32.20983565861434
 20
300.8773126292808
 30
0.0
 11
32.20983565861434
 21
305.3773126292808
 31
0.0
  0
LINE
  5
17E
330
2
100
AcDbEntity
  8
UMRISS05
100
AcDbLine
 10
33.20983565861434
 20
307.4820135389464
 30
0.0
 11
32.20983565861434
 21
307.4820135389464
 31
0.0
  0
LINE
  5
17F
330
2
100
AcDbEntity
  8
UMRISS05
100
AcDbLine
 10
32.20983565861434
 20
305.3773126292808
 30
0.0
 11
68.70983565861433
 21
305.3773126292809
 31
0.0
  0
LINE
  5
180
330
2
100
AcDbEntity
  8
UMRISS05
100
AcDbLine
 10
68.70983565861411
 20
225.3773126292808
 30
0.0
 11
67.20983565861411
 21
225.3773126292808
 31
0.0
  0
DIMENSION
  5
181
330
2
100
AcDbEntity
  8
BEMASSUNG
  6
Continuous
100
AcDbDimension
  2
*D11
 10
68.70983565861422
 20
246.4005360139911
 30
0.0
 11
48.95983565861428
 21
249.1887351954372
 31
0.0
 71
     5
 42
39.49999999999988
  3
Katalog 09
100
AcDbAlignedDimension
 13
29.20983565861434
 23
245.3773126292808
 33
0.0
 14
68.70983565861422
 24
245.3773126292807
 34
0.0
100
AcDbRotatedDimension
  0
LINE
  5
18E
330
2
100
AcDbEntity
  8
UMRISS05
100
AcDbLine
 10
32.20983565861434
 20
313.4820135389464
 30
0.0
 11
32.20983565861434
 21
307.4820135389464
 31
0.0
  0
LINE
  5
18F
330
2
100
AcDbEntity
  8
UMRISS05
100
AcDbLine
 10
33.20983565861434
 20
313.4820135389464
 30
0.0
 11
33.20983565861434
 21
307.4820135389464
 31
0.0
  0
DIMENSION
  5
190
330
2
100
AcDbEntity
  8
BEMASSUNG
  6
Continuous
100
AcDbDimension
  2
*D10
 10
97.84907233218246
 20
380.3773126292808
 30
0.0
 11
95.06922922167762
 21
342.8773126292808
 31
0.0
 71
     5
 42
74.99999999999994
  3
Katalog 09
100
AcDbAlignedDimension
 13
69.45983565861434
 23
305.3773126292809
 33
0.0
 14
32.20983565861434
 24
380.3773126292808
 34
0.0
 50
90.0
100
AcDbRotatedDimension
  0
LINE
  5
19D
330
2
100
AcDbEntity
  8
UMRISS05
100
AcDbLine
 10
181.8945413059132
 20
210.4773126292807
 30
0.0
 11
177.1945413059131
 21
210.4773126292807
 31
0.0
  0
LINE
  5
19E
330
2
100
AcDbEntity
  8
UMRISS05
100
AcDbLine
 10
177.1945413059131
 20
198.2773126292809
 30
0.0
 11
181.8945413059132
 21
198.2773126292809
 31
0.0
  0
LINE
  5
19F
330
2
100
AcDbEntity
  8
UMRISS05
100
AcDbLine
 10
181.8945413059132
 20
198.2773126292809
 30
0.0
 11
181.8945413059132
 21
210.4773126292807
 31
0.0
  0
LINE
  5
1A0
330
2
100
AcDbEntity
  8
UMRISS05
100
AcDbLine
 10
177.1945413059131
 20
198.2773126292809
 30
0.0
 11
177.1945413059131
 21
210.4773126292807
 31
0.0
  0
LINE
  5
1A1
330
2
100
AcDbEntity
  8
UMRISS05
100
AcDbLine
 10
180.3945413059132
 20
198.2773126292809
 30
0.0
 11
180.3945413059132
 21
210.4773126292807
 31
0.0
  0
LINE
  5
1A2
330
2
100
AcDbEntity
  8
UMRISS05
100
AcDbLine
 10
172.1945413059131
 20
198.2773126292809
 30
0.0
 11
172.1945413059131
 21
210.4773126292807
 31
0.0
  0
ARC
  5
1A3
330
2
100
AcDbEntity
  8
UMRISS05
100
AcDbCircle
 10
174.6945413059131
 20
169.6273126292808
 30
0.0
 40
7.099999999999999
100
AcDbArc
 50
0.0
 51
69.38340961734613
  0
LINE
  5
1A4
330
2
100
AcDbEntity
  8
ACHSEN
100
AcDbLine
 10
174.6945413059131
 20
142.2773126292808
 30
0.0
 11
174.6945413059131
 21
178.7273126292808
 31
0.0
  0
LINE
  5
1A5
330
2
100
AcDbEntity
  8
ACHSEN
100
AcDbLine
 10
165.5945413059131
 20
169.6273126292808
 30
0.0
 11
183.7945413059132
 21
169.6273126292808
 31
0.0
  0
ARC
  5
1A6
330
2
100
AcDbEntity
  8
UMRISS05
100
AcDbCircle
 10
174.6945413059131
 20
169.6273126292808
 30
0.0
 40
7.099999999999999
100
AcDbArc
 50
110.6165903826559
 51
180.0
  0
LINE
  5
1A7
330
2
100
AcDbEntity
  8
UMRISS05
100
AcDbLine
 10
177.1945413059131
 20
176.2726117196153
 30
0.0
 11
177.1945413059131
 21
198.2773126292809
 31
0.0
  0
LINE
  5
1A8
330
2
100
AcDbEntity
  8
UMRISS05
100
AcDbLine
 10
172.1945413059131
 20
198.2773126292809
 30
0.0
 11
172.1945413059131
 21
176.2726117196153
 31
0.0
  0
LINE
  5
1A9
330
2
100
AcDbEntity
  8
ACHSEN
100
AcDbLine
 10
165.5945413059131
 20
151.3773126292808
 30
0.0
 11
183.7945413059132
 21
151.3773126292808
 31
0.0
  0
ARC
  5
1AA
330
2
100
AcDbEntity
  8
UMRISS05
100
AcDbCircle
 10
174.6945413059131
 20
151.3773126292808
 30
0.0
 40
7.099999999999999
100
AcDbArc
 50
180.0
 51
0.0
  0
LINE
  5
1AB
330
2
100
AcDbEntity
  8
UMRISS05
100
AcDbLine
 10
167.5945413059132
 20
162.3578474530274
 30
0.0
 11
181.7945413059133
 21
162.3578474530274
 31
0.0
  0
LINE
  5
1AC
330
2
100
AcDbEntity
  8
UMRISS05
100
AcDbLine
 10
181.7945413059133
 20
161.6910174413822
 30
0.0
 11
167.5945413059132
 21
161.6910174413822
 31
0.0
  0
LINE
  5
1AD
330
2
100
AcDbEntity
  8
ACHSEN
100
AcDbLine
 10
167.9445413059131
 20
120.3773126292808
 30
0.0
 11
181.4445413059131
 21
120.3773126292808
 31
0.0
  0
LINE
  5
1AE
330
2
100
AcDbEntity
  8
UMRISS05
100
AcDbLine
 10
181.7945413059133
 20
151.3773126292808
 30
0.0
 11
181.7945413059133
 21
169.6273126292808
 31
0.0
  0
LINE
  5
1AF
330
2
100
AcDbEntity
  8
UMRISS05
100
AcDbLine
 10
167.5945413059132
 20
151.3773126292794
 30
0.0
 11
167.5945413059132
 21
169.6273126292794
 31
0.0
  0
DIMENSION
  5
1B0
330
2
100
AcDbEntity
  8
BEMASSUNG
  6
Continuous
100
AcDbDimension
  2
*D1
 10
184.6945413059131
 20
99.07565041932071
 30
0.0
 11
174.2471027611595
 21
99.07565041932071
 31
0.0
 70
   128
  1
<>
 71
     5
 42
20.0
  3
Katalog 09
100
AcDbAlignedDimension
 13
164.6945413059131
 23
120.3773126292808
 33
0.0
 14
184.6945413059131
 24
120.3773126292808
 34
0.0
100
AcDbRotatedDimension
1001
ACAD_DSTYLE_DIMINSPECT
1070
   396
1000
100%
1070
   395
1000

1070
   394
1070
    33
1070
   393
1070
     0
  0
CIRCLE
  5
1BE
330
2
100
AcDbEntity
  8
UMRISS05
100
AcDbCircle
 10
174.6945413059131
 20
120.3773126292808
 30
0.0
 40
4.75
  0
CIRCLE
  5
1BF
330
2
100
AcDbEntity
  8
UMRISS05
100
AcDbCircle
 10
174.6945413059131
 20
120.3773126292808
 30
0.0
 40
2.6
  0
LINE
  5
1C0
330
2
100
AcDbEntity
  8
ACHSEN
100
AcDbLine
 10
174.6945413059131
 20
127.1273126292808
 30
0.0
 11
174.6945413059131
 21
113.6273126292808
 31
0.0
  0
DIMENSION
  5
1C1
330
2
100
AcDbEntity
  8
BEMASSUNG
  6
Continuous
100
AcDbDimension
  2
*D9
 10
151.8378071122188
 20
120.3773126292808
 30
0.0
 11
149.0508016551928
 21
115.3773126292808
 31
0.0
 71
     5
 42
10.0
  3
Katalog 09
100
AcDbAlignedDimension
 13
174.6945413059131
 23
110.3773126292808
 33
0.0
 14
167.9445413059131
 24
120.3773126292808
 34
0.0
 50
90.0
100
AcDbRotatedDimension
  0
LINE
  5
1D0
330
2
100
AcDbEntity
  8
UMRISS05
100
AcDbLine
 10
32.20983565861434
 20
185.3773126292808
 30
0.0
 11
32.20983565861434
 21
189.8773126292808
 31
0.0
  0
LINE
  5
1D1
330
2
100
AcDbEntity
  8
UMRISS05
100
AcDbLine
 10
33.20983565861434
 20
183.2773126292807
 30
0.0
 11
32.20983565861434
 21
183.2773126292807
 31
0.0
  0
LINE
  5
1D2
330
2
100
AcDbEntity
  8
UMRISS05
100
AcDbLine
 10
32.20983565861434
 20
176.2773126292807
 30
0.0
 11
39.70983565861434
 21
176.2773126292807
 31
0.0
  0
LINE
  5
1D3
330
2
100
AcDbEntity
  8
UMRISS05
100
AcDbLine
 10
33.20983565861434
 20
177.2773126292807
 30
0.0
 11
39.70983565861434
 21
177.2773126292807
 31
0.0
  0
ARC
  5
1D4
330
2
100
AcDbEntity
  8
UMRISS05
100
AcDbCircle
 10
33.20983565861434
 20
177.2773126292807
 30
0.0
 40
1.0
100
AcDbArc
 50
180.0
 51
270.0
  0
ARC
  5
1D5
330
2
100
AcDbEntity
  8
UMRISS05
100
AcDbCircle
 10
39.70983565861434
 20
176.2773126292807
 30
0.0
 40
1.0
100
AcDbArc
 50
0.0
 51
90.0
  0
LINE
  5
1D6
330
2
100
AcDbEntity
  8
UMRISS05
100
AcDbLine
 10
32.20983565861434
 20
183.2773126292807
 30
0.0
 11
32.20983565861434
 21
177.2773126292807
 31
0.0
  0
LINE
  5
1D7
330
2
100
AcDbEntity
  8
UMRISS05
100
AcDbLine
 10
33.20983565861434
 20
183.2773126292807
 30
0.0
 11
33.20983565861434
 21
177.2773126292807
 31
0.0
  0
LINE
  5
1D8
330
2
100
AcDbEntity
  8
UMRISS05
100
AcDbLine
 10
39.5192696211102
 20
177.2773126292807
 30
0.0
 11
41.70983565861405
 21
181.8969567693404
 31
0.0
  0
LINE
  5
1D9
330
2
100
AcDbEntity
  8
UMRISS05
100
AcDbLine
 10
68.70983565861411
 20
185.3773126292806
 30
0.0
 11
32.20983565861434
 21
185.3773126292806
 31
0.0
  0
LINE
  5
1DA
330
2
100
AcDbEntity
  8
UMRISS05
100
AcDbLine
 10
39.70983565861434
 20
144.2773126292807
 30
0.0
 11
32.20983565861434
 21
144.2773126292807
 31
0.0
  0
LINE
  5
1DB
330
2
100
AcDbEntity
  8
UMRISS05
100
AcDbLine
 10
32.20983565861434
 20
143.2773126292807
 30
0.0
 11
32.20983565861434
 21
137.2773126292807
 31
0.0
  0
LINE
  5
1DC
330
2
100
AcDbEntity
  8
UMRISS05
100
AcDbLine
 10
33.20983565861434
 20
143.2773126292807
 30
0.0
 11
33.20983565861434
 21
137.2773126292807
 31
0.0
  0
LINE
  5
1DD
330
2
100
AcDbEntity
  8
UMRISS05
100
AcDbLine
 10
39.70983565861434
 20
143.2773126292807
 30
0.0
 11
33.20983565861434
 21
143.2773126292807
 31
0.0
  0
LINE
  5
1DE
330
2
100
AcDbEntity
  8
UMRISS05
100
AcDbLine
 10
33.20983565861434
 20
137.2773126292807
 30
0.0
 11
32.20983565861434
 21
137.2773126292807
 31
0.0
  0
ARC
  5
1DF
330
2
100
AcDbEntity
  8
UMRISS05
100
AcDbCircle
 10
33.20983565861434
 20
143.2773126292807
 30
0.0
 40
1.0
100
AcDbArc
 50
90.0
 51
180.0
  0
ARC
  5
1E0
330
2
100
AcDbEntity
  8
UMRISS05
100
AcDbCircle
 10
39.70983565861434
 20
144.2773126292807
 30
0.0
 40
1.0
100
AcDbArc
 50
270.0
 51
0.0
  0
LINE
  5
1E1
330
2
100
AcDbEntity
  8
UMRISS05
100
AcDbLine
 10
32.20983565861434
 20
176.2773126292807
 30
0.0
 11
32.20983565861434
 21
144.2773126292807
 31
0.0
  0
LINE
  5
1E2
330
2
100
AcDbEntity
  8
UMRISS05
100
AcDbLine
 10
40.70983565861434
 20
176.2773126292807
 30
0.0
 11
40.70983565861434
 21
144.2773126292807
 31
0.0
  0
LINE
  5
1E3
330
2
100
AcDbEntity
  8
UMRISS05
100
AcDbLine
 10
32.20983565861434
 20
110.3773126292808
 30
0.0
 11
29.20983565861434
 21
110.3773126292808
 31
0.0
  0
ARC
  5
1E4
330
2
100
AcDbEntity
  8
UMRISS05
100
AcDbCircle
 10
67.20983565861434
 20
39.7569256581221
 30
0.0
 40
1.5
100
AcDbArc
 50
0.0
 51
90.0
  0
LINE
  5
1E5
330
2
100
AcDbEntity
  8
UMRISS05
100
AcDbLine
 10
40.70983565861434
 20
42.75692565812209
 30
0.0
 11
32.20983565861434
 21
42.75692565812209
 31
0.0
  0
LINE
  5
1E6
330
2
100
AcDbEntity
  8
UMRISS05
100
AcDbLine
 10
32.20983565861434
 20
44.2569256581221
 30
0.0
 11
29.20983565861434
 21
44.2569256581221
 31
0.0
  0
DIMENSION
  5
1E7
330
2
100
AcDbEntity
  8
BEMASSUNG
  6
Continuous
100
AcDbDimension
  2
*D8
 10
29.20983565861434
 20
53.4031068550098
 30
0.0
 11
43.95983565861416
 21
56.19011231203573
 31
0.0
 71
     5
 42
29.49999999999966
  3
Katalog 09
100
AcDbAlignedDimension
 13
58.709835658614
 23
41.2569256581221
 33
0.0
 14
29.20983565861434
 24
44.2569256581221
 34
0.0
100
AcDbRotatedDimension
  0
LINE
  5
1F4
330
2
100
AcDbEntity
  8
UMRISS05
100
AcDbLine
 10
67.20983565861434
 20
41.2569256581221
 30
0.0
 11
40.70983565861434
 21
41.2569256581221
 31
0.0
  0
DIMENSION
  5
1F5
330
2
100
AcDbEntity
  8
BEMASSUNG
  6
Continuous
100
AcDbDimension
  2
*D7
 10
29.20983565861434
 20
99.03435011937199
 30
0.0
 11
19.06386021523098
 21
99.03435011937199
 31
0.0
 70
   128
 71
     5
 42
3.0
  3
Katalog 09
100
AcDbAlignedDimension
 13
32.20983565861434
 23
110.3773126292808
 33
0.0
 14
29.20983565861434
 24
110.3773126292808
 34
0.0
100
AcDbRotatedDimension
  0
DIMENSION
  5
204
330
2
100
AcDbEntity
  8
BEMASSUNG
  6
Continuous
100
AcDbDimension
  2
*D6
 10
97.60454297771275
 20
110.3773126292808
 30
0.0
 11
94.82469986720797
 21
147.8773126292807
 31
0.0
 71
     5
 42
74.99999999999978
  3
Katalog 09
100
AcDbAlignedDimension
 13
69.45983565861411
 23
185.3773126292806
 33
0.0
 14
32.20983565861434
 24
110.3773126292808
 34
0.0
 50
90.0
100
AcDbRotatedDimension
  0
LINE
  5
211
330
2
100
AcDbEntity
  8
UMRISS05
100
AcDbLine
 10
65.709835658614
 20
28.7569256581221
 30
0.0
 11
67.20983565861434
 21
28.7569256581221
 31
0.0
  0
LINE
  5
212
330
2
100
AcDbEntity
  8
ACHSEN
100
AcDbLine
 10
58.709835658614
 20
34.2569256581221
 30
0.0
 11
58.709835658614
 21
27.2569256581221
 31
0.0
  0
LINE
  5
213
330
2
100
AcDbEntity
  8
ACHSEN
100
AcDbLine
 10
58.709835658614
 20
34.2569256581221
 30
0.0
 11
51.709835658614
 21
34.2569256581221
 31
0.0
  0
LINE
  5
214
330
2
100
AcDbEntity
  8
UMRISS05
100
AcDbLine
 10
32.20983565861434
 20
25.7569256581221
 30
0.0
 11
40.70983565861434
 21
25.7569256581221
 31
0.0
  0
LINE
  5
215
330
2
100
AcDbEntity
  8
UMRISS05
100
AcDbLine
 10
41.6389172953086
 20
28.7569256581221
 30
0.0
 11
41.6389172953086
 21
31.7569256581221
 31
0.0
  0
LINE
  5
216
330
2
100
AcDbEntity
  8
UMRISS05
100
AcDbLine
 10
29.20983565861434
 20
24.2569256581221
 30
0.0
 11
32.20983565861434
 21
24.2569256581221
 31
0.0
  0
LINE
  5
217
330
2
100
AcDbEntity
  8
UMRISS05
100
AcDbLine
 10
40.70983565861434
 20
28.7569256581221
 30
0.0
 11
51.709835658614
 21
28.7569256581221
 31
0.0
  0
LINE
  5
218
330
2
100
AcDbEntity
  8
UMRISS05
100
AcDbLine
 10
40.70983565861434
 20
31.7569256581221
 30
0.0
 11
51.709835658614
 21
31.75692565812207
 31
0.0
  0
LINE
  5
219
330
2
100
AcDbEntity
  8
UMRISS05
100
AcDbLine
 10
40.70983565861434
 20
27.2569256581221
 30
0.0
 11
68.70983565861433
 21
27.2569256581221
 31
0.0
  0
LINE
  5
21A
330
2
100
AcDbEntity
  8
ACHSEN
100
AcDbLine
 10
58.709835658614
 20
34.2569256581221
 30
0.0
 11
65.70983565861394
 21
34.2569256581221
 31
0.0
  0
LINE
  5
21B
330
2
100
AcDbEntity
  8
UMRISS05
100
AcDbLine
 10
29.20983565861434
 20
44.2569256581221
 30
0.0
 11
29.20983565861434
 21
24.2569256581221
 31
0.0
  0
LINE
  5
21C
330
2
100
AcDbEntity
  8
UMRISS05
100
AcDbLine
 10
32.20983565861434
 20
24.2569256581221
 30
0.0
 11
32.20983565861434
 21
44.2569256581221
 31
0.0
  0
LINE
  5
21D
330
2
100
AcDbEntity
  8
UMRISS05
100
AcDbLine
 10
40.70983565861434
 20
25.7569256581221
 30
0.0
 11
40.70983565861434
 21
42.75692565812209
 31
0.0
  0
LINE
  5
21E
330
2
100
AcDbEntity
  8
UMRISS05
100
AcDbLine
 10
68.70983565861433
 20
27.2569256581221
 30
0.0
 11
68.70983565861433
 21
39.7569256581221
 31
0.0
  0
LINE
  5
21F
330
2
100
AcDbEntity
  8
UMRISS05
100
AcDbLine
 10
67.20983565861434
 20
27.2569256581221
 30
0.0
 11
67.20983565861434
 21
39.7569256581221
 31
0.0
  0
DIMENSION
  5
220
330
2
100
AcDbEntity
  8
BEMASSUNG
  6
Continuous
100
AcDbDimension
  2
*D5
 10
84.20138473012002
 20
41.25692565812209
 30
0.0
 11
81.44422238359886
 21
34.25692565812211
 31
0.0
 71
     5
 42
14.0
  3
Katalog 09
100
AcDbAlignedDimension
 13
68.70983565861433
 23
27.2569256581221
 33
0.0
 14
67.20983565861434
 24
41.2569256581221
 34
0.0
 50
90.0
100
AcDbRotatedDimension
  0
DIMENSION
  5
22D
330
2
100
AcDbEntity
  8
BEMASSUNG
  6
Continuous
100
AcDbDimension
  2
*D4
 10
96.60008325833496
 20
25.75692565812209
 30
0.0
 11
93.84292091181382
 21
34.2569256581221
 31
0.0
 71
     5
 42
17.0
  3
Katalog 09
100
AcDbAlignedDimension
 13
40.70983565861434
 23
42.75692565812209
 33
0.0
 14
40.70983565861434
 24
25.7569256581221
 34
0.0
 50
90.0
100
AcDbRotatedDimension
  0
LINE
  5
23A
330
2
100
AcDbEntity
  8
UMRISS05
100
AcDbLine
 10
65.709835658614
 20
41.2569256581221
 30
0.0
 11
65.709835658614
 21
27.2569256581221
 31
0.0
  0
LINE
  5
23B
330
2
100
AcDbEntity
  8
UMRISS05
100
AcDbLine
 10
51.70983565861394
 20
41.2569256581221
 30
0.0
 11
51.709835658614
 21
27.25692565812207
 31
0.0
  0
LINE
  5
23C
330
2
100
AcDbEntity
  8
ACHSEN
100
AcDbLine
 10
58.709835658614
 20
34.2569256581221
 30
0.0
 11
58.709835658614
 21
41.2569256581221
 31
0.0
  0
LINE
  5
23D
330
2
100
AcDbEntity
  8
UMRISS05
100
AcDbLine
 10
68.70983565861433
 20
305.3773126292809
 30
0.0
 11
68.70983565861411
 21
185.3773126292806
 31
0.0
  0
LINE
  5
23E
330
2
100
AcDbEntity
  8
UMRISS05
100
AcDbLine
 10
32.20983565861434
 20
198.8773126292808
 30
0.0
 11
32.20983565861434
 21
223.8773126292808
 31
0.0
  0
LINE
  5
23F
330
2
100
AcDbEntity
  8
UMRISS05
100
AcDbLine
 10
29.20983565861434
 20
110.3773126292808
 30
0.0
 11
29.20983565861434
 21
380.3773126292808
 31
0.0
  0
ARC
  5
240
330
2
100
AcDbEntity
  8
UMRISS05
100
AcDbCircle
 10
174.6945413059131
 20
370.3773126292808
 30
0.0
 40
10.0
100
AcDbArc
 50
0.0
 51
180.0
1001
GENIUS_GENODEF_13
1002
{
1000
HIER
1070
     0
1002
}
1002
{
1000
MANEDIT
1070
     0
1002
}
1002
{
1000
NOSEL
1070
     0
1002
}
1002
{
1000
BEHIND
1070
     0
1002
}
1002
{
1000
OTHER
1070
     0
1002
}
1002
{
1000
REACTOR
1002
}
1001
GENIUS_GENOBJ-N-FIL_13
1002
{
1000
OWNER
1000
GEN
1002
}
  0
ARC
  5
243
330
2
100
AcDbEntity
  8
UMRISS05
100
AcDbCircle
 10
174.6945413059131
 20
120.3773126292808
 30
0.0
 40
10.0
100
AcDbArc
 50
180.0
 51
0.0
1001
GENIUS_GENODEF_13
1002
{
1000
HIER
1070
     0
1002
}
1002
{
1000
MANEDIT
1070
     0
1002
}
1002
{
1000
NOSEL
1070
     0
1002
}
1002
{
1000
BEHIND
1070
     0
1002
}
1002
{
1000
OTHER
1070
     0
1002
}
1002
{
1000
REACTOR
1002
}
1001
GENIUS_GENOBJ-N-FIL_13
1002
{
1000
OWNER
1000
GEN
1002
}
  0
LINE
  5
244
330
2
100
AcDbEntity
  8
UMRISS05
100
AcDbLine
 10
164.6945413059131
 20
370.3773126292808
 30
0.0
 11
164.6945413059131
 21
120.3773126292808
 31
0.0
  0
LINE
  5
245
330
2
100
AcDbEntity
  8
UMRISS05
100
AcDbLine
 10
184.6945413059131
 20
120.3773126292808
 30
0.0
 11
184.6945413059131
 21
370.3773126292808
 31
0.0
  0
LINE
  5
246
330
2
100
AcDbEntity
  8
UMRISS05
100
AcDbLine
 10
177.1945413059131
 20
210.4773126292807
 30
0.0
 11
177.1945413059131
 21
280.2773126292809
 31
0.0
  0
LINE
  5
247
330
2
100
AcDbEntity
  8
UMRISS05
100
AcDbLine
 10
172.1945413059131
 20
280.2773126292809
 30
0.0
 11
172.1945413059131
 21
210.4773126292807
 31
0.0
  0
LINE
  5
248
330
2
100
AcDbEntity
  8
UMRISS05
100
AcDbLine
 10
32.20983565861434
 20
380.3773126292808
 30
0.0
 11
32.20983565861434
 21
110.3773126292808
 31
0.0
  0
LINE
  5
249
330
2
100
AcDbEntity
  8
UMRISS05
100
AcDbLine
 10
67.20983565861422
 20
225.3773126292808
 30
0.0
 11
67.20983565861411
 21
185.3773126292806
 31
0.0
  0
DIMENSION
  5
24A
330
2
100
AcDbEntity
  8
BEMASSUNG
  6
Continuous
100
AcDbDimension
  2
*D3
 10
199.5977740282828
 20
110.3773126292808
 30
0.0
 11
196.8107685712569
 21
245.3773126292809
 31
0.0
 71
     5
 42
270.0
  3
Katalog 09
100
AcDbAlignedDimension
 13
174.6945413059131
 23
380.3773126292808
 33
0.0
 14
174.6945413059131
 24
110.3773126292808
 34
0.0
 50
90.0
100
AcDbRotatedDimension
  0
DIMENSION
  5
257
330
2
100
AcDbEntity
  8
BEMASSUNG
  6
Continuous
100
AcDbDimension
  2
*D2
 10
97.64377678832847
 20
305.3773126292809
 30
0.0
 11
94.85677133130248
 21
245.3773126292808
 31
0.0
 71
     5
 42
120.0000000000002
  3
Katalog 09
100
AcDbAlignedDimension
 13
68.70983565861411
 23
185.3773126292806
 33
0.0
 14
68.70983565861433
 24
305.3773126292809
 34
0.0
 50
90.0
100
AcDbRotatedDimension
  0
ENDSEC
  0
SECTION
  2
OBJECTS
  0
DICTIONARY
  5
B
330
0
100
AcDbDictionary
281
     1
  3
ACAD_COLOR
350
4C
  3
ACAD_DETAILVIEWSTYLE
350
283
  3
ACAD_FIELDLIST
350
2B6
  3
ACAD_GROUP
350
39
  3
ACAD_LAYOUT
350
18
  3
ACAD_MATERIAL
350
D
  3
ACAD_MLEADERSTYLE
350
4F
  3
ACAD_MLINESTYLE
350
3A
  3
ACAD_PLOTSETTINGS
350
3B
  3
ACAD_PLOTSTYLENAME
350
A
  3
ACAD_SCALELIST
350
4D
  3
ACAD_SECTIONVIEWSTYLE
350
293
  3
ACAD_TABLESTYLE
350
4E
  3
ACAD_VISUALSTYLE
350
2E
  3
ACDB_RECOMPOSE_DATA
350
2C8
  3
AcDbVariableDictionary
350
2BA
  3
AcmDictionary
350
275
  3
AcmSystemVariableManager
350
2DD
  3
AMG
350
266
  0
DICTIONARY
  5
21
330
20
100
AcDbDictionary
280
     1
281
     1
  3
ACAD_LAYERSTATES
360
22
  0
DICTIONARY
  5
7
330
6
100
AcDbDictionary
280
     1
281
     1
  3
ADSK_XREC_LAYER_RECONCILED
360
8
  0
DICTIONARY
  5
C2
330
C1
100
AcDbDictionary
280
     1
281
     1
  3
ADSK_XREC_LAYER_RECONCILED
360
C3
  0
DICTIONARY
  5
13F
330
13E
100
AcDbDictionary
280
     1
281
     1
  3
ADSK_XREC_LAYER_RECONCILED
360
140
  0
DICTIONARY
  5
B7
330
B6
100
AcDbDictionary
280
     1
281
     1
  3
ADSK_XREC_LAYER_RECONCILED
360
B8
  0
DICTIONARY
  5
B1
330
B0
100
AcDbDictionary
280
     1
281
     1
  3
ADSK_XREC_LAYER_RECONCILED
360
B2
  0
DICTIONARY
  5
3
330
2
100
AcDbDictionary
280
     1
281
     1
  3
ACAD_SORTENTS
360
264
  0
DICTIONARY
  5
2D6
330
9F
100
AcDbDictionary
280
     1
281
     1
  3
ACAD_MTEXT_RT
360
2D7
  0
DICTIONARY
  5
4C
102
{ACAD_REACTORS
330
B
102
}
330
B
100
AcDbDictionary
281
     1
  0
DICTIONARY
  5
283
102
{ACAD_REACTORS
330
B
102
}
330
B
100
AcDbDictionary
281
     1
  3
Imperial24
350
290
  0
FIELDLIST
  5
2B6
102
{ACAD_REACTORS
330
B
102
}
330
B
100
AcDbIdSet
 90
        8
330
286
330
287
330
288
330
289
330
296
330
297
330
298
330
299
100
AcDbFieldList
  0
DICTIONARY
  5
39
102
{ACAD_REACTORS
330
B
102
}
330
B
100
AcDbDictionary
281
     1
  0
DICTIONARY
  5
18
102
{ACAD_REACTORS
330
B
102
}
330
B
100
AcDbDictionary
281
     1
  3
Layout1
350
1F
  3
Model
350
17
  0
DICTIONARY
  5
D
102
{ACAD_REACTORS
330
B
102
}
330
B
100
AcDbDictionary
281
     1
  3
ByBlock
350
44
  3
ByLayer
350
3C
  3
Global
350
C
  0
DICTIONARY
  5
4F
102
{ACAD_REACTORS
330
B
102
}
330
B
100
AcDbDictionary
281
     1
  0
DICTIONARY
  5
3A
102
{ACAD_REACTORS
330
B
102
}
330
B
100
AcDbDictionary
281
     1
  3
STANDARD
350
52
  0
DICTIONARY
  5
3B
102
{ACAD_REACTORS
330
B
102
}
330
B
100
AcDbDictionary
281
     1
  0
ACDBDICTIONARYWDFLT
  5
A
102
{ACAD_REACTORS
330
B
102
}
330
B
100
AcDbDictionary
281
     1
  3
Normal
350
9
100
AcDbDictionaryWithDefault
340
9
  0
DICTIONARY
  5
4D
102
{ACAD_REACTORS
330
B
102
}
330
B
100
AcDbDictionary
281
     1
  3
A0
350
57
  3
A1
350
58
  3
A2
350
59
  3
A3
350
5A
  3
A4
350
5B
  3
A5
350
5C
  3
A6
350
5D
  3
A7
350
5E
  3
A8
350
5F
  3
A9
350
60
  3
B0
350
61
  3
B1
350
62
  3
B2
350
63
  3
B3
350
64
  3
B4
350
65
  3
B5
350
66
  3
B6
350
67
  3
B7
350
68
  3
B8
350
69
  3
B9
350
6A
  3
C0
350
6B
  3
C1
350
6C
  3
C2
350
6D
  3
C3
350
6E
  3
C4
350
6F
  3
C5
350
70
  3
C6
350
71
  3
C7
350
72
  3
C8
350
73
  3
C9
350
74
  3
D0
350
75
  3
D1
350
76
  3
D2
350
77
  0
DICTIONARY
  5
293
102
{ACAD_REACTORS
330
B
102
}
330
B
100
AcDbDictionary
281
     1
  3
Imperial24
350
29B
  0
DICTIONARY
  5
4E
102
{ACAD_REACTORS
330
B
102
}
330
B
100
AcDbDictionary
281
     1
  3
Standard
350
53
  0
DICTIONARY
  5
2E
102
{ACAD_REACTORS
330
B
102
}
330
B
100
AcDbDictionary
281
     1
  3
2dWireframe
350
2D
  3
Realistic
350
55
  3
Wireframe
350
56
  0
XRECORD
  5
2C8
102
{ACAD_REACTORS
330
B
102
}
330
B
100
AcDbXrecord
280
     1
 90
        1
330
53
  0
DICTIONARY
  5
2BA
102
{ACAD_REACTORS
330
B
102
}
330
B
100
AcDbDictionary
281
     1
  3
CANNOSCALE
350
2BF
  3
CMLEADERSTYLE
350
2BC
  3
CTABLESTYLE
350
2BB
  3
CVIEWDETAILSTYLE
350
2BD
  3
CVIEWSECTIONSTYLE
350
2BE
  3
DIMASSOC
350
2C4
  3
HIDETEXT
350
2C2
  3
INDEXCTL
350
2C1
  3
SOLIDHIST
350
2C5
  3
SORTENTS
350
2C0
  3
XCLIPFRAME
350
2C3
  0
DICTIONARY
  5
275
102
{ACAD_REACTORS
330
B
102
}
330
B
100
AcDbDictionary
281
     1
  3
AcmStdDictionary
350
276
  0
DICTIONARY
  5
266
102
{ACAD_REACTORS
330
B
102
}
330
B
100
AcDbDictionary
281
     1
  3
AcMgSettings
350
270
  0
DICTIONARY
  5
22
102
{ACAD_REACTORS
330
21
102
}
330
21
100
AcDbDictionary
281
     1
  0
XRECORD
  5
8
102
{ACAD_REACTORS
330
7
102
}
330
7
100
AcDbXrecord
280
     1
290
     1
  0
XRECORD
  5
C3
102
{ACAD_REACTORS
330
C2
102
}
330
C2
100
AcDbXrecord
280
     1
290
     1
  0
XRECORD
  5
140
102
{ACAD_REACTORS
330
13F
102
}
330
13F
100
AcDbXrecord
280
     1
290
     1
  0
XRECORD
  5
B8
102
{ACAD_REACTORS
330
B7
102
}
330
B7
100
AcDbXrecord
280
     1
290
     1
  0
XRECORD
  5
B2
102
{ACAD_REACTORS
330
B1
102
}
330
B1
100
AcDbXrecord
280
     1
290
     1
  0
SORTENTSTABLE
  5
264
102
{ACAD_REACTORS
330
3
102
}
330
3
100
AcDbSortentsTable
330
2
331
21F
  5
A7
331
1A5
  5
143
331
1A1
  5
155
331
21B
  5
AB
331
19D
  5
159
331
1DC
  5
E6
331
217
  5
AF
331
213
  5
BA
331
1D8
  5
F6
331
B5
  5
215
331
AD
  5
219
331
166
  5
178
331
A9
  5
21D
331
162
  5
17C
331
1D4
  5
FA
331
1D0
  5
10A
331
24A
  5
79
331
246
  5
7D
331
15E
  5
180
331
A5
  5
22D
331
E4
  5
1DE
331
15A
  5
190
331
156
  5
1A0
331
113
  5
1AC
331
23E
  5
83
331
181
  5
15D
331
1C0
  5
10C
331
23A
  5
A4
331
17D
  5
161
331
179
  5
165
331
95
  5
23B
331
D4
  5
1E2
331
10F
  5
1B0
331
10B
  5
1C1
331
D0
  5
1E6
331
146
  5
1A2
331
142
  5
1A6
331
175
  5
169
331
171
  5
16D
331
1B0
  5
10F
331
16D
  5
171
331
1AC
  5
113
331
1E7
  5
C0
331
169
  5
175
331
1A8
  5
13D
331
1E3
  5
D3
331
85
  5
23C
331
FB
  5
1D3
331
81
  5
240
331
C0
  5
1E7
331
BC
  5
211
331
F7
  5
1D7
331
7D
  5
246
331
79
  5
24A
331
1A4
  5
144
331
21E
  5
A8
331
1A0
  5
156
331
1DF
  5
E3
331
21A
  5
AC
331
1DB
  5
E7
331
216
  5
B4
331
212
  5
BB
331
12E
  5
1A9
331
B4
  5
216
331
AC
  5
21A
331
165
  5
179
331
161
  5
17D
331
A8
  5
21E
331
1D7
  5
F7
331
1D3
  5
FB
331
190
  5
15A
331
249
  5
7A
331
245
  5
7E
331
E7
  5
1DB
331
15D
  5
181
331
A4
  5
23A
331
E3
  5
1DF
331
159
  5
19D
331
155
  5
1A1
331
112
  5
1AD
331
23D
  5
84
331
180
  5
15E
331
1BF
  5
10D
331
17C
  5
162
331
178
  5
166
331
D3
  5
1E3
331
10E
  5
1BE
331
10A
  5
1D0
331
145
  5
1A3
331
141
  5
1A7
331
22D
  5
A5
331
174
  5
16A
331
170
  5
16E
331
1AF
  5
110
331
16C
  5
172
331
1AB
  5
114
331
1E6
  5
D0
331
168
  5
176
331
1E2
  5
D4
331
13D
  5
1A8
331
84
  5
23D
331
FA
  5
1D4
331
80
  5
243
331
BF
  5
1F4
331
BB
  5
212
331
F6
  5
1D8
331
7C
  5
247
331
78
  5
257
331
1A7
  5
141
331
1A3
  5
145
331
21D
  5
A9
331
19F
  5
157
331
1DE
  5
E4
331
219
  5
AD
331
1DA
  5
F4
331
215
  5
B5
331
211
  5
BC
331
AF
  5
217
331
AB
  5
21B
331
164
  5
17A
331
160
  5
17E
331
121
  5
1AA
331
1D6
  5
F8
331
1D2
  5
FC
331
18F
  5
15B
331
248
  5
7B
331
244
  5
7F
331
240
  5
81
331
A7
  5
21F
331
E6
  5
1DC
331
15C
  5
18E
331
E2
  5
1E0
331
158
  5
19E
331
111
  5
1AE
331
23C
  5
85
331
17F
  5
15F
331
1BE
  5
10E
331
17B
  5
163
331
1F5
  5
BE
331
D2
  5
1E4
331
10D
  5
1BF
331
144
  5
1A4
331
177
  5
167
331
173
  5
16B
331
1AE
  5
111
331
16B
  5
173
331
1AA
  5
121
331
1E5
  5
D1
331
1E1
  5
D5
331
220
  5
A6
331
83
  5
23E
331
FD
  5
1D1
331
BE
  5
1F5
331
F9
  5
1D5
331
7F
  5
244
331
BA
  5
213
331
F5
  5
1D9
331
7B
  5
248
331
1A6
  5
142
331
1A2
  5
146
331
21C
  5
AA
331
257
  5
78
331
19E
  5
158
331
1DD
  5
E5
331
218
  5
AE
331
214
  5
B9
331
1D9
  5
F5
331
167
  5
177
331
AE
  5
218
331
AA
  5
21C
331
163
  5
17B
331
1D5
  5
F9
331
1D1
  5
FD
331
247
  5
7C
331
18E
  5
15C
331
243
  5
80
331
204
  5
BD
331
15F
  5
17F
331
A6
  5
220
331
E5
  5
1DD
331
15B
  5
18F
331
157
  5
19F
331
114
  5
1AB
331
110
  5
1AF
331
23F
  5
82
331
1C1
  5
10B
331
23B
  5
95
331
17E
  5
160
331
17A
  5
164
331
1F4
  5
BF
331
D5
  5
1E1
331
10C
  5
1C0
331
D1
  5
1E5
331
143
  5
1A5
331
176
  5
168
331
172
  5
16C
331
16E
  5
170
331
1AD
  5
112
331
16A
  5
174
331
1A9
  5
12E
331
1E4
  5
D2
331
1E0
  5
E2
331
82
  5
23F
331
FC
  5
1D2
331
BD
  5
204
331
F8
  5
1D6
331
7E
  5
245
331
7A
  5
249
331
B9
  5
214
331
F4
  5
1DA
  0
XRECORD
  5
2D7
102
{ACAD_REACTORS
330
2D6
102
}
330
2D6
100
AcDbXrecord
280
     1
 40
10608.0
  1
\A1;%%c7x90°
  0
ACDBDETAILVIEWSTYLE
  5
290
102
{ACAD_XDICTIONARY
360
2D8
102
}
102
{ACAD_REACTORS
330
283
330
28F
102
}
330
283
100
AcDbModelDocViewStyle
 70
     0
  3
Imperial24
290
     0
100
AcDbDetailViewStyle
 70
     0
 71
     0
 90
        3
 71
     1
340
24
 40
0.24
340
0
 40
0.24
300

 40
0.36
280
     3
 71
     2
340
15
 90
       25
 71
     3
340
24
 40
0.24
 90
        1
 40
0.75
 90
        1
300
%<\AcVar ViewType \f "%tc1">% %<\AcVar ViewDetailId>%\PVARIA %<\AcVar ViewScale \f "%sn">%
 71
     4
340
15
 90
       25
340
15
 90
       25
280
     0
  0
LAYOUT
  5
1F
102
{ACAD_XDICTIONARY
360
2CB
102
}
102
{ACAD_REACTORS
330
18
102
}
330
18
100
AcDbPlotSettings
  1

  2
G:\VORLAGEN\AutoCAD2002\Plotten\A3hoch-MSL.pc3
  4

  6

 40
0.0
 41
0.0
 42
0.0
 43
0.0
 44
0.0
 45
0.0
 46
0.0
 47
0.0
 48
0.0
 49
0.0
140
0.0
141
0.0
142
1.0
143
1.0
 70
   688
 72
     0
 73
     0
 74
     5
  7
monochrome.ctb
 75
    16
147
1.0
148
0.0
149
0.0
100
AcDbLayout
  1
Layout1
 70
     1
 71
     1
 10
0.0
 20
0.0
 11
12.0
 21
9.0
 12
0.0
 22
0.0
 32
0.0
 14
1.000000000000000E+20
 24
1.000000000000000E+20
 34
1.000000000000000E+20
 15
-1.000000000000000E+20
 25
-1.000000000000000E+20
 35
-1.000000000000000E+20
146
0.0
 13
0.0
 23
0.0
 33
0.0
 16
1.0
 26
0.0
 36
0.0
 17
0.0
 27
1.0
 37
0.0
 76
     0
330
1C
  0
LAYOUT
  5
17
102
{ACAD_XDICTIONARY
360
19
102
}
102
{ACAD_REACTORS
330
18
102
}
330
18
100
AcDbPlotSettings
  1

  2
none_device
  4
Letter_(8.50_x_11.00_Inches)
  6

 40
6.349999904632568
 41
6.349999904632568
 42
6.350006103515625
 43
6.350006103515625
 44
215.8999938964844
 45
279.3999938964844
 46
0.0
 47
0.0
 48
0.0
 49
0.0
140
0.0
141
0.0
142
1.0
143
82.28440979494662
 70
 11952
 72
     0
 73
     1
 74
     0
  7
monochrome.ctb
 75
     0
147
0.0121529704410837
148
6575.047874265381
149
-132.6321956854201
100
AcDbLayout
  1
Model
 70
     1
 71
     0
 10
0.0
 20
0.0
 11
12.0
 21
9.0
 12
0.0
 22
0.0
 32
0.0
 14
0.0
 24
0.0
 34
0.0
 15
0.0
 25
0.0
 35
0.0
146
0.0
 13
0.0
 23
0.0
 33
0.0
 16
1.0
 26
0.0
 36
0.0
 17
0.0
 27
1.0
 37
0.0
 76
     0
330
2
331
2C
1001
ACAD_PSEXT
1000
Kein
1000
Kein
1000
Nicht anwendbar
1000
Das Layout wird erst geplottet, wenn ein neuer Plotter-Konfigurationsname ausgewählt wird.
1070
     0
  0
MATERIAL
  5
44
102
{ACAD_XDICTIONARY
360
45
102
}
102
{ACAD_REACTORS
330
D
102
}
330
D
100
AcDbMaterial
  1
ByBlock
 72
     0
 43
0.0208333333333333
 43
0.0
 43
0.0
 43
0.0
 43
0.0
 43
0.0208333333333333
 43
0.0
 43
0.0
 43
0.0
 43
0.0
 43
1.0
 43
0.0
 43
0.0
 43
0.0
 43
0.0
 43
1.0
 77
     0
 47
0.0208333333333333
 47
0.0
 47
0.0
 47
0.0
 47
0.0
 47
0.0208333333333333
 47
0.0
 47
0.0
 47
0.0
 47
0.0
 47
1.0
 47
0.0
 47
0.0
 47
0.0
 47
0.0
 47
1.0
171
     0
 49
0.0208333333333333
 49
0.0
 49
0.0
 49
0.0
 49
0.0
 49
0.0208333333333333
 49
0.0
 49
0.0
 49
0.0
 49
0.0
 49
1.0
 49
0.0
 49
0.0
 49
0.0
 49
0.0
 49
1.0
175
     0
142
0.0208333333333333
142
0.0
142
0.0
142
0.0
142
0.0
142
0.0208333333333333
142
0.0
142
0.0
142
0.0
142
0.0
142
1.0
142
0.0
142
0.0
142
0.0
142
0.0
142
1.0
179
     0
144
0.0208333333333333
144
0.0
144
0.0
144
0.0
144
0.0
144
0.0208333333333333
144
0.0
144
0.0
144
0.0
144
0.0
144
1.0
144
0.0
144
0.0
144
0.0
144
0.0
144
1.0
147
0.0208333333333333
147
0.0
147
0.0
147
0.0
147
0.0
147
0.0208333333333333
147
0.0
147
0.0
147
0.0
147
0.0
147
1.0
147
0.0
147
0.0
147
0.0
147
0.0
147
1.0
  0
MATERIAL
  5
3C
102
{ACAD_XDICTIONARY
360
3D
102
}
102
{ACAD_REACTORS
330
D
102
}
330
D
100
AcDbMaterial
  1
ByLayer
 72
     0
 43
0.0208333333333333
 43
0.0
 43
0.0
 43
0.0
 43
0.0
 43
0.0208333333333333
 43
0.0
 43
0.0
 43
0.0
 43
0.0
 43
1.0
 43
0.0
 43
0.0
 43
0.0
 43
0.0
 43
1.0
 77
     0
 47
0.0208333333333333
 47
0.0
 47
0.0
 47
0.0
 47
0.0
 47
0.0208333333333333
 47
0.0
 47
0.0
 47
0.0
 47
0.0
 47
1.0
 47
0.0
 47
0.0
 47
0.0
 47
0.0
 47
1.0
171
     0
 49
0.0208333333333333
 49
0.0
 49
0.0
 49
0.0
 49
0.0
 49
0.0208333333333333
 49
0.0
 49
0.0
 49
0.0
 49
0.0
 49
1.0
 49
0.0
 49
0.0
 49
0.0
 49
0.0
 49
1.0
175
     0
142
0.0208333333333333
142
0.0
142
0.0
142
0.0
142
0.0
142
0.0208333333333333
142
0.0
142
0.0
142
0.0
142
0.0
142
1.0
142
0.0
142
0.0
142
0.0
142
0.0
142
1.0
179
     0
144
0.0208333333333333
144
0.0
144
0.0
144
0.0
144
0.0
144
0.0208333333333333
144
0.0
144
0.0
144
0.0
144
0.0
144
1.0
144
0.0
144
0.0
144
0.0
144
0.0
144
1.0
147
0.0208333333333333
147
0.0
147
0.0
147
0.0
147
0.0
147
0.0208333333333333
147
0.0
147
0.0
147
0.0
147
0.0
147
1.0
147
0.0
147
0.0
147
0.0
147
0.0
147
1.0
  0
MATERIAL
  5
C
102
{ACAD_XDICTIONARY
360
E
102
}
102
{ACAD_REACTORS
330
D
102
}
330
D
100
AcDbMaterial
  1
Global
 72
     0
 43
0.0208333333333333
 43
0.0
 43
0.0
 43
0.0
 43
0.0
 43
0.0208333333333333
 43
0.0
 43
0.0
 43
0.0
 43
0.0
 43
1.0
 43
0.0
 43
0.0
 43
0.0
 43
0.0
 43
1.0
 77
     0
 47
0.0208333333333333
 47
0.0
 47
0.0
 47
0.0
 47
0.0
 47
0.0208333333333333
 47
0.0
 47
0.0
 47
0.0
 47
0.0
 47
1.0
 47
0.0
 47
0.0
 47
0.0
 47
0.0
 47
1.0
171
     0
 49
0.0208333333333333
 49
0.0
 49
0.0
 49
0.0
 49
0.0
 49
0.0208333333333333
 49
0.0
 49
0.0
 49
0.0
 49
0.0
 49
1.0
 49
0.0
 49
0.0
 49
0.0
 49
0.0
 49
1.0
175
     0
142
0.0208333333333333
142
0.0
142
0.0
142
0.0
142
0.0
142
0.0208333333333333
142
0.0
142
0.0
142
0.0
142
0.0
142
1.0
142
0.0
142
0.0
142
0.0
142
0.0
142
1.0
179
     0
144
0.0208333333333333
144
0.0
144
0.0
144
0.0
144
0.0
144
0.0208333333333333
144
0.0
144
0.0
144
0.0
144
0.0
144
1.0
144
0.0
144
0.0
144
0.0
144
0.0
144
1.0
147
0.0208333333333333
147
0.0
147
0.0
147
0.0
147
0.0
147
0.0208333333333333
147
0.0
147
0.0
147
0.0
147
0.0
147
1.0
147
0.0
147
0.0
147
0.0
147
0.0
147
1.0
  0
MLINESTYLE
  5
52
102
{ACAD_REACTORS
330
3A
102
}
330
3A
100
AcDbMlineStyle
  2
STANDARD
 70
     0
  3

 62
     0
 51
90.0
 52
90.0
 71
     2
 49
0.5
 62
   256
  6
BYLAYER
 49
-0.5
 62
   256
  6
BYLAYER
  0
ACDBPLACEHOLDER
  5
9
102
{ACAD_REACTORS
330
A
102
}
330
A
  0
SCALE
  5
57
102
{ACAD_REACTORS
330
4D
102
}
330
4D
100
AcDbScale
 70
     0
300
1:1
140
1.0
141
1.0
290
     1
  0
SCALE
  5
58
102
{ACAD_REACTORS
330
4D
102
}
330
4D
100
AcDbScale
 70
     0
300
1:2
140
1.0
141
2.0
290
     0
  0
SCALE
  5
59
102
{ACAD_REACTORS
330
4D
102
}
330
4D
100
AcDbScale
 70
     0
300
1:4
140
1.0
141
4.0
290
     0
  0
SCALE
  5
5A
102
{ACAD_REACTORS
330
4D
102
}
330
4D
100
AcDbScale
 70
     0
300
1:5
140
1.0
141
5.0
290
     0
  0
SCALE
  5
5B
102
{ACAD_REACTORS
330
4D
102
}
330
4D
100
AcDbScale
 70
     0
300
1:8
140
1.0
141
8.0
290
     0
  0
SCALE
  5
5C
102
{ACAD_REACTORS
330
4D
102
}
330
4D
100
AcDbScale
 70
     0
300
1:10
140
1.0
141
10.0
290
     0
  0
SCALE
  5
5D
102
{ACAD_REACTORS
330
4D
102
}
330
4D
100
AcDbScale
 70
     0
300
1:16
140
1.0
141
16.0
290
     0
  0
SCALE
  5
5E
102
{ACAD_REACTORS
330
4D
102
}
330
4D
100
AcDbScale
 70
     0
300
1:20
140
1.0
141
20.0
290
     0
  0
SCALE
  5
5F
102
{ACAD_REACTORS
330
4D
102
}
330
4D
100
AcDbScale
 70
     0
300
1:30
140
1.0
141
30.0
290
     0
  0
SCALE
  5
60
102
{ACAD_REACTORS
330
4D
102
}
330
4D
100
AcDbScale
 70
     0
300
1:40
140
1.0
141
40.0
290
     0
  0
SCALE
  5
61
102
{ACAD_REACTORS
330
4D
102
}
330
4D
100
AcDbScale
 70
     0
300
1:50
140
1.0
141
50.0
290
     0
  0
SCALE
  5
62
102
{ACAD_REACTORS
330
4D
102
}
330
4D
100
AcDbScale
 70
     0
300
1:100
140
1.0
141
100.0
290
     0
  0
SCALE
  5
63
102
{ACAD_REACTORS
330
4D
102
}
330
4D
100
AcDbScale
 70
     0
300
2:1
140
2.0
141
1.0
290
     0
  0
SCALE
  5
64
102
{ACAD_REACTORS
330
4D
102
}
330
4D
100
AcDbScale
 70
     0
300
4:1
140
4.0
141
1.0
290
     0
  0
SCALE
  5
65
102
{ACAD_REACTORS
330
4D
102
}
330
4D
100
AcDbScale
 70
     0
300
8:1
140
8.0
141
1.0
290
     0
  0
SCALE
  5
66
102
{ACAD_REACTORS
330
4D
102
}
330
4D
100
AcDbScale
 70
     0
300
10:1
140
10.0
141
1.0
290
     0
  0
SCALE
  5
67
102
{ACAD_REACTORS
330
4D
102
}
330
4D
100
AcDbScale
 70
     0
300
100:1
140
100.0
141
1.0
290
     0
  0
SCALE
  5
68
102
{ACAD_REACTORS
330
4D
102
}
330
4D
100
AcDbScale
 70
     0
300
1/128" = 1'-0"
140
0.0078125
141
12.0
290
     0
  0
SCALE
  5
69
102
{ACAD_REACTORS
330
4D
102
}
330
4D
100
AcDbScale
 70
     0
300
1/64" = 1'-0"
140
0.015625
141
12.0
290
     0
  0
SCALE
  5
6A
102
{ACAD_REACTORS
330
4D
102
}
330
4D
100
AcDbScale
 70
     0
300
1/32" = 1'-0"
140
0.03125
141
12.0
290
     0
  0
SCALE
  5
6B
102
{ACAD_REACTORS
330
4D
102
}
330
4D
100
AcDbScale
 70
     0
300
1/16" = 1'-0"
140
0.0625
141
12.0
290
     0
  0
SCALE
  5
6C
102
{ACAD_REACTORS
330
4D
102
}
330
4D
100
AcDbScale
 70
     0
300
3/32" = 1'-0"
140
0.09375
141
12.0
290
     0
  0
SCALE
  5
6D
102
{ACAD_REACTORS
330
4D
102
}
330
4D
100
AcDbScale
 70
     0
300
1/8" = 1'-0"
140
0.125
141
12.0
290
     0
  0
SCALE
  5
6E
102
{ACAD_REACTORS
330
4D
102
}
330
4D
100
AcDbScale
 70
     0
300
3/16" = 1'-0"
140
0.1875
141
12.0
290
     0
  0
SCALE
  5
6F
102
{ACAD_REACTORS
330
4D
102
}
330
4D
100
AcDbScale
 70
     0
300
1/4" = 1'-0"
140
0.25
141
12.0
290
     0
  0
SCALE
  5
70
102
{ACAD_REACTORS
330
4D
102
}
330
4D
100
AcDbScale
 70
     0
300
3/8" = 1'-0"
140
0.375
141
12.0
290
     0
  0
SCALE
  5
71
102
{ACAD_REACTORS
330
4D
102
}
330
4D
100
AcDbScale
 70
     0
300
1/2" = 1'-0"
140
0.5
141
12.0
290
     0
  0
SCALE
  5
72
102
{ACAD_REACTORS
330
4D
102
}
330
4D
100
AcDbScale
 70
     0
300
3/4" = 1'-0"
140
0.75
141
12.0
290
     0
  0
SCALE
  5
73
102
{ACAD_REACTORS
330
4D
102
}
330
4D
100
AcDbScale
 70
     0
300
1" = 1'-0"
140
1.0
141
12.0
290
     0
  0
SCALE
  5
74
102
{ACAD_REACTORS
330
4D
102
}
330
4D
100
AcDbScale
 70
     0
300
1-1/2" = 1'-0"
140
1.5
141
12.0
290
     0
  0
SCALE
  5
75
102
{ACAD_REACTORS
330
4D
102
}
330
4D
100
AcDbScale
 70
     0
300
3" = 1'-0"
140
3.0
141
12.0
290
     0
  0
SCALE
  5
76
102
{ACAD_REACTORS
330
4D
102
}
330
4D
100
AcDbScale
 70
     0
300
6" = 1'-0"
140
6.0
141
12.0
290
     0
  0
SCALE
  5
77
102
{ACAD_REACTORS
330
4D
102
}
330
4D
100
AcDbScale
 70
     0
300
1'-0" = 1'-0"
140
12.0
141
12.0
290
     0
  0
ACDBSECTIONVIEWSTYLE
  5
29B
102
{ACAD_XDICTIONARY
360
2DA
102
}
102
{ACAD_REACTORS
330
293
330
29A
102
}
330
293
100
AcDbModelDocViewStyle
 70
     0
  3
Imperial24
290
     0
100
AcDbSectionViewStyle
 70
     0
 71
     0
 90
       78
 71
     1
340
24
 40
0.24
340
0
340
0
 40
0.24
300
I, O, Q, S, X, Z
 40
0.48
 90
        3
 40
0.18
 90
        1
 71
     2
340
15
 90
       25
340
15
 90
       50
 40
0.24
 40
0.0
 40
0.24
 71
     3
340
24
 40
0.24
 90
        1
 40
0.75
 90
        1
300
%<\AcVar ViewType \f "%tc1">% %<\AcVar ViewSectionStartId>%-%<\AcVar ViewSectionEndId>%\PVARIA %<\AcVar ViewScale \f "%sn">%
 71
     4
300
ANSI31
 40
1.0
 90
        0
290
     0
290
     0
 90
        6
 40
0.0
 40
1.570796326794896
 40
0.2617993877991494
 40
1.308996938995747
 40
-0.2617993877991494
 40
1.832595714594046
  0
TABLESTYLE
  5
53
102
{ACAD_XDICTIONARY
360
54
102
}
102
{ACAD_REACTORS
330
4E
102
}
330
4E
100
AcDbTableStyle
  3
Standard
 70
     0
 71
     0
 40
0.06
 41
0.06
280
     0
281
     0
  7
STANDARD
140
0.18
170
     2
 62
     0
 63
     7
283
     0
274
    -2
284
     1
 64
     0
275
    -2
285
     1
 65
     0
276
    -2
286
     1
 66
     0
277
    -2
287
     1
 67
     0
278
    -2
288
     1
 68
     0
279
    -2
289
     1
 69
     0
  7
STANDARD
140
0.25
170
     5
 62
     0
 63
     7
283
     0
274
    -2
284
     1
 64
     0
275
    -2
285
     1
 65
     0
276
    -2
286
     1
 66
     0
277
    -2
287
     1
 67
     0
278
    -2
288
     1
 68
     0
279
    -2
289
     1
 69
     0
  7
STANDARD
140
0.18
170
     5
 62
     0
 63
     7
283
     0
274
    -2
284
     1
 64
     0
275
    -2
285
     1
 65
     0
276
    -2
286
     1
 66
     0
277
    -2
287
     1
 67
     0
278
    -2
288
     1
 68
     0
279
    -2
289
     1
 69
     0
  0
VISUALSTYLE
  5
2D
102
{ACAD_XDICTIONARY
360
2CD
102
}
102
{ACAD_REACTORS
330
2E
102
}
330
2E
100
AcDbVisualStyle
  2
2dWireframe
 70
     4
 71
     0
 72
     2
 73
     0
 90
        0
 40
-0.6
 41
-30.0
 62
     5
 63
     7
 74
     1
 91
        4
 64
     7
 65
   257
 75
     1
175
     1
 42
1.0
 92
        0
 66
   257
 43
1.0
 76
     1
 77
     6
 78
     2
 67
     7
 79
     5
170
     0
171
     0
290
     0
174
     0
 93
        1
 44
0.0
173
     0
291
     0
 45
0.0
1001
ACAD
1000
AcDbSavedByObjectVersion
1070
     0
  0
VISUALSTYLE
  5
55
102
{ACAD_XDICTIONARY
360
2D2
102
}
102
{ACAD_REACTORS
330
2E
102
}
330
2E
100
AcDbVisualStyle
  2
Realistic
 70
     8
 71
     2
 72
     2
 73
     0
 90
        0
 40
-0.6
 41
-30.0
 62
     5
 63
     7
 74
     1
 91
        0
 64
     7
 65
   257
 75
     1
175
     1
 42
1.0
 92
        8
 66
     8
 43
1.0
 76
     1
 77
     6
 78
     2
 67
     7
 79
     5
170
     0
171
     0
290
     0
174
     0
 93
       13
 44
0.0
173
     0
291
     0
 45
0.0
1001
ACAD
1000
AcDbSavedByObjectVersion
1070
     0
  0
VISUALSTYLE
  5
56
102
{ACAD_XDICTIONARY
360
2D4
102
}
102
{ACAD_REACTORS
330
2E
102
}
330
2E
100
AcDbVisualStyle
  2
Wireframe
 70
     5
 71
     0
 72
     2
 73
     0
 90
        0
 40
-0.6
 41
-30.0
 62
     5
 63
     7
 74
     1
 91
        4
 64
     7
 65
   257
 75
     1
175
     1
 42
1.0
 92
        0
 66
   257
 43
1.0
 76
     1
 77
     6
 78
     2
 67
     7
 79
     3
170
     0
171
     0
290
     0
174
     0
 93
        1
 44
0.0
173
     0
291
     0
 45
0.0
1001
ACAD
1000
AcDbSavedByObjectVersion
1070
     0
  0
DICTIONARYVAR
  5
2BF
102
{ACAD_REACTORS
330
2BA
102
}
330
2BA
100
DictionaryVariables
280
     0
  1
1:1
  0
DICTIONARYVAR
  5
2BC
102
{ACAD_REACTORS
330
2BA
102
}
330
2BA
100
DictionaryVariables
280
     0
  1
STANDARD
  0
DICTIONARYVAR
  5
2BB
102
{ACAD_REACTORS
330
2BA
102
}
330
2BA
100
DictionaryVariables
280
     0
  1
STANDARD
  0
DICTIONARYVAR
  5
2BD
102
{ACAD_REACTORS
330
2BA
102
}
330
2BA
100
DictionaryVariables
280
     0
  1

  0
DICTIONARYVAR
  5
2BE
102
{ACAD_REACTORS
330
2BA
102
}
330
2BA
100
DictionaryVariables
280
     0
  1

  0
DICTIONARYVAR
  5
2C4
102
{ACAD_REACTORS
330
2BA
102
}
330
2BA
100
DictionaryVariables
280
     0
  1
1
  0
DICTIONARYVAR
  5
2C2
102
{ACAD_REACTORS
330
2BA
102
}
330
2BA
100
DictionaryVariables
280
     0
  1
1
  0
DICTIONARYVAR
  5
2C1
102
{ACAD_REACTORS
330
2BA
102
}
330
2BA
100
DictionaryVariables
280
     0
  1
0
  0
DICTIONARYVAR
  5
2C5
102
{ACAD_REACTORS
330
2BA
102
}
330
2BA
100
DictionaryVariables
280
     0
  1
1
  0
DICTIONARYVAR
  5
2C0
102
{ACAD_REACTORS
330
2BA
102
}
330
2BA
100
DictionaryVariables
280
     0
  1
127
  0
DICTIONARYVAR
  5
2C3
102
{ACAD_REACTORS
330
2BA
102
}
330
2BA
100
DictionaryVariables
280
     0
  1
0
  0
DICTIONARY
  5
276
102
{ACAD_REACTORS
330
275
102
}
330
275
100
AcDbDictionary
281
     1
  0
DICTIONARY
  5
270
102
{ACAD_REACTORS
330
266
102
}
330
266
100
AcDbDictionary
281
     1
  3
DWGSETTINGS
350
26F
  3
TRANSSETTINGS
350
271
  0
DICTIONARY
  5
2D8
330
290
100
AcDbDictionary
280
     1
281
     1
  3
ACAD_XREC_ROUNDTRIP
360
2D9
  0
DICTIONARY
  5
2CB
330
1F
100
AcDbDictionary
280
     1
281
     1
  3
ACAD_XREC_ROUNDTRIP
360
2CC
  0
DICTIONARY
  5
19
330
17
100
AcDbDictionary
280
     1
281
     1
  3
ACAD_XREC_ROUNDTRIP
360
2CA
  3
ADSK_XREC_LAYOUTTHUMBNAIL
360
1A
  0
DICTIONARY
  5
45
330
44
100
AcDbDictionary
280
     1
281
     1
  3
ACAD_XREC_ROUNDTRIP
360
2D0
  3
BUMPTILE
360
46
  3
DIFFUSETILE
360
47
  3
OPACITYTILE
360
48
  3
REFLECTIONTILE
360
49
  3
REFRACTIONTILE
360
4A
  3
SPECULARTILE
360
4B
  0
DICTIONARY
  5
3D
330
3C
100
AcDbDictionary
280
     1
281
     1
  3
ACAD_XREC_ROUNDTRIP
360
2CF
  3
BUMPTILE
360
3E
  3
DIFFUSETILE
360
3F
  3
OPACITYTILE
360
40
  3
REFLECTIONTILE
360
41
  3
REFRACTIONTILE
360
42
  3
SPECULARTILE
360
43
  0
DICTIONARY
  5
E
330
C
100
AcDbDictionary
280
     1
281
     1
  3
ACAD_XREC_ROUNDTRIP
360
2C9
  3
BUMPTILE
360
F
  3
DIFFUSETILE
360
10
  3
OPACITYTILE
360
11
  3
REFLECTIONTILE
360
12
  3
REFRACTIONTILE
360
13
  3
SPECULARTILE
360
14
  0
DICTIONARY
  5
2DA
330
29B
100
AcDbDictionary
280
     1
281
     1
  3
ACAD_XREC_ROUNDTRIP
360
2DB
  0
DICTIONARY
  5
54
330
53
100
AcDbDictionary
280
     1
281
     1
  3
ACAD_ROUNDTRIP_2008_TABLESTYLE_CELLSTYLEMAP
360
2C6
  3
ACAD_XREC_ROUNDTRIP
360
2D1
  0
DICTIONARY
  5
2CD
330
2D
100
AcDbDictionary
280
     1
281
     1
  3
ACAD_XREC_ROUNDTRIP
360
2CE
  0
DICTIONARY
  5
2D2
330
55
100
AcDbDictionary
280
     1
281
     1
  3
ACAD_XREC_ROUNDTRIP
360
2D3
  0
DICTIONARY
  5
2D4
330
56
100
AcDbDictionary
280
     1
281
     1
  3
ACAD_XREC_ROUNDTRIP
360
2D5
  0
XRECORD
  5
2D9
102
{ACAD_REACTORS
330
2D8
102
}
330
2D8
100
AcDbXrecord
280
     1
102
DISPLAYNAME
  1
Imperial24
102
FLAGS
 90
        0
  0
XRECORD
  5
2CC
102
{ACAD_REACTORS
330
2CB
102
}
330
2CB
100
AcDbXrecord
280
     1
102
SHADEPLOT
 70
     0
102
SHADEPLOTRESLEVEL
 70
     2
102
SHADEPLOTCUSTOMDPI
 70
   300
  0
XRECORD
  5
2CA
102
{ACAD_REACTORS
330
19
102
}
330
19
100
AcDbXrecord
280
     1
102
SHADEPLOT
 70
     0
102
SHADEPLOTRESLEVEL
 70
     2
102
SHADEPLOTCUSTOMDPI
 70
   300
  0
XRECORD
  5
1A
102
{ACAD_REACTORS
330
19
102
}
330
19
100
AcDbXrecord
280
     1
310
280000000001000097000000010008000000000000970000000000000000000000010000000000000000000000000000FFFFFF000000000000000000000000000000000000000000000000000000000000000000330000006600000099000000CC000000FF00000000330000333300006633000099330000CC330000FF3300
310
0000660000336600006666000099660000CC660000FF66000000990000339900006699000099990000CC990000FF99000000CC000033CC000066CC000099CC0000CCCC0000FFCC000000FF000033FF000066FF000099FF0000CCFF0000FFFF000000003300330033006600330099003300CC003300FF003300003333003333
310
33006633330099333300CC333300FF33330000663300336633006666330099663300CC663300FF66330000993300339933006699330099993300CC993300FF99330000CC330033CC330066CC330099CC3300CCCC3300FFCC330000FF330033FF330066FF330099FF3300CCFF3300FFFF330000006600330066006600660099
310
006600CC006600FF00660000336600333366006633660099336600CC336600FF33660000666600336666006666660099666600CC666600FF66660000996600339966006699660099996600CC996600FF99660000CC660033CC660066CC660099CC6600CCCC6600FFCC660000FF660033FF660066FF660099FF6600CCFF6600
310
FFFF660000009900330099006600990099009900CC009900FF00990000339900333399006633990099339900CC339900FF33990000669900336699006666990099669900CC669900FF66990000999900339999006699990099999900CC999900FF99990000CC990033CC990066CC990099CC9900CCCC9900FFCC990000FF99
310
0033FF990066FF990099FF9900CCFF9900FFFF99000000CC003300CC006600CC009900CC00CC00CC00FF00CC000033CC003333CC006633CC009933CC00CC33CC00FF33CC000066CC003366CC006666CC009966CC00CC66CC00FF66CC000099CC003399CC006699CC009999CC00CC99CC00FF99CC0000CCCC0033CCCC0066CC
310
CC0099CCCC00CCCCCC00FFCCCC0000FFCC0033FFCC0066FFCC0099FFCC00CCFFCC00FFFFCC000000FF003300FF006600FF009900FF00CC00FF00FF00FF000033FF003333FF006633FF009933FF00CC33FF00FF33FF000066FF003366FF006666FF009966FF00CC66FF00FF66FF000099FF003399FF006699FF009999FF00CC
310
99FF00FF99FF0000CCFF0033CCFF0066CCFF0099CCFF00CCCCFF00FFCCFF0000FFFF0033FFFF0066FFFF0099FFFF00CCFFFF00FFFFFF00000000000D0D0D001A1A1A00282828003535350043434300505050005D5D5D006B6B6B00787878008686860093939300A1A1A100AEAEAE00BBBBBB00C9C9C900D6D6D600E4E4E400
310
F1F1F100FFFFFF00000000000000000000000000000000000000000000000000000000000000000000000000000000000000000000000000000000000000000000000000000000000000000000000000000000000000000000000000000000000000000000C300000000000000000000000000000000002D002D000000002D
310
00000000002D000000000000002D2D000000000000282828DC0000000000000000DC0000000000000000000000000000000000000000000000000000000000000000DC000000000000002D002D000000BE000000002D2D0000000000000000DC00000000000000000000000000000000000000000000000000000000000000
310
000000000000000000000000000000C3000000000000000000000000000000000000000000000000000000000000000000000000000000000000000000000000000000000000000000000000000000000000000000000000000000000000000000000000000000C300000000000000000000000000000000002D002D000000
310
002D0000000000BEBEBEBE00BEBEBEBE2D000000000000000000DC0000000000000000DC0000000000000000000000000000000000000000000000000000000000000000DC000000000000002DBEBEBEBEBEBEBE00BE2D2DBE0000000000000000DC0000000000000000000000000000000000000000000000000000000000
310
0000000000000000000000000000000000C3000000000000000000000000000000000000000000000000000000000000000000000000000000000000000000000000000000000000000000000000000000000000000000000000000000000000000000000000000000C300000000000000000000000000000000002D002D00
310
0000002D00000000002D00000000000000BE2D000000000000000000DC0000000000000000DC0000000000000000000000000000000000000000000000000000000000000000DC000000000000002D002D000000BE0000002D002D0000000000000000DC000000000000000000000000000000000000000000000000000000
310
00000000000000000000000000000000000000C3000000000000000000000000000000000000000000000000000000000000000000000000000000000000000000000000000000000000000000000000000000000000000000000000000000000000000000000000000000C300000000000000000000000000000000002D00
310
2D000000002D00000000002D2D2D2D2D2D2D2DBE2D000000000000000000DC0000000000000000DC0000000000000000000000000000000000000000000000000000000000000000DC000000000000002D002D2D0000BE0000002D002D0000000000000000DC00000000000000000000000000000000000000000000000000
310
000000000000000000000000000000000000000000C3000000000000000000000000000000000000000000000000000000000000000000000000000000000000000000000000000000000000000000000000000000000000000000000000000000000000000000000000000000C30000000000000000000000000000000000
310
2D002D000000002D00000000002D00000000000000BE2D000000000000000000DC0000000000000000DC0000000000000000000000000000000000000000000000000000000000000000DC000000000000002D00002D0000BE00002D2D002D0000000000000000DC0000000000000000000000000000000000000000000000
310
0000000000000000000000000000000000000000000000C3000000000000000000000000000000000000000000000000000000000000000000000000000000000000000000000000000000000000000000000000000000000000000000000000000000000000000000000000000000C3000000000000000000000000000000
310
00002D002D2D2D2D2D2D00000000002D00000000000000BE2D000000000000000000DC0000000000000000DC0000000000000000000000000000000000000000000000000000000000000000DC000000000000002D0000002D2DBE002D2D00002D0000000000000000DC000000000000000000000000000000000000000000
310
00000000000000000000000000000000000000000000000000C3000000000000000000000000000000000000000000000000000000000000000000000000000000000000000000000000000000000000000000000000000000000000000000000000000000000000000000000000000000C300000000000000000000000000
310
000000002D002D2D2D2D2D2D00000000002D00000000000000002D000000000000000000DC0000000000000000DC0000000000000000000000000000000000000000000000000000000000000000DC000000000000002D000000002DBE002D0000002D0000000000000000DC00000000000000000000000000000000000000
310
000000000000000000000000000000000000000000000000000000C3000000000000000000000000000000000000000000000000000000000000000000000000000000000000000000000000000000000000000000000000000000000000000000000000000000000000000000000000000000C30000000000000000000000
310
0000000000002D002D000000002D00000000002D00000000000000BE2D000000000000000000DC0000000000000000DC0000000000000000000000000000000000000000000000000000000000000000DC000000000000002D000000002D00002D0000002D0000000000000000DC0000000000000000000000000000000000
310
0000000000000000000000000000000000000000000000000000000000C3000000000000000000000000000000000000000000000000000000000000000000000000000000000000000000000000000000000000000000000000000000000000000000000000000000000000000000000000000000C3000000000000000000
310
00000000000000002D002D000000002D00000000002D00000000000000BE2D000000000000000000DCDC00000000000000DCDC00000000000000000000000000000000000000000000000000000000000000DC000000000000002D000000002D00002D0000002D0000000000000000DC000000000000000000000000000000
310
00000000000000000000000000000000000000000000000000000000000000C3000000000000000000000000000000000000000000000000000000000000000000000000000000000000000000000000000000000000000000000000000000000000000000000000000000000000000000000000000000C300000000000000
310
000000000000000000002D002D000000002D00000000002D2D2D2D2D2D2D2DBE2D000000000000000000DCDC00000000000000DCDC00000000000000000000000000000000000000000000000000000000000000DC000000000000002D000000002D00002D0000002D0000000000000000DC00000000000000000000000000
310
000000000000000000000000000000000000000000000000000000000000000000C3000000000000000000000000000000000000000000000000000000000000000000000000000000000000000000000000000000000000000000000000000000000000000000000000000000000000000000000000000000C30000000000
310
0000000000000000000000002D002D000000002D0000000000000000000000002DBE00000000000000000000DC0000000000000000DC0000000000000000000000000000000000000000000000000000000000000000DC000000000000002D000000002D00002D0000002D0000000000000000DC0000000000000000000000
310
0000000000000000000000000000000000000000000000000000000000000000000000C3000000000000000000000000000000000000000000000000000000000000000000000000000000000000000000000000000000000000000000000000000000000000000000000000000000000000000000000000000000C3000000
310
00000000000000000000000000002D002D2D2D2D2D2D2D2D2D2D2D2D2D2D2D2D2D2D2DBE2D2DDCDCDCDCDCDCDCDCDCDCDCDCDCDCDCDCDCDCDC00000000000000000000000000000000000000000000000000000000000000DC000000000000002D000000002D00002D0000002D0000000000000000DC000000000000000000
310
00000000000000000000000000000000000000000000000000000000000000000000000000C3000000000000000000000000000000000000000000000000000000000000000000000000000000000000000000000000000000000000000000000000000000000000000000000000000000000000000000000000000000C300
310
000000000000000000000000000000002D002D00000000000000000000000000000000000000002D2D00000000000000000000000000000000DCDC00000000000000000000000000000000000000000000000000000000000000DC000000000000002D000000002D00002D0000002D0000000000000000DC00000000000000
310
000000000000000000000000000000000000000000000000000000000000000000000000000000C3000000000000000000000000000000000000000000000000000000000000000000000000000000000000000000000000000000000000000000000000000000000000000000000000000000000000000000000000000000
310
C300000000000000000000000000000000002D002D00000000000000000000000000000000000000002D2D00000000000000000000000000000000DCDC00000000000000000000000000000000000000000000000000000000000000DC000000000000002D000000002D00002D0000002D0000000000000000DC0000000000
310
0000000000000000000000000000000000000000000000000000000000000000000000000000000000C300000000000000000000000000000000000000000000000000000000000000000000000000000000000000000000000000000000000000000000000000000000000000000000000000000000000000000000000000
310
0000C300000000000000000000000000000000002D002D00000000000000000000000000000000000000002D2D00000000000000000000000000000000DC0000000000000000000000000000000000000000000000000000000000000000DC000000000000002D000000002D00002D0000002D0000000000000000DC000000
310
00000000000000000000000000000000000000000000000000000000000000000000000000000000000000C30000000000000000000000000000000000000000000000000000000000000000000000000000000000000000000000000000000000000000000000000000000000000000000000000000000000000000000000
310
00000000C300000000000000000000000000000000002D002D00000000000000000000000000000000000000002D2D00000000000000000000000000000000DC0000000000000000000000000000000000000000000000000000000000000000DC000000000000002D000000002D00002D0000002D0000000000000000DC00
310
000000000000000000000000000000000000000000000000000000000000000000000000000000000000000000C3000000000000000000000000000000000000000000000000000000000000000000000000000000000000000000000000000000000000000000000000000000000000000000000000000000000000000000
310
000000000000C300000000000000000000000000000000002D002D00000000000000000000000000000000000000002D2D00000000000000000000000000000000DC0000000000000000000000000000000000000000000000000000000000000000DC000000000000002D000000002D00002D0000002D0000000000000000
310
DC00000000000000000000000000000000000000000000000000000000000000000000000000000000000000000000C300000000000000000000000000000000000000000000000000000000000000000000000000000000000000000000000000000000000000000000000000000000000000000000000000000000000000
310
0000000000000000C300000000000000000000000000000000002D002D00000000000000000000000000000000000000002D2D00000000000000000000000000000000DC0000000000000000000000000000000000000000000000000000000000000000DC000000000000002D000000002D00002D0000002D000000000000
310
0000DC00000000000000000000000000000000000000000000000000000000000000000000000000000000000000000000C30000000000000000000000000000000000000000000000000000000000000000000000000000000000000000000000000000000000000000000000000000000000000000000000000000000000
310
00000000000000000000C300000000000000000000000000000000002D002D00000000000000000000000000000000000000002D2D00000000000000000000000000000000DC0000000000000000000000000000000000000000000000000000000000000000DC000000000000002D000000002D00002D2D2D2D2D00000000
310
00000000DC00000000000000000000000000000000000000000000000000000000000000000000000000000000000000000000C3000000000000000000000000000000000000000000000000000000000000000000000000000000000000000000000000000000000000000000000000000000000000000000000000000000
310
000000000000000000000000C300000000000000000000000000000000002D002D00000000000000000000000000000000000000002D2D00000000000000000000000000000000DC0000000000000000000000000000000000000000000000000000000000000000DC000000000000002D000000002D00002D002D2D2D0000
310
000000000000DC00000000000000000000000000000000000000000000000000000000000000000000000000000000000000000000C300000000000000000000000000000000000000000000000000000000000000000000000000000000000000000000000000000000000000000000000000000000000000000000000000
310
0000000000000000000000000000C300000000000000000000000000000000002D002D00000000000000000000000000000000000000002D2D00000000000000000000000000000000DC0000000000000000000000000000000000000000000000000000000000000000DC000000000000002D000000002D00002D002D2D2D
310
0000000000000000DC00000000000000000000000000000000000000000000000000000000000000000000000000000000000000000000C30000000000000000000000000000000000000000000000000000000000000000000000000000000000000000000000000000000000000000000000000000000000000000000000
310
00000000000000000000000000000000C300000000000000000000000000000000002D002D00000000000000000000000000000000000000002D2D00000000000000000000000000000000DC0000000000000000000000000000000000000000000000000000000000000000DC000000000000002D000000002D00002D002D
310
2D2D0000000000000000DC00000000000000000000000000000000000000000000000000000000000000000000000000000000000000000000C3000000000000000000000000000000000000000000000000000000000000000000000000000000000000000000000000000000000000000000000000000000000000000000
310
000000000000000000000000000000000000C300000000000000000000000000000000002D002D00000000000000000000000000000000000000002D2D00000000000000000000000000000000DC0000000000000000000000000000000000000000000000000000000000000000DC000000000000002D000000002D00002D
310
002D2D2D0000000000000000DC00000000000000000000000000000000000000000000000000000000000000000000000000000000000000000000C300000000000000000000000000000000000000000000000000000000000000000000000000000000000000000000000000000000000000000000000000000000000000
310
0000000000000000000000000000000000000000C300000000000000000000000000000000002D002D00000000000000000000000000000000000000002D2D00000000000000000000000000000000DC0000000000000000000000000000000000000000000000000000000000000000DC000000000000002D000000002D00
310
002D002D2D2D0000000000000000DC00000000000000000000000000000000000000000000000000000000000000000000000000000000000000000000C30000000000000000000000000000000000000000000000000000000000000000000000000000000000000000000000000000000000000000000000000000000000
310
00000000000000000000000000000000000000000000C300000000000000000000000000000000002D002D00000000000000000000000000000000000000002D2D00000000000000000000000000000000DC0000000000000000000000000000000000000000000000000000000000000000DC000000000000002D00000000
310
2D00002D002D2D2D0000000000000000DC00000000000000000000000000000000000000000000000000000000000000000000000000000000000000000000C3000000000000000000000000000000000000000000000000000000000000000000000000000000000000000000000000000000000000000000000000000000
310
000000000000000000000000000000000000000000000000C300000000000000000000000000000000002D002D00000000000000000000000000000000000000002D2D00000000000000000000000000000000DC0000000000000000000000000000000000000000000000000000000000000000DC000000000000002D0000
310
00002D00002D002D2D2D0000000000000000DC000000000000000000C3C3C3C3C3C3C3C3C3C3C3C3C3C3C3C3C3C3C3C32DC3C328C3C3C328C3C3C3C3C3C3C3C3C3C300000000000000000000000000000000000000000000000000000000000000000000000000000000000000000000000000000000000000000000000000
310
0000000000000000000000000000000000000000000000000000C300000000000000000000000000000000002D002D00000000000000000000000000000000000000002D2D00000000000000000000000000000000DC0000000000000000000000000000000000000000000000000000000000000000DC000000000000002D
310
000000002D00002D2D2D2D2D0000000000000000DC000000000000000000C30000002D0000002D00000000000000000000002D282828282800282828ECECECECECECECEC0000000000000000000000000000000000000000000000000000000000000000000000000000000000000000000000000000000000000000000000
310
00000000000000000000000000000000000000000000000000000000C300000000000000000000000000000000002D002D00000000000000000000000000000000000000002D2D00000000000000000000000000000000DC0000000000000000000000000000000000000000000000000000000000000000DC000000000000
310
002D000000002D00002D0000002D0000000000000000DC000000000000000000C30000002D2828282D00000000000000000000002D282828282800282828ECECECECECBEBEEC000000000000000000000000000000000000000000000000000000000000000000000000000000000000000000000000000000000000000000
310
000000000000000000000000000000000000000000000000000000000000C300000000000000000000000000000000002D002D00000000000000000000000000000000000000002D2D00000000000000000000000000000000DC0000000000000000000000000000000000000000000000000000000000000000DC00000000
310
0000002D000000002D00002D0000002D0000000000000000DC000000000000000000C30000002D2828282D00000000000000000000002D002828002828282828ECECECBEBEBEBEEC00000000000000000000000000000000000000000000000000000000000000000000000000000000000000000000000000000000000000
310
0000000000000000000000000000000000000000000000000000000000000000C300000000000000000000000000000000002D002D00000000000000000000000000000000000000002D2D00000000000000000000000000000000DC0000000000000000000000000000000000000000000000000000000000000000DC0000
310
00000000002D000000002D00002D0000002D0000000000000000DC000000000000000000C30000002D0028282D00000000000000000000002D002828282800282828ECECECBEBEBEBEEC0000000000000000000000000000000000000000000000000000000000000000000000000000000000000000000000000000000000
310
00000000000000000000000000000000000000000000000000000000000000000000C300000000000000000000000000000000002D002D00000000000000000000000000000000000000002D2D00000000000000000000000000000000DC0000000000000000000000000000000000000000000000000000000000000000DC
310
000000000000002D000000002D00002D0000002D0000000000000000DC000000000000000000C30000002D0028282D00000000000000000000002D002828282800282828ECECECBEBEBEBEEC000000000000000000000000000000000000000000000000000000000000000000000000000000000000000000000000000000
310
000000000000000000000000000000000000000000000000000000000000000000000000C300000000000000000000000000000000002D002D00000000000000000000000000000000000000002D2D00000000000000000000000000000000DC00000000000000000000000000000000000000000000000000000000000000
310
00DC000000000000002D000000002D00002D0000002D0000000000000000DC0000000000000000002D2D2D2D2D2D28282D00000000000000000000002D002828282800282828ECECECBEBEBEBEEC00000000000000000000000000000000000000000000000000000000000000000000000000000000000000000000000000
310
0000000000000000000000000000000000000000000000000000000000000000000000000000C300000000000000000000000000000000002D002D00000000000000000000000000000000000000002D2D00000000000000000000000000000000DC0000000000000000000000000000000000000000000000000000000000
310
000000DC000000000000002D000000002D00002D0000002D0000000000000000DC000000000000000000C30000002D2828282D00000000000000000000002D002828282800282828ECECECBEBEECECEC0000000000000000000000000000000000000000000000000000000000000000000000000000000000000000000000
310
00000000000000000000000000000000000000000000000000000000000000000000000000000000C300000000000000000000000000000000002D002D00000000000000000000000000000000000000002D2D00000000000000000000000000000000DC000000000000000000000000000000000000000000000000000000
310
0000000000DC000000000000002D000000002D00002D0000002D0000000000000000DC000000000000000000C30000002D2828282D00000000000000000000002D0028282828002828282D000000000000C3000000000000000000000000000000000000000000000000000000000000000000000000000000000000000000
310
000000000000000000000000000000000000000000000000000000000000000000000000000000000000C300000000000000000000000000000000002D002D00000000000000000000000000000000000000002D2D00000000000000000000000000000000DC00000000000000000000000000000000000000000000000000
310
00000000000000DC000000000000002D000000002D00002D0000002D0000000000000000DC000000000000000000C30000002D0028282D00000000000000000000002D2828282828002828282D2D002D2D2828C300000000000000000000000000000000000000000000000000000000000000000000000000000000000000
310
0000000000000000000000000000000000000000000000000000000000000000000000000000000000000000C300000000000000000000000000000000002D002D00000000000000000000000000000000000000002D2D00000000000000000000000000000000DC0000000000000000000000000000000000000000000000
310
000000000000000000DC000000000000002D000000002D2D2D2D0000002D0000000000000000DC000000000000000000C30000002D0028282D00000000000000000000002D2828282828002828282D2D002D2D2828C30000000000000000000000000000000000000000000000000000000000000000000000000000000000
310
00000000000000000000000000000000000000000000000000000000000000000000000000000000000000000000C300000000000000000000000000000000002D002D0000000000000000000000000000000000000000002D00000000000000000000000000000000DC000000000000000000000000000000000000000000
310
0000000000000000000000DC000000000000002D000000002D00002D0000002D0000000000000000DC000000000000000000C30000002D0028282D00000000000000000000002D2828282828002828282D2D002D2D2828C3000000000000000000000000000000000000000000000000000000000000000000000000000000
310
000000000000000000000000000000000000000000000000000000000000000000000000000000000000000000000000C300000000000000000000000000000000002D002D0000000000000000000000000000000000000000002D00000000000000000000000000000000DC00000000000000000000000000000000000000
310
00000000000000000000000000DC000000000000002D000000002D00002D0000002D0000000000000000DC000000000000000000C30000002D0028282D00000000000000000000002D2828280028002828282D2D002D2D2828C300000000000000000000000000000000000000000000000000000000000000000000000000
310
0000000000000000000000000000000000000000000000000000000000000000000000000000000000000000000000000000C300000000000000000000000000000000002D002D0000000000000000000000000000000000000000002D00000000000000000000000000000000DC0000000000000000000000000000000000
310
000000000000000000000000000000DC000000000000002D000000002D00002D0000002D0000000000000000DC000000000000000000C30000002D0028282D00000000000000000000002D2828280028002828002D2D002D2D2828C30000000000000000000000000000000000000000000000000000000000000000000000
310
00000000000000000000000000000000000000000000000000000000000000000000000000000000000000000000000000000000C300000000000000000000000000000000002D002D0000000000000000000000000000000000000000002D00000000000000000000000000000000DC000000000000000000000000000000
310
0000000000000000000000000000000000DC000000000000002D000000002D00002D0000002D0000000000000000DC0000000000000000002D2D2D2D2D2D2D2D2D00000000000000000000002D2828282828282828282D2D002D2D0000C3000000000000000000000000000000000000000000000000000000000000000000
310
000000000000000000000000000000000000000000000000000000000000000000000000000000000000000000000000000000000000C300000000000000000000000000000000002D002D0000000000000000000000000000000000000000002D00000000000000000000000000000000DC00000000000000000000000000
310
00000000000000000000000000000000000000DC000000000000002D000000002D00002D0000002D0000000000000000DC000000000000000000C30000002D2828282800000000000000000000002D0028280028002828282D2D002D2D2828C300000000000000000000000000000000000000000000000000000000000000
310
0000000000000000000000000000000000000000000000000000000000000000000000000000000000000000000000000000000000000000C300000000000000000000000000000000002D002D0000000000000000000000000000000000000000002D00000000000000000000000000000000DC0000000000000000000000
310
000000000000000000000000000000000000000000DC000000000000002D000000002D00002D0000002D0000000000000000DC000000000000000000C30000002D2828282800000000000000000000002D2828282828002828282D2D002D2D2828C30000000000000000000000000000000000000000000000000000000000
310
00000000000000000000000000000000000000000000000000000000000000000000000000000000000000000000000000000000000000000000C300000000000000000000000000000000002D002D0000000000000000000000000000000000000000002D00000000000000000000000000000000DC000000000000000000
310
0000000000000000000000000000000000000000000000DC000000000000002D000000002D00002D0000002D0000000000000000DC000000000000000000C30000002D2828282800000000000000000000002D0028282828002828282D2D002D2D2828C3000000000000000000000000000000000000000000000000000000
310
000000000000000000000000000000000000000000000000000000000000000000000000000000000000000000000000000000000000000000000000C300000000000000000000000000000000002D002D0000000000000000000000000000000000000000002D00000000000000000000000000000000DC00000000000000
310
00000000000000000000000000000000000000000000000000DC000000000000002D000000002D00002D0000002D0000000000000000DC000000000000000000C30000002D2800282800000000000000000000002D0000280028002828282D2D002D2D0028C300000000000000000000000000000000000000000000000000
310
0000000000000000000000000000000000000000000000000000000000000000000000000000000000000000000000000000000000000000000000000000C300000000000000000000000000000000002D002D0000000000000000000000000000000000000000002D00000000000000000000000000282828DC0000000000
310
000000000000000000000000000000000000000000000000282828DC000000000000002D000000002D00002D0000002D0000000000282828DC0000000000000000002D2D2D2D2D282D2D2D00000000000000000000002D0000280028002828282D2D002D2D2828C30000000000000000000000000000000000000000000000
310
00000000000000000000000000000000000000000000000000000000000000000000000000000000000000000000000000000000000000000000000000000000C300000000000000000000000000000000002D002D0000000000000000000000000000000000000000002D00000000000000000000000000282828DC000000
310
0000000000000000000000000000000000000000000000000000282828DC000000000000002D000000002D00002D0000002D0000000000282828DC000000000000000000C30000002D0000002D00000000000000000000002D0000280000002800002D2D002D2D2828C3000000000000000000000000000000000000000000
310
000000000000000000000000000000000000000000000000000000000000000000000000000000000000000000000000000000000000000000000000000000000000C300000000000000000000000000000000002D002D0000000000000000000000000000000000000000002D00000000000000000000000000282828DC00
310
00000000000000000000000000000000000000000000000000000000282828DC000000000000002D000000002D00002D0000002D0000000000282828DC000000000000000000C30000002D0000002D00000000000000000000002D0000282828002828282D2D002D2D2828C300000000000000000000000000000000000000
310
0000000000000000000000000000000000000000000000000000000000000000000000000000000000000000000000000000000000000000000000000000000000000000C30000000000000000000000000000000000DCDCDCDCDCDCDCDCDC282828282828DCDCDCDCDCDCDCDCDCDC00000000000000000000000000282828
310
DC0000000000000000000000000000000000000000000000000000000000282828DC000000000000BEBEBE00BEBEBEBEBEBEBEBEBEBEBE00000000282828DC000000000000000000C30000002D0000002D00000000000000000000002D0000280028002828282D00002D2D0028C30000000000000000000000000000000000
310
00000000000000000000000000000000000000000000000000000000000000000000000000000000000000000000000000000000000000000000000000000000000000000000C30000000000000000000000000000000000DCDCDC000000000000282828282828000000000000DCDC00DC0000000000000000000000000028
310
2828DC0000000000000000000000000000000000000000000000000000000000282828DC000000000000002D000000002D00002D0000002D0000000000282828DC000000000000000000C30000002D0000002D00000000000000000000002D0000280028002800002D00002D2D2828C3000000000000000000000000000000
310
000000000000000000000000000000000000000000000000000000000000000000000000000000000000000000000000000000000000000000000000000000000000000000000000C300000000000000000000000000000000002D002D0000000000002828282828280000000000000000002D000000000000000000000000
310
00000000DC0000000000000000000000000000000000000000000000000000000000000000DC000000000000002D000000002D00002D0000002D0000000000000000DC000000000000000000C30000002D0000002D00000000000000000000002D0000280000002800002D0000002D0000C300000000000000000000000000
310
0000000000000000000000000000000000000000000000000000000000000000000000000000000000000000000000000000000000000000000000000000000000000000000000000000C300000000000000000000000000000000002D002D0000000000002828282828280000000000000000002D00000000000000000000
310
000000000000DC0000000000000000000000000000000000000000000000000000000000000000DC000000000000002D000000002D00002D0000002D0000000000000000DC000000000000000000C30000002D0000002D00000000000000000000002D2D2D2D2D2D2D2D2D2D2D00002D2D0000C30000000000000000000000
310
00000000000000000000000000000000000000000000000000000000000000000000000000000000000000000000000000000000000000000000000000000000000000000000000000000000C300000000000000000000000000000000002D002D0000000000000000000000000000000000000000002D0000000000000000
310
0000000000000000DC0000000000000000000000000000000000000000000000000000000000000000DC000000000000002D000000002D00002D0000002D0000000000000000DC000000000000000000C30000002D2828282D00000000000000000000002D00002D0000002D00002D00002D2D0000C3000000000000000000
310
000000000000000000000000000000000000000000000000000000000000000000000000000000000000000000000000000000000000000000000000000000000000000000000000000000000000C300000000000000000000000000000000002D002D0000000000000000000000000000000000000000002D000000000000
310
00000000000000000000DC0000000000000000000000000000000000000000000000000000000000000000DC000000000000002D000000002D00002D0000002D0000000000000000DC000000000000000000C30000002D2828282D00000000000000000000002D2D2D2D2D2D2D2D2D2D2D2D2D2D2D2D2D2D00000000000000
310
0000000000000000000000000000000000000000000000000000000000000000000000000000000000000000000000000000000000000000000000000000000000000000000000000000000000000000C300000000000000000000000000000000002D002D0000000000000000000000000000000000000000002D00000000
310
000000000000000000000000DC0000000000000000000000000000000000000000000000000000000000000000DC000000000000002D000000002D00002D0000002D0000000000000000DC000000000000000000C30000002D2828282D00000000000000000000002D2828280000000000002D2D2D2D2D2D00C30000000000
310
00000000000000000000000000000000000000000000000000000000000000000000000000000000000000000000000000000000000000000000000000000000000000000000000000000000000000000000C300000000000000000000000000000000002D002D0000000000000000000000000000000000000000002D0000
310
0000000000000000000000000000DC0000000000000000000000000000000000000000000000000000000000000000DC000000000000002D000000002D2D2D2D0000002D0000000000000000DC000000000000000000C30000002D0028282D00000000000000000000002D2828280000000000002D002D2D2D2D00C3000000
310
000000000000000000000000000000000000000000000000000000000000000000000000000000000000000000000000000000000000000000000000000000000000000000000000000000000000000000000000C300000000000000000000000000000000002D002D0000000000000000000000000000000000000000002D
310
00000000000000000000000000000000DC0000000000000000000000000000000000000000000000000000000000000000DC000000000000002D000000002D00002D0000002D0000000000000000DC000000000000000000C30000002D0028282D00000000000000000000002D2828280000000000002D2D2D2D2D2D00C300
310
0000000000000000000000000000000000000000000000000000000000000000000000000000000000000000000000000000000000000000000000000000000000000000000000000000000000000000000000000000C300000000000000000000000000000000002D002D0000000000000000000000000000000000000000
310
002D00000000000000000000000000000000DC0000000000000000000000000000000000000000000000000000000000000000DC000000000000002D000000002D00002D0000002D0000000000000000DC000000000000000000C30000002D0028282D00000000000000000000002D2828280000000000002D2D2D2D2D2D00
310
C3000000000000000000000000000000000000000000000000000000000000000000000000000000000000000000000000000000000000000000000000000000000000000000000000000000000000000000000000000000C300000000000000000000000000000000002D002D000000000000000000000000000000000000
310
0000002D00000000000000000000000000000000DC0000000000000000000000000000000000000000000000000000000000000000DC000000000000002D000000002D00002D0000002D0000000000000000DC000000000000000000C30000002D2828282D00000000000000000000002D2800280000000000002D2D2D2D2D
310
2D00C3000000000000000000000000000000000000000000000000000000000000000000000000000000000000000000000000000000000000000000000000000000000000000000000000000000000000000000000000000000C300000000000000000000000000000000002D002D00000000000000000000000000000000
310
00000000002D00000000000000000000000000000000DC0000000000000000000000000000000000000000000000000000000000000000DC000000000000002D000000002D00002D0000002D0000000000000000DC000000000000000000C30000002D0028282D00000000000000000000002D2828000000000000002D2D2D
310
2D2D0000C3000000000000000000000000000000000000000000000000000000000000000000000000000000000000000000000000000000000000000000000000000000000000000000000000000000000000000000000000000000C300000000000000000000000000000000002D002D0000000000000000000000000000
310
0000000000002D2D00000000000000000000000000000000DC0000000000000000000000000000000000000000000000000000000000000000DC000000000000002D000000002D00002D0000002D0000000000000000DC000000000000000000C30000002D0028282D00000000000000000000002D0000000000000000002D
310
2D2D2D2D2D00C3000000000000000000000000000000000000000000000000000000000000000000000000000000000000000000000000000000000000000000000000000000000000000000000000000000000000000000000000000000C300000000000000000000000000000000002D002D000000000000000000000000
310
00000000000000002D2D00000000000000000000000000000000DC0000000000000000000000000000000000000000000000000000000000000000DC000000000000002D000000002D00002D0000002D0000000000000000DC000000000000000000C30000002D2828282D00000000000000000000002D0028280000000000
310
002D2D2D00000000C3000000000000000000000000000000000000000000000000000000000000000000000000000000000000000000000000000000000000000000000000000000000000000000000000000000000000000000000000000000C300000000000000000000000000000000002D002D00000000000000000000
310
000000000000000000002D2D00000000000000000000000000000000DC0000000000000000000000000000000000000000000000000000000000000000DC000000000000002D000000002D00002D0000002D0000000000000000DC000000000000000000C30000002D0028282D00000000000000000000002D002828000000
310
0000002D002D2D2D2D00C3000000000000000000000000000000000000000000000000000000000000000000000000000000000000000000000000000000000000000000000000000000000000000000000000000000000000000000000000000000C300000000000000000000000000000000002D002D0000000000000000
310
0000000000000000000000002D2D00000000000000000000000000000000DC0000000000000000000000000000000000000000000000000000000000000000DC000000000000002D000000002D00002D0000002D0000000000000000DC000000000000000000C30000002D0000002D00000000000000000000002D28282800
310
00000000002D002D2D2D2D00C3000000000000000000000000000000000000000000000000000000000000000000000000000000000000000000000000000000000000000000000000000000000000000000000000000000000000000000000000000000C300000000000000000000000000000000002D002D000000000000
310
00000000000000000000000000002D2D00000000000000000000000000000000DC0000000000000000000000000000000000000000000000000000000000000000DC000000000000002D000000002D00002D0000002D0000000000000000DC000000000000000000C30000002D0000002D00000000000000000000002D0028
310
280000000000002D002D2D2D2D00C3000000000000000000000000000000000000000000000000000000000000000000000000000000000000000000000000000000000000000000000000000000000000000000000000000000000000000000000000000000C300000000000000000000000000000000002D002D00000000
310
000000000000000000000000000000002D2D00000000000000000000000000000000DC0000000000000000000000000000000000000000000000000000000000000000DC000000000000002D000000002D00002D0000002D0000000000000000DC000000000000000000C30000002D0000002D00000000000000000000002D
310
0028000000000000002D2D2D2D2D2D00C3000000000000000000000000000000000000000000000000000000000000000000000000000000000000000000000000000000000000000000000000000000000000000000000000000000000000000000000000000000C300000000000000000000000000000000002D002D0000
310
0000000000000000000000000000000000002D2D00000000000000000000000000000000DC0000000000000000000000000000000000000000000000000000000000000000DC000000000000002D000000002D00002D0000002D0000000000000000DC000000000000000000C30000002D0000002D00000000000000000000
310
002D2828280000000000002D2D2D2D2D2D00C3000000000000000000000000000000000000000000000000000000000000000000000000000000000000000000000000000000000000000000000000000000000000000000000000000000000000000000000000000000C300000000000000000000000000000000002D002D
310
00000000000000000000000000000000000000002D2D00000000000000000000000000000000DC0000000000000000000000000000000000000000000000000000000000000000DC000000000000002D000000002D00002D0000002D0000000000000000DC000000000000000000C30000002D0000002D0000000000000000
310
0000002D0028280000000000002D2D2D2D2D2D00C3000000000000000000000000000000000000000000000000000000000000000000000000000000000000000000000000000000000000000000000000000000000000000000000000000000000000000000000000000000C300000000000000000000000000000000002D
310
002D00000000000000000000000000000000000000002D2D00000000000000000000000000000000DC0000000000000000000000000000000000000000000000000000000000000000DC000000000000002D000000002D00002D0000002D0000000000000000DC000000000000000000C30000002D0000002D000000000000
310
00000000002D0028280000000000002D2D2D2D2D2D00C3000000000000000000000000000000000000000000000000000000000000000000000000000000000000000000000000000000000000000000000000000000000000000000000000000000000000000000000000000000C300000000000000000000000000000000
310
002D002D00000000000000000000000000000000000000002D2D00000000000000000000000000000000DC0000000000000000000000000000000000000000000000000000000000000000DC000000000000002D000000002D00002D2D2D2D2D0000000000000000DC0000000000000000002D2D2D2D2D2D2D2D2D00000000
310
000000000000002D0028280000000000002D002D2D2D2D00C3000000000000000000000000000000000000000000000000000000000000000000000000000000000000000000000000000000000000000000000000000000000000000000000000000000000000000000000000000000C30000000000000000000000000000
310
0000002D002D00000000000000000000000000000000000000002D2D00000000000000000000000000000000DC0000000000000000000000000000000000000000000000000000000000000000DC000000000000002D000000002D00002D002D2D2D0000000000000000DC000000000000000000C30000002D0000002D0000
310
0000000000000000002D2828280000000000002D002D2D2D2D00C3000000000000000000000000000000000000000000000000000000000000000000000000000000000000000000000000000000000000000000000000000000000000000000000000000000000000000000000000000000C3000000000000000000000000
310
00000000002D002D00000000000000000000000000000000000000002D2D00000000000000000000000000000000DC0000000000000000000000000000000000000000000000000000000000000000DC000000000000002D000000002D00002D002D2D2D0000000000000000DC000000000000000000C30000002D0000002D
310
00000000000000000000002D0028280000000000002D002D2D2D2D00C3000000000000000000000000000000000000000000000000000000000000000000000000000000000000000000000000000000000000000000000000000000000000000000000000000000000000000000000000000000C300000000000000000000
310
000000000000002D002D00000000000000000000000000000000000000002D2D00000000000000000000000000000000DC0000000000000000000000000000000000000000000000000000000000000000DC000000000000002D000000002D00002D002D2D2D0000000000000000DC000000000000000000C30000002D0000
310
002D00000000000000000000002D2828280000000000002D002D2D2D2D00C3000000000000000000000000000000000000000000000000000000000000000000000000000000000000000000000000000000000000000000000000000000000000000000000000000000000000000000000000000000C30000000000000000
310
0000000000000000002D002D00000000000000000000000000000000000000002D2D00000000000000000000000000000000DC0000000000000000000000000000000000000000000000000000000000000000DC000000000000002D000000002D2D2D2D002D2D2D0000000000000000DC000000000000000000C30000002D
310
0000002D00000000000000000000002D0028280000000000002D002D2D2D2D00C3000000000000000000000000000000000000000000000000000000000000000000000000000000000000000000000000000000000000000000000000000000000000000000000000000000000000000000000000000000C3000000000000
310
00000000000000000000002D002D00000000000000000000000000000000000000002D2D00000000000000000000000000000000DC0000000000000000000000000000000000000000000000000000000000000000DC000000000000002D000000002D00002D002D2D2D0000000000000000DC000000000000000000C30000
310
002D0000002D00000000000000000000002D0028280000000000002D002D2D2D2D00C3000000000000000000000000000000000000000000000000000000000000000000000000000000000000000000000000000000000000000000000000000000000000000000000000000000000000000000000000000000C300000000
310
000000000000000000000000002D002D00000000000000000000000000000000000000002D2D00000000000000000000000000000000DC0000000000000000000000000000000000000000000000000000000000000000DC000000000000002D000000002D00002D002D2D2D0000000000000000DC000000000000000000C3
310
0000002D0000002D00000000000000000000002D2828280000000000002D002D2D2D2D00C3000000000000000000000000000000000000000000000000000000000000000000000000000000000000000000000000000000000000000000000000000000000000000000000000000000000000000000000000000000C30000
310
0000000000000000000000000000002D002D00000000000000000000000000000000000000002D2D00000000000000000000000000000000DC0000000000000000000000000000000000000000000000000000000000000000DC000000000000002D000000002D00002D2D2D2D2D0000000000000000DC0000000000000000
310
00C30000002D0000002D00000000000000000000002D2828280000000000002D002D2D2D2D00C3000000000000000000000000000000000000000000000000000000000000000000000000000000000000000000000000000000000000000000000000000000000000000000000000000000000000000000000000000000C3
310
00000000000000000000000000000000002D002D00000000000000000000000000000000000000002D2D00000000000000000000000000000000DC0000000000000000000000000000000000000000000000000000000000000000DC000000000000002D000000002D2D2D2D0000002D0000000000000000DC000000000000
310
000000C30000002D0000002D00000000000000000000002D2828280000000000002D002D2D2D2D00C30000000000000000000000000000000000000000000000000000000000000000000000000000000000000000000000000000000000000000000000000000000000000000000000000000000000000000000000000000
310
00C300000000000000000000000000000000002D002D00000000000000000000000000000000000000002D2D00000000000000000000000000000000DC0000000000000000000000000000000000000000000000000000000000000000DC000000000000002D000000002D00002D0000002D0000000000000000DC00000000
310
0000000000C30000002D0000002D00000000000000000000002D2828280000000000002D2D2D2D2D2D00C3000000000000000000000000000000000000000000000000000000000000000000000000000000000000000000000000000000000000000000000000000000000000000000000000000000000000000000000000
310
000000C300000000000000000000000000000000002D002D00000000000000000000000000000000000000002D2D00000000000000000000000000000000DC0000000000000000000000000000000000000000000000000000000000000000DC000000000000002D000000002D00002D0000002D0000000000000000DC0000
310
00000000000000C30000002D0000002D00000000000000000000002D0000000000000000002D002D2D2D2D00C300000000000000000000000000000000000000000000000000000000000000000000000000000000000000000000000000000000000000000000000000000000000000000000000000000000000000000000
310
0000000000C300000000000000000000000000000000002D002D00000000000000000000000000000000000000002D2D00000000000000000000000000000000DC0000000000000000000000000000000000000000000000000000000000000000DC000000000000002D000000002D00002D0000002D0000000000000000DC
310
000000000000000000C30000002D0000002D00000000000000000000002D0000000000000000002D002D2D2D2D00C30000000000000000000000000000000000000000000000000000000000000000000000000000000000000000000000000000000000000000000000000000000000000000000000000000000000000000
310
00000000000000C300000000000000000000000000000000002D002D00000000000000000000000000000000000000002D2D00000000000000000000000000000000DC0000000000000000000000000000000000000000000000000000000000000000DC000000000000002D000000002D00002D0000002D00000000000000
310
00DC000000000000000000C30000002D0000002D00000000000000000000002D0000000000000000002D2D2D2D2D2D00C3000000000000000000000000000000000000000000000000000000000000000000000000000000000000000000000000000000000000000000000000000000000000000000000000000000000000
310
000000000000000000C300000000000000000000000000000000002D002D00000000000000000000000000000000000000002D2D00000000000000000000000000000000DCDC00000000000000000000000000000000000000000000000000000000000000DC000000000000002D000000002D00002D0000002D0000000000
310
000000DC000000000000000000C32828282D0000002D00000000000000000000002D0000000000000000002D2D2D2D2D2D00C300000000000000000000000000000000000000000000000000000000000000000000000000000000000000000000000000000000000000000000000000000000000000000000000000000000
310
0000000000000000000000C300000000000000000000000000000000002D002D00000000000000000000000000000000000000002D2D00000000000000000000000000000000DCDC00000000000000000000000000000000000000000000000000000000000000DC000000000000002D000000002D2D2D2D0000002D000000
310
0000000000DC000000000000000000C32828282D0000002D00000000000000000000002D0000000000000000002D2D2D2D2D2D00C30000000000000000000000000000000000000000000000000000000000000000000000000000000000000000000000000000000000000000000000000000000000000000000000000000
310
00000000000000000000000000C300000000000000000000000000000000002D002D2D2D2D2D2D2D2D2D2D2D2D2D2D2D2D2D2D2D2D2D2DDCDCDCDCDCDCDCDCDCDCDCDCDCDCDCDCDCDCDC00000000000000000000000000000000000000000000000000000000000000DC000000000000002D000000002D2D2D2D0000002D00
310
00000000000000DC000000000000000000C32828282D0000002D00000000000000000000002D0000000000000000002D2D2D2D2D2D00C3000000000000000000000000000000000000000000000000000000000000000000000000000000000000000000000000000000000000000000000000000000000000000000000000
310
000000000000000000000000000000C300000000000000000000000000000000002D002D000000002D00000000002D2D2D2D2D2D2D2D2D2D000000000000000000DCDC00000000000000DCDC00000000000000000000000000000000000000000000000000000000000000DC000000000000002D000000002D00002D000000
310
2D0000000000000000DC000000000000000000C32828282D0000002D00000000000000000000002D0000000000000000002D2D2D2D2D2D00C300000000000000000000000000000000000000000000000000000000000000000000000000000000000000000000000000000000000000000000000000000000000000000000
310
0000000000000000000000000000000000C300000000000000000000000000000000002D002D000000002D00000000002D00000000000000BE2D000000000000000000DCDC00000000000000DCDC00000000000000000000000000000000000000000000000000000000000000DC000000000000002D000000002D00002D00
310
00002D0000000000000000DC000000000000000000C32828282D0000002D00000000000000000000002D0000000000000000002D000000000000C30000000000000000000000000000000000000000000000000000000000000000000000000000000000000000000000000000000000000000000000000000000000000000
310
00000000000000000000000000000000000000C300000000000000000000000000000000002D002D000000002D00000000002D00000000000000BE2D000000000000000000DC0000000000000000DC0000000000000000000000000000000000000000000000000000000000000000DC000000000000002D000000002D0000
310
2D0000002D0000000000000000DC000000000000000000C30000002D0000002D00000000000000000000002D0000000000000000002D000000000000C3000000000000000000000000000000000000000000000000000000000000000000000000000000000000000000000000000000000000000000000000000000000000
310
000000000000000000000000000000000000000000C300000000000000000000000000000000002D002D000000002D00000000002D00000000000000BE2D000000000000000000DC0000000000000000DC0000000000000000000000000000000000000000000000000000000000000000DC000000000000002D000000002D
310
BE002D0000002D0000000000000000DC000000000000000000C30028282D2828282D00000000000000000000002D0000000000000000002D000000000000C300000000000000000000000000000000000000000000000000000000000000000000000000000000000000000000000000000000000000000000000000000000
310
0000000000000000000000000000000000000000000000C300000000000000000000000000000000002D002D2D2D2D2D2D00000000002D00000000000000BE2D000000000000000000DC0000000000000000DC0000000000000000000000000000000000000000000000000000000000000000DC000000000000002D000000
310
002DBE002D0000002D0000000000000000DC000000000000000000C30028282D2828282D00000000000000000000002D0000000000000000002D000000000000C30000000000000000000000000000000000000000000000000000000000000000000000000000000000000000000000000000000000000000000000000000
310
00000000000000000000000000000000000000000000000000C300000000000000000000000000000000002D002D2D2D2D2D2D00000000002D00000000000000BE2D000000000000000000DC0000000000000000DC0000000000000000000000000000000000000000000000000000000000000000DC000000000000002D00
310
002D2D2DBE2D2D2D00002D0000000000000000DC000000000000000000C32828282D0028282D00000000000000000000002D0000000000000000002D000000000000C3000000000000000000000000000000000000000000000000000000000000000000000000000000000000000000000000000000000000000000000000
310
000000000000000000000000000000000000000000000000000000C300000000000000000000000000000000002D002D000000002D00000000002D2D2D2D2D2D2D2D2D2D000000000000000000DC0000000000000000DC0000000000000000000000000000000000000000000000000000000000000000DC00000000000000
310
2D00002D0000BE00002D2D002D0000000000000000DC000000000000000000C32828282D0028282D00000000000000000000002D0000000000000000002D000000000000C300000000000000000000000000000000000000000000000000000000000000000000000000000000000000000000000000000000000000000000
310
0000000000000000000000000000000000000000000000000000000000C300000000000000000000000000000000002D002D000000002D00000000002D0000000000002DBE2D000000000000000000DC0000000000000000DC0000000000000000000000000000000000000000000000000000000000000000DC0000000000
310
00002D002D000000BE0000002D002D0000000000000000DC000000000000000000C30000002D0028282D00000000000000000000002D0000000000000000002D000000000000C30000000000000000000000000000000000000000000000000000000000000000000000000000000000000000000000000000000000000000
310
00000000000000000000000000000000000000000000000000000000000000C300000000000000000000000000000000002D002D000000002D00000000002D000000000000BEBE2D000000000000000000DC0000000000000000DC0000000000000000000000000000000000000000000000000000000000000000DC000000
310
000000002D002D000000BE0000002D002D0000000000000000DC000000000000000000C32828282D0028282D2D2D2D2D2D2D2D2D2D2D2D2D2D2D2D2D2D2D2D2D2D2D000000000000C3000000000000000000000000000000000000000000000000000000000000000000000000000000000000000000000000000000000000
310
000000000000000000000000000000000000000000000000000000000000000000C300000000000000000000000000000000002D002D000000002D00000000002DBEBEBE00BEBEBE2D2D000000000000282828DC0000000000000000DC0000000000000000000000000000000000000000000000000000000000000000DC00
310
0000000000002DBEBEBEBEBEBEBE00BEBEBEBE0000000000000000DC000000000000000000C32828282D0028282D2828282828282828282828282828282828282828282D000000000000C300000000000000000000000000000000000000000000000000000000000000000000000000000000000000000000000000000000
310
0000000000000000000000000000000000000000000000000000000000000000000000C300000000000000000000000000000000002D002D000000002D00000000002D000000000000002D2D000000000000282828DC0000000000000000DC0000000000000000000000000000000000000000000000000000000000000000
310
DC000000000000002D002D000000BE000000002D2D0000000000000000DC000000000000000000C30028282D0028282D2828282828282828282828282828282828282828282D000000000000C30000000000000000000000000000000000000000000000000000000000000000000000000000000000000000000000000000
310
00000000000000000000000000000000000000000000000000000000000000000000000000C300000000000000000000000000000000002D002D00000000BE00000000002D000000000000002D2D000000000000282828DC0000000000000000DC000000000000000000000000000000000000000000000000000000000000
310
0000DC000000000000002D002D00000000000000002D2D0000000000000000DC000000000000000000C30028282D2828282D2828282828282828280028280028280028282828282D000000000000C3000000000000000000000000000000000000000000000000000000000000000000000000000000000000000000000000
310
000000000000000000000000000000000000000000000000000000000000000000000000000000C300000000000000000000000000000000002D002D00000000BE2D000000002D000000000000002D2D000000000000000000DC0000000000000000DC00000000000000000000000000000000000000000000000000000000
310
00000000DC000000000000002D002D000000BE000000002D2D0000000000000000DC000000000000000000C32828282D0028282D2828282828282828280028280028280028282828282D000000000000C300000000000000000000000000000000000000000000000000000000000000000000000000000000000000000000
310
0000000000000000000000000000000000000000000000000000000000000000000000000000000000C300000000000000000000000000000000002D002D00000000BE2D2D2D2D2D2D2D2D2D2D2D2D2D2D2D000000000000000000DC0000000000000000DC0000000000000000000000000000000000000000000000000000
310
000000000000DC000000000000002D002D000000BE000000002D2D0000000000000000DC000000000000000000C30028282D0028282D2828282828282828282828282828280028282828282D000000000000C30000000000000000000000000000000000000000000000000000000000000000000000000000000000000000
310
00000000000000000000000000000000000000000000000000000000000000000000000000000000000000C300000000000000000000000000000000002D002D00000000BE00000000002D00000000000000002D000000000000000000DC0000000000000000DC000000000000000000000000000000000000000000000000
310
0000000000000000DC000000000000002D002D000000BE000000002D2D0000000000000000DC000000000000000000C30028282D0028282D2828282828282828280028282828280028282828282D000000000000C3000000000000000000000000000000000000000000000000000000000000000000000000000000000000
310
000000000000000000000000000000000000000000000000000000000000000000000000000000000000000000C300000000000000000000000000000000002D002D00000000BE00000000002DBEBEBEBEBEBEBEBEBE000000000000000000DC0000000000000000DC00000000000000000000000000000000000000000000
310
00000000000000000000DC000000000000002D002D000000BE000000002D2D0000000000000000DC000000000000000000C32828282D2828282D2828282828282828280000282828280028282800002D000000000000C300000000000000000000000000000000000000000000000000000000000000000000000000000000
310
0000000000000000000000000000000000000000000000000000000000000000000000000000000000000000000000C300000000000000000000000000000000002D002D000000002D00000000002D00000000000000BE2D000000000000000000DC0000000000000000DC0000000000000000000000000000000000000000
310
000000000000000000000000DC000000000000002D002D000000BE000000002D2D0000000000000000DC000000000000000000C30028282D0000002D2828280000282828280000282828280028282828282D000000000000C30000000000000000000000000000000000000000000000000000000000000000000000000000
310
00000000000000000000000000000000000000000000000000000000000000000000000000000000000000000000000000C300000000000000000000000000000000002D002D00000000BE00000000002D00000000000000BE2D000000000000000000DC0000000000000000DC000000000000000000000000000000000000
310
0000000000000000000000000000DC000000000000002D002D00000000000000002D2D0000000000000000DC000000000000000000C30000002D0000002D2828280000282828280000280028280028282828282D000000000000C3000000000000000000000000000000000000000000000000000000000000000000000000
310
000000000000000000000000000000000000000000000000000000000000000000000000000000000000000000000000000000C300000000000000000000000000000000002D002D00000000BE00000000002D00000000000000BE2D000000000000000000DC0000000000000000DC00000000000000000000000000000000
310
00000000000000000000000000000000DC000000000000002D002D000000BE000000002D2D0000000000000000DC000000000000000000C32828282D0000002D2828280000282828280000280028280000002828282D000000000000C300000000000000000000000000000000000000000000000000000000000000000000
310
0000000000000000000000000000000000000000000000000000000000000000000000000000000000000000000000000000000000C300000000000000000000000000000000002D002D00000000BE00000000002D00000000000000BE2D000000000000000000DC0000000000000000DC0000000000000000000000000000
310
000000000000000000000000000000000000DC000000000000002D002D000000BE000000002D2D0000000000000000DC000000000000000000C32828282D0000002828282828282828282828282828282828282828282828000000000000C30000000000000000000000000000000000000000000000000000000000000000
310
00000000000000000000000000000000000000000000000000000000000000000000000000000000000000000000000000000000000000C300000000000000000000000000000000002D002D00000000BEBE000000002D00000000000000BE2D000000000000000000DCDC00000000282828DC000000000000000000000000
310
0000000000000000000000000000000000000000DC000000000000002DBEBEBEBEBEBEBE00BEBEBEBE0000000000000000DC000000000000000000C32828282D0000002D2828280000280000280000280000280000002800002D000000000000C3000000000000000000000000000000000000000000000000000000000000
310
000000000000000000000000000000000000000000000000000000000000000000000000000000000000000000000000000000000000000000C300000000000000000000000000000000002D002D000000002DBEBEBEBEBE2DBEBEBEBEBEBEBEBEBE000000000000000000DCDC00000000282828DC00000000000000000000
310
00000000000000000000000000000000000000000000DC000000000000002D002D000000BE0000002D002D0000000000000000DC000000000000000000C30028002D0000002D2828280000280000280000280000280000002800002D000000000000C300000000000000000000000000000000000000000000000000000000
310
0000000000000000000000000000000000000000000000000000000000000000000000000000000000000000000000000000000000000000000000C300000000000000000000000000000000002D002D000000002D00000000002D2D2D2D2DA82D2D2D2DDCDCDCDCDCDCDCDCDCDCDC00000000282828DC0000000000000000
310
000000000000000000000000000000000000000000000000DC000000000000002D002D2D00000000002D2D002D0000000000000000DC000000000000000000C30000002D0000002D2828280000280000280000280000280000002800002D000000000000C30000000000000000000000000000000000000000000000000000
310
00000000000000000000000000000000000000000000000000000000000000000000000000000000000000000000000000000000000000000000000000C300000000000000000000000000000000002D002D000000002D0000000000BE0000A8A8A8A80000BE000000000000000000DCDC00000000000000DC000000000000
310
0000000000000000000000000000000000000000000000000000DC000000000000002D00002D2D00BE002D2D00002D0000000000000000DC000000000000000000C30000002D0000002D2828280000280000280000280000280000002800002D000000000000C3000000000000000000000000000000000000000000000000
310
000000000000000000000000000000000000000000000000000000000000000000000000000000000000000000000000000000000000000000000000000000C300000000000000000000000000000000002D002D2D2D2D2D2D0000000000BE0000A80000A80000BE000000000000282828DCDC00000000000000DC00000000
310
00000000000000000000000000000000000000000000000000000000DC000000000000002D000000002D2D2D2D0000002D0000000000000000DC000000000000000000C30000002D0000002D2828280000280000280000280000280000002800002D2D2D2D2D2D2D2D00000000000000000000000000000000000000000000
310
0000000000000000000000000000000000000000000000000000000000000000000000000000000000000000000000000000000000000000000000000000000000C300000000000000000000000000000000002D002D00000000000000000000BE0000A8A8A8A80000BE000000000000282828DC0000000000000000DC0000
310
000000000000000000000000000000000000000000000000000000000000DC000000000000002D0000000000BE00000000002D0000000000000000DC000000000000000000C30000002D0000002D2828280000280000280000280000280000002800002D002D2D2D2D00C30000000000000000000000000000000000000000
310
00000000000000000000000000000000000000000000000000000000000000000000000000000000000000000000000000000000000000000000000000000000000000C300000000000000000000000000000000002D002D00000000000000000000BE0000A80000A80000BE000000000000282828DC0000000000000000DC
310
0000000000000000000000000000000000000000000000000000000000000000DC000000000000002D00000000000000000000002D0000000000000000DC000000000000000000C30000002D0000002D0028280000280000280000280000280000002800002D002D2D2D2D00C3000000000000000000000000000000000000
310
000000000000000000000000000000000000000000000000000000000000000000000000000000000000000000000000000000000000000000000000000000000000000000C300000000000000000000000000000000002D002D00000000000000000000BE0000A80000A80000BE000000000000282828DC00000000000000
310
00DC0000000000000000000000000000000000000000000000000000000000000000DC000000000000002D00000000000000000000002D0000000000000000DC000000000000000000C30000002D0000002D2828280000280000280000280000280000002800002D002D2D2D2D00C300000000000000000000000000000000
310
0000000000000000000000000000000000000000000000000000000000000000000000000000000000000000000000000000000000000000000000000000000000000000000000C300000000000000000000000000000000002D002D00000000000000000000BE0000A80000A80000BE000000000000000000DCDC00000000
310
000000DC0000000000000000000000000000000000000000000000000000000000000000DC000000000000002D00000000000000000000002D0000000000000000DC000000000000000000C30000002D0000002D2828280000280000280000280000280000002800002D002D2D2D2D00C30000000000000000000000000000
310
00000000000000000000000000000000000000000000000000000000000000000000000000000000000000000000000000000000000000000000000000000000000000000000000000C300000000000000000000000000000000002D002D00000000000000000000BE0000A80000A80000BE000000000000000000DCDC0000
310
0000000000DC0000000000000000000000000000000000000000000000000000000000000000DC000000000000002D00000000000000000000002D0000000000000000DC000000000000000000C30000002D0000002D2828280000280000280000280000280000002800002D002D2D2D2D00C3000000000000000000000000
310
000000000000000000000000000000000000000000000000000000000000000000000000000000000000000000000000000000000000000000000000000000000000000000000000000000C300000000000000000000000000000000002D002D00000000000000000000BEBEBEA8A8A8A8A8BEBEDCDCDCDCDCDCDCDCDCDCDC
310
00000000000000DC0000000000000000000000000000000000000000000000000000000000000000DC000000000000002D00000000000000000000002D0000000000000000DC000000000000000000C30000002D0000002D2828280000280000280000280000280000002800002D002D2D2D2D00C300000000000000000000
310
0000000000000000000000000000000000000000000000000000000000000000000000000000000000000000000000000000000000000000000000000000000000000000000000000000000000C300000000000000000000000000000000002D002D0000000000000000000000000000000000000000000000000000000000
310
000000000000000000DC0000000000000000000000000000000000000000000000000000000000000000DC000000000000002D00000000000000000000002D0000000000000000DC000000000000000000C30000002D0000002D2828280000280000280000280000280000002800002D002D2D2D2D00C30000000000000000
310
00000000000000000000000000000000000000000000000000000000000000000000000000000000000000000000000000000000000000000000000000000000000000000000000000000000000000C300000000000000000000000000000000002D002D000000000000000000000000000000000000000000000000000000
310
0000000000000000000000DC0000000000000000000000000000000000000000000000000000000000000000DC000000000000002D00000000000000000000002D0000000000000000DC000000000000000000C30000002D0000002D2828280000280000280000280000280000002800002D002D2D2D2D00C3000000000000
310
000000000000000000000000000000000000000000000000000000000000000000000000000000000000000000000000000000000000000000000000000000000000000000000000000000000000000000C300000000000000000000000000000000002D002D00000000000000000000000000000000000000000000000000
310
00000000000000000000000000DC0000000000000000000000000000000000000000000000000000000000000000DC000000000000002D00000000000000000000002D0000000000000000DC000000000000000000C30000002D0000002D0000280000280000280000280000280000002800002D002D2D2D2D00C300000000
310
0000000000000000000000000000000000000000000000000000000000000000000000000000000000000000000000000000000000000000000000000000000000000000000000000000000000000000000000C300000000000000000000000000000000002D002D0000000000000000000000000000000000000000000000
310
000000000000000000000000000000DC0000000000000000000000000000000000000000000000000000000000000000DC000000000000002D0000000000BE00000000002D0000000000000000DC0000000000000000002D2D2D2D2D2D2D2D2D0000280000280000280000280000280000002800002D002D2D2D2D00C30000
310
00000000000000000000000000000000000000000000000000000000000000000000000000000000000000000000000000000000000000000000000000000000000000000000000000000000000000000000000000C300000000000000000000000000000000002D002D000000000000000000000000000000000000000000
310
0000000000000000000000000000000000DC0000000000000000000000000000000000000000000000000000000000000000DC000000000000002D0000000000BE2D000000002D0000000000000000DC000000000000000000C30000002D0000002D0000280000280000280000280000280000002800002D002D2D2D2D00C3
310
000000000000000000000000000000000000000000000000000000000000000000000000000000000000000000000000000000000000000000000000000000000000000000000000000000000000000000000000000000C300000000000000000000000000000000002D002D00000000000000000000000000000000000000
310
00000000000000000000000000000000000000DC0000000000000000000000000000000000000000000000000000000000000000DCDC0000000000002D0000002D2DBE2D2D0000002D0000000000000000DC000000000000000000C30000002D0000002D0000280000280000280000280000280000002800002D002D2D2D2D
310
00C3000000000000000000000000000000000000000000000000000000000000000000000000000000000000000000000000000000000000000000000000000000000000000000000000000000000000000000000000000000C300000000000000000000000000000000002D002D0000000000000000000000000000000000
310
000000000000000000000000000000000000000000DC0000000000000000000000000000000000000000000000000000000000000000DCDC0000000000002D00002D2D2DBE2D002D00002D0000000000000000DC000000000000000000C30000002D0000002D0000280000280000280000280000280000002800002D002D2D
310
2D2D00C3000000000000000000000000000000000000000000000000000000000000000000000000000000000000000000000000000000000000000000000000000000000000000000000000000000000000000000000000000000C300000000000000000000000000000000002D002D000000000000000000000000000000
310
0000000000000000000000000000000000000000000000DC0000000000000000000000000000000000000000000000000000000000000000DCDCDCDCDCDCDCDCDCDC2DBEBEBEBEBEBEBEBE002D0000000000000000DC000000000000000000C30000002D2828282D0000280000280000280000280000280000002800002D00
310
2D2D2D2D00C3000000000000000000000000000000000000000000000000000000000000000000000000000000000000000000000000000000000000000000000000000000000000000000000000000000000000000000000000000000C300000000000000000000000000000000002D002D00000000000000000000000000
310
00000000000000000000000000000000000000000000000000DC0000000000000000000000000000000000000000000000000000000000000000DC000000000000002D00002D2D2DBE2D2D2D00002D0000000000000000DC000000000000000000C30000002D0028282D000028000028000028000028000028000000280000
310
2D002D2D2D2D00C3000000000000000000000000000000000000000000000000000000000000000000000000000000000000000000000000000000000000000000000000000000000000000000000000000000000000000000000000000000C300000000000000000000000000000000002D002D0000000000000000000000
310
000000000000000000000000000000000000000000000000000000DC0000000000000000000000000000000000000000000000000000000000282828DC000000000000002D0000002D2DBE2D2D2D00002D0000000000000000DC000000000000000000C30000002D2828282D00002800002800002800002800002800000028
310
00002D002D2D2D2D00C3000000000000000000000000000000000000000000000000000000000000000000000000000000000000000000000000000000000000000000000000000000000000000000000000000000000000000000000000000000C300000000000000000000000000000000002D002D000000000000000000
310
0000000000000000000000000000000000000000000000000000000000DC0000000000000000000000000000000000000000000000000000000000282828DC00000000000000002D00002D2DBE2D2D00002D2D0000000000000000DC000000000000000000C30000002D0028282D0000280000280000280000280000280000
310
002800002D002D2D2D2D00C3000000000000000000000000000000000000000000000000000000000000000000000000000000000000000000000000000000000000000000000000000000000000000000000000000000000000000000000000000000C300000000000000000000000000000000002D002D00000000000000
310
00000000000000000000000000000000000000000000000000000000000000DCDC00000000000000000000000000000000000000000000000000000000282828DC00000000000000002D2D000000BE000000002D000000000000000000DCDC0000000000000000C30000002D2828282D000028000028000028000028000028
310
0000002800002D002D2D2D2D00C3000000000000000000000000000000000000000000000000000000000000000000000000000000000000000000000000000000000000000000000000000000000000000000000000000000000000000000000000000000C300000000000000000000000000000000002D002D0000000000
310
000000000000000000000000000000000000000000000000000000000000000000DCDC00000000000000000000000000000000000000000000000000000000000000DC0000000000000000002D2D00000000002D2D00000000000000000000DCDC0000000000000000C30000002D0028282D2D2D2D2D2D2D2D2D2D00002800
310
002D2D2D2D2D2D2D2D002D2D2D2D00C3000000000000000000000000000000000000000000000000000000000000000000000000000000000000000000000000000000000000000000000000000000000000000000000000000000000000000000000000000000C300000000000000000000000000000000002D2D2DDCDCDC
310
DCDCDCDCDCDCDCDCDCDCDCDCDCDCDCDCDCDCDCDCDCDCDCDCDCDCDCDCDCDCDCDCDCDCDCDCDC00000000000000000000000000000000000000000000000000000000000000DCDCDCDCDCDCDCDCDCDCDCDCDCDCDC2D2D2DDCDCDCDCDCDCDCDCDCDCDCDCDC0000000000000000C30000002D0028282D2828280000000000280000
310
2800002D00002D2D00002D002D2D2D2D00C3000000000000000000000000000000000000000000000000000000000000000000000000000000000000000000000000000000000000000000000000000000000000000000000000000000000000000000000000000000C3000000000000000000000000000000000000000000
310
00000000000000000000000000000000000000000000000000000000000000000000000000000000000000000000000000000000000000000000000000000000000000000000DC0000000000000000000000000000000000000000000000000000000000000000000000000000C30000002D2828282D002828000028000028
310
00002800002D00002D2D00002D002D2D2D2D00C3000000000000000000000000000000000000000000000000000000000000000000000000000000000000000000000000000000000000000000000000000000000000000000000000000000000000000000000000000000C300000000000000000000000000000000000000
310
000000000000000000000000000000000000000000000000000000000000000000000000000000000000000000000000000000000000000000000000000000000000000000000000DCDC00000000000000000000000000000000000000000000000000000000000000000000000000C30000002D0028282D00282800002828
310
002800002800002D002D00BE2D002D000000000000C3000000000000000000000000000000000000000000000000000000000000000000000000000000000000000000000000000000000000000000000000000000000000000000000000000000000000000000000000000000C30000000000000000000000000000000000
310
0000000000000000000000000000000000000000000000000000000000000000000000000000000000000000000000000000000000000000000000000000000000000000000000000000DCDC00000000000000000000000000000000000000000000000000000000000000000000000000C30000002D2828282D0028280000
310
2828002800002800002D002D2D2D2D002D2D2D2D2D2D2D2D000000000000000000000000000000000000000000000000000000000000000000000000000000000000000000000000000000000000000000000000000000000000000000000000000000000000000000000000000000C3000000000000000000000000000000
310
00000000000000000000000000000000000000000000000000000000000000000000000000000000000000000000000000000000000000000000000000000000000000000000000000000000DC0000000000000000000000000000000000000000000000000000000000000000000000000000C30000002D0000002D002828
310
00002828002800002800002D002D2D2D2D002D282D2D2D2D2D2D000000000000000000000000000000000000000000000000000000000000000000000000000000000000000000000000000000000000000000000000000000000000000000000000000000000000000000000000000000C300000000000000000000000000
310
000000000000000000000000000000000000000000000000000000000000000000000000000000000000000000000000000000000000000000000000000000000000000000000000000000000000DC0000000000000000000000000000000000000000000000000000000000000000000000000000C30000002D0000002D28
310
282800000000002800002800002DBEBEBEBEBEBE28282800000000C3000000000000000000000000000000000000000000000000000000000000000000000000000000000000000000000000000000000000000000000000000000000000000000000000000000000000000000000000000000C30000000000000000000000
310
0000000000000000000000000000000000000000000000000000000000000000000000000000000000000000000000000000000000000000000000000000000000000000000000000000000000000000000000000000000000000000000000000000000000000000000000000000000000000000000000C30000002D000000
310
2D00282800000000002800002800002D002D2D2D2D002D282800000000C3000000000000000000000000000000000000000000000000000000000000000000000000000000000000000000000000000000000000000000000000000000000000000000000000000000000000000000000000000000C3000000000000000000
310
00000000000000000000000000000000000000000000000000000000000000000000000000000000000000000000000000000000000000000000000000000000000000000000000000000000000000000000000000000000000000000000000000000000000000000000000000000000000000000000000000C30000002D00
310
00002D28282800000000002800002800002D00002D2D00002D282800000000C3000000000000000000000000000000000000000000000000000000000000000000000000000000000000000000000000000000000000000000000000000000000000000000000000000000000000000000000000000000C3C3C3C3C3C3C3C3
310
C3C3C3C3C3C3C3C3C3C3C3C3C3C3C3C3C3C3C3C3C3C3C3C3C3C3C3C3C3C3C3C3C3C3C3C3C3C3C3C3C3C3C3C3C3C3C3C3C3C3C3C3C3C3C3C3C3C3C3C3C3C3C3C3C3C3C3C3C3C3C3C3C3C3C3C3C3C3C3C3C3C3C3C3C3C3C3C3C3C3C3C3C3C3C3C3C3C3C3C3C3C3C3C3C3C3C3C3C3C3C3C3C3C3C3C3C3C3C3C3C3C3C3C3C3C3C3
310
C3C3C3C3C3C3C3C3C3C3C3C3C328C3C328C3C32DC3C3C3BEC3C3C3C32DC3C3C3C3C3000000000000000000000000000000000000000000000000000000000000000000000000000000000000000000000000000000000000000000000000000000000000000000000000000000000000000000000000000000000000000000
310
00000000000000000000000000000000000000000000000000000000000000000000000000000000000000000000000000000000000000000000000000000000000000000000000000000000000000000000000000000000000000000000000000000000000000000000000000000000000000000000000000000000000000
310
00000000000000000000000000000000000000000000000000000000000000000000000000000000000000000000000000000000000000000000000000000000000000000000000000000000000000000000000000000000000000000000000000000000000000000000000000000000000000000000000000000000000000
310
00000000000000000000000000000000000000000000000000000000000000000000000000000000000000000000000000000000000000000000000000000000000000000000000000000000000000000000000000000000000000000000000000000000000000000000000000000000000000000000000000000000000000
310
00000000000000000000000000000000000000000000000000000000000000000000000000000000000000000000000000000000000000000000000000000000000000000000000000000000000000000000000000000000000000000000000000000000000000000000000000000000000000000000000000000000000000
310
00000000000000000000000000000000000000000000000000000000000000000000000000000000000000000000000000000000000000000000000000000000000000000000000000000000000000000000000000000000000000000000000000000000000000000000000000000000000000000000000000000000000000
310
00000000000000000000000000000000000000000000000000000000000000000000000000000000000000000000000000000000000000000000000000000000000000000000000000000000000000000000000000000000000000000000000000000000000000000000000000000000000000000000000000000000000000
310
00000000000000000000000000000000000000000000000000000000000000000000000000000000000000000000000000000000000000000000000000000000000000000000000000000000000000000000000000000000000000000000000000000000000000000000000000000000000000000000000000000000000000
310
00000000000000000000000000000000000000000000000000000000000000000000000000000000000000000000000000000000000000000000000000000000000000000000000000000000000000000000000000000000000000000000000000000000000000000000000000000000000000000000000000000000000000
310
00000000000000000000000000000000000000000000000000000000000000000000000000000000000000000000000000000000000000000000000000000000000000000000000000000000000000000000000000000000000000000000000000000000000000000000000000000000000000000000000000000000000000
310
00000000000000000000000000000000000000000000000000000000000000000000000000000000000000000000000000000000000000000000000000000000000000000000000000000000000000000000000000000000000000000000000000000000000000000000000000000000000000000000000000000000000000
310
00000000000000000000000000000000000000000000000000000000000000000000000000000000000000000000000000000000000000000000000000000000000000000000000000000000000000000000000000000000000000000000000000000000000000000000000000000000000000000000000000000000000000
310
00000000000000000000000000000000000000000000000000000000000000000000000000000000000000000000000000000000000000000000000000000000000000000000000000000000000000000000000000000000000000000000000000000000000000000000000000000000000000000000000000000000000000
310
00000000000000000000000000000000000000000000000000000000000000000000000000000000000000000000000000000000000000000000000000000000000000000000000000000000000000000000000000000000000000000000000000000000000000000000000000000000000000000000000000000000000000
310
00000000000000000000000000000000000000000000000000000000000000000000000000000000000000000000000000000000000000000000000000000000000000000000000000000000000000000000000000000000000000000000000000000000000000000000000000000000000000000000000000000000000000
310
00000000000000000000000000000000000000000000000000000000000000000000000000000000000000000000000000000000000000000000000000000000000000000000000000000000000000000000000000000000000000000000000000000000000000000000000000000000000000000000000000000000000000
310
00000000000000000000000000000000000000000000000000000000000000000000000000000000000000000000000000000000000000000000000000000000000000000000000000000000000000000000000000000000000000000000000000000000000000000000000000000000000000000000000000000000000000
310
00000000000000000000000000000000000000000000000000000000000000000000000000000000000000000000000000000000000000000000000000000000000000000000000000000000000000000000000000000000000000000000000000000000000000000000000000000000000000000000000000000000000000
310
00000000000000000000000000000000000000000000000000000000000000000000000000000000000000000000000000000000000000000000000000000000000000000000000000000000000000000000000000000000000000000000000000000000000000000000000000000000000000000000000000000000000000
310
00000000000000000000000000000000000000000000000000000000000000000000000000000000000000000000000000000000000000000000000000000000000000000000000000000000000000000000000000000000000000000000000000000000000000000000000000000000000000000000000000000000000000
310
00000000000000000000000000000000000000000000000000000000000000000000000000000000000000000000000000000000000000000000000000000000000000000000000000000000000000000000000000000000000000000000000000000000000000000000000000000000000000000000000000000000000000
310
00000000000000000000000000000000000000000000000000000000000000000000000000000000000000000000000000000000000000000000000000000000000000000000000000000000000000000000000000000000000000000000000000000000000000000000000000000000000000000000000000000000000000
310
00000000000000000000000000000000000000000000000000000000000000000000000000000000000000000000000000000000000000000000000000000000000000000000000000000000000000000000000000000000000000000000000000000000000000000000000000000000000000000000000000000000000000
310
00000000000000000000000000000000000000000000000000000000000000000000000000000000000000000000000000000000000000000000000000000000000000000000000000000000000000000000000000000000000000000000000000000000000000000000000000000000000000000000000000000000000000
310
00000000000000000000000000000000000000000000000000000000000000000000000000000000000000000000000000000000000000000000000000000000000000000000000000000000000000000000000000000000000000000000000000000000000000000000000000000000000000000000000000000000000000
310
00000000000000000000000000000000000000000000000000000000000000000000000000000000000000000000000000000000000000000000000000000000000000000000000000000000000000000000000000000000000000000000000000000000000000000000000000000000000000000000000000000000000000
310
00000000000000000000000000000000000000000000000000000000000000000000000000000000000000000000000000000000000000000000000000000000000000000000000000000000000000000000000000000000000000000000000000000000000000000000000000000000000000000000000000000000000000
310
00000000000000000000000000000000000000000000000000000000000000000000000000000000000000000000000000000000000000000000000000000000000000000000000000000000000000000000000000000000000000000000000000000000000000000000000000000000000000000000000000000000000000
310
000000000000000000000000000000000000000000000000000000000000000000000000000000000000000000000000000000000000000000000000000000000000000000000000000000000000000000000000000000000000000000000000
  0
XRECORD
  5
2D0
102
{ACAD_REACTORS
330
45
102
}
330
45
100
AcDbXrecord
280
     1
102
MATERIAL
148
0.0
149
0.0
149
0.0
 93
        0
 94
      127
282
     0
 72
     0
 77
     0
171
     0
175
     0
179
     0
273
     0
  0
XRECORD
  5
46
102
{ACAD_REACTORS
330
45
102
}
330
45
100
AcDbXrecord
280
     1
270
     1
271
     1
  0
XRECORD
  5
47
102
{ACAD_REACTORS
330
45
102
}
330
45
100
AcDbXrecord
280
     1
270
     1
271
     1
  0
XRECORD
  5
48
102
{ACAD_REACTORS
330
45
102
}
330
45
100
AcDbXrecord
280
     1
270
     1
271
     1
  0
XRECORD
  5
49
102
{ACAD_REACTORS
330
45
102
}
330
45
100
AcDbXrecord
280
     1
270
     1
271
     1
  0
XRECORD
  5
4A
102
{ACAD_REACTORS
330
45
102
}
330
45
100
AcDbXrecord
280
     1
270
     1
271
     1
  0
XRECORD
  5
4B
102
{ACAD_REACTORS
330
45
102
}
330
45
100
AcDbXrecord
280
     1
270
     1
271
     1
  0
XRECORD
  5
2CF
102
{ACAD_REACTORS
330
3D
102
}
330
3D
100
AcDbXrecord
280
     1
102
MATERIAL
148
0.0
149
0.0
149
0.0
 93
        0
 94
      127
282
     0
 72
     0
 77
     0
171
     0
175
     0
179
     0
273
     0
  0
XRECORD
  5
3E
102
{ACAD_REACTORS
330
3D
102
}
330
3D
100
AcDbXrecord
280
     1
270
     1
271
     1
  0
XRECORD
  5
3F
102
{ACAD_REACTORS
330
3D
102
}
330
3D
100
AcDbXrecord
280
     1
270
     1
271
     1
  0
XRECORD
  5
40
102
{ACAD_REACTORS
330
3D
102
}
330
3D
100
AcDbXrecord
280
     1
270
     1
271
     1
  0
XRECORD
  5
41
102
{ACAD_REACTORS
330
3D
102
}
330
3D
100
AcDbXrecord
280
     1
270
     1
271
     1
  0
XRECORD
  5
42
102
{ACAD_REACTORS
330
3D
102
}
330
3D
100
AcDbXrecord
280
     1
270
     1
271
     1
  0
XRECORD
  5
43
102
{ACAD_REACTORS
330
3D
102
}
330
3D
100
AcDbXrecord
280
     1
270
     1
271
     1
  0
XRECORD
  5
2C9
102
{ACAD_REACTORS
330
E
102
}
330
E
100
AcDbXrecord
280
     1
102
MATERIAL
148
0.0
149
0.0
149
0.0
 93
        0
 94
      127
282
     0
 72
     0
 77
     0
171
     0
175
     0
179
     0
273
     0
  0
XRECORD
  5
F
102
{ACAD_REACTORS
330
E
102
}
330
E
100
AcDbXrecord
280
     1
270
     1
271
     1
  0
XRECORD
  5
10
102
{ACAD_REACTORS
330
E
102
}
330
E
100
AcDbXrecord
280
     1
270
     1
271
     1
  0
XRECORD
  5
11
102
{ACAD_REACTORS
330
E
102
}
330
E
100
AcDbXrecord
280
     1
270
     1
271
     1
  0
XRECORD
  5
12
102
{ACAD_REACTORS
330
E
102
}
330
E
100
AcDbXrecord
280
     1
270
     1
271
     1
  0
XRECORD
  5
13
102
{ACAD_REACTORS
330
E
102
}
330
E
100
AcDbXrecord
280
     1
270
     1
271
     1
  0
XRECORD
  5
14
102
{ACAD_REACTORS
330
E
102
}
330
E
100
AcDbXrecord
280
     1
270
     1
271
     1
  0
XRECORD
  5
2DB
102
{ACAD_REACTORS
330
2DA
102
}
330
2DA
100
AcDbXrecord
280
     1
102
DISPLAYNAME
  1
Imperial24
102
FLAGS
 90
        0
  0
CELLSTYLEMAP
  5
2C6
102
{ACAD_REACTORS
330
54
102
}
330
54
100
AcDbCellStyleMap
 90
        3
300
CELLSTYLE
  1
TABLEFORMAT_BEGIN
 90
        5
170
     1
 91
        0
 92
    32768
 62
   257
 93
        1
300
CONTENTFORMAT
  1
CONTENTFORMAT_BEGIN
 90
        0
 91
        0
 92
        4
 93
        0
300

 40
0.0
140
1.0
 94
        5
 62
     0
340
24
144
0.25
309
CONTENTFORMAT_END
171
     0
 94
        6
 95
        1
302
GRIDFORMAT
  1
GRIDFORMAT_BEGIN
 90
        0
 91
        1
 62
     0
 92
       -2
340
0
 93
        0
 40
0.045
309
GRIDFORMAT_END
 95
        2
302
GRIDFORMAT
  1
GRIDFORMAT_BEGIN
 90
        0
 91
        1
 62
     0
 92
       -2
340
0
 93
        0
 40
0.045
309
GRIDFORMAT_END
 95
        4
302
GRIDFORMAT
  1
GRIDFORMAT_BEGIN
 90
        0
 91
        1
 62
     0
 92
       -2
340
0
 93
        0
 40
0.045
309
GRIDFORMAT_END
 95
        8
302
GRIDFORMAT
  1
GRIDFORMAT_BEGIN
 90
        0
 91
        1
 62
     0
 92
       -2
340
0
 93
        0
 40
0.045
309
GRIDFORMAT_END
 95
       16
302
GRIDFORMAT
  1
GRIDFORMAT_BEGIN
 90
        0
 91
        1
 62
     0
 92
       -2
340
0
 93
        0
 40
0.045
309
GRIDFORMAT_END
 95
       32
302
GRIDFORMAT
  1
GRIDFORMAT_BEGIN
 90
        0
 91
        1
 62
     0
 92
       -2
340
0
 93
        0
 40
0.045
309
GRIDFORMAT_END
309
TABLEFORMAT_END
  1
CELLSTYLE_BEGIN
 90
        1
 91
        1
300
_TITLE
309
CELLSTYLE_END
300
CELLSTYLE
  1
TABLEFORMAT_BEGIN
 90
        5
170
     1
 91
        0
 92
        0
 62
   257
 93
        1
300
CONTENTFORMAT
  1
CONTENTFORMAT_BEGIN
 90
        0
 91
        0
 92
        4
 93
        0
300

 40
0.0
140
1.0
 94
        5
 62
     0
340
24
144
0.18
309
CONTENTFORMAT_END
171
     0
 94
        6
 95
        1
302
GRIDFORMAT
  1
GRIDFORMAT_BEGIN
 90
        0
 91
        1
 62
     0
 92
       -2
340
0
 93
        0
 40
0.045
309
GRIDFORMAT_END
 95
        2
302
GRIDFORMAT
  1
GRIDFORMAT_BEGIN
 90
        0
 91
        1
 62
     0
 92
       -2
340
0
 93
        0
 40
0.045
309
GRIDFORMAT_END
 95
        4
302
GRIDFORMAT
  1
GRIDFORMAT_BEGIN
 90
        0
 91
        1
 62
     0
 92
       -2
340
0
 93
        0
 40
0.045
309
GRIDFORMAT_END
 95
        8
302
GRIDFORMAT
  1
GRIDFORMAT_BEGIN
 90
        0
 91
        1
 62
     0
 92
       -2
340
0
 93
        0
 40
0.045
309
GRIDFORMAT_END
 95
       16
302
GRIDFORMAT
  1
GRIDFORMAT_BEGIN
 90
        0
 91
        1
 62
     0
 92
       -2
340
0
 93
        0
 40
0.045
309
GRIDFORMAT_END
 95
       32
302
GRIDFORMAT
  1
GRIDFORMAT_BEGIN
 90
        0
 91
        1
 62
     0
 92
       -2
340
0
 93
        0
 40
0.045
309
GRIDFORMAT_END
309
TABLEFORMAT_END
  1
CELLSTYLE_BEGIN
 90
        2
 91
        1
300
_HEADER
309
CELLSTYLE_END
300
CELLSTYLE
  1
TABLEFORMAT_BEGIN
 90
        5
170
     1
 91
        0
 92
        0
 62
   257
 93
        1
300
CONTENTFORMAT
  1
CONTENTFORMAT_BEGIN
 90
        0
 91
        0
 92
        4
 93
        0
300

 40
0.0
140
1.0
 94
        2
 62
     0
340
24
144
0.18
309
CONTENTFORMAT_END
171
     0
 94
        6
 95
        1
302
GRIDFORMAT
  1
GRIDFORMAT_BEGIN
 90
        0
 91
        1
 62
     0
 92
       -2
340
0
 93
        0
 40
0.045
309
GRIDFORMAT_END
 95
        2
302
GRIDFORMAT
  1
GRIDFORMAT_BEGIN
 90
        0
 91
        1
 62
     0
 92
       -2
340
0
 93
        0
 40
0.045
309
GRIDFORMAT_END
 95
        4
302
GRIDFORMAT
  1
GRIDFORMAT_BEGIN
 90
        0
 91
        1
 62
     0
 92
       -2
340
0
 93
        0
 40
0.045
309
GRIDFORMAT_END
 95
        8
302
GRIDFORMAT
  1
GRIDFORMAT_BEGIN
 90
        0
 91
        1
 62
     0
 92
       -2
340
0
 93
        0
 40
0.045
309
GRIDFORMAT_END
 95
       16
302
GRIDFORMAT
  1
GRIDFORMAT_BEGIN
 90
        0
 91
        1
 62
     0
 92
       -2
340
0
 93
        0
 40
0.045
309
GRIDFORMAT_END
 95
       32
302
GRIDFORMAT
  1
GRIDFORMAT_BEGIN
 90
        0
 91
        1
 62
     0
 92
       -2
340
0
 93
        0
 40
0.045
309
GRIDFORMAT_END
309
TABLEFORMAT_END
  1
CELLSTYLE_BEGIN
 90
        3
 91
        2
300
_DATA
309
CELLSTYLE_END
  0
XRECORD
  5
2D1
102
{ACAD_REACTORS
330
54
102
}
330
54
100
AcDbXrecord
280
     1
102
ACAD_ROUNDTRIP_PRE2007_TABLESTYLE
 90
        4
 91
        0
  1

 92
        4
 93
        0
  2

 94
        4
 95
        0
  3

  0
XRECORD
  5
2CE
102
{ACAD_REACTORS
330
2CD
102
}
330
2CD
100
AcDbXrecord
280
     1
102
RTVSPost2010Prop28
280
     1
102
RTVSPost2010PropOp28
 70
     1
102
RTVSPost2010Prop29
280
     1
102
RTVSPost2010PropOp29
 70
     1
102
RTVSPost2010Prop30
280
     0
102
RTVSPost2010PropOp30
 70
     1
102
RTVSPost2010Prop31
280
     0
102
RTVSPost2010PropOp31
 70
     1
102
RTVSPost2010Prop32
280
     0
102
RTVSPost2010PropOp32
 70
     1
102
RTVSPost2010Prop33
280
     0
102
RTVSPost2010PropOp33
 70
     1
102
RTVSPost2010Prop34
280
     0
102
RTVSPost2010PropOp34
 70
     1
102
RTVSPost2010Prop35
280
     0
102
RTVSPost2010PropOp35
 70
     1
102
RTVSPost2010Prop36
280
     0
102
RTVSPost2010PropOp36
 70
     1
102
RTVSPost2010Prop37
 90
       50
102
RTVSPost2010PropOp37
 70
     1
102
RTVSPost2010Prop38
140
0.0
102
RTVSPost2010PropOp38
 70
     1
102
RTVSPost2010Prop39
140
1.0
102
RTVSPost2010PropOp39
 70
     1
102
RTVSPost2010Prop40
 90
        0
102
RTVSPost2010PropOp40
 70
     1
102
RTVSPost2010Prop41ColorIndex
 90
       18
102
RTVSPost2010Prop41ColorRGB
 90
        0
102
RTVSPost2010PropOp41
 70
     1
102
RTVSPost2010Prop42
 90
       50
102
RTVSPost2010PropOp42
 70
     1
102
RTVSPost2010Prop43
 90
        3
102
RTVSPost2010PropOp43
 70
     1
102
RTVSPost2010Prop44ColorIndex
 90
        5
102
RTVSPost2010Prop44ColorRGB
 90
      255
102
RTVSPost2010PropOp44
 70
     1
102
RTVSPost2010Prop45
280
     0
102
RTVSPost2010PropOp45
 70
     1
102
RTVSPost2010Prop46
 90
       50
102
RTVSPost2010PropOp46
 70
     1
102
RTVSPost2010Prop47
 90
       50
102
RTVSPost2010PropOp47
 70
     1
102
RTVSPost2010Prop48
 90
       50
102
RTVSPost2010PropOp48
 70
     1
102
RTVSPost2010Prop49
280
     0
102
RTVSPost2010PropOp49
 70
     1
102
RTVSPost2010Prop50
 90
       50
102
RTVSPost2010PropOp50
 70
     1
102
RTVSPost2010Prop51ColorIndex
 90
      256
102
RTVSPost2010Prop51ColorRGB
 90
-16777216
102
RTVSPost2010PropOp51
 70
     0
102
RTVSPost2010Prop52
140
1.0
102
RTVSPost2010PropOp52
 70
     0
102
RTVSPost2010Prop53
 90
        2
102
RTVSPost2010PropOp53
 70
     1
102
RTVSPost2010Prop54
  1
strokes_ogs.tif
102
RTVSPost2010PropOp54
 70
     1
102
RTVSPost2010Prop55
280
     0
102
RTVSPost2010PropOp55
 70
     1
102
RTVSPost2010Prop56
140
1.0
102
RTVSPost2010PropOp56
 70
     1
102
RTVSPost2010Prop57
140
1.0
102
RTVSPost2010PropOp57
 70
     1
102
RTVSPropertyOp0
 70
     1
102
RTVSPropertyOp1
 70
     1
102
RTVSPropertyOp2
 70
     1
102
RTVSPropertyOp3
 70
     1
102
RTVSPropertyOp4
 70
     1
102
RTVSPropertyOp5
 70
     1
102
RTVSPropertyOp6
 70
     1
102
RTVSPropertyOp7
 70
     1
102
RTVSPropertyOp8
 70
     1
102
RTVSPropertyOp9
 70
     1
102
RTVSPropertyOp10
 70
     1
102
RTVSPropertyOp11
 70
     1
102
RTVSPropertyOp12
 70
     1
102
RTVSPropertyOp13
 70
     1
102
RTVSPropertyOp14
 70
     1
102
RTVSPropertyOp15
 70
     1
102
RTVSPropertyOp16
 70
     1
102
RTVSPropertyOp17
 70
     1
102
RTVSPropertyOp18
 70
     1
102
RTVSPropertyOp19
 70
     1
102
RTVSPropertyOp20
 70
     1
102
RTVSPropertyOp21
 70
     1
102
RTVSPropertyOp22
 70
     1
102
RTVSPropertyOp23
 70
     1
102
RTVSPropertyOp24
 70
     1
102
RTVSPropertyOp25
 70
     1
102
RTVSPropertyOp26
 70
     1
102
RTVSPropertyOp27
 70
     1
102
RTVSPropertyOp28
 70
     1
102
RTVSPropertyOp29
 70
     1
102
RTVSPropertyOp30
 70
     1
102
RTVSPropertyOp31
 70
     1
102
RTVSPropertyOp32
 70
     1
102
RTVSPropertyOp33
 70
     1
102
RTVSPropertyOp34
 70
     1
102
RTVSPropertyOp35
 70
     1
102
RTVSPropertyOp36
 70
     1
102
RTVSPropertyOp37
 70
     1
102
RTVSPropertyOp38
 70
     1
102
RTVSPropertyOp39
 70
     1
102
RTVSPropertyOp40
 70
     1
102
RTVSPropertyOp41
 70
     1
102
RTVSPropertyOp42
 70
     1
102
RTVSPropertyOp43
 70
     1
102
RTVSPropertyOp44
 70
     1
102
RTVSPropertyOp45
 70
     1
102
RTVSPropertyOp46
 70
     1
102
RTVSPropertyOp47
 70
     1
102
RTVSPropertyOp48
 70
     1
102
RTVSPropertyOp49
 70
     1
102
RTVSPropertyOp50
 70
     1
102
RTVSPropertyOp51
 70
     0
102
RTVSPropertyOp52
 70
     0
102
RTVSPropertyOp53
 70
     1
102
RTVSPropertyOp54
 70
     1
102
RTVSPropertyOp55
 70
     1
102
RTVSPropertyOp56
 70
     1
102
RTVSPropertyOp57
 70
     1
102
RTVSPropertyOp58
 70
     1
102
RTVSPropertyOp59
 70
     1
102
RTVSPropertyOp60
 70
     1
102
RTVSPropertyOp61
 70
     1
102
RTVSPropertyOp62
 70
     1
  0
XRECORD
  5
2D3
102
{ACAD_REACTORS
330
2D2
102
}
330
2D2
100
AcDbXrecord
280
     1
102
RTVSPost2010Prop28
280
     0
102
RTVSPost2010PropOp28
 70
     1
102
RTVSPost2010Prop29
280
     1
102
RTVSPost2010PropOp29
 70
     1
102
RTVSPost2010Prop30
280
     1
102
RTVSPost2010PropOp30
 70
     1
102
RTVSPost2010Prop31
280
     0
102
RTVSPost2010PropOp31
 70
     1
102
RTVSPost2010Prop32
280
     0
102
RTVSPost2010PropOp32
 70
     1
102
RTVSPost2010Prop33
280
     0
102
RTVSPost2010PropOp33
 70
     1
102
RTVSPost2010Prop34
280
     0
102
RTVSPost2010PropOp34
 70
     1
102
RTVSPost2010Prop35
280
     0
102
RTVSPost2010PropOp35
 70
     1
102
RTVSPost2010Prop36
280
     0
102
RTVSPost2010PropOp36
 70
     1
102
RTVSPost2010Prop37
 90
       50
102
RTVSPost2010PropOp37
 70
     1
102
RTVSPost2010Prop38
140
0.0
102
RTVSPost2010PropOp38
 70
     1
102
RTVSPost2010Prop39
140
1.0
102
RTVSPost2010PropOp39
 70
     1
102
RTVSPost2010Prop40
 90
        0
102
RTVSPost2010PropOp40
 70
     1
102
RTVSPost2010Prop41ColorIndex
 90
       18
102
RTVSPost2010Prop41ColorRGB
 90
        0
102
RTVSPost2010PropOp41
 70
     1
102
RTVSPost2010Prop42
 90
       50
102
RTVSPost2010PropOp42
 70
     1
102
RTVSPost2010Prop43
 90
        3
102
RTVSPost2010PropOp43
 70
     1
102
RTVSPost2010Prop44ColorIndex
 90
        5
102
RTVSPost2010Prop44ColorRGB
 90
      255
102
RTVSPost2010PropOp44
 70
     1
102
RTVSPost2010Prop45
280
     0
102
RTVSPost2010PropOp45
 70
     1
102
RTVSPost2010Prop46
 90
       50
102
RTVSPost2010PropOp46
 70
     1
102
RTVSPost2010Prop47
 90
       50
102
RTVSPost2010PropOp47
 70
     1
102
RTVSPost2010Prop48
 90
       50
102
RTVSPost2010PropOp48
 70
     1
102
RTVSPost2010Prop49
280
     0
102
RTVSPost2010PropOp49
 70
     1
102
RTVSPost2010Prop50
 90
       50
102
RTVSPost2010PropOp50
 70
     1
102
RTVSPost2010Prop51ColorIndex
 90
      256
102
RTVSPost2010Prop51ColorRGB
 90
-16777216
102
RTVSPost2010PropOp51
 70
     0
102
RTVSPost2010Prop52
140
1.0
102
RTVSPost2010PropOp52
 70
     0
102
RTVSPost2010Prop53
 90
        2
102
RTVSPost2010PropOp53
 70
     1
102
RTVSPost2010Prop54
  1
strokes_ogs.tif
102
RTVSPost2010PropOp54
 70
     1
102
RTVSPost2010Prop55
280
     0
102
RTVSPost2010PropOp55
 70
     1
102
RTVSPost2010Prop56
140
1.0
102
RTVSPost2010PropOp56
 70
     1
102
RTVSPost2010Prop57
140
1.0
102
RTVSPost2010PropOp57
 70
     1
102
RTVSPropertyOp0
 70
     1
102
RTVSPropertyOp1
 70
     1
102
RTVSPropertyOp2
 70
     1
102
RTVSPropertyOp3
 70
     1
102
RTVSPropertyOp4
 70
     1
102
RTVSPropertyOp5
 70
     1
102
RTVSPropertyOp6
 70
     1
102
RTVSPropertyOp7
 70
     1
102
RTVSPropertyOp8
 70
     1
102
RTVSPropertyOp9
 70
     1
102
RTVSPropertyOp10
 70
     1
102
RTVSPropertyOp11
 70
     1
102
RTVSPropertyOp12
 70
     1
102
RTVSPropertyOp13
 70
     1
102
RTVSPropertyOp14
 70
     1
102
RTVSPropertyOp15
 70
     1
102
RTVSPropertyOp16
 70
     1
102
RTVSPropertyOp17
 70
     1
102
RTVSPropertyOp18
 70
     1
102
RTVSPropertyOp19
 70
     1
102
RTVSPropertyOp20
 70
     1
102
RTVSPropertyOp21
 70
     1
102
RTVSPropertyOp22
 70
     1
102
RTVSPropertyOp23
 70
     1
102
RTVSPropertyOp24
 70
     1
102
RTVSPropertyOp25
 70
     1
102
RTVSPropertyOp26
 70
     1
102
RTVSPropertyOp27
 70
     1
102
RTVSPropertyOp28
 70
     1
102
RTVSPropertyOp29
 70
     1
102
RTVSPropertyOp30
 70
     1
102
RTVSPropertyOp31
 70
     1
102
RTVSPropertyOp32
 70
     1
102
RTVSPropertyOp33
 70
     1
102
RTVSPropertyOp34
 70
     1
102
RTVSPropertyOp35
 70
     1
102
RTVSPropertyOp36
 70
     1
102
RTVSPropertyOp37
 70
     1
102
RTVSPropertyOp38
 70
     1
102
RTVSPropertyOp39
 70
     1
102
RTVSPropertyOp40
 70
     1
102
RTVSPropertyOp41
 70
     1
102
RTVSPropertyOp42
 70
     1
102
RTVSPropertyOp43
 70
     1
102
RTVSPropertyOp44
 70
     1
102
RTVSPropertyOp45
 70
     1
102
RTVSPropertyOp46
 70
     1
102
RTVSPropertyOp47
 70
     1
102
RTVSPropertyOp48
 70
     1
102
RTVSPropertyOp49
 70
     1
102
RTVSPropertyOp50
 70
     1
102
RTVSPropertyOp51
 70
     0
102
RTVSPropertyOp52
 70
     0
102
RTVSPropertyOp53
 70
     1
102
RTVSPropertyOp54
 70
     1
102
RTVSPropertyOp55
 70
     1
102
RTVSPropertyOp56
 70
     1
102
RTVSPropertyOp57
 70
     1
102
RTVSPropertyOp58
 70
     1
102
RTVSPropertyOp59
 70
     1
102
RTVSPropertyOp60
 70
     1
102
RTVSPropertyOp61
 70
     1
102
RTVSPropertyOp62
 70
     1
  0
XRECORD
  5
2D5
102
{ACAD_REACTORS
330
2D4
102
}
330
2D4
100
AcDbXrecord
280
     1
102
RTVSPost2010Prop28
280
     0
102
RTVSPost2010PropOp28
 70
     1
102
RTVSPost2010Prop29
280
     1
102
RTVSPost2010PropOp29
 70
     1
102
RTVSPost2010Prop30
280
     1
102
RTVSPost2010PropOp30
 70
     1
102
RTVSPost2010Prop31
280
     0
102
RTVSPost2010PropOp31
 70
     1
102
RTVSPost2010Prop32
280
     0
102
RTVSPost2010PropOp32
 70
     1
102
RTVSPost2010Prop33
280
     0
102
RTVSPost2010PropOp33
 70
     1
102
RTVSPost2010Prop34
280
     0
102
RTVSPost2010PropOp34
 70
     1
102
RTVSPost2010Prop35
280
     0
102
RTVSPost2010PropOp35
 70
     1
102
RTVSPost2010Prop36
280
     0
102
RTVSPost2010PropOp36
 70
     1
102
RTVSPost2010Prop37
 90
       50
102
RTVSPost2010PropOp37
 70
     1
102
RTVSPost2010Prop38
140
0.0
102
RTVSPost2010PropOp38
 70
     1
102
RTVSPost2010Prop39
140
1.0
102
RTVSPost2010PropOp39
 70
     1
102
RTVSPost2010Prop40
 90
        0
102
RTVSPost2010PropOp40
 70
     1
102
RTVSPost2010Prop41ColorIndex
 90
       18
102
RTVSPost2010Prop41ColorRGB
 90
        0
102
RTVSPost2010PropOp41
 70
     1
102
RTVSPost2010Prop42
 90
       50
102
RTVSPost2010PropOp42
 70
     1
102
RTVSPost2010Prop43
 90
        3
102
RTVSPost2010PropOp43
 70
     1
102
RTVSPost2010Prop44ColorIndex
 90
        5
102
RTVSPost2010Prop44ColorRGB
 90
      255
102
RTVSPost2010PropOp44
 70
     1
102
RTVSPost2010Prop45
280
     0
102
RTVSPost2010PropOp45
 70
     1
102
RTVSPost2010Prop46
 90
       50
102
RTVSPost2010PropOp46
 70
     1
102
RTVSPost2010Prop47
 90
       50
102
RTVSPost2010PropOp47
 70
     1
102
RTVSPost2010Prop48
 90
       50
102
RTVSPost2010PropOp48
 70
     1
102
RTVSPost2010Prop49
280
     0
102
RTVSPost2010PropOp49
 70
     1
102
RTVSPost2010Prop50
 90
       50
102
RTVSPost2010PropOp50
 70
     1
102
RTVSPost2010Prop51ColorIndex
 90
      256
102
RTVSPost2010Prop51ColorRGB
 90
-16777216
102
RTVSPost2010PropOp51
 70
     0
102
RTVSPost2010Prop52
140
1.0
102
RTVSPost2010PropOp52
 70
     0
102
RTVSPost2010Prop53
 90
        2
102
RTVSPost2010PropOp53
 70
     1
102
RTVSPost2010Prop54
  1
strokes_ogs.tif
102
RTVSPost2010PropOp54
 70
     1
102
RTVSPost2010Prop55
280
     0
102
RTVSPost2010PropOp55
 70
     1
102
RTVSPost2010Prop56
140
1.0
102
RTVSPost2010PropOp56
 70
     1
102
RTVSPost2010Prop57
140
1.0
102
RTVSPost2010PropOp57
 70
     1
102
RTVSPropertyOp0
 70
     1
102
RTVSPropertyOp1
 70
     1
102
RTVSPropertyOp2
 70
     1
102
RTVSPropertyOp3
 70
     1
102
RTVSPropertyOp4
 70
     1
102
RTVSPropertyOp5
 70
     1
102
RTVSPropertyOp6
 70
     1
102
RTVSPropertyOp7
 70
     1
102
RTVSPropertyOp8
 70
     1
102
RTVSPropertyOp9
 70
     1
102
RTVSPropertyOp10
 70
     1
102
RTVSPropertyOp11
 70
     1
102
RTVSPropertyOp12
 70
     1
102
RTVSPropertyOp13
 70
     1
102
RTVSPropertyOp14
 70
     1
102
RTVSPropertyOp15
 70
     1
102
RTVSPropertyOp16
 70
     1
102
RTVSPropertyOp17
 70
     1
102
RTVSPropertyOp18
 70
     1
102
RTVSPropertyOp19
 70
     1
102
RTVSPropertyOp20
 70
     1
102
RTVSPropertyOp21
 70
     1
102
RTVSPropertyOp22
 70
     1
102
RTVSPropertyOp23
 70
     1
102
RTVSPropertyOp24
 70
     1
102
RTVSPropertyOp25
 70
     1
102
RTVSPropertyOp26
 70
     1
102
RTVSPropertyOp27
 70
     1
102
RTVSPropertyOp28
 70
     1
102
RTVSPropertyOp29
 70
     1
102
RTVSPropertyOp30
 70
     1
102
RTVSPropertyOp31
 70
     1
102
RTVSPropertyOp32
 70
     1
102
RTVSPropertyOp33
 70
     1
102
RTVSPropertyOp34
 70
     1
102
RTVSPropertyOp35
 70
     1
102
RTVSPropertyOp36
 70
     1
102
RTVSPropertyOp37
 70
     1
102
RTVSPropertyOp38
 70
     1
102
RTVSPropertyOp39
 70
     1
102
RTVSPropertyOp40
 70
     1
102
RTVSPropertyOp41
 70
     1
102
RTVSPropertyOp42
 70
     1
102
RTVSPropertyOp43
 70
     1
102
RTVSPropertyOp44
 70
     1
102
RTVSPropertyOp45
 70
     1
102
RTVSPropertyOp46
 70
     1
102
RTVSPropertyOp47
 70
     1
102
RTVSPropertyOp48
 70
     1
102
RTVSPropertyOp49
 70
     1
102
RTVSPropertyOp50
 70
     1
102
RTVSPropertyOp51
 70
     0
102
RTVSPropertyOp52
 70
     0
102
RTVSPropertyOp53
 70
     1
102
RTVSPropertyOp54
 70
     1
102
RTVSPropertyOp55
 70
     1
102
RTVSPropertyOp56
 70
     1
102
RTVSPropertyOp57
 70
     1
102
RTVSPropertyOp58
 70
     1
102
RTVSPropertyOp59
 70
     1
102
RTVSPropertyOp60
 70
     1
102
RTVSPropertyOp61
 70
     1
102
RTVSPropertyOp62
 70
     1
  0
ENDSEC
  0
EOF
