  0
SECTION
  2
HEADER
  9
$ACADVER
  1
AC1027
  9
$ACADMAINTVER
 70
    57
  9
$DWGCODEPAGE
  3
ANSI_1252
  9
$REQUIREDVERSIONS
160
                 0
  9
$INSBASE
 10
0.0
 20
0.0
 30
0.0
  9
$EXTMIN
 10
-96.1479962880473
 20
1796.467491377398
 30
0.0
  9
$EXTMAX
 10
1890.690522043946
 20
3398.883658462244
 30
0.0
  9
$LIMMIN
 10
0.0
 20
0.0
  9
$LIMMAX
 10
420.0
 20
420.0
  9
$ORTHOMODE
 70
     0
  9
$REGENMODE
 70
     1
  9
$FILLMODE
 70
     1
  9
$QTEXTMODE
 70
     0
  9
$MIRRTEXT
 70
     0
  9
$LTSCALE
 40
1.0
  9
$ATTMODE
 70
     1
  9
$TEXTSIZE
 40
2.399999999999999
  9
$TRACEWID
 40
0.05
  9
$TEXTSTYLE
  7
NORM
  9
$CLAYER
  8
0
  9
$CELTYPE
  6
BYLAYER
  9
$CECOLOR
 62
   256
  9
$CELTSCALE
 40
1.0
  9
$DISPSILH
 70
     0
  9
$DIMSCALE
 40
1.0
  9
$DIMASZ
 40
3.5
  9
$DIMEXO
 40
0.0
  9
$DIMDLI
 40
8.0
  9
$DIMRND
 40
0.0
  9
$DIMDLE
 40
0.0
  9
$DIMEXE
 40
0.5
  9
$DIMTP
 40
0.0
  9
$DIMTM
 40
0.0
  9
$DIMTXT
 40
3.5
  9
$DIMCEN
 40
1.5
  9
$DIMTSZ
 40
0.0
  9
$DIMTOL
 70
     0
  9
$DIMLIM
 70
     0
  9
$DIMTIH
 70
     0
  9
$DIMTOH
 70
     0
  9
$DIMSE1
 70
     0
  9
$DIMSE2
 70
     0
  9
$DIMTAD
 70
     1
  9
$DIMZIN
 70
     8
  9
$DIMBLK
  1

  9
$DIMASO
 70
     1
  9
$DIMSHO
 70
     1
  9
$DIMPOST
  1

  9
$DIMAPOST
  1

  9
$DIMALT
 70
     0
  9
$DIMALTD
 70
     2
  9
$DIMALTF
 40
25.4
  9
$DIMLFAC
 40
1.0
  9
$DIMTOFL
 70
     1
  9
$DIMTVP
 40
0.0
  9
$DIMTIX
 70
     1
  9
$DIMSOXD
 70
     0
  9
$DIMSAH
 70
     0
  9
$DIMBLK1
  1

  9
$DIMBLK2
  1

  9
$DIMSTYLE
  2
NORMAL
  9
$DIMCLRD
 70
   256
  9
$DIMCLRE
 70
   256
  9
$DIMCLRT
 70
     3
  9
$DIMTFAC
 40
0.5
  9
$DIMGAP
 40
1.0
  9
$DIMJUST
 70
     0
  9
$DIMSD1
 70
     0
  9
$DIMSD2
 70
     0
  9
$DIMTOLJ
 70
     1
  9
$DIMTZIN
 70
     8
  9
$DIMALTZ
 70
     0
  9
$DIMALTTZ
 70
     0
  9
$DIMUPT
 70
     0
  9
$DIMDEC
 70
     2
  9
$DIMTDEC
 70
     2
  9
$DIMALTU
 70
     2
  9
$DIMALTTD
 70
     2
  9
$DIMTXSTY
  7
ARIAL-STANDARD
  9
$DIMAUNIT
 70
     0
  9
$DIMADEC
 70
     0
  9
$DIMALTRND
 40
0.0
  9
$DIMAZIN
 70
     0
  9
$DIMDSEP
 70
    46
  9
$DIMATFIT
 70
     3
  9
$DIMFRAC
 70
     0
  9
$DIMLDRBLK
  1

  9
$DIMLUNIT
 70
     2
  9
$DIMLWD
 70
    -2
  9
$DIMLWE
 70
    -2
  9
$DIMTMOVE
 70
     0
  9
$DIMFXL
 40
1.0
  9
$DIMFXLON
 70
     0
  9
$DIMJOGANG
 40
0.7853981633974483
  9
$DIMTFILL
 70
     0
  9
$DIMTFILLCLR
 70
     0
  9
$DIMARCSYM
 70
     0
  9
$DIMLTYPE
  6

  9
$DIMLTEX1
  6

  9
$DIMLTEX2
  6

  9
$DIMTXTDIRECTION
 70
     0
  9
$LUNITS
 70
     2
  9
$LUPREC
 70
     2
  9
$SKETCHINC
 40
0.1
  9
$FILLETRAD
 40
1.0
  9
$AUNITS
 70
     0
  9
$AUPREC
 70
     0
  9
$MENU
  1
.
  9
$ELEVATION
 40
0.0
  9
$PELEVATION
 40
0.0
  9
$THICKNESS
 40
0.0
  9
$LIMCHECK
 70
     0
  9
$CHAMFERA
 40
2.5
  9
$CHAMFERB
 40
2.5
  9
$CHAMFERC
 40
1.0
  9
$CHAMFERD
 40
0.0
  9
$SKPOLY
 70
     0
  9
$TDCREATE
 40
2456932.590940151
  9
$TDUCREATE
 40
2456932.549273484
  9
$TDUPDATE
 40
2457337.668740984
  9
$TDUUPDATE
 40
2457337.627074317
  9
$TDINDWG
 40
6.0861064699
  9
$TDUSRTIMER
 40
6.0861028241
  9
$USRTIMER
 70
     1
  9
$ANGBASE
 50
0.0
  9
$ANGDIR
 70
     0
  9
$PDMODE
 70
     0
  9
$PDSIZE
 40
0.0
  9
$PLINEWID
 40
0.0
  9
$SPLFRAME
 70
     0
  9
$SPLINETYPE
 70
     6
  9
$SPLINESEGS
 70
     8
  9
$HANDSEED
  5
3FF
  9
$SURFTAB1
 70
     6
  9
$SURFTAB2
 70
     6
  9
$SURFTYPE
 70
     6
  9
$SURFU
 70
     6
  9
$SURFV
 70
     6
  9
$UCSBASE
  2

  9
$UCSNAME
  2

  9
$UCSORG
 10
0.0
 20
0.0
 30
0.0
  9
$UCSXDIR
 10
1.0
 20
0.0
 30
0.0
  9
$UCSYDIR
 10
0.0
 20
1.0
 30
0.0
  9
$UCSORTHOREF
  2

  9
$UCSORTHOVIEW
 70
     0
  9
$UCSORGTOP
 10
0.0
 20
0.0
 30
0.0
  9
$UCSORGBOTTOM
 10
0.0
 20
0.0
 30
0.0
  9
$UCSORGLEFT
 10
0.0
 20
0.0
 30
0.0
  9
$UCSORGRIGHT
 10
0.0
 20
0.0
 30
0.0
  9
$UCSORGFRONT
 10
0.0
 20
0.0
 30
0.0
  9
$UCSORGBACK
 10
0.0
 20
0.0
 30
0.0
  9
$PUCSBASE
  2

  9
$PUCSNAME
  2

  9
$PUCSORG
 10
0.0
 20
0.0
 30
0.0
  9
$PUCSXDIR
 10
1.0
 20
0.0
 30
0.0
  9
$PUCSYDIR
 10
0.0
 20
1.0
 30
0.0
  9
$PUCSORTHOREF
  2

  9
$PUCSORTHOVIEW
 70
     0
  9
$PUCSORGTOP
 10
0.0
 20
0.0
 30
0.0
  9
$PUCSORGBOTTOM
 10
0.0
 20
0.0
 30
0.0
  9
$PUCSORGLEFT
 10
0.0
 20
0.0
 30
0.0
  9
$PUCSORGRIGHT
 10
0.0
 20
0.0
 30
0.0
  9
$PUCSORGFRONT
 10
0.0
 20
0.0
 30
0.0
  9
$PUCSORGBACK
 10
0.0
 20
0.0
 30
0.0
  9
$USERI1
 70
     0
  9
$USERI2
 70
     0
  9
$USERI3
 70
     0
  9
$USERI4
 70
     0
  9
$USERI5
 70
     0
  9
$USERR1
 40
0.0
  9
$USERR2
 40
0.0
  9
$USERR3
 40
0.0
  9
$USERR4
 40
0.0
  9
$USERR5
 40
0.0
  9
$WORLDVIEW
 70
     1
  9
$SHADEDGE
 70
     3
  9
$SHADEDIF
 70
    70
  9
$TILEMODE
 70
     1
  9
$MAXACTVP
 70
    48
  9
$PINSBASE
 10
0.0
 20
0.0
 30
0.0
  9
$PLIMCHECK
 70
     0
  9
$PEXTMIN
 10
26.66999878883363
 20
20.31999878883363
 30
0.0
  9
$PEXTMAX
 10
240.0299890995026
 20
182.8799890995025
 30
0.0
  9
$PLIMMIN
 10
-6.350006103515625
 20
-6.349999904632567
  9
$PLIMMAX
 10
273.0499877929688
 20
209.5499939918518
  9
$UNITMODE
 70
     0
  9
$VISRETAIN
 70
     1
  9
$PLINEGEN
 70
     0
  9
$PSLTSCALE
 70
     1
  9
$TREEDEPTH
 70
  3020
  9
$CMLSTYLE
  2
STANDARD
  9
$CMLJUST
 70
     0
  9
$CMLSCALE
 40
1.0
  9
$PROXYGRAPHICS
 70
     1
  9
$MEASUREMENT
 70
     1
  9
$CELWEIGHT
370
    -1
  9
$ENDCAPS
280
     0
  9
$JOINSTYLE
280
     0
  9
$LWDISPLAY
290
     0
  9
$INSUNITS
 70
     0
  9
$HYPERLINKBASE
  1

  9
$STYLESHEET
  1

  9
$XEDIT
290
     1
  9
$CEPSNTYPE
380
     0
  9
$PSTYLEMODE
290
     1
  9
$FINGERPRINTGUID
  2
{E81B7762-A707-44FE-BAAF-4E1560B41FED}
  9
$VERSIONGUID
  2
{E205EBB8-F965-491E-B12C-4FC91E94EE66}
  9
$EXTNAMES
290
     1
  9
$PSVPSCALE
 40
0.0
  9
$OLESTARTUP
290
     0
  9
$SORTENTS
280
   127
  9
$INDEXCTL
280
     0
  9
$HIDETEXT
280
     1
  9
$XCLIPFRAME
280
     0
  9
$HALOGAP
280
     0
  9
$OBSCOLOR
 70
   257
  9
$OBSLTYPE
280
     0
  9
$INTERSECTIONDISPLAY
280
     0
  9
$INTERSECTIONCOLOR
 70
   257
  9
$DIMASSOC
280
     1
  9
$PROJECTNAME
  1

  9
$CAMERADISPLAY
290
     0
  9
$LENSLENGTH
 40
50.0
  9
$CAMERAHEIGHT
 40
0.0
  9
$STEPSPERSEC
 40
2.0
  9
$STEPSIZE
 40
6.0
  9
$3DDWFPREC
 40
2.0
  9
$PSOLWIDTH
 40
0.25
  9
$PSOLHEIGHT
 40
4.0
  9
$LOFTANG1
 40
1.570796326794896
  9
$LOFTANG2
 40
1.570796326794896
  9
$LOFTMAG1
 40
0.0
  9
$LOFTMAG2
 40
0.0
  9
$LOFTPARAM
 70
     7
  9
$LOFTNORMALS
280
     1
  9
$LATITUDE
 40
37.795
  9
$LONGITUDE
 40
-122.394
  9
$NORTHDIRECTION
 40
0.0
  9
$TIMEZONE
 70
 -8000
  9
$LIGHTGLYPHDISPLAY
280
     1
  9
$TILEMODELIGHTSYNCH
280
     1
  9
$CMATERIAL
347
16
  9
$SOLIDHIST
280
     1
  9
$SHOWHIST
280
     1
  9
$DWFFRAME
280
     2
  9
$DGNFRAME
280
     0
  9
$REALWORLDSCALE
290
     1
  9
$INTERFERECOLOR
 62
     1
  9
$INTERFEREOBJVS
345
53
  9
$INTERFEREVPVS
346
54
  9
$CSHADOW
280
     0
  9
$SHADOWPLANELOCATION
 40
0.0
  0
ENDSEC
  0
SECTION
  2
CLASSES
  0
CLASS
  1
ACDBDICTIONARYWDFLT
  2
AcDbDictionaryWithDefault
  3
ObjectDBX Classes
 90
        0
 91
        1
280
     0
281
     0
  0
CLASS
  1
PLOTSETTINGS
  2
AcDbPlotSettings
  3
ObjectDBX Classes
 90
        0
 91
        0
280
     0
281
     0
  0
CLASS
  1
DICTIONARYVAR
  2
AcDbDictionaryVar
  3
ObjectDBX Classes
 90
        0
 91
        9
280
     0
281
     0
  0
CLASS
  1
ACME_DOCUMENT
  2
AcMeDbDoc
  3
AcMeServices
 90
     1024
 91
        0
280
     0
281
     0
  0
CLASS
  1
AMGSETTINGSOBJ
  2
AmgSettingsObj
  3
"AcadM|Product Description: AutoCAD Mechanical|Company: Autodesk, Inc."
 90
     1024
 91
        2
280
     0
281
     0
  0
CLASS
  1
ACMESCOPE
  2
AcMeScope
  3
AcMeServices
 90
     1024
 91
        1
280
     0
281
     0
  0
CLASS
  1
ACMECOMMANDHISTORY
  2
AcMeCommandHistory
  3
AcMeServices
 90
     1024
 91
        0
280
     0
281
     0
  0
CLASS
  1
ACIMSYSVARMAN
  2
AcImSysVarManager
  3
AcMeServices
 90
     1024
 91
        1
280
     0
281
     0
  0
CLASS
  1
ACIMREALSYSVAR
  2
AcImRealSysVar
  3
AcMeServices
 90
     1024
 91
        0
280
     0
281
     0
  0
CLASS
  1
ACIMINTSYSVAR
  2
AcImIntSysVar
  3
AcMeServices
 90
     1024
 91
        0
280
     0
281
     0
  0
CLASS
  1
ACMEDRAWINGMAN
  2
AcMeDrawingMan
  3
AcMeServices
 90
     1024
 91
        0
280
     0
281
     0
  0
CLASS
  1
ACMEVIEW
  2
AcMeView
  3
AcMeServices
 90
     1024
 91
        0
280
     0
281
     0
  0
CLASS
  1
ACDBENTITYCACHE
  2
AcMeEntityCache
  3
AcMeServices
 90
     1024
 91
        0
280
     0
281
     0
  0
CLASS
  1
GSMANAGER
  2
AcMeGSManager
  3
AcMeServices
 90
     1024
 91
        0
280
     1
281
     0
  0
CLASS
  1
AMDTINTERNALREACTOR
  2
AmdtInternalReactor
  3
AcMeServices
 90
     1024
 91
        0
280
     0
281
     0
  0
CLASS
  1
ACMESTATEMGR
  2
AcMeStateMgr
  3
AcMeServices
 90
     1024
 91
        1
280
     0
281
     0
  0
CLASS
  1
ACGREFMASTER
  2
AcGrefMaster
  3
AcAttribServices
 90
     1024
 91
        1
280
     0
281
     0
  0
CLASS
  1
ACME_DATABASE
  2
AcMeDbDatabase
  3
AcMeServices
 90
     1024
 91
        0
280
     0
281
     0
  0
CLASS
  1
ACRFINSADJUSTERMGR
  2
AcRfInsAdjusterMgr
  3
AcMeServices
 90
     1024
 91
        0
280
     0
281
     0
  0
CLASS
  1
ACGREFACADMASTER
  2
AcGrefacadMaster
  3
AcGrefServices
 90
     1024
 91
        0
280
     0
281
     0
  0
CLASS
  1
AMIMASTER
  2
AmiMaster
  3
AmiServices
 90
     1024
 91
        0
280
     0
281
     0
  0
CLASS
  1
ACMDATADICTIONARY
  2
AcmDataDictionary
  3
"AcmSymBB|Product Description: AutoCAD Mechanical|Company: Autodesk, Inc."
 90
     1024
 91
        0
280
     0
281
     0
  0
CLASS
  1
ACMDATAENTRYBLOCK
  2
AcmDataEntryBlock
  3
AcmSymBB|Product Description: AutoCAD Mechanical|Company: Autodesk, Inc.
 90
     1024
 91
        0
280
     0
281
     0
  0
CLASS
  1
ACIMSTRSYSVAR
  2
AcImStrSysVar
  3
AcMeServices
 90
     1024
 91
        1
280
     0
281
     0
  0
CLASS
  1
ACMSTANDARDDIN
  2
AcmStandardDIN
  3
"Amdt_StdImp|Product Description: AutoCAD Mechanical|Company: Autodesk, Inc."
 90
     1024
 91
        1
280
     0
281
     0
  0
CLASS
  1
AMGOBJPROPCFG
  2
AmgObjPropCfg
  3
"AmgLay|Product Description: AutoCAD Mechanical|Company: Autodesk, Inc."
 90
     1024
 91
        1
280
     0
281
     0
  0
CLASS
  1
AMDTEDGESTANDARDDIN
  2
AmdtEdgeStdDIN
  3
"Amdt_StdImp|Product Description: AutoCAD Mechanical|Company: Autodesk, Inc."
 90
     1024
 91
        0
280
     0
281
     0
  0
CLASS
  1
ACMSURFSTANDARDDIN
  2
AcmSurfTextStdDIN
  3
"Amdt_StdImp|Product Description: AutoCAD Mechanical|Company: Autodesk, Inc."
 90
     1024
 91
        0
280
     0
281
     0
  0
CLASS
  1
ACMFCFSTANDARDDIN
  2
AcmFCFStdDIN
  3
"Amdt_StdImp|Product Description: AutoCAD Mechanical|Company: Autodesk, Inc."
 90
     1024
 91
        0
280
     0
281
     0
  0
CLASS
  1
ACMWELDSTANDARDDIN
  2
AcmWeldingStdDIN
  3
"Amdt_StdImp|Product Description: AutoCAD Mechanical|Company: Autodesk, Inc."
 90
     1024
 91
        1
280
     0
281
     0
  0
CLASS
  1
ACMIDSTANDARDDIN
  2
AcmIdStdDIN
  3
"Amdt_StdImp|Product Description: AutoCAD Mechanical|Company: Autodesk, Inc."
 90
     1024
 91
        0
280
     0
281
     0
  0
CLASS
  1
ACMDATUMSTANDARDDIN
  2
AcmDatumStdDIN
  3
"Amdt_StdImp|Product Description: AutoCAD Mechanical|Company: Autodesk, Inc."
 90
     1024
 91
        1
280
     0
281
     0
  0
CLASS
  1
ACMBOMSTANDARDDIN
  2
AcmBOMStdDIN
  3
"Amdt_StdImp|Product Description: AutoCAD Mechanical|Company: Autodesk, Inc."
 90
     1024
 91
        1
280
     0
281
     0
  0
CLASS
  1
ACMDETAILSTANDARDDIN
  2
AmdtDetailSymStdDIN
  3
"Amdt_StdImp|Product Description: AutoCAD Mechanical|Company: Autodesk, Inc."
 90
     1024
 91
        1
280
     0
281
     0
  0
CLASS
  1
ACMSECTIONSTANDARDDIN
  2
AmdtSectionSymStdDIN
  3
"Amdt_StdImp|Product Description: AutoCAD Mechanical|Company: Autodesk, Inc."
 90
     1024
 91
        1
280
     0
281
     0
  0
CLASS
  1
ACMCENTERLINESTANDARDDIN
  2
AmdtCenterLineStdDIN
  3
"Amdt_StdImp|Product Description: AutoCAD Mechanical|Company: Autodesk, Inc."
 90
     1024
 91
        1
280
     0
281
     0
  0
CLASS
  1
ACMNOTESTANDARDDIN
  2
AmdtNoteStdDIN
  3
"Amdt_StdImp|Product Description: AutoCAD Mechanical|Company: Autodesk, Inc."
 90
     1024
 91
        1
280
     0
281
     0
  0
CLASS
  1
ACAMGLAYSTD
  2
AcAmgLayStd
  3
"AmgLay|Product Description: AutoCAD Mechanical|Company: Autodesk, Inc."
 90
     1024
 91
        1
280
     0
281
     0
  0
CLASS
  1
ACAMGDIMSTD
  2
AcAmgDimStd
  3
"AmgDim|Product Description: AutoCAD Mechanical|Company: Autodesk, Inc."
 90
     1024
 91
        1
280
     0
281
     0
  0
CLASS
  1
ACAMGHOLECHARTSTDDIN
  2
AcAmgHoleChartStdDIN
  3
AmgDim|Product Description: AutoCAD Mechanical|Company: Autodesk, Inc.
 90
     1024
 91
        1
280
     0
281
     0
  0
CLASS
  1
ACAMGTITLESTD
  2
AcAmgTitleStd
  3
"AmgTitle|Product Description: AutoCAD Mechanical|Company: Autodesk, Inc."
 90
     1024
 91
        1
280
     0
281
     0
  0
CLASS
  1
ACAMGFILTERDAT
  2
AcAmgFilterDat
  3
"AcadM|Product Description: AutoCAD Mechanical|Company: Autodesk, Inc."
 90
     1024
 91
        0
280
     0
281
     0
  0
CLASS
  1
LAYER_INDEX
  2
AcDbLayerIndex
  3
ObjectDBX Classes
 90
        0
 91
        0
280
     0
281
     0
  0
CLASS
  1
IDBUFFER
  2
AcDbIdBuffer
  3
ObjectDBX Classes
 90
        0
 91
        0
280
     0
281
     0
  0
CLASS
  1
TABLESTYLE
  2
AcDbTableStyle
  3
ObjectDBX Classes
 90
     4095
 91
        1
280
     0
281
     0
  0
CLASS
  1
AM_DRAWING_MGR
  2
AcDmDwgMgr
  3
AcMechDwgViewMgmt
 90
     1024
 91
        0
280
     1
281
     0
  0
CLASS
  1
AM_DWG_DOCUMENT
  2
AcDmDwgDocument
  3
AcMechDwgViewMgmt
 90
     1024
 91
        0
280
     1
281
     0
  0
CLASS
  1
AM_DWG_SHEET
  2
AcDmSheet
  3
AcMechDwgViewMgmt
 90
     1024
 91
        0
280
     1
281
     0
  0
CLASS
  1
AM_VIEWDIMPARMAP
  2
AcDmViewDimParMap
  3
AcMechDwgViewMgmt
 90
     1024
 91
        0
280
     1
281
     0
  0
CLASS
  1
AM_DWGMGR_NAME
  2
AcDmDwgMgrName
  3
AcMechDwgViewMgmt
 90
     1024
 91
        0
280
     1
281
     0
  0
CLASS
  1
AMDTMENUSTATEMGR
  2
AmdtMenuStateMgr
  3
McadcomServices
 90
     1024
 91
        0
280
     0
281
     0
  0
CLASS
  1
AMDTMCOMMENUSTATE
  2
AmdtMcomMenuState
  3
McadcomServices
 90
     1024
 91
        0
280
     0
281
     0
  0
CLASS
  1
MAPIAMMOUDLE
  2
MApiAmModule
  3
MApiAmServices
 90
     1024
 91
        0
280
     0
281
     0
  0
CLASS
  1
AMDTADMENUSTATE
  2
AmdtAdMenuState
  3
DesignerServices
 90
     1024
 91
        0
280
     1
281
     0
  0
CLASS
  1
ADAPPL
  2
AcAdAppl
  3
DesignerAssemblies
 90
     1024
 91
        0
280
     0
281
     0
  0
CLASS
  1
DEPMGR
  2
AcAdDepMgr
  3
DesignerAssemblies
 90
     1024
 91
        0
280
     0
281
     0
  0
CLASS
  1
PARAMMGR
  2
AcAdParamMgr
  3
DesignerAssemblies
 90
     1024
 91
        0
280
     0
281
     0
  0
CLASS
  1
PARAMSCOPE
  2
AcAdParamScope
  3
DesignerAssemblies
 90
     1024
 91
        0
280
     0
281
     0
  0
CLASS
  1
NAMEDAPPL
  2
AcAdNamedAppl
  3
DesignerAssemblies
 90
     1024
 91
        0
280
     0
281
     0
  0
CLASS
  1
AMDTDMMENUSTATE
  2
AmdtDmMenuState
  3
AcMechDwgViewMgmt
 90
     1024
 91
        0
280
     1
281
     0
  0
CLASS
  1
AMDTAMMENUSTATE
  2
AmdtAmMenuState
  3
DesignerAssemblies
 90
     1024
 91
        0
280
     0
281
     0
  0
CLASS
  1
ACAMPROJECT
  2
AcAmProject
  3
DesignerAssemblies
 90
     1024
 91
        0
280
     0
281
     0
  0
CLASS
  1
ACAMGRCOMPDEF
  2
AcAmGrCompDef
  3
DesignerAssemblies
 90
     1024
 91
        0
280
     0
281
     0
  0
CLASS
  1
ACCMCONTEXT
  2
AcCmContext
  3
DesignerAssemblies
 90
     1024
 91
        0
280
     0
281
     0
  0
CLASS
  1
ACAMCOMPDEF
  2
AcAmCompDef
  3
DesignerAssemblies
 90
     1024
 91
        0
280
     0
281
     0
  0
CLASS
  1
ACAMCOMPDEFMGR
  2
AcAmCompDefMgr
  3
DesignerAssemblies
 90
     1024
 91
        0
280
     0
281
     0
  0
CLASS
  1
AMCONTEXTMGR
  2
AcAmContextMgr
  3
DesignerAssemblies
 90
     1024
 91
        0
280
     0
281
     0
  0
CLASS
  1
ACAMCONTEXTMODELER
  2
AcAmContextModeler
  3
DesignerAssemblies
 90
     1024
 91
        0
280
     0
281
     0
  0
CLASS
  1
ACMTHREADLINESTANDARDDIN
  2
AmdtThreadLineStdDIN
  3
"Amdt_StdImp|Product Description: AutoCAD Mechanical|Company: Autodesk, Inc."
 90
     1024
 91
        1
280
     0
281
     0
  0
CLASS
  1
CATALOGSTATE
  2
AcAmCatalogState
  3
DesignerAssemblies
 90
     1024
 91
        0
280
     0
281
     0
  0
CLASS
  1
ACAMGRCOMPDEFSET
  2
AcAmGrCompDefSet
  3
DesignerAssemblies
 90
     1024
 91
        0
280
     0
281
     0
  0
CLASS
  1
AMDTBROWSERDBTAB
  2
AmdtBrowserDbTab
  3
McadcomServices
 90
     1024
 91
        0
280
     0
281
     0
  0
CLASS
  1
CBROWSERAPPOBJECT
  2
CBrowserAppObject
  3
McadcomServices
 90
     1024
 91
        0
280
     0
281
     0
  0
CLASS
  1
DM_PLACEHOLDER
  2
AcDmSelsetPlaceholder
  3
McadcomServices
 90
     1024
 91
        0
280
     0
281
     0
  0
CLASS
  1
SORTENTSTABLE
  2
AcDbSortentsTable
  3
ObjectDBX Classes
 90
        0
 91
        2
280
     0
281
     0
  0
CLASS
  1
MATERIAL
  2
AcDbMaterial
  3
ObjectDBX Classes
 90
     1153
 91
        3
280
     0
281
     0
  0
CLASS
  1
VISUALSTYLE
  2
AcDbVisualStyle
  3
ObjectDBX Classes
 90
     4095
 91
        3
280
     0
281
     0
  0
CLASS
  1
SCALE
  2
AcDbScale
  3
ObjectDBX Classes
 90
     1153
 91
       17
280
     0
281
     0
  0
CLASS
  1
MLEADERSTYLE
  2
AcDbMLeaderStyle
  3
ACDB_MLEADERSTYLE_CLASS
 90
     4095
 91
        1
280
     0
281
     0
  0
CLASS
  1
ACRFATTGENMGR
  2
AcRfAttGeneralMgr
  3
AcAttribServices
 90
     1024
 91
        0
280
     0
281
     0
  0
CLASS
  1
ACRFOBJATTMGR
  2
AcRfObjAttGroupMgr
  3
AcAttribServices
 90
     1024
 91
        0
280
     0
281
     0
  0
CLASS
  1
ACRFMCADAPIATTHOLDER
  2
AcRfMCADAPIAttHolder
  3
AcAttribServices
 90
     1024
 91
        0
280
     0
281
     0
  0
CLASS
  1
AMDTSYSATTR
  2
AmdtSystemAttribute
  3
AcAttribServices
 90
     1024
 91
        0
280
     0
281
     0
  0
CLASS
  1
ACMTAPERSTANDARDDIN
  2
AcmTaperStdDIN
  3
"Amdt_StdImp|Product Description: AutoCAD Mechanical|Company: Autodesk, Inc."
 90
     1024
 91
        1
280
     0
281
     0
  0
CLASS
  1
ACMANOOTATIONVIEWSTANDARDDIN
  2
AmdtAnViewStdDIN
  3
"Amdt_StdImp|Product Description: AutoCAD Mechanical|Company: Autodesk, Inc."
 90
     1024
 91
        1
280
     0
281
     0
  0
CLASS
  1
CAMSSTRUCTBTNSTATE
  2
StructBtnState
  3
DesignerAssemblies
 90
     1024
 91
        0
280
     0
281
     0
  0
CLASS
  1
CELLSTYLEMAP
  2
AcDbCellStyleMap
  3
ObjectDBX Classes
 90
     1152
 91
        1
280
     0
281
     0
  0
CLASS
  1
ACDBSECTIONVIEWSTYLE
  2
AcDbSectionViewStyle
  3
ObjectDBX Classes
 90
     1025
 91
        3
280
     0
281
     0
  0
CLASS
  1
ACDBDETAILVIEWSTYLE
  2
AcDbDetailViewStyle
  3
ObjectDBX Classes
 90
     1025
 91
        3
280
     0
281
     0
  0
CLASS
  1
ACMSECTIONSTANDARDCUSTOM
  2
AmdtSectionSymStdCustom
  3
"Amdt_StdImp|Product Description: AutoCAD Mechanical|Company: Autodesk, Inc."
 90
     1024
 91
        2
280
     0
281
     0
  0
CLASS
  1
ACMDETAILTANDARDCUSTOM
  2
AmdtDetailSymStdCustom
  3
"Amdt_StdImp|Product Description: AutoCAD Mechanical|Company: Autodesk, Inc."
 90
     1024
 91
        2
280
     0
281
     0
  0
CLASS
  1
FIELD
  2
AcDbField
  3
ObjectDBX Classes
 90
     1152
 91
        6
280
     0
281
     0
  0
CLASS
  1
FIELDLIST
  2
AcDbFieldList
  3
ObjectDBX Classes
 90
     1152
 91
        1
280
     0
281
     0
  0
CLASS
  1
ACDBLINERES
  2
AcDbLineRes
  3
AcGrefServices
 90
     1024
 91
        0
280
     0
281
     0
  0
CLASS
  1
AMDTNOTE
  2
AmdtNote
  3
"AcmSymBB|Product Description: AutoCAD Mechanical|Company: Autodesk, Inc."
 90
     1024
 91
        0
280
     0
281
     1
  0
CLASS
  1
AMDTFORMULAUPDATEDISPATCHER
  2
AmdtFormulaUpdateDispatcher
  3
AcMeServices
 90
     1024
 91
        0
280
     0
281
     0
  0
CLASS
  1
AMDTNOTETEMPLATEDB
  2
AmdtNoteTemplateDB
  3
AcmSymBB|Product Description: AutoCAD Mechanical|Company: Autodesk, Inc.
 90
     1024
 91
        7
280
     0
281
     0
  0
CLASS
  1
MULTILEADER
  2
AcDbMLeader
  3
ACDB_MLEADER_CLASS
 90
     1025
 91
        2
280
     0
281
     1
  0
CLASS
  1
ACMSTANDARDANSI
  2
AcmStandardANSI
  3
"Amdt_StdImp|Product Description: AutoCAD Mechanical|Company: Autodesk, Inc."
 90
     1024
 91
        0
280
     0
281
     0
  0
CLASS
  1
ACMSURFSTANDARDANSI
  2
AcmSurfTextStdANSI
  3
"Amdt_StdImp|Product Description: AutoCAD Mechanical|Company: Autodesk, Inc."
 90
     1024
 91
        0
280
     0
281
     0
  0
CLASS
  1
ACMFCFSTANDARDANSI
  2
AcmFCFStdANSI
  3
"Amdt_StdImp|Product Description: AutoCAD Mechanical|Company: Autodesk, Inc."
 90
     1024
 91
        0
280
     0
281
     0
  0
CLASS
  1
ACMWELDSTANDARDANSI
  2
AcmWeldingStdANSI
  3
"Amdt_StdImp|Product Description: AutoCAD Mechanical|Company: Autodesk, Inc."
 90
     1024
 91
        0
280
     0
281
     0
  0
CLASS
  1
ACMIDSTANDARDANSI
  2
AcmIdStdANSI
  3
"Amdt_StdImp|Product Description: AutoCAD Mechanical|Company: Autodesk, Inc."
 90
     1024
 91
        0
280
     0
281
     0
  0
CLASS
  1
ACMDATUMSTANDARDANSI
  2
AcmDatumStdANSI
  3
"Amdt_StdImp|Product Description: AutoCAD Mechanical|Company: Autodesk, Inc."
 90
     1024
 91
        0
280
     0
281
     0
  0
CLASS
  1
ACMBOMSTANDARDANSI
  2
AcmBOMStdANSI
  3
"Amdt_StdImp|Product Description: AutoCAD Mechanical|Company: Autodesk, Inc."
 90
     1024
 91
        0
280
     0
281
     0
  0
CLASS
  1
ACMDETAILSTANDARDANSI
  2
AmdtDetailSymStdANSI
  3
"Amdt_StdImp|Product Description: AutoCAD Mechanical|Company: Autodesk, Inc."
 90
     1024
 91
        0
280
     0
281
     0
  0
CLASS
  1
ACMSECTIONSTANDARDANSI
  2
AmdtSectionSymStdANSI
  3
"Amdt_StdImp|Product Description: AutoCAD Mechanical|Company: Autodesk, Inc."
 90
     1024
 91
        0
280
     0
281
     0
  0
CLASS
  1
ACMCENTERLINESTANDARDANSI
  2
AmdtCenterLineStdANSI
  3
"Amdt_StdImp|Product Description: AutoCAD Mechanical|Company: Autodesk, Inc."
 90
     1024
 91
        0
280
     0
281
     0
  0
CLASS
  1
ACMTHREADLINESTANDARDANSI
  2
AmdtThreadLineStdANSI
  3
"Amdt_StdImp|Product Description: AutoCAD Mechanical|Company: Autodesk, Inc."
 90
     1024
 91
        0
280
     0
281
     0
  0
CLASS
  1
ACMNOTESTANDARDANSI
  2
AmdtNoteStdANSI
  3
"Amdt_StdImp|Product Description: AutoCAD Mechanical|Company: Autodesk, Inc."
 90
     1024
 91
        0
280
     0
281
     0
  0
CLASS
  1
ACMTAPERSTANDARDANSI
  2
AcmTaperStdANSI
  3
"Amdt_StdImp|Product Description: AutoCAD Mechanical|Company: Autodesk, Inc."
 90
     1024
 91
        0
280
     0
281
     0
  0
CLASS
  1
ACMANOOTATIONVIEWSTANDARDANSI
  2
AmdtAnViewStdANSI
  3
"Amdt_StdImp|Product Description: AutoCAD Mechanical|Company: Autodesk, Inc."
 90
     1024
 91
        0
280
     0
281
     0
  0
CLASS
  1
ACAMGHOLECHARTSTDANSI
  2
AcAmgHoleChartStdANSI
  3
AmgDim|Product Description: AutoCAD Mechanical|Company: Autodesk, Inc.
 90
     1024
 91
        0
280
     0
281
     0
  0
CLASS
  1
AMDTEDGESTANDARDDIN13715
  2
AmdtEdgeStdDIN13715
  3
"Amdt_StdImp|Product Description: AutoCAD Mechanical|Company: Autodesk, Inc."
 90
     1024
 91
        1
280
     0
281
     0
  0
CLASS
  1
ACMSURFSTANDARDDIN2002
  2
AcmSurfTextStdDIN2002
  3
"Amdt_StdImp|Product Description: AutoCAD Mechanical|Company: Autodesk, Inc."
 90
     1024
 91
        1
280
     0
281
     0
  0
CLASS
  1
ACMFCFSTANDARDDIN2008
  2
AcmFCFStdDIN2008
  3
"Amdt_StdImp|Product Description: AutoCAD Mechanical|Company: Autodesk, Inc."
 90
     1024
 91
        1
280
     0
281
     0
  0
CLASS
  1
ACMIDSTANDARDDIN2008
  2
AcmIdStdDIN2008
  3
"Amdt_StdImp|Product Description: AutoCAD Mechanical|Company: Autodesk, Inc."
 90
     1024
 91
        1
280
     0
281
     0
  0
ENDSEC
  0
SECTION
  2
TABLES
  0
TABLE
  2
VPORT
  5
31
330
0
100
AcDbSymbolTable
 70
     1
  0
VPORT
  5
32
330
31
100
AcDbSymbolTableRecord
100
AcDbViewportTableRecord
  2
*Active
 70
     0
 10
0.0
 20
0.0
 11
1.0
 21
1.0
 12
656.6371674995377
 22
2741.881941758098
 13
0.0
 23
0.0
 14
2.5
 24
2.5
 15
10.0
 25
10.0
 16
0.0
 26
0.0
 36
1.0
 17
0.0
 27
0.0
 37
0.0
 40
1075.747652015816
 41
2.164921465968586
 42
50.0
 43
0.0
 44
0.0
 50
0.0
 51
0.0
 71
     0
 72
  5000
 73
     1
 74
     1
 75
     0
 76
     0
 77
     0
 78
     0
281
     0
 65
     0
110
0.0
120
0.0
130
0.0
111
1.0
121
0.0
131
0.0
112
0.0
122
1.0
132
0.0
 79
     0
146
0.0
348
33
 60
     3
 61
     5
292
     1
282
     1
141
0.0
142
0.0
 63
   250
421
  3355443
1001
ACAD_NAV_VCDISPLAY
1070
     3
  0
ENDTAB
  0
TABLE
  2
LTYPE
  5
2C
330
0
100
AcDbSymbolTable
 70
    14
  0
LTYPE
  5
2D
330
2C
100
AcDbSymbolTableRecord
100
AcDbLinetypeTableRecord
  2
BYBLOCK
 70
     0
  3

 72
    65
 73
     0
 40
0.0
  0
LTYPE
  5
2E
330
2C
100
AcDbSymbolTableRecord
100
AcDbLinetypeTableRecord
  2
BYLAYER
 70
     0
  3

 72
    65
 73
     0
 40
0.0
  0
LTYPE
  5
15
330
2C
100
AcDbSymbolTableRecord
100
AcDbLinetypeTableRecord
  2
CONTINUOUS
 70
     0
  3
Solid line
 72
    65
 73
     0
 40
0.0
  0
LTYPE
  5
C2
330
2C
100
AcDbSymbolTableRecord
100
AcDbLinetypeTableRecord
  2
STRICHPUNKT
 70
     0
  3
Strichpunkt __ . __ . __ . __ . __ . __ . __ . 
 72
    65
 73
     4
 40
25.4
 49
12.7
 74
     0
 49
-6.349999999999997
 74
     0
 49
0.0
 74
     0
 49
-6.349999999999997
 74
     0
  0
LTYPE
  5
3A9
330
2C
100
AcDbSymbolTableRecord
100
AcDbLinetypeTableRecord
  2
ACDINWELD
 70
     0
  3
_ _ _ _ _
 72
    65
 73
     2
 40
2.0
 49
2.0
 74
     0
 49
-1.0
 74
     0
  0
LTYPE
  5
3AD
330
2C
100
AcDbSymbolTableRecord
100
AcDbLinetypeTableRecord
  2
ACDINTGB
 70
     0
  3
__ . . __ . .
 72
    65
 73
     6
 40
9.0
 49
4.0
 74
     0
 49
-1.0
 74
     0
 49
1.0
 74
     0
 49
-1.0
 74
     0
 49
1.0
 74
     0
 49
-1.0
 74
     0
  0
LTYPE
  5
3AB
330
2C
100
AcDbSymbolTableRecord
100
AcDbLinetypeTableRecord
  2
ACDINTGL
 70
     0
  3
_ _ _ _ _
 72
    65
 73
     2
 40
3.0
 49
2.0
 74
     0
 49
-1.0
 74
     0
  0
LTYPE
  5
D9
330
2C
100
AcDbSymbolTableRecord
100
AcDbLinetypeTableRecord
  2
CHAIN
 70
     0
  3
Chain ____ _ ____ _ ____ _ ____ _ ____ _ ____
 72
    65
 73
     4
 40
0.3543
 49
0.2362
 74
     0
 49
-0.0295
 74
     0
 49
0.0591
 74
     0
 49
-0.0295
 74
     0
  0
LTYPE
  5
396
330
2C
100
AcDbSymbolTableRecord
100
AcDbLinetypeTableRecord
  2
Amconstr
 70
     0
  3
_______________________
 72
    65
 73
     2
 40
9999.0
 49
9999.0
 74
     0
 49
0.0
 74
     0
  0
LTYPE
  5
399
330
2C
100
AcDbSymbolTableRecord
100
AcDbLinetypeTableRecord
  2
Amzigzag
 70
     0
  3
/\/-/\/-/\/-/\/-/\/-/\/
 72
    65
 73
     2
 40
11.0001
 49
0.0001
 74
     4
 75
   135
340
39A
 46
0.04
 50
0.0
 44
0.0
 45
0.0
 49
-11.0
 74
     0
  0
LTYPE
  5
110
330
2C
100
AcDbSymbolTableRecord
100
AcDbLinetypeTableRecord
  2
VERDECKT
 70
     0
  3
Verdeckt __ __ __ __ __ __ __ __ __ __ __ __ __
 72
    65
 73
     2
 40
9.524999999999996
 49
6.349999999999998
 74
     0
 49
-3.174999999999998
 74
     0
  0
LTYPE
  5
393
330
2C
100
AcDbSymbolTableRecord
100
AcDbLinetypeTableRecord
  2
AM_DIN_F_W050
 70
     0
  3
__ __ __ __ __ __ __ __ __ __ __ __ __ __ __
 72
    65
 73
     2
 40
6.25
 49
4.75
 74
     0
 49
-1.5
 74
     0
  0
LTYPE
  5
394
330
2C
100
AcDbSymbolTableRecord
100
AcDbLinetypeTableRecord
  2
AM_DIN_G_W050
 70
     0
  3
____ . ____ . ____ . ____ . ____ . ____ . ____
 72
    65
 73
     4
 40
13.75
 49
9.75
 74
     0
 49
-1.5
 74
     0
 49
1.0
 74
     0
 49
-1.5
 74
     0
  0
LTYPE
  5
395
330
2C
100
AcDbSymbolTableRecord
100
AcDbLinetypeTableRecord
  2
AM_DIN_K_W050
 70
     0
  3
_____ . . _____ . . _____ . . ____ .. ____
 72
    65
 73
     6
 40
16.25
 49
9.75
 74
     0
 49
-1.5
 74
     0
 49
1.0
 74
     0
 49
-1.5
 74
     0
 49
1.0
 74
     0
 49
-1.5
 74
     0
  0
LTYPE
  5
397
330
2C
100
AcDbSymbolTableRecord
100
AcDbLinetypeTableRecord
  2
AM_DIN_G_W050x2
 70
     0
  3
__ . __ . __ . __ . __ . __
 72
    65
 73
     4
 40
6.875
 49
4.75
 74
     0
 49
-0.875
 74
     0
 49
0.375
 74
     0
 49
-0.875
 74
     0
  0
LTYPE
  5
398
330
2C
100
AcDbSymbolTableRecord
100
AcDbLinetypeTableRecord
  2
AM_DIN_F_W050x2
 70
     0
  3
 _ _ _ _ _ _ _ _ _ _ _ _
 72
    65
 73
     2
 40
3.125
 49
2.25
 74
     0
 49
-0.875
 74
     0
  0
ENDTAB
  0
TABLE
  2
LAYER
  5
25
102
{ACAD_XDICTIONARY
360
26
102
}
330
0
100
AcDbSymbolTable
 70
     9
  0
LAYER
  5
6
102
{ACAD_XDICTIONARY
360
7
102
}
330
25
100
AcDbSymbolTableRecord
100
AcDbLayerTableRecord
  2
0
 70
     0
 62
     7
  6
CONTINUOUS
370
    -3
390
9
347
C
348
0
  0
LAYER
  5
B6
102
{ACAD_XDICTIONARY
360
B7
102
}
330
25
100
AcDbSymbolTableRecord
100
AcDbLayerTableRecord
  2
UMRISS05
 70
     0
 62
     4
  6
CONTINUOUS
370
    -3
390
9
347
C
348
0
  0
LAYER
  5
67
102
{ACAD_XDICTIONARY
360
68
102
}
330
25
100
AcDbSymbolTableRecord
100
AcDbLayerTableRecord
  2
BEMASSUNG
 70
     0
 62
     2
  6
CONTINUOUS
370
    -3
390
9
347
C
348
0
  0
LAYER
  5
BF
102
{ACAD_XDICTIONARY
360
C0
102
}
330
25
100
AcDbSymbolTableRecord
100
AcDbLayerTableRecord
  2
ACHSEN
 70
     0
 62
     1
  6
STRICHPUNKT
370
    -3
390
9
347
C
348
0
  0
LAYER
  5
75
330
25
100
AcDbSymbolTableRecord
100
AcDbLayerTableRecord
  2
DEFPOINTS
 70
     0
 62
     7
  6
CONTINUOUS
290
     0
370
    -3
390
9
347
C
348
0
  0
LAYER
  5
D8
330
25
100
AcDbSymbolTableRecord
100
AcDbLayerTableRecord
  2
Mittelpunktmarkierung(MSL)
 70
     0
 62
     1
  6
CONTINUOUS
370
    25
390
9
347
C
348
0
  0
LAYER
  5
1FD
330
25
100
AcDbSymbolTableRecord
100
AcDbLayerTableRecord
  2
Mittellinie(MSL)
 70
     0
 62
     1
  6
CHAIN
370
    25
390
9
347
C
348
0
  0
LAYER
  5
10E
102
{ACAD_XDICTIONARY
360
10F
102
}
330
25
100
AcDbSymbolTableRecord
100
AcDbLayerTableRecord
  2
AVERDECKTE
 70
     0
 62
    13
  6
VERDECKT
370
    -3
390
9
347
C
348
0
  0
LAYER
  5
28F
330
25
100
AcDbSymbolTableRecord
100
AcDbLayerTableRecord
  2
Sichtbare Kanten(MSL)
 70
     0
 62
     7
  6
CONTINUOUS
370
    50
390
9
347
C
348
0
  0
ENDTAB
  0
TABLE
  2
STYLE
  5
29
330
0
100
AcDbSymbolTable
 70
     5
  0
STYLE
  5
2A
330
29
100
AcDbSymbolTableRecord
100
AcDbTextStyleTableRecord
  2
STANDARD
 70
     0
 40
0.0
 41
1.0
 50
0.0
 71
     0
 42
3.5
  3
ISOCP.SHX
  4

  0
STYLE
  5
3A
330
29
100
AcDbSymbolTableRecord
100
AcDbTextStyleTableRecord
  2
ARIAL-STANDARD
 70
     0
 40
0.0
 41
1.0
 50
0.0
 71
     0
 42
3.5
  3
arial.ttf
  4

1001
ACAD
1000
Arial
1071
       34
  0
STYLE
  5
4F
330
29
100
AcDbSymbolTableRecord
100
AcDbTextStyleTableRecord
  2
NORM
 70
     0
 40
0.0
 41
1.0
 50
0.0
 71
     0
 42
2.399999999999999
  3
simplex.shx
  4

  0
STYLE
  5
3A7
330
29
100
AcDbSymbolTableRecord
100
AcDbTextStyleTableRecord
  2
ACDINGDT
 70
     0
 40
0.0
 41
1.0
 50
0.0
 71
     0
 42
3.5
  3
amgdt.shx
  4

  0
STYLE
  5
39A
330
29
100
AcDbSymbolTableRecord
100
AcDbTextStyleTableRecord
  2

 70
     1
 40
0.0
 41
1.0
 50
0.0
 71
     0
 42
2.5
  3
ltypeshp.shx
  4

  0
ENDTAB
  0
TABLE
  2
VIEW
  5
2F
330
0
100
AcDbSymbolTable
 70
     0
  0
ENDTAB
  0
TABLE
  2
UCS
  5
30
330
0
100
AcDbSymbolTable
 70
     0
  0
ENDTAB
  0
TABLE
  2
APPID
  5
36
330
0
100
AcDbSymbolTable
 70
     8
  0
APPID
  5
37
330
36
100
AcDbSymbolTableRecord
100
AcDbRegAppTableRecord
  2
ACAD
 70
     0
  0
APPID
  5
35
330
36
100
AcDbSymbolTableRecord
100
AcDbRegAppTableRecord
  2
ACAD_NAV_VCDISPLAY
 70
     0
  0
APPID
  5
3C
330
36
100
AcDbSymbolTableRecord
100
AcDbRegAppTableRecord
  2
ACAD_DSTYLE_DIMJAG
 70
     0
  0
APPID
  5
3B
330
36
100
AcDbSymbolTableRecord
100
AcDbRegAppTableRecord
  2
ACAD_DSTYLE_DIMBREAK
 70
     0
  0
APPID
  5
3D
330
36
100
AcDbSymbolTableRecord
100
AcDbRegAppTableRecord
  2
ACAD_DSTYLE_DIMTALN
 70
     0
  0
APPID
  5
7A
330
36
100
AcDbSymbolTableRecord
100
AcDbRegAppTableRecord
  2
ACAD_DSTYLE_DIMINSPECT
 70
     0
  0
APPID
  5
12B
330
36
100
AcDbSymbolTableRecord
100
AcDbRegAppTableRecord
  2
ACAD_MLEADERVER
 70
     0
  0
APPID
  5
3EB
330
36
100
AcDbSymbolTableRecord
100
AcDbRegAppTableRecord
  2
ACATTRIBSERVICES
 70
     0
  0
ENDTAB
  0
TABLE
  2
DIMSTYLE
  5
38
330
0
100
AcDbSymbolTable
 70
    10
100
AcDbDimStyleTable
 71
     2
340
39
340
3E
  0
DIMSTYLE
105
3E
330
38
100
AcDbSymbolTableRecord
100
AcDbDimStyleTableRecord
  2
NORMAL
 70
     0
 41
3.5
 42
0.0
 43
8.0
 44
0.5
 73
     0
 74
     0
 77
     1
 78
     8
140
3.5
141
1.5
146
0.5
147
1.0
172
     1
174
     1
176
   256
177
   256
178
     3
271
     2
272
     2
284
     8
340
3A
  0
DIMSTYLE
105
39
102
{ACAD_REACTORS
330
2E7
330
2DA
330
2CD
330
2C0
330
2B3
330
1E3
330
1D5
330
1C7
330
1BA
330
1AD
330
1A0
330
193
330
184
330
177
330
16A
330
13A
330
12D
330
FE
330
F1
330
C8
102
}
330
38
100
AcDbSymbolTableRecord
100
AcDbDimStyleTableRecord
  2
Katalog 09
 70
     0
 40
1.7
 41
4.0
 42
0.0
 43
0.0
 44
1.0
 50
90.0
 73
     0
 74
     0
 77
     1
 78
     8
140
4.349999999999996
141
1.5
147
1.0
172
     1
174
     1
176
   256
177
   256
178
     3
271
     1
272
     1
284
     8
340
3A
1001
ACAD_DSTYLE_DIMBREAK
1070
   391
1040
3.75
1001
ACAD_DSTYLE_DIMJAG
1070
   388
1040
1.5
1001
ACAD_DSTYLE_DIMTALN
1070
   392
1070
     0
  0
DIMSTYLE
105
79
102
{ACAD_REACTORS
330
99
330
A8
330
8A
330
7B
330
66
330
119
102
}
330
38
100
AcDbSymbolTableRecord
100
AcDbDimStyleTableRecord
  2
Katalog 09$0
 70
     0
 40
1.7
 41
4.0
 42
0.0
 43
0.0
 44
1.0
 50
90.0
 73
     0
 74
     0
 77
     1
 78
     8
140
4.349999999999996
141
1.5
147
1.0
172
     1
174
     1
176
   256
177
   256
178
     3
271
     1
272
     1
284
     8
340
3A
1001
ACAD_DSTYLE_DIMBREAK
1070
   391
1040
3.75
1001
ACAD_DSTYLE_DIMJAG
1070
   388
1040
1.5
  0
DIMSTYLE
105
3DD
102
{ACAD_REACTORS
330
3A3
102
}
330
38
100
AcDbSymbolTableRecord
100
AcDbDimStyleTableRecord
  2
AM_DIN
 70
     0
  4
"
 41
3.5
 42
1.0
 43
10.0
 44
1.0
 47
0.1
 48
0.1
 50
90.0
 73
     0
 74
     0
 77
     1
 78
     8
 79
     2
140
3.5
141
0.0
143
0.0393701
146
0.71
147
1.5
172
     1
176
   256
177
   256
178
     2
271
     2
272
     3
274
     4
283
     0
284
     8
340
2A
345
2D
346
2D
347
2D
371
    -1
372
    -1
1001
ACAD_DSTYLE_DIMJAG
1070
   388
1040
1.5
1001
ACAD_DSTYLE_DIMBREAK
1070
   391
1040
3.75
  0
DIMSTYLE
105
3DE
330
38
100
AcDbSymbolTableRecord
100
AcDbDimStyleTableRecord
  2
AM_DIN$3
 70
     0
  4
"
 41
3.5
 42
1.0
 43
10.0
 44
1.0
 47
0.1
 48
0.1
 50
90.0
 73
     0
 77
     1
 78
     8
 79
     2
140
3.5
141
0.0
143
0.0393701
146
0.71
147
1.5
176
   256
177
   256
178
     2
271
     2
272
     3
274
     4
283
     0
284
     8
288
     1
289
     0
340
2A
345
2D
346
2D
347
2D
371
    -1
372
    -1
1001
ACAD_DSTYLE_DIMBREAK
1070
   391
1040
3.75
1001
ACAD_DSTYLE_DIMJAG
1070
   388
1040
1.5
  0
DIMSTYLE
105
3DF
330
38
100
AcDbSymbolTableRecord
100
AcDbDimStyleTableRecord
  2
AM_DIN$4
 70
     0
  4
"
 41
3.5
 42
1.0
 43
10.0
 44
1.0
 47
0.1
 48
0.1
 50
90.0
 73
     0
 77
     1
 78
     8
 79
     2
140
3.5
141
0.0
143
0.0393701
146
0.71
147
1.5
176
   256
177
   256
178
     2
271
     2
272
     3
274
     4
283
     0
284
     8
288
     1
289
     0
340
2A
345
2D
346
2D
347
2D
371
    -1
372
    -1
1001
ACAD_DSTYLE_DIMBREAK
1070
   391
1040
3.75
1001
ACAD_DSTYLE_DIMJAG
1070
   388
1040
1.5
  0
DIMSTYLE
105
3E0
330
38
100
AcDbSymbolTableRecord
100
AcDbDimStyleTableRecord
  2
AM_DIN$6
 70
     0
  4
"
 41
3.5
 42
1.0
 43
10.0
 44
1.0
 47
0.1
 48
0.1
 50
90.0
 73
     0
 74
     0
 78
     8
 79
     2
140
3.5
141
0.0
143
0.0393701
146
0.71
147
1.5
172
     1
176
   256
177
   256
178
     2
271
     2
272
     3
274
     4
283
     0
284
     8
340
2A
345
2D
346
2D
347
2D
371
    -1
372
    -1
1001
ACAD_DSTYLE_DIMBREAK
1070
   391
1040
3.75
1001
ACAD_DSTYLE_DIMJAG
1070
   388
1040
1.5
  0
DIMSTYLE
105
3E1
330
38
100
AcDbSymbolTableRecord
100
AcDbDimStyleTableRecord
  2
AM_DIN$7
 70
     0
  4
"
 41
3.5
 42
1.0
 43
10.0
 44
1.0
 47
0.1
 48
0.1
 50
90.0
 73
     0
 74
     0
 77
     1
 78
     8
 79
     2
140
3.5
141
0.0
143
0.0393701
146
0.71
147
1.5
172
     1
176
   256
177
   256
178
     2
271
     2
272
     3
274
     4
283
     0
284
     8
340
2A
345
2D
346
2D
347
2D
371
    -1
372
    -1
1001
ACAD_DSTYLE_DIMBREAK
1070
   391
1040
3.75
1001
ACAD_DSTYLE_DIMJAG
1070
   388
1040
1.5
  0
DIMSTYLE
105
3E2
330
38
100
AcDbSymbolTableRecord
100
AcDbDimStyleTableRecord
  2
AM_DIN$SF
 70
     0
  4
"
 41
3.5
 42
1.0
 43
10.0
 44
1.0
 47
0.1
 48
0.1
 50
90.0
 73
     0
 74
     0
 75
     1
 76
     1
 77
     1
 78
     8
 79
     2
140
3.5
141
0.0
143
0.0393701
146
0.71
147
1.5
172
     1
176
   256
177
   256
178
     2
271
     2
272
     3
274
     4
283
     0
284
     8
340
2A
345
2D
346
2D
347
2D
371
    -1
372
    -1
1001
ACAD_DSTYLE_DIMBREAK
1070
   391
1040
3.75
1001
ACAD_DSTYLE_DIMJAG
1070
   388
1040
1.5
  0
DIMSTYLE
105
3E3
330
38
100
AcDbSymbolTableRecord
100
AcDbDimStyleTableRecord
  2
AM_DIN$SH
 70
     0
  4
"
 41
3.5
 42
1.0
 43
10.0
 44
1.0
 47
0.1
 48
0.1
 50
90.0
 73
     0
 74
     0
 75
     1
 76
     1
 77
     1
 78
     8
 79
     2
140
3.5
141
0.0
143
0.0393701
144
2.0
146
0.71
147
1.5
172
     1
173
     1
176
   256
177
   256
178
     2
271
     2
272
     3
274
     4
283
     0
284
     8
340
2A
343
3E4
345
2D
346
2D
347
2D
371
    -1
372
    -1
1001
ACAD_DSTYLE_DIMBREAK
1070
   391
1040
3.75
1001
ACAD_DSTYLE_DIMJAG
1070
   388
1040
1.5
  0
ENDTAB
  0
TABLE
  2
BLOCK_RECORD
  5
1
330
0
100
AcDbSymbolTable
 70
    28
  0
BLOCK_RECORD
  5
2
102
{ACAD_XDICTIONARY
360
3
102
}
330
1
100
AcDbSymbolTableRecord
100
AcDbBlockTableRecord
  2
*MODEL_SPACE
340
1F
 70
     0
280
     1
281
     0
  0
BLOCK_RECORD
  5
21
330
1
100
AcDbSymbolTableRecord
100
AcDbBlockTableRecord
  2
*PAPER_SPACE
340
24
 70
     0
280
     1
281
     0
  0
BLOCK_RECORD
  5
3E4
330
1
100
AcDbSymbolTableRecord
100
AcDbBlockTableRecord
  2
GENAXEH
340
0
 70
     0
280
     1
281
     0
  0
BLOCK_RECORD
  5
3C5
330
1
100
AcDbSymbolTableRecord
100
AcDbBlockTableRecord
  2
_ACMFILLED30
340
0
 70
     0
280
     1
281
     0
  0
BLOCK_RECORD
  5
2E8
330
1
100
AcDbSymbolTableRecord
100
AcDbBlockTableRecord
  2
*D2
340
0
 70
     0
280
     1
281
     0
  0
BLOCK_RECORD
  5
2DB
330
1
100
AcDbSymbolTableRecord
100
AcDbBlockTableRecord
  2
*D3
340
0
 70
     0
280
     1
281
     0
  0
BLOCK_RECORD
  5
2CE
330
1
100
AcDbSymbolTableRecord
100
AcDbBlockTableRecord
  2
*D4
340
0
 70
     0
280
     1
281
     0
  0
BLOCK_RECORD
  5
2C1
330
1
100
AcDbSymbolTableRecord
100
AcDbBlockTableRecord
  2
*D5
340
0
 70
     0
280
     1
281
     0
  0
BLOCK_RECORD
  5
2B4
330
1
100
AcDbSymbolTableRecord
100
AcDbBlockTableRecord
  2
*D6
340
0
 70
     0
280
     1
281
     0
  0
BLOCK_RECORD
  5
1E4
330
1
100
AcDbSymbolTableRecord
100
AcDbBlockTableRecord
  2
*D7
340
0
 70
     0
280
     1
281
     0
  0
BLOCK_RECORD
  5
1D6
330
1
100
AcDbSymbolTableRecord
100
AcDbBlockTableRecord
  2
*D8
340
0
 70
     0
280
     1
281
     0
  0
BLOCK_RECORD
  5
1C8
330
1
100
AcDbSymbolTableRecord
100
AcDbBlockTableRecord
  2
*D9
340
0
 70
     0
280
     1
281
     0
  0
BLOCK_RECORD
  5
1BB
330
1
100
AcDbSymbolTableRecord
100
AcDbBlockTableRecord
  2
*D10
340
0
 70
     0
280
     1
281
     0
  0
BLOCK_RECORD
  5
1AE
330
1
100
AcDbSymbolTableRecord
100
AcDbBlockTableRecord
  2
*D11
340
0
 70
     0
280
     1
281
     0
  0
BLOCK_RECORD
  5
1A1
330
1
100
AcDbSymbolTableRecord
100
AcDbBlockTableRecord
  2
*D12
340
0
 70
     0
280
     1
281
     0
  0
BLOCK_RECORD
  5
194
330
1
100
AcDbSymbolTableRecord
100
AcDbBlockTableRecord
  2
*D13
340
0
 70
     0
280
     1
281
     0
  0
BLOCK_RECORD
  5
185
330
1
100
AcDbSymbolTableRecord
100
AcDbBlockTableRecord
  2
*D14
340
0
 70
     0
280
     1
281
     0
  0
BLOCK_RECORD
  5
178
330
1
100
AcDbSymbolTableRecord
100
AcDbBlockTableRecord
  2
*D15
340
0
 70
     0
280
     1
281
     0
  0
BLOCK_RECORD
  5
16B
330
1
100
AcDbSymbolTableRecord
100
AcDbBlockTableRecord
  2
*D16
340
0
 70
     0
280
     1
281
     0
  0
BLOCK_RECORD
  5
13B
330
1
100
AcDbSymbolTableRecord
100
AcDbBlockTableRecord
  2
*D17
340
0
 70
     0
280
     1
281
     0
  0
BLOCK_RECORD
  5
12E
330
1
100
AcDbSymbolTableRecord
100
AcDbBlockTableRecord
  2
*D18
340
0
 70
     0
280
     1
281
     0
  0
BLOCK_RECORD
  5
11A
330
1
100
AcDbSymbolTableRecord
100
AcDbBlockTableRecord
  2
*D19
340
0
 70
     0
280
     1
281
     0
  0
BLOCK_RECORD
  5
FF
330
1
100
AcDbSymbolTableRecord
100
AcDbBlockTableRecord
  2
*D20
340
0
 70
     0
280
     1
281
     0
  0
BLOCK_RECORD
  5
F2
330
1
100
AcDbSymbolTableRecord
100
AcDbBlockTableRecord
  2
*D21
340
0
 70
     0
280
     1
281
     0
  0
BLOCK_RECORD
  5
C9
330
1
100
AcDbSymbolTableRecord
100
AcDbBlockTableRecord
  2
*D22
340
0
 70
     0
280
     1
281
     0
  0
BLOCK_RECORD
  5
A9
330
1
100
AcDbSymbolTableRecord
100
AcDbBlockTableRecord
  2
*D23
340
0
 70
     0
280
     1
281
     0
  0
BLOCK_RECORD
  5
9A
330
1
100
AcDbSymbolTableRecord
100
AcDbBlockTableRecord
  2
*D24
340
0
 70
     0
280
     1
281
     0
  0
BLOCK_RECORD
  5
8B
330
1
100
AcDbSymbolTableRecord
100
AcDbBlockTableRecord
  2
*D25
340
0
 70
     0
280
     1
281
     0
  0
BLOCK_RECORD
  5
7C
330
1
100
AcDbSymbolTableRecord
100
AcDbBlockTableRecord
  2
*D26
340
0
 70
     0
280
     1
281
     0
  0
BLOCK_RECORD
  5
6A
330
1
100
AcDbSymbolTableRecord
100
AcDbBlockTableRecord
  2
*D27
340
0
 70
     0
280
     1
281
     0
  0
ENDTAB
  0
ENDSEC
  0
SECTION
  2
BLOCKS
  0
BLOCK
  5
5
330
2
100
AcDbEntity
  8
0
100
AcDbBlockBegin
  2
*MODEL_SPACE
 70
     0
 10
0.0
 20
0.0
 30
0.0
  3
*MODEL_SPACE
  1

  0
ENDBLK
  5
1E
330
2
100
AcDbEntity
  8
0
100
AcDbBlockEnd
  0
BLOCK
  5
22
330
21
100
AcDbEntity
 67
     1
  8
0
100
AcDbBlockBegin
  2
*PAPER_SPACE
 70
     0
 10
0.0
 20
0.0
 30
0.0
  3
*PAPER_SPACE
  1

  0
ENDBLK
  5
23
330
21
100
AcDbEntity
 67
     1
  8
0
100
AcDbBlockEnd
  0
BLOCK
  5
3E5
330
3E4
100
AcDbEntity
  8
0
100
AcDbBlockBegin
  2
GENAXEH
 70
     0
 10
0.0
 20
0.0
 30
0.0
  3
GENAXEH
  1

  0
LINE
  5
3E6
330
3E4
100
AcDbEntity
  8
0
100
AcDbLine
 10
-1.0
 20
0.0
 30
0.0
 11
1.0
 21
0.0
 31
0.0
  0
ENDBLK
  5
3E7
330
3E4
100
AcDbEntity
  8
0
100
AcDbBlockEnd
  0
BLOCK
  5
3C6
330
3C5
100
AcDbEntity
  8
0
100
AcDbBlockBegin
  2
_ACMFILLED30
 70
     0
 10
0.0
 20
0.0
 30
0.0
  3
_ACMFILLED30
  1

  0
TRACE
  5
3C7
330
3C5
100
AcDbEntity
  8
0
 62
     0
100
AcDbTrace
 10
-1.0
 20
-0.26794919
 30
0.0
 11
-1.0
 21
0.26794919
 31
0.0
 12
0.0
 22
0.0
 32
0.0
 13
0.0
 23
0.0
 33
0.0
  0
ENDBLK
  5
3C8
330
3C5
100
AcDbEntity
  8
0
100
AcDbBlockEnd
  0
BLOCK
  5
2E9
330
2E8
100
AcDbEntity
  8
0
100
AcDbBlockBegin
  2
*D2
 70
     1
 10
0.0
 20
0.0
 30
0.0
  3
*D2
  1

  0
LINE
  5
2EA
330
2E8
100
AcDbEntity
  8
BEMASSUNG
440
 16777216
370
    -2
100
AcDbLine
 10
552.656590443647
 20
2890.592342684271
 30
0.0
 11
489.42200914704
 21
2890.592342684271
 31
0.0
  0
LINE
  5
2EB
330
2E8
100
AcDbEntity
  8
BEMASSUNG
440
 16777216
370
    -2
100
AcDbLine
 10
552.656590443647
 20
2570.592342684271
 30
0.0
 11
489.4220091470399
 21
2570.592342684271
 31
0.0
  0
LINE
  5
2EC
330
2E8
100
AcDbEntity
  8
BEMASSUNG
440
 16777216
370
    -2
100
AcDbLine
 10
491.12200914704
 20
2883.792342684271
 30
0.0
 11
491.12200914704
 21
2577.392342684272
 31
0.0
  0
SOLID
  5
2ED
330
2E8
100
AcDbEntity
  8
BEMASSUNG
440
 16777216
100
AcDbTrace
 10
489.9886758137067
 20
2883.792342684271
 30
0.0
 11
492.2553424803734
 21
2883.792342684271
 31
0.0
 12
491.12200914704
 22
2890.592342684271
 32
0.0
 13
491.12200914704
 23
2890.592342684271
 33
0.0
  0
SOLID
  5
2EE
330
2E8
100
AcDbEntity
  8
BEMASSUNG
440
 16777216
100
AcDbTrace
 10
489.9886758137066
 20
2577.392342684272
 30
0.0
 11
492.2553424803733
 21
2577.392342684272
 31
0.0
 12
491.12200914704
 22
2570.592342684271
 32
0.0
 13
491.12200914704
 23
2570.592342684271
 33
0.0
  0
MTEXT
  5
2EF
330
2E8
100
AcDbEntity
  8
BEMASSUNG
 62
     3
440
 16777216
100
AcDbMText
 10
485.6437997336699
 20
2730.592342684271
 30
0.0
 40
7.394999999999994
 41
0.0
 46
0.0
 71
     5
 72
     1
  1
\A1;320
  7
ARIAL-STANDARD
 11
0.0000000000000001
 21
1.0
 31
0.0
 73
     1
 44
1.0
  0
POINT
  5
2F0
330
2E8
100
AcDbEntity
  8
DEFPOINTS
 62
     0
440
 16777216
100
AcDbPoint
 10
552.656590443647
 20
2890.592342684271
 30
0.0
  0
POINT
  5
2F1
330
2E8
100
AcDbEntity
  8
DEFPOINTS
 62
     0
440
 16777216
100
AcDbPoint
 10
552.656590443647
 20
2570.592342684271
 30
0.0
  0
POINT
  5
2F2
330
2E8
100
AcDbEntity
  8
DEFPOINTS
 62
     0
440
 16777216
100
AcDbPoint
 10
491.12200914704
 20
2570.592342684271
 30
0.0
  0
ENDBLK
  5
2F3
330
2E8
100
AcDbEntity
  8
0
100
AcDbBlockEnd
  0
BLOCK
  5
2DC
330
2DB
100
AcDbEntity
  8
0
100
AcDbBlockBegin
  2
*D3
 70
     1
 10
0.0
 20
0.0
 30
0.0
  3
*D3
  1

  0
LINE
  5
2DD
330
2DB
100
AcDbEntity
  8
BEMASSUNG
440
 16777216
370
    -2
100
AcDbLine
 10
552.656590443647
 20
2890.592342684271
 30
0.0
 11
510.6588210627664
 21
2890.592342684271
 31
0.0
  0
LINE
  5
2DE
330
2DB
100
AcDbEntity
  8
BEMASSUNG
440
 16777216
370
    -2
100
AcDbLine
 10
545.8713556505722
 20
2727.592342684271
 30
0.0
 11
510.6588210627664
 21
2727.592342684271
 31
0.0
  0
LINE
  5
2DF
330
2DB
100
AcDbEntity
  8
BEMASSUNG
440
 16777216
370
    -2
100
AcDbLine
 10
512.3588210627664
 20
2883.792342684271
 30
0.0
 11
512.3588210627663
 21
2734.392342684271
 31
0.0
  0
SOLID
  5
2E0
330
2DB
100
AcDbEntity
  8
BEMASSUNG
440
 16777216
100
AcDbTrace
 10
511.225487729433
 20
2883.792342684271
 30
0.0
 11
513.4921543960997
 21
2883.792342684271
 31
0.0
 12
512.3588210627664
 22
2890.592342684271
 32
0.0
 13
512.3588210627664
 23
2890.592342684271
 33
0.0
  0
SOLID
  5
2E1
330
2DB
100
AcDbEntity
  8
BEMASSUNG
440
 16777216
100
AcDbTrace
 10
511.225487729433
 20
2734.392342684271
 30
0.0
 11
513.4921543960996
 21
2734.392342684271
 31
0.0
 12
512.3588210627663
 22
2727.592342684271
 32
0.0
 13
512.3588210627663
 23
2727.592342684271
 33
0.0
  0
MTEXT
  5
2E2
330
2DB
100
AcDbEntity
  8
BEMASSUNG
 62
     3
440
 16777216
100
AcDbMText
 10
506.8806116493962
 20
2809.092342684271
 30
0.0
 40
7.394999999999994
 41
0.0
 46
0.0
 71
     5
 72
     1
  1
\A1;163
  7
ARIAL-STANDARD
 11
0.0000000000000001
 21
1.0
 31
0.0
 73
     1
 44
1.0
  0
POINT
  5
2E3
330
2DB
100
AcDbEntity
  8
DEFPOINTS
 62
     0
440
 16777216
100
AcDbPoint
 10
552.656590443647
 20
2890.592342684271
 30
0.0
  0
POINT
  5
2E4
330
2DB
100
AcDbEntity
  8
DEFPOINTS
 62
     0
440
 16777216
100
AcDbPoint
 10
545.8713556505722
 20
2727.592342684271
 30
0.0
  0
POINT
  5
2E5
330
2DB
100
AcDbEntity
  8
DEFPOINTS
 62
     0
440
 16777216
100
AcDbPoint
 10
512.3588210627663
 20
2727.592342684271
 30
0.0
  0
ENDBLK
  5
2E6
330
2DB
100
AcDbEntity
  8
0
100
AcDbBlockEnd
  0
BLOCK
  5
2CF
330
2CE
100
AcDbEntity
  8
0
100
AcDbBlockBegin
  2
*D4
 70
     1
 10
0.0
 20
0.0
 30
0.0
  3
*D4
  1

  0
LINE
  5
2D0
330
2CE
100
AcDbEntity
  8
BEMASSUNG
440
 16777216
370
    -2
100
AcDbLine
 10
556.4565904436462
 20
2727.592342684271
 30
0.0
 11
530.0392170486705
 21
2727.592342684271
 31
0.0
  0
LINE
  5
2D1
330
2CE
100
AcDbEntity
  8
BEMASSUNG
440
 16777216
370
    -2
100
AcDbLine
 10
559.156590443647
 20
2691.092342684271
 30
0.0
 11
530.0392170486705
 21
2691.092342684271
 31
0.0
  0
LINE
  5
2D2
330
2CE
100
AcDbEntity
  8
BEMASSUNG
440
 16777216
370
    -2
100
AcDbLine
 10
531.7392170486705
 20
2720.792342684271
 30
0.0
 11
531.7392170486705
 21
2697.892342684272
 31
0.0
  0
SOLID
  5
2D3
330
2CE
100
AcDbEntity
  8
BEMASSUNG
440
 16777216
100
AcDbTrace
 10
530.6058837153371
 20
2720.792342684271
 30
0.0
 11
532.8725503820038
 21
2720.792342684271
 31
0.0
 12
531.7392170486705
 22
2727.592342684271
 32
0.0
 13
531.7392170486705
 23
2727.592342684271
 33
0.0
  0
SOLID
  5
2D4
330
2CE
100
AcDbEntity
  8
BEMASSUNG
440
 16777216
100
AcDbTrace
 10
530.6058837153371
 20
2697.892342684272
 30
0.0
 11
532.8725503820038
 21
2697.892342684272
 31
0.0
 12
531.7392170486705
 22
2691.092342684271
 32
0.0
 13
531.7392170486705
 23
2691.092342684271
 33
0.0
  0
MTEXT
  5
2D5
330
2CE
100
AcDbEntity
  8
BEMASSUNG
 62
     3
440
 16777216
100
AcDbMText
 10
526.2610076353004
 20
2709.342342684271
 30
0.0
 40
7.394999999999994
 41
0.0
 46
0.0
 71
     5
 72
     1
  1
\A1;36.5
  7
ARIAL-STANDARD
 11
0.0000000000000001
 21
1.0
 31
0.0
 73
     1
 44
1.0
  0
POINT
  5
2D6
330
2CE
100
AcDbEntity
  8
DEFPOINTS
 62
     0
440
 16777216
100
AcDbPoint
 10
556.4565904436462
 20
2727.592342684271
 30
0.0
  0
POINT
  5
2D7
330
2CE
100
AcDbEntity
  8
DEFPOINTS
 62
     0
440
 16777216
100
AcDbPoint
 10
559.156590443647
 20
2691.092342684271
 30
0.0
  0
POINT
  5
2D8
330
2CE
100
AcDbEntity
  8
DEFPOINTS
 62
     0
440
 16777216
100
AcDbPoint
 10
531.7392170486705
 20
2691.092342684271
 30
0.0
  0
ENDBLK
  5
2D9
330
2CE
100
AcDbEntity
  8
0
100
AcDbBlockEnd
  0
BLOCK
  5
2C2
330
2C1
100
AcDbEntity
  8
0
100
AcDbBlockBegin
  2
*D5
 70
     1
 10
0.0
 20
0.0
 30
0.0
  3
*D5
  1

  0
LINE
  5
2C3
330
2C1
100
AcDbEntity
  8
BEMASSUNG
440
 16777216
370
    -2
100
AcDbLine
 10
534.4504512051912
 20
2727.592342684271
 30
0.0
 11
510.6588210627664
 21
2727.592342684271
 31
0.0
  0
LINE
  5
2C4
330
2C1
100
AcDbEntity
  8
BEMASSUNG
440
 16777216
370
    -2
100
AcDbLine
 10
560.156590443647
 20
2644.092342684271
 30
0.0
 11
510.6588210627663
 21
2644.092342684271
 31
0.0
  0
LINE
  5
2C5
330
2C1
100
AcDbEntity
  8
BEMASSUNG
440
 16777216
370
    -2
100
AcDbLine
 10
512.3588210627663
 20
2720.792342684271
 30
0.0
 11
512.3588210627663
 21
2650.892342684271
 31
0.0
  0
SOLID
  5
2C6
330
2C1
100
AcDbEntity
  8
BEMASSUNG
440
 16777216
100
AcDbTrace
 10
511.225487729433
 20
2720.792342684271
 30
0.0
 11
513.4921543960996
 21
2720.792342684271
 31
0.0
 12
512.3588210627663
 22
2727.592342684271
 32
0.0
 13
512.3588210627663
 23
2727.592342684271
 33
0.0
  0
SOLID
  5
2C7
330
2C1
100
AcDbEntity
  8
BEMASSUNG
440
 16777216
100
AcDbTrace
 10
511.2254877294329
 20
2650.892342684271
 30
0.0
 11
513.4921543960996
 21
2650.892342684271
 31
0.0
 12
512.3588210627663
 22
2644.092342684271
 32
0.0
 13
512.3588210627663
 23
2644.092342684271
 33
0.0
  0
MTEXT
  5
2C8
330
2C1
100
AcDbEntity
  8
BEMASSUNG
 62
     3
440
 16777216
100
AcDbMText
 10
506.8806116493962
 20
2685.842342684271
 30
0.0
 40
7.394999999999994
 41
0.0
 46
0.0
 71
     5
 72
     1
  1
\A1;83.5
  7
ARIAL-STANDARD
 11
0.0000000000000001
 21
1.0
 31
0.0
 73
     1
 44
1.0
  0
POINT
  5
2C9
330
2C1
100
AcDbEntity
  8
DEFPOINTS
 62
     0
440
 16777216
100
AcDbPoint
 10
534.4504512051912
 20
2727.592342684271
 30
0.0
  0
POINT
  5
2CA
330
2C1
100
AcDbEntity
  8
DEFPOINTS
 62
     0
440
 16777216
100
AcDbPoint
 10
560.156590443647
 20
2644.092342684271
 30
0.0
  0
POINT
  5
2CB
330
2C1
100
AcDbEntity
  8
DEFPOINTS
 62
     0
440
 16777216
100
AcDbPoint
 10
512.3588210627663
 20
2644.092342684271
 30
0.0
  0
ENDBLK
  5
2CC
330
2C1
100
AcDbEntity
  8
0
100
AcDbBlockEnd
  0
BLOCK
  5
2B5
330
2B4
100
AcDbEntity
  8
0
100
AcDbBlockBegin
  2
*D6
 70
     1
 10
0.0
 20
0.0
 30
0.0
  3
*D6
  1

  0
LINE
  5
2B6
330
2B4
100
AcDbEntity
  8
BEMASSUNG
440
 16777216
370
    -2
100
AcDbLine
 10
552.656590443647
 20
2570.592342684271
 30
0.0
 11
552.656590443647
 21
2496.516969716935
 31
0.0
  0
LINE
  5
2B7
330
2B4
100
AcDbEntity
  8
BEMASSUNG
440
 16777216
370
    -2
100
AcDbLine
 10
576.656590443647
 20
2570.592342684271
 30
0.0
 11
576.656590443647
 21
2496.516969716935
 31
0.0
  0
LINE
  5
2B8
330
2B4
100
AcDbEntity
  8
BEMASSUNG
440
 16777216
370
    -2
100
AcDbLine
 10
559.4565904436469
 20
2498.216969716935
 30
0.0
 11
569.856590443647
 21
2498.216969716935
 31
0.0
  0
SOLID
  5
2B9
330
2B4
100
AcDbEntity
  8
BEMASSUNG
440
 16777216
100
AcDbTrace
 10
559.4565904436469
 20
2499.350303050268
 30
0.0
 11
559.4565904436469
 21
2497.083636383602
 31
0.0
 12
552.656590443647
 22
2498.216969716935
 32
0.0
 13
552.656590443647
 23
2498.216969716935
 33
0.0
  0
SOLID
  5
2BA
330
2B4
100
AcDbEntity
  8
BEMASSUNG
440
 16777216
100
AcDbTrace
 10
569.856590443647
 20
2499.350303050268
 30
0.0
 11
569.856590443647
 21
2497.083636383602
 31
0.0
 12
576.656590443647
 22
2498.216969716935
 32
0.0
 13
576.656590443647
 23
2498.216969716935
 33
0.0
  0
MTEXT
  5
2BB
330
2B4
100
AcDbEntity
  8
BEMASSUNG
 62
     3
440
 16777216
100
AcDbMText
 10
564.656590443647
 20
2503.629602731942
 30
0.0
 40
7.394999999999994
 41
0.0
 46
0.0
 71
     5
 72
     1
  1
\A1;24
  7
ARIAL-STANDARD
 73
     1
 44
1.0
  0
POINT
  5
2BC
330
2B4
100
AcDbEntity
  8
DEFPOINTS
 62
     0
440
 16777216
100
AcDbPoint
 10
552.656590443647
 20
2570.592342684271
 30
0.0
  0
POINT
  5
2BD
330
2B4
100
AcDbEntity
  8
DEFPOINTS
 62
     0
440
 16777216
100
AcDbPoint
 10
576.656590443647
 20
2570.592342684271
 30
0.0
  0
POINT
  5
2BE
330
2B4
100
AcDbEntity
  8
DEFPOINTS
 62
     0
440
 16777216
100
AcDbPoint
 10
576.656590443647
 20
2498.216969716935
 30
0.0
  0
ENDBLK
  5
2BF
330
2B4
100
AcDbEntity
  8
0
100
AcDbBlockEnd
  0
BLOCK
  5
1E5
330
1E4
100
AcDbEntity
  8
0
100
AcDbBlockBegin
  2
*D7
 70
     1
 10
0.0
 20
0.0
 30
0.0
  3
*D7
  1

  0
LINE
  5
1E6
330
1E4
100
AcDbEntity
  8
BEMASSUNG
440
 16777216
370
    -2
100
AcDbLine
 10
761.1024234484455
 20
2732.092342684272
 30
0.0
 11
731.2762088886143
 21
2732.092342684272
 31
0.0
  0
LINE
  5
1E7
330
1E4
100
AcDbEntity
  8
BEMASSUNG
440
 16777216
370
    -2
100
AcDbLine
 10
761.1024234484455
 20
2723.092342684271
 30
0.0
 11
731.2762088886143
 21
2723.092342684271
 31
0.0
  0
LINE
  5
1E8
330
1E4
100
AcDbEntity
  8
BEMASSUNG
440
 16777216
370
    -2
100
AcDbLine
 10
732.9762088886143
 20
2716.292342684271
 30
0.0
 11
732.9762088886143
 21
2709.492342684271
 31
0.0
  0
LINE
  5
1E9
330
1E4
100
AcDbEntity
  8
BEMASSUNG
440
 16777216
370
    -2
100
AcDbLine
 10
732.9762088886143
 20
2738.892342684272
 30
0.0
 11
732.9762088886143
 21
2765.682786067629
 31
0.0
  0
LINE
  5
1EA
330
1E4
100
AcDbEntity
  8
BEMASSUNG
440
 16777216
370
    -2
100
AcDbLine
 10
732.9762088886143
 20
2723.092342684271
 30
0.0
 11
732.9762088886143
 21
2732.092342684272
 31
0.0
  0
SOLID
  5
1EB
330
1E4
100
AcDbEntity
  8
BEMASSUNG
440
 16777216
100
AcDbTrace
 10
731.842875555281
 20
2716.292342684271
 30
0.0
 11
734.1095422219476
 21
2716.292342684271
 31
0.0
 12
732.9762088886143
 22
2723.092342684271
 32
0.0
 13
732.9762088886143
 23
2723.092342684271
 33
0.0
  0
SOLID
  5
1EC
330
1E4
100
AcDbEntity
  8
BEMASSUNG
440
 16777216
100
AcDbTrace
 10
731.842875555281
 20
2738.892342684272
 30
0.0
 11
734.1095422219476
 21
2738.892342684272
 31
0.0
 12
732.9762088886143
 22
2732.092342684272
 32
0.0
 13
732.9762088886143
 23
2732.092342684272
 33
0.0
  0
MTEXT
  5
1ED
330
1E4
100
AcDbEntity
  8
BEMASSUNG
 62
     3
440
 16777216
100
AcDbMText
 10
727.5005216444119
 20
2761.551414989866
 30
0.0
 40
7.394999999999994
 41
0.0
 46
0.0
 71
     5
 72
     1
  1
\A1;9
  7
ARIAL-STANDARD
 11
0.0000000000000001
 21
1.0
 31
0.0
 73
     1
 44
1.0
  0
POINT
  5
1EE
330
1E4
100
AcDbEntity
  8
DEFPOINTS
 62
     0
440
 16777216
100
AcDbPoint
 10
761.1024234484455
 20
2732.092342684272
 30
0.0
  0
POINT
  5
1EF
330
1E4
100
AcDbEntity
  8
DEFPOINTS
 62
     0
440
 16777216
100
AcDbPoint
 10
761.1024234484455
 20
2723.092342684271
 30
0.0
  0
POINT
  5
1F0
330
1E4
100
AcDbEntity
  8
DEFPOINTS
 62
     0
440
 16777216
100
AcDbPoint
 10
732.9762088886143
 20
2723.092342684271
 30
0.0
  0
ENDBLK
  5
1F1
330
1E4
100
AcDbEntity
  8
0
100
AcDbBlockEnd
  0
BLOCK
  5
1D7
330
1D6
100
AcDbEntity
  8
0
100
AcDbBlockBegin
  2
*D8
 70
     1
 10
0.0
 20
0.0
 30
0.0
  3
*D8
  1

  0
LINE
  5
1D8
330
1D6
100
AcDbEntity
  8
BEMASSUNG
440
 16777216
370
    -2
100
AcDbLine
 10
757.0024234484449
 20
2706.092342684271
 30
0.0
 11
715.9042829687121
 21
2706.092342684271
 31
0.0
  0
LINE
  5
1D9
330
1D6
100
AcDbEntity
  8
BEMASSUNG
440
 16777216
370
    -2
100
AcDbLine
 10
734.1392787655254
 20
2727.592342684271
 30
0.0
 11
715.9042829687121
 21
2727.592342684271
 31
0.0
  0
LINE
  5
1DA
330
1D6
100
AcDbEntity
  8
BEMASSUNG
440
 16777216
370
    -2
100
AcDbLine
 10
717.6042829687121
 20
2720.792342684271
 30
0.0
 11
717.6042829687121
 21
2712.892342684271
 31
0.0
  0
LINE
  5
1DB
330
1D6
100
AcDbEntity
  8
BEMASSUNG
440
 16777216
370
    -2
100
AcDbLine
 10
717.6042829687121
 20
2706.092342684271
 30
0.0
 11
717.6042829687121
 21
2656.397670105826
 31
0.0
  0
SOLID
  5
1DC
330
1D6
100
AcDbEntity
  8
BEMASSUNG
440
 16777216
100
AcDbTrace
 10
716.4709496353788
 20
2720.792342684271
 30
0.0
 11
718.7376163020454
 21
2720.792342684271
 31
0.0
 12
717.6042829687121
 22
2727.592342684271
 32
0.0
 13
717.6042829687121
 23
2727.592342684271
 33
0.0
  0
SOLID
  5
1DD
330
1D6
100
AcDbEntity
  8
BEMASSUNG
440
 16777216
100
AcDbTrace
 10
716.4709496353788
 20
2712.892342684271
 30
0.0
 11
718.7376163020454
 21
2712.892342684271
 31
0.0
 12
717.6042829687121
 22
2706.092342684271
 32
0.0
 13
717.6042829687121
 23
2706.092342684271
 33
0.0
  0
MTEXT
  5
1DE
330
1D6
100
AcDbEntity
  8
BEMASSUNG
 62
     3
440
 16777216
100
AcDbMText
 10
712.1285957245097
 20
2667.792888386863
 30
0.0
 40
7.394999999999994
 41
0.0
 46
0.0
 71
     5
 72
     1
  1
\A1;21.5
  7
ARIAL-STANDARD
 11
0.0000000000000001
 21
1.0
 31
0.0
 73
     1
 44
1.0
  0
POINT
  5
1DF
330
1D6
100
AcDbEntity
  8
DEFPOINTS
 62
     0
440
 16777216
100
AcDbPoint
 10
757.0024234484449
 20
2706.092342684271
 30
0.0
  0
POINT
  5
1E0
330
1D6
100
AcDbEntity
  8
DEFPOINTS
 62
     0
440
 16777216
100
AcDbPoint
 10
734.1392787655254
 20
2727.592342684271
 30
0.0
  0
POINT
  5
1E1
330
1D6
100
AcDbEntity
  8
DEFPOINTS
 62
     0
440
 16777216
100
AcDbPoint
 10
717.6042829687121
 20
2727.592342684271
 30
0.0
  0
ENDBLK
  5
1E2
330
1D6
100
AcDbEntity
  8
0
100
AcDbBlockEnd
  0
BLOCK
  5
1C9
330
1C8
100
AcDbEntity
  8
0
100
AcDbBlockBegin
  2
*D9
 70
     1
 10
0.0
 20
0.0
 30
0.0
  3
*D9
  1

  0
LINE
  5
1CA
330
1C8
100
AcDbEntity
  8
BEMASSUNG
440
 16777216
370
    -2
100
AcDbLine
 10
792.6024234484444
 20
2605.592342684272
 30
0.0
 11
792.6024234484444
 21
2465.04234425322
 31
0.0
  0
LINE
  5
1CB
330
1C8
100
AcDbEntity
  8
BEMASSUNG
440
 16777216
370
    -2
100
AcDbLine
 10
765.6024234484443
 20
2532.601866793415
 30
0.0
 11
765.6024234484443
 21
2465.04234425322
 31
0.0
  0
LINE
  5
1CC
330
1C8
100
AcDbEntity
  8
BEMASSUNG
440
 16777216
370
    -2
100
AcDbLine
 10
772.4024234484443
 20
2466.74234425322
 30
0.0
 11
785.8024234484444
 21
2466.74234425322
 31
0.0
  0
LINE
  5
1CD
330
1C8
100
AcDbEntity
  8
BEMASSUNG
440
 16777216
370
    -2
100
AcDbLine
 10
792.6024234484444
 20
2466.74234425322
 30
0.0
 11
847.3911768590857
 21
2466.74234425322
 31
0.0
  0
SOLID
  5
1CE
330
1C8
100
AcDbEntity
  8
BEMASSUNG
440
 16777216
100
AcDbTrace
 10
772.4024234484443
 20
2467.875677586553
 30
0.0
 11
772.4024234484443
 21
2465.609010919887
 31
0.0
 12
765.6024234484443
 22
2466.74234425322
 32
0.0
 13
765.6024234484443
 23
2466.74234425322
 33
0.0
  0
SOLID
  5
1CF
330
1C8
100
AcDbEntity
  8
BEMASSUNG
440
 16777216
100
AcDbTrace
 10
785.8024234484444
 20
2467.875677586553
 30
0.0
 11
785.8024234484444
 21
2465.609010919887
 31
0.0
 12
792.6024234484444
 22
2466.74234425322
 32
0.0
 13
792.6024234484444
 23
2466.74234425322
 33
0.0
  0
MTEXT
  5
1D0
330
1C8
100
AcDbEntity
  8
BEMASSUNG
 62
     3
440
 16777216
100
AcDbMText
 10
833.69826246618
 20
2472.22055366659
 30
0.0
 40
7.394999999999994
 41
0.0
 46
0.0
 71
     5
 72
     1
  1
\A1;DM-3
  7
ARIAL-STANDARD
 73
     1
 44
1.0
  0
POINT
  5
1D1
330
1C8
100
AcDbEntity
  8
DEFPOINTS
 62
     0
440
 16777216
100
AcDbPoint
 10
792.6024234484444
 20
2605.592342684272
 30
0.0
  0
POINT
  5
1D2
330
1C8
100
AcDbEntity
  8
DEFPOINTS
 62
     0
440
 16777216
100
AcDbPoint
 10
765.6024234484443
 20
2532.601866793415
 30
0.0
  0
POINT
  5
1D3
330
1C8
100
AcDbEntity
  8
DEFPOINTS
 62
     0
440
 16777216
100
AcDbPoint
 10
765.6024234484443
 20
2466.74234425322
 30
0.0
  0
ENDBLK
  5
1D4
330
1C8
100
AcDbEntity
  8
0
100
AcDbBlockEnd
  0
BLOCK
  5
1BC
330
1BB
100
AcDbEntity
  8
0
100
AcDbBlockBegin
  2
*D10
 70
     1
 10
0.0
 20
0.0
 30
0.0
  3
*D10
  1

  0
LINE
  5
1BD
330
1BB
100
AcDbEntity
  8
BEMASSUNG
440
 16777216
370
    -2
100
AcDbLine
 10
750.1024234484434
 20
2805.592342684271
 30
0.0
 11
696.0733496494395
 21
2805.592342684271
 31
0.0
  0
LINE
  5
1BE
330
1BB
100
AcDbEntity
  8
BEMASSUNG
440
 16777216
370
    -2
100
AcDbLine
 10
697.7733496494395
 20
2727.592342684271
 30
0.0
 11
696.0733496494395
 21
2727.592342684271
 31
0.0
  0
LINE
  5
1BF
330
1BB
100
AcDbEntity
  8
BEMASSUNG
440
 16777216
370
    -2
100
AcDbLine
 10
697.7733496494395
 20
2798.792342684271
 30
0.0
 11
697.7733496494395
 21
2734.392342684271
 31
0.0
  0
SOLID
  5
1C0
330
1BB
100
AcDbEntity
  8
BEMASSUNG
440
 16777216
100
AcDbTrace
 10
696.6400163161061
 20
2798.792342684271
 30
0.0
 11
698.9066829827728
 21
2798.792342684271
 31
0.0
 12
697.7733496494395
 22
2805.592342684271
 32
0.0
 13
697.7733496494395
 23
2805.592342684271
 33
0.0
  0
SOLID
  5
1C1
330
1BB
100
AcDbEntity
  8
BEMASSUNG
440
 16777216
100
AcDbTrace
 10
696.6400163161061
 20
2734.392342684271
 30
0.0
 11
698.9066829827728
 21
2734.392342684271
 31
0.0
 12
697.7733496494395
 22
2727.592342684271
 32
0.0
 13
697.7733496494395
 23
2727.592342684271
 33
0.0
  0
MTEXT
  5
1C2
330
1BB
100
AcDbEntity
  8
BEMASSUNG
 62
     3
440
 16777216
100
AcDbMText
 10
692.2976624052371
 20
2766.592342684271
 30
0.0
 40
7.394999999999994
 41
0.0
 46
0.0
 71
     5
 72
     1
  1
\A1;78
  7
ARIAL-STANDARD
 11
0.0000000000000001
 21
1.0
 31
0.0
 73
     1
 44
1.0
  0
POINT
  5
1C3
330
1BB
100
AcDbEntity
  8
DEFPOINTS
 62
     0
440
 16777216
100
AcDbPoint
 10
750.1024234484434
 20
2805.592342684271
 30
0.0
  0
POINT
  5
1C4
330
1BB
100
AcDbEntity
  8
DEFPOINTS
 62
     0
440
 16777216
100
AcDbPoint
 10
697.7733496494395
 20
2727.592342684271
 30
0.0
  0
POINT
  5
1C5
330
1BB
100
AcDbEntity
  8
DEFPOINTS
 62
     0
440
 16777216
100
AcDbPoint
 10
697.7733496494395
 20
2727.592342684271
 30
0.0
  0
ENDBLK
  5
1C6
330
1BB
100
AcDbEntity
  8
0
100
AcDbBlockEnd
  0
BLOCK
  5
1AF
330
1AE
100
AcDbEntity
  8
0
100
AcDbBlockBegin
  2
*D11
 70
     1
 10
0.0
 20
0.0
 30
0.0
  3
*D11
  1

  0
LINE
  5
1B0
330
1AE
100
AcDbEntity
  8
BEMASSUNG
440
 16777216
370
    -2
100
AcDbLine
 10
750.1024234484443
 20
2605.592342684272
 30
0.0
 11
696.0733496494395
 21
2605.592342684272
 31
0.0
  0
LINE
  5
1B1
330
1AE
100
AcDbEntity
  8
BEMASSUNG
440
 16777216
370
    -2
100
AcDbLine
 10
726.2191583590188
 20
2727.592342684271
 30
0.0
 11
696.0733496494395
 21
2727.592342684271
 31
0.0
  0
LINE
  5
1B2
330
1AE
100
AcDbEntity
  8
BEMASSUNG
440
 16777216
370
    -2
100
AcDbLine
 10
697.7733496494395
 20
2612.392342684272
 30
0.0
 11
697.7733496494395
 21
2720.792342684271
 31
0.0
  0
SOLID
  5
1B3
330
1AE
100
AcDbEntity
  8
BEMASSUNG
440
 16777216
100
AcDbTrace
 10
696.6400163161061
 20
2612.392342684272
 30
0.0
 11
698.9066829827728
 21
2612.392342684272
 31
0.0
 12
697.7733496494395
 22
2605.592342684272
 32
0.0
 13
697.7733496494395
 23
2605.592342684272
 33
0.0
  0
SOLID
  5
1B4
330
1AE
100
AcDbEntity
  8
BEMASSUNG
440
 16777216
100
AcDbTrace
 10
696.6400163161061
 20
2720.792342684271
 30
0.0
 11
698.9066829827728
 21
2720.792342684271
 31
0.0
 12
697.7733496494395
 22
2727.592342684271
 32
0.0
 13
697.7733496494395
 23
2727.592342684271
 33
0.0
  0
MTEXT
  5
1B5
330
1AE
100
AcDbEntity
  8
BEMASSUNG
 62
     3
440
 16777216
100
AcDbMText
 10
692.3607166344322
 20
2666.592342684272
 30
0.0
 40
7.394999999999994
 41
0.0
 46
0.0
 71
     5
 72
     1
  1
\A1;122
  7
ARIAL-STANDARD
 11
0.0000000000000001
 21
1.0
 31
0.0
 73
     1
 44
1.0
  0
POINT
  5
1B6
330
1AE
100
AcDbEntity
  8
DEFPOINTS
 62
     0
440
 16777216
100
AcDbPoint
 10
750.1024234484443
 20
2605.592342684272
 30
0.0
  0
POINT
  5
1B7
330
1AE
100
AcDbEntity
  8
DEFPOINTS
 62
     0
440
 16777216
100
AcDbPoint
 10
726.2191583590188
 20
2727.592342684271
 30
0.0
  0
POINT
  5
1B8
330
1AE
100
AcDbEntity
  8
DEFPOINTS
 62
     0
440
 16777216
100
AcDbPoint
 10
697.7733496494395
 20
2727.592342684271
 30
0.0
  0
ENDBLK
  5
1B9
330
1AE
100
AcDbEntity
  8
0
100
AcDbBlockEnd
  0
BLOCK
  5
1A2
330
1A1
100
AcDbEntity
  8
0
100
AcDbBlockBegin
  2
*D12
 70
     1
 10
0.0
 20
0.0
 30
0.0
  3
*D12
  1

  0
LINE
  5
1A3
330
1A1
100
AcDbEntity
  8
BEMASSUNG
440
 16777216
370
    -2
100
AcDbLine
 10
760.6021888739956
 20
2865.161758097727
 30
0.0
 11
674.1141919765945
 21
2865.161758097727
 31
0.0
  0
LINE
  5
1A4
330
1A1
100
AcDbEntity
  8
BEMASSUNG
440
 16777216
370
    -2
100
AcDbLine
 10
708.2756982159365
 20
2727.592342684271
 30
0.0
 11
674.1141919765944
 21
2727.592342684271
 31
0.0
  0
LINE
  5
1A5
330
1A1
100
AcDbEntity
  8
BEMASSUNG
440
 16777216
370
    -2
100
AcDbLine
 10
675.8141919765945
 20
2858.361758097727
 30
0.0
 11
675.8141919765944
 21
2734.392342684271
 31
0.0
  0
SOLID
  5
1A6
330
1A1
100
AcDbEntity
  8
BEMASSUNG
440
 16777216
100
AcDbTrace
 10
674.6808586432612
 20
2858.361758097727
 30
0.0
 11
676.9475253099279
 21
2858.361758097727
 31
0.0
 12
675.8141919765945
 22
2865.161758097727
 32
0.0
 13
675.8141919765945
 23
2865.161758097727
 33
0.0
  0
SOLID
  5
1A7
330
1A1
100
AcDbEntity
  8
BEMASSUNG
440
 16777216
100
AcDbTrace
 10
674.6808586432611
 20
2734.392342684271
 30
0.0
 11
676.9475253099277
 21
2734.392342684271
 31
0.0
 12
675.8141919765944
 22
2727.592342684271
 32
0.0
 13
675.8141919765944
 23
2727.592342684271
 33
0.0
  0
MTEXT
  5
1A8
330
1A1
100
AcDbEntity
  8
BEMASSUNG
 62
     3
440
 16777216
100
AcDbMText
 10
670.3359825632244
 20
2796.377050390999
 30
0.0
 40
7.394999999999994
 41
0.0
 46
0.0
 71
     5
 72
     1
  1
\A1;138
  7
ARIAL-STANDARD
 11
0.0000000000000001
 21
1.0
 31
0.0
 73
     1
 44
1.0
  0
POINT
  5
1A9
330
1A1
100
AcDbEntity
  8
DEFPOINTS
 62
     0
440
 16777216
100
AcDbPoint
 10
760.6021888739956
 20
2865.161758097727
 30
0.0
  0
POINT
  5
1AA
330
1A1
100
AcDbEntity
  8
DEFPOINTS
 62
     0
440
 16777216
100
AcDbPoint
 10
708.2756982159365
 20
2727.592342684271
 30
0.0
  0
POINT
  5
1AB
330
1A1
100
AcDbEntity
  8
DEFPOINTS
 62
     0
440
 16777216
100
AcDbPoint
 10
675.8141919765944
 20
2727.592342684271
 30
0.0
  0
ENDBLK
  5
1AC
330
1A1
100
AcDbEntity
  8
0
100
AcDbBlockEnd
  0
BLOCK
  5
195
330
194
100
AcDbEntity
  8
0
100
AcDbBlockBegin
  2
*D13
 70
     1
 10
0.0
 20
0.0
 30
0.0
  3
*D13
  1

  0
LINE
  5
196
330
194
100
AcDbEntity
  8
BEMASSUNG
440
 16777216
370
    -2
100
AcDbLine
 10
765.6024234484443
 20
2727.592342684271
 30
0.0
 11
674.1141919765944
 21
2727.592342684271
 31
0.0
  0
LINE
  5
197
330
194
100
AcDbEntity
  8
BEMASSUNG
440
 16777216
370
    -2
100
AcDbLine
 10
760.6024234484443
 20
2539.593180718663
 30
0.0
 11
674.1141919765944
 21
2539.593180718663
 31
0.0
  0
LINE
  5
198
330
194
100
AcDbEntity
  8
BEMASSUNG
440
 16777216
370
    -2
100
AcDbLine
 10
675.8141919765944
 20
2720.792342684271
 30
0.0
 11
675.8141919765944
 21
2546.393180718663
 31
0.0
  0
SOLID
  5
199
330
194
100
AcDbEntity
  8
BEMASSUNG
440
 16777216
100
AcDbTrace
 10
674.6808586432611
 20
2720.792342684271
 30
0.0
 11
676.9475253099277
 21
2720.792342684271
 31
0.0
 12
675.8141919765944
 22
2727.592342684271
 32
0.0
 13
675.8141919765944
 23
2727.592342684271
 33
0.0
  0
SOLID
  5
19A
330
194
100
AcDbEntity
  8
BEMASSUNG
440
 16777216
100
AcDbTrace
 10
674.6808586432611
 20
2546.393180718663
 30
0.0
 11
676.9475253099277
 21
2546.393180718663
 31
0.0
 12
675.8141919765944
 22
2539.593180718663
 32
0.0
 13
675.8141919765944
 23
2539.593180718663
 33
0.0
  0
MTEXT
  5
19B
330
194
100
AcDbEntity
  8
BEMASSUNG
 62
     3
440
 16777216
100
AcDbMText
 10
670.338504732392
 20
2633.592761701467
 30
0.0
 40
7.394999999999994
 41
0.0
 46
0.0
 71
     5
 72
     1
  1
\A1;188
  7
ARIAL-STANDARD
 11
0.0000000000000001
 21
1.0
 31
0.0
 73
     1
 44
1.0
  0
POINT
  5
19C
330
194
100
AcDbEntity
  8
DEFPOINTS
 62
     0
440
 16777216
100
AcDbPoint
 10
765.6024234484443
 20
2727.592342684271
 30
0.0
  0
POINT
  5
19D
330
194
100
AcDbEntity
  8
DEFPOINTS
 62
     0
440
 16777216
100
AcDbPoint
 10
760.6024234484443
 20
2539.593180718663
 30
0.0
  0
POINT
  5
19E
330
194
100
AcDbEntity
  8
DEFPOINTS
 62
     0
440
 16777216
100
AcDbPoint
 10
675.8141919765944
 20
2539.593180718663
 30
0.0
  0
ENDBLK
  5
19F
330
194
100
AcDbEntity
  8
0
100
AcDbBlockEnd
  0
BLOCK
  5
186
330
185
100
AcDbEntity
  8
0
100
AcDbBlockBegin
  2
*D14
 70
     1
 10
0.0
 20
0.0
 30
0.0
  3
*D14
  1

  0
LINE
  5
187
330
185
100
AcDbEntity
  8
BEMASSUNG
440
 16777216
370
    -2
100
AcDbLine
 10
750.1024234484443
 20
2605.592342684272
 30
0.0
 11
750.1024234484443
 21
2487.394646391424
 31
0.0
  0
LINE
  5
188
330
185
100
AcDbEntity
  8
BEMASSUNG
440
 16777216
370
    -2
100
AcDbLine
 10
765.6024234484443
 20
2532.601866793415
 30
0.0
 11
765.6024234484443
 21
2487.394646391424
 31
0.0
  0
LINE
  5
189
330
185
100
AcDbEntity
  8
BEMASSUNG
440
 16777216
370
    -2
100
AcDbLine
 10
772.4024234484443
 20
2489.094646391424
 30
0.0
 11
779.2024234484443
 21
2489.094646391424
 31
0.0
  0
LINE
  5
18A
330
185
100
AcDbEntity
  8
BEMASSUNG
440
 16777216
370
    -2
100
AcDbLine
 10
743.3024234484443
 20
2489.094646391424
 30
0.0
 11
701.3192055084714
 21
2489.094646391424
 31
0.0
  0
LINE
  5
18B
330
185
100
AcDbEntity
  8
BEMASSUNG
440
 16777216
370
    -2
100
AcDbLine
 10
765.6024234484443
 20
2489.094646391424
 30
0.0
 11
750.1024234484443
 21
2489.094646391424
 31
0.0
  0
SOLID
  5
18C
330
185
100
AcDbEntity
  8
BEMASSUNG
440
 16777216
100
AcDbTrace
 10
772.4024234484443
 20
2490.227979724757
 30
0.0
 11
772.4024234484443
 21
2487.961313058091
 31
0.0
 12
765.6024234484443
 22
2489.094646391424
 32
0.0
 13
765.6024234484443
 23
2489.094646391424
 33
0.0
  0
SOLID
  5
18D
330
185
100
AcDbEntity
  8
BEMASSUNG
440
 16777216
100
AcDbTrace
 10
743.3024234484443
 20
2490.227979724757
 30
0.0
 11
743.3024234484443
 21
2487.961313058091
 31
0.0
 12
750.1024234484443
 22
2489.094646391424
 32
0.0
 13
750.1024234484443
 23
2489.094646391424
 33
0.0
  0
MTEXT
  5
18E
330
185
100
AcDbEntity
  8
BEMASSUNG
 62
     3
440
 16777216
100
AcDbMText
 10
712.3033102151562
 20
2494.570333635626
 30
0.0
 40
7.394999999999994
 41
0.0
 46
0.0
 71
     5
 72
     1
  1
\A1;15.5
  7
ARIAL-STANDARD
 73
     1
 44
1.0
  0
POINT
  5
18F
330
185
100
AcDbEntity
  8
DEFPOINTS
 62
     0
440
 16777216
100
AcDbPoint
 10
750.1024234484443
 20
2605.592342684272
 30
0.0
  0
POINT
  5
190
330
185
100
AcDbEntity
  8
DEFPOINTS
 62
     0
440
 16777216
100
AcDbPoint
 10
765.6024234484443
 20
2532.601866793415
 30
0.0
  0
POINT
  5
191
330
185
100
AcDbEntity
  8
DEFPOINTS
 62
     0
440
 16777216
100
AcDbPoint
 10
765.6024234484443
 20
2489.094646391424
 30
0.0
  0
ENDBLK
  5
192
330
185
100
AcDbEntity
  8
0
100
AcDbBlockEnd
  0
BLOCK
  5
179
330
178
100
AcDbEntity
  8
0
100
AcDbBlockBegin
  2
*D15
 70
     1
 10
0.0
 20
0.0
 30
0.0
  3
*D15
  1

  0
LINE
  5
17A
330
178
100
AcDbEntity
  8
BEMASSUNG
440
 16777216
370
    -2
100
AcDbLine
 10
721.8696555657957
 20
2559.593919290303
 30
0.0
 11
716.5958307257374
 21
2559.593919290303
 31
0.0
  0
LINE
  5
17B
330
178
100
AcDbEntity
  8
BEMASSUNG
440
 16777216
370
    -2
100
AcDbLine
 10
765.4565878833423
 20
2539.593180718663
 30
0.0
 11
716.5958307257374
 21
2539.593180718663
 31
0.0
  0
LINE
  5
17C
330
178
100
AcDbEntity
  8
BEMASSUNG
440
 16777216
370
    -2
100
AcDbLine
 10
718.2958307257374
 20
2552.793919290303
 30
0.0
 11
718.2958307257374
 21
2546.393180718663
 31
0.0
  0
SOLID
  5
17D
330
178
100
AcDbEntity
  8
BEMASSUNG
440
 16777216
100
AcDbTrace
 10
717.1624973924041
 20
2552.793919290303
 30
0.0
 11
719.4291640590708
 21
2552.793919290303
 31
0.0
 12
718.2958307257374
 22
2559.593919290303
 32
0.0
 13
718.2958307257374
 23
2559.593919290303
 33
0.0
  0
SOLID
  5
17E
330
178
100
AcDbEntity
  8
BEMASSUNG
440
 16777216
100
AcDbTrace
 10
717.1624973924041
 20
2546.393180718663
 30
0.0
 11
719.4291640590708
 21
2546.393180718663
 31
0.0
 12
718.2958307257374
 22
2539.593180718663
 32
0.0
 13
718.2958307257374
 23
2539.593180718663
 33
0.0
  0
MTEXT
  5
17F
330
178
100
AcDbEntity
  8
BEMASSUNG
 62
     3
440
 16777216
100
AcDbMText
 10
712.820143481535
 20
2549.593550004483
 30
0.0
 40
7.394999999999994
 41
0.0
 46
0.0
 71
     5
 72
     1
  1
\A1;Hub = 20
  7
ARIAL-STANDARD
 11
0.0000000000000001
 21
1.0
 31
0.0
 73
     1
 44
1.0
  0
POINT
  5
180
330
178
100
AcDbEntity
  8
DEFPOINTS
 62
     0
440
 16777216
100
AcDbPoint
 10
721.8696555657957
 20
2559.593919290303
 30
0.0
  0
POINT
  5
181
330
178
100
AcDbEntity
  8
DEFPOINTS
 62
     0
440
 16777216
100
AcDbPoint
 10
765.4565878833423
 20
2539.593180718663
 30
0.0
  0
POINT
  5
182
330
178
100
AcDbEntity
  8
DEFPOINTS
 62
     0
440
 16777216
100
AcDbPoint
 10
718.2958307257374
 20
2539.593180718663
 30
0.0
  0
ENDBLK
  5
183
330
178
100
AcDbEntity
  8
0
100
AcDbBlockEnd
  0
BLOCK
  5
16C
330
16B
100
AcDbEntity
  8
0
100
AcDbBlockBegin
  2
*D16
 70
     1
 10
0.0
 20
0.0
 30
0.0
  3
*D16
  1

  0
LINE
  5
16D
330
16B
100
AcDbEntity
  8
BEMASSUNG
440
 16777216
370
    -2
100
AcDbLine
 10
760.6021888739956
 20
2865.161758097727
 30
0.0
 11
717.6684282265185
 21
2865.161758097727
 31
0.0
  0
LINE
  5
16E
330
16B
100
AcDbEntity
  8
BEMASSUNG
440
 16777216
370
    -2
100
AcDbLine
 10
724.5344436427115
 20
2845.159552638671
 30
0.0
 11
717.6684282265185
 21
2845.159552638671
 31
0.0
  0
LINE
  5
16F
330
16B
100
AcDbEntity
  8
BEMASSUNG
440
 16777216
370
    -2
100
AcDbLine
 10
719.3684282265185
 20
2858.361758097727
 30
0.0
 11
719.3684282265185
 21
2851.959552638671
 31
0.0
  0
SOLID
  5
170
330
16B
100
AcDbEntity
  8
BEMASSUNG
440
 16777216
100
AcDbTrace
 10
718.2350948931851
 20
2858.361758097727
 30
0.0
 11
720.5017615598518
 21
2858.361758097727
 31
0.0
 12
719.3684282265185
 22
2865.161758097727
 32
0.0
 13
719.3684282265185
 23
2865.161758097727
 33
0.0
  0
SOLID
  5
171
330
16B
100
AcDbEntity
  8
BEMASSUNG
440
 16777216
100
AcDbTrace
 10
718.2350948931851
 20
2851.959552638671
 30
0.0
 11
720.5017615598518
 21
2851.959552638671
 31
0.0
 12
719.3684282265185
 22
2845.159552638671
 32
0.0
 13
719.3684282265185
 23
2845.159552638671
 33
0.0
  0
MTEXT
  5
172
330
16B
100
AcDbEntity
  8
BEMASSUNG
 62
     3
440
 16777216
100
AcDbMText
 10
713.892740982316
 20
2855.160655368198
 30
0.0
 40
7.394999999999994
 41
0.0
 46
0.0
 71
     5
 72
     1
  1
\A1;Hub = 20
  7
ARIAL-STANDARD
 11
0.0000000000000001
 21
1.0
 31
0.0
 73
     1
 44
1.0
  0
POINT
  5
173
330
16B
100
AcDbEntity
  8
DEFPOINTS
 62
     0
440
 16777216
100
AcDbPoint
 10
760.6021888739956
 20
2865.161758097727
 30
0.0
  0
POINT
  5
174
330
16B
100
AcDbEntity
  8
DEFPOINTS
 62
     0
440
 16777216
100
AcDbPoint
 10
724.5344436427115
 20
2845.159552638671
 30
0.0
  0
POINT
  5
175
330
16B
100
AcDbEntity
  8
DEFPOINTS
 62
     0
440
 16777216
100
AcDbPoint
 10
719.3684282265185
 20
2845.159552638671
 30
0.0
  0
ENDBLK
  5
176
330
16B
100
AcDbEntity
  8
0
100
AcDbBlockEnd
  0
BLOCK
  5
13C
330
13B
100
AcDbEntity
  8
0
100
AcDbBlockBegin
  2
*D17
 70
     1
 10
0.0
 20
0.0
 30
0.0
  3
*D17
  1

  0
LINE
  5
13D
330
13B
100
AcDbEntity
  8
BEMASSUNG
440
 16777216
370
    -2
100
AcDbLine
 10
794.5524234484451
 20
2667.592342684271
 30
0.0
 11
817.5161421437994
 21
2667.592342684271
 31
0.0
  0
LINE
  5
13E
330
13B
100
AcDbEntity
  8
BEMASSUNG
440
 16777216
370
    -2
100
AcDbLine
 10
791.3524234484444
 20
2727.592342684271
 30
0.0
 11
817.5161421437994
 21
2727.592342684271
 31
0.0
  0
LINE
  5
13F
330
13B
100
AcDbEntity
  8
BEMASSUNG
440
 16777216
370
    -2
100
AcDbLine
 10
815.8161421437993
 20
2674.392342684271
 30
0.0
 11
815.8161421437993
 21
2720.792342684271
 31
0.0
  0
SOLID
  5
140
330
13B
100
AcDbEntity
  8
BEMASSUNG
440
 16777216
100
AcDbTrace
 10
814.682808810466
 20
2674.392342684271
 30
0.0
 11
816.9494754771328
 21
2674.392342684271
 31
0.0
 12
815.8161421437993
 22
2667.592342684271
 32
0.0
 13
815.8161421437993
 23
2667.592342684271
 33
0.0
  0
SOLID
  5
141
330
13B
100
AcDbEntity
  8
BEMASSUNG
440
 16777216
100
AcDbTrace
 10
814.682808810466
 20
2720.792342684271
 30
0.0
 11
816.9494754771328
 21
2720.792342684271
 31
0.0
 12
815.8161421437993
 22
2727.592342684271
 32
0.0
 13
815.8161421437993
 23
2727.592342684271
 33
0.0
  0
MTEXT
  5
142
330
13B
100
AcDbEntity
  8
BEMASSUNG
 62
     3
440
 16777216
100
AcDbMText
 10
810.3404548995969
 20
2697.592342684271
 30
0.0
 40
7.394999999999994
 41
0.0
 46
0.0
 71
     5
 72
     1
  1
\A1;60
  7
ARIAL-STANDARD
 11
0.0000000000000001
 21
1.0
 31
0.0
 73
     1
 44
1.0
  0
POINT
  5
143
330
13B
100
AcDbEntity
  8
DEFPOINTS
 62
     0
440
 16777216
100
AcDbPoint
 10
794.5524234484451
 20
2667.592342684271
 30
0.0
  0
POINT
  5
144
330
13B
100
AcDbEntity
  8
DEFPOINTS
 62
     0
440
 16777216
100
AcDbPoint
 10
791.3524234484444
 20
2727.592342684271
 30
0.0
  0
POINT
  5
145
330
13B
100
AcDbEntity
  8
DEFPOINTS
 62
     0
440
 16777216
100
AcDbPoint
 10
815.8161421437993
 20
2727.592342684271
 30
0.0
  0
ENDBLK
  5
146
330
13B
100
AcDbEntity
  8
0
100
AcDbBlockEnd
  0
BLOCK
  5
12F
330
12E
100
AcDbEntity
  8
0
100
AcDbBlockBegin
  2
*D18
 70
     1
 10
0.0
 20
0.0
 30
0.0
  3
*D18
  1

  0
LINE
  5
130
330
12E
100
AcDbEntity
  8
BEMASSUNG
440
 16777216
370
    -2
100
AcDbLine
 10
791.3524234484444
 20
2727.592342684271
 30
0.0
 11
817.5167902699984
 21
2727.592342684271
 31
0.0
  0
LINE
  5
131
330
12E
100
AcDbEntity
  8
BEMASSUNG
440
 16777216
370
    -2
100
AcDbLine
 10
801.020978310767
 20
2767.592342684271
 30
0.0
 11
817.5167902699984
 21
2767.592342684271
 31
0.0
  0
LINE
  5
132
330
12E
100
AcDbEntity
  8
BEMASSUNG
440
 16777216
370
    -2
100
AcDbLine
 10
815.8167902699982
 20
2734.392342684271
 30
0.0
 11
815.8167902699982
 21
2760.792342684271
 31
0.0
  0
SOLID
  5
133
330
12E
100
AcDbEntity
  8
BEMASSUNG
440
 16777216
100
AcDbTrace
 10
814.6834569366649
 20
2734.392342684271
 30
0.0
 11
816.9501236033317
 21
2734.392342684271
 31
0.0
 12
815.8167902699982
 22
2727.592342684271
 32
0.0
 13
815.8167902699982
 23
2727.592342684271
 33
0.0
  0
SOLID
  5
134
330
12E
100
AcDbEntity
  8
BEMASSUNG
440
 16777216
100
AcDbTrace
 10
814.6834569366649
 20
2760.792342684271
 30
0.0
 11
816.9501236033317
 21
2760.792342684271
 31
0.0
 12
815.8167902699982
 22
2767.592342684271
 32
0.0
 13
815.8167902699982
 23
2767.592342684271
 33
0.0
  0
MTEXT
  5
135
330
12E
100
AcDbEntity
  8
BEMASSUNG
 62
     3
440
 16777216
100
AcDbMText
 10
810.3411030257959
 20
2747.592342684271
 30
0.0
 40
7.394999999999994
 41
0.0
 46
0.0
 71
     5
 72
     1
  1
\A1;40
  7
ARIAL-STANDARD
 11
0.0000000000000001
 21
1.0
 31
0.0
 73
     1
 44
1.0
  0
POINT
  5
136
330
12E
100
AcDbEntity
  8
DEFPOINTS
 62
     0
440
 16777216
100
AcDbPoint
 10
791.3524234484444
 20
2727.592342684271
 30
0.0
  0
POINT
  5
137
330
12E
100
AcDbEntity
  8
DEFPOINTS
 62
     0
440
 16777216
100
AcDbPoint
 10
801.020978310767
 20
2767.592342684271
 30
0.0
  0
POINT
  5
138
330
12E
100
AcDbEntity
  8
DEFPOINTS
 62
     0
440
 16777216
100
AcDbPoint
 10
815.8167902699982
 20
2767.592342684271
 30
0.0
  0
ENDBLK
  5
139
330
12E
100
AcDbEntity
  8
0
100
AcDbBlockEnd
  0
BLOCK
  5
11B
330
11A
100
AcDbEntity
  8
0
100
AcDbBlockBegin
  2
*D19
 70
     1
 10
0.0
 20
0.0
 30
0.0
  3
*D19
  1

  0
LINE
  5
11C
330
11A
100
AcDbEntity
  8
BEMASSUNG
440
 16777216
370
    -2
100
AcDbLine
 10
552.656590443647
 20
2727.592342684271
 30
0.0
 11
598.8816576857796
 21
2727.592342684271
 31
0.0
  0
LINE
  5
11D
330
11A
100
AcDbEntity
  8
BEMASSUNG
440
 16777216
370
    -2
100
AcDbLine
 10
552.656590443647
 20
2767.592342684271
 30
0.0
 11
598.8816576857796
 21
2767.592342684271
 31
0.0
  0
LINE
  5
11E
330
11A
100
AcDbEntity
  8
BEMASSUNG
440
 16777216
370
    -2
100
AcDbLine
 10
597.1816576857795
 20
2734.392342684271
 30
0.0
 11
597.1816576857795
 21
2760.792342684271
 31
0.0
  0
SOLID
  5
11F
330
11A
100
AcDbEntity
  8
BEMASSUNG
440
 16777216
100
AcDbTrace
 10
596.0483243524462
 20
2734.392342684271
 30
0.0
 11
598.3149910191128
 21
2734.392342684271
 31
0.0
 12
597.1816576857795
 22
2727.592342684271
 32
0.0
 13
597.1816576857795
 23
2727.592342684271
 33
0.0
  0
SOLID
  5
120
330
11A
100
AcDbEntity
  8
BEMASSUNG
440
 16777216
100
AcDbTrace
 10
596.0483243524462
 20
2760.792342684271
 30
0.0
 11
598.3149910191128
 21
2760.792342684271
 31
0.0
 12
597.1816576857795
 22
2767.592342684271
 32
0.0
 13
597.1816576857795
 23
2767.592342684271
 33
0.0
  0
MTEXT
  5
121
330
11A
100
AcDbEntity
  8
BEMASSUNG
 62
     3
440
 16777216
100
AcDbMText
 10
591.7059704415772
 20
2747.592342684271
 30
0.0
 40
7.394999999999994
 41
0.0
 46
0.0
 71
     5
 72
     1
  1
\A1;40
  7
ARIAL-STANDARD
 11
0.0000000000000001
 21
1.0
 31
0.0
 73
     1
 44
1.0
  0
POINT
  5
122
330
11A
100
AcDbEntity
  8
DEFPOINTS
 62
     0
440
 16777216
100
AcDbPoint
 10
552.656590443647
 20
2727.592342684271
 30
0.0
  0
POINT
  5
123
330
11A
100
AcDbEntity
  8
DEFPOINTS
 62
     0
440
 16777216
100
AcDbPoint
 10
552.656590443647
 20
2767.592342684271
 30
0.0
  0
POINT
  5
124
330
11A
100
AcDbEntity
  8
DEFPOINTS
 62
     0
440
 16777216
100
AcDbPoint
 10
597.1816576857795
 20
2767.592342684271
 30
0.0
  0
ENDBLK
  5
125
330
11A
100
AcDbEntity
  8
0
100
AcDbBlockEnd
  0
BLOCK
  5
100
330
FF
100
AcDbEntity
  8
0
100
AcDbBlockBegin
  2
*D20
 70
     1
 10
0.0
 20
0.0
 30
0.0
  3
*D20
  1

  0
LINE
  5
101
330
FF
100
AcDbEntity
  8
BEMASSUNG
440
 16777216
370
    -2
100
AcDbLine
 10
552.656590443647
 20
2727.592342684271
 30
0.0
 11
545.0312774689903
 21
2727.592342684271
 31
0.0
  0
LINE
  5
102
330
FF
100
AcDbEntity
  8
BEMASSUNG
440
 16777216
370
    -2
100
AcDbLine
 10
556.4565904436462
 20
2736.592342684271
 30
0.0
 11
545.0312774689903
 21
2736.592342684271
 31
0.0
  0
LINE
  5
103
330
FF
100
AcDbEntity
  8
BEMASSUNG
440
 16777216
370
    -2
100
AcDbLine
 10
546.7312774689903
 20
2720.792342684271
 30
0.0
 11
546.7312774689903
 21
2713.992342684271
 31
0.0
  0
LINE
  5
104
330
FF
100
AcDbEntity
  8
BEMASSUNG
440
 16777216
370
    -2
100
AcDbLine
 10
546.7312774689903
 20
2743.392342684271
 30
0.0
 11
546.7312774689903
 21
2750.192342684271
 31
0.0
  0
LINE
  5
105
330
FF
100
AcDbEntity
  8
BEMASSUNG
440
 16777216
370
    -2
100
AcDbLine
 10
546.7312774689903
 20
2727.592342684271
 30
0.0
 11
546.7312774689903
 21
2736.592342684271
 31
0.0
  0
SOLID
  5
106
330
FF
100
AcDbEntity
  8
BEMASSUNG
440
 16777216
100
AcDbTrace
 10
545.597944135657
 20
2720.792342684271
 30
0.0
 11
547.8646108023236
 21
2720.792342684271
 31
0.0
 12
546.7312774689903
 22
2727.592342684271
 32
0.0
 13
546.7312774689903
 23
2727.592342684271
 33
0.0
  0
SOLID
  5
107
330
FF
100
AcDbEntity
  8
BEMASSUNG
440
 16777216
100
AcDbTrace
 10
545.597944135657
 20
2743.392342684271
 30
0.0
 11
547.8646108023236
 21
2743.392342684271
 31
0.0
 12
546.7312774689903
 22
2736.592342684271
 32
0.0
 13
546.7312774689903
 23
2736.592342684271
 33
0.0
  0
MTEXT
  5
108
330
FF
100
AcDbEntity
  8
BEMASSUNG
 62
     3
440
 16777216
100
AcDbMText
 10
541.255590224788
 20
2732.092342684271
 30
0.0
 40
7.394999999999994
 41
0.0
 46
0.0
 71
     5
 72
     1
  1
\A1;9
  7
ARIAL-STANDARD
 11
0.0000000000000001
 21
1.0
 31
0.0
 73
     1
 44
1.0
  0
POINT
  5
109
330
FF
100
AcDbEntity
  8
DEFPOINTS
 62
     0
440
 16777216
100
AcDbPoint
 10
552.656590443647
 20
2727.592342684271
 30
0.0
  0
POINT
  5
10A
330
FF
100
AcDbEntity
  8
DEFPOINTS
 62
     0
440
 16777216
100
AcDbPoint
 10
556.4565904436462
 20
2736.592342684271
 30
0.0
  0
POINT
  5
10B
330
FF
100
AcDbEntity
  8
DEFPOINTS
 62
     0
440
 16777216
100
AcDbPoint
 10
546.7312774689903
 20
2736.592342684271
 30
0.0
  0
ENDBLK
  5
10C
330
FF
100
AcDbEntity
  8
0
100
AcDbBlockEnd
  0
BLOCK
  5
F3
330
F2
100
AcDbEntity
  8
0
100
AcDbBlockBegin
  2
*D21
 70
     1
 10
0.0
 20
0.0
 30
0.0
  3
*D21
  1

  0
LINE
  5
F4
330
F2
100
AcDbEntity
  8
BEMASSUNG
440
 16777216
370
    -2
100
AcDbLine
 10
552.656590443647
 20
2727.592342684271
 30
0.0
 11
530.0392170486705
 21
2727.592342684271
 31
0.0
  0
LINE
  5
F5
330
F2
100
AcDbEntity
  8
BEMASSUNG
440
 16777216
370
    -2
100
AcDbLine
 10
556.4565904436462
 20
2798.592342684271
 30
0.0
 11
530.0392170486705
 21
2798.592342684271
 31
0.0
  0
LINE
  5
F6
330
F2
100
AcDbEntity
  8
BEMASSUNG
440
 16777216
370
    -2
100
AcDbLine
 10
531.7392170486705
 20
2734.392342684271
 30
0.0
 11
531.7392170486705
 21
2791.792342684271
 31
0.0
  0
SOLID
  5
F7
330
F2
100
AcDbEntity
  8
BEMASSUNG
440
 16777216
100
AcDbTrace
 10
530.6058837153371
 20
2734.392342684271
 30
0.0
 11
532.8725503820038
 21
2734.392342684271
 31
0.0
 12
531.7392170486705
 22
2727.592342684271
 32
0.0
 13
531.7392170486705
 23
2727.592342684271
 33
0.0
  0
SOLID
  5
F8
330
F2
100
AcDbEntity
  8
BEMASSUNG
440
 16777216
100
AcDbTrace
 10
530.6058837153371
 20
2791.792342684271
 30
0.0
 11
532.8725503820038
 21
2791.792342684271
 31
0.0
 12
531.7392170486705
 22
2798.592342684271
 32
0.0
 13
531.7392170486705
 23
2798.592342684271
 33
0.0
  0
MTEXT
  5
F9
330
F2
100
AcDbEntity
  8
BEMASSUNG
 62
     3
440
 16777216
100
AcDbMText
 10
526.3265840336632
 20
2763.092342684271
 30
0.0
 40
7.394999999999994
 41
0.0
 46
0.0
 71
     5
 72
     1
  1
\A1;71
  7
ARIAL-STANDARD
 11
0.0000000000000001
 21
1.0
 31
0.0
 73
     1
 44
1.0
  0
POINT
  5
FA
330
F2
100
AcDbEntity
  8
DEFPOINTS
 62
     0
440
 16777216
100
AcDbPoint
 10
552.656590443647
 20
2727.592342684271
 30
0.0
  0
POINT
  5
FB
330
F2
100
AcDbEntity
  8
DEFPOINTS
 62
     0
440
 16777216
100
AcDbPoint
 10
556.4565904436462
 20
2798.592342684271
 30
0.0
  0
POINT
  5
FC
330
F2
100
AcDbEntity
  8
DEFPOINTS
 62
     0
440
 16777216
100
AcDbPoint
 10
531.7392170486705
 20
2798.592342684271
 30
0.0
  0
ENDBLK
  5
FD
330
F2
100
AcDbEntity
  8
0
100
AcDbBlockEnd
  0
BLOCK
  5
CA
330
C9
100
AcDbEntity
  8
0
100
AcDbBlockBegin
  2
*D22
 70
     1
 10
0.0
 20
0.0
 30
0.0
  3
*D22
  1

  0
LINE
  5
CB
330
C9
100
AcDbEntity
  8
BEMASSUNG
440
 16777216
370
    -2
100
AcDbLine
 10
750.1024234484441
 20
2407.575796669549
 30
0.0
 11
733.3125008223494
 21
2407.575796669549
 31
0.0
  0
LINE
  5
CC
330
C9
100
AcDbEntity
  8
BEMASSUNG
440
 16777216
370
    -2
100
AcDbLine
 10
750.1024234484441
 20
2392.075796669548
 30
0.0
 11
733.3125008223494
 21
2392.075796669548
 31
0.0
  0
LINE
  5
CD
330
C9
100
AcDbEntity
  8
BEMASSUNG
440
 16777216
370
    -2
100
AcDbLine
 10
735.0125008223495
 20
2414.375796669549
 30
0.0
 11
735.0125008223495
 21
2421.175796669548
 31
0.0
  0
LINE
  5
CE
330
C9
100
AcDbEntity
  8
BEMASSUNG
440
 16777216
370
    -2
100
AcDbLine
 10
735.0125008223495
 20
2385.275796669548
 30
0.0
 11
735.0125008223495
 21
2378.475796669548
 31
0.0
  0
LINE
  5
CF
330
C9
100
AcDbEntity
  8
BEMASSUNG
440
 16777216
370
    -2
100
AcDbLine
 10
735.0125008223495
 20
2407.575796669549
 30
0.0
 11
735.0125008223495
 21
2392.075796669548
 31
0.0
  0
SOLID
  5
D0
330
C9
100
AcDbEntity
  8
BEMASSUNG
440
 16777216
100
AcDbTrace
 10
733.8791674890161
 20
2414.375796669549
 30
0.0
 11
736.1458341556827
 21
2414.375796669549
 31
0.0
 12
735.0125008223495
 22
2407.575796669549
 32
0.0
 13
735.0125008223495
 23
2407.575796669549
 33
0.0
  0
SOLID
  5
D1
330
C9
100
AcDbEntity
  8
BEMASSUNG
440
 16777216
100
AcDbTrace
 10
733.8791674890161
 20
2385.275796669548
 30
0.0
 11
736.1458341556827
 21
2385.275796669548
 31
0.0
 12
735.0125008223495
 22
2392.075796669548
 32
0.0
 13
735.0125008223495
 23
2392.075796669548
 33
0.0
  0
MTEXT
  5
D2
330
C9
100
AcDbEntity
  8
BEMASSUNG
 62
     3
440
 16777216
100
AcDbMText
 10
729.5368135781471
 20
2399.825796669548
 30
0.0
 40
7.394999999999994
 41
0.0
 46
0.0
 71
     5
 72
     1
  1
\A1;15.5
  7
ARIAL-STANDARD
 11
0.0000000000000001
 21
1.0
 31
0.0
 73
     1
 44
1.0
  0
POINT
  5
D3
330
C9
100
AcDbEntity
  8
DEFPOINTS
 62
     0
440
 16777216
100
AcDbPoint
 10
750.1024234484441
 20
2407.575796669549
 30
0.0
  0
POINT
  5
D4
330
C9
100
AcDbEntity
  8
DEFPOINTS
 62
     0
440
 16777216
100
AcDbPoint
 10
750.1024234484441
 20
2392.075796669548
 30
0.0
  0
POINT
  5
D5
330
C9
100
AcDbEntity
  8
DEFPOINTS
 62
     0
440
 16777216
100
AcDbPoint
 10
735.0125008223495
 20
2392.075796669548
 30
0.0
  0
ENDBLK
  5
D6
330
C9
100
AcDbEntity
  8
0
100
AcDbBlockEnd
  0
BLOCK
  5
AA
330
A9
100
AcDbEntity
  8
0
100
AcDbBlockBegin
  2
*D23
 70
     1
 10
0.0
 20
0.0
 30
0.0
  3
*D23
  1

  0
LINE
  5
AB
330
A9
100
AcDbEntity
  8
BEMASSUNG
440
 16777216
370
    -2
100
AcDbLine
 10
795.6024234484441
 20
2387.825796669409
 30
0.0
 11
838.6169404276783
 21
2387.825796669409
 31
0.0
  0
LINE
  5
AC
330
A9
100
AcDbEntity
  8
BEMASSUNG
440
 16777216
370
    -2
100
AcDbLine
 10
795.6024234484441
 20
2411.825796669409
 30
0.0
 11
838.6169404276783
 21
2411.825796669409
 31
0.0
  0
LINE
  5
AD
330
A9
100
AcDbEntity
  8
BEMASSUNG
440
 16777216
370
    -2
100
AcDbLine
 10
836.9169404276783
 20
2394.62579666941
 30
0.0
 11
836.9169404276783
 21
2405.025796669409
 31
0.0
  0
SOLID
  5
AE
330
A9
100
AcDbEntity
  8
BEMASSUNG
440
 16777216
100
AcDbTrace
 10
835.783607094345
 20
2394.62579666941
 30
0.0
 11
838.0502737610116
 21
2394.62579666941
 31
0.0
 12
836.9169404276783
 22
2387.825796669409
 32
0.0
 13
836.9169404276783
 23
2387.825796669409
 33
0.0
  0
SOLID
  5
AF
330
A9
100
AcDbEntity
  8
BEMASSUNG
440
 16777216
100
AcDbTrace
 10
835.783607094345
 20
2405.025796669409
 30
0.0
 11
838.0502737610116
 21
2405.025796669409
 31
0.0
 12
836.9169404276783
 22
2411.825796669409
 32
0.0
 13
836.9169404276783
 23
2411.825796669409
 33
0.0
  0
MTEXT
  5
B0
330
A9
100
AcDbEntity
  8
BEMASSUNG
 62
     3
440
 16777216
100
AcDbMText
 10
831.5043074126711
 20
2399.825796669409
 30
0.0
 40
7.394999999999994
 41
0.0
 46
0.0
 71
     5
 72
     1
  1
\A1;24
  7
ARIAL-STANDARD
 11
0.0000000000000001
 21
1.0
 31
0.0
 73
     1
 44
1.0
  0
POINT
  5
B1
330
A9
100
AcDbEntity
  8
DEFPOINTS
 62
     0
440
 16777216
100
AcDbPoint
 10
795.6024234484441
 20
2387.825796669409
 30
0.0
  0
POINT
  5
B2
330
A9
100
AcDbEntity
  8
DEFPOINTS
 62
     0
440
 16777216
100
AcDbPoint
 10
795.6024234484441
 20
2411.825796669409
 30
0.0
  0
POINT
  5
B3
330
A9
100
AcDbEntity
  8
DEFPOINTS
 62
     0
440
 16777216
100
AcDbPoint
 10
836.9169404276783
 20
2411.825796669409
 30
0.0
  0
ENDBLK
  5
B4
330
A9
100
AcDbEntity
  8
0
100
AcDbBlockEnd
  0
BLOCK
  5
9B
330
9A
100
AcDbEntity
  8
0
100
AcDbBlockBegin
  2
*D24
 70
     1
 10
0.0
 20
0.0
 30
0.0
  3
*D24
  1

  0
LINE
  5
9C
330
9A
100
AcDbEntity
  8
BEMASSUNG
440
 16777216
370
    -2
100
AcDbLine
 10
800.7214908657772
 20
2399.825796669549
 30
0.0
 11
814.1148037085331
 21
2399.825796669549
 31
0.0
  0
LINE
  5
9D
330
9A
100
AcDbEntity
  8
BEMASSUNG
440
 16777216
370
    -2
100
AcDbLine
 10
795.6024234484441
 20
2387.825796669409
 30
0.0
 11
814.1148037085331
 21
2387.825796669409
 31
0.0
  0
LINE
  5
9E
330
9A
100
AcDbEntity
  8
BEMASSUNG
440
 16777216
370
    -2
100
AcDbLine
 10
812.414803708533
 20
2406.62579666955
 30
0.0
 11
812.414803708533
 21
2413.425796669549
 31
0.0
  0
LINE
  5
9F
330
9A
100
AcDbEntity
  8
BEMASSUNG
440
 16777216
370
    -2
100
AcDbLine
 10
812.414803708533
 20
2381.025796669409
 30
0.0
 11
812.414803708533
 21
2348.73866672398
 31
0.0
  0
LINE
  5
A0
330
9A
100
AcDbEntity
  8
BEMASSUNG
440
 16777216
370
    -2
100
AcDbLine
 10
812.414803708533
 20
2399.825796669549
 30
0.0
 11
812.414803708533
 21
2387.825796669409
 31
0.0
  0
SOLID
  5
A1
330
9A
100
AcDbEntity
  8
BEMASSUNG
440
 16777216
100
AcDbTrace
 10
811.2814703751997
 20
2406.62579666955
 30
0.0
 11
813.5481370418665
 21
2406.62579666955
 31
0.0
 12
812.414803708533
 22
2399.825796669549
 32
0.0
 13
812.414803708533
 23
2399.825796669549
 33
0.0
  0
SOLID
  5
A2
330
9A
100
AcDbEntity
  8
BEMASSUNG
440
 16777216
100
AcDbTrace
 10
811.2814703751997
 20
2381.025796669409
 30
0.0
 11
813.5481370418665
 21
2381.025796669409
 31
0.0
 12
812.414803708533
 22
2387.825796669409
 32
0.0
 13
812.414803708533
 23
2387.825796669409
 33
0.0
  0
MTEXT
  5
A3
330
9A
100
AcDbEntity
  8
BEMASSUNG
 62
     3
440
 16777216
100
AcDbMText
 10
807.0021706935259
 20
2355.349330093693
 30
0.0
 40
7.394999999999994
 41
0.0
 46
0.0
 71
     5
 72
     1
  1
\A1;12
  7
ARIAL-STANDARD
 11
0.0000000000000001
 21
1.0
 31
0.0
 73
     1
 44
1.0
  0
POINT
  5
A4
330
9A
100
AcDbEntity
  8
DEFPOINTS
 62
     0
440
 16777216
100
AcDbPoint
 10
800.7214908657772
 20
2399.825796669549
 30
0.0
  0
POINT
  5
A5
330
9A
100
AcDbEntity
  8
DEFPOINTS
 62
     0
440
 16777216
100
AcDbPoint
 10
795.6024234484441
 20
2387.825796669409
 30
0.0
  0
POINT
  5
A6
330
9A
100
AcDbEntity
  8
DEFPOINTS
 62
     0
440
 16777216
100
AcDbPoint
 10
812.414803708533
 20
2387.825796669409
 30
0.0
  0
ENDBLK
  5
A7
330
9A
100
AcDbEntity
  8
0
100
AcDbBlockEnd
  0
BLOCK
  5
8C
330
8B
100
AcDbEntity
  8
0
100
AcDbBlockBegin
  2
*D25
 70
     1
 10
0.0
 20
0.0
 30
0.0
  3
*D25
  1

  0
LINE
  5
8D
330
8B
100
AcDbEntity
  8
BEMASSUNG
440
 16777216
370
    -2
100
AcDbLine
 10
792.6024234484441
 20
2387.825796669409
 30
0.0
 11
779.2245565983223
 21
2387.825796669409
 31
0.0
  0
LINE
  5
8E
330
8B
100
AcDbEntity
  8
BEMASSUNG
440
 16777216
370
    -2
100
AcDbLine
 10
792.6024234484441
 20
2392.075796669548
 30
0.0
 11
779.2245565983223
 21
2392.075796669548
 31
0.0
  0
LINE
  5
8F
330
8B
100
AcDbEntity
  8
BEMASSUNG
440
 16777216
370
    -2
100
AcDbLine
 10
780.9245565983224
 20
2398.875796669548
 30
0.0
 11
780.9245565983224
 21
2405.675796669549
 31
0.0
  0
LINE
  5
90
330
8B
100
AcDbEntity
  8
BEMASSUNG
440
 16777216
370
    -2
100
AcDbLine
 10
780.9245565983224
 20
2381.025796669409
 30
0.0
 11
780.9245565983224
 21
2357.064841689873
 31
0.0
  0
LINE
  5
91
330
8B
100
AcDbEntity
  8
BEMASSUNG
440
 16777216
370
    -2
100
AcDbLine
 10
780.9245565983224
 20
2392.075796669548
 30
0.0
 11
780.9245565983224
 21
2387.825796669409
 31
0.0
  0
SOLID
  5
92
330
8B
100
AcDbEntity
  8
BEMASSUNG
440
 16777216
100
AcDbTrace
 10
779.791223264989
 20
2398.875796669548
 30
0.0
 11
782.0578899316557
 21
2398.875796669548
 31
0.0
 12
780.9245565983224
 22
2392.075796669548
 32
0.0
 13
780.9245565983224
 23
2392.075796669548
 33
0.0
  0
SOLID
  5
93
330
8B
100
AcDbEntity
  8
BEMASSUNG
440
 16777216
100
AcDbTrace
 10
779.791223264989
 20
2381.025796669409
 30
0.0
 11
782.0578899316557
 21
2381.025796669409
 31
0.0
 12
780.9245565983224
 22
2387.825796669409
 32
0.0
 13
780.9245565983224
 23
2387.825796669409
 33
0.0
  0
MTEXT
  5
94
330
8B
100
AcDbEntity
  8
BEMASSUNG
 62
     3
440
 16777216
100
AcDbMText
 10
775.4463471849523
 20
2365.645319179641
 30
0.0
 40
7.394999999999994
 41
0.0
 46
0.0
 71
     5
 72
     1
  1
\A1;4.3
  7
ARIAL-STANDARD
 11
0.0000000000000001
 21
1.0
 31
0.0
 73
     1
 44
1.0
  0
POINT
  5
95
330
8B
100
AcDbEntity
  8
DEFPOINTS
 62
     0
440
 16777216
100
AcDbPoint
 10
792.6024234484441
 20
2387.825796669409
 30
0.0
  0
POINT
  5
96
330
8B
100
AcDbEntity
  8
DEFPOINTS
 62
     0
440
 16777216
100
AcDbPoint
 10
792.6024234484441
 20
2392.075796669548
 30
0.0
  0
POINT
  5
97
330
8B
100
AcDbEntity
  8
DEFPOINTS
 62
     0
440
 16777216
100
AcDbPoint
 10
780.9245565983224
 20
2392.075796669548
 30
0.0
  0
ENDBLK
  5
98
330
8B
100
AcDbEntity
  8
0
100
AcDbBlockEnd
  0
BLOCK
  5
7D
330
7C
100
AcDbEntity
  8
0
100
AcDbBlockBegin
  2
*D26
 70
     1
 10
0.0
 20
0.0
 30
0.0
  3
*D26
  1

  0
LINE
  5
7E
330
7C
100
AcDbEntity
  8
BEMASSUNG
440
 16777216
370
    -2
100
AcDbLine
 10
795.6024234484441
 20
2411.825796669409
 30
0.0
 11
795.6024234484441
 21
2442.031920012715
 31
0.0
  0
LINE
  5
7F
330
7C
100
AcDbEntity
  8
BEMASSUNG
440
 16777216
370
    -2
100
AcDbLine
 10
750.1024234484441
 20
2407.575796669549
 30
0.0
 11
750.1024234484441
 21
2442.031920012715
 31
0.0
  0
LINE
  5
80
330
7C
100
AcDbEntity
  8
BEMASSUNG
440
 16777216
370
    -2
100
AcDbLine
 10
802.4024234484441
 20
2440.331920012715
 30
0.0
 11
809.2024234484441
 21
2440.331920012715
 31
0.0
  0
LINE
  5
81
330
7C
100
AcDbEntity
  8
BEMASSUNG
440
 16777216
370
    -2
100
AcDbLine
 10
743.3024234484442
 20
2440.331920012715
 30
0.0
 11
736.5024234484441
 21
2440.331920012715
 31
0.0
  0
LINE
  5
82
330
7C
100
AcDbEntity
  8
BEMASSUNG
440
 16777216
370
    -2
100
AcDbLine
 10
795.6024234484441
 20
2440.331920012715
 30
0.0
 11
750.1024234484441
 21
2440.331920012715
 31
0.0
  0
SOLID
  5
83
330
7C
100
AcDbEntity
  8
BEMASSUNG
440
 16777216
100
AcDbTrace
 10
802.4024234484441
 20
2441.465253346048
 30
0.0
 11
802.4024234484441
 21
2439.198586679382
 31
0.0
 12
795.6024234484441
 22
2440.331920012715
 32
0.0
 13
795.6024234484441
 23
2440.331920012715
 33
0.0
  0
SOLID
  5
84
330
7C
100
AcDbEntity
  8
BEMASSUNG
440
 16777216
100
AcDbTrace
 10
743.3024234484442
 20
2441.465253346048
 30
0.0
 11
743.3024234484442
 21
2439.198586679382
 31
0.0
 12
750.1024234484441
 22
2440.331920012715
 32
0.0
 13
750.1024234484441
 23
2440.331920012715
 33
0.0
  0
MTEXT
  5
85
330
7C
100
AcDbEntity
  8
BEMASSUNG
 62
     3
440
 16777216
100
AcDbMText
 10
772.8524234484441
 20
2445.807607256917
 30
0.0
 40
7.394999999999994
 41
0.0
 46
0.0
 71
     5
 72
     1
  1
\A1;DM + 15.5
  7
ARIAL-STANDARD
 73
     1
 44
1.0
  0
POINT
  5
86
330
7C
100
AcDbEntity
  8
DEFPOINTS
 62
     0
440
 16777216
100
AcDbPoint
 10
795.6024234484441
 20
2411.825796669409
 30
0.0
  0
POINT
  5
87
330
7C
100
AcDbEntity
  8
DEFPOINTS
 62
     0
440
 16777216
100
AcDbPoint
 10
750.1024234484441
 20
2407.575796669549
 30
0.0
  0
POINT
  5
88
330
7C
100
AcDbEntity
  8
DEFPOINTS
 62
     0
440
 16777216
100
AcDbPoint
 10
750.1024234484441
 20
2440.331920012715
 30
0.0
  0
ENDBLK
  5
89
330
7C
100
AcDbEntity
  8
0
100
AcDbBlockEnd
  0
BLOCK
  5
6B
330
6A
100
AcDbEntity
  8
0
100
AcDbBlockBegin
  2
*D27
 70
     1
 10
0.0
 20
0.0
 30
0.0
  3
*D27
  1

  0
LINE
  5
6C
330
6A
100
AcDbEntity
  8
BEMASSUNG
440
 16777216
370
    -2
100
AcDbLine
 10
795.6024234484441
 20
2411.825796669409
 30
0.0
 11
795.6024234484441
 21
2426.732564835463
 31
0.0
  0
LINE
  5
6D
330
6A
100
AcDbEntity
  8
BEMASSUNG
440
 16777216
370
    -2
100
AcDbLine
 10
792.6024234484441
 20
2411.825796669409
 30
0.0
 11
792.6024234484441
 21
2426.732564835463
 31
0.0
  0
LINE
  5
6E
330
6A
100
AcDbEntity
  8
BEMASSUNG
440
 16777216
370
    -2
100
AcDbLine
 10
785.8024234484441
 20
2425.032564835463
 30
0.0
 11
779.0024234484441
 21
2425.032564835463
 31
0.0
  0
LINE
  5
6F
330
6A
100
AcDbEntity
  8
BEMASSUNG
440
 16777216
370
    -2
100
AcDbLine
 10
802.4024234484441
 20
2425.032564835463
 30
0.0
 11
817.4449882506269
 21
2425.032564835463
 31
0.0
  0
LINE
  5
70
330
6A
100
AcDbEntity
  8
BEMASSUNG
440
 16777216
370
    -2
100
AcDbLine
 10
792.6024234484441
 20
2425.032564835463
 30
0.0
 11
795.6024234484441
 21
2425.032564835463
 31
0.0
  0
SOLID
  5
71
330
6A
100
AcDbEntity
  8
BEMASSUNG
440
 16777216
100
AcDbTrace
 10
785.8024234484441
 20
2426.165898168796
 30
0.0
 11
785.8024234484441
 21
2423.89923150213
 31
0.0
 12
792.6024234484441
 22
2425.032564835463
 32
0.0
 13
792.6024234484441
 23
2425.032564835463
 33
0.0
  0
SOLID
  5
72
330
6A
100
AcDbEntity
  8
BEMASSUNG
440
 16777216
100
AcDbTrace
 10
802.4024234484441
 20
2426.165898168796
 30
0.0
 11
802.4024234484441
 21
2423.89923150213
 31
0.0
 12
795.6024234484441
 22
2425.032564835463
 32
0.0
 13
795.6024234484441
 23
2425.032564835463
 33
0.0
  0
MTEXT
  5
73
330
6A
100
AcDbEntity
  8
BEMASSUNG
 62
     3
440
 16777216
100
AcDbMText
 10
813.3237058495355
 20
2430.510774248833
 30
0.0
 40
7.394999999999994
 41
0.0
 46
0.0
 71
     5
 72
     1
  1
\A1;3
  7
ARIAL-STANDARD
 73
     1
 44
1.0
  0
POINT
  5
74
330
6A
100
AcDbEntity
  8
DEFPOINTS
 62
     0
440
 16777216
100
AcDbPoint
 10
795.6024234484441
 20
2411.825796669409
 30
0.0
  0
POINT
  5
76
330
6A
100
AcDbEntity
  8
DEFPOINTS
 62
     0
440
 16777216
100
AcDbPoint
 10
792.6024234484441
 20
2411.825796669409
 30
0.0
  0
POINT
  5
77
330
6A
100
AcDbEntity
  8
DEFPOINTS
 62
     0
440
 16777216
100
AcDbPoint
 10
792.6024234484441
 20
2425.032564835463
 30
0.0
  0
ENDBLK
  5
78
330
6A
100
AcDbEntity
  8
0
100
AcDbBlockEnd
  0
ENDSEC
  0
SECTION
  2
ENTITIES
  0
DIMENSION
  5
66
330
2
100
AcDbEntity
  8
BEMASSUNG
100
AcDbDimension
280
     0
  2
*D27
 10
792.6024234484441
 20
2425.032564835463
 30
0.0
 11
813.3237058495355
 21
2425.032564835463
 31
0.0
 70
   128
 71
     5
 42
3.0
 73
     0
 74
     0
 75
     0
  3
Katalog 09$0
100
AcDbAlignedDimension
 13
795.6024234484441
 23
2411.825796669409
 33
0.0
 14
792.6024234484441
 24
2411.825796669409
 34
0.0
100
AcDbRotatedDimension
1001
ACAD_DSTYLE_DIMINSPECT
1070
   396
1000
100%
1070
   395
1000

1070
   394
1070
    33
1070
   393
1070
     0
  0
DIMENSION
  5
7B
330
2
100
AcDbEntity
  8
BEMASSUNG
100
AcDbDimension
280
     0
  2
*D26
 10
750.1024234484441
 20
2440.331920012715
 30
0.0
 11
772.8524234484441
 21
2445.807607256917
 31
0.0
  1
DM + 15.5
 71
     5
 42
45.49999999999999
 73
     0
 74
     0
 75
     0
  3
Katalog 09$0
100
AcDbAlignedDimension
 13
795.6024234484441
 23
2411.825796669409
 33
0.0
 14
750.1024234484441
 24
2407.575796669549
 34
0.0
100
AcDbRotatedDimension
1001
ACAD_DSTYLE_DIMINSPECT
1070
   396
1000
100%
1070
   395
1000

1070
   394
1070
    33
1070
   393
1070
     0
  0
DIMENSION
  5
8A
330
2
100
AcDbEntity
  8
BEMASSUNG
100
AcDbDimension
280
     0
  2
*D25
 10
780.9245565983224
 20
2392.075796669548
 30
0.0
 11
780.9245565983219
 21
2365.645319179641
 31
0.0
 70
   128
 71
     5
 42
4.250000000139152
 73
     0
 74
     0
 75
     0
  3
Katalog 09$0
100
AcDbAlignedDimension
 13
792.6024234484441
 23
2387.825796669409
 33
0.0
 14
792.6024234484441
 24
2392.075796669548
 34
0.0
 50
90.0
100
AcDbRotatedDimension
1001
ACAD_DSTYLE_DIMINSPECT
1070
   396
1000
100%
1070
   395
1000

1070
   394
1070
    33
1070
   393
1070
     0
  0
DIMENSION
  5
99
330
2
100
AcDbEntity
  8
BEMASSUNG
100
AcDbDimension
280
     0
  2
*D24
 10
812.414803708533
 20
2387.825796669409
 30
0.0
 11
812.4148037085326
 21
2355.349330093693
 31
0.0
 70
   128
 71
     5
 42
12.00000000014006
 73
     0
 74
     0
 75
     0
  3
Katalog 09$0
100
AcDbAlignedDimension
 13
800.7214908657772
 23
2399.825796669549
 33
0.0
 14
795.6024234484441
 24
2387.825796669409
 34
0.0
 50
90.0
100
AcDbRotatedDimension
1001
ACAD_DSTYLE_DIMINSPECT
1070
   396
1000
100%
1070
   395
1000

1070
   394
1070
    33
1070
   393
1070
     0
  0
DIMENSION
  5
A8
330
2
100
AcDbEntity
  8
BEMASSUNG
100
AcDbDimension
280
     0
  2
*D23
 10
836.9169404276783
 20
2411.825796669409
 30
0.0
 11
831.5043074126711
 21
2399.825796669409
 31
0.0
 71
     5
 42
24.0
 73
     0
 74
     0
 75
     0
  3
Katalog 09$0
100
AcDbAlignedDimension
 13
795.6024234484441
 23
2387.825796669409
 33
0.0
 14
795.6024234484441
 24
2411.825796669409
 34
0.0
 50
90.0
100
AcDbRotatedDimension
1001
ACAD_DSTYLE_DIMINSPECT
1070
   396
1000
100%
1070
   395
1000

1070
   394
1070
    33
1070
   393
1070
     0
  0
LINE
  5
B5
330
2
100
AcDbEntity
  8
UMRISS05
100
AcDbLine
 10
792.6024234484441
 20
2387.825796669409
 30
0.0
 11
795.6024234484441
 21
2387.825796669409
 31
0.0
  0
LINE
  5
B9
330
2
100
AcDbEntity
  8
UMRISS05
100
AcDbLine
 10
795.6024234484441
 20
2387.825796669409
 30
0.0
 11
795.6024234484441
 21
2411.825796669409
 31
0.0
  0
LINE
  5
BA
330
2
100
AcDbEntity
  8
UMRISS05
100
AcDbLine
 10
792.6024234484441
 20
2411.825796669409
 30
0.0
 11
795.6024234484441
 21
2411.825796669409
 31
0.0
  0
LINE
  5
BB
330
2
100
AcDbEntity
  8
UMRISS05
100
AcDbLine
 10
792.6024234484441
 20
2411.825796669409
 30
0.0
 11
792.6024234484441
 21
2387.825796669409
 31
0.0
  0
LINE
  5
BC
330
2
100
AcDbEntity
  8
UMRISS05
100
AcDbLine
 10
795.6024234484457
 20
2570.592342684271
 30
0.0
 11
792.6024234484444
 21
2570.592342684271
 31
0.0
  0
LINE
  5
BD
330
2
100
AcDbEntity
  8
UMRISS05
100
AcDbLine
 10
795.6024234484457
 20
2890.592342684271
 30
0.0
 11
792.6024234484457
 21
2890.592342684271
 31
0.0
  0
LINE
  5
BE
330
2
100
AcDbEntity
  8
ACHSEN
 48
0.8
100
AcDbLine
 10
801.355924130361
 20
2878.592342684271
 30
0.0
 11
785.855924130361
 21
2878.592342684271
 31
0.0
  0
LINE
  5
C3
330
2
100
AcDbEntity
  8
ACHSEN
 48
0.8
100
AcDbLine
 10
801.3559241303619
 20
2582.592342684271
 30
0.0
 11
785.8559241303619
 21
2582.592342684271
 31
0.0
  0
LINE
  5
C4
330
2
100
AcDbEntity
  8
UMRISS05
100
AcDbLine
 10
795.6024234484457
 20
2570.592342684271
 30
0.0
 11
795.6024234484457
 21
2890.592342684271
 31
0.0
  0
LINE
  5
C5
330
2
100
AcDbEntity
  8
UMRISS05
100
AcDbLine
 10
792.6024234484457
 20
2570.592342684271
 30
0.0
 11
792.6024234484457
 21
2890.592342684271
 31
0.0
  0
LWPOLYLINE
  5
C6
330
2
100
AcDbEntity
  8
UMRISS05
100
AcDbPolyline
 90
        8
 70
     1
 43
0.0
 10
570.5484823355386
 20
2637.197757733359
 42
0.479585965525286
 10
571.1565904436469
 20
2637.685930486553
 10
571.1565904436469
 20
2639.884150412712
 42
0.3562016063779358
 10
570.7569248918075
 20
2640.373979973389
 42
0.1013653785930407
 10
558.5562559954865
 20
2640.373979973389
 42
0.3562016063778755
 10
558.156590443647
 20
2639.884150412713
 10
558.156590443647
 20
2637.685930486554
 42
0.479585965525286
 10
558.7646985517554
 20
2637.197757733359
 42
-0.1094020329529157
  0
LWPOLYLINE
  5
C7
330
2
100
AcDbEntity
  8
UMRISS05
100
AcDbPolyline
 90
        8
 70
     1
 43
0.0
 10
557.656590443647
 20
2689.092342684271
 42
-0.4142135623731151
 10
559.656590443647
 20
2691.092342684271
 10
569.656590443647
 20
2691.092342684271
 42
-0.4142135623730784
 10
571.656590443647
 20
2689.092342684271
 10
571.656590443647
 20
2646.092342684271
 42
-0.4142135623731014
 10
569.656590443647
 20
2644.092342684271
 10
559.656590443647
 20
2644.092342684271
 42
-0.4142135623730879
 10
557.656590443647
 20
2646.092342684271
  0
DIMENSION
  5
C8
330
2
100
AcDbEntity
  8
BEMASSUNG
100
AcDbDimension
280
     0
  2
*D22
 10
735.0125008223495
 20
2392.075796669548
 30
0.0
 11
729.5368135781471
 21
2399.825796669548
 31
0.0
 71
     5
 42
15.5
 73
     0
 74
     0
 75
     0
  3
Katalog 09
100
AcDbAlignedDimension
 13
750.1024234484441
 23
2407.575796669549
 33
0.0
 14
750.1024234484441
 24
2392.075796669548
 34
0.0
 50
90.0
100
AcDbRotatedDimension
1001
ACAD_DSTYLE_DIMINSPECT
1070
   396
1000
100%
1070
   395
1000

1070
   394
1070
    33
1070
   393
1070
     0
  0
LINE
  5
D7
330
2
100
AcDbEntity
  8
Mittelpunktmarkierung(MSL)
  6
CHAIN
 48
10.31825447082519
100
AcDbLine
 10
765.6024234484441
 20
2393.175796669539
 30
0.0
 11
765.6024234484441
 21
2406.475796669539
 31
0.0
  0
LINE
  5
DA
330
2
100
AcDbEntity
  8
UMRISS05
100
AcDbLine
 10
760.6024234484441
 20
2394.825796669537
 30
0.0
 11
770.6024234484441
 21
2394.825796669537
 31
0.0
  0
LINE
  5
DB
330
2
100
AcDbEntity
  8
UMRISS05
100
AcDbLine
 10
760.6024234484441
 20
2394.825796669537
 30
0.0
 11
760.6024234484441
 21
2404.825796669538
 31
0.0
  0
LINE
  5
DC
330
2
100
AcDbEntity
  8
UMRISS05
100
AcDbLine
 10
760.6024234484441
 20
2404.825796669538
 30
0.0
 11
770.6024234484441
 21
2404.825796669538
 31
0.0
  0
LINE
  5
DD
330
2
100
AcDbEntity
  8
UMRISS05
100
AcDbLine
 10
770.6024234484441
 20
2394.825796669537
 30
0.0
 11
770.6024234484441
 21
2404.825796669538
 31
0.0
  0
CIRCLE
  5
DE
330
2
100
AcDbEntity
  8
UMRISS05
100
AcDbCircle
 10
765.6024234484441
 20
2399.825796669539
 30
0.0
 40
4.638500000000003
  0
CIRCLE
  5
DF
330
2
100
AcDbEntity
  8
UMRISS05
100
AcDbCircle
 10
765.6024234484441
 20
2399.825796669539
 30
0.0
 40
2.458500000000002
  0
LINE
  5
E0
330
2
100
AcDbEntity
  8
UMRISS05
100
AcDbLine
 10
771.6024234484441
 20
2401.325796669542
 30
0.0
 11
776.6024234484437
 21
2401.325796669543
 31
0.0
  0
LINE
  5
E1
330
2
100
AcDbEntity
  8
UMRISS05
100
AcDbLine
 10
776.6024234484437
 20
2401.325796669543
 30
0.0
 11
776.6024234484437
 21
2398.325796669542
 31
0.0
  0
LINE
  5
E2
330
2
100
AcDbEntity
  8
UMRISS05
100
AcDbLine
 10
760.6024234484441
 20
2401.325796669542
 30
0.0
 11
759.6024234484441
 21
2401.325796669542
 31
0.0
  0
LINE
  5
E3
330
2
100
AcDbEntity
  8
UMRISS05
100
AcDbLine
 10
771.6024234484441
 20
2401.325796669542
 30
0.0
 11
770.6024234484441
 21
2401.325796669542
 31
0.0
  0
LINE
  5
E4
330
2
100
AcDbEntity
  8
UMRISS05
100
AcDbLine
 10
754.6024234484441
 20
2401.325796669543
 30
0.0
 11
759.6024234484441
 21
2401.325796669542
 31
0.0
  0
LINE
  5
E5
330
2
100
AcDbEntity
  8
UMRISS05
100
AcDbLine
 10
754.6024234484441
 20
2401.325796669543
 30
0.0
 11
754.6024234484441
 21
2398.325796669542
 31
0.0
  0
LINE
  5
E6
330
2
100
AcDbEntity
  8
UMRISS05
100
AcDbLine
 10
759.6024234484441
 20
2398.325796669542
 30
0.0
 11
754.6024234484441
 21
2398.325796669542
 31
0.0
  0
LINE
  5
E7
330
2
100
AcDbEntity
  8
UMRISS05
100
AcDbLine
 10
770.6024234484441
 20
2398.325796669542
 30
0.0
 11
771.6024234484441
 21
2398.325796669542
 31
0.0
  0
LINE
  5
E8
330
2
100
AcDbEntity
  8
UMRISS05
100
AcDbLine
 10
759.6024234484441
 20
2398.325796669542
 30
0.0
 11
760.6024234484441
 21
2398.325796669542
 31
0.0
  0
LINE
  5
E9
330
2
100
AcDbEntity
  8
UMRISS05
100
AcDbLine
 10
776.6024234484437
 20
2398.325796669542
 30
0.0
 11
771.6024234484441
 21
2398.325796669542
 31
0.0
  0
LINE
  5
EA
330
2
100
AcDbEntity
  8
UMRISS05
100
AcDbLine
 10
750.1024234484446
 20
2392.075796669548
 30
0.0
 11
750.1024234484441
 21
2407.575796669549
 31
0.0
  0
LINE
  5
EB
330
2
100
AcDbEntity
  8
UMRISS05
100
AcDbLine
 10
750.1024234484441
 20
2407.575796669549
 30
0.0
 11
792.6024234484441
 21
2407.575796669549
 31
0.0
  0
LINE
  5
EC
330
2
100
AcDbEntity
  8
UMRISS05
100
AcDbLine
 10
750.1024234484441
 20
2406.075796669548
 30
0.0
 11
792.6024234484432
 21
2406.075796669548
 31
0.0
  0
LINE
  5
ED
330
2
100
AcDbEntity
  8
UMRISS05
100
AcDbLine
 10
792.6024234484441
 20
2392.075796669548
 30
0.0
 11
750.1024234484441
 21
2392.075796669548
 31
0.0
  0
LINE
  5
EE
330
2
100
AcDbEntity
  8
ACHSEN
 48
0.8
100
AcDbLine
 10
747.3181372964927
 20
2399.825796669549
 30
0.0
 11
795.7214908657613
 21
2399.825796669549
 31
0.0
  0
LINE
  5
EF
330
2
100
AcDbEntity
  8
UMRISS05
100
AcDbLine
 10
792.6024234484441
 20
2392.075796669548
 30
0.0
 11
792.6024234484441
 21
2407.575796669549
 31
0.0
  0
MTEXT
  5
F0
330
2
100
AcDbEntity
  8
UMRISS05
 62
     3
100
AcDbMText
 10
660.7155559602479
 20
2989.550551553993
 30
0.0
 40
10.0
 41
0.0
 46
0.0
 71
     5
 72
     1
  1
\A1;14413-M-STF-V.6333.DL/DR
  7
ARIAL-STANDARD
 73
     1
 44
1.0
  0
DIMENSION
  5
F1
330
2
100
AcDbEntity
  8
BEMASSUNG
100
AcDbDimension
280
     0
  2
*D21
 10
531.7392170486705
 20
2798.592342684271
 30
0.0
 11
526.3265840336632
 21
2763.092342684271
 31
0.0
 71
     5
 42
71.0
 73
     0
 74
     0
 75
     0
  3
Katalog 09
100
AcDbAlignedDimension
 13
552.656590443647
 23
2727.592342684271
 33
0.0
 14
556.4565904436462
 24
2798.592342684271
 34
0.0
 50
90.0
100
AcDbRotatedDimension
1001
ACAD_DSTYLE_DIMINSPECT
1070
   396
1000
100%
1070
   395
1000

1070
   394
1070
    33
1070
   393
1070
     0
  0
DIMENSION
  5
FE
330
2
100
AcDbEntity
  8
BEMASSUNG
100
AcDbDimension
280
     0
  2
*D20
 10
546.7312774689903
 20
2736.592342684271
 30
0.0
 11
541.255590224788
 21
2732.092342684271
 31
0.0
 71
     5
 42
9.0
 73
     0
 74
     0
 75
     0
  3
Katalog 09
100
AcDbAlignedDimension
 13
552.656590443647
 23
2727.592342684271
 33
0.0
 14
556.4565904436462
 24
2736.592342684271
 34
0.0
 50
90.0
100
AcDbRotatedDimension
1001
ACAD_DSTYLE_DIMINSPECT
1070
   396
1000
100%
1070
   395
1000

1070
   394
1070
    33
1070
   393
1070
     0
  0
ARC
  5
10D
330
2
100
AcDbEntity
  8
AVERDECKTE
 48
0.6
100
AcDbCircle
 10
572.8565904436468
 20
2797.092342684271
 30
0.0
 40
1.5
100
AcDbArc
 50
0.0
 51
90.0
  0
LINE
  5
111
330
2
100
AcDbEntity
  8
AVERDECKTE
 48
0.6
100
AcDbLine
 10
574.3565904436468
 20
2791.592342684272
 30
0.0
 11
574.3565904436468
 21
2797.092342684271
 31
0.0
  0
LINE
  5
112
330
2
100
AcDbEntity
  8
AVERDECKTE
 48
0.6
100
AcDbLine
 10
574.3565904436468
 20
2738.092342684271
 30
0.0
 11
574.3565904436468
 21
2743.592342684271
 31
0.0
  0
ARC
  5
113
330
2
100
AcDbEntity
  8
AVERDECKTE
 48
0.6
100
AcDbCircle
 10
556.4565904436462
 20
2797.092342684271
 30
0.0
 40
1.5
100
AcDbArc
 50
90.0
 51
180.0
  0
LINE
  5
114
330
2
100
AcDbEntity
  8
AVERDECKTE
 48
0.6
100
AcDbLine
 10
554.9565904436462
 20
2738.092342684271
 30
0.0
 11
554.9565904436462
 21
2797.092342684271
 31
0.0
  0
LINE
  5
115
330
2
100
AcDbEntity
  8
AVERDECKTE
 48
0.6
100
AcDbLine
 10
572.8565904436468
 20
2798.592342684271
 30
0.0
 11
556.4565904436462
 21
2798.592342684271
 31
0.0
  0
ARC
  5
116
330
2
100
AcDbEntity
  8
AVERDECKTE
 48
0.6
100
AcDbCircle
 10
556.4565904436462
 20
2738.092342684271
 30
0.0
 40
1.5
100
AcDbArc
 50
180.0
 51
270.0
  0
ARC
  5
117
330
2
100
AcDbEntity
  8
AVERDECKTE
 48
0.6
100
AcDbCircle
 10
572.8565904436468
 20
2738.092342684271
 30
0.0
 40
1.5
100
AcDbArc
 50
270.0
 51
0.0
  0
LINE
  5
118
330
2
100
AcDbEntity
  8
AVERDECKTE
 48
0.6
100
AcDbLine
 10
572.8565904436468
 20
2736.592342684271
 30
0.0
 11
556.4565904436462
 21
2736.592342684271
 31
0.0
  0
DIMENSION
  5
119
330
2
100
AcDbEntity
  8
BEMASSUNG
100
AcDbDimension
280
     0
  2
*D19
 10
597.1816576857795
 20
2767.592342684271
 30
0.0
 11
591.7059704415772
 21
2747.592342684271
 31
0.0
 71
     5
 42
40.0
 73
     0
 74
     0
 75
     0
  3
Katalog 09$0
100
AcDbAlignedDimension
 13
552.656590443647
 23
2727.592342684271
 33
0.0
 14
552.656590443647
 24
2767.592342684271
 34
0.0
 50
90.0
100
AcDbRotatedDimension
1001
ACAD_DSTYLE_DIMINSPECT
1070
   396
1000
100%
1070
   395
1000

1070
   394
1070
    33
1070
   393
1070
     0
  0
MTEXT
  5
126
330
2
100
AcDbEntity
  8
UMRISS05
 62
     3
100
AcDbMText
 10
765.2447153552552
 20
2934.751789930829
 30
0.0
 40
10.0
 41
0.0
 46
0.0
 71
     5
 72
     1
  1
\A1;201.0001
  7
ARIAL-STANDARD
 73
     1
 44
1.0
  0
MTEXT
  5
127
330
2
100
AcDbEntity
  8
UMRISS05
 62
     3
100
AcDbMText
 10
559.4324934842784
 20
2933.868181878421
 30
0.0
 40
10.0
 41
0.0
 46
0.0
 71
     5
 72
     1
  1
\A1;201.3500
  7
ARIAL-STANDARD
 73
     1
 44
1.0
  0
MTEXT
  5
128
330
2
100
AcDbEntity
  8
UMRISS05
 62
     3
100
AcDbMText
 10
766.3411353759231
 20
2911.447663955959
 30
0.0
 40
10.0
 41
0.0
 46
0.0
 71
     5
 72
     1
  1
\A1;DM30-60
  7
ARIAL-STANDARD
 73
     1
 44
1.0
  0
MULTILEADER
  5
129
330
2
100
AcDbEntity
  8
BEMASSUNG
160
               724
310
D4020000180000000C00000016000000000000C00C00000033000000000000000C00000013000000993A0000E0000000260000004B1100F2880785406F42B5DC829FA340000000000000000000000000000000000000000000000000000000000000F03F000000000000F03F0000000000000000000000000000000041006E
310
007300630068006C0075007300730067006500770069006E006400650020004D003600000013000000010000000000000000001440000000000000F03F0000000000000000000000000000F03F00000000000000000000000000000000000000000000000000000000010000000000000000000000690073006F0063007000
310
2E007300680078000000000000000C00000033000000000000000C00000010000000020000000C00000016000000000000C00C00000012000000FF7F00000C00000013000000010000000C0000001400000001000000540000000700000003000000B1FC391CAAD387409C8395E9B9D1A3400000000000000000A4558C17A7
310
EB87408C1662B52FD7A340000000000000000050058D690BDC87408E1C328D13D0A34000000000000000000C00000013000000891300003C00000006000000020000000181E3C2DAD7874015D063BBE6D0A34000000000000000008C405B89913387400FA53D60BF9CA34000000000000000000C0000001300000011270000
310
3C00000006000000020000008C405B89913387400FA53D60BF9CA3400000000000000000D8BDBCB6D11387400FA53D60BF9CA34000000000000000000C00000016000000000000C00C00000012000000FF7F00000C00000017000000000000000C000000130000009A3A00003C00000006000000020000004B1100F2880D85
310
400FA53D60BF9CA3400000000000000000D8BDBCB6D11387400FA53D60BF9CA34000000000000000000C00000016000000000000C00C00000012000000FF7F00000C00000017000000FFFFFFFF0C0000003300000000000000
100
AcDbMLeader
270
     2
300
CONTEXT_DATA{
 40
1.0
 10
671.6918678288724
 20
2513.570640350801
 30
0.0
 41
5.0
140
4.0
145
2.0
174
     1
175
     6
176
     2
177
     0
290
     1
304
Anschlussgewinde M6
 11
0.0
 21
0.0
 31
1.0
340
2A
 12
736.4773993249355
 22
2516.767499567571
 32
0.0
 13
1.0
 23
0.0
 33
0.0
 42
0.0
 43
0.0
 44
0.0
 45
1.0
170
     1
 90
-1073741824
171
     3
172
     5
 91
-1073741824
141
0.0
 92
        0
291
     0
292
     0
173
     0
293
     0
142
0.0
143
0.0
294
     0
295
     0
296
     0
110
1212.906649694213
120
2481.820426573957
130
0.0
111
1.0
121
0.0
131
0.0
112
0.0
122
1.0
132
0.0
297
     0
302
LEADER{
290
     1
291
     1
 10
742.446062767894
 20
2510.373781134032
 30
0.0
 11
-1.0
 21
0.0
 31
0.0
 90
        0
 40
3.968663442958586
304
LEADER_LINE{
 10
765.4565878833423
 20
2539.593180718663
 30
0.0
 91
        0
305
}
271
     0
303
}
272
     9
273
     9
301
}
340
12A
 90
   345216
170
     1
 91
-1056964608
341
2D
171
    -2
290
     1
291
     1
 41
0.36
 42
4.0
172
     2
343
2A
173
     1
 95
        6
174
     1
175
     0
 92
-1056964608
292
     0
 93
-1056964608
 10
1.0
 20
1.0
 30
1.0
 43
0.0
176
     0
293
     0
294
     0
178
     0
179
     1
 45
1.0
271
     0
272
     9
273
     9
295
     0
1001
ACAD_MLEADERVER
1070
     2
  0
MULTILEADER
  5
12C
330
2
100
AcDbEntity
  8
BEMASSUNG
160
               724
310
D4020000180000000C00000016000000000000C00C00000033000000000000000C00000013000000993A0000E00000002600000025925CCA83708540277AC3E7999AA640000000000000000000000000000000000000000000000000000000000000F03F000000000000F03F0000000000000000000000000000000041006E
310
007300630068006C0075007300730067006500770069006E006400650020004D003600000013000000010000000000000000001440000000000000F03F0000000000000000000000000000F03F00000000000000000000000000000000000000000000000000000000010000000000000000000000690073006F0063007000
310
2E007300680078000000000000000C00000033000000000000000C00000010000000020000000C00000016000000000000C00C00000012000000FF7F00000C00000013000000010000000C0000001400000001000000540000000700000003000000BB50629C08E38740EF3FD36D0E6AA640000000000000000084716648D1
310
EC8740BC690CDA5262A6400000000000000000EBCDF8E587D98740C0D7E357D868A64000000000000000000C00000013000000891300003C0000000600000002000000538F2D4148DE8740D88BDB627369A64000000000000000002C53C7D6AD7F8740C7DC4B6BD697A64000000000000000000C0000001300000011270000
310
3C00000006000000020000002C53C7D6AD7F8740C7DC4B6BD697A6400000000000000000B13E198FCC7C8740C7DC4B6BD697A64000000000000000000C00000016000000000000C00C00000012000000FF7F00000C00000017000000000000000C000000130000009A3A00003C000000060000000200000024925CCA837685
310
40C7DC4B6BD697A6400000000000000000B13E198FCC7C8740C7DC4B6BD697A64000000000000000000C00000016000000000000C00C00000012000000FF7F00000C00000017000000FFFFFFFF0C0000003300000000000000
100
AcDbMLeader
270
     2
300
CONTEXT_DATA{
 40
1.0
 10
684.8143508178805
 20
2895.11564657286
 30
0.0
 41
5.0
140
4.0
145
2.0
174
     1
175
     6
176
     2
177
     0
290
     1
304
Anschlussgewinde M6
 11
0.0
 21
0.0
 31
1.0
340
2A
 12
749.5998823139436
 22
2898.312505789629
 32
0.0
 13
1.0
 23
0.0
 33
0.0
 42
0.0
 43
0.0
 44
0.0
 45
1.0
170
     1
 90
-1073741824
171
     3
172
     5
 91
-1073741824
141
0.0
 92
        0
291
     0
292
     0
173
     0
293
     0
142
0.0
143
0.0
294
     0
295
     0
296
     0
110
1084.579501450328
120
2860.791819827946
130
0.0
111
1.0
121
0.0
131
0.0
112
0.0
122
1.0
132
0.0
297
     0
302
LEADER{
290
     1
291
     1
 10
751.9598823139435
 20
2891.918787356091
 30
0.0
 11
-1.0
 21
0.0
 31
0.0
 90
        0
 40
0.36
304
LEADER_LINE{
 10
765.6021888736145
 20
2865.161819827945
 30
0.0
 91
        0
305
}
271
     0
303
}
272
     9
273
     9
301
}
340
12A
 90
   345088
170
     1
 91
-1056964608
341
2D
171
    -2
290
     1
291
     1
 41
0.36
 42
4.0
172
     2
343
2A
173
     1
 95
        6
174
     1
175
     0
 92
-1056964608
292
     0
 93
-1056964608
 10
1.0
 20
1.0
 30
1.0
 43
0.0
176
     0
293
     0
294
     0
178
     0
179
     1
 45
1.0
271
     0
272
     9
273
     9
295
     0
1001
ACAD_MLEADERVER
1070
     2
  0
DIMENSION
  5
12D
330
2
100
AcDbEntity
  8
BEMASSUNG
100
AcDbDimension
280
     0
  2
*D18
 10
815.8167902699982
 20
2767.592342684271
 30
0.0
 11
810.3411030257959
 21
2747.592342684271
 31
0.0
 71
     5
 42
40.0
 73
     0
 74
     0
 75
     0
  3
Katalog 09
100
AcDbAlignedDimension
 13
791.3524234484444
 23
2727.592342684271
 33
0.0
 14
801.020978310767
 24
2767.592342684271
 34
0.0
 50
90.0
100
AcDbRotatedDimension
1001
ACAD_DSTYLE_DIMINSPECT
1070
   396
1000
100%
1070
   395
1000

1070
   394
1070
    33
1070
   393
1070
     0
  0
DIMENSION
  5
13A
330
2
100
AcDbEntity
  8
BEMASSUNG
100
AcDbDimension
280
     0
  2
*D17
 10
815.8161421437993
 20
2727.592342684271
 30
0.0
 11
810.3404548995969
 21
2697.592342684271
 31
0.0
 71
     5
 42
60.0
 73
     0
 74
     0
 75
     0
  3
Katalog 09
100
AcDbAlignedDimension
 13
794.5524234484451
 23
2667.592342684271
 33
0.0
 14
791.3524234484444
 24
2727.592342684271
 34
0.0
 50
90.0
100
AcDbRotatedDimension
1001
ACAD_DSTYLE_DIMINSPECT
1070
   396
1000
100%
1070
   395
1000

1070
   394
1070
    33
1070
   393
1070
     0
  0
POLYLINE
  5
147
330
2
100
AcDbEntity
  8
ACHSEN
100
AcDb2dPolyline
 66
     1
 10
0.0
 20
0.0
 30
0.0
 70
     2
  0
VERTEX
  5
148
330
147
100
AcDbEntity
  8
ACHSEN
100
AcDbVertex
100
AcDb2dVertex
 10
716.8084919299185
 20
2769.727051912153
 30
0.0
 42
0.1742921813444624
  0
VERTEX
  5
149
330
147
100
AcDbEntity
  8
ACHSEN
100
AcDbVertex
100
AcDb2dVertex
 10
716.3480077297888
 20
2769.5838622446
 30
0.0
 42
0.2149835583466477
 70
     1
  0
VERTEX
  5
14A
330
147
100
AcDbEntity
  8
ACHSEN
100
AcDbVertex
100
AcDb2dVertex
 10
716.1574537264555
 20
2769.235619789451
 30
0.0
 42
0.0287314123437467
  0
VERTEX
  5
14B
330
147
100
AcDbEntity
  8
ACHSEN
100
AcDbVertex
100
AcDb2dVertex
 10
716.1527460184668
 20
2768.996845820757
 30
0.0
 42
0.0647867178629017
 70
     1
  0
VERTEX
  5
14C
330
147
100
AcDbEntity
  8
ACHSEN
100
AcDbVertex
100
AcDb2dVertex
 10
716.1704236266616
 20
2768.892058325829
 30
0.0
 42
0.0281776653803317
  0
VERTEX
  5
14D
330
147
100
AcDbEntity
  8
ACHSEN
100
AcDbVertex
100
AcDb2dVertex
 10
716.2770290500511
 20
2768.602583540089
 30
0.0
 42
0.0542049048268258
 70
     1
  0
VERTEX
  5
14E
330
147
100
AcDbEntity
  8
ACHSEN
100
AcDbVertex
100
AcDb2dVertex
 10
716.3565307292715
 20
2768.462923475804
 30
0.0
 42
0.0128798373823147
  0
VERTEX
  5
14F
330
147
100
AcDbEntity
  8
ACHSEN
100
AcDbVertex
100
AcDb2dVertex
 10
716.5308441536226
 20
2768.234368859315
 30
0.0
 42
0.0102679014404496
 70
     1
  0
VERTEX
  5
150
330
147
100
AcDbEntity
  8
ACHSEN
100
AcDbVertex
100
AcDb2dVertex
 10
716.76251823144
 20
2767.958117309691
 30
0.0
 42
0.0105309848946722
  0
VERTEX
  5
151
330
147
100
AcDbEntity
  8
ACHSEN
100
AcDbVertex
100
AcDb2dVertex
 10
716.9060343952097
 20
2767.800768720257
 30
0.0
 42
-0.0098471552222488
 70
     1
  0
VERTEX
  5
152
330
147
100
AcDbEntity
  8
ACHSEN
100
AcDbVertex
100
AcDb2dVertex
 10
717.0597447905522
 20
2767.632705538358
 30
0.0
 42
-0.0472588414953436
  0
VERTEX
  5
153
330
147
100
AcDbEntity
  8
ACHSEN
100
AcDbVertex
100
AcDb2dVertex
 10
717.1972657047054
 20
2767.442771110949
 30
0.0
 42
-0.0362476380521915
 70
     1
  0
VERTEX
  5
154
330
147
100
AcDbEntity
  8
ACHSEN
100
AcDbVertex
100
AcDb2dVertex
 10
717.332805243702
 20
2767.169043926984
 30
0.0
 42
-0.097130454626578
  0
VERTEX
  5
155
330
147
100
AcDbEntity
  8
ACHSEN
100
AcDbVertex
100
AcDb2dVertex
 10
717.3677646294629
 20
2766.9907807464
 30
0.0
 42
-0.1351883478608524
 70
     1
  0
VERTEX
  5
156
330
147
100
AcDbEntity
  8
ACHSEN
100
AcDbVertex
100
AcDb2dVertex
 10
717.332805243702
 20
2766.86384498442
 30
0.0
 42
-0.1824111893630264
  0
VERTEX
  5
157
330
147
100
AcDbEntity
  8
ACHSEN
100
AcDbVertex
100
AcDb2dVertex
 10
717.2457215325894
 20
2766.794505089698
 30
0.0
 42
-0.0572640809144311
 70
     1
  0
VERTEX
  5
158
330
147
100
AcDbEntity
  8
ACHSEN
100
AcDbVertex
100
AcDb2dVertex
 10
716.9080919912205
 20
2766.727051912153
 30
0.0
 42
-0.0589706698077021
  0
VERTEX
  5
159
330
147
100
AcDbEntity
  8
ACHSEN
100
AcDbVertex
100
AcDb2dVertex
 10
716.4561916408465
 20
2766.742883803786
 30
0.0
 42
-0.109647967478745
 70
     1
  0
VERTEX
  5
15A
330
147
100
AcDbEntity
  8
ACHSEN
100
AcDbVertex
100
AcDb2dVertex
 10
716.2276397008159
 20
2766.831858983036
 30
0.0
 42
-0.0628391755149724
  0
VERTEX
  5
15B
330
147
100
AcDbEntity
  8
ACHSEN
100
AcDbVertex
100
AcDb2dVertex
 10
716.1204243175461
 20
2766.924984570277
 30
0.0
 42
-0.0612610441629167
 70
     1
  0
VERTEX
  5
15C
330
147
100
AcDbEntity
  8
ACHSEN
100
AcDbVertex
100
AcDb2dVertex
 10
716.037261880547
 20
2767.044549150808
 30
0.0
 42
-0.1110301529220762
  0
VERTEX
  5
15D
330
147
100
AcDbEntity
  8
ACHSEN
100
AcDbVertex
100
AcDb2dVertex
 10
716.0008027305628
 20
2767.179318632793
 30
0.0
 42
-0.0460047872895645
 70
     1
  0
VERTEX
  5
15E
330
147
100
AcDbEntity
  8
ACHSEN
100
AcDbVertex
100
AcDb2dVertex
 10
716.0171048626939
 20
2767.512472443863
 30
0.0
 42
-0.1431452867489513
  0
VERTEX
  5
15F
330
147
100
AcDbEntity
  8
ACHSEN
100
AcDbVertex
100
AcDb2dVertex
 10
716.1915091885735
 20
2767.897623195319
 30
0.0
 42
-0.1244691872496763
 70
     1
  0
VERTEX
  5
160
330
147
100
AcDbEntity
  8
ACHSEN
100
AcDbVertex
100
AcDb2dVertex
 10
716.5871067632374
 20
2768.17622449349
 30
0.0
  0
SEQEND
  5
161
330
147
100
AcDbEntity
  8
ACHSEN
  0
LINE
  5
162
330
2
100
AcDbEntity
  8
ACHSEN
100
AcDbLine
 10
722.1450037322552
 20
2766.727051912153
 30
0.0
 11
716.9080919912205
 21
2766.727051912153
 31
0.0
  0
LINE
  5
163
330
2
100
AcDbEntity
  8
ACHSEN
100
AcDbLine
 10
722.1450037322552
 20
2769.727051912153
 30
0.0
 11
716.8084919299185
 21
2769.727051912153
 31
0.0
  0
LINE
  5
164
330
2
100
AcDbEntity
  8
ACHSEN
100
AcDbLine
 10
738.4709203548518
 20
2803.818625605958
 30
0.0
 11
731.7108153940084
 21
2774.347103624038
 31
0.0
  0
LINE
  5
165
330
2
100
AcDbEntity
  8
ACHSEN
100
AcDbLine
 10
728.7840709473698
 20
2775.006173121236
 30
0.0
 11
735.3728335538582
 21
2803.501303064152
 31
0.0
  0
ARC
  5
166
330
2
100
AcDbEntity
  8
ACHSEN
100
AcDbCircle
 10
722.1450037322552
 20
2776.541285889507
 30
0.0
 40
9.814233977353977
100
AcDbArc
 50
270.0
 51
347.0811130302635
  0
ARC
  5
167
330
2
100
AcDbEntity
  8
ACHSEN
100
AcDbCircle
 10
722.1450037322552
 20
2776.541285889507
 30
0.0
 40
6.814233977353977
100
AcDbArc
 50
270.0
 51
346.9806378393871
  0
ARC
  5
168
330
2
100
AcDbEntity
  8
ACHSEN
100
AcDbCircle
 10
745.1126693692844
 20
2802.295157612391
 30
0.0
 40
9.814233977353977
100
AcDbArc
 50
19.63089478020293
 51
172.9406410692978
  0
ARC
  5
169
330
2
100
AcDbEntity
  8
ACHSEN
100
AcDbCircle
 10
745.1126693692844
 20
2802.295157612391
 30
0.0
 40
6.814233977353977
100
AcDbArc
 50
28.93828833890874
 51
167.0811130302635
  0
DIMENSION
  5
16A
330
2
100
AcDbEntity
  8
BEMASSUNG
100
AcDbDimension
280
     0
  2
*D16
 10
719.3684282265185
 20
2845.159552638671
 30
0.0
 11
719.3684282265181
 21
2855.160655368198
 31
0.0
 70
   128
  1
Hub = <>
 71
     5
 42
20.00220545905586
 73
     0
 74
     0
 75
     0
  3
Katalog 09
100
AcDbAlignedDimension
 13
760.6021888739956
 23
2865.161758097727
 33
0.0
 14
724.5344436427115
 24
2845.159552638671
 34
0.0
 50
90.0
100
AcDbRotatedDimension
1001
ACAD_DSTYLE_DIMINSPECT
1070
   396
1000
100%
1070
   395
1000

1070
   394
1070
    33
1070
   393
1070
     0
  0
DIMENSION
  5
177
330
2
100
AcDbEntity
  8
BEMASSUNG
100
AcDbDimension
280
     0
  2
*D15
 10
718.2958307257374
 20
2539.593180718663
 30
0.0
 11
718.2958307257369
 21
2549.593550004483
 31
0.0
 70
   128
  1
Hub = <>
 71
     5
 42
20.00073857164034
 73
     0
 74
     0
 75
     0
  3
Katalog 09
100
AcDbAlignedDimension
 13
721.8696555657957
 23
2559.593919290303
 33
0.0
 14
765.4565878833423
 24
2539.593180718663
 34
0.0
 50
90.0
100
AcDbRotatedDimension
1001
ACAD_DSTYLE_DIMINSPECT
1070
   396
1000
100%
1070
   395
1000

1070
   394
1070
    33
1070
   393
1070
     0
  0
DIMENSION
  5
184
330
2
100
AcDbEntity
  8
BEMASSUNG
100
AcDbDimension
280
     0
  2
*D14
 10
765.6024234484443
 20
2489.094646391424
 30
0.0
 11
712.3033102151562
 21
2489.094646391424
 31
0.0
 70
   128
 71
     5
 42
15.5
 73
     0
 74
     0
 75
     0
  3
Katalog 09
100
AcDbAlignedDimension
 13
750.1024234484443
 23
2605.592342684272
 33
0.0
 14
765.6024234484443
 24
2532.601866793415
 34
0.0
 50
180.0
100
AcDbRotatedDimension
1001
ACAD_DSTYLE_DIMINSPECT
1070
   396
1000
100%
1070
   395
1000

1070
   394
1070
    33
1070
   393
1070
     0
  0
DIMENSION
  5
193
330
2
100
AcDbEntity
  8
BEMASSUNG
100
AcDbDimension
280
     0
  2
*D13
 10
675.8141919765944
 20
2539.593180718663
 30
0.0
 11
670.338504732392
 21
2633.592761701467
 31
0.0
 71
     5
 42
187.9991619656084
 73
     0
 74
     0
 75
     0
  3
Katalog 09
100
AcDbAlignedDimension
 13
765.6024234484443
 23
2727.592342684271
 33
0.0
 14
760.6024234484443
 24
2539.593180718663
 34
0.0
 50
90.0
100
AcDbRotatedDimension
1001
ACAD_DSTYLE_DIMINSPECT
1070
   396
1000
100%
1070
   395
1000

1070
   394
1070
    33
1070
   393
1070
     0
  0
DIMENSION
  5
1A0
330
2
100
AcDbEntity
  8
BEMASSUNG
100
AcDbDimension
280
     0
  2
*D12
 10
675.8141919765944
 20
2727.592342684271
 30
0.0
 11
670.3359825632244
 21
2796.377050390999
 31
0.0
 71
     5
 42
137.5694154134557
 73
     0
 74
     0
 75
     0
  3
Katalog 09
100
AcDbAlignedDimension
 13
760.6021888739956
 23
2865.161758097727
 33
0.0
 14
708.2756982159365
 24
2727.592342684271
 34
0.0
 50
90.0
100
AcDbRotatedDimension
1001
ACAD_DSTYLE_DIMINSPECT
1070
   396
1000
100%
1070
   395
1000

1070
   394
1070
    33
1070
   393
1070
     0
1001
ACAD
1000
DSTYLE
1002
{
1070
   271
1070
     0
1002
}
  0
DIMENSION
  5
1AD
330
2
100
AcDbEntity
  8
BEMASSUNG
100
AcDbDimension
280
     0
  2
*D11
 10
697.7733496494395
 20
2727.592342684271
 30
0.0
 11
692.3607166344322
 21
2666.592342684272
 31
0.0
 71
     5
 42
121.9999999999991
 73
     0
 74
     0
 75
     0
  3
Katalog 09
100
AcDbAlignedDimension
 13
750.1024234484443
 23
2605.592342684272
 33
0.0
 14
726.2191583590188
 24
2727.592342684271
 34
0.0
 50
90.0
100
AcDbRotatedDimension
1001
ACAD_DSTYLE_DIMINSPECT
1070
   396
1000
100%
1070
   395
1000

1070
   394
1070
    33
1070
   393
1070
     0
  0
DIMENSION
  5
1BA
330
2
100
AcDbEntity
  8
BEMASSUNG
100
AcDbDimension
280
     0
  2
*D10
 10
697.7733496494395
 20
2727.592342684271
 30
0.0
 11
692.2976624052371
 21
2766.592342684271
 31
0.0
 71
     5
 42
78.0
 73
     0
 74
     0
 75
     0
  3
Katalog 09
100
AcDbAlignedDimension
 13
750.1024234484434
 23
2805.592342684271
 33
0.0
 14
697.7733496494395
 24
2727.592342684271
 34
0.0
 50
90.0
100
AcDbRotatedDimension
1001
ACAD_DSTYLE_DIMINSPECT
1070
   396
1000
100%
1070
   395
1000

1070
   394
1070
    33
1070
   393
1070
     0
  0
DIMENSION
  5
1C7
330
2
100
AcDbEntity
  8
BEMASSUNG
100
AcDbDimension
280
     0
  2
*D9
 10
765.6024234484443
 20
2466.74234425322
 30
0.0
 11
833.69826246618
 21
2466.74234425322
 31
0.0
 70
   128
  1
DM-3
 71
     5
 42
27.0
 73
     0
 74
     0
 75
     0
  3
Katalog 09
100
AcDbAlignedDimension
 13
792.6024234484444
 23
2605.592342684272
 33
0.0
 14
765.6024234484443
 24
2532.601866793415
 34
0.0
 50
180.0
100
AcDbRotatedDimension
1001
ACAD_DSTYLE_DIMINSPECT
1070
   396
1000
100%
1070
   395
1000

1070
   394
1070
    33
1070
   393
1070
     0
  0
DIMENSION
  5
1D5
330
2
100
AcDbEntity
  8
BEMASSUNG
100
AcDbDimension
280
     0
  2
*D8
 10
717.6042829687121
 20
2727.592342684271
 30
0.0
 11
717.6042829687117
 21
2667.792888386863
 31
0.0
 70
   128
 71
     5
 42
21.5
 73
     0
 74
     0
 75
     0
  3
Katalog 09
100
AcDbAlignedDimension
 13
757.0024234484449
 23
2706.092342684271
 33
0.0
 14
734.1392787655254
 24
2727.592342684271
 34
0.0
 50
90.0
100
AcDbRotatedDimension
1001
ACAD_DSTYLE_DIMINSPECT
1070
   396
1000
100%
1070
   395
1000

1070
   394
1070
    33
1070
   393
1070
     0
  0
DIMENSION
  5
1E3
330
2
100
AcDbEntity
  8
BEMASSUNG
100
AcDbDimension
280
     0
  2
*D7
 10
732.9762088886143
 20
2723.092342684271
 30
0.0
 11
732.9762088886139
 21
2761.551414989866
 31
0.0
 70
   128
 71
     5
 42
9.000000000000909
 73
     0
 74
     0
 75
     0
  3
Katalog 09
100
AcDbAlignedDimension
 13
761.1024234484455
 23
2732.092342684272
 33
0.0
 14
761.1024234484455
 24
2723.092342684271
 34
0.0
 50
90.0
100
AcDbRotatedDimension
1001
ACAD_DSTYLE_DIMINSPECT
1070
   396
1000
100%
1070
   395
1000

1070
   394
1070
    33
1070
   393
1070
     0
  0
ARC
  5
1F2
330
2
100
AcDbEntity
  8
UMRISS05
100
AcDbCircle
 10
765.6024234484443
 20
2846.161819829394
 30
0.0
 40
1.799999999999995
100
AcDbArc
 50
187.2000049737582
 51
172.7999950262418
  0
ARC
  5
1F3
330
2
100
AcDbEntity
  8
UMRISS05
100
AcDbCircle
 10
765.6024234484443
 20
2846.161819829394
 30
0.0
 40
2.558845726811989
100
AcDbArc
 50
187.2000049737582
 51
172.7999950262155
  0
LINE
  5
1F4
330
2
100
AcDbEntity
  8
UMRISS05
100
AcDbLine
 10
763.8166170056624
 20
2846.387419804833
 30
0.0
 11
763.0637550123188
 21
2846.482528458905
 31
0.0
  0
LINE
  5
1F5
330
2
100
AcDbEntity
  8
UMRISS05
100
AcDbLine
 10
763.0637550123188
 20
2845.841111199881
 30
0.0
 11
763.8166170056624
 21
2845.936219853954
 31
0.0
  0
LINE
  5
1F6
330
2
100
AcDbEntity
  8
UMRISS05
100
AcDbLine
 10
760.6021888739956
 20
2865.161758097727
 30
0.0
 11
760.602497525087
 21
2840.161758099633
 31
0.0
  0
LINE
  5
1F7
330
2
100
AcDbEntity
  8
UMRISS05
100
AcDbLine
 10
770.6021888732334
 20
2865.161881558164
 30
0.0
 11
770.6024975243258
 21
2840.161881560069
 31
0.0
  0
LINE
  5
1F8
330
2
100
AcDbEntity
  8
UMRISS05
100
AcDbLine
 10
760.6021888739956
 20
2865.161758097727
 30
0.0
 11
770.6021888732334
 21
2865.161881558164
 31
0.0
  0
LINE
  5
1F9
330
2
100
AcDbEntity
  8
UMRISS05
100
AcDbLine
 10
760.602497525087
 20
2840.161758099633
 30
0.0
 11
770.6024975243258
 21
2840.161881560069
 31
0.0
  0
LINE
  5
1FA
330
2
100
AcDbEntity
  8
Mittelpunktmarkierung(MSL)
  6
CHAIN
 48
10.31825447082519
100
AcDbLine
 10
765.6024234484443
 20
2783.092342684271
 30
0.0
 11
765.6024234484443
 21
2770.092342684271
 31
0.0
  0
LINE
  5
1FB
330
2
100
AcDbEntity
  8
Mittelpunktmarkierung(MSL)
  6
CHAIN
 48
10.31825447082519
100
AcDbLine
 10
759.1024234484443
 20
2776.592342684271
 30
0.0
 11
772.1024234484444
 21
2776.592342684271
 31
0.0
  0
LINE
  5
1FC
330
2
100
AcDbEntity
  8
Mittellinie(MSL)
  6
CHAIN
 48
23.99096870422363
100
AcDbLine
 10
794.5524234484451
 20
2667.592342684271
 30
0.0
 11
773.6024234484443
 21
2667.592342684271
 31
0.0
  0
LINE
  5
1FE
330
2
100
AcDbEntity
  8
Mittellinie(MSL)
  6
CHAIN
 48
23.99096870422363
100
AcDbLine
 10
774.1024234484443
 20
2767.592342684271
 30
0.0
 11
801.020978310767
 21
2767.592342684271
 31
0.0
  0
LINE
  5
1FF
330
2
100
AcDbEntity
  8
Mittelpunktmarkierung(MSL)
  6
CHAIN
 48
10.71511459350586
100
AcDbLine
 10
784.6024234484444
 20
2734.342342684271
 30
0.0
 11
784.6024234484444
 21
2720.842342684271
 31
0.0
  0
LINE
  5
200
330
2
100
AcDbEntity
  8
Mittelpunktmarkierung(MSL)
  6
CHAIN
 48
23.99096870422363
100
AcDbLine
 10
765.6024234484443
 20
2870.590676322617
 30
0.0
 11
765.6024234484443
 21
2799.395302081037
 31
0.0
  0
LINE
  5
201
330
2
100
AcDbEntity
  8
Mittelpunktmarkierung(MSL)
  6
CHAIN
 48
13.49313259124756
100
AcDbLine
 10
757.1024234484443
 20
2832.161819829393
 30
0.0
 11
774.1024234484443
 21
2832.161819829393
 31
0.0
  0
LINE
  5
202
330
2
100
AcDbEntity
  8
Mittelpunktmarkierung(MSL)
  6
CHAIN
 48
23.99096870422363
100
AcDbLine
 10
765.6024234484443
 20
2591.097332964174
 30
0.0
 11
765.6024234484443
 21
2565.505182789212
 31
0.0
  0
LINE
  5
203
330
2
100
AcDbEntity
  8
Mittelpunktmarkierung(MSL)
  6
CHAIN
 48
13.49313259124756
100
AcDbLine
 10
757.1024234484443
 20
2572.215182789213
 30
0.0
 11
774.1024234484443
 21
2572.215182789213
 31
0.0
  0
LINE
  5
204
330
2
100
AcDbEntity
  8
Mittelpunktmarkierung(MSL)
  6
CHAIN
 48
23.99096870422363
100
AcDbLine
 10
765.6024234484443
 20
2597.715182789213
 30
0.0
 11
765.6024234484443
 21
2590.715182789213
 31
0.0
  0
LINE
  5
205
330
2
100
AcDbEntity
  8
Mittelpunktmarkierung(MSL)
  6
CHAIN
 48
9.524535179138183
100
AcDbLine
 10
757.1024234484443
 20
2594.215182789213
 30
0.0
 11
769.1024234484443
 21
2594.215182789213
 31
0.0
  0
LINE
  5
206
330
2
100
AcDbEntity
  8
Mittelpunktmarkierung(MSL)
  6
CHAIN
 48
9.603906631469726
100
AcDbLine
 10
765.6024234484443
 20
2565.143180718663
 30
0.0
 11
765.6024234484443
 21
2532.601866793415
 31
0.0
  0
LINE
  5
207
330
2
100
AcDbEntity
  8
Mittelpunktmarkierung(MSL)
  6
CHAIN
 48
9.603906631469726
100
AcDbLine
 10
759.552423448445
 20
2559.093180718662
 30
0.0
 11
771.6524234484445
 21
2559.093180718662
 31
0.0
  0
LINE
  5
208
330
2
100
AcDbEntity
  8
Mittelpunktmarkierung(MSL)
  6
CHAIN
 48
10.31825447082519
100
AcDbLine
 10
769.6024234484443
 20
2632.092342684271
 30
0.0
 11
769.6024234484443
 21
2619.092342684272
 31
0.0
  0
LINE
  5
209
330
2
100
AcDbEntity
  8
Mittelpunktmarkierung(MSL)
  6
CHAIN
 48
10.31825447082519
100
AcDbLine
 10
763.1024234484443
 20
2625.592342684271
 30
0.0
 11
776.1024234484444
 21
2625.592342684271
 31
0.0
  0
LINE
  5
20A
330
2
100
AcDbEntity
  8
Mittelpunktmarkierung(MSL)
  6
CHAIN
 48
23.99096870422363
100
AcDbLine
 10
765.6024234484443
 20
2738.510979697069
 30
0.0
 11
765.6024234484443
 21
2602.839164820775
 31
0.0
  0
LINE
  5
20B
330
2
100
AcDbEntity
  8
Mittelpunktmarkierung(MSL)
  6
CHAIN
 48
13.65187644958496
100
AcDbLine
 10
757.0024234484449
 20
2706.092342684271
 30
0.0
 11
774.2024234484447
 21
2706.092342684271
 31
0.0
  0
LINE
  5
20C
330
2
100
AcDbEntity
  8
Mittelpunktmarkierung(MSL)
  6
CHAIN
 48
10.31825447082519
100
AcDbLine
 10
766.1024234484443
 20
2750.084528275991
 30
0.0
 11
766.1024234484443
 21
2737.084528275991
 31
0.0
  0
LINE
  5
20D
330
2
100
AcDbEntity
  8
Mittelpunktmarkierung(MSL)
  6
CHAIN
 48
10.31825447082519
100
AcDbLine
 10
759.6024234484444
 20
2743.584528275991
 30
0.0
 11
772.6024234484444
 21
2743.584528275991
 31
0.0
  0
LINE
  5
20E
330
2
100
AcDbEntity
  8
Mittelpunktmarkierung(MSL)
  6
CHAIN
 48
23.99096870422363
100
AcDbLine
 10
779.7024234484445
 20
2703.179212714957
 30
0.0
 11
779.7024234484445
 21
2693.846406440504
 31
0.0
  0
LINE
  5
20F
330
2
100
AcDbEntity
  8
Mittelpunktmarkierung(MSL)
  6
CHAIN
 48
10.31825447082519
100
AcDbLine
 10
775.0096122743305
 20
2698.492342684271
 30
0.0
 11
784.2203643089899
 21
2698.492342684271
 31
0.0
  0
CIRCLE
  5
210
330
2
100
AcDbEntity
  8
UMRISS05
100
AcDbCircle
 10
765.6024234484443
 20
2727.592342684271
 30
0.0
 40
8.05
  0
CIRCLE
  5
211
330
2
100
AcDbEntity
  8
UMRISS05
100
AcDbCircle
 10
765.6024234484443
 20
2727.592342684271
 30
0.0
 40
9.0
  0
LINE
  5
212
330
2
100
AcDbEntity
  8
UMRISS05
100
AcDbLine
 10
767.1024234484425
 20
2668.876039163845
 30
0.0
 11
767.6152661756373
 21
2668.847331370311
 31
0.0
  0
LINE
  5
213
330
2
100
AcDbEntity
  8
UMRISS05
100
AcDbLine
 10
767.6651880214863
 20
2668.844536856579
 30
0.0
 11
767.6152661756373
 21
2668.847331370311
 31
0.0
  0
LINE
  5
214
330
2
100
AcDbEntity
  8
UMRISS05
100
AcDbLine
 10
770.5336254196195
 20
2675.356471083134
 30
0.0
 11
770.5346470186191
 21
2675.374721166224
 31
0.0
  0
LINE
  5
215
330
2
100
AcDbEntity
  8
UMRISS05
100
AcDbLine
 10
770.4315501146806
 20
2673.532974000312
 30
0.0
 11
770.2171705885925
 21
2669.703248086966
 31
0.0
  0
LINE
  5
216
330
2
100
AcDbEntity
  8
UMRISS05
100
AcDbLine
 10
767.9354578222142
 20
2673.672699686911
 30
0.0
 11
767.721078296126
 21
2669.842973773565
 31
0.0
  0
LINE
  5
217
330
2
100
AcDbEntity
  8
UMRISS05
100
AcDbLine
 10
770.5336254196195
 20
2675.356471083134
 30
0.0
 11
770.4874403893204
 21
2674.531410917298
 31
0.0
  0
LINE
  5
218
330
2
100
AcDbEntity
  8
UMRISS05
100
AcDbLine
 10
767.9913480968548
 20
2674.671136603897
 30
0.0
 11
770.4874403893204
 21
2674.531410917298
 31
0.0
  0
LINE
  5
219
330
2
100
AcDbEntity
  8
UMRISS05
100
AcDbLine
 10
770.4315501146806
 20
2673.532974000312
 30
0.0
 11
770.4874403893204
 21
2674.531410917298
 31
0.0
  0
LINE
  5
21A
330
2
100
AcDbEntity
  8
UMRISS05
100
AcDbLine
 10
767.9913480968548
 20
2674.671136603897
 30
0.0
 11
767.9354578222151
 21
2673.672699686911
 31
0.0
  0
LINE
  5
21B
330
2
100
AcDbEntity
  8
UMRISS05
100
AcDbLine
 10
767.9913480968548
 20
2674.671136603897
 30
0.0
 11
768.0160392853772
 21
2675.112225761259
 31
0.0
  0
LINE
  5
21C
330
2
100
AcDbEntity
  8
UMRISS05
100
AcDbLine
 10
767.721078296126
 20
2669.842973773565
 30
0.0
 11
767.6651880214863
 21
2668.844536856579
 31
0.0
  0
LINE
  5
21D
330
2
100
AcDbEntity
  8
UMRISS05
100
AcDbLine
 10
770.1612803139517
 20
2668.704811169979
 30
0.0
 11
767.6651880214863
 21
2668.844536856579
 31
0.0
  0
LINE
  5
21E
330
2
100
AcDbEntity
  8
UMRISS05
100
AcDbLine
 10
770.1612803139517
 20
2668.704811169979
 30
0.0
 11
770.2171705885925
 21
2669.703248086966
 31
0.0
  0
CIRCLE
  5
21F
330
2
100
AcDbEntity
  8
UMRISS05
100
AcDbCircle
 10
765.6024234484443
 20
2727.592342684271
 30
0.0
 40
7.099999999999995
  0
CIRCLE
  5
220
330
2
100
AcDbEntity
  8
UMRISS05
100
AcDbCircle
 10
765.6024234484443
 20
2727.592342684271
 30
0.0
 40
7.999999999999992
  0
LINE
  5
221
330
2
100
AcDbEntity
  8
UMRISS05
100
AcDbLine
 10
770.1024234484452
 20
2732.092342684271
 30
0.0
 11
770.1024234484443
 21
2723.092342684271
 31
0.0
  0
LINE
  5
222
330
2
100
AcDbEntity
  8
UMRISS05
100
AcDbLine
 10
770.1024234484443
 20
2723.092342684271
 30
0.0
 11
761.1024234484455
 21
2723.092342684271
 31
0.0
  0
LINE
  5
223
330
2
100
AcDbEntity
  8
UMRISS05
100
AcDbLine
 10
761.1024234484455
 20
2723.092342684271
 30
0.0
 11
761.1024234484455
 21
2732.092342684272
 31
0.0
  0
LINE
  5
224
330
2
100
AcDbEntity
  8
UMRISS05
100
AcDbLine
 10
761.1024234484455
 20
2732.092342684272
 30
0.0
 11
770.1024234484452
 21
2732.092342684271
 31
0.0
  0
LINE
  5
225
330
2
100
AcDbEntity
  8
UMRISS05
100
AcDbLine
 10
766.1024234484443
 20
2668.249241797712
 30
0.0
 11
766.1024234484443
 21
2670.640817160652
 31
0.0
  0
ARC
  5
226
330
2
100
AcDbEntity
  8
UMRISS05
100
AcDbCircle
 10
765.6024234484443
 20
2559.093180718662
 30
0.0
 40
1.800000000000008
100
AcDbArc
 50
313.2227446782029
 51
298.8227347306633
  0
ARC
  5
227
330
2
100
AcDbEntity
  8
UMRISS05
100
AcDbCircle
 10
765.6024234484443
 20
2559.093180718662
 30
0.0
 40
2.558845726812008
100
AcDbArc
 50
313.2227446782029
 51
298.8227347306633
  0
LINE
  5
228
330
2
100
AcDbEntity
  8
UMRISS05
100
AcDbLine
 10
767.3548142217128
 20
2557.228557960197
 30
0.0
 11
766.8351290230052
 21
2557.781526432486
 31
0.0
  0
LINE
  5
229
330
2
100
AcDbEntity
  8
UMRISS05
100
AcDbLine
 10
766.470205880369
 20
2557.516172902943
 30
0.0
 11
766.8360464305183
 21
2556.851336435105
 31
0.0
  0
CIRCLE
  5
22A
330
2
100
AcDbEntity
  8
UMRISS05
100
AcDbCircle
 10
779.7024234484445
 20
2698.492342684271
 30
0.0
 40
2.999999999999951
  0
LINE
  5
22B
330
2
100
AcDbEntity
  8
UMRISS05
100
AcDbLine
 10
778.0778884130045
 20
2697.259100648567
 30
0.0
 11
778.6771765063863
 21
2696.729144253067
 31
0.0
  0
LINE
  5
22C
330
2
100
AcDbEntity
  8
UMRISS05
100
AcDbLine
 10
781.3269584838847
 20
2699.725584719976
 30
0.0
 11
780.7276703905024
 21
2700.255541115475
 31
0.0
  0
LINE
  5
22D
330
2
100
AcDbEntity
  8
UMRISS05
100
AcDbLine
 10
780.7276703905024
 20
2700.255541115475
 30
0.0
 11
779.6677575995031
 21
2699.056964928712
 31
0.0
  0
LINE
  5
22E
330
2
100
AcDbEntity
  8
UMRISS05
100
AcDbLine
 10
779.1378012040036
 20
2698.45767683533
 30
0.0
 11
778.0778884130045
 21
2697.259100648567
 31
0.0
  0
LINE
  5
22F
330
2
100
AcDbEntity
  8
UMRISS05
100
AcDbLine
 10
779.0715566545664
 20
2698.382765823657
 30
0.0
 11
779.6708447479482
 21
2697.852809428158
 31
0.0
  0
LINE
  5
230
330
2
100
AcDbEntity
  8
UMRISS05
100
AcDbLine
 10
780.3332902423221
 20
2698.601919544885
 30
0.0
 11
779.7340021489413
 21
2699.131875940384
 31
0.0
  0
LINE
  5
231
330
2
100
AcDbEntity
  8
UMRISS05
100
AcDbLine
 10
780.2670456928859
 20
2698.527008533214
 30
0.0
 11
781.3269584838847
 21
2699.725584719976
 31
0.0
  0
LINE
  5
232
330
2
100
AcDbEntity
  8
UMRISS05
100
AcDbLine
 10
778.6771765063863
 20
2696.729144253067
 30
0.0
 11
779.7370892973865
 21
2697.927720439831
 31
0.0
  0
LINE
  5
233
330
2
100
AcDbEntity
  8
UMRISS05
100
AcDbLine
 10
779.8120003090584
 20
2697.861475890393
 30
0.0
 11
780.341956704558
 21
2698.460763983775
 31
0.0
  0
LINE
  5
234
330
2
100
AcDbEntity
  8
UMRISS05
100
AcDbLine
 10
780.9356654841492
 20
2696.867807648832
 30
0.0
 11
781.4656218796486
 21
2697.467095742213
 31
0.0
  0
LINE
  5
235
330
2
100
AcDbEntity
  8
UMRISS05
100
AcDbLine
 10
778.4691814127395
 20
2700.116877719711
 30
0.0
 11
777.93922501724
 21
2699.51758962633
 31
0.0
  0
LINE
  5
236
330
2
100
AcDbEntity
  8
UMRISS05
100
AcDbLine
 10
779.592846587831
 20
2699.12320947815
 30
0.0
 11
779.0628901923314
 21
2698.523921384768
 31
0.0
  0
LINE
  5
237
330
2
100
AcDbEntity
  8
UMRISS05
100
AcDbLine
 10
779.7370892973865
 20
2697.927720439831
 30
0.0
 11
780.9356654841492
 21
2696.867807648832
 31
0.0
  0
LINE
  5
238
330
2
100
AcDbEntity
  8
UMRISS05
100
AcDbLine
 10
777.93922501724
 20
2699.51758962633
 30
0.0
 11
779.1378012040036
 21
2698.45767683533
 31
0.0
  0
LINE
  5
239
330
2
100
AcDbEntity
  8
UMRISS05
100
AcDbLine
 10
781.4656218796486
 20
2697.467095742213
 30
0.0
 11
780.2670456928859
 21
2698.527008533214
 31
0.0
  0
LINE
  5
23A
330
2
100
AcDbEntity
  8
UMRISS05
100
AcDbLine
 10
779.6677575995031
 20
2699.056964928712
 30
0.0
 11
778.4691814127395
 21
2700.116877719711
 31
0.0
  0
CIRCLE
  5
23B
330
2
100
AcDbEntity
  8
UMRISS05
100
AcDbCircle
 10
769.6024234484443
 20
2625.592342684271
 30
0.0
 40
2.999999999999948
  0
LINE
  5
23C
330
2
100
AcDbEntity
  8
UMRISS05
100
AcDbLine
 10
771.0187554513654
 20
2627.059995115026
 30
0.0
 11
770.34532513162
 21
2627.491841852245
 31
0.0
  0
LINE
  5
23D
330
2
100
AcDbEntity
  8
UMRISS05
100
AcDbLine
 10
768.1860914455244
 20
2624.124690253516
 30
0.0
 11
768.8595217652696
 21
2623.692843516297
 31
0.0
  0
LINE
  5
23E
330
2
100
AcDbEntity
  8
UMRISS05
100
AcDbLine
 10
768.8595217652696
 20
2623.692843516297
 30
0.0
 11
769.7232152397077
 21
2625.039704155789
 31
0.0
  0
LINE
  5
23F
330
2
100
AcDbEntity
  8
UMRISS05
100
AcDbLine
 10
770.1550619769273
 20
2625.713134475535
 30
0.0
 11
771.0187554513654
 21
2627.059995115027
 31
0.0
  0
LINE
  5
240
330
2
100
AcDbEntity
  8
UMRISS05
100
AcDbLine
 10
770.20904281908
 20
2625.797313265503
 30
0.0
 11
769.5356124993336
 21
2626.229160002722
 31
0.0
  0
LINE
  5
241
330
2
100
AcDbEntity
  8
UMRISS05
100
AcDbLine
 10
768.9958040778097
 20
2625.38737210304
 30
0.0
 11
769.669234397555
 21
2624.955525365821
 31
0.0
  0
LINE
  5
242
330
2
100
AcDbEntity
  8
UMRISS05
100
AcDbLine
 10
769.0497849199614
 20
2625.471550893008
 30
0.0
 11
768.1860914455244
 21
2624.124690253516
 31
0.0
  0
LINE
  5
243
330
2
100
AcDbEntity
  8
UMRISS05
100
AcDbLine
 10
770.34532513162
 20
2627.491841852245
 30
0.0
 11
769.4816316571809
 21
2626.144981212754
 31
0.0
  0
LINE
  5
244
330
2
100
AcDbEntity
  8
UMRISS05
100
AcDbLine
 10
769.3974528672129
 20
2626.198962054906
 30
0.0
 11
768.9656061299931
 21
2625.52553173516
 31
0.0
  0
LINE
  5
245
330
2
100
AcDbEntity
  8
UMRISS05
100
AcDbLine
 10
768.1347710176892
 20
2627.008674687192
 30
0.0
 11
767.7029242804706
 21
2626.335244367446
 31
0.0
  0
LINE
  5
246
330
2
100
AcDbEntity
  8
UMRISS05
100
AcDbLine
 10
771.0700758792004
 20
2624.176010681351
 30
0.0
 11
771.5019226164193
 21
2624.849441001096
 31
0.0
  0
LINE
  5
247
330
2
100
AcDbEntity
  8
UMRISS05
100
AcDbLine
 10
769.8073940296758
 20
2624.985723313636
 30
0.0
 11
770.2392407668953
 21
2625.659153633382
 31
0.0
  0
LINE
  5
248
330
2
100
AcDbEntity
  8
UMRISS05
100
AcDbLine
 10
769.4816316571809
 20
2626.144981212754
 30
0.0
 11
768.1347710176892
 21
2627.008674687192
 31
0.0
  0
LINE
  5
249
330
2
100
AcDbEntity
  8
UMRISS05
100
AcDbLine
 10
771.5019226164193
 20
2624.849441001096
 30
0.0
 11
770.1550619769273
 21
2625.713134475535
 31
0.0
  0
LINE
  5
24A
330
2
100
AcDbEntity
  8
UMRISS05
100
AcDbLine
 10
767.7029242804706
 20
2626.335244367446
 30
0.0
 11
769.0497849199614
 21
2625.471550893008
 31
0.0
  0
LINE
  5
24B
330
2
100
AcDbEntity
  8
UMRISS05
100
AcDbLine
 10
769.7232152397077
 20
2625.039704155789
 30
0.0
 11
771.0700758792004
 21
2624.176010681351
 31
0.0
  0
CIRCLE
  5
24C
330
2
100
AcDbEntity
  8
UMRISS05
100
AcDbCircle
 10
765.6024234484443
 20
2776.592342684272
 30
0.0
 40
2.999999999999948
  0
LINE
  5
24D
330
2
100
AcDbEntity
  8
UMRISS05
100
AcDbLine
 10
763.7909554676111
 20
2775.655014697699
 30
0.0
 11
764.290809922511
 21
2775.030398396345
 31
0.0
  0
LINE
  5
24E
330
2
100
AcDbEntity
  8
UMRISS05
100
AcDbLine
 10
767.4138914292784
 20
2777.529670670844
 30
0.0
 11
766.9140369743786
 21
2778.154286972198
 31
0.0
  0
LINE
  5
24F
330
2
100
AcDbEntity
  8
UMRISS05
100
AcDbLine
 10
766.9140369743786
 20
2778.154286972198
 30
0.0
 11
765.6648043716718
 21
2777.154578062398
 31
0.0
  0
LINE
  5
250
330
2
100
AcDbEntity
  8
UMRISS05
100
AcDbLine
 10
765.040188070318
 20
2776.654723607498
 30
0.0
 11
763.7909554676111
 21
2775.655014697699
 31
0.0
  0
LINE
  5
251
330
2
100
AcDbEntity
  8
UMRISS05
100
AcDbLine
 10
764.9621110326484
 20
2776.592241800635
 30
0.0
 11
765.4619654875491
 21
2775.967625499282
 31
0.0
  0
LINE
  5
252
330
2
100
AcDbEntity
  8
UMRISS05
100
AcDbLine
 10
766.2427358642412
 20
2776.592443567907
 30
0.0
 11
765.7428814093405
 21
2777.217059869261
 31
0.0
  0
LINE
  5
253
330
2
100
AcDbEntity
  8
UMRISS05
100
AcDbLine
 10
766.1646588265717
 20
2776.529961761044
 30
0.0
 11
767.4138914292784
 21
2777.529670670844
 31
0.0
  0
LINE
  5
254
330
2
100
AcDbEntity
  8
UMRISS05
100
AcDbLine
 10
764.290809922511
 20
2775.030398396345
 30
0.0
 11
765.5400425252178
 21
2776.030107306145
 31
0.0
  0
LINE
  5
255
330
2
100
AcDbEntity
  8
UMRISS05
100
AcDbLine
 10
765.6025243320796
 20
2775.952030268476
 30
0.0
 11
766.2271406334343
 21
2776.451884723376
 31
0.0
  0
LINE
  5
256
330
2
100
AcDbEntity
  8
UMRISS05
100
AcDbLine
 10
766.5397514350175
 20
2774.780874703438
 30
0.0
 11
767.1643677363713
 21
2775.280729158338
 31
0.0
  0
LINE
  5
257
330
2
100
AcDbEntity
  8
UMRISS05
100
AcDbLine
 10
764.6650954618713
 20
2778.403810665106
 30
0.0
 11
764.0404791605174
 21
2777.903956210206
 31
0.0
  0
LINE
  5
258
330
2
100
AcDbEntity
  8
UMRISS05
100
AcDbLine
 10
765.6023225648091
 20
2777.232655100068
 30
0.0
 11
764.9777062634552
 21
2776.732800645167
 31
0.0
  0
LINE
  5
259
330
2
100
AcDbEntity
  8
UMRISS05
100
AcDbLine
 10
765.5400425252178
 20
2776.030107306145
 30
0.0
 11
766.5397514350175
 21
2774.780874703438
 31
0.0
  0
LINE
  5
25A
330
2
100
AcDbEntity
  8
UMRISS05
100
AcDbLine
 10
764.0404791605174
 20
2777.903956210206
 30
0.0
 11
765.040188070318
 21
2776.654723607498
 31
0.0
  0
LINE
  5
25B
330
2
100
AcDbEntity
  8
UMRISS05
100
AcDbLine
 10
767.1643677363713
 20
2775.280729158338
 30
0.0
 11
766.1646588265717
 21
2776.529961761044
 31
0.0
  0
LINE
  5
25C
330
2
100
AcDbEntity
  8
UMRISS05
100
AcDbLine
 10
765.6648043716718
 20
2777.154578062398
 30
0.0
 11
764.6650954618713
 21
2778.403810665106
 31
0.0
  0
CIRCLE
  5
25D
330
2
100
AcDbEntity
  8
UMRISS05
100
AcDbCircle
 10
766.1024234484443
 20
2743.584528275991
 30
0.0
 40
2.999999999999971
  0
LINE
  5
25E
330
2
100
AcDbEntity
  8
UMRISS05
100
AcDbLine
 10
764.274665895658
 20
2742.679375068942
 30
0.0
 11
764.7633984793523
 21
2742.046018564566
 31
0.0
  0
LINE
  5
25F
330
2
100
AcDbEntity
  8
UMRISS05
100
AcDbLine
 10
767.9301810012307
 20
2744.48968148304
 30
0.0
 11
767.4414484175372
 21
2745.123037987416
 31
0.0
  0
LINE
  5
260
330
2
100
AcDbEntity
  8
UMRISS05
100
AcDbLine
 10
767.4414484175372
 20
2745.123037987416
 30
0.0
 11
766.1747354087851
 21
2744.145572820026
 31
0.0
  0
LINE
  5
261
330
2
100
AcDbEntity
  8
UMRISS05
100
AcDbLine
 10
765.5413789044091
 20
2743.656840236332
 30
0.0
 11
764.274665895658
 21
2742.679375068942
 31
0.0
  0
LINE
  5
262
330
2
100
AcDbEntity
  8
UMRISS05
100
AcDbLine
 10
765.4622093413625
 20
2743.595748663369
 30
0.0
 11
765.9509419250566
 21
2742.962392158993
 31
0.0
  0
LINE
  5
263
330
2
100
AcDbEntity
  8
UMRISS05
100
AcDbLine
 10
766.7426375555272
 20
2743.573307888612
 30
0.0
 11
766.253904971832
 21
2744.206664392988
 31
0.0
  0
LINE
  5
264
330
2
100
AcDbEntity
  8
UMRISS05
100
AcDbLine
 10
766.6634679924795
 20
2743.51221631565
 30
0.0
 11
767.9301810012307
 21
2744.48968148304
 31
0.0
  0
LINE
  5
265
330
2
100
AcDbEntity
  8
UMRISS05
100
AcDbLine
 10
764.7633984793523
 20
2742.046018564566
 30
0.0
 11
766.0301114881035
 21
2743.023483731956
 31
0.0
  0
LINE
  5
266
330
2
100
AcDbEntity
  8
UMRISS05
100
AcDbLine
 10
766.0912030610656
 20
2742.944314168909
 30
0.0
 11
766.7245595654417
 21
2743.433046752603
 31
0.0
  0
LINE
  5
267
330
2
100
AcDbEntity
  8
UMRISS05
100
AcDbLine
 10
767.0075766554933
 20
2741.756770723204
 30
0.0
 11
767.6409331598692
 21
2742.245503306899
 31
0.0
  0
LINE
  5
268
330
2
100
AcDbEntity
  8
UMRISS05
100
AcDbLine
 10
765.1972702413955
 20
2745.412285828777
 30
0.0
 11
764.5639137370194
 21
2744.923553245083
 31
0.0
  0
LINE
  5
269
330
2
100
AcDbEntity
  8
UMRISS05
100
AcDbLine
 10
766.1136438358233
 20
2744.224742383073
 30
0.0
 11
765.480287331447
 21
2743.736009799379
 31
0.0
  0
LINE
  5
26A
330
2
100
AcDbEntity
  8
UMRISS05
100
AcDbLine
 10
766.0301114881035
 20
2743.023483731956
 30
0.0
 11
767.0075766554933
 21
2741.756770723204
 31
0.0
  0
LINE
  5
26B
330
2
100
AcDbEntity
  8
UMRISS05
100
AcDbLine
 10
764.5639137370194
 20
2744.923553245083
 30
0.0
 11
765.5413789044091
 21
2743.656840236332
 31
0.0
  0
LINE
  5
26C
330
2
100
AcDbEntity
  8
UMRISS05
100
AcDbLine
 10
767.6409331598692
 20
2742.245503306899
 30
0.0
 11
766.6634679924795
 21
2743.51221631565
 31
0.0
  0
LINE
  5
26D
330
2
100
AcDbEntity
  8
UMRISS05
100
AcDbLine
 10
766.1747354087851
 20
2744.145572820026
 30
0.0
 11
765.1972702413955
 21
2745.412285828777
 31
0.0
  0
CIRCLE
  5
26E
330
2
100
AcDbEntity
  8
UMRISS05
100
AcDbCircle
 10
765.6024234484443
 20
2559.093180718662
 30
0.0
 40
2.549999999999998
  0
LINE
  5
26F
330
2
100
AcDbEntity
  8
UMRISS05
100
AcDbLine
 10
770.6024234484443
 20
2539.593180718663
 30
0.0
 11
770.6024234484443
 21
2565.093180718663
 31
0.0
  0
LINE
  5
270
330
2
100
AcDbEntity
  8
UMRISS05
100
AcDbLine
 10
760.6024234484443
 20
2539.593180718663
 30
0.0
 11
760.6024234484443
 21
2565.093180718663
 31
0.0
  0
LINE
  5
271
330
2
100
AcDbEntity
  8
UMRISS05
100
AcDbLine
 10
770.6024234484443
 20
2539.593180718663
 30
0.0
 11
760.6024234484443
 21
2539.593180718663
 31
0.0
  0
LINE
  5
272
330
2
100
AcDbEntity
  8
UMRISS05
100
AcDbLine
 10
770.6024234484443
 20
2565.093180718663
 30
0.0
 11
760.6024234484443
 21
2565.093180718663
 31
0.0
  0
CIRCLE
  5
273
330
2
100
AcDbEntity
  8
UMRISS05
100
AcDbCircle
 10
765.6024234484443
 20
2706.092342684271
 30
0.0
 40
4.749999999999955
  0
CIRCLE
  5
274
330
2
100
AcDbEntity
  8
UMRISS05
100
AcDbCircle
 10
765.6024234484443
 20
2706.092342684271
 30
0.0
 40
5.099999999999952
  0
LINE
  5
275
330
2
100
AcDbEntity
  8
UMRISS05
100
AcDbLine
 10
776.6024234484444
 20
2805.592342684271
 30
0.0
 11
776.6024234484444
 21
2847.161819829393
 31
0.0
  0
ARC
  5
276
330
2
100
AcDbEntity
  8
UMRISS05
100
AcDbCircle
 10
771.6024234484444
 20
2847.161819829393
 30
0.0
 40
5.000000000000011
100
AcDbArc
 50
0.0
 51
90.0
  0
LINE
  5
277
330
2
100
AcDbEntity
  8
UMRISS05
100
AcDbLine
 10
760.6023493718017
 20
2852.161819829394
 30
0.0
 11
759.6024234484444
 21
2852.161819829394
 31
0.0
  0
LINE
  5
278
330
2
100
AcDbEntity
  8
UMRISS05
100
AcDbLine
 10
771.6024234484444
 20
2852.161819829394
 30
0.0
 11
770.6023493725638
 21
2852.161819829394
 31
0.0
  0
ARC
  5
279
330
2
100
AcDbEntity
  8
UMRISS05
100
AcDbCircle
 10
759.6024234484444
 20
2847.161819829393
 30
0.0
 40
5.0
100
AcDbArc
 50
90.0
 51
180.0
  0
LINE
  5
27A
330
2
100
AcDbEntity
  8
UMRISS05
100
AcDbLine
 10
754.6024234484443
 20
2847.161819829393
 30
0.0
 11
754.6024234484443
 21
2805.592342684271
 31
0.0
  0
CIRCLE
  5
27B
330
2
100
AcDbEntity
  8
UMRISS05
100
AcDbCircle
 10
765.6024234484443
 20
2846.161819829394
 30
0.0
 40
2.6
  0
LINE
  5
27C
330
2
100
AcDbEntity
  8
UMRISS05
100
AcDbLine
 10
760.6024234484443
 20
2832.161819829393
 30
0.0
 11
760.6024234484443
 21
2805.592342684271
 31
0.0
  0
LINE
  5
27D
330
2
100
AcDbEntity
  8
UMRISS05
100
AcDbLine
 10
770.6024234484443
 20
2805.592342684271
 30
0.0
 11
770.6024234484443
 21
2832.161819829393
 31
0.0
  0
ARC
  5
27E
330
2
100
AcDbEntity
  8
UMRISS05
100
AcDbCircle
 10
765.6024234484443
 20
2832.161819829393
 30
0.0
 40
5.0
100
AcDbArc
 50
0.0
 51
180.0
  0
LINE
  5
27F
330
2
100
AcDbEntity
  8
UMRISS05
100
AcDbLine
 10
770.8173079318164
 20
2594.640515989898
 30
0.0
 11
772.4375389650735
 21
2597.847532338466
 31
0.0
  0
LINE
  5
280
330
2
100
AcDbEntity
  8
UMRISS05
100
AcDbLine
 10
770.6024234484443
 20
2572.215182789213
 30
0.0
 11
770.6024234484443
 21
2593.738649817848
 31
0.0
  0
ARC
  5
281
330
2
100
AcDbEntity
  8
UMRISS05
100
AcDbCircle
 10
765.6024234484443
 20
2572.215182789213
 30
0.0
 40
5.000000000000001
100
AcDbArc
 50
180.0
 51
0.0
  0
LINE
  5
282
330
2
100
AcDbEntity
  8
UMRISS05
100
AcDbLine
 10
760.6024234484443
 20
2594.215182789213
 30
0.0
 11
760.6024234484443
 21
2572.215182789213
 31
0.0
  0
ARC
  5
283
330
2
100
AcDbEntity
  8
UMRISS05
100
AcDbCircle
 10
765.6024234484443
 20
2594.215182789213
 30
0.0
 40
5.000000000000016
100
AcDbArc
 50
98.62692655865755
 51
180.0
  0
LINE
  5
284
330
2
100
AcDbEntity
  8
UMRISS05
100
AcDbLine
 10
766.552423448445
 20
2605.592342684271
 30
0.0
 11
766.552423448445
 21
2601.135984765862
 31
0.0
  0
LINE
  5
285
330
2
100
AcDbEntity
  8
UMRISS05
100
AcDbLine
 10
772.6524234484445
 20
2598.749398510518
 30
0.0
 11
772.6524234484445
 21
2605.592342684271
 31
0.0
  0
ARC
  5
286
330
2
100
AcDbEntity
  8
UMRISS05
100
AcDbCircle
 10
777.1024234484444
 20
2584.472865539152
 30
0.0
 40
0.5000000000000276
100
AcDbArc
 50
90.0
 51
180.0
  0
LINE
  5
287
330
2
100
AcDbEntity
  8
UMRISS05
100
AcDbLine
 10
777.1024234484444
 20
2584.972865539151
 30
0.0
 11
779.1024234484443
 21
2584.972865539151
 31
0.0
  0
ARC
  5
288
330
2
100
AcDbEntity
  8
UMRISS05
100
AcDbCircle
 10
779.1024234484443
 20
2585.472865539152
 30
0.0
 40
0.5000000000000254
100
AcDbArc
 50
270.0
 51
0.0
  0
LINE
  5
289
330
2
100
AcDbEntity
  8
UMRISS05
100
AcDbLine
 10
779.6024234484443
 20
2585.472865539152
 30
0.0
 11
779.6024234484443
 21
2605.592342684271
 31
0.0
  0
LINE
  5
28A
330
2
100
AcDbEntity
  8
UMRISS05
100
AcDbLine
 10
767.1024234484443
 20
2668.092342684271
 30
0.0
 11
767.1024234484443
 21
2675.092342684271
 31
0.0
  0
LINE
  5
28B
330
2
100
AcDbEntity
  8
UMRISS05
100
AcDbLine
 10
754.6024234484443
 20
2605.592342684271
 30
0.0
 11
754.6024234484443
 21
2559.005182789214
 31
0.0
  0
ARC
  5
28C
330
2
100
AcDbEntity
  8
UMRISS05
100
AcDbCircle
 10
759.6024234484461
 20
2559.005182789214
 30
0.0
 40
5.000000000001358
100
AcDbArc
 50
180.0
 51
270.0
  0
LINE
  5
28D
330
2
100
AcDbEntity
  8
UMRISS05
100
AcDbLine
 10
770.6024234484443
 20
2554.005182789213
 30
0.0
 11
771.6024234484434
 21
2554.005182789213
 31
0.0
  0
LINE
  5
28E
330
2
100
AcDbEntity
  8
Sichtbare Kanten(MSL)
100
AcDbLine
 10
759.6024234484461
 20
2554.005182789213
 30
0.0
 11
760.6024234484443
 21
2554.005182789213
 31
0.0
  0
ARC
  5
290
330
2
100
AcDbEntity
  8
UMRISS05
100
AcDbCircle
 10
771.6024234484434
 20
2559.005182789214
 30
0.0
 40
5.000000000001353
100
AcDbArc
 50
270.0
 51
0.0
  0
LINE
  5
291
330
2
100
AcDbEntity
  8
UMRISS05
100
AcDbLine
 10
776.6024234484444
 20
2559.005182789214
 30
0.0
 11
776.6024234484444
 21
2584.472865539152
 31
0.0
  0
ARC
  5
292
330
2
100
AcDbEntity
  8
UMRISS05
100
AcDbCircle
 10
764.5524234484451
 20
2601.135984765862
 30
0.0
 40
1.999999999999985
100
AcDbArc
 50
278.6269265587103
 51
0.0
  0
ARC
  5
293
330
2
100
AcDbEntity
  8
UMRISS05
100
AcDbCircle
 10
770.6524234484446
 20
2598.749398510518
 30
0.0
 40
1.999999999999974
100
AcDbArc
 50
333.1964344455004
 51
0.0
  0
ARC
  5
294
330
2
100
AcDbEntity
  8
UMRISS05
100
AcDbCircle
 10
772.6024234484444
 20
2593.738649817848
 30
0.0
 40
2.000000000000011
100
AcDbArc
 50
153.1964344455004
 51
180.0
  0
LINE
  5
295
330
2
100
AcDbEntity
  8
UMRISS05
100
AcDbLine
 10
792.6024234484407
 20
2692.092342684272
 30
0.0
 11
792.6024234484393
 21
2736.092342684271
 31
0.0
  0
LINE
  5
296
330
2
100
AcDbEntity
  8
UMRISS05
100
AcDbLine
 10
792.6024234484444
 20
2570.592342684271
 30
0.0
 11
792.6024234484421
 21
2643.092342684271
 31
0.0
  0
LINE
  5
297
330
2
100
AcDbEntity
  8
UMRISS05
100
AcDbLine
 10
792.6024234484444
 20
2799.092342684271
 30
0.0
 11
792.6024234484444
 21
2805.592342684271
 31
0.0
  0
CIRCLE
  5
298
330
2
100
AcDbEntity
  8
UMRISS05
100
AcDbCircle
 10
765.6024234484443
 20
2727.592342684271
 30
0.0
 40
9.050000000000002
  0
ARC
  5
299
330
2
100
AcDbEntity
  8
UMRISS05
100
AcDbCircle
 10
774.5877178374514
 20
2669.63066533929
 30
0.0
 40
0.4999999999999587
100
AcDbArc
 50
285.7947765070314
 51
15.74616180128543
  0
LINE
  5
29A
330
2
100
AcDbEntity
  8
UMRISS05
100
AcDbLine
 10
775.0689545463878
 20
2669.766353326862
 30
0.0
 11
773.4406979458358
 21
2675.541196492961
 31
0.0
  0
ARC
  5
29B
330
2
100
AcDbEntity
  8
UMRISS05
100
AcDbCircle
 10
772.9594612368987
 20
2675.405508505388
 30
0.0
 40
0.5000000000000174
100
AcDbArc
 50
15.74616180128543
 51
105.8083434064333
  0
ARC
  5
29C
330
2
100
AcDbEntity
  8
UMRISS05
100
AcDbCircle
 10
767.1024234484443
 20
2696.09234268427
 30
0.0
 40
20.99999999999836
100
AcDbArc
 50
269.4182340873386
 51
285.8083434064333
  0
ARC
  5
29D
330
2
100
AcDbEntity
  8
UMRISS05
100
AcDbCircle
 10
766.8841219905612
 20
2674.593450980896
 30
0.0
 40
0.5000000000000174
100
AcDbArc
 50
89.41823408733863
 51
175.941632534514
  0
LINE
  5
29E
330
2
100
AcDbEntity
  8
UMRISS05
100
AcDbLine
 10
766.3853757548472
 20
2674.62883731105
 30
0.0
 11
765.9601280333313
 21
2668.635260146503
 31
0.0
  0
ARC
  5
29F
330
2
100
AcDbEntity
  8
UMRISS05
100
AcDbCircle
 10
766.4588742690443
 20
2668.599873816349
 30
0.0
 40
0.4999999999999899
100
AcDbArc
 50
175.941632534514
 51
268.6590538825408
  0
ARC
  5
2A0
330
2
100
AcDbEntity
  8
UMRISS05
100
AcDbCircle
 10
767.1024234484443
 20
2696.092342684271
 30
0.0
 40
27.99999999999999
100
AcDbArc
 50
268.6590538825408
 51
285.7947765070856
  0
CIRCLE
  5
2A1
330
2
100
AcDbEntity
  8
UMRISS05
100
AcDbCircle
 10
784.6024234484444
 20
2727.592342684271
 30
0.0
 40
3.25
  0
CIRCLE
  5
2A2
330
2
100
AcDbEntity
  8
UMRISS05
100
AcDbCircle
 10
779.7024234484445
 20
2698.492342684271
 30
0.0
 40
3.25
  0
CIRCLE
  5
2A3
330
2
100
AcDbEntity
  8
UMRISS05
100
AcDbCircle
 10
766.1024234484443
 20
2743.592342684271
 30
0.0
 40
3.25
  0
CIRCLE
  5
2A4
330
2
100
AcDbEntity
  8
UMRISS05
100
AcDbCircle
 10
765.6024234484443
 20
2776.592342684271
 30
0.0
 40
3.25
  0
CIRCLE
  5
2A5
330
2
100
AcDbEntity
  8
UMRISS05
100
AcDbCircle
 10
769.6024234484443
 20
2625.592342684272
 30
0.0
 40
3.25
  0
LINE
  5
2A6
330
2
100
AcDbEntity
  8
UMRISS05
100
AcDbLine
 10
792.6024234484444
 20
2692.092342684271
 30
0.0
 11
777.1024234484444
 21
2692.092342684271
 31
0.0
  0
LINE
  5
2A7
330
2
100
AcDbEntity
  8
UMRISS05
100
AcDbLine
 10
777.1024234484444
 20
2692.092342684271
 30
0.0
 11
777.1024234484444
 21
2643.092342684271
 31
0.0
  0
LINE
  5
2A8
330
2
100
AcDbEntity
  8
UMRISS05
100
AcDbLine
 10
777.1024234484444
 20
2643.092342684271
 30
0.0
 11
792.6024234484444
 21
2643.092342684271
 31
0.0
  0
LINE
  5
2A9
330
2
100
AcDbEntity
  8
UMRISS05
100
AcDbLine
 10
777.1024234484444
 20
2736.092342684271
 30
0.0
 11
792.6024234484444
 21
2736.092342684271
 31
0.0
  0
LINE
  5
2AA
330
2
100
AcDbEntity
  8
UMRISS05
100
AcDbLine
 10
792.6024234484444
 20
2799.092342684271
 30
0.0
 11
777.1024234484444
 21
2799.092342684271
 31
0.0
  0
LINE
  5
2AB
330
2
100
AcDbEntity
  8
UMRISS05
100
AcDbLine
 10
777.1024234484444
 20
2799.092342684271
 30
0.0
 11
777.1024234484444
 21
2736.092342684271
 31
0.0
  0
LINE
  5
2AC
330
2
100
AcDbEntity
  8
UMRISS05
100
AcDbLine
 10
750.1024234484443
 20
2805.592342684271
 30
0.0
 11
750.1024234484443
 21
2605.592342684272
 31
0.0
  0
LINE
  5
2AD
330
2
100
AcDbEntity
  8
UMRISS05
100
AcDbLine
 10
792.6024234484444
 20
2805.592342684271
 30
0.0
 11
770.6024234484443
 21
2805.592342684271
 31
0.0
  0
LINE
  5
2AE
330
2
100
AcDbEntity
  8
UMRISS05
100
AcDbLine
 10
750.1024234484443
 20
2605.592342684272
 30
0.0
 11
792.6024234484444
 21
2605.592342684272
 31
0.0
  0
LINE
  5
2AF
330
2
100
AcDbEntity
  8
UMRISS05
100
AcDbLine
 10
760.6024234484443
 20
2805.592342684271
 30
0.0
 11
750.1024234484443
 21
2805.592342684271
 31
0.0
  0
LINE
  5
2B0
330
2
100
AcDbEntity
  8
UMRISS05
100
AcDbLine
 10
770.6024234484443
 20
2802.592342684271
 30
0.0
 11
770.6024234484443
 21
2805.592342684271
 31
0.0
  0
LINE
  5
2B1
330
2
100
AcDbEntity
  8
UMRISS05
100
AcDbLine
 10
760.6024234484443
 20
2805.592342684271
 30
0.0
 11
760.6024234484443
 21
2802.592342684271
 31
0.0
  0
ARC
  5
2B2
330
2
100
AcDbEntity
  8
UMRISS05
100
AcDbCircle
 10
765.6024234484443
 20
2802.592342684271
 30
0.0
 40
5.0
100
AcDbArc
 50
180.0
 51
0.0
  0
DIMENSION
  5
2B3
330
2
100
AcDbEntity
  8
BEMASSUNG
100
AcDbDimension
280
     0
  2
*D6
 10
576.656590443647
 20
2498.216969716935
 30
0.0
 11
564.656590443647
 21
2503.629602731942
 31
0.0
 71
     5
 42
24.0
 73
     0
 74
     0
 75
     0
  3
Katalog 09
100
AcDbAlignedDimension
 13
552.656590443647
 23
2570.592342684271
 33
0.0
 14
576.656590443647
 24
2570.592342684271
 34
0.0
100
AcDbRotatedDimension
1001
ACAD_DSTYLE_DIMINSPECT
1070
   396
1000
100%
1070
   395
1000

1070
   394
1070
    33
1070
   393
1070
     0
  0
DIMENSION
  5
2C0
330
2
100
AcDbEntity
  8
BEMASSUNG
100
AcDbDimension
280
     0
  2
*D5
 10
512.3588210627663
 20
2644.092342684271
 30
0.0
 11
506.8806116493962
 21
2685.842342684271
 31
0.0
 71
     5
 42
83.49999999999999
 73
     0
 74
     0
 75
     0
  3
Katalog 09
100
AcDbAlignedDimension
 13
534.4504512051912
 23
2727.592342684271
 33
0.0
 14
560.156590443647
 24
2644.092342684271
 34
0.0
 50
90.0
100
AcDbRotatedDimension
1001
ACAD_DSTYLE_DIMINSPECT
1070
   396
1000
100%
1070
   395
1000

1070
   394
1070
    33
1070
   393
1070
     0
  0
DIMENSION
  5
2CD
330
2
100
AcDbEntity
  8
BEMASSUNG
100
AcDbDimension
280
     0
  2
*D4
 10
531.7392170486705
 20
2691.092342684271
 30
0.0
 11
526.2610076353004
 21
2709.342342684271
 31
0.0
 71
     5
 42
36.5
 73
     0
 74
     0
 75
     0
  3
Katalog 09
100
AcDbAlignedDimension
 13
556.4565904436462
 23
2727.592342684271
 33
0.0
 14
559.156590443647
 24
2691.092342684271
 34
0.0
 50
90.0
100
AcDbRotatedDimension
1001
ACAD
1000
DSTYLE
1002
{
1070
   271
1070
     1
1002
}
1001
ACAD_DSTYLE_DIMINSPECT
1070
   396
1000
100%
1070
   395
1000

1070
   394
1070
    33
1070
   393
1070
     0
  0
DIMENSION
  5
2DA
330
2
100
AcDbEntity
  8
BEMASSUNG
100
AcDbDimension
280
     0
  2
*D3
 10
512.3588210627663
 20
2727.592342684271
 30
0.0
 11
506.8806116493962
 21
2809.092342684271
 31
0.0
 71
     5
 42
163.0
 73
     0
 74
     0
 75
     0
  3
Katalog 09
100
AcDbAlignedDimension
 13
552.656590443647
 23
2890.592342684271
 33
0.0
 14
545.8713556505722
 24
2727.592342684271
 34
0.0
 50
90.0
100
AcDbRotatedDimension
1001
ACAD_DSTYLE_DIMINSPECT
1070
   396
1000
100%
1070
   395
1000

1070
   394
1070
    33
1070
   393
1070
     0
  0
DIMENSION
  5
2E7
330
2
100
AcDbEntity
  8
BEMASSUNG
100
AcDbDimension
280
     0
  2
*D2
 10
491.12200914704
 20
2570.592342684271
 30
0.0
 11
485.6437997336699
 21
2730.592342684271
 31
0.0
 71
     5
 42
320.0
 73
     0
 74
     0
 75
     0
  3
Katalog 09
100
AcDbAlignedDimension
 13
552.656590443647
 23
2890.592342684271
 33
0.0
 14
552.656590443647
 24
2570.592342684271
 34
0.0
 50
90.0
100
AcDbRotatedDimension
1001
ACAD_DSTYLE_DIMINSPECT
1070
   396
1000
100%
1070
   395
1000

1070
   394
1070
    33
1070
   393
1070
     0
  0
LINE
  5
2F4
330
2
100
AcDbEntity
  8
ACHSEN
 48
0.8
100
AcDbLine
 10
551.533606798192
 20
2767.592342684271
 30
0.0
 11
577.9615551955653
 21
2767.592342684271
 31
0.0
  0
LINE
  5
2F5
330
2
100
AcDbEntity
  8
UMRISS05
100
AcDbLine
 10
567.9565904436462
 20
2751.842342684271
 30
0.0
 11
566.2565904436465
 21
2751.842342684271
 31
0.0
  0
LINE
  5
2F6
330
2
100
AcDbEntity
  8
UMRISS05
100
AcDbLine
 10
563.9565904436462
 20
2751.842342684271
 30
0.0
 11
563.9565904436462
 21
2752.44234268427
 31
0.0
  0
LINE
  5
2F7
330
2
100
AcDbEntity
  8
UMRISS05
100
AcDbLine
 10
566.2565904436465
 20
2752.44234268427
 30
0.0
 11
567.9565904436462
 21
2752.44234268427
 31
0.0
  0
LINE
  5
2F8
330
2
100
AcDbEntity
  8
UMRISS05
100
AcDbLine
 10
567.9565904436462
 20
2752.44234268427
 30
0.0
 11
567.9565904436462
 21
2751.842342684271
 31
0.0
  0
LINE
  5
2F9
330
2
100
AcDbEntity
  8
UMRISS05
100
AcDbLine
 10
565.656590443647
 20
2751.842342684271
 30
0.0
 11
563.9565904436462
 21
2751.842342684271
 31
0.0
  0
LINE
  5
2FA
330
2
100
AcDbEntity
  8
UMRISS05
100
AcDbLine
 10
563.9565904436462
 20
2752.44234268427
 30
0.0
 11
565.656590443647
 21
2752.44234268427
 31
0.0
  0
LINE
  5
2FB
330
2
100
AcDbEntity
  8
UMRISS05
100
AcDbLine
 10
566.2565904436465
 20
2750.14234268427
 30
0.0
 11
565.6565904436461
 21
2750.14234268427
 31
0.0
  0
LINE
  5
2FC
330
2
100
AcDbEntity
  8
UMRISS05
100
AcDbLine
 10
565.656590443647
 20
2752.44234268427
 30
0.0
 11
565.656590443647
 21
2754.14234268427
 31
0.0
  0
LINE
  5
2FD
330
2
100
AcDbEntity
  8
UMRISS05
100
AcDbLine
 10
565.656590443647
 20
2754.14234268427
 30
0.0
 11
566.2565904436465
 21
2754.14234268427
 31
0.0
  0
LINE
  5
2FE
330
2
100
AcDbEntity
  8
UMRISS05
100
AcDbLine
 10
565.6565904436461
 20
2750.14234268427
 30
0.0
 11
565.656590443647
 21
2751.842342684271
 31
0.0
  0
LINE
  5
2FF
330
2
100
AcDbEntity
  8
UMRISS05
100
AcDbLine
 10
566.2565904436465
 20
2754.14234268427
 30
0.0
 11
566.2565904436465
 21
2752.44234268427
 31
0.0
  0
LINE
  5
300
330
2
100
AcDbEntity
  8
UMRISS05
100
AcDbLine
 10
566.2565904436465
 20
2751.842342684271
 30
0.0
 11
566.2565904436465
 21
2750.14234268427
 31
0.0
  0
CIRCLE
  5
301
330
2
100
AcDbEntity
  8
UMRISS05
100
AcDbCircle
 10
565.9565904436463
 20
2752.142342684271
 30
0.0
 40
4.0
  0
LINE
  5
302
330
2
100
AcDbEntity
  8
UMRISS05
100
AcDbLine
 10
567.9565904436462
 20
2782.842342684271
 30
0.0
 11
566.2565904436465
 21
2782.842342684271
 31
0.0
  0
LINE
  5
303
330
2
100
AcDbEntity
  8
UMRISS05
100
AcDbLine
 10
563.9565904436462
 20
2782.842342684271
 30
0.0
 11
563.9565904436462
 21
2783.442342684271
 31
0.0
  0
LINE
  5
304
330
2
100
AcDbEntity
  8
UMRISS05
100
AcDbLine
 10
566.2565904436465
 20
2783.442342684271
 30
0.0
 11
567.9565904436462
 21
2783.442342684271
 31
0.0
  0
LINE
  5
305
330
2
100
AcDbEntity
  8
UMRISS05
100
AcDbLine
 10
567.9565904436462
 20
2783.442342684271
 30
0.0
 11
567.9565904436462
 21
2782.842342684271
 31
0.0
  0
LINE
  5
306
330
2
100
AcDbEntity
  8
UMRISS05
100
AcDbLine
 10
565.656590443647
 20
2782.842342684271
 30
0.0
 11
563.9565904436462
 21
2782.842342684271
 31
0.0
  0
LINE
  5
307
330
2
100
AcDbEntity
  8
UMRISS05
100
AcDbLine
 10
563.9565904436462
 20
2783.442342684271
 30
0.0
 11
565.656590443647
 21
2783.442342684271
 31
0.0
  0
LINE
  5
308
330
2
100
AcDbEntity
  8
UMRISS05
100
AcDbLine
 10
566.2565904436465
 20
2781.142342684271
 30
0.0
 11
565.6565904436461
 21
2781.142342684271
 31
0.0
  0
LINE
  5
309
330
2
100
AcDbEntity
  8
UMRISS05
100
AcDbLine
 10
565.656590443647
 20
2783.442342684271
 30
0.0
 11
565.656590443647
 21
2785.142342684271
 31
0.0
  0
LINE
  5
30A
330
2
100
AcDbEntity
  8
UMRISS05
100
AcDbLine
 10
565.656590443647
 20
2785.142342684271
 30
0.0
 11
566.2565904436465
 21
2785.142342684271
 31
0.0
  0
LINE
  5
30B
330
2
100
AcDbEntity
  8
UMRISS05
100
AcDbLine
 10
565.6565904436461
 20
2781.142342684271
 30
0.0
 11
565.656590443647
 21
2782.842342684271
 31
0.0
  0
LINE
  5
30C
330
2
100
AcDbEntity
  8
UMRISS05
100
AcDbLine
 10
566.2565904436465
 20
2785.142342684271
 30
0.0
 11
566.2565904436465
 21
2783.442342684271
 31
0.0
  0
LINE
  5
30D
330
2
100
AcDbEntity
  8
UMRISS05
100
AcDbLine
 10
566.2565904436465
 20
2782.842342684271
 30
0.0
 11
566.2565904436465
 21
2781.142342684271
 31
0.0
  0
CIRCLE
  5
30E
330
2
100
AcDbEntity
  8
UMRISS05
100
AcDbCircle
 10
565.9565904436463
 20
2783.142342684271
 30
0.0
 40
4.0
  0
ARC
  5
30F
330
2
100
AcDbEntity
  8
UMRISS05
100
AcDbCircle
 10
562.7565904436464
 20
2752.142342684271
 30
0.0
 40
2.150000000000004
100
AcDbArc
 50
94.7418902610949
 51
265.2581097388527
  0
LINE
  5
310
330
2
100
AcDbEntity
  8
UMRISS05
100
AcDbLine
 10
565.9565904436463
 20
2787.142342684271
 30
0.0
 11
562.7565904436464
 21
2787.142342684271
 31
0.0
  0
ARC
  5
311
330
2
100
AcDbEntity
  8
UMRISS05
100
AcDbCircle
 10
562.7565904436464
 20
2783.142342684272
 30
0.0
 40
4.000000000000009
100
AcDbArc
 50
90.0
 51
270.0
  0
LINE
  5
312
330
2
100
AcDbEntity
  8
UMRISS05
100
AcDbLine
 10
562.7565904436464
 20
2779.142342684272
 30
0.0
 11
565.9565904436463
 21
2779.142342684272
 31
0.0
  0
LINE
  5
313
330
2
100
AcDbEntity
  8
UMRISS05
100
AcDbLine
 10
565.9565904436463
 20
2756.142342684273
 30
0.0
 11
562.7565904436464
 21
2756.142342684273
 31
0.0
  0
ARC
  5
314
330
2
100
AcDbEntity
  8
UMRISS05
100
AcDbCircle
 10
562.7565904436464
 20
2752.142342684271
 30
0.0
 40
4.000000000000009
100
AcDbArc
 50
90.0
 51
270.0
  0
LINE
  5
315
330
2
100
AcDbEntity
  8
UMRISS05
100
AcDbLine
 10
562.7565904436464
 20
2748.142342684272
 30
0.0
 11
565.9565904436463
 21
2748.142342684272
 31
0.0
  0
ARC
  5
316
330
2
100
AcDbEntity
  8
UMRISS05
100
AcDbCircle
 10
562.7565904436464
 20
2783.142342684272
 30
0.0
 40
2.150000000000004
100
AcDbArc
 50
94.7418902610949
 51
265.2581097388527
  0
LINE
  5
317
330
2
100
AcDbEntity
  8
ACHSEN
 48
0.8
100
AcDbLine
 10
573.4565904436463
 20
2752.092342684271
 30
0.0
 11
558.5065904436464
 21
2752.092342684271
 31
0.0
  0
LINE
  5
318
330
2
100
AcDbEntity
  8
ACHSEN
 48
0.8
100
AcDbLine
 10
558.5065904436464
 20
2783.092342684271
 30
0.0
 11
573.3726967088155
 21
2783.092342684271
 31
0.0
  0
LINE
  5
319
330
2
100
AcDbEntity
  8
UMRISS05
100
AcDbLine
 10
558.6565904436469
 20
2746.592342684271
 30
0.0
 11
558.6565904436469
 21
2788.592342684271
 31
0.0
  0
ARC
  5
31A
330
2
100
AcDbEntity
  8
UMRISS05
100
AcDbCircle
 10
559.656590443647
 20
2788.592342684271
 30
0.0
 40
1.0
100
AcDbArc
 50
90.0
 51
180.0
  0
LINE
  5
31B
330
2
100
AcDbEntity
  8
UMRISS05
100
AcDbLine
 10
559.656590443647
 20
2789.592342684271
 30
0.0
 11
567.2423768812737
 21
2789.592342684271
 31
0.0
  0
ARC
  5
31C
330
2
100
AcDbEntity
  8
UMRISS05
100
AcDbCircle
 10
567.2423768812737
 20
2790.592342684271
 30
0.0
 40
0.9999999999999742
100
AcDbArc
 50
270.0
 51
315.0000000000092
  0
LINE
  5
31D
330
2
100
AcDbEntity
  8
UMRISS05
100
AcDbLine
 10
567.9494836624603
 20
2789.885235903085
 30
0.0
 11
569.3636972248336
 21
2791.299449465458
 31
0.0
  0
ARC
  5
31E
330
2
100
AcDbEntity
  8
UMRISS05
100
AcDbCircle
 10
570.0708040060194
 20
2790.592342684271
 30
0.0
 40
0.9999999999999998
100
AcDbArc
 50
90.0
 51
135.0000000000092
  0
LINE
  5
31F
330
2
100
AcDbEntity
  8
UMRISS05
100
AcDbLine
 10
570.0708040060194
 20
2791.592342684272
 30
0.0
 11
576.656590443647
 21
2791.592342684272
 31
0.0
  0
LINE
  5
320
330
2
100
AcDbEntity
  8
UMRISS05
100
AcDbLine
 10
576.656590443647
 20
2743.592342684271
 30
0.0
 11
570.0708040060194
 21
2743.592342684271
 31
0.0
  0
ARC
  5
321
330
2
100
AcDbEntity
  8
UMRISS05
100
AcDbCircle
 10
570.0708040060203
 20
2744.592342684271
 30
0.0
 40
1.000000000000119
100
AcDbArc
 50
224.9999999999908
 51
270.0
  0
LINE
  5
322
330
2
100
AcDbEntity
  8
UMRISS05
100
AcDbLine
 10
569.3636972248336
 20
2743.885235903085
 30
0.0
 11
567.9494836624603
 21
2745.299449465457
 31
0.0
  0
ARC
  5
323
330
2
100
AcDbEntity
  8
UMRISS05
100
AcDbCircle
 10
567.2423768812737
 20
2744.59234268427
 30
0.0
 40
1.000000000000121
100
AcDbArc
 50
44.99999999999078
 51
90.0
  0
LINE
  5
324
330
2
100
AcDbEntity
  8
UMRISS05
100
AcDbLine
 10
567.2423768812737
 20
2745.592342684271
 30
0.0
 11
559.656590443647
 21
2745.592342684271
 31
0.0
  0
ARC
  5
325
330
2
100
AcDbEntity
  8
UMRISS05
100
AcDbCircle
 10
559.656590443647
 20
2746.592342684271
 30
0.0
 40
0.9999999999999964
100
AcDbArc
 50
180.0
 51
270.0
  0
LINE
  5
326
330
2
100
AcDbEntity
  8
UMRISS05
100
AcDbLine
 10
564.3565904436468
 20
2743.342342684271
 30
0.0
 11
564.9565904436463
 21
2743.342342684271
 31
0.0
  0
LINE
  5
327
330
2
100
AcDbEntity
  8
UMRISS05
100
AcDbLine
 10
576.5565904436466
 20
2744.692342684271
 30
0.0
 11
576.5565904436466
 21
2790.592342684271
 31
0.0
  0
LINE
  5
328
330
2
100
AcDbEntity
  8
UMRISS05
100
AcDbLine
 10
570.156590443647
 20
2790.592342684271
 30
0.0
 11
570.156590443647
 21
2744.692342684271
 31
0.0
  0
LINE
  5
329
330
2
100
AcDbEntity
  8
UMRISS05
100
AcDbLine
 10
576.5565904436466
 20
2744.692342684271
 30
0.0
 11
568.5565904436466
 21
2744.692342684271
 31
0.0
  0
LINE
  5
32A
330
2
100
AcDbEntity
  8
UMRISS05
100
AcDbLine
 10
568.656590443647
 20
2790.592342684271
 30
0.0
 11
576.5565904436466
 21
2790.592342684271
 31
0.0
  0
LINE
  5
32B
330
2
100
AcDbEntity
  8
UMRISS05
100
AcDbLine
 10
574.3565904436468
 20
2743.992342684271
 30
0.0
 11
574.3565904436468
 21
2743.592342684271
 31
0.0
  0
LINE
  5
32C
330
2
100
AcDbEntity
  8
UMRISS05
100
AcDbLine
 10
574.3565904436468
 20
2743.992342684271
 30
0.0
 11
574.3565904436468
 21
2744.692342684271
 31
0.0
  0
LINE
  5
32D
330
2
100
AcDbEntity
  8
UMRISS05
100
AcDbLine
 10
564.3565904436468
 20
2791.842342684271
 30
0.0
 11
564.9565904436463
 21
2791.842342684271
 31
0.0
  0
LINE
  5
32E
330
2
100
AcDbEntity
  8
UMRISS05
100
AcDbLine
 10
564.3565904436468
 20
2800.592342684271
 30
0.0
 11
564.9565904436463
 21
2800.592342684271
 31
0.0
  0
LINE
  5
32F
330
2
100
AcDbEntity
  8
UMRISS05
100
AcDbLine
 10
564.3565904436477
 20
2616.592342684271
 30
0.0
 11
564.9565904436472
 21
2616.592342684271
 31
0.0
  0
LINE
  5
330
330
2
100
AcDbEntity
  8
UMRISS05
100
AcDbLine
 10
564.3565904436477
 20
2696.092342684271
 30
0.0
 11
564.9565904436472
 21
2696.092342684271
 31
0.0
  0
LINE
  5
331
330
2
100
AcDbEntity
  8
UMRISS05
100
AcDbLine
 10
564.3565904436468
 20
2739.342342684271
 30
0.0
 11
564.9565904436463
 21
2739.342342684271
 31
0.0
  0
LINE
  5
332
330
2
100
AcDbEntity
  8
UMRISS05
100
AcDbLine
 10
564.3565904436468
 20
2729.092342684271
 30
0.0
 11
564.9565904436463
 21
2729.092342684271
 31
0.0
  0
LINE
  5
333
330
2
100
AcDbEntity
  8
UMRISS05
100
AcDbLine
 10
566.656590443647
 20
2618.292342684271
 30
0.0
 11
564.9565904436481
 21
2618.292342684271
 31
0.0
  0
LINE
  5
334
330
2
100
AcDbEntity
  8
UMRISS05
100
AcDbLine
 10
562.6565904436469
 20
2618.292342684271
 30
0.0
 11
562.6565904436469
 21
2618.892342684271
 31
0.0
  0
LINE
  5
335
330
2
100
AcDbEntity
  8
UMRISS05
100
AcDbLine
 10
564.9565904436481
 20
2618.892342684271
 30
0.0
 11
566.656590443647
 21
2618.892342684271
 31
0.0
  0
LINE
  5
336
330
2
100
AcDbEntity
  8
UMRISS05
100
AcDbLine
 10
566.656590443647
 20
2618.892342684271
 30
0.0
 11
566.656590443647
 21
2618.292342684271
 31
0.0
  0
LINE
  5
337
330
2
100
AcDbEntity
  8
UMRISS05
100
AcDbLine
 10
564.3565904436477
 20
2618.292342684271
 30
0.0
 11
562.6565904436469
 21
2618.292342684272
 31
0.0
  0
LINE
  5
338
330
2
100
AcDbEntity
  8
UMRISS05
100
AcDbLine
 10
562.6565904436469
 20
2618.892342684271
 30
0.0
 11
564.3565904436477
 21
2618.892342684271
 31
0.0
  0
LINE
  5
339
330
2
100
AcDbEntity
  8
UMRISS05
100
AcDbLine
 10
564.3565904436477
 20
2618.892342684271
 30
0.0
 11
564.3565904436477
 21
2620.592342684271
 31
0.0
  0
LINE
  5
33A
330
2
100
AcDbEntity
  8
UMRISS05
100
AcDbLine
 10
564.3565904436477
 20
2620.592342684271
 30
0.0
 11
564.9565904436481
 21
2620.592342684271
 31
0.0
  0
LINE
  5
33B
330
2
100
AcDbEntity
  8
UMRISS05
100
AcDbLine
 10
564.3565904436477
 20
2616.592342684271
 30
0.0
 11
564.3565904436477
 21
2618.292342684271
 31
0.0
  0
LINE
  5
33C
330
2
100
AcDbEntity
  8
UMRISS05
100
AcDbLine
 10
564.9565904436481
 20
2620.592342684271
 30
0.0
 11
564.9565904436481
 21
2618.892342684271
 31
0.0
  0
LINE
  5
33D
330
2
100
AcDbEntity
  8
UMRISS05
100
AcDbLine
 10
564.9565904436481
 20
2618.292342684271
 30
0.0
 11
564.9565904436472
 21
2616.592342684271
 31
0.0
  0
CIRCLE
  5
33E
330
2
100
AcDbEntity
  8
UMRISS05
100
AcDbCircle
 10
564.656590443647
 20
2618.592342684271
 30
0.0
 40
4.0
  0
LINE
  5
33F
330
2
100
AcDbEntity
  8
UMRISS05
100
AcDbLine
 10
566.656590443647
 20
2697.792342684271
 30
0.0
 11
564.9565904436481
 21
2697.792342684271
 31
0.0
  0
LINE
  5
340
330
2
100
AcDbEntity
  8
UMRISS05
100
AcDbLine
 10
562.6565904436469
 20
2697.792342684271
 30
0.0
 11
562.6565904436469
 21
2698.392342684272
 31
0.0
  0
LINE
  5
341
330
2
100
AcDbEntity
  8
UMRISS05
100
AcDbLine
 10
564.9565904436481
 20
2698.392342684272
 30
0.0
 11
566.656590443647
 21
2698.392342684272
 31
0.0
  0
LINE
  5
342
330
2
100
AcDbEntity
  8
UMRISS05
100
AcDbLine
 10
566.656590443647
 20
2698.392342684272
 30
0.0
 11
566.656590443647
 21
2697.792342684271
 31
0.0
  0
LINE
  5
343
330
2
100
AcDbEntity
  8
UMRISS05
100
AcDbLine
 10
564.3565904436477
 20
2697.792342684271
 30
0.0
 11
562.6565904436469
 21
2697.792342684271
 31
0.0
  0
LINE
  5
344
330
2
100
AcDbEntity
  8
UMRISS05
100
AcDbLine
 10
562.6565904436469
 20
2698.392342684272
 30
0.0
 11
564.3565904436477
 21
2698.392342684272
 31
0.0
  0
LINE
  5
345
330
2
100
AcDbEntity
  8
UMRISS05
100
AcDbLine
 10
564.3565904436477
 20
2698.392342684272
 30
0.0
 11
564.3565904436477
 21
2700.092342684271
 31
0.0
  0
LINE
  5
346
330
2
100
AcDbEntity
  8
UMRISS05
100
AcDbLine
 10
564.3565904436477
 20
2700.092342684271
 30
0.0
 11
564.9565904436481
 21
2700.092342684271
 31
0.0
  0
LINE
  5
347
330
2
100
AcDbEntity
  8
UMRISS05
100
AcDbLine
 10
564.3565904436477
 20
2696.092342684271
 30
0.0
 11
564.3565904436477
 21
2697.792342684271
 31
0.0
  0
LINE
  5
348
330
2
100
AcDbEntity
  8
UMRISS05
100
AcDbLine
 10
564.9565904436481
 20
2700.092342684271
 30
0.0
 11
564.9565904436481
 21
2698.392342684272
 31
0.0
  0
LINE
  5
349
330
2
100
AcDbEntity
  8
UMRISS05
100
AcDbLine
 10
564.9565904436481
 20
2697.792342684271
 30
0.0
 11
564.9565904436472
 21
2696.092342684271
 31
0.0
  0
CIRCLE
  5
34A
330
2
100
AcDbEntity
  8
UMRISS05
100
AcDbCircle
 10
564.656590443647
 20
2698.092342684271
 30
0.0
 40
4.0
  0
LINE
  5
34B
330
2
100
AcDbEntity
  8
UMRISS05
100
AcDbLine
 10
566.656590443647
 20
2730.792342684271
 30
0.0
 11
564.9565904436472
 21
2730.792342684271
 31
0.0
  0
LINE
  5
34C
330
2
100
AcDbEntity
  8
UMRISS05
100
AcDbLine
 10
562.6565904436469
 20
2730.792342684271
 30
0.0
 11
562.6565904436469
 21
2731.392342684272
 31
0.0
  0
LINE
  5
34D
330
2
100
AcDbEntity
  8
UMRISS05
100
AcDbLine
 10
564.9565904436472
 20
2731.392342684272
 30
0.0
 11
566.656590443647
 21
2731.392342684272
 31
0.0
  0
LINE
  5
34E
330
2
100
AcDbEntity
  8
UMRISS05
100
AcDbLine
 10
566.656590443647
 20
2731.392342684272
 30
0.0
 11
566.656590443647
 21
2730.792342684271
 31
0.0
  0
LINE
  5
34F
330
2
100
AcDbEntity
  8
UMRISS05
100
AcDbLine
 10
564.3565904436468
 20
2730.792342684271
 30
0.0
 11
562.6565904436469
 21
2730.792342684272
 31
0.0
  0
LINE
  5
350
330
2
100
AcDbEntity
  8
UMRISS05
100
AcDbLine
 10
562.6565904436469
 20
2731.392342684272
 30
0.0
 11
564.3565904436468
 21
2731.392342684272
 31
0.0
  0
LINE
  5
351
330
2
100
AcDbEntity
  8
UMRISS05
100
AcDbLine
 10
564.3565904436468
 20
2731.392342684272
 30
0.0
 11
564.3565904436468
 21
2733.092342684271
 31
0.0
  0
LINE
  5
352
330
2
100
AcDbEntity
  8
UMRISS05
100
AcDbLine
 10
564.3565904436468
 20
2733.092342684271
 30
0.0
 11
564.9565904436472
 21
2733.092342684271
 31
0.0
  0
LINE
  5
353
330
2
100
AcDbEntity
  8
UMRISS05
100
AcDbLine
 10
564.3565904436468
 20
2729.092342684271
 30
0.0
 11
564.3565904436468
 21
2730.792342684271
 31
0.0
  0
LINE
  5
354
330
2
100
AcDbEntity
  8
UMRISS05
100
AcDbLine
 10
564.9565904436472
 20
2733.092342684271
 30
0.0
 11
564.9565904436472
 21
2731.392342684272
 31
0.0
  0
LINE
  5
355
330
2
100
AcDbEntity
  8
UMRISS05
100
AcDbLine
 10
564.9565904436472
 20
2730.792342684271
 30
0.0
 11
564.9565904436463
 21
2729.092342684271
 31
0.0
  0
CIRCLE
  5
356
330
2
100
AcDbEntity
  8
UMRISS05
100
AcDbCircle
 10
564.656590443647
 20
2731.092342684271
 30
0.0
 40
4.0
  0
LINE
  5
357
330
2
100
AcDbEntity
  8
UMRISS05
100
AcDbLine
 10
566.656590443647
 20
2741.042342684271
 30
0.0
 11
564.9565904436472
 21
2741.042342684271
 31
0.0
  0
LINE
  5
358
330
2
100
AcDbEntity
  8
UMRISS05
100
AcDbLine
 10
562.6565904436469
 20
2741.042342684271
 30
0.0
 11
562.6565904436469
 21
2741.642342684273
 31
0.0
  0
LINE
  5
359
330
2
100
AcDbEntity
  8
UMRISS05
100
AcDbLine
 10
564.9565904436472
 20
2741.642342684273
 30
0.0
 11
566.656590443647
 21
2741.642342684273
 31
0.0
  0
LINE
  5
35A
330
2
100
AcDbEntity
  8
UMRISS05
100
AcDbLine
 10
566.656590443647
 20
2741.642342684273
 30
0.0
 11
566.656590443647
 21
2741.042342684271
 31
0.0
  0
LINE
  5
35B
330
2
100
AcDbEntity
  8
UMRISS05
100
AcDbLine
 10
564.3565904436468
 20
2741.042342684271
 30
0.0
 11
562.6565904436469
 21
2741.042342684272
 31
0.0
  0
LINE
  5
35C
330
2
100
AcDbEntity
  8
UMRISS05
100
AcDbLine
 10
562.6565904436469
 20
2741.642342684273
 30
0.0
 11
564.3565904436468
 21
2741.642342684273
 31
0.0
  0
LINE
  5
35D
330
2
100
AcDbEntity
  8
UMRISS05
100
AcDbLine
 10
564.3565904436468
 20
2741.642342684273
 30
0.0
 11
564.3565904436468
 21
2743.342342684271
 31
0.0
  0
LINE
  5
35E
330
2
100
AcDbEntity
  8
UMRISS05
100
AcDbLine
 10
564.3565904436468
 20
2743.342342684271
 30
0.0
 11
564.9565904436472
 21
2743.342342684271
 31
0.0
  0
LINE
  5
35F
330
2
100
AcDbEntity
  8
UMRISS05
100
AcDbLine
 10
564.3565904436468
 20
2739.342342684271
 30
0.0
 11
564.3565904436468
 21
2741.042342684271
 31
0.0
  0
LINE
  5
360
330
2
100
AcDbEntity
  8
UMRISS05
100
AcDbLine
 10
564.9565904436472
 20
2743.342342684271
 30
0.0
 11
564.9565904436472
 21
2741.642342684273
 31
0.0
  0
LINE
  5
361
330
2
100
AcDbEntity
  8
UMRISS05
100
AcDbLine
 10
564.9565904436472
 20
2741.042342684271
 30
0.0
 11
564.9565904436463
 21
2739.342342684271
 31
0.0
  0
CIRCLE
  5
362
330
2
100
AcDbEntity
  8
UMRISS05
100
AcDbCircle
 10
564.656590443647
 20
2741.342342684272
 30
0.0
 40
4.0
  0
LINE
  5
363
330
2
100
AcDbEntity
  8
UMRISS05
100
AcDbLine
 10
566.656590443647
 20
2793.542342684271
 30
0.0
 11
564.9565904436472
 21
2793.542342684271
 31
0.0
  0
LINE
  5
364
330
2
100
AcDbEntity
  8
UMRISS05
100
AcDbLine
 10
562.6565904436469
 20
2793.542342684271
 30
0.0
 11
562.6565904436469
 21
2794.142342684271
 31
0.0
  0
LINE
  5
365
330
2
100
AcDbEntity
  8
UMRISS05
100
AcDbLine
 10
564.9565904436472
 20
2794.142342684271
 30
0.0
 11
566.656590443647
 21
2794.142342684271
 31
0.0
  0
LINE
  5
366
330
2
100
AcDbEntity
  8
UMRISS05
100
AcDbLine
 10
566.656590443647
 20
2794.142342684271
 30
0.0
 11
566.656590443647
 21
2793.542342684271
 31
0.0
  0
LINE
  5
367
330
2
100
AcDbEntity
  8
UMRISS05
100
AcDbLine
 10
564.3565904436468
 20
2793.542342684271
 30
0.0
 11
562.6565904436469
 21
2793.542342684271
 31
0.0
  0
LINE
  5
368
330
2
100
AcDbEntity
  8
UMRISS05
100
AcDbLine
 10
562.6565904436469
 20
2794.142342684271
 30
0.0
 11
564.3565904436468
 21
2794.142342684271
 31
0.0
  0
LINE
  5
369
330
2
100
AcDbEntity
  8
UMRISS05
100
AcDbLine
 10
564.3565904436468
 20
2794.142342684271
 30
0.0
 11
564.3565904436468
 21
2795.842342684271
 31
0.0
  0
LINE
  5
36A
330
2
100
AcDbEntity
  8
UMRISS05
100
AcDbLine
 10
564.3565904436468
 20
2795.842342684271
 30
0.0
 11
564.9565904436472
 21
2795.842342684271
 31
0.0
  0
LINE
  5
36B
330
2
100
AcDbEntity
  8
UMRISS05
100
AcDbLine
 10
564.3565904436468
 20
2791.842342684271
 30
0.0
 11
564.3565904436468
 21
2793.542342684271
 31
0.0
  0
LINE
  5
36C
330
2
100
AcDbEntity
  8
UMRISS05
100
AcDbLine
 10
564.9565904436472
 20
2795.842342684271
 30
0.0
 11
564.9565904436472
 21
2794.142342684271
 31
0.0
  0
LINE
  5
36D
330
2
100
AcDbEntity
  8
UMRISS05
100
AcDbLine
 10
564.9565904436472
 20
2793.542342684271
 30
0.0
 11
564.9565904436463
 21
2791.842342684271
 31
0.0
  0
CIRCLE
  5
36E
330
2
100
AcDbEntity
  8
UMRISS05
100
AcDbCircle
 10
564.656590443647
 20
2793.842342684272
 30
0.0
 40
4.0
  0
LINE
  5
36F
330
2
100
AcDbEntity
  8
UMRISS05
100
AcDbLine
 10
566.656590443647
 20
2802.292342684271
 30
0.0
 11
564.9565904436472
 21
2802.292342684271
 31
0.0
  0
LINE
  5
370
330
2
100
AcDbEntity
  8
UMRISS05
100
AcDbLine
 10
562.6565904436469
 20
2802.292342684271
 30
0.0
 11
562.6565904436469
 21
2802.892342684272
 31
0.0
  0
LINE
  5
371
330
2
100
AcDbEntity
  8
UMRISS05
100
AcDbLine
 10
564.9565904436472
 20
2802.892342684272
 30
0.0
 11
566.656590443647
 21
2802.892342684272
 31
0.0
  0
LINE
  5
372
330
2
100
AcDbEntity
  8
UMRISS05
100
AcDbLine
 10
566.656590443647
 20
2802.892342684272
 30
0.0
 11
566.656590443647
 21
2802.292342684271
 31
0.0
  0
LINE
  5
373
330
2
100
AcDbEntity
  8
UMRISS05
100
AcDbLine
 10
564.3565904436468
 20
2802.292342684271
 30
0.0
 11
562.6565904436469
 21
2802.292342684271
 31
0.0
  0
LINE
  5
374
330
2
100
AcDbEntity
  8
UMRISS05
100
AcDbLine
 10
562.6565904436469
 20
2802.892342684272
 30
0.0
 11
564.3565904436468
 21
2802.892342684272
 31
0.0
  0
LINE
  5
375
330
2
100
AcDbEntity
  8
UMRISS05
100
AcDbLine
 10
564.3565904436468
 20
2802.892342684272
 30
0.0
 11
564.3565904436468
 21
2804.592342684271
 31
0.0
  0
LINE
  5
376
330
2
100
AcDbEntity
  8
UMRISS05
100
AcDbLine
 10
564.3565904436468
 20
2804.592342684271
 30
0.0
 11
564.9565904436472
 21
2804.592342684271
 31
0.0
  0
LINE
  5
377
330
2
100
AcDbEntity
  8
UMRISS05
100
AcDbLine
 10
564.3565904436468
 20
2800.592342684271
 30
0.0
 11
564.3565904436468
 21
2802.292342684271
 31
0.0
  0
LINE
  5
378
330
2
100
AcDbEntity
  8
UMRISS05
100
AcDbLine
 10
564.9565904436472
 20
2804.592342684271
 30
0.0
 11
564.9565904436472
 21
2802.892342684272
 31
0.0
  0
LINE
  5
379
330
2
100
AcDbEntity
  8
UMRISS05
100
AcDbLine
 10
564.9565904436472
 20
2802.292342684271
 30
0.0
 11
564.9565904436463
 21
2800.592342684271
 31
0.0
  0
CIRCLE
  5
37A
330
2
100
AcDbEntity
  8
UMRISS05
100
AcDbCircle
 10
564.656590443647
 20
2802.592342684271
 30
0.0
 40
4.0
  0
LINE
  5
37B
330
2
100
AcDbEntity
  8
Mittelpunktmarkierung(MSL)
  6
CHAIN
 48
11.90569400787353
100
AcDbLine
 10
572.156590443647
 20
2731.092342684271
 30
0.0
 11
557.156590443647
 21
2731.092342684271
 31
0.0
  0
LINE
  5
37C
330
2
100
AcDbEntity
  8
Mittelpunktmarkierung(MSL)
  6
CHAIN
 48
11.90569400787353
100
AcDbLine
 10
572.156590443647
 20
2802.592342684271
 30
0.0
 11
557.156590443647
 21
2802.592342684271
 31
0.0
  0
LINE
  5
37D
330
2
100
AcDbEntity
  8
ACHSEN
 48
0.8
100
AcDbLine
 10
564.656590443647
 20
2865.928345247221
 30
0.0
 11
564.656590443647
 21
2786.342342684271
 31
0.0
  0
LINE
  5
37E
330
2
100
AcDbEntity
  8
Mittelpunktmarkierung(MSL)
  6
CHAIN
 48
11.90569400787353
100
AcDbLine
 10
572.156590443647
 20
2793.842342684272
 30
0.0
 11
557.156590443647
 21
2793.842342684272
 31
0.0
  0
LINE
  5
37F
330
2
100
AcDbEntity
  8
Mittelpunktmarkierung(MSL)
  6
CHAIN
 48
23.99096870422363
100
AcDbLine
 10
564.656590443647
 20
2796.039569994132
 30
0.0
 11
564.656590443647
 21
2733.842342684271
 31
0.0
  0
LINE
  5
380
330
2
100
AcDbEntity
  8
Mittelpunktmarkierung(MSL)
  6
CHAIN
 48
11.90569400787353
100
AcDbLine
 10
572.156590443647
 20
2741.342342684272
 30
0.0
 11
557.156590443647
 21
2741.342342684272
 31
0.0
  0
LINE
  5
381
330
2
100
AcDbEntity
  8
ACHSEN
 48
0.8
100
AcDbLine
 10
564.656590443647
 20
2726.940519490041
 30
0.0
 11
564.656590443647
 21
2573.019488592784
 31
0.0
  0
LINE
  5
382
330
2
100
AcDbEntity
  8
Mittelpunktmarkierung(MSL)
  6
CHAIN
 48
11.90569400787353
100
AcDbLine
 10
572.156590443647
 20
2698.092342684271
 30
0.0
 11
557.156590443647
 21
2698.092342684271
 31
0.0
  0
LINE
  5
383
330
2
100
AcDbEntity
  8
Mittelpunktmarkierung(MSL)
  6
CHAIN
 48
11.90569400787353
100
AcDbLine
 10
572.156590443647
 20
2618.592342684271
 30
0.0
 11
557.156590443647
 21
2618.598915638752
 31
0.0
  0
LINE
  5
384
330
2
100
AcDbEntity
  8
Mittelpunktmarkierung(MSL)
  6
CHAIN
 48
23.99096870422363
100
AcDbLine
 10
564.656590443647
 20
2890.592342684271
 30
0.0
 11
564.656590443647
 21
2869.342342684272
 31
0.0
  0
LINE
  5
385
330
2
100
AcDbEntity
  8
Mittelpunktmarkierung(MSL)
  6
CHAIN
 48
13.09627342224121
100
AcDbLine
 10
572.906590443647
 20
2878.592342684271
 30
0.0
 11
556.4065904436469
 21
2878.592342684271
 31
0.0
  0
LINE
  5
386
330
2
100
AcDbEntity
  8
Mittelpunktmarkierung(MSL)
  6
CHAIN
 48
13.09627342224121
100
AcDbLine
 10
572.906590443647
 20
2582.592342684271
 30
0.0
 11
556.4065904436469
 21
2582.592342684271
 31
0.0
  0
CIRCLE
  5
387
330
2
100
AcDbEntity
  8
UMRISS05
100
AcDbCircle
 10
564.6565904436479
 20
2582.592342684271
 30
0.0
 40
3.5
  0
CIRCLE
  5
388
330
2
100
AcDbEntity
  8
UMRISS05
100
AcDbCircle
 10
564.6565904436479
 20
2878.592342684271
 30
0.0
 40
3.5
  0
CIRCLE
  5
389
330
2
100
AcDbEntity
  8
UMRISS05
100
AcDbCircle
 10
564.656590443647
 20
2878.592342684271
 30
0.0
 40
4.749999999999992
  0
CIRCLE
  5
38A
330
2
100
AcDbEntity
  8
UMRISS05
100
AcDbCircle
 10
564.656590443647
 20
2582.592342684271
 30
0.0
 40
4.749999999999992
  0
LINE
  5
38B
330
2
100
AcDbEntity
  8
UMRISS05
100
AcDbLine
 10
576.6565904436479
 20
2743.592342684271
 30
0.0
 11
576.656590443647
 21
2570.592342684271
 31
0.0
  0
LINE
  5
38C
330
2
100
AcDbEntity
  8
UMRISS05
100
AcDbLine
 10
576.656590443647
 20
2570.592342684271
 30
0.0
 11
552.656590443647
 21
2570.592342684271
 31
0.0
  0
LINE
  5
38D
330
2
100
AcDbEntity
  8
UMRISS05
100
AcDbLine
 10
552.656590443647
 20
2570.592342684271
 30
0.0
 11
552.656590443647
 21
2890.592342684271
 31
0.0
  0
LINE
  5
38E
330
2
100
AcDbEntity
  8
UMRISS05
100
AcDbLine
 10
552.656590443647
 20
2890.592342684271
 30
0.0
 11
576.656590443647
 21
2890.592342684271
 31
0.0
  0
LINE
  5
38F
330
2
100
AcDbEntity
  8
UMRISS05
100
AcDbLine
 10
576.656590443647
 20
2890.592342684271
 30
0.0
 11
576.6565904436479
 21
2791.592342684272
 31
0.0
  0
ENDSEC
  0
SECTION
  2
OBJECTS
  0
DICTIONARY
  5
B
330
0
100
AcDbDictionary
281
     1
  3
ACAD_COLOR
350
4B
  3
ACAD_DETAILVIEWSTYLE
350
3B1
  3
ACAD_FIELDLIST
350
3EA
  3
ACAD_GROUP
350
40
  3
ACAD_LAYOUT
350
20
  3
ACAD_MATERIAL
350
D
  3
ACAD_MLEADERSTYLE
350
4E
  3
ACAD_MLINESTYLE
350
41
  3
ACAD_PLOTSETTINGS
350
42
  3
ACAD_PLOTSTYLENAME
350
A
  3
ACAD_SCALELIST
350
4C
  3
ACAD_SECTIONVIEWSTYLE
350
3BF
  3
ACAD_TABLESTYLE
350
4D
  3
ACAD_VISUALSTYLE
350
34
  3
ACDB_RECOMPOSE_DATA
350
3FE
  3
AcDbVariableDictionary
350
3EE
  3
AcmDictionary
350
3A1
  3
AMG
350
392
  0
DICTIONARY
  5
26
330
25
100
AcDbDictionary
280
     1
281
     1
  3
ACAD_LAYERSTATES
360
27
  3
AMLAYER_GROUPCOLORS
360
28
  0
DICTIONARY
  5
7
330
6
100
AcDbDictionary
280
     1
281
     1
  3
ADSK_XREC_LAYER_RECONCILED
360
8
  0
DICTIONARY
  5
B7
330
B6
100
AcDbDictionary
280
     1
281
     1
  3
ADSK_XREC_LAYER_RECONCILED
360
B8
  0
DICTIONARY
  5
68
330
67
100
AcDbDictionary
280
     1
281
     1
  3
ADSK_XREC_LAYER_RECONCILED
360
69
  0
DICTIONARY
  5
C0
330
BF
100
AcDbDictionary
280
     1
281
     1
  3
ADSK_XREC_LAYER_RECONCILED
360
C1
  0
DICTIONARY
  5
10F
330
10E
100
AcDbDictionary
280
     1
281
     1
  0
DICTIONARY
  5
3
330
2
100
AcDbDictionary
280
     1
281
     1
  3
ACAD_SORTENTS
360
390
  0
DICTIONARY
  5
4B
102
{ACAD_REACTORS
330
B
102
}
330
B
100
AcDbDictionary
281
     1
  0
DICTIONARY
  5
3B1
102
{ACAD_REACTORS
330
B
102
}
330
B
100
AcDbDictionary
281
     1
  3
Imperial24
350
3B8
  3
Metric50
350
3BB
  0
FIELDLIST
  5
3EA
102
{ACAD_REACTORS
330
B
102
}
330
B
100
AcDbIdSet
 90
        6
330
3B4
330
3B5
330
3B6
330
3C2
330
3C3
330
3C4
100
AcDbFieldList
  0
DICTIONARY
  5
40
102
{ACAD_REACTORS
330
B
102
}
330
B
100
AcDbDictionary
281
     1
  0
DICTIONARY
  5
20
102
{ACAD_REACTORS
330
B
102
}
330
B
100
AcDbDictionary
281
     1
  3
Layout1
350
24
  3
Model
350
1F
  0
DICTIONARY
  5
D
102
{ACAD_REACTORS
330
B
102
}
330
B
100
AcDbDictionary
281
     1
  3
ByBlock
350
43
  3
ByLayer
350
16
  3
Global
350
C
  0
DICTIONARY
  5
4E
102
{ACAD_REACTORS
330
B
102
}
330
B
100
AcDbDictionary
281
     1
  3
Standard
350
12A
  0
DICTIONARY
  5
41
102
{ACAD_REACTORS
330
B
102
}
330
B
100
AcDbDictionary
281
     1
  3
STANDARD
350
50
  0
DICTIONARY
  5
42
102
{ACAD_REACTORS
330
B
102
}
330
B
100
AcDbDictionary
281
     1
  0
ACDBDICTIONARYWDFLT
  5
A
102
{ACAD_REACTORS
330
B
102
}
330
B
100
AcDbDictionary
281
     1
  3
Normal
350
9
100
AcDbDictionaryWithDefault
340
9
  0
DICTIONARY
  5
4C
102
{ACAD_REACTORS
330
B
102
}
330
B
100
AcDbDictionary
281
     1
  3
A0
350
55
  3
A1
350
56
  3
A2
350
57
  3
A3
350
58
  3
A4
350
59
  3
A5
350
5A
  3
A6
350
5B
  3
A7
350
5C
  3
A8
350
5D
  3
A9
350
5E
  3
B0
350
5F
  3
B1
350
60
  3
B2
350
61
  3
B3
350
62
  3
B4
350
63
  3
B5
350
64
  3
B6
350
65
  0
DICTIONARY
  5
3BF
102
{ACAD_REACTORS
330
B
102
}
330
B
100
AcDbDictionary
281
     1
  3
Imperial24
350
3CA
  3
Metric50
350
3CD
  0
DICTIONARY
  5
4D
102
{ACAD_REACTORS
330
B
102
}
330
B
100
AcDbDictionary
281
     1
  3
Standard
350
51
  0
DICTIONARY
  5
34
102
{ACAD_REACTORS
330
B
102
}
330
B
100
AcDbDictionary
281
     1
  3
2dWireframe
350
33
  3
Realistic
350
53
  3
Wireframe
350
54
  0
XRECORD
  5
3FE
102
{ACAD_REACTORS
330
B
102
}
330
B
100
AcDbXrecord
280
     1
 90
        1
330
51
330
3B8
330
3BB
330
3CA
330
3CD
  0
DICTIONARY
  5
3EE
102
{ACAD_REACTORS
330
B
102
}
330
B
100
AcDbDictionary
281
     1
  3
CANNOSCALE
350
3F4
  3
CMLEADERSTYLE
350
3F0
  3
CTABLESTYLE
350
3EF
  3
CVIEWDETAILSTYLE
350
3F1
  3
CVIEWSECTIONSTYLE
350
3F2
  3
LAYEREVAL
350
3F6
  3
LAYERNOTIFY
350
3F7
  3
LIGHTINGUNITS
350
3F5
  3
MSLTSCALE
350
3F3
  0
DICTIONARY
  5
3A1
102
{ACAD_REACTORS
330
B
102
}
330
B
100
AcDbDictionary
281
     1
  3
AcmStdDictionary
350
3A2
  0
DICTIONARY
  5
392
102
{ACAD_REACTORS
330
B
102
}
330
B
100
AcDbDictionary
281
     1
  3
AcMgSettings
350
39C
  3
AMGLAYCFG
350
391
  0
DICTIONARY
  5
27
102
{ACAD_REACTORS
330
26
102
}
330
26
100
AcDbDictionary
281
     1
  0
DICTIONARY
  5
28
102
{ACAD_REACTORS
330
26
102
}
330
26
100
AcDbDictionary
280
     1
281
     1
  0
XRECORD
  5
8
102
{ACAD_REACTORS
330
7
102
}
330
7
100
AcDbXrecord
280
     1
290
     1
  0
XRECORD
  5
B8
102
{ACAD_REACTORS
330
B7
102
}
330
B7
100
AcDbXrecord
280
     1
290
     1
  0
XRECORD
  5
69
102
{ACAD_REACTORS
330
68
102
}
330
68
100
AcDbXrecord
280
     1
290
     1
  0
XRECORD
  5
C1
102
{ACAD_REACTORS
330
C0
102
}
330
C0
100
AcDbXrecord
280
     1
290
     1
  0
SORTENTSTABLE
  5
390
102
{ACAD_REACTORS
330
3
102
}
330
3
100
AcDbSortentsTable
330
2
331
B5
  5
38A
331
EC
  5
36A
331
127
  5
358
331
166
  5
34D
331
386
  5
BC
331
E8
  5
36E
331
162
  5
351
331
382
  5
C4
331
37E
  5
C8
331
37A
  5
DC
331
21F
  5
313
331
21B
  5
317
331
217
  5
31B
331
30F
  5
223
331
295
  5
261
331
256
  5
2A0
331
252
  5
2A4
331
291
  5
265
331
30B
  5
227
331
213
  5
31F
331
346
  5
193
331
28D
  5
268
331
307
  5
22B
331
342
  5
1C7
331
289
  5
26C
331
303
  5
22F
331
E4
  5
372
331
E0
  5
376
331
117
  5
35C
331
376
  5
E0
331
DC
  5
37A
331
113
  5
360
331
372
  5
E4
331
99
  5
38C
331
36E
  5
E8
331
36A
  5
EC
331
20F
  5
323
331
24E
  5
2A8
331
20B
  5
327
331
24A
  5
2AC
331
207
  5
32B
331
2FF
  5
233
331
33E
  5
1F3
331
285
  5
270
331
246
  5
2B0
331
242
  5
2C0
331
281
  5
274
331
2C0
  5
242
331
2FB
  5
237
331
33A
  5
1F7
331
203
  5
32F
331
27D
  5
278
331
2F7
  5
23B
331
336
  5
1FB
331
332
  5
200
331
279
  5
27C
331
366
  5
F0
331
C8
  5
37E
331
362
  5
111
331
35E
  5
115
331
35A
  5
119
331
1FF
  5
333
331
23E
  5
2F4
331
1FB
  5
336
331
23A
  5
2F8
331
1F7
  5
33A
331
32E
  5
204
331
275
  5
280
331
236
  5
2FC
331
232
  5
300
331
2B0
  5
246
331
1F3
  5
33E
331
32A
  5
208
331
271
  5
284
331
26D
  5
288
331
2AC
  5
24A
331
2E7
  5
23F
331
326
  5
20C
331
322
  5
210
331
269
  5
28C
331
2A8
  5
24E
331
C4
  5
382
331
13A
  5
353
331
356
  5
129
331
BC
  5
386
331
352
  5
147
331
38D
  5
8A
331
34E
  5
165
331
34A
  5
169
331
389
  5
B9
331
22E
  5
304
331
22A
  5
308
331
226
  5
30C
331
31E
  5
214
331
265
  5
291
331
2A4
  5
252
331
169
  5
34A
331
2A0
  5
256
331
1E3
  5
340
331
31A
  5
218
331
261
  5
295
331
222
  5
310
331
25D
  5
299
331
29C
  5
25A
331
316
  5
21C
331
312
  5
220
331
259
  5
29D
331
298
  5
25E
331
EF
  5
367
331
EB
  5
36B
331
126
  5
359
331
165
  5
34E
331
385
  5
BD
331
A8
  5
38B
331
381
  5
C5
331
37D
  5
D7
331
379
  5
DD
331
21E
  5
314
331
1A0
  5
345
331
21A
  5
318
331
216
  5
31C
331
30E
  5
224
331
294
  5
262
331
255
  5
2A1
331
251
  5
2A5
331
290
  5
266
331
30A
  5
228
331
212
  5
320
331
345
  5
1A0
331
28C
  5
269
331
306
  5
22C
331
302
  5
230
331
341
  5
1D5
331
288
  5
26D
331
E7
  5
36F
331
E3
  5
373
331
DF
  5
377
331
DB
  5
37B
331
116
  5
35D
331
375
  5
E1
331
112
  5
361
331
371
  5
E5
331
36D
  5
E9
331
369
  5
ED
331
20E
  5
324
331
24D
  5
2A9
331
20A
  5
328
331
249
  5
2AD
331
206
  5
32C
331
2FE
  5
234
331
33D
  5
1F4
331
284
  5
271
331
245
  5
2B1
331
241
  5
2CD
331
280
  5
275
331
2FA
  5
238
331
339
  5
1F8
331
202
  5
330
331
335
  5
1FC
331
27C
  5
279
331
2F6
  5
23C
331
331
  5
201
331
278
  5
27D
331
D7
  5
37D
331
365
  5
F1
331
361
  5
112
331
35D
  5
116
331
359
  5
126
331
1C7
  5
342
331
1FE
  5
334
331
23D
  5
2F5
331
184
  5
347
331
1FA
  5
337
331
239
  5
2F9
331
2B3
  5
243
331
1F6
  5
33B
331
32D
  5
205
331
274
  5
281
331
235
  5
2FD
331
231
  5
301
331
270
  5
285
331
2AF
  5
247
331
329
  5
209
331
1F2
  5
33F
331
26C
  5
289
331
2AB
  5
24B
331
325
  5
20D
331
321
  5
211
331
268
  5
28D
331
C7
  5
37F
331
C3
  5
383
331
FE
  5
364
331
355
  5
12C
331
BB
  5
387
331
351
  5
162
331
38C
  5
99
331
34D
  5
166
331
349
  5
16A
331
388
  5
BA
331
22D
  5
305
331
229
  5
309
331
2A7
  5
24F
331
2A3
  5
253
331
31D
  5
215
331
264
  5
292
331
225
  5
30D
331
221
  5
311
331
29F
  5
257
331
168
  5
34B
331
2DA
  5
240
331
319
  5
219
331
260
  5
296
331
25C
  5
29A
331
29B
  5
25B
331
315
  5
21D
331
311
  5
221
331
258
  5
29E
331
12D
  5
354
331
129
  5
356
331
EE
  5
368
331
EA
  5
36C
331
164
  5
34F
331
384
  5
BE
331
380
  5
C6
331
37C
  5
DA
331
378
  5
DE
331
21D
  5
315
331
219
  5
319
331
297
  5
25F
331
254
  5
2A2
331
215
  5
31D
331
30D
  5
225
331
293
  5
263
331
250
  5
2A6
331
309
  5
229
331
211
  5
321
331
344
  5
1AD
331
28B
  5
26A
331
305
  5
22D
331
301
  5
231
331
340
  5
1E3
331
E6
  5
370
331
E2
  5
374
331
DE
  5
378
331
119
  5
35A
331
DA
  5
37C
331
115
  5
35E
331
374
  5
E2
331
111
  5
362
331
370
  5
E6
331
36C
  5
EA
331
368
  5
EE
331
20D
  5
325
331
24C
  5
2AA
331
193
  5
346
331
209
  5
329
331
287
  5
26E
331
248
  5
2AE
331
66
  5
38F
331
205
  5
32D
331
2FD
  5
235
331
33C
  5
1F5
331
283
  5
272
331
244
  5
2B2
331
240
  5
2DA
331
27F
  5
276
331
2F9
  5
239
331
338
  5
1F9
331
201
  5
331
331
334
  5
1FE
331
27B
  5
27A
331
2F5
  5
23D
331
330
  5
202
331
10D
  5
363
331
364
  5
FE
331
360
  5
113
331
35C
  5
117
331
358
  5
127
331
23C
  5
2F6
331
1F9
  5
338
331
277
  5
27E
331
238
  5
2FA
331
1BA
  5
343
331
2B2
  5
244
331
1F5
  5
33C
331
32C
  5
206
331
273
  5
282
331
234
  5
2FE
331
230
  5
302
331
26F
  5
286
331
2AE
  5
248
331
328
  5
20A
331
324
  5
20E
331
26B
  5
28A
331
2AA
  5
24C
331
320
  5
212
331
C6
  5
380
331
BE
  5
384
331
354
  5
12D
331
7B
  5
38E
331
BA
  5
388
331
38F
  5
66
331
F1
  5
365
331
350
  5
163
331
38B
  5
A8
331
34C
  5
167
331
348
  5
177
331
177
  5
348
331
22C
  5
306
331
228
  5
30A
331
267
  5
28E
331
2A6
  5
250
331
2A2
  5
254
331
31C
  5
216
331
263
  5
293
331
224
  5
30E
331
220
  5
312
331
25F
  5
297
331
29E
  5
258
331
318
  5
21A
331
25B
  5
29B
331
29A
  5
25C
331
314
  5
21E
331
310
  5
222
331
12C
  5
355
331
128
  5
357
331
167
  5
34C
331
387
  5
BB
331
ED
  5
369
331
E9
  5
36D
331
163
  5
350
331
383
  5
C3
331
37F
  5
C7
331
37B
  5
DB
331
21C
  5
316
331
218
  5
31A
331
296
  5
260
331
257
  5
29F
331
253
  5
2A3
331
292
  5
264
331
30C
  5
226
331
214
  5
31E
331
210
  5
322
331
28E
  5
267
331
2CD
  5
241
331
308
  5
22A
331
347
  5
184
331
343
  5
1BA
331
28A
  5
26B
331
304
  5
22E
331
300
  5
232
331
E5
  5
371
331
E1
  5
375
331
118
  5
35B
331
377
  5
DF
331
DD
  5
379
331
114
  5
35F
331
373
  5
E3
331
36F
  5
E7
331
36B
  5
EB
331
24F
  5
2A7
331
1D5
  5
341
331
20C
  5
326
331
24B
  5
2AB
331
208
  5
32A
331
33F
  5
1F2
331
286
  5
26F
331
247
  5
2AF
331
243
  5
2B3
331
204
  5
32E
331
2FC
  5
236
331
33B
  5
1F6
331
282
  5
273
331
27E
  5
277
331
2F8
  5
23A
331
337
  5
1FA
331
200
  5
332
331
333
  5
1FF
331
27A
  5
27B
331
2F4
  5
23E
331
147
  5
352
331
367
  5
EF
331
363
  5
10D
331
8A
  5
38D
331
35F
  5
114
331
35B
  5
118
331
23F
  5
2E7
331
1FC
  5
335
331
23B
  5
2F7
331
1F8
  5
339
331
32F
  5
203
331
276
  5
27F
331
237
  5
2FB
331
2B1
  5
245
331
1F4
  5
33D
331
32B
  5
207
331
272
  5
283
331
233
  5
2FF
331
26E
  5
287
331
2AD
  5
249
331
327
  5
20B
331
323
  5
20F
331
26A
  5
28B
331
2A9
  5
24D
331
C5
  5
381
331
357
  5
128
331
BD
  5
385
331
B9
  5
389
331
353
  5
13A
331
38E
  5
7B
331
F0
  5
366
331
34F
  5
164
331
34B
  5
168
331
38A
  5
B5
331
22F
  5
303
331
22B
  5
307
331
1AD
  5
344
331
227
  5
30B
331
31F
  5
213
331
266
  5
290
331
2A5
  5
251
331
16A
  5
349
331
2A1
  5
255
331
31B
  5
217
331
262
  5
294
331
223
  5
30F
331
25E
  5
298
331
29D
  5
259
331
317
  5
21B
331
313
  5
21F
331
25A
  5
29C
331
299
  5
25D
  0
ACDBDETAILVIEWSTYLE
  5
3B8
102
{ACAD_XDICTIONARY
360
3B9
102
}
102
{ACAD_REACTORS
330
3B1
330
3B7
102
}
330
3B1
100
AcDbModelDocViewStyle
 70
     0
  3
Imperial24
290
     0
100
AcDbDetailViewStyle
 70
     0
 71
     0
 90
        3
 71
     1
340
2A
 62
   256
 40
0.24
340
0
 62
   256
 40
0.24
300

 40
0.36
280
     3
 71
     2
340
15
 90
       25
 62
   256
 71
     3
340
2A
 62
   256
 40
0.24
 90
        1
 40
0.75
 90
        1
300
%<\AcVar ViewType \f "%tc1">% %<\AcVar ViewDetailId>%\PVARIA %<\AcVar ViewScale \f "%sn">%
 71
     4
340
15
 90
       25
 62
   256
340
15
 90
       25
 62
   256
280
     0
  0
ACDBDETAILVIEWSTYLE
  5
3BB
102
{ACAD_XDICTIONARY
360
3BC
102
}
102
{ACAD_REACTORS
330
3B1
330
3BA
102
}
330
3B1
100
AcDbModelDocViewStyle
 70
     0
  3
Metric50
290
     0
100
AcDbDetailViewStyle
 70
     0
 71
     0
 90
        3
 71
     1
340
2A
 62
   256
 40
5.0
340
0
 62
   256
 40
5.0
300

 40
0.0
280
     1
 71
     2
340
15
 90
       25
 62
   256
 71
     3
340
2A
 62
   256
 40
5.0
 90
        0
 40
15.0
 90
        1
300
%<\AcVar ViewDetailId>% (%<\AcVar ViewScale \f "%sn">%)
 71
     4
340
15
 90
       25
 62
   256
340
15
 90
       25
 62
   256
280
     0
  0
LAYOUT
  5
24
102
{ACAD_REACTORS
330
20
102
}
330
20
100
AcDbPlotSettings
  1

  2
none_device
  4
Letter_(8.50_x_11.00_Inches)
  6

 40
6.349999904632567
 41
6.349999904632567
 42
6.350006103515625
 43
6.350006103515625
 44
215.8999938964844
 45
279.3999938964844
 46
0.0
 47
0.0
 48
0.0
 49
0.0
140
0.0
141
0.0
142
1.0
143
1.0
 70
   688
 72
     1
 73
     1
 74
     5
  7
monochrome.ctb
 75
    16
147
1.0
 76
     0
 77
     2
 78
   300
148
0.0
149
0.0
100
AcDbLayout
  1
Layout1
 70
     1
 71
     1
 10
-6.350006103515625
 20
-6.349999904632567
 11
273.0499877929688
 21
209.5499939918518
 12
0.0
 22
0.0
 32
0.0
 14
26.66999878883363
 24
20.31999878883363
 34
0.0
 15
240.0299890995026
 25
182.8799890995025
 35
0.0
146
0.0
 13
0.0
 23
0.0
 33
0.0
 16
1.0
 26
0.0
 36
0.0
 17
0.0
 27
1.0
 37
0.0
 76
     0
330
21
  0
LAYOUT
  5
1F
102
{ACAD_REACTORS
330
20
102
}
330
20
100
AcDbPlotSettings
  1
A3 quer
  2
A3quer-MSL.pc3
  4
A3
  6

 40
6.085416793823242
 41
6.12772798538208
 42
5.662078857421875
 43
5.53509521484375
 44
296.9683227539062
 45
419.9889831542968
 46
4.5
 47
2.5
 48
0.0
 49
0.0
140
0.0
141
0.0
142
1.0
143
1.0
 70
 11952
 72
     1
 73
     1
 74
     1
  7
A3 hoch.ctb
 75
    16
147
1.0
 76
     0
 77
     2
 78
   300
148
0.0160923307578855
149
0.4351688123455233
100
AcDbLayout
  1
Model
 70
     1
 71
     0
 10
0.0
 20
0.0
 11
12.0
 21
9.0
 12
0.0
 22
0.0
 32
0.0
 14
0.0
 24
0.0
 34
0.0
 15
0.0
 25
0.0
 35
0.0
146
0.0
 13
0.0
 23
0.0
 33
0.0
 16
1.0
 26
0.0
 36
0.0
 17
0.0
 27
1.0
 37
0.0
 76
     0
330
2
331
32
  0
MATERIAL
  5
43
102
{ACAD_XDICTIONARY
360
44
102
}
102
{ACAD_REACTORS
330
D
102
}
330
D
100
AcDbMaterial
  1
ByBlock
 72
     0
 43
0.0208333333333333
 43
0.0
 43
0.0
 43
0.0
 43
0.0
 43
0.0208333333333333
 43
0.0
 43
0.0
 43
0.0
 43
0.0
 43
1.0
 43
0.0
 43
0.0
 43
0.0
 43
0.0
 43
1.0
 77
     0
 47
0.0208333333333333
 47
0.0
 47
0.0
 47
0.0
 47
0.0
 47
0.0208333333333333
 47
0.0
 47
0.0
 47
0.0
 47
0.0
 47
1.0
 47
0.0
 47
0.0
 47
0.0
 47
0.0
 47
1.0
171
     0
 49
0.0208333333333333
 49
0.0
 49
0.0
 49
0.0
 49
0.0
 49
0.0208333333333333
 49
0.0
 49
0.0
 49
0.0
 49
0.0
 49
1.0
 49
0.0
 49
0.0
 49
0.0
 49
0.0
 49
1.0
175
     0
142
0.0208333333333333
142
0.0
142
0.0
142
0.0
142
0.0
142
0.0208333333333333
142
0.0
142
0.0
142
0.0
142
0.0
142
1.0
142
0.0
142
0.0
142
0.0
142
0.0
142
1.0
179
     0
144
0.0208333333333333
144
0.0
144
0.0
144
0.0
144
0.0
144
0.0208333333333333
144
0.0
144
0.0
144
0.0
144
0.0
144
1.0
144
0.0
144
0.0
144
0.0
144
0.0
144
1.0
147
0.0208333333333333
147
0.0
147
0.0
147
0.0
147
0.0
147
0.0208333333333333
147
0.0
147
0.0
147
0.0
147
0.0
147
1.0
147
0.0
147
0.0
147
0.0
147
0.0
147
1.0
  0
MATERIAL
  5
16
102
{ACAD_XDICTIONARY
360
17
102
}
102
{ACAD_REACTORS
330
D
102
}
330
D
100
AcDbMaterial
  1
ByLayer
 72
     0
 43
0.0208333333333333
 43
0.0
 43
0.0
 43
0.0
 43
0.0
 43
0.0208333333333333
 43
0.0
 43
0.0
 43
0.0
 43
0.0
 43
1.0
 43
0.0
 43
0.0
 43
0.0
 43
0.0
 43
1.0
 77
     0
 47
0.0208333333333333
 47
0.0
 47
0.0
 47
0.0
 47
0.0
 47
0.0208333333333333
 47
0.0
 47
0.0
 47
0.0
 47
0.0
 47
1.0
 47
0.0
 47
0.0
 47
0.0
 47
0.0
 47
1.0
171
     0
 49
0.0208333333333333
 49
0.0
 49
0.0
 49
0.0
 49
0.0
 49
0.0208333333333333
 49
0.0
 49
0.0
 49
0.0
 49
0.0
 49
1.0
 49
0.0
 49
0.0
 49
0.0
 49
0.0
 49
1.0
175
     0
142
0.0208333333333333
142
0.0
142
0.0
142
0.0
142
0.0
142
0.0208333333333333
142
0.0
142
0.0
142
0.0
142
0.0
142
1.0
142
0.0
142
0.0
142
0.0
142
0.0
142
1.0
179
     0
144
0.0208333333333333
144
0.0
144
0.0
144
0.0
144
0.0
144
0.0208333333333333
144
0.0
144
0.0
144
0.0
144
0.0
144
1.0
144
0.0
144
0.0
144
0.0
144
0.0
144
1.0
147
0.0208333333333333
147
0.0
147
0.0
147
0.0
147
0.0
147
0.0208333333333333
147
0.0
147
0.0
147
0.0
147
0.0
147
1.0
147
0.0
147
0.0
147
0.0
147
0.0
147
1.0
  0
MATERIAL
  5
C
102
{ACAD_XDICTIONARY
360
E
102
}
102
{ACAD_REACTORS
330
D
102
}
330
D
100
AcDbMaterial
  1
Global
 72
     0
 43
0.0208333333333333
 43
0.0
 43
0.0
 43
0.0
 43
0.0
 43
0.0208333333333333
 43
0.0
 43
0.0
 43
0.0
 43
0.0
 43
1.0
 43
0.0
 43
0.0
 43
0.0
 43
0.0
 43
1.0
 77
     0
 47
0.0208333333333333
 47
0.0
 47
0.0
 47
0.0
 47
0.0
 47
0.0208333333333333
 47
0.0
 47
0.0
 47
0.0
 47
0.0
 47
1.0
 47
0.0
 47
0.0
 47
0.0
 47
0.0
 47
1.0
171
     0
 49
0.0208333333333333
 49
0.0
 49
0.0
 49
0.0
 49
0.0
 49
0.0208333333333333
 49
0.0
 49
0.0
 49
0.0
 49
0.0
 49
1.0
 49
0.0
 49
0.0
 49
0.0
 49
0.0
 49
1.0
175
     0
142
0.0208333333333333
142
0.0
142
0.0
142
0.0
142
0.0
142
0.0208333333333333
142
0.0
142
0.0
142
0.0
142
0.0
142
1.0
142
0.0
142
0.0
142
0.0
142
0.0
142
1.0
179
     0
144
0.0208333333333333
144
0.0
144
0.0
144
0.0
144
0.0
144
0.0208333333333333
144
0.0
144
0.0
144
0.0
144
0.0
144
1.0
144
0.0
144
0.0
144
0.0
144
0.0
144
1.0
147
0.0208333333333333
147
0.0
147
0.0
147
0.0
147
0.0
147
0.0208333333333333
147
0.0
147
0.0
147
0.0
147
0.0
147
1.0
147
0.0
147
0.0
147
0.0
147
0.0
147
1.0
  0
MLEADERSTYLE
  5
12A
102
{ACAD_REACTORS
330
4E
330
12C
330
129
102
}
330
4E
100
AcDbMLeaderStyle
179
     2
170
     2
171
     1
172
     0
 90
        2
 40
0.0
 41
0.0
173
     1
 91
-1056964608
340
2D
 92
       -2
290
     1
 42
2.0
291
     1
 43
0.36
  3
Standard
 44
4.0
300

342
2A
174
     1
178
     6
175
     1
176
     0
 93
-1056964608
 45
4.0
292
     0
297
     0
 46
4.0
 94
-1056964608
 47
1.0
 49
1.0
140
1.0
293
     1
141
0.0
294
     1
177
     0
142
1.0
295
     0
296
     0
143
0.125
271
     0
272
     9
273
     9
298
     1
  0
MLINESTYLE
  5
50
102
{ACAD_REACTORS
330
41
102
}
330
41
100
AcDbMlineStyle
  2
STANDARD
 70
     0
  3

 62
     0
 51
90.0
 52
90.0
 71
     2
 49
0.5
 62
   256
  6
BYLAYER
 49
-0.5
 62
   256
  6
BYLAYER
  0
ACDBPLACEHOLDER
  5
9
102
{ACAD_REACTORS
330
A
102
}
330
A
  0
SCALE
  5
55
102
{ACAD_REACTORS
330
4C
102
}
330
4C
100
AcDbScale
 70
     0
300
1:1
140
1.0
141
1.0
290
     1
  0
SCALE
  5
56
102
{ACAD_REACTORS
330
4C
102
}
330
4C
100
AcDbScale
 70
     0
300
1:2
140
1.0
141
2.0
290
     0
  0
SCALE
  5
57
102
{ACAD_REACTORS
330
4C
102
}
330
4C
100
AcDbScale
 70
     0
300
1:4
140
1.0
141
4.0
290
     0
  0
SCALE
  5
58
102
{ACAD_REACTORS
330
4C
102
}
330
4C
100
AcDbScale
 70
     0
300
1:5
140
1.0
141
5.0
290
     0
  0
SCALE
  5
59
102
{ACAD_REACTORS
330
4C
102
}
330
4C
100
AcDbScale
 70
     0
300
1:8
140
1.0
141
8.0
290
     0
  0
SCALE
  5
5A
102
{ACAD_REACTORS
330
4C
102
}
330
4C
100
AcDbScale
 70
     0
300
1:10
140
1.0
141
10.0
290
     0
  0
SCALE
  5
5B
102
{ACAD_REACTORS
330
4C
102
}
330
4C
100
AcDbScale
 70
     0
300
1:16
140
1.0
141
16.0
290
     0
  0
SCALE
  5
5C
102
{ACAD_REACTORS
330
4C
102
}
330
4C
100
AcDbScale
 70
     0
300
1:20
140
1.0
141
20.0
290
     0
  0
SCALE
  5
5D
102
{ACAD_REACTORS
330
4C
102
}
330
4C
100
AcDbScale
 70
     0
300
1:30
140
1.0
141
30.0
290
     0
  0
SCALE
  5
5E
102
{ACAD_REACTORS
330
4C
102
}
330
4C
100
AcDbScale
 70
     0
300
1:40
140
1.0
141
40.0
290
     0
  0
SCALE
  5
5F
102
{ACAD_REACTORS
330
4C
102
}
330
4C
100
AcDbScale
 70
     0
300
1:50
140
1.0
141
50.0
290
     0
  0
SCALE
  5
60
102
{ACAD_REACTORS
330
4C
102
}
330
4C
100
AcDbScale
 70
     0
300
1:100
140
1.0
141
100.0
290
     0
  0
SCALE
  5
61
102
{ACAD_REACTORS
330
4C
102
}
330
4C
100
AcDbScale
 70
     0
300
2:1
140
2.0
141
1.0
290
     0
  0
SCALE
  5
62
102
{ACAD_REACTORS
330
4C
102
}
330
4C
100
AcDbScale
 70
     0
300
4:1
140
4.0
141
1.0
290
     0
  0
SCALE
  5
63
102
{ACAD_REACTORS
330
4C
102
}
330
4C
100
AcDbScale
 70
     0
300
8:1
140
8.0
141
1.0
290
     0
  0
SCALE
  5
64
102
{ACAD_REACTORS
330
4C
102
}
330
4C
100
AcDbScale
 70
     0
300
10:1
140
10.0
141
1.0
290
     0
  0
SCALE
  5
65
102
{ACAD_REACTORS
330
4C
102
}
330
4C
100
AcDbScale
 70
     0
300
100:1
140
100.0
141
1.0
290
     0
  0
ACDBSECTIONVIEWSTYLE
  5
3CA
102
{ACAD_XDICTIONARY
360
3CB
102
}
102
{ACAD_REACTORS
330
3BF
330
3C9
102
}
330
3BF
100
AcDbModelDocViewStyle
 70
     0
  3
Imperial24
290
     0
100
AcDbSectionViewStyle
 70
     0
 71
     0
 90
       78
 71
     1
340
2A
 62
   256
 40
0.24
340
0
340
0
 62
   256
 40
0.24
300
I, O, Q, S, X, Z
 40
0.48
 90
        3
 40
0.18
 90
        1
 71
     2
340
15
 90
       25
 62
   256
340
15
 90
       50
 62
   256
 40
0.24
 40
0.0
 40
0.24
 71
     3
340
2A
 62
   256
 40
0.24
 90
        1
 40
0.75
 90
        1
300
%<\AcVar ViewType \f "%tc1">% %<\AcVar ViewSectionStartId>%-%<\AcVar ViewSectionEndId>%\PVARIA %<\AcVar ViewScale \f "%sn">%
 71
     4
 62
   256
 62
   257
300
ANSI31
 40
1.0
 90
        0
290
     0
290
     0
 90
        6
 40
0.0
 40
1.570796326794896
 40
0.2617993877991494
 40
1.308996938995747
 40
-0.2617993877991494
 40
1.832595714594044
  0
ACDBSECTIONVIEWSTYLE
  5
3CD
102
{ACAD_XDICTIONARY
360
3CE
102
}
102
{ACAD_REACTORS
330
3BF
330
3CC
102
}
330
3BF
100
AcDbModelDocViewStyle
 70
     0
  3
Metric50
290
     0
100
AcDbSectionViewStyle
 70
     0
 71
     0
 90
      102
 71
     1
340
2A
 62
   256
 40
5.0
340
0
340
0
 62
   256
 40
5.0
300
I, O, Q, S, X, Z
 40
10.0
 90
        0
 40
2.5
 90
        0
 71
     2
340
15
 90
       25
 62
   256
340
15
 90
       50
 62
   256
 40
5.0
 40
2.5
 40
5.0
 71
     3
340
2A
 62
   256
 40
5.0
 90
        0
 40
15.0
 90
        1
300
%<\AcVar ViewSectionStartId>%-%<\AcVar ViewSectionEndId>% (%<\AcVar ViewScale \f "%sn">%)
 71
     4
 62
   256
 62
   257
300
ANSI31
 40
1.0
 90
        0
290
     0
290
     0
 90
        6
 40
0.0
 40
1.570796326794896
 40
0.2617993877991494
 40
1.308996938995747
 40
-0.2617993877991494
 40
1.832595714594044
  0
TABLESTYLE
  5
51
102
{ACAD_XDICTIONARY
360
52
102
}
102
{ACAD_REACTORS
330
4D
102
}
330
4D
100
AcDbTableStyle
280
     0
  3
Standard
 70
     0
 71
     0
 40
1.5
 41
1.5
280
     0
281
     0
  7
STANDARD
140
4.5
170
     2
 62
     0
 63
     7
283
     0
 90
        4
 91
        0
  1

274
    -2
284
     1
 64
     0
275
    -2
285
     1
 65
     0
276
    -2
286
     1
 66
     0
277
    -2
287
     1
 67
     0
278
    -2
288
     1
 68
     0
279
    -2
289
     1
 69
     0
  7
STANDARD
140
6.0
170
     5
 62
     0
 63
     7
283
     0
 90
        4
 91
        0
  1

274
    -2
284
     1
 64
     0
275
    -2
285
     1
 65
     0
276
    -2
286
     1
 66
     0
277
    -2
287
     1
 67
     0
278
    -2
288
     1
 68
     0
279
    -2
289
     1
 69
     0
  7
STANDARD
140
4.5
170
     5
 62
     0
 63
     7
283
     0
 90
        4
 91
        0
  1

274
    -2
284
     1
 64
     0
275
    -2
285
     1
 65
     0
276
    -2
286
     1
 66
     0
277
    -2
287
     1
 67
     0
278
    -2
288
     1
 68
     0
279
    -2
289
     1
 69
     0
  0
VISUALSTYLE
  5
33
102
{ACAD_REACTORS
330
34
102
}
330
34
100
AcDbVisualStyle
  2
2dWireframe
 70
     4
177
     3
291
     0
 70
    58
 90
        0
176
     1
 90
        2
176
     1
 90
        0
176
     1
 90
        0
176
     1
 40
0.6
176
     1
 40
30.0
176
     1
 62
     7
420
 16777215
176
     1
 90
        1
176
     1
 90
        4
176
     1
 62
     7
176
     1
 62
   257
176
     1
 90
        1
176
     1
 90
        1
176
     1
 40
1.0
176
     1
 90
        0
176
     1
 62
   257
176
     1
 40
1.0
176
     1
 90
        1
176
     1
 90
        6
176
     1
 90
        2
176
     1
 62
     7
176
     1
 90
        5
176
     1
 90
        0
176
     1
 90
        0
176
     1
290
     0
176
     1
 90
        1
176
     1
 40
0.0
176
     1
 90
        0
176
     1
290
     1
176
     1
290
     1
176
     1
290
     0
176
     1
290
     0
176
     1
290
     0
176
     1
290
     0
176
     1
290
     0
176
     1
290
     0
176
     1
290
     0
176
     1
 90
       50
176
     1
 40
0.0
176
     1
 40
1.0
176
     1
 90
        0
176
     1
 62
    18
176
     1
 90
       50
176
     1
 90
        3
176
     1
 62
     5
420
      255
176
     1
290
     0
176
     1
 90
       50
176
     1
 90
       50
176
     1
 90
       50
176
     1
290
     0
176
     1
 90
       50
176
     1
 62
   256
176
     0
 40
1.0
176
     0
 90
        2
176
     1
  1
strokes_ogs.tif
176
     1
290
     0
176
     1
 40
1.0
176
     1
 40
1.0
176
     1
  0
VISUALSTYLE
  5
53
102
{ACAD_REACTORS
330
34
102
}
330
34
100
AcDbVisualStyle
  2
Realistic
 70
     8
177
     3
291
     0
 70
    58
 90
        2
176
     1
 90
        2
176
     1
 90
        0
176
     1
 90
        0
176
     1
 40
0.6
176
     1
 40
30.0
176
     1
 62
     7
420
 16777215
176
     1
 90
        1
176
     1
 90
        0
176
     1
 62
     7
176
     1
 62
   257
176
     1
 90
        1
176
     1
 90
        1
176
     1
 40
1.0
176
     1
 90
        8
176
     1
 62
     8
420
  7895160
176
     1
 40
1.0
176
     1
 90
        1
176
     1
 90
        6
176
     1
 90
        2
176
     1
 62
     7
176
     1
 90
        5
176
     1
 90
        0
176
     1
 90
        0
176
     1
290
     0
176
     1
 90
       13
176
     1
 40
0.0
176
     1
 90
        0
176
     1
290
     0
176
     1
290
     1
176
     1
290
     1
176
     1
290
     0
176
     1
290
     0
176
     1
290
     0
176
     1
290
     0
176
     1
290
     0
176
     1
290
     0
176
     1
 90
       50
176
     1
 40
0.0
176
     1
 40
1.0
176
     1
 90
        0
176
     1
 62
    18
176
     1
 90
       50
176
     1
 90
        3
176
     1
 62
     5
420
      255
176
     1
290
     0
176
     1
 90
       50
176
     1
 90
       50
176
     1
 90
       50
176
     1
290
     0
176
     1
 90
       50
176
     1
 62
   256
176
     0
 40
1.0
176
     0
 90
        2
176
     1
  1
strokes_ogs.tif
176
     1
290
     0
176
     1
 40
1.0
176
     1
 40
1.0
176
     1
  0
VISUALSTYLE
  5
54
102
{ACAD_REACTORS
330
34
102
}
330
34
100
AcDbVisualStyle
  2
Wireframe
 70
     5
177
     3
291
     0
 70
    58
 90
        0
176
     1
 90
        2
176
     1
 90
        0
176
     1
 90
        0
176
     1
 40
0.6
176
     1
 40
30.0
176
     1
 62
     7
420
 16777215
176
     1
 90
        1
176
     1
 90
        4
176
     1
 62
     7
176
     1
 62
   257
176
     1
 90
        1
176
     1
 90
        1
176
     1
 40
1.0
176
     1
 90
        0
176
     1
 62
   257
176
     1
 40
1.0
176
     1
 90
        1
176
     1
 90
        6
176
     1
 90
        2
176
     1
 62
     7
176
     1
 90
        3
176
     1
 90
        0
176
     1
 90
        0
176
     1
290
     0
176
     1
 90
        1
176
     1
 40
0.0
176
     1
 90
        0
176
     1
290
     0
176
     1
290
     1
176
     1
290
     1
176
     1
290
     0
176
     1
290
     0
176
     1
290
     0
176
     1
290
     0
176
     1
290
     0
176
     1
290
     0
176
     1
 90
       50
176
     1
 40
0.0
176
     1
 40
1.0
176
     1
 90
        0
176
     1
 62
    18
176
     1
 90
       50
176
     1
 90
        3
176
     1
 62
     5
420
      255
176
     1
290
     0
176
     1
 90
       50
176
     1
 90
       50
176
     1
 90
       50
176
     1
290
     0
176
     1
 90
       50
176
     1
 62
   256
176
     0
 40
1.0
176
     0
 90
        2
176
     1
  1
strokes_ogs.tif
176
     1
290
     0
176
     1
 40
1.0
176
     1
 40
1.0
176
     1
  0
DICTIONARYVAR
  5
3F4
102
{ACAD_REACTORS
330
3EE
102
}
330
3EE
100
DictionaryVariables
280
     0
  1
1:1
  0
DICTIONARYVAR
  5
3F0
102
{ACAD_REACTORS
330
3EE
102
}
330
3EE
100
DictionaryVariables
280
     0
  1
STANDARD
  0
DICTIONARYVAR
  5
3EF
102
{ACAD_REACTORS
330
3EE
102
}
330
3EE
100
DictionaryVariables
280
     0
  1
STANDARD
  0
DICTIONARYVAR
  5
3F1
102
{ACAD_REACTORS
330
3EE
102
}
330
3EE
100
DictionaryVariables
280
     0
  1

  0
DICTIONARYVAR
  5
3F2
102
{ACAD_REACTORS
330
3EE
102
}
330
3EE
100
DictionaryVariables
280
     0
  1

  0
DICTIONARYVAR
  5
3F6
102
{ACAD_REACTORS
330
3EE
102
}
330
3EE
100
DictionaryVariables
280
     0
  1
1
  0
DICTIONARYVAR
  5
3F7
102
{ACAD_REACTORS
330
3EE
102
}
330
3EE
100
DictionaryVariables
280
     0
  1
15
  0
DICTIONARYVAR
  5
3F5
102
{ACAD_REACTORS
330
3EE
102
}
330
3EE
100
DictionaryVariables
280
     0
  1
0
  0
DICTIONARYVAR
  5
3F3
102
{ACAD_REACTORS
330
3EE
102
}
330
3EE
100
DictionaryVariables
280
     0
  1
0
  0
DICTIONARY
  5
3A2
102
{ACAD_REACTORS
330
3A1
102
}
330
3A1
100
AcDbDictionary
281
     1
  0
DICTIONARY
  5
39C
102
{ACAD_REACTORS
330
392
102
}
330
392
100
AcDbDictionary
281
     1
  3
DWGSETTINGS
350
39B
  3
TRANSSETTINGS
350
39D
  0
DICTIONARY
  5
3B9
330
3B8
100
AcDbDictionary
280
     1
281
     1
  3
ACAD_XREC_ROUNDTRIP
360
3FA
  0
DICTIONARY
  5
3BC
330
3BB
100
AcDbDictionary
280
     1
281
     1
  3
ACAD_XREC_ROUNDTRIP
360
3FB
  0
DICTIONARY
  5
44
330
43
100
AcDbDictionary
280
     1
281
     1
  3
BUMPTILE
360
45
  3
DIFFUSETILE
360
46
  3
OPACITYTILE
360
47
  3
REFLECTIONTILE
360
48
  3
REFRACTIONTILE
360
49
  3
SPECULARTILE
360
4A
  0
DICTIONARY
  5
17
330
16
100
AcDbDictionary
280
     1
281
     1
  3
BUMPTILE
360
18
  3
DIFFUSETILE
360
19
  3
OPACITYTILE
360
1A
  3
REFLECTIONTILE
360
1B
  3
REFRACTIONTILE
360
1C
  3
SPECULARTILE
360
1D
  0
DICTIONARY
  5
E
330
C
100
AcDbDictionary
280
     1
281
     1
  3
BUMPTILE
360
F
  3
DIFFUSETILE
360
10
  3
OPACITYTILE
360
11
  3
REFLECTIONTILE
360
12
  3
REFRACTIONTILE
360
13
  3
SPECULARTILE
360
14
  0
DICTIONARY
  5
3CB
330
3CA
100
AcDbDictionary
280
     1
281
     1
  3
ACAD_XREC_ROUNDTRIP
360
3FC
  0
DICTIONARY
  5
3CE
330
3CD
100
AcDbDictionary
280
     1
281
     1
  3
ACAD_XREC_ROUNDTRIP
360
3FD
  0
DICTIONARY
  5
52
330
51
100
AcDbDictionary
280
     1
281
     1
  3
ACAD_ROUNDTRIP_2008_TABLESTYLE_CELLSTYLEMAP
360
3F8
  0
XRECORD
  5
3FA
102
{ACAD_REACTORS
330
3B9
102
}
330
3B9
100
AcDbXrecord
280
     1
102
DISPLAYNAME
  1
Imperial24
102
FLAGS
 90
        0
  0
XRECORD
  5
3FB
102
{ACAD_REACTORS
330
3BC
102
}
330
3BC
100
AcDbXrecord
280
     1
102
DISPLAYNAME
  1
Metric50
102
FLAGS
 90
        0
  0
XRECORD
  5
45
102
{ACAD_REACTORS
330
44
102
}
330
44
100
AcDbXrecord
280
     1
270
     1
271
     1
  0
XRECORD
  5
46
102
{ACAD_REACTORS
330
44
102
}
330
44
100
AcDbXrecord
280
     1
270
     1
271
     1
  0
XRECORD
  5
47
102
{ACAD_REACTORS
330
44
102
}
330
44
100
AcDbXrecord
280
     1
270
     1
271
     1
  0
XRECORD
  5
48
102
{ACAD_REACTORS
330
44
102
}
330
44
100
AcDbXrecord
280
     1
270
     1
271
     1
  0
XRECORD
  5
49
102
{ACAD_REACTORS
330
44
102
}
330
44
100
AcDbXrecord
280
     1
270
     1
271
     1
  0
XRECORD
  5
4A
102
{ACAD_REACTORS
330
44
102
}
330
44
100
AcDbXrecord
280
     1
270
     1
271
     1
  0
XRECORD
  5
18
102
{ACAD_REACTORS
330
17
102
}
330
17
100
AcDbXrecord
280
     1
270
     1
271
     1
  0
XRECORD
  5
19
102
{ACAD_REACTORS
330
17
102
}
330
17
100
AcDbXrecord
280
     1
270
     1
271
     1
  0
XRECORD
  5
1A
102
{ACAD_REACTORS
330
17
102
}
330
17
100
AcDbXrecord
280
     1
270
     1
271
     1
  0
XRECORD
  5
1B
102
{ACAD_REACTORS
330
17
102
}
330
17
100
AcDbXrecord
280
     1
270
     1
271
     1
  0
XRECORD
  5
1C
102
{ACAD_REACTORS
330
17
102
}
330
17
100
AcDbXrecord
280
     1
270
     1
271
     1
  0
XRECORD
  5
1D
102
{ACAD_REACTORS
330
17
102
}
330
17
100
AcDbXrecord
280
     1
270
     1
271
     1
  0
XRECORD
  5
F
102
{ACAD_REACTORS
330
E
102
}
330
E
100
AcDbXrecord
280
     1
270
     1
271
     1
  0
XRECORD
  5
10
102
{ACAD_REACTORS
330
E
102
}
330
E
100
AcDbXrecord
280
     1
270
     1
271
     1
  0
XRECORD
  5
11
102
{ACAD_REACTORS
330
E
102
}
330
E
100
AcDbXrecord
280
     1
270
     1
271
     1
  0
XRECORD
  5
12
102
{ACAD_REACTORS
330
E
102
}
330
E
100
AcDbXrecord
280
     1
270
     1
271
     1
  0
XRECORD
  5
13
102
{ACAD_REACTORS
330
E
102
}
330
E
100
AcDbXrecord
280
     1
270
     1
271
     1
  0
XRECORD
  5
14
102
{ACAD_REACTORS
330
E
102
}
330
E
100
AcDbXrecord
280
     1
270
     1
271
     1
  0
XRECORD
  5
3FC
102
{ACAD_REACTORS
330
3CB
102
}
330
3CB
100
AcDbXrecord
280
     1
102
DISPLAYNAME
  1
Imperial24
102
FLAGS
 90
        0
  0
XRECORD
  5
3FD
102
{ACAD_REACTORS
330
3CE
102
}
330
3CE
100
AcDbXrecord
280
     1
102
DISPLAYNAME
  1
Metric50
102
FLAGS
 90
        0
  0
CELLSTYLEMAP
  5
3F8
102
{ACAD_REACTORS
330
52
102
}
330
52
100
AcDbCellStyleMap
 90
        3
300
CELLSTYLE
  1
TABLEFORMAT_BEGIN
 90
        5
170
     1
 91
        0
 92
    32768
 62
   257
 93
        1
300
CONTENTFORMAT
  1
CONTENTFORMAT_BEGIN
 90
        0
 91
        0
 92
        4
 93
        0
300

 40
0.0
140
1.0
 94
        5
 62
     0
340
2A
144
6.0
309
CONTENTFORMAT_END
171
     1
301
MARGIN
  1
CELLMARGIN_BEGIN
 40
1.5
 40
1.5
 40
1.5
 40
1.5
 40
0.18
 40
0.18
309
CELLMARGIN_END
 94
        6
 95
        1
302
GRIDFORMAT
  1
GRIDFORMAT_BEGIN
 90
        0
 91
        1
 62
     0
 92
       -2
340
0
 93
        0
 40
0.045
309
GRIDFORMAT_END
 95
        2
302
GRIDFORMAT
  1
GRIDFORMAT_BEGIN
 90
        0
 91
        1
 62
     0
 92
       -2
340
0
 93
        0
 40
0.045
309
GRIDFORMAT_END
 95
        4
302
GRIDFORMAT
  1
GRIDFORMAT_BEGIN
 90
        0
 91
        1
 62
     0
 92
       -2
340
0
 93
        0
 40
0.045
309
GRIDFORMAT_END
 95
        8
302
GRIDFORMAT
  1
GRIDFORMAT_BEGIN
 90
        0
 91
        1
 62
     0
 92
       -2
340
0
 93
        0
 40
0.045
309
GRIDFORMAT_END
 95
       16
302
GRIDFORMAT
  1
GRIDFORMAT_BEGIN
 90
        0
 91
        1
 62
     0
 92
       -2
340
0
 93
        0
 40
0.045
309
GRIDFORMAT_END
 95
       32
302
GRIDFORMAT
  1
GRIDFORMAT_BEGIN
 90
        0
 91
        1
 62
     0
 92
       -2
340
0
 93
        0
 40
0.045
309
GRIDFORMAT_END
309
TABLEFORMAT_END
  1
CELLSTYLE_BEGIN
 90
        1
 91
        1
300
_TITLE
309
CELLSTYLE_END
300
CELLSTYLE
  1
TABLEFORMAT_BEGIN
 90
        5
170
     1
 91
        0
 92
        0
 62
   257
 93
        1
300
CONTENTFORMAT
  1
CONTENTFORMAT_BEGIN
 90
        0
 91
        0
 92
        4
 93
        0
300

 40
0.0
140
1.0
 94
        5
 62
     0
340
2A
144
4.5
309
CONTENTFORMAT_END
171
     1
301
MARGIN
  1
CELLMARGIN_BEGIN
 40
1.5
 40
1.5
 40
1.5
 40
1.5
 40
0.18
 40
0.18
309
CELLMARGIN_END
 94
        6
 95
        1
302
GRIDFORMAT
  1
GRIDFORMAT_BEGIN
 90
        0
 91
        1
 62
     0
 92
       -2
340
0
 93
        0
 40
0.045
309
GRIDFORMAT_END
 95
        2
302
GRIDFORMAT
  1
GRIDFORMAT_BEGIN
 90
        0
 91
        1
 62
     0
 92
       -2
340
0
 93
        0
 40
0.045
309
GRIDFORMAT_END
 95
        4
302
GRIDFORMAT
  1
GRIDFORMAT_BEGIN
 90
        0
 91
        1
 62
     0
 92
       -2
340
0
 93
        0
 40
0.045
309
GRIDFORMAT_END
 95
        8
302
GRIDFORMAT
  1
GRIDFORMAT_BEGIN
 90
        0
 91
        1
 62
     0
 92
       -2
340
0
 93
        0
 40
0.045
309
GRIDFORMAT_END
 95
       16
302
GRIDFORMAT
  1
GRIDFORMAT_BEGIN
 90
        0
 91
        1
 62
     0
 92
       -2
340
0
 93
        0
 40
0.045
309
GRIDFORMAT_END
 95
       32
302
GRIDFORMAT
  1
GRIDFORMAT_BEGIN
 90
        0
 91
        1
 62
     0
 92
       -2
340
0
 93
        0
 40
0.045
309
GRIDFORMAT_END
309
TABLEFORMAT_END
  1
CELLSTYLE_BEGIN
 90
        2
 91
        1
300
_HEADER
309
CELLSTYLE_END
300
CELLSTYLE
  1
TABLEFORMAT_BEGIN
 90
        5
170
     1
 91
        0
 92
        0
 62
   257
 93
        1
300
CONTENTFORMAT
  1
CONTENTFORMAT_BEGIN
 90
        0
 91
        0
 92
        4
 93
        0
300

 40
0.0
140
1.0
 94
        2
 62
     0
340
2A
144
4.5
309
CONTENTFORMAT_END
171
     1
301
MARGIN
  1
CELLMARGIN_BEGIN
 40
1.5
 40
1.5
 40
1.5
 40
1.5
 40
0.18
 40
0.18
309
CELLMARGIN_END
 94
        6
 95
        1
302
GRIDFORMAT
  1
GRIDFORMAT_BEGIN
 90
        0
 91
        1
 62
     0
 92
       -2
340
0
 93
        0
 40
0.045
309
GRIDFORMAT_END
 95
        2
302
GRIDFORMAT
  1
GRIDFORMAT_BEGIN
 90
        0
 91
        1
 62
     0
 92
       -2
340
0
 93
        0
 40
0.045
309
GRIDFORMAT_END
 95
        4
302
GRIDFORMAT
  1
GRIDFORMAT_BEGIN
 90
        0
 91
        1
 62
     0
 92
       -2
340
0
 93
        0
 40
0.045
309
GRIDFORMAT_END
 95
        8
302
GRIDFORMAT
  1
GRIDFORMAT_BEGIN
 90
        0
 91
        1
 62
     0
 92
       -2
340
0
 93
        0
 40
0.045
309
GRIDFORMAT_END
 95
       16
302
GRIDFORMAT
  1
GRIDFORMAT_BEGIN
 90
        0
 91
        1
 62
     0
 92
       -2
340
0
 93
        0
 40
0.045
309
GRIDFORMAT_END
 95
       32
302
GRIDFORMAT
  1
GRIDFORMAT_BEGIN
 90
        0
 91
        1
 62
     0
 92
       -2
340
0
 93
        0
 40
0.045
309
GRIDFORMAT_END
309
TABLEFORMAT_END
  1
CELLSTYLE_BEGIN
 90
        3
 91
        2
300
_DATA
309
CELLSTYLE_END
  0
ENDSEC
  0
SECTION
  2
ACDSDATA
 70
     2
 71
     6
  0
ACDSSCHEMA
 90
        0
  1
AcDb_Thumbnail_Schema
  2
AcDbDs::ID
280
    10
 91
        8
  2
Thumbnail_Data
280
    15
 91
        0
101
ACDSRECORD
 95
        0
 90
        1
  2
AcDbDs::TreatedAsObjectData
280
     1
291
     1
101
ACDSRECORD
 95
        0
 90
        2
  2
AcDbDs::Legacy
280
     1
291
     1
101
ACDSRECORD
  1
AcDbDs::ID
 90
        3
  2
AcDs:Indexable
280
     1
291
     1
101
ACDSRECORD
  1
AcDbDs::ID
 90
        4
  2
AcDbDs::HandleAttribute
280
     7
282
     1
  0
ACDSSCHEMA
 90
        1
  1
AcDbDs::TreatedAsObjectDataSchema
  2
AcDbDs::TreatedAsObjectData
280
     1
 91
        0
  0
ACDSSCHEMA
 90
        2
  1
AcDbDs::LegacySchema
  2
AcDbDs::Legacy
280
     1
 91
        0
  0
ACDSSCHEMA
 90
        3
  1
AcDbDs::IndexedPropertySchema
  2
AcDs:Indexable
280
     1
 91
        0
  0
ACDSSCHEMA
 90
        4
  1
AcDbDs::HandleAttributeSchema
  2
AcDbDs::HandleAttribute
280
     7
 91
        1
284
     1
  0
ACDSRECORD
 90
        0
  2
AcDbDs::ID
280
    10
320
1F
  2
Thumbnail_Data
280
    15
 94
     2785
310
89504E470D0A1A0A0000000D49484452000001000000007808030000002AAADC4C00000300504C5445000000000000C8C8C80000000000000000000000000000000000000000000000000000330000660000990000CC0000FF0033000033330033660033990033CC0033FF0066000066330066660066990066CC0066FF0099
310
000099330099660099990099CC0099FF00CC0000CC3300CC6600CC9900CCCC00CCFF00FF0000FF3300FF6600FF9900FFCC00FFFF3300003300333300663300993300CC3300FF3333003333333333663333993333CC3333FF3366003366333366663366993366CC3366FF3399003399333399663399993399CC3399FF33CC00
310
33CC3333CC6633CC9933CCCC33CCFF33FF0033FF3333FF6633FF9933FFCC33FFFF6600006600336600666600996600CC6600FF6633006633336633666633996633CC6633FF6666006666336666666666996666CC6666FF6699006699336699666699996699CC6699FF66CC0066CC3366CC6666CC9966CCCC66CCFF66FF0066
310
FF3366FF6666FF9966FFCC66FFFF9900009900339900669900999900CC9900FF9933009933339933669933999933CC9933FF9966009966339966669966999966CC9966FF9999009999339999669999999999CC9999FF99CC0099CC3399CC6699CC9999CCCC99CCFF99FF0099FF3399FF6699FF9999FFCC99FFFFCC0000CC00
310
33CC0066CC0099CC00CCCC00FFCC3300CC3333CC3366CC3399CC33CCCC33FFCC6600CC6633CC6666CC6699CC66CCCC66FFCC9900CC9933CC9966CC9999CC99CCCC99FFCCCC00CCCC33CCCC66CCCC99CCCCCCCCCCFFCCFF00CCFF33CCFF66CCFF99CCFFCCCCFFFFFF0000FF0033FF0066FF0099FF00CCFF00FFFF3300FF3333
310
FF3366FF3399FF33CCFF33FFFF6600FF6633FF6666FF6699FF66CCFF66FFFF9900FF9933FF9966FF9999FF99CCFF99FFFFCC00FFCC33FFCC66FFCC99FFCCCCFFCCFFFFFF00FFFF33FFFF66FFFF99FFFFCCFFFFFF0000000D0D0D1A1A1A2828283535354343435050505D5D5D6B6B6B787878868686939393A1A1A1AEAEAEBB
310
BBBBC9C9C9D6D6D6E4E4E4F1F1F1FFFFFF00000000000000000000000000000000000000000000000000000000000008F1915C000006A94944415478DAED9C3D62DB3C0C8671831E403E0016DD7FE3E2ED1B3266C211B272FF28FE893F2045DA4A1A5578DB54B21C53D223000441BA00229148241289442291482412894422
310
91482412DD5A6825005EFA147EDBF544FDC0BDBF742E01F0AD97873FE897F8DB5CE022004422D195A4BC0480E89E4FFF1A174A0D95EF6BFF5A6BED37D9F6C20080E2253307FD8E56018A52EEC6BF26741100C9A364009877C9EFC503C9F6BA1A04B0FD750040C703C9F69F07A04CF69E5B0064DB4ACF24E9BF5C0CC0BBC700
310
0E802E2D402716A052E516000817B1007347E6EAB76E4D29327FBCCCAED9D74406C0F6DADCB9DBE45B1EC0F3792100D602B4EBD7330BD84C7F3E082600E05A00C07678A90B74019489D36EF99703409ACD047700C05A808B051580A7D3AF7381EA61A500FC9D98678DEF0340BC1C802DCE3987E75D6016C0FAF9B9FE3600D8
310
730103C0453C7D068075FB77FDEE1840EFDE7F9507E89F05C0449DD1F12A81CB4E29262761C72729CC38058F3341FBC91A800AA7089960D876007C1E03086983EB6CF97A924A2E31E392C20957F7F5B744AFA4C2E67ED6B51C7CA84A3B5E5D5ABF8D5B6D0B301F285A5255996E0FF8D105B66CE06C17486E6697B9FB11001D
310
F9C03DF8DBA84055043800703A00E6699A37D50900A87FFFE11788B1AB661004383B08669714F7D6D52058C388A35942A3C405ACEAA8A9F3ABF317E7AE8D286DA18E8454B4AECB4CD039D90B0096C7B23CEA20985800EB025D00FB707418004C007063C2C2028600600DE0010FF3B70760B3C30900C6DF690F78D927625546
310
81DEAB342D0050E4FA1462C176B00630E4022C00C065E95A809AB4005B5B6201E49DB43A00C05B00226F01AFC6005B0D5BEA54989260E701207601D840EF835D0340C878B20C681C4068BE032096FFCB79810E0073E73C8018B9D77518401503E0E518C000E8C580B72D202F8A6EAFC81A807DFCA32ED00750B8804F530300
310
24C466F35802801C00BE980AE3F363599C053400982E72380658130909EF76E2C2661A99E02880D07A04800C009D9D622F8A3601C016016B00C11E0D80895EC075E6BA09207750EF9F332E604EA05900750C80F118E00130166DEF1D6C1470839A43001882207031E05D00219FAE5DE055007F3C00C558005AA3DEB244EB02
310
A300BC05E83900DE568E01A4167012803FEB7F1600D7AD5B006A1800EC31C04E519C0D2089015AE319DDE01100F3E363008E0030BF84AE6AB95DE96654FD2038D70D6EAD9B16DDC88174DE7A08825006413876019309322E40104B19DB60C8BDEA86691B043119479700FADD205B6E292C00B3E6998991F98A90CB039C05EC
310
63D330402D85A4BE4FF4DE87AD7BC419B06A6A4C1F8EC95551C4712E07DB60580D07C13211CABAF6E34C10063341DFBD67F302F44E2688590CA018D342F23D1E04DF4B854700B8F94F7265B6B352E116005B0EB079C029000E83E01000D70B10DB0D5699E04022F4814B1700581718ED0562B96A7A2C70080053008D3CA00A
310
825D00CBB218008F075800D806309707C45418A7C6022316B0B51E01702E3067018B4F850F2D603C13B4CFA709E030153E06A0A10B602E11EA03406773D3630115C702A703F0ADAB9701200B40A90C006209606C386C3F87A905CC0D86B00FC0B59E5A0057147D0940610101806F7C07705C1172A9A36E0238A8071C02C863
310
000760AE1EE08220F85E80098201C050492C54857D51D8255667F60201845BEE35D80B0CA4C20B072054845C0C982B8BDBB27598EE39330FF0CDEBA4F97707430680FF5A5411044700506762C4923FBB1BDC97C8F8E61BDD208D97C4E0F9F1B1B87901AE1BEC02E06B6871F182074027BB4000A01B00C24AC96117783C4255
310
B8064071303C09C02E63CCE706E92417D8006CAD6B6AB9800330EC028FC78A0F6401F817AA0100F2D16532B7AB9D8BC6A17570589D8F55FD5035CC74F687C3FBDBA499836E386C9B74A72C87C344D57038C480D5C6BF1DC0C49CF7BE9E409593A3BEB8E191654F855B20C19DB7E302D5C1F4FB026C0C68AD1546F093424C49
310
CCEF6CF58064894C42206D119280AF42E126D60362252730A6240678371D0590BE810580FD2CEE1493ABC5FD329AEE3A9AAFFD02BFAE243B7E6E2C962E5C806A0B985CE64647818CD28E862657D1750A87495BFE5C313B699DE409E5F706B10460ED7B1200FFED0B8C53DCBEC49A6E2600B4BFDBB1B7E57D2F1C689E245D19
310
135D20E33C6D01BE1ECC568E29DDA16C33D17C0F00950088A077120C3F75593C6ADA0500AEF38DFBEDC11F2C129D76D22B09EF0E008EFF83887F1D00C0BD2DE03894DD18002553917067DDD705F2940011E9BE00EE71A75F37178844229148241289442291482412896EA6FF014E6D0B6171CCA88E0000000049454E44AE42
310
60828BF554F84900E0AFB30AEC78FCE8084A1EF7899EA8017F9B53F5FE9A69E3691FCFACFF435EF093E2DF4965F67FF6FFD5923878BF13FDE95F751B17CA133D2B666CF59F9E31E67B60009BF79F281E112DF280B71CF47E48FFE984A3FE53A6FCA28D9559A3B79AD1ADA4C82115A5B7F03294EC3C0A401C03C04E27782600
310
BBC260FC83DB7627FFDFA26C6EFD2F18D74A5303DEC207D8DF500A832AAE30B24D0B79E92D00603C928C54D676B75181CAD27B00008C00B8DF65C1C16D5C284BEF120629F10114D76E6DA342A5F4164E50C600A4DB5385FA56645B57A8967E20FF0307895F16799788F40000000049454E44AE426082
  0
ENDSEC
  0
EOF
