  0
SECTION
  2
HEADER
  9
$ACADVER
  1
AC1027
  9
$ACADMAINTVER
 70
    57
  9
$DWGCODEPAGE
  3
ANSI_1252
  9
$REQUIREDVERSIONS
160
                 0
  9
$INSBASE
 10
0.0
 20
0.0
 30
0.0
  9
$EXTMIN
 10
-3624.63532370844
 20
-1765.526607416668
 30
0.0
  9
$EXTMAX
 10
5807.4814844508
 20
3517.702528198181
 30
0.0
  9
$LIMMIN
 10
0.0
 20
0.0
  9
$LIMMAX
 10
420.0
 20
420.0
  9
$ORTHOMODE
 70
     1
  9
$REGENMODE
 70
     1
  9
$FILLMODE
 70
     1
  9
$QTEXTMODE
 70
     0
  9
$MIRRTEXT
 70
     0
  9
$LTSCALE
 40
1.0
  9
$ATTMODE
 70
     1
  9
$TEXTSIZE
 40
2.399999999999999
  9
$TRACEWID
 40
0.05
  9
$TEXTSTYLE
  7
NORM
  9
$CLAYER
  8
UMRISS05
  9
$CELTYPE
  6
BYLAYER
  9
$CECOLOR
 62
   256
  9
$CELTSCALE
 40
1.0
  9
$DISPSILH
 70
     0
  9
$DIMSCALE
 40
1.0
  9
$DIMASZ
 40
3.5
  9
$DIMEXO
 40
0.0
  9
$DIMDLI
 40
8.0
  9
$DIMRND
 40
0.0
  9
$DIMDLE
 40
0.0
  9
$DIMEXE
 40
0.5
  9
$DIMTP
 40
0.0
  9
$DIMTM
 40
0.0
  9
$DIMTXT
 40
3.5
  9
$DIMCEN
 40
1.5
  9
$DIMTSZ
 40
0.0
  9
$DIMTOL
 70
     0
  9
$DIMLIM
 70
     0
  9
$DIMTIH
 70
     0
  9
$DIMTOH
 70
     0
  9
$DIMSE1
 70
     0
  9
$DIMSE2
 70
     0
  9
$DIMTAD
 70
     1
  9
$DIMZIN
 70
     8
  9
$DIMBLK
  1

  9
$DIMASO
 70
     1
  9
$DIMSHO
 70
     1
  9
$DIMPOST
  1

  9
$DIMAPOST
  1

  9
$DIMALT
 70
     0
  9
$DIMALTD
 70
     2
  9
$DIMALTF
 40
25.4
  9
$DIMLFAC
 40
1.0
  9
$DIMTOFL
 70
     1
  9
$DIMTVP
 40
0.0
  9
$DIMTIX
 70
     1
  9
$DIMSOXD
 70
     0
  9
$DIMSAH
 70
     0
  9
$DIMBLK1
  1

  9
$DIMBLK2
  1

  9
$DIMSTYLE
  2
NORMAL
  9
$DIMCLRD
 70
   256
  9
$DIMCLRE
 70
   256
  9
$DIMCLRT
 70
     3
  9
$DIMTFAC
 40
0.5
  9
$DIMGAP
 40
1.0
  9
$DIMJUST
 70
     0
  9
$DIMSD1
 70
     0
  9
$DIMSD2
 70
     0
  9
$DIMTOLJ
 70
     1
  9
$DIMTZIN
 70
     8
  9
$DIMALTZ
 70
     0
  9
$DIMALTTZ
 70
     0
  9
$DIMUPT
 70
     0
  9
$DIMDEC
 70
     2
  9
$DIMTDEC
 70
     2
  9
$DIMALTU
 70
     2
  9
$DIMALTTD
 70
     2
  9
$DIMTXSTY
  7
ARIAL-STANDARD
  9
$DIMAUNIT
 70
     0
  9
$DIMADEC
 70
     0
  9
$DIMALTRND
 40
0.0
  9
$DIMAZIN
 70
     0
  9
$DIMDSEP
 70
    46
  9
$DIMATFIT
 70
     3
  9
$DIMFRAC
 70
     0
  9
$DIMLDRBLK
  1

  9
$DIMLUNIT
 70
     2
  9
$DIMLWD
 70
    -2
  9
$DIMLWE
 70
    -2
  9
$DIMTMOVE
 70
     0
  9
$DIMFXL
 40
1.0
  9
$DIMFXLON
 70
     0
  9
$DIMJOGANG
 40
0.7853981633974483
  9
$DIMTFILL
 70
     0
  9
$DIMTFILLCLR
 70
     0
  9
$DIMARCSYM
 70
     0
  9
$DIMLTYPE
  6

  9
$DIMLTEX1
  6

  9
$DIMLTEX2
  6

  9
$DIMTXTDIRECTION
 70
     0
  9
$LUNITS
 70
     2
  9
$LUPREC
 70
     2
  9
$SKETCHINC
 40
0.1
  9
$FILLETRAD
 40
10.0
  9
$AUNITS
 70
     0
  9
$AUPREC
 70
     0
  9
$MENU
  1
.
  9
$ELEVATION
 40
0.0
  9
$PELEVATION
 40
0.0
  9
$THICKNESS
 40
0.0
  9
$LIMCHECK
 70
     0
  9
$CHAMFERA
 40
2.5
  9
$CHAMFERB
 40
2.5
  9
$CHAMFERC
 40
1.0
  9
$CHAMFERD
 40
0.0
  9
$SKPOLY
 70
     0
  9
$TDCREATE
 40
2456932.632606817
  9
$TDUCREATE
 40
2456932.549273484
  9
$TDUPDATE
 40
2457212.445725613
  9
$TDUUPDATE
 40
2457212.362392280
  9
$TDINDWG
 40
6.4914005671
  9
$TDUSRTIMER
 40
6.4913987616
  9
$USRTIMER
 70
     1
  9
$ANGBASE
 50
0.0
  9
$ANGDIR
 70
     0
  9
$PDMODE
 70
     0
  9
$PDSIZE
 40
0.0
  9
$PLINEWID
 40
0.0
  9
$SPLFRAME
 70
     0
  9
$SPLINETYPE
 70
     6
  9
$SPLINESEGS
 70
     8
  9
$HANDSEED
  5
43A
  9
$SURFTAB1
 70
     6
  9
$SURFTAB2
 70
     6
  9
$SURFTYPE
 70
     6
  9
$SURFU
 70
     6
  9
$SURFV
 70
     6
  9
$UCSBASE
  2

  9
$UCSNAME
  2

  9
$UCSORG
 10
0.0
 20
0.0
 30
0.0
  9
$UCSXDIR
 10
1.0
 20
0.0
 30
0.0
  9
$UCSYDIR
 10
0.0
 20
1.0
 30
0.0
  9
$UCSORTHOREF
  2

  9
$UCSORTHOVIEW
 70
     0
  9
$UCSORGTOP
 10
0.0
 20
0.0
 30
0.0
  9
$UCSORGBOTTOM
 10
0.0
 20
0.0
 30
0.0
  9
$UCSORGLEFT
 10
0.0
 20
0.0
 30
0.0
  9
$UCSORGRIGHT
 10
0.0
 20
0.0
 30
0.0
  9
$UCSORGFRONT
 10
0.0
 20
0.0
 30
0.0
  9
$UCSORGBACK
 10
0.0
 20
0.0
 30
0.0
  9
$PUCSBASE
  2

  9
$PUCSNAME
  2

  9
$PUCSORG
 10
0.0
 20
0.0
 30
0.0
  9
$PUCSXDIR
 10
1.0
 20
0.0
 30
0.0
  9
$PUCSYDIR
 10
0.0
 20
1.0
 30
0.0
  9
$PUCSORTHOREF
  2

  9
$PUCSORTHOVIEW
 70
     0
  9
$PUCSORGTOP
 10
0.0
 20
0.0
 30
0.0
  9
$PUCSORGBOTTOM
 10
0.0
 20
0.0
 30
0.0
  9
$PUCSORGLEFT
 10
0.0
 20
0.0
 30
0.0
  9
$PUCSORGRIGHT
 10
0.0
 20
0.0
 30
0.0
  9
$PUCSORGFRONT
 10
0.0
 20
0.0
 30
0.0
  9
$PUCSORGBACK
 10
0.0
 20
0.0
 30
0.0
  9
$USERI1
 70
     0
  9
$USERI2
 70
     0
  9
$USERI3
 70
     0
  9
$USERI4
 70
     0
  9
$USERI5
 70
     0
  9
$USERR1
 40
0.0
  9
$USERR2
 40
0.0
  9
$USERR3
 40
0.0
  9
$USERR4
 40
0.0
  9
$USERR5
 40
0.0
  9
$WORLDVIEW
 70
     1
  9
$SHADEDGE
 70
     3
  9
$SHADEDIF
 70
    70
  9
$TILEMODE
 70
     1
  9
$MAXACTVP
 70
    48
  9
$PINSBASE
 10
0.0
 20
0.0
 30
0.0
  9
$PLIMCHECK
 70
     0
  9
$PEXTMIN
 10
26.66999878883363
 20
20.31999878883363
 30
0.0
  9
$PEXTMAX
 10
240.0299890995026
 20
182.8799890995025
 30
0.0
  9
$PLIMMIN
 10
-6.350006103515625
 20
-6.349999904632568
  9
$PLIMMAX
 10
273.0499877929688
 20
209.5499939918518
  9
$UNITMODE
 70
     0
  9
$VISRETAIN
 70
     1
  9
$PLINEGEN
 70
     0
  9
$PSLTSCALE
 70
     1
  9
$TREEDEPTH
 70
  3020
  9
$CMLSTYLE
  2
STANDARD
  9
$CMLJUST
 70
     0
  9
$CMLSCALE
 40
1.0
  9
$PROXYGRAPHICS
 70
     1
  9
$MEASUREMENT
 70
     1
  9
$CELWEIGHT
370
    -1
  9
$ENDCAPS
280
     0
  9
$JOINSTYLE
280
     0
  9
$LWDISPLAY
290
     0
  9
$INSUNITS
 70
     0
  9
$HYPERLINKBASE
  1

  9
$STYLESHEET
  1

  9
$XEDIT
290
     1
  9
$CEPSNTYPE
380
     0
  9
$PSTYLEMODE
290
     1
  9
$FINGERPRINTGUID
  2
{4CC7940C-194A-4184-9516-DE602C808EDE}
  9
$VERSIONGUID
  2
{D3582AAA-08EB-4842-82C1-C59F7AB51E22}
  9
$EXTNAMES
290
     1
  9
$PSVPSCALE
 40
0.0
  9
$OLESTARTUP
290
     0
  9
$SORTENTS
280
   127
  9
$INDEXCTL
280
     0
  9
$HIDETEXT
280
     1
  9
$XCLIPFRAME
280
     0
  9
$HALOGAP
280
     0
  9
$OBSCOLOR
 70
   257
  9
$OBSLTYPE
280
     0
  9
$INTERSECTIONDISPLAY
280
     0
  9
$INTERSECTIONCOLOR
 70
   257
  9
$DIMASSOC
280
     1
  9
$PROJECTNAME
  1

  9
$CAMERADISPLAY
290
     0
  9
$LENSLENGTH
 40
50.0
  9
$CAMERAHEIGHT
 40
0.0
  9
$STEPSPERSEC
 40
2.0
  9
$STEPSIZE
 40
6.0
  9
$3DDWFPREC
 40
2.0
  9
$PSOLWIDTH
 40
0.25
  9
$PSOLHEIGHT
 40
4.0
  9
$LOFTANG1
 40
1.570796326794896
  9
$LOFTANG2
 40
1.570796326794896
  9
$LOFTMAG1
 40
0.0
  9
$LOFTMAG2
 40
0.0
  9
$LOFTPARAM
 70
     7
  9
$LOFTNORMALS
280
     1
  9
$LATITUDE
 40
37.795
  9
$LONGITUDE
 40
-122.394
  9
$NORTHDIRECTION
 40
0.0
  9
$TIMEZONE
 70
 -8000
  9
$LIGHTGLYPHDISPLAY
280
     1
  9
$TILEMODELIGHTSYNCH
280
     1
  9
$CMATERIAL
347
3B
  9
$SOLIDHIST
280
     1
  9
$SHOWHIST
280
     1
  9
$DWFFRAME
280
     2
  9
$DGNFRAME
280
     0
  9
$REALWORLDSCALE
290
     1
  9
$INTERFERECOLOR
 62
     1
  9
$INTERFEREOBJVS
345
56
  9
$INTERFEREVPVS
346
57
  9
$CSHADOW
280
     0
  9
$SHADOWPLANELOCATION
 40
0.0
  0
ENDSEC
  0
SECTION
  2
CLASSES
  0
CLASS
  1
ACDBDICTIONARYWDFLT
  2
AcDbDictionaryWithDefault
  3
ObjectDBX Classes
 90
        0
 91
        1
280
     0
281
     0
  0
CLASS
  1
PLOTSETTINGS
  2
AcDbPlotSettings
  3
ObjectDBX Classes
 90
        0
 91
        0
280
     0
281
     0
  0
CLASS
  1
DICTIONARYVAR
  2
AcDbDictionaryVar
  3
ObjectDBX Classes
 90
        0
 91
        9
280
     0
281
     0
  0
CLASS
  1
ACME_DOCUMENT
  2
AcMeDbDoc
  3
AcMeServices
 90
     1024
 91
        0
280
     0
281
     0
  0
CLASS
  1
AMGSETTINGSOBJ
  2
AmgSettingsObj
  3
"AcadM|Product Description: AutoCAD Mechanical|Company: Autodesk, Inc."
 90
     1024
 91
        3
280
     0
281
     0
  0
CLASS
  1
ACMESCOPE
  2
AcMeScope
  3
AcMeServices
 90
     1024
 91
        1
280
     0
281
     0
  0
CLASS
  1
ACMECOMMANDHISTORY
  2
AcMeCommandHistory
  3
AcMeServices
 90
     1024
 91
        0
280
     0
281
     0
  0
CLASS
  1
ACIMSYSVARMAN
  2
AcImSysVarManager
  3
AcMeServices
 90
     1024
 91
        2
280
     0
281
     0
  0
CLASS
  1
ACIMREALSYSVAR
  2
AcImRealSysVar
  3
AcMeServices
 90
     1024
 91
        1
280
     0
281
     0
  0
CLASS
  1
ACIMINTSYSVAR
  2
AcImIntSysVar
  3
AcMeServices
 90
     1024
 91
       26
280
     0
281
     0
  0
CLASS
  1
ACMEDRAWINGMAN
  2
AcMeDrawingMan
  3
AcMeServices
 90
     1024
 91
        0
280
     0
281
     0
  0
CLASS
  1
ACMEVIEW
  2
AcMeView
  3
AcMeServices
 90
     1024
 91
        0
280
     0
281
     0
  0
CLASS
  1
ACDBENTITYCACHE
  2
AcMeEntityCache
  3
AcMeServices
 90
     1024
 91
        0
280
     0
281
     0
  0
CLASS
  1
GSMANAGER
  2
AcMeGSManager
  3
AcMeServices
 90
     1024
 91
        0
280
     1
281
     0
  0
CLASS
  1
AMDTINTERNALREACTOR
  2
AmdtInternalReactor
  3
AcMeServices
 90
     1024
 91
        1
280
     0
281
     0
  0
CLASS
  1
ACMESTATEMGR
  2
AcMeStateMgr
  3
AcMeServices
 90
     1024
 91
        1
280
     0
281
     0
  0
CLASS
  1
ACGREFMASTER
  2
AcGrefMaster
  3
AcAttribServices
 90
     1024
 91
        1
280
     0
281
     0
  0
CLASS
  1
ACME_DATABASE
  2
AcMeDbDatabase
  3
AcMeServices
 90
     1024
 91
        0
280
     0
281
     0
  0
CLASS
  1
ACRFINSADJUSTERMGR
  2
AcRfInsAdjusterMgr
  3
AcMeServices
 90
     1024
 91
        0
280
     0
281
     0
  0
CLASS
  1
ACGREFACADMASTER
  2
AcGrefacadMaster
  3
AcGrefServices
 90
     1024
 91
        0
280
     0
281
     0
  0
CLASS
  1
AMIMASTER
  2
AmiMaster
  3
AmiServices
 90
     1024
 91
        0
280
     0
281
     0
  0
CLASS
  1
ACMDATADICTIONARY
  2
AcmDataDictionary
  3
"AcmSymBB|Product Description: AutoCAD Mechanical|Company: Autodesk, Inc."
 90
     1024
 91
        1
280
     0
281
     0
  0
CLASS
  1
ACMDATAENTRYBLOCK
  2
AcmDataEntryBlock
  3
AcmSymBB|Product Description: AutoCAD Mechanical|Company: Autodesk, Inc.
 90
     1024
 91
        1
280
     0
281
     0
  0
CLASS
  1
ACIMSTRSYSVAR
  2
AcImStrSysVar
  3
AcMeServices
 90
     1024
 91
        1
280
     0
281
     0
  0
CLASS
  1
ACMSTANDARDDIN
  2
AcmStandardDIN
  3
"Amdt_StdImp|Product Description: AutoCAD Mechanical|Company: Autodesk, Inc."
 90
     1024
 91
        1
280
     0
281
     0
  0
CLASS
  1
AMGOBJPROPCFG
  2
AmgObjPropCfg
  3
"AmgLay|Product Description: AutoCAD Mechanical|Company: Autodesk, Inc."
 90
     1024
 91
        1
280
     0
281
     0
  0
CLASS
  1
AMDTEDGESTANDARDDIN
  2
AmdtEdgeStdDIN
  3
"Amdt_StdImp|Product Description: AutoCAD Mechanical|Company: Autodesk, Inc."
 90
     1024
 91
        1
280
     0
281
     0
  0
CLASS
  1
ACMSURFSTANDARDDIN
  2
AcmSurfTextStdDIN
  3
"Amdt_StdImp|Product Description: AutoCAD Mechanical|Company: Autodesk, Inc."
 90
     1024
 91
        1
280
     0
281
     0
  0
CLASS
  1
ACMFCFSTANDARDDIN
  2
AcmFCFStdDIN
  3
"Amdt_StdImp|Product Description: AutoCAD Mechanical|Company: Autodesk, Inc."
 90
     1024
 91
        1
280
     0
281
     0
  0
CLASS
  1
ACMWELDSTANDARDDIN
  2
AcmWeldingStdDIN
  3
"Amdt_StdImp|Product Description: AutoCAD Mechanical|Company: Autodesk, Inc."
 90
     1024
 91
        1
280
     0
281
     0
  0
CLASS
  1
ACMIDSTANDARDDIN
  2
AcmIdStdDIN
  3
"Amdt_StdImp|Product Description: AutoCAD Mechanical|Company: Autodesk, Inc."
 90
     1024
 91
        1
280
     0
281
     0
  0
CLASS
  1
ACMDATUMSTANDARDDIN
  2
AcmDatumStdDIN
  3
"Amdt_StdImp|Product Description: AutoCAD Mechanical|Company: Autodesk, Inc."
 90
     1024
 91
        1
280
     0
281
     0
  0
CLASS
  1
ACMBOMSTANDARDDIN
  2
AcmBOMStdDIN
  3
"Amdt_StdImp|Product Description: AutoCAD Mechanical|Company: Autodesk, Inc."
 90
     1024
 91
        1
280
     0
281
     0
  0
CLASS
  1
ACMDETAILSTANDARDDIN
  2
AmdtDetailSymStdDIN
  3
"Amdt_StdImp|Product Description: AutoCAD Mechanical|Company: Autodesk, Inc."
 90
     1024
 91
        1
280
     0
281
     0
  0
CLASS
  1
ACMSECTIONSTANDARDDIN
  2
AmdtSectionSymStdDIN
  3
"Amdt_StdImp|Product Description: AutoCAD Mechanical|Company: Autodesk, Inc."
 90
     1024
 91
        1
280
     0
281
     0
  0
CLASS
  1
ACMCENTERLINESTANDARDDIN
  2
AmdtCenterLineStdDIN
  3
"Amdt_StdImp|Product Description: AutoCAD Mechanical|Company: Autodesk, Inc."
 90
     1024
 91
        1
280
     0
281
     0
  0
CLASS
  1
ACMNOTESTANDARDDIN
  2
AmdtNoteStdDIN
  3
"Amdt_StdImp|Product Description: AutoCAD Mechanical|Company: Autodesk, Inc."
 90
     1024
 91
        1
280
     0
281
     0
  0
CLASS
  1
ACAMGLAYSTD
  2
AcAmgLayStd
  3
"AmgLay|Product Description: AutoCAD Mechanical|Company: Autodesk, Inc."
 90
     1024
 91
        1
280
     0
281
     0
  0
CLASS
  1
ACAMGDIMSTD
  2
AcAmgDimStd
  3
"AmgDim|Product Description: AutoCAD Mechanical|Company: Autodesk, Inc."
 90
     1024
 91
        1
280
     0
281
     0
  0
CLASS
  1
ACAMGHOLECHARTSTDDIN
  2
AcAmgHoleChartStdDIN
  3
AmgDim|Product Description: AutoCAD Mechanical|Company: Autodesk, Inc.
 90
     1024
 91
        1
280
     0
281
     0
  0
CLASS
  1
ACAMGTITLESTD
  2
AcAmgTitleStd
  3
"AmgTitle|Product Description: AutoCAD Mechanical|Company: Autodesk, Inc."
 90
     1024
 91
        1
280
     0
281
     0
  0
CLASS
  1
ACAMGFILTERDAT
  2
AcAmgFilterDat
  3
"AcadM|Product Description: AutoCAD Mechanical|Company: Autodesk, Inc."
 90
     1024
 91
        0
280
     0
281
     0
  0
CLASS
  1
LAYER_INDEX
  2
AcDbLayerIndex
  3
ObjectDBX Classes
 90
        0
 91
        0
280
     0
281
     0
  0
CLASS
  1
IDBUFFER
  2
AcDbIdBuffer
  3
ObjectDBX Classes
 90
        0
 91
        0
280
     0
281
     0
  0
CLASS
  1
TABLESTYLE
  2
AcDbTableStyle
  3
ObjectDBX Classes
 90
     4095
 91
        1
280
     0
281
     0
  0
CLASS
  1
AM_DRAWING_MGR
  2
AcDmDwgMgr
  3
AcMechDwgViewMgmt
 90
     1024
 91
        1
280
     0
281
     0
  0
CLASS
  1
AM_DWG_DOCUMENT
  2
AcDmDwgDocument
  3
AcMechDwgViewMgmt
 90
     1024
 91
        1
280
     0
281
     0
  0
CLASS
  1
AM_DWG_SHEET
  2
AcDmSheet
  3
AcMechDwgViewMgmt
 90
     1024
 91
        1
280
     0
281
     0
  0
CLASS
  1
AM_VIEWDIMPARMAP
  2
AcDmViewDimParMap
  3
AcMechDwgViewMgmt
 90
     1024
 91
        1
280
     0
281
     0
  0
CLASS
  1
AM_DWGMGR_NAME
  2
AcDmDwgMgrName
  3
AcMechDwgViewMgmt
 90
     1024
 91
        1
280
     0
281
     0
  0
CLASS
  1
AMDTMENUSTATEMGR
  2
AmdtMenuStateMgr
  3
McadcomServices
 90
     1024
 91
        0
280
     0
281
     0
  0
CLASS
  1
AMDTMCOMMENUSTATE
  2
AmdtMcomMenuState
  3
McadcomServices
 90
     1024
 91
        0
280
     0
281
     0
  0
CLASS
  1
MAPIAMMOUDLE
  2
MApiAmModule
  3
MApiAmServices
 90
     1024
 91
        0
280
     0
281
     0
  0
CLASS
  1
AMDTADMENUSTATE
  2
AmdtAdMenuState
  3
DesignerServices
 90
     1024
 91
        0
280
     1
281
     0
  0
CLASS
  1
ADAPPL
  2
AcAdAppl
  3
DesignerAssemblies
 90
     1024
 91
        0
280
     0
281
     0
  0
CLASS
  1
DEPMGR
  2
AcAdDepMgr
  3
DesignerAssemblies
 90
     1024
 91
        0
280
     0
281
     0
  0
CLASS
  1
PARAMMGR
  2
AcAdParamMgr
  3
DesignerAssemblies
 90
     1024
 91
        0
280
     0
281
     0
  0
CLASS
  1
PARAMSCOPE
  2
AcAdParamScope
  3
DesignerAssemblies
 90
     1024
 91
        0
280
     0
281
     0
  0
CLASS
  1
NAMEDAPPL
  2
AcAdNamedAppl
  3
DesignerAssemblies
 90
     1024
 91
        0
280
     0
281
     0
  0
CLASS
  1
AMDTDMMENUSTATE
  2
AmdtDmMenuState
  3
AcMechDwgViewMgmt
 90
     1024
 91
        0
280
     1
281
     0
  0
CLASS
  1
AMDTAMMENUSTATE
  2
AmdtAmMenuState
  3
DesignerAssemblies
 90
     1024
 91
        0
280
     0
281
     0
  0
CLASS
  1
ACAMPROJECT
  2
AcAmProject
  3
DesignerAssemblies
 90
     1024
 91
        0
280
     0
281
     0
  0
CLASS
  1
ACAMGRCOMPDEF
  2
AcAmGrCompDef
  3
DesignerAssemblies
 90
     1024
 91
        0
280
     0
281
     0
  0
CLASS
  1
ACCMCONTEXT
  2
AcCmContext
  3
DesignerAssemblies
 90
     1024
 91
        0
280
     0
281
     0
  0
CLASS
  1
ACAMCOMPDEF
  2
AcAmCompDef
  3
DesignerAssemblies
 90
     1024
 91
        0
280
     0
281
     0
  0
CLASS
  1
ACAMCOMPDEFMGR
  2
AcAmCompDefMgr
  3
DesignerAssemblies
 90
     1024
 91
        0
280
     0
281
     0
  0
CLASS
  1
AMCONTEXTMGR
  2
AcAmContextMgr
  3
DesignerAssemblies
 90
     1024
 91
        0
280
     0
281
     0
  0
CLASS
  1
ACAMCONTEXTMODELER
  2
AcAmContextModeler
  3
DesignerAssemblies
 90
     1024
 91
        0
280
     0
281
     0
  0
CLASS
  1
ACMTHREADLINESTANDARDDIN
  2
AmdtThreadLineStdDIN
  3
"Amdt_StdImp|Product Description: AutoCAD Mechanical|Company: Autodesk, Inc."
 90
     1024
 91
        1
280
     0
281
     0
  0
CLASS
  1
CATALOGSTATE
  2
AcAmCatalogState
  3
DesignerAssemblies
 90
     1024
 91
        0
280
     0
281
     0
  0
CLASS
  1
ACAMGRCOMPDEFSET
  2
AcAmGrCompDefSet
  3
DesignerAssemblies
 90
     1024
 91
        0
280
     0
281
     0
  0
CLASS
  1
AMDTBROWSERDBTAB
  2
AmdtBrowserDbTab
  3
McadcomServices
 90
     1024
 91
        0
280
     0
281
     0
  0
CLASS
  1
CBROWSERAPPOBJECT
  2
CBrowserAppObject
  3
McadcomServices
 90
     1024
 91
        0
280
     0
281
     0
  0
CLASS
  1
DM_PLACEHOLDER
  2
AcDmSelsetPlaceholder
  3
McadcomServices
 90
     1024
 91
        0
280
     0
281
     0
  0
CLASS
  1
SORTENTSTABLE
  2
AcDbSortentsTable
  3
ObjectDBX Classes
 90
        0
 91
        2
280
     0
281
     0
  0
CLASS
  1
MATERIAL
  2
AcDbMaterial
  3
ObjectDBX Classes
 90
     1153
 91
        3
280
     0
281
     0
  0
CLASS
  1
VISUALSTYLE
  2
AcDbVisualStyle
  3
ObjectDBX Classes
 90
     4095
 91
        3
280
     0
281
     0
  0
CLASS
  1
SCALE
  2
AcDbScale
  3
ObjectDBX Classes
 90
     1153
 91
       17
280
     0
281
     0
  0
CLASS
  1
MLEADERSTYLE
  2
AcDbMLeaderStyle
  3
ACDB_MLEADERSTYLE_CLASS
 90
     4095
 91
        1
280
     0
281
     0
  0
CLASS
  1
ACRFATTGENMGR
  2
AcRfAttGeneralMgr
  3
AcAttribServices
 90
     1024
 91
        0
280
     0
281
     0
  0
CLASS
  1
ACRFOBJATTMGR
  2
AcRfObjAttGroupMgr
  3
AcAttribServices
 90
     1024
 91
        0
280
     0
281
     0
  0
CLASS
  1
ACRFMCADAPIATTHOLDER
  2
AcRfMCADAPIAttHolder
  3
AcAttribServices
 90
     1024
 91
        0
280
     0
281
     0
  0
CLASS
  1
AMDTSYSATTR
  2
AmdtSystemAttribute
  3
AcAttribServices
 90
     1024
 91
        0
280
     0
281
     0
  0
CLASS
  1
ACMTAPERSTANDARDDIN
  2
AcmTaperStdDIN
  3
"Amdt_StdImp|Product Description: AutoCAD Mechanical|Company: Autodesk, Inc."
 90
     1024
 91
        1
280
     0
281
     0
  0
CLASS
  1
ACMANOOTATIONVIEWSTANDARDDIN
  2
AmdtAnViewStdDIN
  3
"Amdt_StdImp|Product Description: AutoCAD Mechanical|Company: Autodesk, Inc."
 90
     1024
 91
        1
280
     0
281
     0
  0
CLASS
  1
CAMSSTRUCTBTNSTATE
  2
StructBtnState
  3
DesignerAssemblies
 90
     1024
 91
        0
280
     0
281
     0
  0
CLASS
  1
CELLSTYLEMAP
  2
AcDbCellStyleMap
  3
ObjectDBX Classes
 90
     1152
 91
        1
280
     0
281
     0
  0
CLASS
  1
ACDBSECTIONVIEWSTYLE
  2
AcDbSectionViewStyle
  3
ObjectDBX Classes
 90
     1025
 91
        3
280
     0
281
     0
  0
CLASS
  1
ACDBDETAILVIEWSTYLE
  2
AcDbDetailViewStyle
  3
ObjectDBX Classes
 90
     1025
 91
        3
280
     0
281
     0
  0
CLASS
  1
ACMSECTIONSTANDARDCUSTOM
  2
AmdtSectionSymStdCustom
  3
"Amdt_StdImp|Product Description: AutoCAD Mechanical|Company: Autodesk, Inc."
 90
     1024
 91
        2
280
     0
281
     0
  0
CLASS
  1
ACMDETAILTANDARDCUSTOM
  2
AmdtDetailSymStdCustom
  3
"Amdt_StdImp|Product Description: AutoCAD Mechanical|Company: Autodesk, Inc."
 90
     1024
 91
        2
280
     0
281
     0
  0
CLASS
  1
FIELD
  2
AcDbField
  3
ObjectDBX Classes
 90
     1152
 91
        6
280
     0
281
     0
  0
CLASS
  1
FIELDLIST
  2
AcDbFieldList
  3
ObjectDBX Classes
 90
     1152
 91
        1
280
     0
281
     0
  0
CLASS
  1
ACDBLINERES
  2
AcDbLineRes
  3
AcGrefServices
 90
     1024
 91
        0
280
     0
281
     0
  0
CLASS
  1
AMDTNOTE
  2
AmdtNote
  3
"AcmSymBB|Product Description: AutoCAD Mechanical|Company: Autodesk, Inc."
 90
     1024
 91
        0
280
     0
281
     1
  0
CLASS
  1
AMDTFORMULAUPDATEDISPATCHER
  2
AmdtFormulaUpdateDispatcher
  3
AcMeServices
 90
     1024
 91
        0
280
     0
281
     0
  0
CLASS
  1
AMDTNOTETEMPLATEDB
  2
AmdtNoteTemplateDB
  3
AcmSymBB|Product Description: AutoCAD Mechanical|Company: Autodesk, Inc.
 90
     1024
 91
        4
280
     0
281
     0
  0
CLASS
  1
MULTILEADER
  2
AcDbMLeader
  3
ACDB_MLEADER_CLASS
 90
     1025
 91
        2
280
     0
281
     1
  0
CLASS
  1
ACMSTANDARDANSI
  2
AcmStandardANSI
  3
"Amdt_StdImp|Product Description: AutoCAD Mechanical|Company: Autodesk, Inc."
 90
     1024
 91
        0
280
     0
281
     0
  0
CLASS
  1
ACMSURFSTANDARDANSI
  2
AcmSurfTextStdANSI
  3
"Amdt_StdImp|Product Description: AutoCAD Mechanical|Company: Autodesk, Inc."
 90
     1024
 91
        0
280
     0
281
     0
  0
CLASS
  1
ACMFCFSTANDARDANSI
  2
AcmFCFStdANSI
  3
"Amdt_StdImp|Product Description: AutoCAD Mechanical|Company: Autodesk, Inc."
 90
     1024
 91
        0
280
     0
281
     0
  0
CLASS
  1
ACMWELDSTANDARDANSI
  2
AcmWeldingStdANSI
  3
"Amdt_StdImp|Product Description: AutoCAD Mechanical|Company: Autodesk, Inc."
 90
     1024
 91
        0
280
     0
281
     0
  0
CLASS
  1
ACMIDSTANDARDANSI
  2
AcmIdStdANSI
  3
"Amdt_StdImp|Product Description: AutoCAD Mechanical|Company: Autodesk, Inc."
 90
     1024
 91
        0
280
     0
281
     0
  0
CLASS
  1
ACMDATUMSTANDARDANSI
  2
AcmDatumStdANSI
  3
"Amdt_StdImp|Product Description: AutoCAD Mechanical|Company: Autodesk, Inc."
 90
     1024
 91
        0
280
     0
281
     0
  0
CLASS
  1
ACMBOMSTANDARDANSI
  2
AcmBOMStdANSI
  3
"Amdt_StdImp|Product Description: AutoCAD Mechanical|Company: Autodesk, Inc."
 90
     1024
 91
        0
280
     0
281
     0
  0
CLASS
  1
ACMDETAILSTANDARDANSI
  2
AmdtDetailSymStdANSI
  3
"Amdt_StdImp|Product Description: AutoCAD Mechanical|Company: Autodesk, Inc."
 90
     1024
 91
        0
280
     0
281
     0
  0
CLASS
  1
ACMSECTIONSTANDARDANSI
  2
AmdtSectionSymStdANSI
  3
"Amdt_StdImp|Product Description: AutoCAD Mechanical|Company: Autodesk, Inc."
 90
     1024
 91
        0
280
     0
281
     0
  0
CLASS
  1
ACMCENTERLINESTANDARDANSI
  2
AmdtCenterLineStdANSI
  3
"Amdt_StdImp|Product Description: AutoCAD Mechanical|Company: Autodesk, Inc."
 90
     1024
 91
        0
280
     0
281
     0
  0
CLASS
  1
ACMTHREADLINESTANDARDANSI
  2
AmdtThreadLineStdANSI
  3
"Amdt_StdImp|Product Description: AutoCAD Mechanical|Company: Autodesk, Inc."
 90
     1024
 91
        0
280
     0
281
     0
  0
CLASS
  1
ACMNOTESTANDARDANSI
  2
AmdtNoteStdANSI
  3
"Amdt_StdImp|Product Description: AutoCAD Mechanical|Company: Autodesk, Inc."
 90
     1024
 91
        0
280
     0
281
     0
  0
CLASS
  1
ACMTAPERSTANDARDANSI
  2
AcmTaperStdANSI
  3
"Amdt_StdImp|Product Description: AutoCAD Mechanical|Company: Autodesk, Inc."
 90
     1024
 91
        0
280
     0
281
     0
  0
CLASS
  1
ACMANOOTATIONVIEWSTANDARDANSI
  2
AmdtAnViewStdANSI
  3
"Amdt_StdImp|Product Description: AutoCAD Mechanical|Company: Autodesk, Inc."
 90
     1024
 91
        0
280
     0
281
     0
  0
CLASS
  1
ACAMGHOLECHARTSTDANSI
  2
AcAmgHoleChartStdANSI
  3
AmgDim|Product Description: AutoCAD Mechanical|Company: Autodesk, Inc.
 90
     1024
 91
        0
280
     0
281
     0
  0
CLASS
  1
AMDTEDGESTANDARDDIN13715
  2
AmdtEdgeStdDIN13715
  3
"Amdt_StdImp|Product Description: AutoCAD Mechanical|Company: Autodesk, Inc."
 90
     1024
 91
        0
280
     0
281
     0
  0
CLASS
  1
ACMSURFSTANDARDDIN2002
  2
AcmSurfTextStdDIN2002
  3
"Amdt_StdImp|Product Description: AutoCAD Mechanical|Company: Autodesk, Inc."
 90
     1024
 91
        0
280
     0
281
     0
  0
CLASS
  1
ACMFCFSTANDARDDIN2008
  2
AcmFCFStdDIN2008
  3
"Amdt_StdImp|Product Description: AutoCAD Mechanical|Company: Autodesk, Inc."
 90
     1024
 91
        0
280
     0
281
     0
  0
CLASS
  1
ACMIDSTANDARDDIN2008
  2
AcmIdStdDIN2008
  3
"Amdt_StdImp|Product Description: AutoCAD Mechanical|Company: Autodesk, Inc."
 90
     1024
 91
        0
280
     0
281
     0
  0
CLASS
  1
ACDBASSOC2DCONSTRAINTGROUP
  2
AcDbAssoc2dConstraintGroup
  3
ObjectDBX Classes
 90
     1025
 91
        0
280
     0
281
     0
  0
CLASS
  1
ACDBASSOCGEOMDEPENDENCY
  2
AcDbAssocGeomDependency
  3
ObjectDBX Classes
 90
     1025
 91
        0
280
     0
281
     0
  0
CLASS
  1
ACDBASSOCNETWORK
  2
AcDbAssocNetwork
  3
ObjectDBX Classes
 90
     1025
 91
        0
280
     0
281
     0
  0
ENDSEC
  0
SECTION
  2
TABLES
  0
TABLE
  2
VPORT
  5
29
330
0
100
AcDbSymbolTable
 70
     1
  0
VPORT
  5
2A
330
29
100
AcDbSymbolTableRecord
100
AcDbViewportTableRecord
  2
*Active
 70
     0
 10
0.0
 20
0.0
 11
1.0
 21
1.0
 12
-1350.093499653891
 22
2798.787750177393
 13
0.0
 23
0.0
 14
2.5
 24
2.5
 15
10.0
 25
10.0
 16
0.0
 26
0.0
 36
1.0
 17
0.0
 27
0.0
 37
0.0
 40
1151.806151296792
 41
2.166961130742049
 42
50.0
 43
0.0
 44
0.0
 50
0.0
 51
0.0
 71
     0
 72
  5000
 73
     1
 74
     1
 75
     0
 76
     0
 77
     0
 78
     0
281
     0
 65
     1
110
0.0
120
0.0
130
0.0
111
1.0
121
0.0
131
0.0
112
0.0
122
1.0
132
0.0
 79
     0
146
0.0
348
2B
 60
     3
 61
     5
292
     1
282
     1
141
0.0
142
0.0
 63
   250
421
  3355443
1001
ACAD_NAV_VCDISPLAY
1070
     3
  0
ENDTAB
  0
TABLE
  2
LTYPE
  5
24
330
0
100
AcDbSymbolTable
 70
    15
  0
LTYPE
  5
25
330
24
100
AcDbSymbolTableRecord
100
AcDbLinetypeTableRecord
  2
BYBLOCK
 70
     0
  3

 72
    65
 73
     0
 40
0.0
  0
LTYPE
  5
26
330
24
100
AcDbSymbolTableRecord
100
AcDbLinetypeTableRecord
  2
BYLAYER
 70
     0
  3

 72
    65
 73
     0
 40
0.0
  0
LTYPE
  5
1D
330
24
100
AcDbSymbolTableRecord
100
AcDbLinetypeTableRecord
  2
CONTINUOUS
 70
     0
  3
Solid line
 72
    65
 73
     0
 40
0.0
  0
LTYPE
  5
FC
330
24
100
AcDbSymbolTableRecord
100
AcDbLinetypeTableRecord
  2
STRICHPUNKT
 70
     0
  3
Strichpunkt __ . __ . __ . __ . __ . __ . __ . 
 72
    65
 73
     4
 40
25.4
 49
12.7
 74
     0
 49
-6.349999999999999
 74
     0
 49
0.0
 74
     0
 49
-6.349999999999999
 74
     0
  0
LTYPE
  5
33D
330
24
100
AcDbSymbolTableRecord
100
AcDbLinetypeTableRecord
  2
VERDECKT
 70
     0
  3
Verdeckt __ __ __ __ __ __ __ __ __ __ __ __ __
 72
    65
 73
     2
 40
9.524999999999998
 49
6.349999999999999
 74
     0
 49
-3.174999999999999
 74
     0
  0
LTYPE
  5
3B3
330
24
100
AcDbSymbolTableRecord
100
AcDbLinetypeTableRecord
  2
AM_ISO02W050
 70
     0
  3
__ __ __ __ __ __ __ __ __ __ __ __ __ __ __
 72
    65
 73
     2
 40
7.5
 49
6.0
 74
     0
 49
-1.5
 74
     0
  0
LTYPE
  5
3C7
330
24
100
AcDbSymbolTableRecord
100
AcDbLinetypeTableRecord
  2
ACDINWELD
 70
     0
  3
_ _ _ _ _
 72
    65
 73
     2
 40
2.0
 49
2.0
 74
     0
 49
-1.0
 74
     0
  0
LTYPE
  5
3CA
330
24
100
AcDbSymbolTableRecord
100
AcDbLinetypeTableRecord
  2
ACDINTGB
 70
     0
  3
__ . . __ . .
 72
    65
 73
     6
 40
9.0
 49
4.0
 74
     0
 49
-1.0
 74
     0
 49
1.0
 74
     0
 49
-1.0
 74
     0
 49
1.0
 74
     0
 49
-1.0
 74
     0
  0
LTYPE
  5
3CB
330
24
100
AcDbSymbolTableRecord
100
AcDbLinetypeTableRecord
  2
ACDINTGL
 70
     0
  3
_ _ _ _ _
 72
    65
 73
     2
 40
3.0
 49
2.0
 74
     0
 49
-1.0
 74
     0
  0
LTYPE
  5
3EA
330
24
100
AcDbSymbolTableRecord
100
AcDbLinetypeTableRecord
  2
CENTER
 70
     0
  3
__ . __
 72
    65
 73
     4
 40
7.0
 49
4.0
 74
     0
 49
-1.0
 74
     0
 49
1.0
 74
     0
 49
-1.0
 74
     0
  0
LTYPE
  5
3AE
330
24
100
AcDbSymbolTableRecord
100
AcDbLinetypeTableRecord
  2
gen3
 70
     0
  3
-- -- -- -- -- -- -- -- -- -- -- -- -- -- --
 72
    65
 73
     2
 40
6.25
 49
4.75
 74
     0
 49
-1.5
 74
     0
  0
LTYPE
  5
3AF
330
24
100
AcDbSymbolTableRecord
100
AcDbLinetypeTableRecord
  2
gen7
 70
     0
  3
____ . ____ . ____ . ____ . ____ . ____ . ____
 72
    65
 73
     4
 40
13.75
 49
9.75
 74
     0
 49
-1.5
 74
     0
 49
1.0
 74
     0
 49
-1.5
 74
     0
  0
LTYPE
  5
3B0
330
24
100
AcDbSymbolTableRecord
100
AcDbLinetypeTableRecord
  2
gen3a
 70
     0
  3
 - - - - -
 72
    65
 73
     2
 40
3.125
 49
2.25
 74
     0
 49
-0.875
 74
     0
  0
LTYPE
  5
3B1
330
24
100
AcDbSymbolTableRecord
100
AcDbLinetypeTableRecord
  2
gen7a
 70
     0
  3
__ . __ . __
 72
    65
 73
     4
 40
6.875
 49
4.75
 74
     0
 49
-0.875
 74
     0
 49
0.375
 74
     0
 49
-0.875
 74
     0
  0
LTYPE
  5
3B2
330
24
100
AcDbSymbolTableRecord
100
AcDbLinetypeTableRecord
  2
gen4a
 70
     0
  3
_____ . . _____ . . _____ . . ____ .. ____
 72
    65
 73
     6
 40
16.25
 49
9.75
 74
     0
 49
-1.5
 74
     0
 49
1.0
 74
     0
 49
-1.5
 74
     0
 49
1.0
 74
     0
 49
-1.5
 74
     0
  0
LTYPE
  5
3B4
330
24
100
AcDbSymbolTableRecord
100
AcDbLinetypeTableRecord
  2
genzigzag
 70
     0
  3
/\/-/\/-/\/-/\/-/\/-/\/
 72
    65
 73
     2
 40
12.0001
 49
0.0001
 74
     4
 75
   135
340
3B5
 46
2.0
 50
0.0
 44
0.0
 45
0.0
 49
-12.0
 74
     0
  0
LTYPE
  5
91
330
24
100
AcDbSymbolTableRecord
100
AcDbLinetypeTableRecord
  2
CHAIN
 70
     0
  3
Chain ____ _ ____ _ ____ _ ____ _ ____ _ ____
 72
    65
 73
     4
 40
0.3543
 49
0.2362
 74
     0
 49
-0.0295
 74
     0
 49
0.0591
 74
     0
 49
-0.0295
 74
     0
  0
ENDTAB
  0
TABLE
  2
LAYER
  5
E
102
{ACAD_XDICTIONARY
360
1E
102
}
330
0
100
AcDbSymbolTable
 70
     9
  0
LAYER
  5
F
102
{ACAD_XDICTIONARY
360
10
102
}
330
E
100
AcDbSymbolTableRecord
100
AcDbLayerTableRecord
  2
0
 70
     0
 62
     7
  6
CONTINUOUS
370
    -3
390
12
347
14
348
0
  0
LAYER
  5
4F
102
{ACAD_XDICTIONARY
360
50
102
}
330
E
100
AcDbSymbolTableRecord
100
AcDbLayerTableRecord
  2
UMRISS05
 70
     0
 62
     4
  6
CONTINUOUS
370
    -3
390
12
347
14
348
0
  0
LAYER
  5
3D8
102
{ACAD_XDICTIONARY
360
3D9
102
}
330
E
100
AcDbSymbolTableRecord
100
AcDbLayerTableRecord
  2
UMRISS07
 70
     0
 62
     6
  6
CONTINUOUS
370
    -3
390
12
347
14
348
0
  0
LAYER
  5
6F
102
{ACAD_XDICTIONARY
360
70
102
}
330
E
100
AcDbSymbolTableRecord
100
AcDbLayerTableRecord
  2
BEMASSUNG
 70
     0
 62
     2
  6
CONTINUOUS
370
    -3
390
12
347
14
348
0
  0
LAYER
  5
F9
102
{ACAD_XDICTIONARY
360
FA
102
}
330
E
100
AcDbSymbolTableRecord
100
AcDbLayerTableRecord
  2
ACHSEN
 70
     0
 62
     1
  6
STRICHPUNKT
370
    -3
390
12
347
14
348
0
  0
LAYER
  5
33A
102
{ACAD_XDICTIONARY
360
33B
102
}
330
E
100
AcDbSymbolTableRecord
100
AcDbLayerTableRecord
  2
AVERDECKTE
 70
     0
 62
    13
  6
VERDECKT
370
    -3
390
12
347
14
348
0
  0
LAYER
  5
7B
330
E
100
AcDbSymbolTableRecord
100
AcDbLayerTableRecord
  2
DEFPOINTS
 70
     0
 62
     7
  6
CONTINUOUS
290
     0
370
    -3
390
12
347
14
348
0
  0
LAYER
  5
E3
330
E
100
AcDbSymbolTableRecord
100
AcDbLayerTableRecord
  2
Mittelpunktmarkierung(MSL)
 70
     0
 62
     1
  6
CONTINUOUS
370
    25
390
12
347
14
348
0
  0
LAYER
  5
90
330
E
100
AcDbSymbolTableRecord
100
AcDbLayerTableRecord
  2
Mittellinie(MSL)
 70
     0
 62
     1
  6
CHAIN
370
    25
390
12
347
14
348
0
  0
ENDTAB
  0
TABLE
  2
STYLE
  5
21
330
0
100
AcDbSymbolTable
 70
     6
  0
STYLE
  5
22
330
21
100
AcDbSymbolTableRecord
100
AcDbTextStyleTableRecord
  2
STANDARD
 70
     0
 40
0.0
 41
1.0
 50
0.0
 71
     0
 42
3.5
  3
ISOCP.SHX
  4

  0
STYLE
  5
32
330
21
100
AcDbSymbolTableRecord
100
AcDbTextStyleTableRecord
  2
ARIAL-STANDARD
 70
     0
 40
0.0
 41
1.0
 50
0.0
 71
     0
 42
3.5
  3
arial.ttf
  4

1001
ACAD
1000
Arial
1071
       34
  0
STYLE
  5
52
330
21
100
AcDbSymbolTableRecord
100
AcDbTextStyleTableRecord
  2
NORM
 70
     0
 40
0.0
 41
1.0
 50
0.0
 71
     0
 42
2.399999999999999
  3
simplex.shx
  4

  0
STYLE
  5
3C1
330
21
100
AcDbSymbolTableRecord
100
AcDbTextStyleTableRecord
  2
ACDINTS
 70
     0
 40
1.0
 41
1.0
 50
0.0
 71
     0
 42
3.5
  3
isocp.shx
  4

  0
STYLE
  5
3C5
330
21
100
AcDbSymbolTableRecord
100
AcDbTextStyleTableRecord
  2
ACDINGDT
 70
     0
 40
0.0
 41
1.0
 50
0.0
 71
     0
 42
3.5
  3
amgdt.shx
  4

  0
STYLE
  5
3B5
330
21
100
AcDbSymbolTableRecord
100
AcDbTextStyleTableRecord
  2

 70
     1
 40
0.0
 41
1.0
 50
0.0
 71
     0
 42
3.5
  3
genltshp.shx
  4

  0
ENDTAB
  0
TABLE
  2
VIEW
  5
27
330
0
100
AcDbSymbolTable
 70
     0
  0
ENDTAB
  0
TABLE
  2
UCS
  5
28
330
0
100
AcDbSymbolTable
 70
     0
  0
ENDTAB
  0
TABLE
  2
APPID
  5
2E
330
0
100
AcDbSymbolTable
 70
    13
  0
APPID
  5
2F
330
2E
100
AcDbSymbolTableRecord
100
AcDbRegAppTableRecord
  2
ACAD
 70
     0
  0
APPID
  5
FF
330
2E
100
AcDbSymbolTableRecord
100
AcDbRegAppTableRecord
  2
GENIUS_GENODEF_13
 70
     0
  0
APPID
  5
2D
330
2E
100
AcDbSymbolTableRecord
100
AcDbRegAppTableRecord
  2
ACAD_NAV_VCDISPLAY
 70
     0
  0
APPID
  5
35
330
2E
100
AcDbSymbolTableRecord
100
AcDbRegAppTableRecord
  2
ACAD_DSTYLE_DIMJAG
 70
     0
  0
APPID
  5
34
330
2E
100
AcDbSymbolTableRecord
100
AcDbRegAppTableRecord
  2
ACAD_DSTYLE_DIMBREAK
 70
     0
  0
APPID
  5
36
330
2E
100
AcDbSymbolTableRecord
100
AcDbRegAppTableRecord
  2
ACAD_DSTYLE_DIMTALN
 70
     0
  0
APPID
  5
80
330
2E
100
AcDbSymbolTableRecord
100
AcDbRegAppTableRecord
  2
ACAD_DSTYLE_DIMINSPECT
 70
     0
  0
APPID
  5
100
330
2E
100
AcDbSymbolTableRecord
100
AcDbRegAppTableRecord
  2
GENIUS_GENOBJ-N-FIL_13
 70
     0
  0
APPID
  5
401
330
2E
100
AcDbSymbolTableRecord
100
AcDbRegAppTableRecord
  2
AD_DRAW
 70
     0
  0
APPID
  5
402
330
2E
100
AcDbSymbolTableRecord
100
AcDbRegAppTableRecord
  2
MCAD_NO_VIS
 70
     0
  0
APPID
  5
403
330
2E
100
AcDbSymbolTableRecord
100
AcDbRegAppTableRecord
  2
ACADM_DIM_EDIT
 70
     0
  0
APPID
  5
404
330
2E
100
AcDbSymbolTableRecord
100
AcDbRegAppTableRecord
  2
AMDT_DM_ADJ
 70
     0
  0
APPID
  5
426
330
2E
100
AcDbSymbolTableRecord
100
AcDbRegAppTableRecord
  2
ACATTRIBSERVICES
 70
     0
  0
ENDTAB
  0
TABLE
  2
DIMSTYLE
  5
30
330
0
100
AcDbSymbolTable
 70
     3
100
AcDbDimStyleTable
 71
     2
340
31
340
33
  0
DIMSTYLE
105
31
330
30
100
AcDbSymbolTableRecord
100
AcDbDimStyleTableRecord
  2
NORMAL
 70
     0
 41
3.5
 42
0.0
 43
8.0
 44
0.5
 73
     0
 74
     0
 77
     1
 78
     8
140
3.5
141
1.5
146
0.5
147
1.0
172
     1
174
     1
176
   256
177
   256
178
     3
271
     2
272
     2
284
     8
340
32
  0
DIMSTYLE
105
33
102
{ACAD_REACTORS
330
34A
330
303
330
1FE
330
1EF
330
1E1
330
1D4
330
1C7
330
1B8
330
1AB
330
19E
330
16E
330
161
330
14F
330
142
330
121
330
114
330
D3
102
}
330
30
100
AcDbSymbolTableRecord
100
AcDbDimStyleTableRecord
  2
Katalog 09
 70
     0
 40
1.7
 41
4.0
 42
0.0
 43
0.0
 44
1.0
 50
90.0
 73
     0
 74
     0
 77
     1
 78
     8
140
4.349999999999999
141
1.5
147
1.0
172
     1
174
     1
176
   256
177
   256
178
     3
271
     1
272
     1
284
     8
340
32
1001
ACAD_DSTYLE_DIMBREAK
1070
   391
1040
3.75
1001
ACAD_DSTYLE_DIMJAG
1070
   388
1040
1.5
1001
ACAD_DSTYLE_DIMTALN
1070
   392
1070
     0
  0
DIMSTYLE
105
7F
102
{ACAD_REACTORS
330
31D
330
310
330
32C
330
29A
330
2F6
330
6E
330
81
102
}
330
30
100
AcDbSymbolTableRecord
100
AcDbDimStyleTableRecord
  2
Katalog 09$0
 70
     0
 40
1.7
 41
4.0
 42
0.0
 43
0.0
 44
1.0
 50
90.0
 73
     0
 74
     0
 77
     1
 78
     8
140
4.349999999999999
141
1.5
147
1.0
172
     1
174
     1
176
   256
177
   256
178
     3
271
     1
272
     1
284
     8
340
32
1001
ACAD_DSTYLE_DIMBREAK
1070
   391
1040
3.75
1001
ACAD_DSTYLE_DIMJAG
1070
   388
1040
1.5
  0
ENDTAB
  0
TABLE
  2
BLOCK_RECORD
  5
1
330
0
100
AcDbSymbolTable
 70
    25
  0
BLOCK_RECORD
  5
2
102
{ACAD_XDICTIONARY
360
3
102
}
330
1
100
AcDbSymbolTableRecord
100
AcDbBlockTableRecord
  2
*MODEL_SPACE
340
7
 70
     0
280
     1
281
     0
  0
BLOCK_RECORD
  5
A
330
1
100
AcDbSymbolTableRecord
100
AcDbBlockTableRecord
  2
*PAPER_SPACE
340
D
 70
     0
280
     1
281
     0
  0
BLOCK_RECORD
  5
3D5
330
1
100
AcDbSymbolTableRecord
100
AcDbBlockTableRecord
  2
_ACMFILLED15
340
0
 70
     0
280
     1
281
     0
  0
BLOCK_RECORD
  5
34B
330
1
100
AcDbSymbolTableRecord
100
AcDbBlockTableRecord
  2
*D1
340
0
 70
     0
280
     1
281
     0
  0
BLOCK_RECORD
  5
32D
330
1
100
AcDbSymbolTableRecord
100
AcDbBlockTableRecord
  2
*D2
340
0
 70
     0
280
     1
281
     0
  0
BLOCK_RECORD
  5
31E
330
1
100
AcDbSymbolTableRecord
100
AcDbBlockTableRecord
  2
*D3
340
0
 70
     0
280
     1
281
     0
  0
BLOCK_RECORD
  5
311
330
1
100
AcDbSymbolTableRecord
100
AcDbBlockTableRecord
  2
*D4
340
0
 70
     0
280
     1
281
     0
  0
BLOCK_RECORD
  5
304
330
1
100
AcDbSymbolTableRecord
100
AcDbBlockTableRecord
  2
*D5
340
0
 70
     0
280
     1
281
     0
  0
BLOCK_RECORD
  5
2F7
330
1
100
AcDbSymbolTableRecord
100
AcDbBlockTableRecord
  2
*D6
340
0
 70
     0
280
     1
281
     0
  0
BLOCK_RECORD
  5
29B
330
1
100
AcDbSymbolTableRecord
100
AcDbBlockTableRecord
  2
*D7
340
0
 70
     0
280
     1
281
     0
  0
BLOCK_RECORD
  5
1FF
330
1
100
AcDbSymbolTableRecord
100
AcDbBlockTableRecord
  2
*D8
340
0
 70
     0
280
     1
281
     0
  0
BLOCK_RECORD
  5
1F0
330
1
100
AcDbSymbolTableRecord
100
AcDbBlockTableRecord
  2
*D9
340
0
 70
     0
280
     1
281
     0
  0
BLOCK_RECORD
  5
1E2
330
1
100
AcDbSymbolTableRecord
100
AcDbBlockTableRecord
  2
*D10
340
0
 70
     0
280
     1
281
     0
  0
BLOCK_RECORD
  5
1D5
330
1
100
AcDbSymbolTableRecord
100
AcDbBlockTableRecord
  2
*D11
340
0
 70
     0
280
     1
281
     0
  0
BLOCK_RECORD
  5
1C8
330
1
100
AcDbSymbolTableRecord
100
AcDbBlockTableRecord
  2
*D12
340
0
 70
     0
280
     1
281
     0
  0
BLOCK_RECORD
  5
1B9
330
1
100
AcDbSymbolTableRecord
100
AcDbBlockTableRecord
  2
*D13
340
0
 70
     0
280
     1
281
     0
  0
BLOCK_RECORD
  5
1AC
330
1
100
AcDbSymbolTableRecord
100
AcDbBlockTableRecord
  2
*D14
340
0
 70
     0
280
     1
281
     0
  0
BLOCK_RECORD
  5
19F
330
1
100
AcDbSymbolTableRecord
100
AcDbBlockTableRecord
  2
*D15
340
0
 70
     0
280
     1
281
     0
  0
BLOCK_RECORD
  5
16F
330
1
100
AcDbSymbolTableRecord
100
AcDbBlockTableRecord
  2
*D16
340
0
 70
     0
280
     1
281
     0
  0
BLOCK_RECORD
  5
162
330
1
100
AcDbSymbolTableRecord
100
AcDbBlockTableRecord
  2
*D17
340
0
 70
     0
280
     1
281
     0
  0
BLOCK_RECORD
  5
150
330
1
100
AcDbSymbolTableRecord
100
AcDbBlockTableRecord
  2
*D18
340
0
 70
     0
280
     1
281
     0
  0
BLOCK_RECORD
  5
143
330
1
100
AcDbSymbolTableRecord
100
AcDbBlockTableRecord
  2
*D19
340
0
 70
     0
280
     1
281
     0
  0
BLOCK_RECORD
  5
122
330
1
100
AcDbSymbolTableRecord
100
AcDbBlockTableRecord
  2
*D20
340
0
 70
     0
280
     1
281
     0
  0
BLOCK_RECORD
  5
115
330
1
100
AcDbSymbolTableRecord
100
AcDbBlockTableRecord
  2
*D21
340
0
 70
     0
280
     1
281
     0
  0
BLOCK_RECORD
  5
D4
330
1
100
AcDbSymbolTableRecord
100
AcDbBlockTableRecord
  2
*D22
340
0
 70
     0
280
     1
281
     0
  0
BLOCK_RECORD
  5
82
330
1
100
AcDbSymbolTableRecord
100
AcDbBlockTableRecord
  2
*D23
340
0
 70
     0
280
     1
281
     0
  0
BLOCK_RECORD
  5
72
330
1
100
AcDbSymbolTableRecord
100
AcDbBlockTableRecord
  2
*D24
340
0
 70
     0
280
     1
281
     0
  0
ENDTAB
  0
ENDSEC
  0
SECTION
  2
BLOCKS
  0
BLOCK
  5
5
330
2
100
AcDbEntity
  8
0
100
AcDbBlockBegin
  2
*MODEL_SPACE
 70
     0
 10
0.0
 20
0.0
 30
0.0
  3
*MODEL_SPACE
  1

  0
ENDBLK
  5
6
330
2
100
AcDbEntity
  8
0
100
AcDbBlockEnd
  0
BLOCK
  5
B
330
A
100
AcDbEntity
 67
     1
  8
0
100
AcDbBlockBegin
  2
*PAPER_SPACE
 70
     0
 10
0.0
 20
0.0
 30
0.0
  3
*PAPER_SPACE
  1

  0
ENDBLK
  5
C
330
A
100
AcDbEntity
 67
     1
  8
0
100
AcDbBlockEnd
  0
BLOCK
  5
3D6
330
3D5
100
AcDbEntity
  8
0
100
AcDbBlockBegin
  2
_ACMFILLED15
 70
     0
 10
0.0
 20
0.0
 30
0.0
  3
_ACMFILLED15
  1

  0
TRACE
  5
3D7
330
3D5
100
AcDbEntity
  8
UMRISS07
 62
     0
100
AcDbTrace
 10
-1.0
 20
-0.131652497
 30
0.0
 11
-1.0
 21
0.131652497
 31
0.0
 12
0.0
 22
0.0
 32
0.0
 13
0.0
 23
0.0
 33
0.0
  0
ENDBLK
  5
3DB
330
3D5
100
AcDbEntity
  8
0
100
AcDbBlockEnd
  0
BLOCK
  5
34C
330
34B
100
AcDbEntity
  8
0
100
AcDbBlockBegin
  2
*D1
 70
     1
 10
0.0
 20
0.0
 30
0.0
  3
*D1
  1

  0
LINE
  5
34D
330
34B
100
AcDbEntity
  8
BEMASSUNG
440
 16777216
370
    -2
100
AcDbLine
 10
-1245.13854197691
 20
2545.592342684271
 30
0.0
 11
-1245.13854197691
 21
2492.337139841602
 31
0.0
  0
LINE
  5
34E
330
34B
100
AcDbEntity
  8
BEMASSUNG
440
 16777216
370
    -2
100
AcDbLine
 10
-1266.13854197691
 20
2555.592342684272
 30
0.0
 11
-1266.13854197691
 21
2492.337139841602
 31
0.0
  0
LINE
  5
34F
330
34B
100
AcDbEntity
  8
BEMASSUNG
440
 16777216
370
    -2
100
AcDbLine
 10
-1251.93854197691
 20
2494.037139841602
 30
0.0
 11
-1259.33854197691
 21
2494.037139841602
 31
0.0
  0
SOLID
  5
350
330
34B
100
AcDbEntity
  8
BEMASSUNG
440
 16777216
100
AcDbTrace
 10
-1251.93854197691
 20
2495.170473174936
 30
0.0
 11
-1251.93854197691
 21
2492.903806508269
 31
0.0
 12
-1245.13854197691
 22
2494.037139841602
 32
0.0
 13
-1245.13854197691
 23
2494.037139841602
 33
0.0
  0
SOLID
  5
351
330
34B
100
AcDbEntity
  8
BEMASSUNG
440
 16777216
100
AcDbTrace
 10
-1259.33854197691
 20
2495.170473174936
 30
0.0
 11
-1259.33854197691
 21
2492.903806508269
 31
0.0
 12
-1266.13854197691
 22
2494.037139841602
 32
0.0
 13
-1266.13854197691
 23
2494.037139841602
 33
0.0
  0
MTEXT
  5
352
330
34B
100
AcDbEntity
  8
BEMASSUNG
 62
     3
440
 16777216
100
AcDbMText
 10
-1255.63854197691
 20
2499.449772856609
 30
0.0
 40
7.394999999999999
 41
0.0
 46
0.0
 71
     5
 72
     1
  1
\A1;21
  7
ARIAL-STANDARD
 73
     1
 44
1.0
  0
POINT
  5
353
330
34B
100
AcDbEntity
  8
DEFPOINTS
 62
     0
440
 16777216
100
AcDbPoint
 10
-1245.13854197691
 20
2545.592342684271
 30
0.0
  0
POINT
  5
354
330
34B
100
AcDbEntity
  8
DEFPOINTS
 62
     0
440
 16777216
100
AcDbPoint
 10
-1266.13854197691
 20
2555.592342684272
 30
0.0
  0
POINT
  5
355
330
34B
100
AcDbEntity
  8
DEFPOINTS
 62
     0
440
 16777216
100
AcDbPoint
 10
-1266.13854197691
 20
2494.037139841602
 30
0.0
  0
ENDBLK
  5
356
330
34B
100
AcDbEntity
  8
0
100
AcDbBlockEnd
  0
BLOCK
  5
32E
330
32D
100
AcDbEntity
  8
0
100
AcDbBlockBegin
  2
*D2
 70
     1
 10
0.0
 20
0.0
 30
0.0
  3
*D2
  1

  0
LINE
  5
32F
330
32D
100
AcDbEntity
  8
BEMASSUNG
440
 16777216
370
    -2
100
AcDbLine
 10
-1306.073364569886
 20
2727.592342684272
 30
0.0
 11
-1304.373364569886
 21
2727.592342684272
 31
0.0
  0
LINE
  5
330
330
32D
100
AcDbEntity
  8
BEMASSUNG
440
 16777216
370
    -2
100
AcDbLine
 10
-1256.138541976901
 20
2865.592342684271
 30
0.0
 11
-1307.773364569886
 21
2865.592342684271
 31
0.0
  0
LINE
  5
331
330
32D
100
AcDbEntity
  8
BEMASSUNG
440
 16777216
370
    -2
100
AcDbLine
 10
-1306.073364569886
 20
2734.392342684273
 30
0.0
 11
-1306.073364569886
 21
2858.792342684271
 31
0.0
  0
SOLID
  5
332
330
32D
100
AcDbEntity
  8
BEMASSUNG
440
 16777216
100
AcDbTrace
 10
-1307.206697903219
 20
2734.392342684273
 30
0.0
 11
-1304.940031236552
 21
2734.392342684273
 31
0.0
 12
-1306.073364569886
 22
2727.592342684272
 32
0.0
 13
-1306.073364569886
 23
2727.592342684272
 33
0.0
  0
SOLID
  5
333
330
32D
100
AcDbEntity
  8
BEMASSUNG
440
 16777216
100
AcDbTrace
 10
-1307.206697903219
 20
2858.792342684271
 30
0.0
 11
-1304.940031236552
 21
2858.792342684271
 31
0.0
 12
-1306.073364569886
 22
2865.592342684271
 32
0.0
 13
-1306.073364569886
 23
2865.592342684271
 33
0.0
  0
MTEXT
  5
334
330
32D
100
AcDbEntity
  8
BEMASSUNG
 62
     3
440
 16777216
100
AcDbMText
 10
-1311.551573983256
 20
2796.592342684272
 30
0.0
 40
7.394999999999999
 41
0.0
 46
0.0
 71
     5
 72
     1
  1
\A1;138
  7
ARIAL-STANDARD
 11
0.0000000000000001
 21
1.0
 31
0.0
 73
     1
 44
1.0
  0
POINT
  5
335
330
32D
100
AcDbEntity
  8
DEFPOINTS
 62
     0
440
 16777216
100
AcDbPoint
 10
-1306.073364569886
 20
2727.592342684272
 30
0.0
  0
POINT
  5
336
330
32D
100
AcDbEntity
  8
DEFPOINTS
 62
     0
440
 16777216
100
AcDbPoint
 10
-1256.138541976901
 20
2865.592342684271
 30
0.0
  0
POINT
  5
337
330
32D
100
AcDbEntity
  8
DEFPOINTS
 62
     0
440
 16777216
100
AcDbPoint
 10
-1306.073364569886
 20
2865.592342684271
 30
0.0
  0
ENDBLK
  5
338
330
32D
100
AcDbEntity
  8
0
100
AcDbBlockEnd
  0
BLOCK
  5
31F
330
31E
100
AcDbEntity
  8
0
100
AcDbBlockBegin
  2
*D3
 70
     1
 10
0.0
 20
0.0
 30
0.0
  3
*D3
  1

  0
LINE
  5
320
330
31E
100
AcDbEntity
  8
BEMASSUNG
440
 16777216
370
    -2
100
AcDbLine
 10
-1271.990704551779
 20
2727.592342684273
 30
0.0
 11
-1275.297610635937
 21
2727.592342684273
 31
0.0
  0
LINE
  5
321
330
31E
100
AcDbEntity
  8
BEMASSUNG
440
 16777216
370
    -2
100
AcDbLine
 10
-1264.535093185259
 20
2736.592342684271
 30
0.0
 11
-1275.297610635937
 21
2736.592342684271
 31
0.0
  0
LINE
  5
322
330
31E
100
AcDbEntity
  8
BEMASSUNG
440
 16777216
370
    -2
100
AcDbLine
 10
-1273.597610635937
 20
2720.792342684273
 30
0.0
 11
-1273.597610635937
 21
2713.992342684273
 31
0.0
  0
LINE
  5
323
330
31E
100
AcDbEntity
  8
BEMASSUNG
440
 16777216
370
    -2
100
AcDbLine
 10
-1273.597610635937
 20
2743.392342684271
 30
0.0
 11
-1273.597610635937
 21
2750.192342684271
 31
0.0
  0
LINE
  5
324
330
31E
100
AcDbEntity
  8
BEMASSUNG
440
 16777216
370
    -2
100
AcDbLine
 10
-1273.597610635937
 20
2727.592342684273
 30
0.0
 11
-1273.597610635937
 21
2736.592342684271
 31
0.0
  0
SOLID
  5
325
330
31E
100
AcDbEntity
  8
BEMASSUNG
440
 16777216
100
AcDbTrace
 10
-1274.73094396927
 20
2720.792342684273
 30
0.0
 11
-1272.464277302604
 21
2720.792342684273
 31
0.0
 12
-1273.597610635937
 22
2727.592342684273
 32
0.0
 13
-1273.597610635937
 23
2727.592342684273
 33
0.0
  0
SOLID
  5
326
330
31E
100
AcDbEntity
  8
BEMASSUNG
440
 16777216
100
AcDbTrace
 10
-1274.73094396927
 20
2743.392342684271
 30
0.0
 11
-1272.464277302604
 21
2743.392342684271
 31
0.0
 12
-1273.597610635937
 22
2736.592342684271
 32
0.0
 13
-1273.597610635937
 23
2736.592342684271
 33
0.0
  0
MTEXT
  5
327
330
31E
100
AcDbEntity
  8
BEMASSUNG
 62
     3
440
 16777216
100
AcDbMText
 10
-1279.073297880139
 20
2732.092342684272
 30
0.0
 40
7.394999999999999
 41
0.0
 46
0.0
 71
     5
 72
     1
  1
\A1;9
  7
ARIAL-STANDARD
 11
0.0000000000000001
 21
1.0
 31
0.0
 73
     1
 44
1.0
  0
POINT
  5
328
330
31E
100
AcDbEntity
  8
DEFPOINTS
 62
     0
440
 16777216
100
AcDbPoint
 10
-1271.990704551779
 20
2727.592342684273
 30
0.0
  0
POINT
  5
329
330
31E
100
AcDbEntity
  8
DEFPOINTS
 62
     0
440
 16777216
100
AcDbPoint
 10
-1264.535093185259
 20
2736.592342684271
 30
0.0
  0
POINT
  5
32A
330
31E
100
AcDbEntity
  8
DEFPOINTS
 62
     0
440
 16777216
100
AcDbPoint
 10
-1273.597610635937
 20
2736.592342684271
 30
0.0
  0
ENDBLK
  5
32B
330
31E
100
AcDbEntity
  8
0
100
AcDbBlockEnd
  0
BLOCK
  5
312
330
311
100
AcDbEntity
  8
0
100
AcDbBlockBegin
  2
*D4
 70
     1
 10
0.0
 20
0.0
 30
0.0
  3
*D4
  1

  0
LINE
  5
313
330
311
100
AcDbEntity
  8
BEMASSUNG
440
 16777216
370
    -2
100
AcDbLine
 10
-1289.048344654096
 20
2727.592342684273
 30
0.0
 11
-1291.701811158808
 21
2727.592342684273
 31
0.0
  0
LINE
  5
314
330
311
100
AcDbEntity
  8
BEMASSUNG
440
 16777216
370
    -2
100
AcDbLine
 10
-1264.535093185259
 20
2798.592342684271
 30
0.0
 11
-1291.701811158808
 21
2798.592342684271
 31
0.0
  0
LINE
  5
315
330
311
100
AcDbEntity
  8
BEMASSUNG
440
 16777216
370
    -2
100
AcDbLine
 10
-1290.001811158808
 20
2734.392342684274
 30
0.0
 11
-1290.001811158808
 21
2791.792342684271
 31
0.0
  0
SOLID
  5
316
330
311
100
AcDbEntity
  8
BEMASSUNG
440
 16777216
100
AcDbTrace
 10
-1291.135144492141
 20
2734.392342684274
 30
0.0
 11
-1288.868477825474
 21
2734.392342684274
 31
0.0
 12
-1290.001811158808
 22
2727.592342684273
 32
0.0
 13
-1290.001811158808
 23
2727.592342684273
 33
0.0
  0
SOLID
  5
317
330
311
100
AcDbEntity
  8
BEMASSUNG
440
 16777216
100
AcDbTrace
 10
-1291.135144492141
 20
2791.792342684271
 30
0.0
 11
-1288.868477825474
 21
2791.792342684271
 31
0.0
 12
-1290.001811158808
 22
2798.592342684271
 32
0.0
 13
-1290.001811158808
 23
2798.592342684271
 33
0.0
  0
MTEXT
  5
318
330
311
100
AcDbEntity
  8
BEMASSUNG
 62
     3
440
 16777216
100
AcDbMText
 10
-1295.414444173815
 20
2767.592342684271
 30
0.0
 40
7.394999999999999
 41
0.0
 46
0.0
 71
     5
 72
     1
  1
\A1;71
  7
ARIAL-STANDARD
 11
0.0000000000000001
 21
1.0
 31
0.0
 73
     1
 44
1.0
  0
POINT
  5
319
330
311
100
AcDbEntity
  8
DEFPOINTS
 62
     0
440
 16777216
100
AcDbPoint
 10
-1289.048344654096
 20
2727.592342684273
 30
0.0
  0
POINT
  5
31A
330
311
100
AcDbEntity
  8
DEFPOINTS
 62
     0
440
 16777216
100
AcDbPoint
 10
-1264.535093185259
 20
2798.592342684271
 30
0.0
  0
POINT
  5
31B
330
311
100
AcDbEntity
  8
DEFPOINTS
 62
     0
440
 16777216
100
AcDbPoint
 10
-1290.001811158808
 20
2798.592342684271
 30
0.0
  0
ENDBLK
  5
31C
330
311
100
AcDbEntity
  8
0
100
AcDbBlockEnd
  0
BLOCK
  5
305
330
304
100
AcDbEntity
  8
0
100
AcDbBlockBegin
  2
*D5
 70
     1
 10
0.0
 20
0.0
 30
0.0
  3
*D5
  1

  0
LINE
  5
306
330
304
100
AcDbEntity
  8
BEMASSUNG
440
 16777216
370
    -2
100
AcDbLine
 10
-1290.001811158808
 20
2727.592342684273
 30
0.0
 11
-1291.701811158808
 21
2727.592342684273
 31
0.0
  0
LINE
  5
307
330
304
100
AcDbEntity
  8
BEMASSUNG
440
 16777216
370
    -2
100
AcDbLine
 10
-1261.138541976905
 20
2691.092342684271
 30
0.0
 11
-1291.701811158808
 21
2691.092342684271
 31
0.0
  0
LINE
  5
308
330
304
100
AcDbEntity
  8
BEMASSUNG
440
 16777216
370
    -2
100
AcDbLine
 10
-1290.001811158808
 20
2720.792342684273
 30
0.0
 11
-1290.001811158808
 21
2697.892342684272
 31
0.0
  0
SOLID
  5
309
330
304
100
AcDbEntity
  8
BEMASSUNG
440
 16777216
100
AcDbTrace
 10
-1291.135144492141
 20
2720.792342684273
 30
0.0
 11
-1288.868477825474
 21
2720.792342684273
 31
0.0
 12
-1290.001811158808
 22
2727.592342684273
 32
0.0
 13
-1290.001811158808
 23
2727.592342684273
 33
0.0
  0
SOLID
  5
30A
330
304
100
AcDbEntity
  8
BEMASSUNG
440
 16777216
100
AcDbTrace
 10
-1291.135144492141
 20
2697.892342684272
 30
0.0
 11
-1288.868477825474
 21
2697.892342684272
 31
0.0
 12
-1290.001811158808
 22
2691.092342684271
 32
0.0
 13
-1290.001811158808
 23
2691.092342684271
 33
0.0
  0
MTEXT
  5
30B
330
304
100
AcDbEntity
  8
BEMASSUNG
 62
     3
440
 16777216
100
AcDbMText
 10
-1295.480020572178
 20
2709.342342684271
 30
0.0
 40
7.394999999999999
 41
0.0
 46
0.0
 71
     5
 72
     1
  1
\A1;36.5
  7
ARIAL-STANDARD
 11
0.0000000000000001
 21
1.0
 31
0.0
 73
     1
 44
1.0
  0
POINT
  5
30C
330
304
100
AcDbEntity
  8
DEFPOINTS
 62
     0
440
 16777216
100
AcDbPoint
 10
-1290.001811158808
 20
2727.592342684273
 30
0.0
  0
POINT
  5
30D
330
304
100
AcDbEntity
  8
DEFPOINTS
 62
     0
440
 16777216
100
AcDbPoint
 10
-1261.138541976905
 20
2691.092342684271
 30
0.0
  0
POINT
  5
30E
330
304
100
AcDbEntity
  8
DEFPOINTS
 62
     0
440
 16777216
100
AcDbPoint
 10
-1290.001811158808
 20
2691.092342684271
 30
0.0
  0
ENDBLK
  5
30F
330
304
100
AcDbEntity
  8
0
100
AcDbBlockEnd
  0
BLOCK
  5
2F8
330
2F7
100
AcDbEntity
  8
0
100
AcDbBlockBegin
  2
*D6
 70
     1
 10
0.0
 20
0.0
 30
0.0
  3
*D6
  1

  0
LINE
  5
2F9
330
2F7
100
AcDbEntity
  8
BEMASSUNG
440
 16777216
370
    -2
100
AcDbLine
 10
-1289.048344654096
 20
2727.592342684272
 30
0.0
 11
-1307.773364569886
 21
2727.592342684272
 31
0.0
  0
LINE
  5
2FA
330
2F7
100
AcDbEntity
  8
BEMASSUNG
440
 16777216
370
    -2
100
AcDbLine
 10
-1261.138541976907
 20
2644.092342684271
 30
0.0
 11
-1307.773364569886
 21
2644.092342684271
 31
0.0
  0
LINE
  5
2FB
330
2F7
100
AcDbEntity
  8
BEMASSUNG
440
 16777216
370
    -2
100
AcDbLine
 10
-1306.073364569886
 20
2720.792342684272
 30
0.0
 11
-1306.073364569886
 21
2650.892342684271
 31
0.0
  0
SOLID
  5
2FC
330
2F7
100
AcDbEntity
  8
BEMASSUNG
440
 16777216
100
AcDbTrace
 10
-1307.206697903219
 20
2720.792342684272
 30
0.0
 11
-1304.940031236553
 21
2720.792342684272
 31
0.0
 12
-1306.073364569886
 22
2727.592342684272
 32
0.0
 13
-1306.073364569886
 23
2727.592342684272
 33
0.0
  0
SOLID
  5
2FD
330
2F7
100
AcDbEntity
  8
BEMASSUNG
440
 16777216
100
AcDbTrace
 10
-1307.206697903219
 20
2650.892342684271
 30
0.0
 11
-1304.940031236553
 21
2650.892342684271
 31
0.0
 12
-1306.073364569886
 22
2644.092342684271
 32
0.0
 13
-1306.073364569886
 23
2644.092342684271
 33
0.0
  0
MTEXT
  5
2FE
330
2F7
100
AcDbEntity
  8
BEMASSUNG
 62
     3
440
 16777216
100
AcDbMText
 10
-1311.551573983256
 20
2685.842342684271
 30
0.0
 40
7.394999999999999
 41
0.0
 46
0.0
 71
     5
 72
     1
  1
\A1;83.5
  7
ARIAL-STANDARD
 11
0.0000000000000001
 21
1.0
 31
0.0
 73
     1
 44
1.0
  0
POINT
  5
2FF
330
2F7
100
AcDbEntity
  8
DEFPOINTS
 62
     0
440
 16777216
100
AcDbPoint
 10
-1289.048344654096
 20
2727.592342684272
 30
0.0
  0
POINT
  5
300
330
2F7
100
AcDbEntity
  8
DEFPOINTS
 62
     0
440
 16777216
100
AcDbPoint
 10
-1261.138541976907
 20
2644.092342684271
 30
0.0
  0
POINT
  5
301
330
2F7
100
AcDbEntity
  8
DEFPOINTS
 62
     0
440
 16777216
100
AcDbPoint
 10
-1306.073364569886
 20
2644.092342684271
 30
0.0
  0
ENDBLK
  5
302
330
2F7
100
AcDbEntity
  8
0
100
AcDbBlockEnd
  0
BLOCK
  5
29C
330
29B
100
AcDbEntity
  8
0
100
AcDbBlockBegin
  2
*D7
 70
     1
 10
0.0
 20
0.0
 30
0.0
  3
*D7
  1

  0
LINE
  5
29D
330
29B
100
AcDbEntity
  8
BEMASSUNG
440
 16777216
370
    -2
100
AcDbLine
 10
-1256.138541976901
 20
2865.592342684271
 30
0.0
 11
-1332.023311171081
 21
2865.592342684271
 31
0.0
  0
LINE
  5
29E
330
29B
100
AcDbEntity
  8
BEMASSUNG
440
 16777216
370
    -2
100
AcDbLine
 10
-1256.1385419769
 20
2545.592342684271
 30
0.0
 11
-1332.023311171082
 21
2545.592342684271
 31
0.0
  0
LINE
  5
29F
330
29B
100
AcDbEntity
  8
BEMASSUNG
440
 16777216
370
    -2
100
AcDbLine
 10
-1330.323311171081
 20
2858.792342684271
 30
0.0
 11
-1330.323311171081
 21
2552.392342684271
 31
0.0
  0
SOLID
  5
2A0
330
29B
100
AcDbEntity
  8
BEMASSUNG
440
 16777216
100
AcDbTrace
 10
-1331.456644504415
 20
2858.792342684271
 30
0.0
 11
-1329.189977837748
 21
2858.792342684271
 31
0.0
 12
-1330.323311171081
 22
2865.592342684271
 32
0.0
 13
-1330.323311171081
 23
2865.592342684271
 33
0.0
  0
SOLID
  5
2A1
330
29B
100
AcDbEntity
  8
BEMASSUNG
440
 16777216
100
AcDbTrace
 10
-1331.456644504415
 20
2552.392342684271
 30
0.0
 11
-1329.189977837748
 21
2552.392342684271
 31
0.0
 12
-1330.323311171081
 22
2545.592342684271
 32
0.0
 13
-1330.323311171081
 23
2545.592342684271
 33
0.0
  0
MTEXT
  5
2A2
330
29B
100
AcDbEntity
  8
BEMASSUNG
 62
     3
440
 16777216
100
AcDbMText
 10
-1335.801520584452
 20
2705.592342684271
 30
0.0
 40
7.394999999999999
 41
0.0
 46
0.0
 71
     5
 72
     1
  1
\A1;320
  7
ARIAL-STANDARD
 11
0.0000000000000001
 21
1.0
 31
0.0
 73
     1
 44
1.0
  0
POINT
  5
2A3
330
29B
100
AcDbEntity
  8
DEFPOINTS
 62
     0
440
 16777216
100
AcDbPoint
 10
-1256.138541976901
 20
2865.592342684271
 30
0.0
  0
POINT
  5
2A4
330
29B
100
AcDbEntity
  8
DEFPOINTS
 62
     0
440
 16777216
100
AcDbPoint
 10
-1256.1385419769
 20
2545.592342684271
 30
0.0
  0
POINT
  5
2A5
330
29B
100
AcDbEntity
  8
DEFPOINTS
 62
     0
440
 16777216
100
AcDbPoint
 10
-1330.323311171081
 20
2545.592342684271
 30
0.0
  0
ENDBLK
  5
2A6
330
29B
100
AcDbEntity
  8
0
100
AcDbBlockEnd
  0
BLOCK
  5
200
330
1FF
100
AcDbEntity
  8
0
100
AcDbBlockBegin
  2
*D8
 70
     1
 10
0.0
 20
0.0
 30
0.0
  3
*D8
  1

  0
LINE
  5
201
330
1FF
100
AcDbEntity
  8
BEMASSUNG
440
 16777216
370
    -2
100
AcDbLine
 10
-1091.775679679707
 20
2605.592342684271
 30
0.0
 11
-1166.171297100808
 21
2605.592342684271
 31
0.0
  0
LINE
  5
202
330
1FF
100
AcDbEntity
  8
BEMASSUNG
440
 16777216
370
    -2
100
AcDbLine
 10
-1091.775679679707
 20
2805.592342684271
 30
0.0
 11
-1166.171297100808
 21
2805.592342684271
 31
0.0
  0
LINE
  5
203
330
1FF
100
AcDbEntity
  8
BEMASSUNG
440
 16777216
370
    -2
100
AcDbLine
 10
-1164.471297100808
 20
2612.392342684271
 30
0.0
 11
-1164.471297100808
 21
2798.792342684271
 31
0.0
  0
SOLID
  5
204
330
1FF
100
AcDbEntity
  8
BEMASSUNG
440
 16777216
100
AcDbTrace
 10
-1165.604630434142
 20
2612.392342684271
 30
0.0
 11
-1163.337963767475
 21
2612.392342684271
 31
0.0
 12
-1164.471297100808
 22
2605.592342684271
 32
0.0
 13
-1164.471297100808
 23
2605.592342684271
 33
0.0
  0
SOLID
  5
205
330
1FF
100
AcDbEntity
  8
BEMASSUNG
440
 16777216
100
AcDbTrace
 10
-1165.604630434142
 20
2798.792342684271
 30
0.0
 11
-1163.337963767475
 21
2798.792342684271
 31
0.0
 12
-1164.471297100808
 22
2805.592342684271
 32
0.0
 13
-1164.471297100808
 23
2805.592342684271
 33
0.0
  0
MTEXT
  5
206
330
1FF
100
AcDbEntity
  8
BEMASSUNG
 62
     3
440
 16777216
100
AcDbMText
 10
-1169.946984345011
 20
2705.592342684271
 30
0.0
 40
7.394999999999999
 41
0.0
 46
0.0
 71
     5
 72
     1
  1
\A1;200
  7
ARIAL-STANDARD
 11
0.0000000000000001
 21
1.0
 31
0.0
 73
     1
 44
1.0
  0
POINT
  5
207
330
1FF
100
AcDbEntity
  8
DEFPOINTS
 62
     0
440
 16777216
100
AcDbPoint
 10
-1091.775679679707
 20
2605.592342684271
 30
0.0
  0
POINT
  5
208
330
1FF
100
AcDbEntity
  8
DEFPOINTS
 62
     0
440
 16777216
100
AcDbPoint
 10
-1091.775679679707
 20
2805.592342684271
 30
0.0
  0
POINT
  5
209
330
1FF
100
AcDbEntity
  8
DEFPOINTS
 62
     0
440
 16777216
100
AcDbPoint
 10
-1164.471297100808
 20
2805.592342684271
 30
0.0
  0
ENDBLK
  5
20A
330
1FF
100
AcDbEntity
  8
0
100
AcDbBlockEnd
  0
BLOCK
  5
1F1
330
1F0
100
AcDbEntity
  8
0
100
AcDbBlockBegin
  2
*D9
 70
     1
 10
0.0
 20
0.0
 30
0.0
  3
*D9
  1

  0
LINE
  5
1F2
330
1F0
100
AcDbEntity
  8
BEMASSUNG
440
 16777216
370
    -2
100
AcDbLine
 10
-1080.775679679707
 20
2732.092342684271
 30
0.0
 11
-1110.601894239537
 21
2732.092342684271
 31
0.0
  0
LINE
  5
1F3
330
1F0
100
AcDbEntity
  8
BEMASSUNG
440
 16777216
370
    -2
100
AcDbLine
 10
-1080.775679679707
 20
2723.092342684271
 30
0.0
 11
-1110.601894239537
 21
2723.092342684271
 31
0.0
  0
LINE
  5
1F4
330
1F0
100
AcDbEntity
  8
BEMASSUNG
440
 16777216
370
    -2
100
AcDbLine
 10
-1108.901894239537
 20
2716.292342684271
 30
0.0
 11
-1108.901894239537
 21
2709.492342684271
 31
0.0
  0
LINE
  5
1F5
330
1F0
100
AcDbEntity
  8
BEMASSUNG
440
 16777216
370
    -2
100
AcDbLine
 10
-1108.901894239537
 20
2738.892342684271
 30
0.0
 11
-1108.901894239537
 21
2765.682786067629
 31
0.0
  0
LINE
  5
1F6
330
1F0
100
AcDbEntity
  8
BEMASSUNG
440
 16777216
370
    -2
100
AcDbLine
 10
-1108.901894239537
 20
2723.092342684271
 30
0.0
 11
-1108.901894239537
 21
2732.092342684271
 31
0.0
  0
SOLID
  5
1F7
330
1F0
100
AcDbEntity
  8
BEMASSUNG
440
 16777216
100
AcDbTrace
 10
-1110.035227572871
 20
2716.292342684271
 30
0.0
 11
-1107.768560906204
 21
2716.292342684271
 31
0.0
 12
-1108.901894239537
 22
2723.092342684271
 32
0.0
 13
-1108.901894239537
 23
2723.092342684271
 33
0.0
  0
SOLID
  5
1F8
330
1F0
100
AcDbEntity
  8
BEMASSUNG
440
 16777216
100
AcDbTrace
 10
-1110.035227572871
 20
2738.892342684271
 30
0.0
 11
-1107.768560906204
 21
2738.892342684271
 31
0.0
 12
-1108.901894239537
 22
2732.092342684271
 32
0.0
 13
-1108.901894239537
 23
2732.092342684271
 33
0.0
  0
MTEXT
  5
1F9
330
1F0
100
AcDbEntity
  8
BEMASSUNG
 62
     3
440
 16777216
100
AcDbMText
 10
-1114.377581483739
 20
2761.551414989866
 30
0.0
 40
7.394999999999999
 41
0.0
 46
0.0
 71
     5
 72
     1
  1
\A1;9
  7
ARIAL-STANDARD
 11
0.0000000000000001
 21
1.0
 31
0.0
 73
     1
 44
1.0
  0
POINT
  5
1FA
330
1F0
100
AcDbEntity
  8
DEFPOINTS
 62
     0
440
 16777216
100
AcDbPoint
 10
-1080.775679679707
 20
2732.092342684271
 30
0.0
  0
POINT
  5
1FB
330
1F0
100
AcDbEntity
  8
DEFPOINTS
 62
     0
440
 16777216
100
AcDbPoint
 10
-1080.775679679707
 20
2723.092342684271
 30
0.0
  0
POINT
  5
1FC
330
1F0
100
AcDbEntity
  8
DEFPOINTS
 62
     0
440
 16777216
100
AcDbPoint
 10
-1108.901894239537
 20
2723.092342684271
 30
0.0
  0
ENDBLK
  5
1FD
330
1F0
100
AcDbEntity
  8
0
100
AcDbBlockEnd
  0
BLOCK
  5
1E3
330
1E2
100
AcDbEntity
  8
0
100
AcDbBlockBegin
  2
*D10
 70
     1
 10
0.0
 20
0.0
 30
0.0
  3
*D10
  1

  0
LINE
  5
1E4
330
1E2
100
AcDbEntity
  8
BEMASSUNG
440
 16777216
370
    -2
100
AcDbLine
 10
-1084.875679679706
 20
2706.092342684271
 30
0.0
 11
-1125.973820159439
 21
2706.092342684271
 31
0.0
  0
LINE
  5
1E5
330
1E2
100
AcDbEntity
  8
BEMASSUNG
440
 16777216
370
    -2
100
AcDbLine
 10
-1107.738824362626
 20
2727.592342684271
 30
0.0
 11
-1125.973820159439
 21
2727.592342684271
 31
0.0
  0
LINE
  5
1E6
330
1E2
100
AcDbEntity
  8
BEMASSUNG
440
 16777216
370
    -2
100
AcDbLine
 10
-1124.273820159439
 20
2720.792342684271
 30
0.0
 11
-1124.273820159439
 21
2712.892342684271
 31
0.0
  0
LINE
  5
1E7
330
1E2
100
AcDbEntity
  8
BEMASSUNG
440
 16777216
370
    -2
100
AcDbLine
 10
-1124.273820159439
 20
2706.092342684271
 30
0.0
 11
-1124.273820159439
 21
2656.397670105826
 31
0.0
  0
SOLID
  5
1E8
330
1E2
100
AcDbEntity
  8
BEMASSUNG
440
 16777216
100
AcDbTrace
 10
-1125.407153492773
 20
2720.792342684271
 30
0.0
 11
-1123.140486826106
 21
2720.792342684271
 31
0.0
 12
-1124.273820159439
 22
2727.592342684271
 32
0.0
 13
-1124.273820159439
 23
2727.592342684271
 33
0.0
  0
SOLID
  5
1E9
330
1E2
100
AcDbEntity
  8
BEMASSUNG
440
 16777216
100
AcDbTrace
 10
-1125.407153492773
 20
2712.892342684271
 30
0.0
 11
-1123.140486826106
 21
2712.892342684271
 31
0.0
 12
-1124.273820159439
 22
2706.092342684271
 32
0.0
 13
-1124.273820159439
 23
2706.092342684271
 33
0.0
  0
MTEXT
  5
1EA
330
1E2
100
AcDbEntity
  8
BEMASSUNG
 62
     3
440
 16777216
100
AcDbMText
 10
-1129.749507403642
 20
2667.792888386863
 30
0.0
 40
7.394999999999999
 41
0.0
 46
0.0
 71
     5
 72
     1
  1
\A1;21.5
  7
ARIAL-STANDARD
 11
0.0000000000000001
 21
1.0
 31
0.0
 73
     1
 44
1.0
  0
POINT
  5
1EB
330
1E2
100
AcDbEntity
  8
DEFPOINTS
 62
     0
440
 16777216
100
AcDbPoint
 10
-1084.875679679706
 20
2706.092342684271
 30
0.0
  0
POINT
  5
1EC
330
1E2
100
AcDbEntity
  8
DEFPOINTS
 62
     0
440
 16777216
100
AcDbPoint
 10
-1107.738824362626
 20
2727.592342684271
 30
0.0
  0
POINT
  5
1ED
330
1E2
100
AcDbEntity
  8
DEFPOINTS
 62
     0
440
 16777216
100
AcDbPoint
 10
-1124.273820159439
 20
2727.592342684271
 30
0.0
  0
ENDBLK
  5
1EE
330
1E2
100
AcDbEntity
  8
0
100
AcDbBlockEnd
  0
BLOCK
  5
1D6
330
1D5
100
AcDbEntity
  8
0
100
AcDbBlockBegin
  2
*D11
 70
     1
 10
0.0
 20
0.0
 30
0.0
  3
*D11
  1

  0
LINE
  5
1D7
330
1D5
100
AcDbEntity
  8
BEMASSUNG
440
 16777216
370
    -2
100
AcDbLine
 10
-1091.775679679708
 20
2805.592342684271
 30
0.0
 11
-1145.804753478713
 21
2805.592342684271
 31
0.0
  0
LINE
  5
1D8
330
1D5
100
AcDbEntity
  8
BEMASSUNG
440
 16777216
370
    -2
100
AcDbLine
 10
-1144.104753478712
 20
2727.592342684271
 30
0.0
 11
-1145.804753478713
 21
2727.592342684271
 31
0.0
  0
LINE
  5
1D9
330
1D5
100
AcDbEntity
  8
BEMASSUNG
440
 16777216
370
    -2
100
AcDbLine
 10
-1144.104753478712
 20
2798.792342684271
 30
0.0
 11
-1144.104753478712
 21
2734.392342684271
 31
0.0
  0
SOLID
  5
1DA
330
1D5
100
AcDbEntity
  8
BEMASSUNG
440
 16777216
100
AcDbTrace
 10
-1145.238086812046
 20
2798.792342684271
 30
0.0
 11
-1142.971420145379
 21
2798.792342684271
 31
0.0
 12
-1144.104753478712
 22
2805.592342684271
 32
0.0
 13
-1144.104753478712
 23
2805.592342684271
 33
0.0
  0
SOLID
  5
1DB
330
1D5
100
AcDbEntity
  8
BEMASSUNG
440
 16777216
100
AcDbTrace
 10
-1145.238086812046
 20
2734.392342684271
 30
0.0
 11
-1142.971420145379
 21
2734.392342684271
 31
0.0
 12
-1144.104753478712
 22
2727.592342684271
 32
0.0
 13
-1144.104753478712
 23
2727.592342684271
 33
0.0
  0
MTEXT
  5
1DC
330
1D5
100
AcDbEntity
  8
BEMASSUNG
 62
     3
440
 16777216
100
AcDbMText
 10
-1149.580440722915
 20
2766.592342684271
 30
0.0
 40
7.394999999999999
 41
0.0
 46
0.0
 71
     5
 72
     1
  1
\A1;78
  7
ARIAL-STANDARD
 11
0.0000000000000001
 21
1.0
 31
0.0
 73
     1
 44
1.0
  0
POINT
  5
1DD
330
1D5
100
AcDbEntity
  8
DEFPOINTS
 62
     0
440
 16777216
100
AcDbPoint
 10
-1091.775679679708
 20
2805.592342684271
 30
0.0
  0
POINT
  5
1DE
330
1D5
100
AcDbEntity
  8
DEFPOINTS
 62
     0
440
 16777216
100
AcDbPoint
 10
-1144.104753478712
 20
2727.592342684271
 30
0.0
  0
POINT
  5
1DF
330
1D5
100
AcDbEntity
  8
DEFPOINTS
 62
     0
440
 16777216
100
AcDbPoint
 10
-1144.104753478712
 20
2727.592342684271
 30
0.0
  0
ENDBLK
  5
1E0
330
1D5
100
AcDbEntity
  8
0
100
AcDbBlockEnd
  0
BLOCK
  5
1C9
330
1C8
100
AcDbEntity
  8
0
100
AcDbBlockBegin
  2
*D12
 70
     1
 10
0.0
 20
0.0
 30
0.0
  3
*D12
  1

  0
LINE
  5
1CA
330
1C8
100
AcDbEntity
  8
BEMASSUNG
440
 16777216
370
    -2
100
AcDbLine
 10
-1091.775679679707
 20
2605.592342684271
 30
0.0
 11
-1145.804753478713
 21
2605.592342684271
 31
0.0
  0
LINE
  5
1CB
330
1C8
100
AcDbEntity
  8
BEMASSUNG
440
 16777216
370
    -2
100
AcDbLine
 10
-1115.658944769132
 20
2727.592342684271
 30
0.0
 11
-1145.804753478713
 21
2727.592342684271
 31
0.0
  0
LINE
  5
1CC
330
1C8
100
AcDbEntity
  8
BEMASSUNG
440
 16777216
370
    -2
100
AcDbLine
 10
-1144.104753478712
 20
2612.392342684271
 30
0.0
 11
-1144.104753478712
 21
2720.792342684271
 31
0.0
  0
SOLID
  5
1CD
330
1C8
100
AcDbEntity
  8
BEMASSUNG
440
 16777216
100
AcDbTrace
 10
-1145.238086812046
 20
2612.392342684271
 30
0.0
 11
-1142.971420145379
 21
2612.392342684271
 31
0.0
 12
-1144.104753478712
 22
2605.592342684271
 32
0.0
 13
-1144.104753478712
 23
2605.592342684271
 33
0.0
  0
SOLID
  5
1CE
330
1C8
100
AcDbEntity
  8
BEMASSUNG
440
 16777216
100
AcDbTrace
 10
-1145.238086812046
 20
2720.792342684271
 30
0.0
 11
-1142.971420145379
 21
2720.792342684271
 31
0.0
 12
-1144.104753478712
 22
2727.592342684271
 32
0.0
 13
-1144.104753478712
 23
2727.592342684271
 33
0.0
  0
MTEXT
  5
1CF
330
1C8
100
AcDbEntity
  8
BEMASSUNG
 62
     3
440
 16777216
100
AcDbMText
 10
-1149.51738649372
 20
2666.592342684271
 30
0.0
 40
7.394999999999999
 41
0.0
 46
0.0
 71
     5
 72
     1
  1
\A1;122
  7
ARIAL-STANDARD
 11
0.0000000000000001
 21
1.0
 31
0.0
 73
     1
 44
1.0
  0
POINT
  5
1D0
330
1C8
100
AcDbEntity
  8
DEFPOINTS
 62
     0
440
 16777216
100
AcDbPoint
 10
-1091.775679679707
 20
2605.592342684271
 30
0.0
  0
POINT
  5
1D1
330
1C8
100
AcDbEntity
  8
DEFPOINTS
 62
     0
440
 16777216
100
AcDbPoint
 10
-1115.658944769132
 20
2727.592342684271
 30
0.0
  0
POINT
  5
1D2
330
1C8
100
AcDbEntity
  8
DEFPOINTS
 62
     0
440
 16777216
100
AcDbPoint
 10
-1144.104753478712
 20
2727.592342684271
 30
0.0
  0
ENDBLK
  5
1D3
330
1C8
100
AcDbEntity
  8
0
100
AcDbBlockEnd
  0
BLOCK
  5
1BA
330
1B9
100
AcDbEntity
  8
0
100
AcDbBlockBegin
  2
*D13
 70
     1
 10
0.0
 20
0.0
 30
0.0
  3
*D13
  1

  0
LINE
  5
1BB
330
1B9
100
AcDbEntity
  8
BEMASSUNG
440
 16777216
370
    -2
100
AcDbLine
 10
-1091.775679679707
 20
2605.592342684271
 30
0.0
 11
-1091.775679679707
 21
2513.477354681264
 31
0.0
  0
LINE
  5
1BC
330
1B9
100
AcDbEntity
  8
BEMASSUNG
440
 16777216
370
    -2
100
AcDbLine
 10
-1076.275679679707
 20
2532.601866793415
 30
0.0
 11
-1076.275679679707
 21
2513.477354681264
 31
0.0
  0
LINE
  5
1BD
330
1B9
100
AcDbEntity
  8
BEMASSUNG
440
 16777216
370
    -2
100
AcDbLine
 10
-1069.475679679707
 20
2515.177354681264
 30
0.0
 11
-1062.675679679707
 21
2515.177354681264
 31
0.0
  0
LINE
  5
1BE
330
1B9
100
AcDbEntity
  8
BEMASSUNG
440
 16777216
370
    -2
100
AcDbLine
 10
-1098.575679679707
 20
2515.177354681264
 30
0.0
 11
-1140.55889761968
 21
2515.177354681264
 31
0.0
  0
LINE
  5
1BF
330
1B9
100
AcDbEntity
  8
BEMASSUNG
440
 16777216
370
    -2
100
AcDbLine
 10
-1076.275679679707
 20
2515.177354681264
 30
0.0
 11
-1091.775679679707
 21
2515.177354681264
 31
0.0
  0
SOLID
  5
1C0
330
1B9
100
AcDbEntity
  8
BEMASSUNG
440
 16777216
100
AcDbTrace
 10
-1069.475679679707
 20
2516.310688014597
 30
0.0
 11
-1069.475679679707
 21
2514.044021347931
 31
0.0
 12
-1076.275679679707
 22
2515.177354681264
 32
0.0
 13
-1076.275679679707
 23
2515.177354681264
 33
0.0
  0
SOLID
  5
1C1
330
1B9
100
AcDbEntity
  8
BEMASSUNG
440
 16777216
100
AcDbTrace
 10
-1098.575679679707
 20
2516.310688014597
 30
0.0
 11
-1098.575679679707
 21
2514.044021347931
 31
0.0
 12
-1091.775679679707
 22
2515.177354681264
 32
0.0
 13
-1091.775679679707
 23
2515.177354681264
 33
0.0
  0
MTEXT
  5
1C2
330
1B9
100
AcDbEntity
  8
BEMASSUNG
 62
     3
440
 16777216
100
AcDbMText
 10
-1129.574792912996
 20
2520.653041925466
 30
0.0
 40
7.394999999999999
 41
0.0
 46
0.0
 71
     5
 72
     1
  1
\A1;15.5
  7
ARIAL-STANDARD
 73
     1
 44
1.0
  0
POINT
  5
1C3
330
1B9
100
AcDbEntity
  8
DEFPOINTS
 62
     0
440
 16777216
100
AcDbPoint
 10
-1091.775679679707
 20
2605.592342684271
 30
0.0
  0
POINT
  5
1C4
330
1B9
100
AcDbEntity
  8
DEFPOINTS
 62
     0
440
 16777216
100
AcDbPoint
 10
-1076.275679679707
 20
2532.601866793415
 30
0.0
  0
POINT
  5
1C5
330
1B9
100
AcDbEntity
  8
DEFPOINTS
 62
     0
440
 16777216
100
AcDbPoint
 10
-1076.275679679707
 20
2515.177354681264
 30
0.0
  0
ENDBLK
  5
1C6
330
1B9
100
AcDbEntity
  8
0
100
AcDbBlockEnd
  0
BLOCK
  5
1AD
330
1AC
100
AcDbEntity
  8
0
100
AcDbBlockBegin
  2
*D14
 70
     1
 10
0.0
 20
0.0
 30
0.0
  3
*D14
  1

  0
LINE
  5
1AE
330
1AC
100
AcDbEntity
  8
BEMASSUNG
440
 16777216
370
    -2
100
AcDbLine
 10
-1120.970290112042
 20
2602.738617464646
 30
0.0
 11
-1126.2441149521
 21
2602.738617464646
 31
0.0
  0
LINE
  5
1AF
330
1AC
100
AcDbEntity
  8
BEMASSUNG
440
 16777216
370
    -2
100
AcDbLine
 10
-1061.275679679707
 20
2582.594862005548
 30
0.0
 11
-1126.2441149521
 21
2582.594862005548
 31
0.0
  0
LINE
  5
1B0
330
1AC
100
AcDbEntity
  8
BEMASSUNG
440
 16777216
370
    -2
100
AcDbLine
 10
-1124.5441149521
 20
2595.938617464646
 30
0.0
 11
-1124.5441149521
 21
2589.394862005548
 31
0.0
  0
SOLID
  5
1B1
330
1AC
100
AcDbEntity
  8
BEMASSUNG
440
 16777216
100
AcDbTrace
 10
-1125.677448285434
 20
2595.938617464646
 30
0.0
 11
-1123.410781618767
 21
2595.938617464646
 31
0.0
 12
-1124.5441149521
 22
2602.738617464646
 32
0.0
 13
-1124.5441149521
 23
2602.738617464646
 33
0.0
  0
SOLID
  5
1B2
330
1AC
100
AcDbEntity
  8
BEMASSUNG
440
 16777216
100
AcDbTrace
 10
-1125.677448285434
 20
2589.394862005548
 30
0.0
 11
-1123.410781618767
 21
2589.394862005548
 31
0.0
 12
-1124.5441149521
 22
2582.594862005548
 32
0.0
 13
-1124.5441149521
 23
2582.594862005548
 33
0.0
  0
MTEXT
  5
1B3
330
1AC
100
AcDbEntity
  8
BEMASSUNG
 62
     3
440
 16777216
100
AcDbMText
 10
-1130.019802196303
 20
2592.666739735097
 30
0.0
 40
7.394999999999999
 41
0.0
 46
0.0
 71
     5
 72
     1
  1
\A1;Hub = 20
  7
ARIAL-STANDARD
 11
0.0000000000000001
 21
1.0
 31
0.0
 73
     1
 44
1.0
  0
POINT
  5
1B4
330
1AC
100
AcDbEntity
  8
DEFPOINTS
 62
     0
440
 16777216
100
AcDbPoint
 10
-1120.970290112042
 20
2602.738617464646
 30
0.0
  0
POINT
  5
1B5
330
1AC
100
AcDbEntity
  8
DEFPOINTS
 62
     0
440
 16777216
100
AcDbPoint
 10
-1061.275679679707
 20
2582.594862005548
 30
0.0
  0
POINT
  5
1B6
330
1AC
100
AcDbEntity
  8
DEFPOINTS
 62
     0
440
 16777216
100
AcDbPoint
 10
-1124.5441149521
 20
2582.594862005548
 30
0.0
  0
ENDBLK
  5
1B7
330
1AC
100
AcDbEntity
  8
0
100
AcDbBlockEnd
  0
BLOCK
  5
1A0
330
19F
100
AcDbEntity
  8
0
100
AcDbBlockBegin
  2
*D15
 70
     1
 10
0.0
 20
0.0
 30
0.0
  3
*D15
  1

  0
LINE
  5
1A1
330
19F
100
AcDbEntity
  8
BEMASSUNG
440
 16777216
370
    -2
100
AcDbLine
 10
-1057.275679679706
 20
2828.603816295788
 30
0.0
 11
-1125.983739861413
 21
2828.603816295788
 31
0.0
  0
LINE
  5
1A2
330
19F
100
AcDbEntity
  8
BEMASSUNG
440
 16777216
370
    -2
100
AcDbLine
 10
-1091.775679679707
 20
2805.592342684271
 30
0.0
 11
-1125.983739861413
 21
2805.592342684271
 31
0.0
  0
LINE
  5
1A3
330
19F
100
AcDbEntity
  8
BEMASSUNG
440
 16777216
370
    -2
100
AcDbLine
 10
-1124.283739861413
 20
2821.803816295788
 30
0.0
 11
-1124.283739861413
 21
2812.392342684271
 31
0.0
  0
SOLID
  5
1A4
330
19F
100
AcDbEntity
  8
BEMASSUNG
440
 16777216
100
AcDbTrace
 10
-1125.417073194747
 20
2821.803816295788
 30
0.0
 11
-1123.15040652808
 21
2821.803816295788
 31
0.0
 12
-1124.283739861413
 22
2828.603816295788
 32
0.0
 13
-1124.283739861413
 23
2828.603816295788
 33
0.0
  0
SOLID
  5
1A5
330
19F
100
AcDbEntity
  8
BEMASSUNG
440
 16777216
100
AcDbTrace
 10
-1125.417073194747
 20
2812.392342684271
 30
0.0
 11
-1123.15040652808
 21
2812.392342684271
 31
0.0
 12
-1124.283739861413
 22
2805.592342684271
 32
0.0
 13
-1124.283739861413
 23
2805.592342684271
 33
0.0
  0
MTEXT
  5
1A6
330
19F
100
AcDbEntity
  8
BEMASSUNG
 62
     3
440
 16777216
100
AcDbMText
 10
-1129.761949274783
 20
2817.098079490029
 30
0.0
 40
7.394999999999999
 41
0.0
 46
0.0
 71
     5
 72
     1
  1
\A1;Hub = 23
  7
ARIAL-STANDARD
 11
0.0000000000000001
 21
1.0
 31
0.0
 73
     1
 44
1.0
  0
POINT
  5
1A7
330
19F
100
AcDbEntity
  8
DEFPOINTS
 62
     0
440
 16777216
100
AcDbPoint
 10
-1057.275679679706
 20
2828.603816295788
 30
0.0
  0
POINT
  5
1A8
330
19F
100
AcDbEntity
  8
DEFPOINTS
 62
     0
440
 16777216
100
AcDbPoint
 10
-1091.775679679707
 20
2805.592342684271
 30
0.0
  0
POINT
  5
1A9
330
19F
100
AcDbEntity
  8
DEFPOINTS
 62
     0
440
 16777216
100
AcDbPoint
 10
-1124.283739861413
 20
2805.592342684271
 30
0.0
  0
ENDBLK
  5
1AA
330
19F
100
AcDbEntity
  8
0
100
AcDbBlockEnd
  0
BLOCK
  5
170
330
16F
100
AcDbEntity
  8
0
100
AcDbBlockBegin
  2
*D16
 70
     1
 10
0.0
 20
0.0
 30
0.0
  3
*D16
  1

  0
LINE
  5
171
330
16F
100
AcDbEntity
  8
BEMASSUNG
440
 16777216
370
    -2
100
AcDbLine
 10
-1047.325679679706
 20
2667.592342684271
 30
0.0
 11
-999.4097162099448
 21
2667.592342684271
 31
0.0
  0
LINE
  5
172
330
16F
100
AcDbEntity
  8
BEMASSUNG
440
 16777216
370
    -2
100
AcDbLine
 10
-1050.525679679707
 20
2727.592342684271
 30
0.0
 11
-999.4097162099448
 21
2727.592342684271
 31
0.0
  0
LINE
  5
173
330
16F
100
AcDbEntity
  8
BEMASSUNG
440
 16777216
370
    -2
100
AcDbLine
 10
-1001.109716209945
 20
2674.392342684271
 30
0.0
 11
-1001.109716209945
 21
2720.792342684271
 31
0.0
  0
SOLID
  5
174
330
16F
100
AcDbEntity
  8
BEMASSUNG
440
 16777216
100
AcDbTrace
 10
-1002.243049543278
 20
2674.392342684271
 30
0.0
 11
-999.9763828766116
 21
2674.392342684271
 31
0.0
 12
-1001.109716209945
 22
2667.592342684271
 32
0.0
 13
-1001.109716209945
 23
2667.592342684271
 33
0.0
  0
SOLID
  5
175
330
16F
100
AcDbEntity
  8
BEMASSUNG
440
 16777216
100
AcDbTrace
 10
-1002.243049543278
 20
2720.792342684271
 30
0.0
 11
-999.9763828766116
 21
2720.792342684271
 31
0.0
 12
-1001.109716209945
 22
2727.592342684271
 32
0.0
 13
-1001.109716209945
 23
2727.592342684271
 33
0.0
  0
MTEXT
  5
176
330
16F
100
AcDbEntity
  8
BEMASSUNG
 62
     3
440
 16777216
100
AcDbMText
 10
-1006.585403454147
 20
2697.59234268427
 30
0.0
 40
7.394999999999999
 41
0.0
 46
0.0
 71
     5
 72
     1
  1
\A1;60
  7
ARIAL-STANDARD
 11
0.0000000000000001
 21
1.0
 31
0.0
 73
     1
 44
1.0
  0
POINT
  5
177
330
16F
100
AcDbEntity
  8
DEFPOINTS
 62
     0
440
 16777216
100
AcDbPoint
 10
-1047.325679679706
 20
2667.592342684271
 30
0.0
  0
POINT
  5
178
330
16F
100
AcDbEntity
  8
DEFPOINTS
 62
     0
440
 16777216
100
AcDbPoint
 10
-1050.525679679707
 20
2727.592342684271
 30
0.0
  0
POINT
  5
179
330
16F
100
AcDbEntity
  8
DEFPOINTS
 62
     0
440
 16777216
100
AcDbPoint
 10
-1001.109716209945
 20
2727.592342684271
 30
0.0
  0
ENDBLK
  5
17A
330
16F
100
AcDbEntity
  8
0
100
AcDbBlockEnd
  0
BLOCK
  5
163
330
162
100
AcDbEntity
  8
0
100
AcDbBlockBegin
  2
*D17
 70
     1
 10
0.0
 20
0.0
 30
0.0
  3
*D17
  1

  0
LINE
  5
164
330
162
100
AcDbEntity
  8
BEMASSUNG
440
 16777216
370
    -2
100
AcDbLine
 10
-1050.525679679707
 20
2727.592342684271
 30
0.0
 11
-999.5708128482045
 21
2727.592342684271
 31
0.0
  0
LINE
  5
165
330
162
100
AcDbEntity
  8
BEMASSUNG
440
 16777216
370
    -2
100
AcDbLine
 10
-1010.857124817385
 20
2767.592342684271
 30
0.0
 11
-999.5708128482045
 21
2767.592342684271
 31
0.0
  0
LINE
  5
166
330
162
100
AcDbEntity
  8
BEMASSUNG
440
 16777216
370
    -2
100
AcDbLine
 10
-1001.270812848204
 20
2734.392342684271
 30
0.0
 11
-1001.270812848204
 21
2760.792342684271
 31
0.0
  0
SOLID
  5
167
330
162
100
AcDbEntity
  8
BEMASSUNG
440
 16777216
100
AcDbTrace
 10
-1002.404146181538
 20
2734.392342684271
 30
0.0
 11
-1000.137479514871
 21
2734.392342684271
 31
0.0
 12
-1001.270812848204
 22
2727.592342684271
 32
0.0
 13
-1001.270812848204
 23
2727.592342684271
 33
0.0
  0
SOLID
  5
168
330
162
100
AcDbEntity
  8
BEMASSUNG
440
 16777216
100
AcDbTrace
 10
-1002.404146181538
 20
2760.792342684271
 30
0.0
 11
-1000.137479514871
 21
2760.792342684271
 31
0.0
 12
-1001.270812848204
 22
2767.592342684271
 32
0.0
 13
-1001.270812848204
 23
2767.592342684271
 33
0.0
  0
MTEXT
  5
169
330
162
100
AcDbEntity
  8
BEMASSUNG
 62
     3
440
 16777216
100
AcDbMText
 10
-1006.746500092407
 20
2747.592342684271
 30
0.0
 40
7.394999999999999
 41
0.0
 46
0.0
 71
     5
 72
     1
  1
\A1;40
  7
ARIAL-STANDARD
 11
0.0000000000000001
 21
1.0
 31
0.0
 73
     1
 44
1.0
  0
POINT
  5
16A
330
162
100
AcDbEntity
  8
DEFPOINTS
 62
     0
440
 16777216
100
AcDbPoint
 10
-1050.525679679707
 20
2727.592342684271
 30
0.0
  0
POINT
  5
16B
330
162
100
AcDbEntity
  8
DEFPOINTS
 62
     0
440
 16777216
100
AcDbPoint
 10
-1010.857124817385
 20
2767.592342684271
 30
0.0
  0
POINT
  5
16C
330
162
100
AcDbEntity
  8
DEFPOINTS
 62
     0
440
 16777216
100
AcDbPoint
 10
-1001.270812848204
 20
2767.592342684271
 30
0.0
  0
ENDBLK
  5
16D
330
162
100
AcDbEntity
  8
0
100
AcDbBlockEnd
  0
BLOCK
  5
151
330
150
100
AcDbEntity
  8
0
100
AcDbBlockBegin
  2
*D18
 70
     1
 10
0.0
 20
0.0
 30
0.0
  3
*D18
  1

  0
LINE
  5
152
330
150
100
AcDbEntity
  8
BEMASSUNG
440
 16777216
370
    -2
100
AcDbLine
 10
-1051.275679679707
 20
2573.808256568547
 30
0.0
 11
-1051.275679679707
 21
2513.477354681264
 31
0.0
  0
LINE
  5
153
330
150
100
AcDbEntity
  8
BEMASSUNG
440
 16777216
370
    -2
100
AcDbLine
 10
-1076.275679679707
 20
2687.047722307482
 30
0.0
 11
-1076.275679679707
 21
2513.477354681264
 31
0.0
  0
LINE
  5
154
330
150
100
AcDbEntity
  8
BEMASSUNG
440
 16777216
370
    -2
100
AcDbLine
 10
-1069.475679679707
 20
2515.177354681264
 30
0.0
 11
-1058.075679679707
 21
2515.177354681264
 31
0.0
  0
LINE
  5
155
330
150
100
AcDbEntity
  8
BEMASSUNG
440
 16777216
370
    -2
100
AcDbLine
 10
-1051.275679679707
 20
2515.177354681264
 30
0.0
 11
-951.5236946865286
 21
2515.177354681264
 31
0.0
  0
SOLID
  5
156
330
150
100
AcDbEntity
  8
BEMASSUNG
440
 16777216
100
AcDbTrace
 10
-1069.475679679707
 20
2516.310688014597
 30
0.0
 11
-1069.475679679707
 21
2514.044021347931
 31
0.0
 12
-1076.275679679707
 22
2515.177354681264
 32
0.0
 13
-1076.275679679707
 23
2515.177354681264
 33
0.0
  0
SOLID
  5
157
330
150
100
AcDbEntity
  8
BEMASSUNG
440
 16777216
100
AcDbTrace
 10
-1058.075679679707
 20
2516.310688014597
 30
0.0
 11
-1058.075679679707
 21
2514.044021347931
 31
0.0
 12
-1051.275679679707
 22
2515.177354681264
 32
0.0
 13
-1051.275679679707
 23
2515.177354681264
 33
0.0
  0
MTEXT
  5
158
330
150
100
AcDbEntity
  8
BEMASSUNG
 62
     3
440
 16777216
100
AcDbMText
 10
-985.4973713577429
 20
2526.83319710964
 30
0.0
 40
7.394999999999999
 41
0.0
 46
0.0
 71
     5
 72
     1
  1
\A1;DM60=25\PDM70-100=35
  7
ARIAL-STANDARD
 73
     1
 44
1.0
  0
POINT
  5
159
330
150
100
AcDbEntity
  8
DEFPOINTS
 62
     0
440
 16777216
100
AcDbPoint
 10
-1051.275679679707
 20
2573.808256568547
 30
0.0
  0
POINT
  5
15A
330
150
100
AcDbEntity
  8
DEFPOINTS
 62
     0
440
 16777216
100
AcDbPoint
 10
-1076.275679679707
 20
2687.047722307482
 30
0.0
  0
POINT
  5
15B
330
150
100
AcDbEntity
  8
DEFPOINTS
 62
     0
440
 16777216
100
AcDbPoint
 10
-1076.275679679707
 20
2515.177354681264
 30
0.0
  0
ENDBLK
  5
15C
330
150
100
AcDbEntity
  8
0
100
AcDbBlockEnd
  0
BLOCK
  5
144
330
143
100
AcDbEntity
  8
0
100
AcDbBlockBegin
  2
*D19
 70
     1
 10
0.0
 20
0.0
 30
0.0
  3
*D19
  1

  0
LINE
  5
145
330
143
100
AcDbEntity
  8
BEMASSUNG
440
 16777216
370
    -2
100
AcDbLine
 10
-1016.275679679707
 20
2865.592342684271
 30
0.0
 11
-1016.275679679707
 21
2879.925167708883
 31
0.0
  0
LINE
  5
146
330
143
100
AcDbEntity
  8
BEMASSUNG
440
 16777216
370
    -2
100
AcDbLine
 10
-1076.275679679707
 20
2732.092342684271
 30
0.0
 11
-1076.275679679707
 21
2879.925167708883
 31
0.0
  0
LINE
  5
147
330
143
100
AcDbEntity
  8
BEMASSUNG
440
 16777216
370
    -2
100
AcDbLine
 10
-1023.075679679707
 20
2878.225167708883
 30
0.0
 11
-1069.475679679706
 21
2878.225167708883
 31
0.0
  0
SOLID
  5
148
330
143
100
AcDbEntity
  8
BEMASSUNG
440
 16777216
100
AcDbTrace
 10
-1023.075679679707
 20
2879.358501042217
 30
0.0
 11
-1023.075679679707
 21
2877.09183437555
 31
0.0
 12
-1016.275679679707
 22
2878.225167708883
 32
0.0
 13
-1016.275679679707
 23
2878.225167708883
 33
0.0
  0
SOLID
  5
149
330
143
100
AcDbEntity
  8
BEMASSUNG
440
 16777216
100
AcDbTrace
 10
-1069.475679679706
 20
2879.358501042217
 30
0.0
 11
-1069.475679679706
 21
2877.09183437555
 31
0.0
 12
-1076.275679679707
 22
2878.225167708883
 32
0.0
 13
-1076.275679679707
 23
2878.225167708883
 33
0.0
  0
MTEXT
  5
14A
330
143
100
AcDbEntity
  8
BEMASSUNG
 62
     3
440
 16777216
100
AcDbMText
 10
-1046.275679679707
 20
2883.622667708883
 30
0.0
 40
7.394999999999999
 41
0.0
 46
0.0
 71
     5
 72
     1
  1
\A1;DM
  7
ARIAL-STANDARD
 73
     1
 44
1.0
  0
POINT
  5
14B
330
143
100
AcDbEntity
  8
DEFPOINTS
 62
     0
440
 16777216
100
AcDbPoint
 10
-1016.275679679707
 20
2865.592342684271
 30
0.0
  0
POINT
  5
14C
330
143
100
AcDbEntity
  8
DEFPOINTS
 62
     0
440
 16777216
100
AcDbPoint
 10
-1076.275679679707
 20
2732.092342684271
 30
0.0
  0
POINT
  5
14D
330
143
100
AcDbEntity
  8
DEFPOINTS
 62
     0
440
 16777216
100
AcDbPoint
 10
-1076.275679679707
 20
2878.225167708883
 30
0.0
  0
ENDBLK
  5
14E
330
143
100
AcDbEntity
  8
0
100
AcDbBlockEnd
  0
BLOCK
  5
123
330
122
100
AcDbEntity
  8
0
100
AcDbBlockBegin
  2
*D20
 70
     1
 10
0.0
 20
0.0
 30
0.0
  3
*D20
  1

  0
LINE
  5
124
330
122
100
AcDbEntity
  8
BEMASSUNG
440
 16777216
370
    -2
100
AcDbLine
 10
-1040.275679679706
 20
2805.592342684274
 30
0.0
 11
-1023.914218444256
 21
2805.592342684274
 31
0.0
  0
LINE
  5
125
330
122
100
AcDbEntity
  8
BEMASSUNG
440
 16777216
370
    -2
100
AcDbLine
 10
-1041.275679679707
 20
2828.603816295788
 30
0.0
 11
-1023.914218444255
 21
2828.603816295787
 31
0.0
  0
LINE
  5
126
330
122
100
AcDbEntity
  8
BEMASSUNG
440
 16777216
370
    -2
100
AcDbLine
 10
-1025.614218444255
 20
2812.392342684275
 30
0.0
 11
-1025.614218444255
 21
2821.803816295788
 31
0.0
  0
SOLID
  5
127
330
122
100
AcDbEntity
  8
BEMASSUNG
440
 16777216
100
AcDbTrace
 10
-1026.747551777589
 20
2812.392342684275
 30
0.0
 11
-1024.480885110922
 21
2812.392342684275
 31
0.0
 12
-1025.614218444255
 22
2805.592342684274
 32
0.0
 13
-1025.614218444255
 23
2805.592342684274
 33
0.0
  0
SOLID
  5
128
330
122
100
AcDbEntity
  8
BEMASSUNG
440
 16777216
100
AcDbTrace
 10
-1026.747551777589
 20
2821.803816295788
 30
0.0
 11
-1024.480885110922
 21
2821.803816295788
 31
0.0
 12
-1025.614218444255
 22
2828.603816295788
 32
0.0
 13
-1025.614218444255
 23
2828.603816295788
 33
0.0
  0
MTEXT
  5
129
330
122
100
AcDbEntity
  8
BEMASSUNG
 62
     3
440
 16777216
100
AcDbMText
 10
-1031.092427857626
 20
2817.098079490031
 30
0.0
 40
7.394999999999999
 41
0.0
 46
0.0
 71
     5
 72
     1
  1
\A1;23
  7
ARIAL-STANDARD
 11
0.0000000000000001
 21
1.0
 31
0.0
 73
     1
 44
1.0
  0
POINT
  5
12A
330
122
100
AcDbEntity
  8
DEFPOINTS
 62
     0
440
 16777216
100
AcDbPoint
 10
-1040.275679679706
 20
2805.592342684274
 30
0.0
  0
POINT
  5
12B
330
122
100
AcDbEntity
  8
DEFPOINTS
 62
     0
440
 16777216
100
AcDbPoint
 10
-1041.275679679707
 20
2828.603816295788
 30
0.0
  0
POINT
  5
12C
330
122
100
AcDbEntity
  8
DEFPOINTS
 62
     0
440
 16777216
100
AcDbPoint
 10
-1025.614218444255
 20
2828.603816295788
 30
0.0
  0
ENDBLK
  5
12D
330
122
100
AcDbEntity
  8
0
100
AcDbBlockEnd
  0
BLOCK
  5
116
330
115
100
AcDbEntity
  8
0
100
AcDbBlockBegin
  2
*D21
 70
     1
 10
0.0
 20
0.0
 30
0.0
  3
*D21
  1

  0
LINE
  5
117
330
115
100
AcDbEntity
  8
BEMASSUNG
440
 16777216
370
    -2
100
AcDbLine
 10
-1041.275679679707
 20
2582.594862005548
 30
0.0
 11
-1023.962426362013
 21
2582.594862005548
 31
0.0
  0
LINE
  5
118
330
115
100
AcDbEntity
  8
BEMASSUNG
440
 16777216
370
    -2
100
AcDbLine
 10
-1040.275679679706
 20
2605.592342684272
 30
0.0
 11
-1023.962426362013
 21
2605.592342684272
 31
0.0
  0
LINE
  5
119
330
115
100
AcDbEntity
  8
BEMASSUNG
440
 16777216
370
    -2
100
AcDbLine
 10
-1025.662426362013
 20
2589.394862005548
 30
0.0
 11
-1025.662426362013
 21
2598.792342684272
 31
0.0
  0
SOLID
  5
11A
330
115
100
AcDbEntity
  8
BEMASSUNG
440
 16777216
100
AcDbTrace
 10
-1026.795759695346
 20
2589.394862005548
 30
0.0
 11
-1024.529093028679
 21
2589.394862005548
 31
0.0
 12
-1025.662426362013
 22
2582.594862005548
 32
0.0
 13
-1025.662426362013
 23
2582.594862005548
 33
0.0
  0
SOLID
  5
11B
330
115
100
AcDbEntity
  8
BEMASSUNG
440
 16777216
100
AcDbTrace
 10
-1026.795759695346
 20
2598.792342684272
 30
0.0
 11
-1024.529093028679
 21
2598.792342684272
 31
0.0
 12
-1025.662426362013
 22
2605.592342684272
 32
0.0
 13
-1025.662426362013
 23
2605.592342684272
 33
0.0
  0
MTEXT
  5
11C
330
115
100
AcDbEntity
  8
BEMASSUNG
 62
     3
440
 16777216
100
AcDbMText
 10
-1031.140635775383
 20
2594.093602344909
 30
0.0
 40
7.394999999999999
 41
0.0
 46
0.0
 71
     5
 72
     1
  1
\A1;23
  7
ARIAL-STANDARD
 11
0.0000000000000001
 21
1.0
 31
0.0
 73
     1
 44
1.0
  0
POINT
  5
11D
330
115
100
AcDbEntity
  8
DEFPOINTS
 62
     0
440
 16777216
100
AcDbPoint
 10
-1041.275679679707
 20
2582.594862005548
 30
0.0
  0
POINT
  5
11E
330
115
100
AcDbEntity
  8
DEFPOINTS
 62
     0
440
 16777216
100
AcDbPoint
 10
-1040.275679679706
 20
2605.592342684272
 30
0.0
  0
POINT
  5
11F
330
115
100
AcDbEntity
  8
DEFPOINTS
 62
     0
440
 16777216
100
AcDbPoint
 10
-1025.662426362013
 20
2605.592342684272
 30
0.0
  0
ENDBLK
  5
120
330
115
100
AcDbEntity
  8
0
100
AcDbBlockEnd
  0
BLOCK
  5
D5
330
D4
100
AcDbEntity
  8
0
100
AcDbBlockBegin
  2
*D22
 70
     1
 10
0.0
 20
0.0
 30
0.0
  3
*D22
  1

  0
LINE
  5
D6
330
D4
100
AcDbEntity
  8
BEMASSUNG
440
 16777216
370
    -2
100
AcDbLine
 10
-1091.775679679708
 20
2455.470935955458
 30
0.0
 11
-1108.565602305802
 21
2455.470935955458
 31
0.0
  0
LINE
  5
D7
330
D4
100
AcDbEntity
  8
BEMASSUNG
440
 16777216
370
    -2
100
AcDbLine
 10
-1091.775679679708
 20
2439.970935955458
 30
0.0
 11
-1108.565602305802
 21
2439.970935955458
 31
0.0
  0
LINE
  5
D8
330
D4
100
AcDbEntity
  8
BEMASSUNG
440
 16777216
370
    -2
100
AcDbLine
 10
-1106.865602305802
 20
2462.270935955459
 30
0.0
 11
-1106.865602305802
 21
2469.070935955458
 31
0.0
  0
LINE
  5
D9
330
D4
100
AcDbEntity
  8
BEMASSUNG
440
 16777216
370
    -2
100
AcDbLine
 10
-1106.865602305802
 20
2433.170935955458
 30
0.0
 11
-1106.865602305802
 21
2426.370935955458
 31
0.0
  0
LINE
  5
DA
330
D4
100
AcDbEntity
  8
BEMASSUNG
440
 16777216
370
    -2
100
AcDbLine
 10
-1106.865602305802
 20
2455.470935955458
 30
0.0
 11
-1106.865602305802
 21
2439.970935955458
 31
0.0
  0
SOLID
  5
DB
330
D4
100
AcDbEntity
  8
BEMASSUNG
440
 16777216
100
AcDbTrace
 10
-1107.998935639136
 20
2462.270935955459
 30
0.0
 11
-1105.732268972469
 21
2462.270935955459
 31
0.0
 12
-1106.865602305802
 22
2455.470935955458
 32
0.0
 13
-1106.865602305802
 23
2455.470935955458
 33
0.0
  0
SOLID
  5
DC
330
D4
100
AcDbEntity
  8
BEMASSUNG
440
 16777216
100
AcDbTrace
 10
-1107.998935639136
 20
2433.170935955458
 30
0.0
 11
-1105.732268972469
 21
2433.170935955458
 31
0.0
 12
-1106.865602305802
 22
2439.970935955458
 32
0.0
 13
-1106.865602305802
 23
2439.970935955458
 33
0.0
  0
MTEXT
  5
DD
330
D4
100
AcDbEntity
  8
BEMASSUNG
 62
     3
440
 16777216
100
AcDbMText
 10
-1112.341289550004
 20
2447.720935955458
 30
0.0
 40
7.394999999999999
 41
0.0
 46
0.0
 71
     5
 72
     1
  1
\A1;15.5
  7
ARIAL-STANDARD
 11
0.0000000000000001
 21
1.0
 31
0.0
 73
     1
 44
1.0
  0
POINT
  5
DE
330
D4
100
AcDbEntity
  8
DEFPOINTS
 62
     0
440
 16777216
100
AcDbPoint
 10
-1091.775679679708
 20
2455.470935955458
 30
0.0
  0
POINT
  5
DF
330
D4
100
AcDbEntity
  8
DEFPOINTS
 62
     0
440
 16777216
100
AcDbPoint
 10
-1091.775679679708
 20
2439.970935955458
 30
0.0
  0
POINT
  5
E0
330
D4
100
AcDbEntity
  8
DEFPOINTS
 62
     0
440
 16777216
100
AcDbPoint
 10
-1106.865602305802
 20
2439.970935955458
 30
0.0
  0
ENDBLK
  5
E1
330
D4
100
AcDbEntity
  8
0
100
AcDbBlockEnd
  0
BLOCK
  5
83
330
82
100
AcDbEntity
  8
0
100
AcDbBlockBegin
  2
*D23
 70
     1
 10
0.0
 20
0.0
 30
0.0
  3
*D23
  1

  0
LINE
  5
84
330
82
100
AcDbEntity
  8
BEMASSUNG
440
 16777216
370
    -2
100
AcDbLine
 10
-1019.275679679702
 20
2458.720935955309
 30
0.0
 11
-997.9479958911767
 21
2458.720935955309
 31
0.0
  0
LINE
  5
85
330
82
100
AcDbEntity
  8
BEMASSUNG
440
 16777216
370
    -2
100
AcDbLine
 10
-1017.275679679702
 20
2437.720935955308
 30
0.0
 11
-997.9479958911767
 21
2437.720935955308
 31
0.0
  0
LINE
  5
86
330
82
100
AcDbEntity
  8
BEMASSUNG
440
 16777216
370
    -2
100
AcDbLine
 10
-999.6479958911768
 20
2451.920935955309
 30
0.0
 11
-999.6479958911768
 21
2444.520935955308
 31
0.0
  0
SOLID
  5
87
330
82
100
AcDbEntity
  8
BEMASSUNG
440
 16777216
100
AcDbTrace
 10
-1000.78132922451
 20
2451.920935955309
 30
0.0
 11
-998.5146625578435
 21
2451.920935955309
 31
0.0
 12
-999.6479958911768
 22
2458.720935955309
 32
0.0
 13
-999.6479958911768
 23
2458.720935955309
 33
0.0
  0
SOLID
  5
88
330
82
100
AcDbEntity
  8
BEMASSUNG
440
 16777216
100
AcDbTrace
 10
-1000.78132922451
 20
2444.520935955308
 30
0.0
 11
-998.5146625578435
 21
2444.520935955308
 31
0.0
 12
-999.6479958911768
 22
2437.720935955308
 32
0.0
 13
-999.6479958911768
 23
2437.720935955308
 33
0.0
  0
MTEXT
  5
89
330
82
100
AcDbEntity
  8
BEMASSUNG
 62
     3
440
 16777216
100
AcDbMText
 10
-1005.060628906184
 20
2448.220935955308
 30
0.0
 40
7.394999999999999
 41
0.0
 46
0.0
 71
     5
 72
     1
  1
\A1;21
  7
ARIAL-STANDARD
 11
0.0000000000000001
 21
1.0
 31
0.0
 73
     1
 44
1.0
  0
POINT
  5
8A
330
82
100
AcDbEntity
  8
DEFPOINTS
 62
     0
440
 16777216
100
AcDbPoint
 10
-1019.275679679702
 20
2458.720935955309
 30
0.0
  0
POINT
  5
8B
330
82
100
AcDbEntity
  8
DEFPOINTS
 62
     0
440
 16777216
100
AcDbPoint
 10
-1017.275679679702
 20
2437.720935955308
 30
0.0
  0
POINT
  5
8C
330
82
100
AcDbEntity
  8
DEFPOINTS
 62
     0
440
 16777216
100
AcDbPoint
 10
-999.6479958911768
 20
2437.720935955308
 30
0.0
  0
ENDBLK
  5
8D
330
82
100
AcDbEntity
  8
0
100
AcDbBlockEnd
  0
BLOCK
  5
73
330
72
100
AcDbEntity
  8
0
100
AcDbBlockBegin
  2
*D24
 70
     1
 10
0.0
 20
0.0
 30
0.0
  3
*D24
  1

  0
LINE
  5
74
330
72
100
AcDbEntity
  8
BEMASSUNG
440
 16777216
370
    -2
100
AcDbLine
 10
-1017.275679679702
 20
2456.720935955309
 30
0.0
 11
-1017.275679679702
 21
2475.167455396994
 31
0.0
  0
LINE
  5
75
330
72
100
AcDbEntity
  8
BEMASSUNG
440
 16777216
370
    -2
100
AcDbLine
 10
-1039.2756796797
 20
2458.720935955309
 30
0.0
 11
-1039.2756796797
 21
2475.167455396994
 31
0.0
  0
LINE
  5
76
330
72
100
AcDbEntity
  8
BEMASSUNG
440
 16777216
370
    -2
100
AcDbLine
 10
-1024.075679679702
 20
2473.467455396995
 30
0.0
 11
-1032.4756796797
 21
2473.467455396995
 31
0.0
  0
SOLID
  5
77
330
72
100
AcDbEntity
  8
BEMASSUNG
440
 16777216
100
AcDbTrace
 10
-1024.075679679702
 20
2474.600788730328
 30
0.0
 11
-1024.075679679702
 21
2472.334122063661
 31
0.0
 12
-1017.275679679702
 22
2473.467455396995
 32
0.0
 13
-1017.275679679702
 23
2473.467455396995
 33
0.0
  0
SOLID
  5
78
330
72
100
AcDbEntity
  8
BEMASSUNG
440
 16777216
100
AcDbTrace
 10
-1032.4756796797
 20
2474.600788730328
 30
0.0
 11
-1032.4756796797
 21
2472.334122063661
 31
0.0
 12
-1039.2756796797
 22
2473.467455396995
 32
0.0
 13
-1039.2756796797
 23
2473.467455396995
 33
0.0
  0
MTEXT
  5
79
330
72
100
AcDbEntity
  8
BEMASSUNG
 62
     3
440
 16777216
100
AcDbMText
 10
-1028.275679679701
 20
2478.880088412001
 30
0.0
 40
7.394999999999999
 41
0.0
 46
0.0
 71
     5
 72
     1
  1
\A1;22
  7
ARIAL-STANDARD
 73
     1
 44
1.0
  0
POINT
  5
7A
330
72
100
AcDbEntity
  8
DEFPOINTS
 62
     0
440
 16777216
100
AcDbPoint
 10
-1017.275679679702
 20
2456.720935955309
 30
0.0
  0
POINT
  5
7C
330
72
100
AcDbEntity
  8
DEFPOINTS
 62
     0
440
 16777216
100
AcDbPoint
 10
-1039.2756796797
 20
2458.720935955309
 30
0.0
  0
POINT
  5
7D
330
72
100
AcDbEntity
  8
DEFPOINTS
 62
     0
440
 16777216
100
AcDbPoint
 10
-1039.2756796797
 20
2473.467455396995
 30
0.0
  0
ENDBLK
  5
7E
330
72
100
AcDbEntity
  8
0
100
AcDbBlockEnd
  0
ENDSEC
  0
SECTION
  2
ENTITIES
  0
LINE
  5
69
330
2
100
AcDbEntity
  8
UMRISS05
100
AcDbLine
 10
-1035.275679679686
 20
2456.670935955308
 30
0.0
 11
-1035.275679679686
 21
2455.470935955458
 31
0.0
  0
LINE
  5
6A
330
2
100
AcDbEntity
  8
UMRISS05
100
AcDbLine
 10
-1035.275679679685
 20
2439.320935955308
 30
0.0
 11
-1035.275679679685
 21
2439.970935955458
 31
0.0
  0
LINE
  5
6B
330
2
100
AcDbEntity
  8
UMRISS05
100
AcDbLine
 10
-1035.275679679685
 20
2439.320935955308
 30
0.0
 11
-1019.275679679684
 21
2439.320935955308
 31
0.0
  0
LINE
  5
6C
330
2
100
AcDbEntity
  8
UMRISS05
100
AcDbLine
 10
-1023.775679679685
 20
2456.720935955309
 30
0.0
 11
-1023.775679679685
 21
2455.470935955318
 31
0.0
  0
LINE
  5
6D
330
2
100
AcDbEntity
  8
UMRISS05
100
AcDbLine
 10
-1019.275679679683
 20
2455.470935955318
 30
0.0
 11
-1023.775679679683
 21
2455.470935955318
 31
0.0
  0
DIMENSION
  5
6E
330
2
100
AcDbEntity
  8
BEMASSUNG
100
AcDbDimension
280
     0
  2
*D24
 10
-1039.2756796797
 20
2473.467455396995
 30
0.0
 11
-1028.275679679701
 21
2478.880088412001
 31
0.0
 71
     5
 42
21.99999999999875
 73
     0
 74
     0
 75
     0
  3
Katalog 09$0
100
AcDbAlignedDimension
 13
-1017.275679679702
 23
2456.720935955309
 33
0.0
 14
-1039.2756796797
 24
2458.720935955309
 34
0.0
100
AcDbRotatedDimension
1001
ACAD_DSTYLE_DIMINSPECT
1070
   396
1000
100%
1070
   395
1000

1070
   394
1070
    33
1070
   393
1070
     0
  0
DIMENSION
  5
81
330
2
100
AcDbEntity
  8
BEMASSUNG
100
AcDbDimension
280
     0
  2
*D23
 10
-999.6479958911768
 20
2437.720935955308
 30
0.0
 11
-1005.060628906184
 21
2448.220935955308
 31
0.0
 71
     5
 42
21.00000000000091
 73
     0
 74
     0
 75
     0
  3
Katalog 09$0
100
AcDbAlignedDimension
 13
-1019.275679679702
 23
2458.720935955309
 33
0.0
 14
-1017.275679679702
 24
2437.720935955308
 34
0.0
 50
90.0
100
AcDbRotatedDimension
1001
ACAD_DSTYLE_DIMINSPECT
1070
   396
1000
100%
1070
   395
1000

1070
   394
1070
    33
1070
   393
1070
     0
  0
MTEXT
  5
8E
330
2
100
AcDbEntity
  8
UMRISS05
 62
     3
100
AcDbMText
 10
-1172.307228557638
 20
2954.526494753821
 30
0.0
 40
10.0
 41
0.0
 46
0.0
 71
     5
 72
     1
  1
\A1;FlipLock\PGegenkasten Holz\Pmit Winkelstulp\PDM60-100
  7
ARIAL-STANDARD
 73
     1
 44
1.0
  0
LINE
  5
8F
330
2
100
AcDbEntity
  8
Mittellinie(MSL)
  6
CHAIN
 48
23.99096870422363
100
AcDbLine
 10
-1037.775679679707
 20
2767.592342684271
 30
0.0
 11
-1010.857124817385
 21
2767.592342684271
 31
0.0
  0
LINE
  5
92
330
2
100
AcDbEntity
  8
UMRISS05
100
AcDbLine
 10
-1034.275679679707
 20
2750.092342684271
 30
0.0
 11
-1034.775679679707
 21
2750.092342684271
 31
0.0
  0
LINE
  5
93
330
2
100
AcDbEntity
  8
UMRISS05
100
AcDbLine
 10
-1034.275679679707
 20
2754.092342684271
 30
0.0
 11
-1034.775679679707
 21
2754.092342684271
 31
0.0
  0
LINE
  5
94
330
2
100
AcDbEntity
  8
UMRISS05
100
AcDbLine
 10
-1034.275679679707
 20
2781.092342684271
 30
0.0
 11
-1034.775679679707
 21
2781.092342684271
 31
0.0
  0
LINE
  5
95
330
2
100
AcDbEntity
  8
UMRISS05
100
AcDbLine
 10
-1034.275679679707
 20
2785.092342684271
 30
0.0
 11
-1034.775679679707
 21
2785.092342684271
 31
0.0
  0
LINE
  5
96
330
2
100
AcDbEntity
  8
UMRISS05
100
AcDbLine
 10
-1030.575679679706
 20
2790.542342684271
 30
0.0
 11
-1017.875679679708
 21
2790.542342684271
 31
0.0
  0
LINE
  5
97
330
2
100
AcDbEntity
  8
UMRISS05
100
AcDbLine
 10
-1030.575679679706
 20
2744.642342684271
 30
0.0
 11
-1017.875679679708
 21
2744.642342684271
 31
0.0
  0
LINE
  5
98
330
2
100
AcDbEntity
  8
UMRISS05
100
AcDbLine
 10
-1030.575679679706
 20
2790.542342684271
 30
0.0
 11
-1030.709654275923
 21
2790.542342684271
 31
0.0
  0
LINE
  5
99
330
2
100
AcDbEntity
  8
UMRISS05
100
AcDbLine
 10
-1030.575679679706
 20
2744.642342684271
 30
0.0
 11
-1030.709654275923
 21
2744.642342684271
 31
0.0
  0
LINE
  5
9A
330
2
100
AcDbEntity
  8
UMRISS05
100
AcDbLine
 10
-1016.375679679708
 20
2790.542342684271
 30
0.0
 11
-1017.875679679708
 21
2790.542342684271
 31
0.0
  0
LINE
  5
9B
330
2
100
AcDbEntity
  8
UMRISS05
100
AcDbLine
 10
-1017.875679679708
 20
2744.642342684271
 30
0.0
 11
-1016.375679679708
 21
2744.642342684271
 31
0.0
  0
LINE
  5
9C
330
2
100
AcDbEntity
  8
UMRISS05
100
AcDbLine
 10
-1016.375679679708
 20
2790.542342684271
 30
0.0
 11
-1016.375679679708
 21
2744.642342684271
 31
0.0
  0
LINE
  5
9D
330
2
100
AcDbEntity
  8
UMRISS05
100
AcDbLine
 10
-1030.575679679706
 20
2790.542342684271
 30
0.0
 11
-1030.575679679706
 21
2744.642342684271
 31
0.0
  0
LINE
  5
9E
330
2
100
AcDbEntity
  8
UMRISS05
100
AcDbLine
 10
-1030.709654275923
 20
2743.992342684271
 30
0.0
 11
-1030.709654275923
 21
2791.192342684271
 31
0.0
  0
LINE
  5
9F
330
2
100
AcDbEntity
  8
UMRISS05
100
AcDbLine
 10
-1031.199286477458
 20
2743.992342684271
 30
0.0
 11
-1031.199286477458
 21
2791.192342684271
 31
0.0
  0
LINE
  5
A0
330
2
100
AcDbEntity
  8
UMRISS05
100
AcDbLine
 10
-1034.275679679707
 20
2797.092342684271
 30
0.0
 11
-1034.275679679707
 21
2798.592342684271
 31
0.0
  0
LINE
  5
A1
330
2
100
AcDbEntity
  8
UMRISS05
100
AcDbLine
 10
-1034.275679679707
 20
2798.592342684271
 30
0.0
 11
-1023.775679679707
 21
2798.592342684271
 31
0.0
  0
LINE
  5
A2
330
2
100
AcDbEntity
  8
UMRISS05
100
AcDbLine
 10
-1034.275679679707
 20
2736.592342684271
 30
0.0
 11
-1034.275679679707
 21
2738.092342684271
 31
0.0
  0
LINE
  5
A3
330
2
100
AcDbEntity
  8
UMRISS05
100
AcDbLine
 10
-1034.275679679707
 20
2797.092342684271
 30
0.0
 11
-1034.275679679707
 21
2738.092342684271
 31
0.0
  0
LINE
  5
A4
330
2
100
AcDbEntity
  8
UMRISS05
100
AcDbLine
 10
-1034.275679679707
 20
2736.592342684271
 30
0.0
 11
-1023.775679679707
 21
2736.592342684271
 31
0.0
  0
LINE
  5
A5
330
2
100
AcDbEntity
  8
UMRISS05
100
AcDbLine
 10
-1031.499286477457
 20
2743.992342684271
 30
0.0
 11
-1023.775679679707
 21
2743.992342684271
 31
0.0
  0
LINE
  5
A6
330
2
100
AcDbEntity
  8
UMRISS05
100
AcDbLine
 10
-1031.499286477457
 20
2791.192342684271
 30
0.0
 11
-1023.775679679707
 21
2791.192342684271
 31
0.0
  0
ELLIPSE
  5
A7
330
2
100
AcDbEntity
  8
UMRISS05
100
AcDbEllipse
 10
-1032.661320325762
 20
2789.692342684271
 30
0.0
 11
2.598076211320059
 21
0.0000000000714334
 31
0.0
210
0.0
220
0.0
230
-1.0
 40
0.5773502691857005
 41
-0.7209232788817111
 42
-0.6024546333507744
  0
ELLIPSE
  5
A8
330
2
100
AcDbEntity
  8
UMRISS05
100
AcDbEllipse
 10
-1032.661320325762
 20
2745.492342684271
 30
0.0
 11
-2.59807621132004
 21
0.0000000000714738
 31
0.0
210
0.0
220
0.0
230
-1.0
 40
0.5773502691856982
 41
3.744047286940547
 42
3.862515932471486
  0
LINE
  5
A9
330
2
100
AcDbEntity
  8
UMRISS05
100
AcDbLine
 10
-1023.775679679707
 20
2743.992342684271
 30
0.0
 11
-1023.775679679707
 21
2738.092342684271
 31
0.0
  0
LINE
  5
AA
330
2
100
AcDbEntity
  8
UMRISS05
100
AcDbLine
 10
-1023.775679679707
 20
2736.592342684271
 30
0.0
 11
-1023.775679679707
 21
2738.092342684271
 31
0.0
  0
LINE
  5
AB
330
2
100
AcDbEntity
  8
UMRISS05
100
AcDbLine
 10
-1023.775679679707
 20
2736.592342684271
 30
0.0
 11
-1019.275679679707
 21
2736.592342684271
 31
0.0
  0
LINE
  5
AC
330
2
100
AcDbEntity
  8
UMRISS05
100
AcDbLine
 10
-1018.275679679707
 20
2743.992342684271
 30
0.0
 11
-1023.775679679707
 21
2743.992342684271
 31
0.0
  0
LINE
  5
AD
330
2
100
AcDbEntity
  8
UMRISS05
100
AcDbLine
 10
-1019.275679679707
 20
2798.592342684271
 30
0.0
 11
-1023.775679679707
 21
2798.592342684271
 31
0.0
  0
LINE
  5
AE
330
2
100
AcDbEntity
  8
UMRISS05
100
AcDbLine
 10
-1023.775679679707
 20
2797.092342684271
 30
0.0
 11
-1023.775679679707
 21
2798.592342684271
 31
0.0
  0
LINE
  5
AF
330
2
100
AcDbEntity
  8
UMRISS05
100
AcDbLine
 10
-1023.775679679707
 20
2797.092342684271
 30
0.0
 11
-1023.775679679707
 21
2791.192342684271
 31
0.0
  0
LINE
  5
B0
330
2
100
AcDbEntity
  8
UMRISS05
100
AcDbLine
 10
-1023.775679679707
 20
2791.192342684271
 30
0.0
 11
-1018.275679679707
 21
2791.192342684272
 31
0.0
  0
LINE
  5
B1
330
2
100
AcDbEntity
  8
UMRISS05
100
AcDbLine
 10
-1018.275679679707
 20
2791.192342684272
 30
0.0
 11
-1018.275679679707
 21
2792.088215043324
 31
0.0
  0
LINE
  5
B2
330
2
100
AcDbEntity
  8
UMRISS05
100
AcDbLine
 10
-1018.275679679707
 20
2743.096470325219
 30
0.0
 11
-1018.275679679707
 21
2743.992342684271
 31
0.0
  0
ARC
  5
B3
330
2
100
AcDbEntity
  8
UMRISS05
100
AcDbCircle
 10
-1046.275679679704
 20
2727.592342684274
 30
0.0
 40
15.4999999999955
100
AcDbArc
 50
33.25643128597234
 51
35.49593265022104
  0
ARC
  5
B4
330
2
100
AcDbEntity
  8
UMRISS05
100
AcDbCircle
 10
-1046.275679679707
 20
2727.592342684272
 30
0.0
 40
15.49999999999941
100
AcDbArc
 50
39.26802600173468
 51
42.10344887072793
  0
ARC
  5
B5
330
2
100
AcDbEntity
  8
UMRISS05
100
AcDbCircle
 10
-1036.575679679707
 20
2777.29024695414
 30
0.0
 40
1.999999999999898
100
AcDbArc
 50
334.1580672368719
 51
0.0
  0
LINE
  5
B6
330
2
100
AcDbEntity
  8
UMRISS05
100
AcDbLine
 10
-1034.575679679707
 20
2777.29024695414
 30
0.0
 11
-1034.575679679707
 21
2779.133392704647
 31
0.0
  0
ARC
  5
B7
330
2
100
AcDbEntity
  8
UMRISS05
100
AcDbCircle
 10
-1036.575679679707
 20
2779.133392704647
 30
0.0
 40
2.000000000000045
100
AcDbArc
 50
0.0
 51
25.84193276312814
  0
ARC
  5
B8
330
2
100
AcDbEntity
  8
UMRISS05
100
AcDbCircle
 10
-1036.575679679707
 20
2777.240246954139
 30
0.0
 40
1.999999999999973
100
AcDbArc
 50
334.1580672368195
 51
0.0
  0
LINE
  5
B9
330
2
100
AcDbEntity
  8
UMRISS05
100
AcDbLine
 10
-1034.575679679707
 20
2777.240246954139
 30
0.0
 11
-1034.575679679707
 21
2777.29024695414
 31
0.0
  0
LINE
  5
BA
330
2
100
AcDbEntity
  8
UMRISS05
100
AcDbLine
 10
-1016.275679679707
 20
2789.178129121899
 30
0.0
 11
-1016.275679679707
 21
2791.506556246644
 31
0.0
  0
LINE
  5
BB
330
2
100
AcDbEntity
  8
UMRISS05
100
AcDbLine
 10
-1016.275679679707
 20
2748.592342684271
 30
0.0
 11
-1016.275679679707
 21
2786.592342684271
 31
0.0
  0
LINE
  5
BC
330
2
100
AcDbEntity
  8
UMRISS05
100
AcDbLine
 10
-1016.275679679707
 20
2743.678129121898
 30
0.0
 11
-1016.275679679707
 21
2746.006556246645
 31
0.0
  0
LINE
  5
BD
330
2
100
AcDbEntity
  8
UMRISS05
100
AcDbLine
 10
-1018.275679679707
 20
2744.642342684271
 30
0.0
 11
-1018.275679679707
 21
2743.992342684271
 31
0.0
  0
LINE
  5
BE
330
2
100
AcDbEntity
  8
UMRISS05
100
AcDbLine
 10
-1018.275679679707
 20
2791.192342684272
 30
0.0
 11
-1018.275679679707
 21
2790.542342684272
 31
0.0
  0
LINE
  5
BF
330
2
100
AcDbEntity
  8
UMRISS05
100
AcDbLine
 10
-1016.275679679707
 20
2788.592342684271
 30
0.0
 11
-1016.375679679708
 21
2788.592342684271
 31
0.0
  0
LINE
  5
C0
330
2
100
AcDbEntity
  8
UMRISS05
100
AcDbLine
 10
-1016.375679679708
 20
2746.592342684271
 30
0.0
 11
-1016.275679679707
 21
2746.592342684271
 31
0.0
  0
LINE
  5
C1
330
2
100
AcDbEntity
  8
UMRISS05
100
AcDbLine
 10
-1016.275679679707
 20
2792.092342684271
 30
0.0
 11
-1016.275679679707
 21
2791.506556246644
 31
0.0
  0
LINE
  5
C2
330
2
100
AcDbEntity
  8
UMRISS05
100
AcDbLine
 10
-1016.275679679707
 20
2788.592342684271
 30
0.0
 11
-1016.275679679707
 21
2789.178129121899
 31
0.0
  0
LINE
  5
C3
330
2
100
AcDbEntity
  8
UMRISS05
100
AcDbLine
 10
-1016.275679679707
 20
2788.592342684271
 30
0.0
 11
-1016.275679679707
 21
2786.592342684271
 31
0.0
  0
LINE
  5
C4
330
2
100
AcDbEntity
  8
UMRISS05
100
AcDbLine
 10
-1016.275679679707
 20
2748.592342684271
 30
0.0
 11
-1016.275679679707
 21
2746.592342684271
 31
0.0
  0
LINE
  5
C5
330
2
100
AcDbEntity
  8
UMRISS05
100
AcDbLine
 10
-1016.275679679707
 20
2746.006556246645
 30
0.0
 11
-1016.275679679707
 21
2746.592342684271
 31
0.0
  0
LINE
  5
C6
330
2
100
AcDbEntity
  8
UMRISS05
100
AcDbLine
 10
-1016.275679679707
 20
2743.678129121898
 30
0.0
 11
-1016.275679679707
 21
2743.092342684271
 31
0.0
  0
LINE
  5
C7
330
2
100
AcDbEntity
  8
UMRISS05
100
AcDbLine
 10
-1018.275679679707
 20
2743.092342684271
 30
0.0
 11
-1016.275679679707
 21
2743.092342684271
 31
0.0
  0
LINE
  5
C8
330
2
100
AcDbEntity
  8
UMRISS05
100
AcDbLine
 10
-1016.275679679707
 20
2742.592342684271
 30
0.0
 11
-1016.275679679707
 21
2743.092342684271
 31
0.0
  0
LINE
  5
C9
330
2
100
AcDbEntity
  8
UMRISS05
100
AcDbLine
 10
-1018.275679679707
 20
2743.092342684271
 30
0.0
 11
-1018.275679679707
 21
2742.592342684271
 31
0.0
  0
LINE
  5
CA
330
2
100
AcDbEntity
  8
UMRISS05
100
AcDbLine
 10
-1018.275679679707
 20
2743.092342684271
 30
0.0
 11
-1018.275679679707
 21
2743.096470325219
 31
0.0
  0
LINE
  5
CB
330
2
100
AcDbEntity
  8
UMRISS05
100
AcDbLine
 10
-1018.275679679707
 20
2792.088215043324
 30
0.0
 11
-1018.275679679707
 21
2792.092342684272
 31
0.0
  0
LINE
  5
CC
330
2
100
AcDbEntity
  8
UMRISS05
100
AcDbLine
 10
-1016.275679679707
 20
2792.092342684271
 30
0.0
 11
-1018.275679679707
 21
2792.092342684272
 31
0.0
  0
LINE
  5
CD
330
2
100
AcDbEntity
  8
UMRISS05
100
AcDbLine
 10
-1016.275679679707
 20
2792.092342684271
 30
0.0
 11
-1016.275679679707
 21
2792.592342684271
 31
0.0
  0
LINE
  5
CE
330
2
100
AcDbEntity
  8
UMRISS05
100
AcDbLine
 10
-1018.275679679707
 20
2792.592342684272
 30
0.0
 11
-1018.275679679707
 21
2792.092342684272
 31
0.0
  0
LINE
  5
CF
330
2
100
AcDbEntity
  8
UMRISS05
100
AcDbLine
 10
-1034.775679679707
 20
2736.092342684271
 30
0.0
 11
-1019.275679679707
 21
2736.092342684271
 31
0.0
  0
LINE
  5
D0
330
2
100
AcDbEntity
  8
UMRISS05
100
AcDbLine
 10
-1019.275679679707
 20
2799.092342684271
 30
0.0
 11
-1034.775679679707
 21
2799.092342684271
 31
0.0
  0
LINE
  5
D1
330
2
100
AcDbEntity
  8
UMRISS05
100
AcDbLine
 10
-1034.775679679707
 20
2799.092342684271
 30
0.0
 11
-1034.775679679707
 21
2736.092342684271
 31
0.0
  0
ARC
  5
D2
330
2
100
AcDbEntity
  8
UMRISS05
100
AcDbCircle
 10
-1034.275679679707
 20
2798.592342684271
 30
0.0
 40
0.4999999999999961
100
AcDbArc
 50
90.0
 51
180.0
  0
DIMENSION
  5
D3
330
2
100
AcDbEntity
  8
BEMASSUNG
100
AcDbDimension
280
     0
  2
*D22
 10
-1106.865602305802
 20
2439.970935955458
 30
0.0
 11
-1112.341289550004
 21
2447.720935955458
 31
0.0
 71
     5
 42
15.5
 73
     0
 74
     0
 75
     0
  3
Katalog 09
100
AcDbAlignedDimension
 13
-1091.775679679708
 23
2455.470935955458
 33
0.0
 14
-1091.775679679708
 24
2439.970935955458
 34
0.0
 50
90.0
100
AcDbRotatedDimension
1001
ACAD_DSTYLE_DIMINSPECT
1070
   396
1000
100%
1070
   395
1000

1070
   394
1070
    33
1070
   393
1070
     0
  0
LINE
  5
E2
330
2
100
AcDbEntity
  8
Mittelpunktmarkierung(MSL)
  6
CHAIN
 48
10.31825447082519
100
AcDbLine
 10
-1051.275679679707
 20
2441.070935955448
 30
0.0
 11
-1051.275679679707
 21
2454.370935955449
 31
0.0
  0
LINE
  5
E4
330
2
100
AcDbEntity
  8
UMRISS05
100
AcDbLine
 10
-1056.275679679706
 20
2442.720935955447
 30
0.0
 11
-1046.275679679707
 21
2442.720935955447
 31
0.0
  0
LINE
  5
E5
330
2
100
AcDbEntity
  8
UMRISS05
100
AcDbLine
 10
-1056.275679679706
 20
2442.720935955447
 30
0.0
 11
-1056.275679679706
 21
2452.720935955448
 31
0.0
  0
LINE
  5
E6
330
2
100
AcDbEntity
  8
UMRISS05
100
AcDbLine
 10
-1056.275679679706
 20
2452.720935955448
 30
0.0
 11
-1046.275679679707
 21
2452.720935955448
 31
0.0
  0
LINE
  5
E7
330
2
100
AcDbEntity
  8
UMRISS05
100
AcDbLine
 10
-1046.275679679707
 20
2442.720935955447
 30
0.0
 11
-1046.275679679707
 21
2452.720935955448
 31
0.0
  0
CIRCLE
  5
E8
330
2
100
AcDbEntity
  8
UMRISS05
100
AcDbCircle
 10
-1051.275679679707
 20
2447.720935955449
 30
0.0
 40
4.638500000000003
  0
CIRCLE
  5
E9
330
2
100
AcDbEntity
  8
UMRISS05
100
AcDbCircle
 10
-1051.275679679707
 20
2447.720935955449
 30
0.0
 40
2.458500000000002
  0
LINE
  5
EA
330
2
100
AcDbEntity
  8
UMRISS05
100
AcDbLine
 10
-1045.275679679707
 20
2449.220935955452
 30
0.0
 11
-1040.275679679707
 21
2449.220935955453
 31
0.0
  0
LINE
  5
EB
330
2
100
AcDbEntity
  8
UMRISS05
100
AcDbLine
 10
-1040.275679679707
 20
2449.220935955453
 30
0.0
 11
-1040.275679679707
 21
2446.220935955453
 31
0.0
  0
LINE
  5
EC
330
2
100
AcDbEntity
  8
UMRISS05
100
AcDbLine
 10
-1056.275679679706
 20
2449.220935955452
 30
0.0
 11
-1057.275679679707
 21
2449.220935955452
 31
0.0
  0
LINE
  5
ED
330
2
100
AcDbEntity
  8
UMRISS05
100
AcDbLine
 10
-1045.275679679707
 20
2449.220935955452
 30
0.0
 11
-1046.275679679707
 21
2449.220935955452
 31
0.0
  0
LINE
  5
EE
330
2
100
AcDbEntity
  8
UMRISS05
100
AcDbLine
 10
-1062.275679679707
 20
2449.220935955453
 30
0.0
 11
-1057.275679679707
 21
2449.220935955452
 31
0.0
  0
LINE
  5
EF
330
2
100
AcDbEntity
  8
UMRISS05
100
AcDbLine
 10
-1062.275679679707
 20
2449.220935955453
 30
0.0
 11
-1062.275679679707
 21
2446.220935955453
 31
0.0
  0
LINE
  5
F0
330
2
100
AcDbEntity
  8
UMRISS05
100
AcDbLine
 10
-1057.275679679707
 20
2446.220935955452
 30
0.0
 11
-1062.275679679707
 21
2446.220935955453
 31
0.0
  0
LINE
  5
F1
330
2
100
AcDbEntity
  8
UMRISS05
100
AcDbLine
 10
-1046.275679679707
 20
2446.220935955452
 30
0.0
 11
-1045.275679679707
 21
2446.220935955452
 31
0.0
  0
LINE
  5
F2
330
2
100
AcDbEntity
  8
UMRISS05
100
AcDbLine
 10
-1057.275679679707
 20
2446.220935955452
 30
0.0
 11
-1056.275679679706
 21
2446.220935955452
 31
0.0
  0
LINE
  5
F3
330
2
100
AcDbEntity
  8
UMRISS05
100
AcDbLine
 10
-1040.275679679707
 20
2446.220935955453
 30
0.0
 11
-1045.275679679707
 21
2446.220935955452
 31
0.0
  0
LINE
  5
F4
330
2
100
AcDbEntity
  8
UMRISS05
100
AcDbLine
 10
-1091.775679679706
 20
2439.970935955458
 30
0.0
 11
-1091.775679679708
 21
2455.470935955458
 31
0.0
  0
LINE
  5
F5
330
2
100
AcDbEntity
  8
UMRISS05
100
AcDbLine
 10
-1091.775679679708
 20
2455.470935955458
 30
0.0
 11
-1019.275679679706
 21
2455.470935955458
 31
0.0
  0
LINE
  5
F6
330
2
100
AcDbEntity
  8
UMRISS05
100
AcDbLine
 10
-1091.775679679708
 20
2453.970935955458
 30
0.0
 11
-1019.275679679707
 21
2453.970935955458
 31
0.0
  0
LINE
  5
F7
330
2
100
AcDbEntity
  8
UMRISS05
100
AcDbLine
 10
-1019.275679679706
 20
2439.970935955458
 30
0.0
 11
-1091.775679679708
 21
2439.970935955458
 31
0.0
  0
LINE
  5
F8
330
2
100
AcDbEntity
  8
ACHSEN
 48
0.8
100
AcDbLine
 10
-1094.559965831658
 20
2447.720935955459
 30
0.0
 11
-1016.156612262389
 21
2447.720935955459
 31
0.0
  0
LINE
  5
FD
330
2
100
AcDbEntity
  8
UMRISS05
100
AcDbLine
 10
-1019.275679679706
 20
2439.970935955458
 30
0.0
 11
-1019.275679679706
 21
2455.470935955458
 31
0.0
  0
ARC
  5
FE
330
2
100
AcDbEntity
  8
UMRISS05
100
AcDbCircle
 10
-1028.275679679707
 20
2555.592342684271
 30
0.0
 40
10.0
100
AcDbArc
 50
180.0
 51
270.0
1001
GENIUS_GENODEF_13
1002
{
1000
HIER
1070
     0
1002
}
1002
{
1000
MANEDIT
1070
     0
1002
}
1002
{
1000
NOSEL
1070
     0
1002
}
1002
{
1000
BEHIND
1070
     0
1002
}
1002
{
1000
OTHER
1070
     0
1002
}
1002
{
1000
REACTOR
1002
}
1001
GENIUS_GENOBJ-N-FIL_13
1002
{
1000
OWNER
1000
GEN
1002
}
  0
LINE
  5
101
330
2
100
AcDbEntity
  8
UMRISS05
100
AcDbLine
 10
-1038.275679679707
 20
2805.592342684271
 30
0.0
 11
-1038.275679679707
 21
2855.592342684271
 31
0.0
  0
LINE
  5
102
330
2
100
AcDbEntity
  8
UMRISS05
100
AcDbLine
 10
-1038.275679679707
 20
2555.592342684271
 30
0.0
 11
-1038.275679679707
 21
2605.592342684271
 31
0.0
  0
LINE
  5
103
330
2
100
AcDbEntity
  8
UMRISS05
100
AcDbLine
 10
-1019.275679679706
 20
2605.592342684271
 30
0.0
 11
-1018.275679679707
 21
2605.592342684271
 31
0.0
  0
LINE
  5
104
330
2
100
AcDbEntity
  8
UMRISS05
100
AcDbLine
 10
-1019.275679679707
 20
2643.092342684271
 30
0.0
 11
-1018.275679679707
 21
2643.092342684271
 31
0.0
  0
LINE
  5
105
330
2
100
AcDbEntity
  8
UMRISS05
100
AcDbLine
 10
-1019.275679679707
 20
2692.092342684271
 30
0.0
 11
-1018.275679679707
 21
2692.092342684271
 31
0.0
  0
LINE
  5
106
330
2
100
AcDbEntity
  8
UMRISS05
100
AcDbLine
 10
-1019.275679679709
 20
2736.092342684271
 30
0.0
 11
-1018.275679679707
 21
2736.092342684271
 31
0.0
  0
LINE
  5
107
330
2
100
AcDbEntity
  8
UMRISS05
100
AcDbLine
 10
-1019.275679679707
 20
2799.092342684271
 30
0.0
 11
-1018.275679679707
 21
2799.092342684271
 31
0.0
  0
LINE
  5
108
330
2
100
AcDbEntity
  8
UMRISS05
100
AcDbLine
 10
-1019.275679679707
 20
2805.592342684271
 30
0.0
 11
-1018.275679679707
 21
2805.592342684271
 31
0.0
  0
LINE
  5
109
330
2
100
AcDbEntity
  8
UMRISS05
100
AcDbLine
 10
-1016.275679679707
 20
2545.592342684271
 30
0.0
 11
-1028.275679679707
 21
2545.592342684271
 31
0.0
  0
ARC
  5
10A
330
2
100
AcDbEntity
  8
UMRISS05
100
AcDbCircle
 10
-1028.275679679707
 20
2855.592342684271
 30
0.0
 40
10.0
100
AcDbArc
 50
90.0
 51
180.0
1001
GENIUS_GENODEF_13
1002
{
1000
HIER
1070
     0
1002
}
1002
{
1000
MANEDIT
1070
     0
1002
}
1002
{
1000
NOSEL
1070
     0
1002
}
1002
{
1000
BEHIND
1070
     0
1002
}
1002
{
1000
OTHER
1070
     0
1002
}
1002
{
1000
REACTOR
1002
}
1001
GENIUS_GENOBJ-N-FIL_13
1002
{
1000
OWNER
1000
GEN
1002
}
  0
LINE
  5
10B
330
2
100
AcDbEntity
  8
UMRISS05
100
AcDbLine
 10
-1028.275679679707
 20
2865.592342684271
 30
0.0
 11
-1016.275679679707
 21
2865.592342684271
 31
0.0
  0
LINE
  5
10C
330
2
100
AcDbEntity
  8
ACHSEN
 48
0.8
100
AcDbLine
 10
-1010.522178997792
 20
2853.592342684271
 30
0.0
 11
-1026.022178997792
 21
2853.592342684271
 31
0.0
  0
LINE
  5
10D
330
2
100
AcDbEntity
  8
ACHSEN
 48
0.8
100
AcDbLine
 10
-1010.522178997791
 20
2557.592342684271
 30
0.0
 11
-1026.022178997791
 21
2557.592342684271
 31
0.0
  0
LINE
  5
10E
330
2
100
AcDbEntity
  8
UMRISS05
100
AcDbLine
 10
-1016.275679679707
 20
2545.592342684271
 30
0.0
 11
-1016.275679679707
 21
2865.592342684271
 31
0.0
  0
LINE
  5
10F
330
2
100
AcDbEntity
  8
UMRISS05
100
AcDbLine
 10
-1018.275679679707
 20
2790.542342684271
 30
0.0
 11
-1018.275679679707
 21
2865.592342684271
 31
0.0
  0
LINE
  5
110
330
2
100
AcDbEntity
  8
UMRISS05
100
AcDbLine
 10
-1018.275679679707
 20
2545.592342684271
 30
0.0
 11
-1018.275679679707
 21
2744.642342684271
 31
0.0
  0
LINE
  5
111
330
2
100
AcDbEntity
  8
UMRISS05
100
AcDbLine
 10
-1071.275679679707
 20
2802.592342684271
 30
0.0
 11
-1071.275679679707
 21
2805.592342684271
 31
0.0
  0
LINE
  5
112
330
2
100
AcDbEntity
  8
UMRISS05
100
AcDbLine
 10
-1081.275679679707
 20
2805.592342684271
 30
0.0
 11
-1081.275679679707
 21
2802.592342684271
 31
0.0
  0
ARC
  5
113
330
2
100
AcDbEntity
  8
UMRISS05
100
AcDbCircle
 10
-1076.275679679707
 20
2802.592342684271
 30
0.0
 40
5.0
100
AcDbArc
 50
180.0
 51
0.0
  0
DIMENSION
  5
114
330
2
100
AcDbEntity
  8
BEMASSUNG
100
AcDbDimension
280
     0
  2
*D21
 10
-1025.662426362013
 20
2605.592342684272
 30
0.0
 11
-1031.140635775383
 21
2594.093602344909
 31
0.0
 71
     5
 42
22.99748067872406
 73
     0
 74
     0
 75
     0
  3
Katalog 09
100
AcDbAlignedDimension
 13
-1041.275679679707
 23
2582.594862005548
 33
0.0
 14
-1040.275679679706
 24
2605.592342684272
 34
0.0
 50
90.0
100
AcDbRotatedDimension
1001
ACAD_DSTYLE_DIMINSPECT
1070
   396
1000
100%
1070
   395
1000

1070
   394
1070
    33
1070
   393
1070
     0
  0
DIMENSION
  5
121
330
2
100
AcDbEntity
  8
BEMASSUNG
100
AcDbDimension
280
     0
  2
*D20
 10
-1025.614218444255
 20
2828.603816295788
 30
0.0
 11
-1031.092427857626
 21
2817.098079490031
 31
0.0
 71
     5
 42
23.01147361151379
 73
     0
 74
     0
 75
     0
  3
Katalog 09
100
AcDbAlignedDimension
 13
-1040.275679679706
 23
2805.592342684274
 33
0.0
 14
-1041.275679679707
 24
2828.603816295788
 34
0.0
 50
90.0
100
AcDbRotatedDimension
1001
ACAD_DSTYLE_DIMINSPECT
1070
   396
1000
100%
1070
   395
1000

1070
   394
1070
    33
1070
   393
1070
     0
1001
ACAD
1000
DSTYLE
1002
{
1070
   271
1070
     0
1002
}
  0
LINE
  5
12E
330
2
100
AcDbEntity
  8
UMRISS05
100
AcDbLine
 10
-1056.275679679707
 20
2828.603816295788
 30
0.0
 11
-1046.275679679707
 21
2828.603816295788
 31
0.0
  0
LINE
  5
12F
330
2
100
AcDbEntity
  8
UMRISS05
100
AcDbLine
 10
-1046.275679679707
 20
2828.603816295788
 30
0.0
 11
-1046.275679679707
 21
2814.515818366337
 31
0.0
  0
LINE
  5
130
330
2
100
AcDbEntity
  8
UMRISS05
100
AcDbLine
 10
-1056.275679679707
 20
2828.603816295788
 30
0.0
 11
-1056.275679679707
 21
2814.515818366337
 31
0.0
  0
LINE
  5
131
330
2
100
AcDbEntity
  8
UMRISS05
100
AcDbLine
 10
-1046.275679679707
 20
2814.515818366337
 30
0.0
 11
-1056.275679679707
 21
2814.515818366337
 31
0.0
  0
ARC
  5
132
330
2
100
AcDbEntity
  8
UMRISS05
100
AcDbCircle
 10
-1061.275679679707
 20
2827.603816295788
 30
0.0
 40
1.0
100
AcDbArc
 50
90.0
 51
180.0
1001
GENIUS_GENODEF_13
1002
{
1000
HIER
1070
     0
1002
}
1002
{
1000
MANEDIT
1070
     0
1002
}
1002
{
1000
NOSEL
1070
     0
1002
}
1002
{
1000
BEHIND
1070
     0
1002
}
1002
{
1000
OTHER
1070
     0
1002
}
1002
{
1000
REACTOR
1002
}
1001
GENIUS_GENOBJ-N-FIL_13
1002
{
1000
OWNER
1000
GEN
1002
}
  0
LINE
  5
133
330
2
100
AcDbEntity
  8
UMRISS05
100
AcDbLine
 10
-1062.275679679706
 20
2805.504339150668
 30
0.0
 11
-1062.275679679707
 21
2827.603816295788
 31
0.0
  0
LINE
  5
134
330
2
100
AcDbEntity
  8
UMRISS05
100
AcDbLine
 10
-1046.275679679707
 20
2828.603816295788
 30
0.0
 11
-1041.275679679707
 21
2828.603816295788
 31
0.0
  0
LINE
  5
135
330
2
100
AcDbEntity
  8
UMRISS05
100
AcDbLine
 10
-1061.275679679707
 20
2828.603816295788
 30
0.0
 11
-1056.275679679707
 21
2828.603816295788
 31
0.0
  0
ARC
  5
136
330
2
100
AcDbEntity
  8
UMRISS05
100
AcDbCircle
 10
-1041.275679679707
 20
2827.603816295788
 30
0.0
 40
1.0
100
AcDbArc
 50
0.0
 51
90.0
1001
GENIUS_GENODEF_13
1002
{
1000
HIER
1070
     0
1002
}
1002
{
1000
MANEDIT
1070
     0
1002
}
1002
{
1000
NOSEL
1070
     0
1002
}
1002
{
1000
BEHIND
1070
     0
1002
}
1002
{
1000
OTHER
1070
     0
1002
}
1002
{
1000
REACTOR
1002
}
1001
GENIUS_GENOBJ-N-FIL_13
1002
{
1000
OWNER
1000
GEN
1002
}
  0
LINE
  5
137
330
2
100
AcDbEntity
  8
UMRISS05
100
AcDbLine
 10
-1040.275679679707
 20
2827.603816295788
 30
0.0
 11
-1040.275679679706
 21
2805.504339150668
 31
0.0
  0
ARC
  5
138
330
2
100
AcDbEntity
  8
UMRISS05
100
AcDbCircle
 10
-1061.275679679707
 20
2583.594862005549
 30
0.0
 40
1.0
100
AcDbArc
 50
180.0
 51
270.0
1001
GENIUS_GENODEF_13
1002
{
1000
HIER
1070
     0
1002
}
1002
{
1000
MANEDIT
1070
     0
1002
}
1002
{
1000
NOSEL
1070
     0
1002
}
1002
{
1000
BEHIND
1070
     0
1002
}
1002
{
1000
OTHER
1070
     0
1002
}
1002
{
1000
REACTOR
1002
}
1001
GENIUS_GENOBJ-N-FIL_13
1002
{
1000
OWNER
1000
GEN
1002
}
  0
LINE
  5
139
330
2
100
AcDbEntity
  8
UMRISS05
100
AcDbLine
 10
-1061.275679679707
 20
2582.594862005548
 30
0.0
 11
-1041.275679679707
 21
2582.594862005548
 31
0.0
  0
LINE
  5
13A
330
2
100
AcDbEntity
  8
UMRISS05
100
AcDbLine
 10
-1046.275679679707
 20
2582.594862005548
 30
0.0
 11
-1046.275679679707
 21
2593.682859934999
 31
0.0
  0
LINE
  5
13B
330
2
100
AcDbEntity
  8
UMRISS05
100
AcDbLine
 10
-1056.275679679707
 20
2582.594862005548
 30
0.0
 11
-1056.275679679707
 21
2593.682859934999
 31
0.0
  0
LINE
  5
13C
330
2
100
AcDbEntity
  8
UMRISS05
100
AcDbLine
 10
-1046.275679679707
 20
2593.682859934999
 30
0.0
 11
-1056.275679679707
 21
2593.682859934999
 31
0.0
  0
LINE
  5
13D
330
2
100
AcDbEntity
  8
UMRISS05
100
AcDbLine
 10
-1062.275679679706
 20
2605.504339150668
 30
0.0
 11
-1062.275679679707
 21
2583.594862005549
 31
0.0
  0
LINE
  5
13E
330
2
100
AcDbEntity
  8
UMRISS05
100
AcDbLine
 10
-1057.275679679706
 20
2582.594862005548
 30
0.0
 11
-1056.275679679707
 21
2582.594862005548
 31
0.0
  0
ARC
  5
13F
330
2
100
AcDbEntity
  8
UMRISS05
100
AcDbCircle
 10
-1041.275679679707
 20
2583.594862005549
 30
0.0
 40
1.0
100
AcDbArc
 50
270.0
 51
0.0
1001
GENIUS_GENODEF_13
1002
{
1000
HIER
1070
     0
1002
}
1002
{
1000
MANEDIT
1070
     0
1002
}
1002
{
1000
NOSEL
1070
     0
1002
}
1002
{
1000
BEHIND
1070
     0
1002
}
1002
{
1000
OTHER
1070
     0
1002
}
1002
{
1000
REACTOR
1002
}
1001
GENIUS_GENOBJ-N-FIL_13
1002
{
1000
OWNER
1000
GEN
1002
}
  0
LINE
  5
140
330
2
100
AcDbEntity
  8
UMRISS05
100
AcDbLine
 10
-1040.275679679707
 20
2583.594862005549
 30
0.0
 11
-1040.275679679706
 21
2605.504339150668
 31
0.0
  0
LINE
  5
141
330
2
100
AcDbEntity
  8
ACHSEN
100
AcDbLine
 10
-1051.275679679707
 20
2835.234762915523
 30
0.0
 11
-1051.275679679707
 21
2573.808256568547
 31
0.0
  0
DIMENSION
  5
142
330
2
100
AcDbEntity
  8
BEMASSUNG
100
AcDbDimension
280
     0
  2
*D19
 10
-1076.275679679707
 20
2878.225167708883
 30
0.0
 11
-1046.275679679707
 21
2883.622667708883
 31
0.0
  1
DM
 71
     5
 42
59.99999999999909
 73
     0
 74
     0
 75
     0
  3
Katalog 09
100
AcDbAlignedDimension
 13
-1016.275679679707
 23
2865.592342684271
 33
0.0
 14
-1076.275679679707
 24
2732.092342684271
 34
0.0
100
AcDbRotatedDimension
1001
ACAD
1000
DSTYLE
1002
{
1070
   271
1070
     0
1002
}
1001
ACAD_DSTYLE_DIMINSPECT
1070
   396
1000
100%
1070
   395
1000

1070
   394
1070
    33
1070
   393
1070
     0
  0
DIMENSION
  5
14F
330
2
100
AcDbEntity
  8
BEMASSUNG
100
AcDbDimension
280
     0
  2
*D18
 10
-1076.275679679707
 20
2515.177354681264
 30
0.0
 11
-985.4973713577429
 21
2515.177354681264
 31
0.0
 70
   128
  1
DM60=<>\PDM70-100=35
 71
     5
 42
25.0
 73
     0
 74
     0
 75
     0
  3
Katalog 09
100
AcDbAlignedDimension
 13
-1051.275679679707
 23
2573.808256568547
 33
0.0
 14
-1076.275679679707
 24
2687.047722307482
 34
0.0
100
AcDbRotatedDimension
1001
ACAD_DSTYLE_DIMINSPECT
1070
   396
1000
100%
1070
   395
1000

1070
   394
1070
    33
1070
   393
1070
     0
  0
LINE
  5
15D
330
2
100
AcDbEntity
  8
UMRISS05
100
AcDbLine
 10
-1019.275679679707
 20
2799.092342684271
 30
0.0
 11
-1019.275679679707
 21
2805.592342684271
 31
0.0
  0
MULTILEADER
  5
15E
330
2
100
AcDbEntity
  8
BEMASSUNG
160
               724
310
D4020000180000000C00000016000000000000C00C00000033000000000000000C00000013000000993A0000E000000026000000507893AAEE4292C08C54B405A0D8A340000000000000000000000000000000000000000000000000000000000000F03F000000000000F03F0000000000000000000000000000000041006E
310
007300630068006C0075007300730067006500770069006E006400650020004D003600000013000000010000000000000000001440000000000000F03F0000000000000000000000000000F03F00000000000000000000000000000000000000000000000000000000010000000000000000000000690073006F0063007000
310
2E007300680078000000000000000C00000033000000000000000C00000010000000030000000C00000016000000000000C00C00000012000000FF7F00000C00000013000000010000000C00000014000000010000005400000007000000030000005B8D77579C7B90C075CDDE3CFD17A44000000000000000001022C64B1A
310
6D90C05F11CED39D1BA44000000000000000003C1D0A41797890C0EB047527D515A44000000000000000000C00000013000000891300003C00000006000000020000004BD540CC0A7A90C030E92932E916A4400000000000000000B0E0E55EEA2C91C02CB73C89DCD5A34000000000000000000C0000001300000011270000
310
3C0000000600000002000000B0E0E55EEA2C91C02CB73C89DCD5A34000000000000000000A223548CA3C91C02CB73C89DCD5A34000000000000000000C00000016000000000000C00C00000012000000FF7F00000C00000017000000000000000C000000130000009A3A00003C0000000600000002000000507893AAEE3F92
310
C02CB73C89DCD5A34000000000000000000A223548CA3C91C02CB73C89DCD5A34000000000000000000C00000016000000000000C00C00000012000000FF7F00000C00000017000000FFFFFFFF0C0000003300000000000000
100
AcDbMLeader
270
     2
300
CONTEXT_DATA{
 40
1.0
 10
-1169.983072571009
 20
2542.127593753284
 30
0.0
 41
5.0
140
4.0
145
2.0
174
     1
175
     6
176
     2
177
     0
290
     1
304
Anschlussgewinde M6
 11
0.0
 21
0.0
 31
1.0
340
22
 12
-1105.197541074946
 22
2545.324452970052
 32
0.0
 13
1.0
 23
0.0
 33
0.0
 42
0.0
 43
0.0
 44
0.0
 45
1.0
170
     1
 90
-1073741824
171
     3
172
     5
 91
-1073741824
141
0.0
 92
        0
291
     0
292
     0
173
     0
293
     0
142
0.0
143
0.0
294
     0
295
     0
296
     0
110
-1061.868187967996
120
2481.820426573957
130
0.0
111
1.0
121
0.0
131
0.0
112
0.0
122
1.0
132
0.0
297
     0
302
LEADER{
290
     1
291
     1
 10
-1099.228877631987
 20
2538.930734536514
 30
0.0
 11
-1.0
 21
0.0
 31
0.0
 90
        0
 40
3.968663442958586
304
LEADER_LINE{
 10
-1051.275679679707
 20
2573.808256568547
 30
0.0
 91
        0
305
}
271
     0
303
}
272
     9
273
     9
301
}
340
15F
 90
   345216
170
     1
 91
-1056964608
341
25
171
    -2
290
     1
291
     1
 41
0.36
 42
4.0
172
     2
343
22
173
     1
 95
        6
174
     1
175
     0
 92
-1056964608
292
     0
 93
-1056964608
 10
1.0
 20
1.0
 30
1.0
 43
0.0
176
     0
293
     0
294
     0
178
     0
179
     1
 45
1.0
271
     0
272
     9
273
     9
295
     0
  0
MULTILEADER
  5
160
330
2
100
AcDbEntity
  8
BEMASSUNG
160
               724
310
D4020000180000000C00000016000000000000C00C00000033000000000000000C00000013000000993A0000E00000002600000078ED48CC5B3A92C0B33D572FE07EA640000000000000000000000000000000000000000000000000000000000000F03F000000000000F03F0000000000000000000000000000000041006E
310
007300630068006C0075007300730067006500770069006E006400650020004D003600000013000000010000000000000000001440000000000000F03F0000000000000000000000000000F03F00000000000000000000000000000000000000000000000000000000010000000000000000000000690073006F0063007000
310
2E007300680078000000000000000C00000033000000000000000C00000010000000030000000C00000016000000000000C00C00000012000000FF7F00000C00000013000000010000000C0000001400000001000000540000000700000003000000628C4507737790C0DE148F51B72CA6400000000000000000F02E44891A
310
6D90C0F848D8327826A6400000000000000000F8953822F17A90C0D499FA64B32AA64000000000000000000C00000013000000891300003C00000006000000020000002D11BF14327990C059D7445BB52BA6400000000000000000F68C13C6C63291C053A0DFB21C7CA64000000000000000000C0000001300000011270000
310
3C0000000600000002000000F68C13C6C63291C053A0DFB21C7CA64000000000000000003397EA69373491C053A0DFB21C7CA64000000000000000000C00000016000000000000C00C00000012000000FF7F00000C00000017000000000000000C000000130000009A3A00003C000000060000000200000079ED48CC5B3792
310
C053A0DFB21C7CA64000000000000000003397EA69373491C053A0DFB21C7CA64000000000000000000C00000016000000000000C00C00000012000000FF7F00000C00000017000000FFFFFFFF0C0000003300000000000000
100
AcDbMLeader
270
     2
300
CONTEXT_DATA{
 40
1.0
 10
-1167.839646472448
 20
2881.252911413578
 30
0.0
 41
5.0
140
4.0
145
2.0
174
     1
175
     6
176
     2
177
     0
290
     1
304
Anschlussgewinde M6
 11
0.0
 21
0.0
 31
1.0
340
22
 12
-1103.054114976385
 22
2884.449770630347
 32
0.0
 13
1.0
 23
0.0
 33
0.0
 42
0.0
 43
0.0
 44
0.0
 45
1.0
170
     1
 90
-1073741824
171
     3
172
     5
 91
-1073741824
141
0.0
 92
        0
291
     0
292
     0
173
     0
293
     0
142
0.0
143
0.0
294
     0
295
     0
296
     0
110
-1190.19533621188
120
2860.791819827945
130
0.0
111
1.0
121
0.0
131
0.0
112
0.0
122
1.0
132
0.0
297
     0
302
LEADER{
290
     1
291
     1
 10
-1100.694114976386
 20
2878.056052196809
 30
0.0
 11
-1.0
 21
0.0
 31
0.0
 90
        0
 40
0.36
304
LEADER_LINE{
 10
-1051.275914254536
 20
2835.234762915523
 30
0.0
 91
        0
305
}
271
     0
303
}
272
     9
273
     9
301
}
340
15F
 90
   345088
170
     1
 91
-1056964608
341
25
171
    -2
290
     1
291
     1
 41
0.36
 42
4.0
172
     2
343
22
173
     1
 95
        6
174
     1
175
     0
 92
-1056964608
292
     0
 93
-1056964608
 10
1.0
 20
1.0
 30
1.0
 43
0.0
176
     0
293
     0
294
     0
178
     0
179
     1
 45
1.0
271
     0
272
     9
273
     9
295
     0
  0
DIMENSION
  5
161
330
2
100
AcDbEntity
  8
BEMASSUNG
100
AcDbDimension
280
     0
  2
*D17
 10
-1001.270812848204
 20
2767.592342684271
 30
0.0
 11
-1006.746500092407
 21
2747.592342684271
 31
0.0
 71
     5
 42
40.00000000000045
 73
     0
 74
     0
 75
     0
  3
Katalog 09
100
AcDbAlignedDimension
 13
-1050.525679679707
 23
2727.592342684271
 33
0.0
 14
-1010.857124817385
 24
2767.592342684271
 34
0.0
 50
90.0
100
AcDbRotatedDimension
1001
ACAD_DSTYLE_DIMINSPECT
1070
   396
1000
100%
1070
   395
1000

1070
   394
1070
    33
1070
   393
1070
     0
  0
DIMENSION
  5
16E
330
2
100
AcDbEntity
  8
BEMASSUNG
100
AcDbDimension
280
     0
  2
*D16
 10
-1001.109716209945
 20
2727.592342684271
 30
0.0
 11
-1006.585403454147
 21
2697.59234268427
 31
0.0
 71
     5
 42
60.0
 73
     0
 74
     0
 75
     0
  3
Katalog 09
100
AcDbAlignedDimension
 13
-1047.325679679706
 23
2667.592342684271
 33
0.0
 14
-1050.525679679707
 24
2727.592342684271
 34
0.0
 50
90.0
100
AcDbRotatedDimension
1001
ACAD_DSTYLE_DIMINSPECT
1070
   396
1000
100%
1070
   395
1000

1070
   394
1070
    33
1070
   393
1070
     0
  0
POLYLINE
  5
17B
330
2
100
AcDbEntity
  8
ACHSEN
100
AcDb2dPolyline
 66
     1
 10
0.0
 20
0.0
 30
0.0
 70
     2
  0
VERTEX
  5
17C
330
17B
100
AcDbEntity
  8
ACHSEN
100
AcDbVertex
100
AcDb2dVertex
 10
-1125.069611198234
 20
2769.727051912153
 30
0.0
 42
0.1742921813441843
  0
VERTEX
  5
17D
330
17B
100
AcDbEntity
  8
ACHSEN
100
AcDbVertex
100
AcDb2dVertex
 10
-1125.530095398365
 20
2769.583862244601
 30
0.0
 42
0.2149835583462315
 70
     1
  0
VERTEX
  5
17E
330
17B
100
AcDbEntity
  8
ACHSEN
100
AcDbVertex
100
AcDb2dVertex
 10
-1125.720649401696
 20
2769.235619789452
 30
0.0
 42
0.0287314123426709
  0
VERTEX
  5
17F
330
17B
100
AcDbEntity
  8
ACHSEN
100
AcDbVertex
100
AcDb2dVertex
 10
-1125.725357109684
 20
2768.996845820755
 30
0.0
 42
0.064786717857211
 70
     1
  0
VERTEX
  5
180
330
17B
100
AcDbEntity
  8
ACHSEN
100
AcDbVertex
100
AcDb2dVertex
 10
-1125.707679501489
 20
2768.89205832583
 30
0.0
 42
0.0281776653808937
  0
VERTEX
  5
181
330
17B
100
AcDbEntity
  8
ACHSEN
100
AcDbVertex
100
AcDb2dVertex
 10
-1125.601074078098
 20
2768.602583540083
 30
0.0
 42
0.0542049048258368
 70
     1
  0
VERTEX
  5
182
330
17B
100
AcDbEntity
  8
ACHSEN
100
AcDbVertex
100
AcDb2dVertex
 10
-1125.521572398881
 20
2768.462923475804
 30
0.0
 42
0.0128798373930438
  0
VERTEX
  5
183
330
17B
100
AcDbEntity
  8
ACHSEN
100
AcDbVertex
100
AcDb2dVertex
 10
-1125.347258974528
 20
2768.234368859325
 30
0.0
 42
0.0102679014492663
 70
     1
  0
VERTEX
  5
184
330
17B
100
AcDbEntity
  8
ACHSEN
100
AcDbVertex
100
AcDb2dVertex
 10
-1125.115584896711
 20
2767.958117309691
 30
0.0
 42
0.0105309849798267
  0
VERTEX
  5
185
330
17B
100
AcDbEntity
  8
ACHSEN
100
AcDbVertex
100
AcDb2dVertex
 10
-1124.972068732913
 20
2767.80076872028
 30
0.0
 42
-0.0098471551423482
 70
     1
  0
VERTEX
  5
186
330
17B
100
AcDbEntity
  8
ACHSEN
100
AcDbVertex
100
AcDb2dVertex
 10
-1124.818358337598
 20
2767.632705538357
 30
0.0
 42
-0.0472588414940461
  0
VERTEX
  5
187
330
17B
100
AcDbEntity
  8
ACHSEN
100
AcDbVertex
100
AcDb2dVertex
 10
-1124.680837423445
 20
2767.442771110949
 30
0.0
 42
-0.036247638051433
 70
     1
  0
VERTEX
  5
188
330
17B
100
AcDbEntity
  8
ACHSEN
100
AcDbVertex
100
AcDb2dVertex
 10
-1124.545297884449
 20
2767.169043926983
 30
0.0
 42
-0.0971304546236614
  0
VERTEX
  5
189
330
17B
100
AcDbEntity
  8
ACHSEN
100
AcDbVertex
100
AcDb2dVertex
 10
-1124.510338498687
 20
2766.9907807464
 30
0.0
 42
-0.1351883478575997
 70
     1
  0
VERTEX
  5
18A
330
17B
100
AcDbEntity
  8
ACHSEN
100
AcDbVertex
100
AcDb2dVertex
 10
-1124.545297884449
 20
2766.86384498442
 30
0.0
 42
-0.182411189361992
  0
VERTEX
  5
18B
330
17B
100
AcDbEntity
  8
ACHSEN
100
AcDbVertex
100
AcDb2dVertex
 10
-1124.632381595561
 20
2766.794505089698
 30
0.0
 42
-0.057264080913504
 70
     1
  0
VERTEX
  5
18C
330
17B
100
AcDbEntity
  8
ACHSEN
100
AcDbVertex
100
AcDb2dVertex
 10
-1124.97001113693
 20
2766.727051912153
 30
0.0
 42
-0.0589706698081777
  0
VERTEX
  5
18D
330
17B
100
AcDbEntity
  8
ACHSEN
100
AcDbVertex
100
AcDb2dVertex
 10
-1125.421911487306
 20
2766.742883803786
 30
0.0
 42
-0.109647967479952
 70
     1
  0
VERTEX
  5
18E
330
17B
100
AcDbEntity
  8
ACHSEN
100
AcDbVertex
100
AcDb2dVertex
 10
-1125.650463427335
 20
2766.831858983036
 30
0.0
 42
-0.0628391755202319
  0
VERTEX
  5
18F
330
17B
100
AcDbEntity
  8
ACHSEN
100
AcDbVertex
100
AcDb2dVertex
 10
-1125.757678810606
 20
2766.924984570278
 30
0.0
 42
-0.0612610441665016
 70
     1
  0
VERTEX
  5
190
330
17B
100
AcDbEntity
  8
ACHSEN
100
AcDbVertex
100
AcDb2dVertex
 10
-1125.840841247604
 20
2767.044549150808
 30
0.0
 42
-0.111030152922142
  0
VERTEX
  5
191
330
17B
100
AcDbEntity
  8
ACHSEN
100
AcDbVertex
100
AcDb2dVertex
 10
-1125.877300397588
 20
2767.179318632796
 30
0.0
 42
-0.0460047872888546
 70
     1
  0
VERTEX
  5
192
330
17B
100
AcDbEntity
  8
ACHSEN
100
AcDbVertex
100
AcDb2dVertex
 10
-1125.860998265457
 20
2767.512472443863
 30
0.0
 42
-0.1431452867485135
  0
VERTEX
  5
193
330
17B
100
AcDbEntity
  8
ACHSEN
100
AcDbVertex
100
AcDb2dVertex
 10
-1125.686593939579
 20
2767.897623195318
 30
0.0
 42
-0.1244691872491423
 70
     1
  0
VERTEX
  5
194
330
17B
100
AcDbEntity
  8
ACHSEN
100
AcDbVertex
100
AcDb2dVertex
 10
-1125.290996364914
 20
2768.17622449349
 30
0.0
  0
SEQEND
  5
195
330
17B
100
AcDbEntity
  8
ACHSEN
  0
LINE
  5
196
330
2
100
AcDbEntity
  8
ACHSEN
100
AcDbLine
 10
-1119.733099395896
 20
2766.727051912153
 30
0.0
 11
-1124.97001113693
 21
2766.727051912153
 31
0.0
  0
LINE
  5
197
330
2
100
AcDbEntity
  8
ACHSEN
100
AcDbLine
 10
-1119.733099395896
 20
2769.727051912153
 30
0.0
 11
-1125.069611198234
 21
2769.727051912153
 31
0.0
  0
LINE
  5
198
330
2
100
AcDbEntity
  8
ACHSEN
100
AcDbLine
 10
-1103.407182773299
 20
2803.818625605958
 30
0.0
 11
-1110.167287734144
 21
2774.347103624038
 31
0.0
  0
LINE
  5
199
330
2
100
AcDbEntity
  8
ACHSEN
100
AcDbLine
 10
-1113.094032180781
 20
2775.006173121236
 30
0.0
 11
-1106.505269574293
 21
2803.501303064152
 31
0.0
  0
ARC
  5
19A
330
2
100
AcDbEntity
  8
ACHSEN
100
AcDbCircle
 10
-1119.733099395896
 20
2776.541285889507
 30
0.0
 40
9.814233977353977
100
AcDbArc
 50
270.0
 51
347.0811130302633
  0
ARC
  5
19B
330
2
100
AcDbEntity
  8
ACHSEN
100
AcDbCircle
 10
-1119.733099395896
 20
2776.541285889507
 30
0.0
 40
6.814233977353977
100
AcDbArc
 50
270.0
 51
346.9806378393871
  0
ARC
  5
19C
330
2
100
AcDbEntity
  8
ACHSEN
100
AcDbCircle
 10
-1096.765433758867
 20
2802.295157612391
 30
0.0
 40
9.814233977353977
100
AcDbArc
 50
19.6308947802032
 51
172.9406410692978
  0
ARC
  5
19D
330
2
100
AcDbEntity
  8
ACHSEN
100
AcDbCircle
 10
-1096.765433758867
 20
2802.295157612391
 30
0.0
 40
6.814233977353977
100
AcDbArc
 50
28.93828833891032
 51
167.0811130302633
  0
DIMENSION
  5
19E
330
2
100
AcDbEntity
  8
BEMASSUNG
100
AcDbDimension
280
     0
  2
*D15
 10
-1124.283739861413
 20
2805.592342684271
 30
0.0
 11
-1124.283739861414
 21
2817.098079490029
 31
0.0
 70
   128
  1
Hub = <>
 71
     5
 42
23.01147361151698
 73
     0
 74
     0
 75
     0
  3
Katalog 09
100
AcDbAlignedDimension
 13
-1057.275679679706
 23
2828.603816295788
 33
0.0
 14
-1091.775679679707
 24
2805.592342684271
 34
0.0
 50
90.0
100
AcDbRotatedDimension
1001
ACAD_DSTYLE_DIMINSPECT
1070
   396
1000
100%
1070
   395
1000

1070
   394
1070
    33
1070
   393
1070
     0
1001
ACAD
1000
DSTYLE
1002
{
1070
   271
1070
     0
1002
}
  0
DIMENSION
  5
1AB
330
2
100
AcDbEntity
  8
BEMASSUNG
100
AcDbDimension
280
     0
  2
*D14
 10
-1124.5441149521
 20
2582.594862005548
 30
0.0
 11
-1124.544114952101
 21
2592.666739735097
 31
0.0
 70
   128
  1
Hub = <>
 71
     5
 42
20.14375545909798
 73
     0
 74
     0
 75
     0
  3
Katalog 09
100
AcDbAlignedDimension
 13
-1120.970290112042
 23
2602.738617464646
 33
0.0
 14
-1061.275679679707
 24
2582.594862005548
 34
0.0
 50
90.0
100
AcDbRotatedDimension
1001
ACAD_DSTYLE_DIMINSPECT
1070
   396
1000
100%
1070
   395
1000

1070
   394
1070
    33
1070
   393
1070
     0
1001
ACAD
1000
DSTYLE
1002
{
1070
   271
1070
     0
1002
}
  0
DIMENSION
  5
1B8
330
2
100
AcDbEntity
  8
BEMASSUNG
100
AcDbDimension
280
     0
  2
*D13
 10
-1076.275679679707
 20
2515.177354681264
 30
0.0
 11
-1129.574792912996
 21
2515.177354681264
 31
0.0
 70
   128
 71
     5
 42
15.5
 73
     0
 74
     0
 75
     0
  3
Katalog 09
100
AcDbAlignedDimension
 13
-1091.775679679707
 23
2605.592342684271
 33
0.0
 14
-1076.275679679707
 24
2532.601866793415
 34
0.0
 50
180.0
100
AcDbRotatedDimension
1001
ACAD_DSTYLE_DIMINSPECT
1070
   396
1000
100%
1070
   395
1000

1070
   394
1070
    33
1070
   393
1070
     0
  0
DIMENSION
  5
1C7
330
2
100
AcDbEntity
  8
BEMASSUNG
100
AcDbDimension
280
     0
  2
*D12
 10
-1144.104753478712
 20
2727.592342684271
 30
0.0
 11
-1149.51738649372
 21
2666.592342684271
 31
0.0
 71
     5
 42
122.0
 73
     0
 74
     0
 75
     0
  3
Katalog 09
100
AcDbAlignedDimension
 13
-1091.775679679707
 23
2605.592342684271
 33
0.0
 14
-1115.658944769132
 24
2727.592342684271
 34
0.0
 50
90.0
100
AcDbRotatedDimension
1001
ACAD_DSTYLE_DIMINSPECT
1070
   396
1000
100%
1070
   395
1000

1070
   394
1070
    33
1070
   393
1070
     0
  0
DIMENSION
  5
1D4
330
2
100
AcDbEntity
  8
BEMASSUNG
100
AcDbDimension
280
     0
  2
*D11
 10
-1144.104753478712
 20
2727.592342684271
 30
0.0
 11
-1149.580440722915
 21
2766.592342684271
 31
0.0
 71
     5
 42
78.0
 73
     0
 74
     0
 75
     0
  3
Katalog 09
100
AcDbAlignedDimension
 13
-1091.775679679708
 23
2805.592342684271
 33
0.0
 14
-1144.104753478712
 24
2727.592342684271
 34
0.0
 50
90.0
100
AcDbRotatedDimension
1001
ACAD_DSTYLE_DIMINSPECT
1070
   396
1000
100%
1070
   395
1000

1070
   394
1070
    33
1070
   393
1070
     0
  0
DIMENSION
  5
1E1
330
2
100
AcDbEntity
  8
BEMASSUNG
100
AcDbDimension
280
     0
  2
*D10
 10
-1124.273820159439
 20
2727.592342684271
 30
0.0
 11
-1124.273820159439
 21
2667.792888386863
 31
0.0
 70
   128
 71
     5
 42
21.5
 73
     0
 74
     0
 75
     0
  3
Katalog 09
100
AcDbAlignedDimension
 13
-1084.875679679706
 23
2706.092342684271
 33
0.0
 14
-1107.738824362626
 24
2727.592342684271
 34
0.0
 50
90.0
100
AcDbRotatedDimension
1001
ACAD_DSTYLE_DIMINSPECT
1070
   396
1000
100%
1070
   395
1000

1070
   394
1070
    33
1070
   393
1070
     0
  0
DIMENSION
  5
1EF
330
2
100
AcDbEntity
  8
BEMASSUNG
100
AcDbDimension
280
     0
  2
*D9
 10
-1108.901894239537
 20
2723.092342684271
 30
0.0
 11
-1108.901894239538
 21
2761.551414989866
 31
0.0
 70
   128
 71
     5
 42
9.0
 73
     0
 74
     0
 75
     0
  3
Katalog 09
100
AcDbAlignedDimension
 13
-1080.775679679707
 23
2732.092342684271
 33
0.0
 14
-1080.775679679707
 24
2723.092342684271
 34
0.0
 50
90.0
100
AcDbRotatedDimension
1001
ACAD_DSTYLE_DIMINSPECT
1070
   396
1000
100%
1070
   395
1000

1070
   394
1070
    33
1070
   393
1070
     0
  0
DIMENSION
  5
1FE
330
2
100
AcDbEntity
  8
BEMASSUNG
100
AcDbDimension
280
     0
  2
*D8
 10
-1164.471297100808
 20
2805.592342684271
 30
0.0
 11
-1169.946984345011
 21
2705.592342684271
 31
0.0
 71
     5
 42
200.0
 73
     0
 74
     0
 75
     0
  3
Katalog 09
100
AcDbAlignedDimension
 13
-1091.775679679707
 23
2605.592342684271
 33
0.0
 14
-1091.775679679707
 24
2805.592342684271
 34
0.0
 50
90.0
100
AcDbRotatedDimension
1001
ACAD_DSTYLE_DIMINSPECT
1070
   396
1000
100%
1070
   395
1000

1070
   394
1070
    33
1070
   393
1070
     0
  0
LINE
  5
20B
330
2
100
AcDbEntity
  8
Mittelpunktmarkierung(MSL)
  6
CHAIN
 48
10.31825447082519
100
AcDbLine
 10
-1076.275679679707
 20
2783.092342684271
 30
0.0
 11
-1076.275679679707
 21
2770.092342684271
 31
0.0
  0
LINE
  5
20C
330
2
100
AcDbEntity
  8
Mittelpunktmarkierung(MSL)
  6
CHAIN
 48
10.31825447082519
100
AcDbLine
 10
-1082.775679679707
 20
2776.592342684271
 30
0.0
 11
-1069.775679679707
 21
2776.592342684271
 31
0.0
  0
LINE
  5
20D
330
2
100
AcDbEntity
  8
Mittellinie(MSL)
  6
CHAIN
 48
23.99096870422363
100
AcDbLine
 10
-1047.325679679706
 20
2667.592342684271
 30
0.0
 11
-1068.275679679707
 21
2667.592342684271
 31
0.0
  0
LINE
  5
20E
330
2
100
AcDbEntity
  8
Mittellinie(MSL)
  6
CHAIN
 48
23.99096870422363
100
AcDbLine
 10
-1067.775679679707
 20
2767.592342684271
 30
0.0
 11
-1040.857124817385
 21
2767.592342684271
 31
0.0
  0
LINE
  5
20F
330
2
100
AcDbEntity
  8
Mittelpunktmarkierung(MSL)
  6
CHAIN
 48
10.71511459350586
100
AcDbLine
 10
-1057.275679679707
 20
2734.342342684271
 30
0.0
 11
-1057.275679679707
 21
2720.842342684271
 31
0.0
  0
LINE
  5
210
330
2
100
AcDbEntity
  8
Mittelpunktmarkierung(MSL)
  6
CHAIN
 48
10.31825447082519
100
AcDbLine
 10
-1072.275679679706
 20
2632.092342684271
 30
0.0
 11
-1072.275679679706
 21
2619.092342684271
 31
0.0
  0
LINE
  5
211
330
2
100
AcDbEntity
  8
Mittelpunktmarkierung(MSL)
  6
CHAIN
 48
10.31825447082519
100
AcDbLine
 10
-1078.775679679707
 20
2625.592342684271
 30
0.0
 11
-1065.775679679707
 21
2625.592342684271
 31
0.0
  0
LINE
  5
212
330
2
100
AcDbEntity
  8
Mittelpunktmarkierung(MSL)
  6
CHAIN
 48
23.99096870422363
100
AcDbLine
 10
-1076.275679679707
 20
2738.510979697069
 30
0.0
 11
-1076.275679679707
 21
2687.047722307482
 31
0.0
  0
LINE
  5
213
330
2
100
AcDbEntity
  8
Mittelpunktmarkierung(MSL)
  6
CHAIN
 48
13.65187644958496
100
AcDbLine
 10
-1084.875679679706
 20
2706.092342684271
 30
0.0
 11
-1067.675679679706
 21
2706.092342684271
 31
0.0
  0
LINE
  5
214
330
2
100
AcDbEntity
  8
Mittelpunktmarkierung(MSL)
  6
CHAIN
 48
10.31825447082519
100
AcDbLine
 10
-1075.775679679707
 20
2750.084528275991
 30
0.0
 11
-1075.775679679707
 21
2737.084528275991
 31
0.0
  0
LINE
  5
215
330
2
100
AcDbEntity
  8
Mittelpunktmarkierung(MSL)
  6
CHAIN
 48
10.31825447082519
100
AcDbLine
 10
-1082.275679679707
 20
2743.584528275991
 30
0.0
 11
-1069.275679679707
 21
2743.584528275991
 31
0.0
  0
LINE
  5
216
330
2
100
AcDbEntity
  8
Mittelpunktmarkierung(MSL)
  6
CHAIN
 48
23.99096870422363
100
AcDbLine
 10
-1032.175679679706
 20
2703.158745821498
 30
0.0
 11
-1032.175679679706
 21
2693.825939547045
 31
0.0
  0
LINE
  5
217
330
2
100
AcDbEntity
  8
Mittelpunktmarkierung(MSL)
  6
CHAIN
 48
10.31825447082519
100
AcDbLine
 10
-1036.781055697036
 20
2698.492342684271
 30
0.0
 11
-1027.570303662376
 21
2698.492342684271
 31
0.0
  0
CIRCLE
  5
218
330
2
100
AcDbEntity
  8
UMRISS05
100
AcDbCircle
 10
-1076.275679679707
 20
2727.592342684271
 30
0.0
 40
8.05
  0
CIRCLE
  5
219
330
2
100
AcDbEntity
  8
UMRISS05
100
AcDbCircle
 10
-1076.275679679707
 20
2727.592342684271
 30
0.0
 40
9.0
  0
LINE
  5
21A
330
2
100
AcDbEntity
  8
UMRISS05
100
AcDbLine
 10
-1044.775679679708
 20
2668.876039163845
 30
0.0
 11
-1044.262836952514
 21
2668.847331370311
 31
0.0
  0
LINE
  5
21B
330
2
100
AcDbEntity
  8
UMRISS05
100
AcDbLine
 10
-1044.212915106665
 20
2668.844536856579
 30
0.0
 11
-1044.262836952514
 21
2668.847331370311
 31
0.0
  0
LINE
  5
21C
330
2
100
AcDbEntity
  8
UMRISS05
100
AcDbLine
 10
-1041.344477708533
 20
2675.356471083134
 30
0.0
 11
-1041.343456109532
 21
2675.374721166223
 31
0.0
  0
LINE
  5
21D
330
2
100
AcDbEntity
  8
UMRISS05
100
AcDbLine
 10
-1041.44655301347
 20
2673.532974000311
 30
0.0
 11
-1041.66093253956
 21
2669.703248086966
 31
0.0
  0
LINE
  5
21E
330
2
100
AcDbEntity
  8
UMRISS05
100
AcDbLine
 10
-1043.942645305937
 20
2673.672699686911
 30
0.0
 11
-1044.157024832025
 21
2669.842973773565
 31
0.0
  0
LINE
  5
21F
330
2
100
AcDbEntity
  8
UMRISS05
100
AcDbLine
 10
-1041.344477708533
 20
2675.356471083134
 30
0.0
 11
-1041.390662738831
 21
2674.531410917298
 31
0.0
  0
LINE
  5
220
330
2
100
AcDbEntity
  8
UMRISS05
100
AcDbLine
 10
-1043.886755031296
 20
2674.671136603897
 30
0.0
 11
-1041.390662738831
 21
2674.531410917298
 31
0.0
  0
LINE
  5
221
330
2
100
AcDbEntity
  8
UMRISS05
100
AcDbLine
 10
-1041.44655301347
 20
2673.532974000311
 30
0.0
 11
-1041.390662738831
 21
2674.531410917298
 31
0.0
  0
LINE
  5
222
330
2
100
AcDbEntity
  8
UMRISS05
100
AcDbLine
 10
-1043.886755031296
 20
2674.671136603897
 30
0.0
 11
-1043.942645305937
 21
2673.672699686911
 31
0.0
  0
LINE
  5
223
330
2
100
AcDbEntity
  8
UMRISS05
100
AcDbLine
 10
-1043.886755031296
 20
2674.671136603897
 30
0.0
 11
-1043.862063842774
 21
2675.112225761259
 31
0.0
  0
LINE
  5
224
330
2
100
AcDbEntity
  8
UMRISS05
100
AcDbLine
 10
-1044.157024832025
 20
2669.842973773565
 30
0.0
 11
-1044.212915106665
 21
2668.844536856579
 31
0.0
  0
LINE
  5
225
330
2
100
AcDbEntity
  8
UMRISS05
100
AcDbLine
 10
-1041.716822814199
 20
2668.704811169979
 30
0.0
 11
-1044.212915106665
 21
2668.844536856579
 31
0.0
  0
LINE
  5
226
330
2
100
AcDbEntity
  8
UMRISS05
100
AcDbLine
 10
-1041.716822814199
 20
2668.704811169979
 30
0.0
 11
-1041.66093253956
 21
2669.703248086966
 31
0.0
  0
CIRCLE
  5
227
330
2
100
AcDbEntity
  8
UMRISS05
100
AcDbCircle
 10
-1076.275679679707
 20
2727.592342684271
 30
0.0
 40
7.099999999999995
  0
CIRCLE
  5
228
330
2
100
AcDbEntity
  8
UMRISS05
100
AcDbCircle
 10
-1076.275679679707
 20
2727.592342684271
 30
0.0
 40
7.999999999999992
  0
LINE
  5
229
330
2
100
AcDbEntity
  8
UMRISS05
100
AcDbLine
 10
-1071.775679679706
 20
2732.092342684271
 30
0.0
 11
-1071.775679679707
 21
2723.092342684271
 31
0.0
  0
LINE
  5
22A
330
2
100
AcDbEntity
  8
UMRISS05
100
AcDbLine
 10
-1071.775679679707
 20
2723.092342684271
 30
0.0
 11
-1080.775679679707
 21
2723.092342684271
 31
0.0
  0
LINE
  5
22B
330
2
100
AcDbEntity
  8
UMRISS05
100
AcDbLine
 10
-1080.775679679707
 20
2723.092342684271
 30
0.0
 11
-1080.775679679707
 21
2732.092342684271
 31
0.0
  0
LINE
  5
22C
330
2
100
AcDbEntity
  8
UMRISS05
100
AcDbLine
 10
-1080.775679679707
 20
2732.092342684271
 30
0.0
 11
-1071.775679679706
 21
2732.092342684271
 31
0.0
  0
LINE
  5
22D
330
2
100
AcDbEntity
  8
UMRISS05
100
AcDbLine
 10
-1045.775679679707
 20
2668.249241797712
 30
0.0
 11
-1045.775679679707
 21
2670.640817160653
 31
0.0
  0
CIRCLE
  5
22E
330
2
100
AcDbEntity
  8
UMRISS05
100
AcDbCircle
 10
-1032.175679679706
 20
2698.492342684271
 30
0.0
 40
2.999999999999951
  0
LINE
  5
22F
330
2
100
AcDbEntity
  8
UMRISS05
100
AcDbLine
 10
-1033.800214715148
 20
2697.259100648566
 30
0.0
 11
-1033.200926621765
 21
2696.729144253067
 31
0.0
  0
LINE
  5
230
330
2
100
AcDbEntity
  8
UMRISS05
100
AcDbLine
 10
-1030.551144644266
 20
2699.725584719976
 30
0.0
 11
-1031.150432737649
 21
2700.255541115476
 31
0.0
  0
LINE
  5
231
330
2
100
AcDbEntity
  8
UMRISS05
100
AcDbLine
 10
-1031.150432737649
 20
2700.255541115476
 30
0.0
 11
-1032.210345528649
 21
2699.056964928712
 31
0.0
  0
LINE
  5
232
330
2
100
AcDbEntity
  8
UMRISS05
100
AcDbLine
 10
-1032.740301924148
 20
2698.45767683533
 30
0.0
 11
-1033.800214715148
 21
2697.259100648566
 31
0.0
  0
LINE
  5
233
330
2
100
AcDbEntity
  8
UMRISS05
100
AcDbLine
 10
-1032.806546473585
 20
2698.382765823657
 30
0.0
 11
-1032.207258380203
 21
2697.852809428158
 31
0.0
  0
LINE
  5
234
330
2
100
AcDbEntity
  8
UMRISS05
100
AcDbLine
 10
-1031.544812885829
 20
2698.601919544885
 30
0.0
 11
-1032.14410097921
 21
2699.131875940385
 31
0.0
  0
LINE
  5
235
330
2
100
AcDbEntity
  8
UMRISS05
100
AcDbLine
 10
-1031.611057435265
 20
2698.527008533214
 30
0.0
 11
-1030.551144644266
 21
2699.725584719976
 31
0.0
  0
LINE
  5
236
330
2
100
AcDbEntity
  8
UMRISS05
100
AcDbLine
 10
-1033.200926621765
 20
2696.729144253067
 30
0.0
 11
-1032.141013830765
 21
2697.927720439831
 31
0.0
  0
LINE
  5
237
330
2
100
AcDbEntity
  8
UMRISS05
100
AcDbLine
 10
-1032.066102819094
 20
2697.861475890393
 30
0.0
 11
-1031.536146423593
 21
2698.460763983775
 31
0.0
  0
LINE
  5
238
330
2
100
AcDbEntity
  8
UMRISS05
100
AcDbLine
 10
-1030.942437644003
 20
2696.867807648832
 30
0.0
 11
-1030.412481248503
 21
2697.467095742213
 31
0.0
  0
LINE
  5
239
330
2
100
AcDbEntity
  8
UMRISS05
100
AcDbLine
 10
-1033.408921715412
 20
2700.116877719711
 30
0.0
 11
-1033.938878110911
 21
2699.51758962633
 31
0.0
  0
LINE
  5
23A
330
2
100
AcDbEntity
  8
UMRISS05
100
AcDbLine
 10
-1032.28525654032
 20
2699.123209478149
 30
0.0
 11
-1032.81521293582
 21
2698.523921384768
 31
0.0
  0
LINE
  5
23B
330
2
100
AcDbEntity
  8
UMRISS05
100
AcDbLine
 10
-1032.141013830765
 20
2697.927720439831
 30
0.0
 11
-1030.942437644003
 21
2696.867807648832
 31
0.0
  0
LINE
  5
23C
330
2
100
AcDbEntity
  8
UMRISS05
100
AcDbLine
 10
-1033.938878110911
 20
2699.51758962633
 30
0.0
 11
-1032.740301924148
 21
2698.45767683533
 31
0.0
  0
LINE
  5
23D
330
2
100
AcDbEntity
  8
UMRISS05
100
AcDbLine
 10
-1030.412481248503
 20
2697.467095742213
 30
0.0
 11
-1031.611057435265
 21
2698.527008533214
 31
0.0
  0
LINE
  5
23E
330
2
100
AcDbEntity
  8
UMRISS05
100
AcDbLine
 10
-1032.210345528649
 20
2699.056964928712
 30
0.0
 11
-1033.408921715412
 21
2700.116877719711
 31
0.0
  0
CIRCLE
  5
23F
330
2
100
AcDbEntity
  8
UMRISS05
100
AcDbCircle
 10
-1072.275679679706
 20
2625.592342684271
 30
0.0
 40
2.999999999999948
  0
LINE
  5
240
330
2
100
AcDbEntity
  8
UMRISS05
100
AcDbLine
 10
-1070.859347676786
 20
2627.059995115026
 30
0.0
 11
-1071.532777996532
 21
2627.491841852246
 31
0.0
  0
LINE
  5
241
330
2
100
AcDbEntity
  8
UMRISS05
100
AcDbLine
 10
-1073.692011682628
 20
2624.124690253516
 30
0.0
 11
-1073.018581362881
 21
2623.692843516296
 31
0.0
  0
LINE
  5
242
330
2
100
AcDbEntity
  8
UMRISS05
100
AcDbLine
 10
-1073.018581362881
 20
2623.692843516296
 30
0.0
 11
-1072.154887888443
 21
2625.039704155789
 31
0.0
  0
LINE
  5
243
330
2
100
AcDbEntity
  8
UMRISS05
100
AcDbLine
 10
-1071.723041151224
 20
2625.713134475535
 30
0.0
 11
-1070.859347676786
 21
2627.059995115026
 31
0.0
  0
LINE
  5
244
330
2
100
AcDbEntity
  8
UMRISS05
100
AcDbLine
 10
-1071.669060309071
 20
2625.797313265503
 30
0.0
 11
-1072.342490628817
 21
2626.229160002722
 31
0.0
  0
LINE
  5
245
330
2
100
AcDbEntity
  8
UMRISS05
100
AcDbLine
 10
-1072.882299050343
 20
2625.38737210304
 30
0.0
 11
-1072.208868730597
 21
2624.95552536582
 31
0.0
  0
LINE
  5
246
330
2
100
AcDbEntity
  8
UMRISS05
100
AcDbLine
 10
-1072.82831820819
 20
2625.471550893008
 30
0.0
 11
-1073.692011682628
 21
2624.124690253516
 31
0.0
  0
LINE
  5
247
330
2
100
AcDbEntity
  8
UMRISS05
100
AcDbLine
 10
-1071.532777996532
 20
2627.491841852246
 30
0.0
 11
-1072.39647147097
 21
2626.144981212754
 31
0.0
  0
LINE
  5
248
330
2
100
AcDbEntity
  8
UMRISS05
100
AcDbLine
 10
-1072.480650260938
 20
2626.198962054906
 30
0.0
 11
-1072.912496998158
 21
2625.52553173516
 31
0.0
  0
LINE
  5
249
330
2
100
AcDbEntity
  8
UMRISS05
100
AcDbLine
 10
-1073.743332110463
 20
2627.008674687192
 30
0.0
 11
-1074.175178847681
 21
2626.335244367446
 31
0.0
  0
LINE
  5
24A
330
2
100
AcDbEntity
  8
UMRISS05
100
AcDbLine
 10
-1070.80802724895
 20
2624.17601068135
 30
0.0
 11
-1070.376180511732
 21
2624.849441001097
 31
0.0
  0
LINE
  5
24B
330
2
100
AcDbEntity
  8
UMRISS05
100
AcDbLine
 10
-1072.070709098476
 20
2624.985723313636
 30
0.0
 11
-1071.638862361256
 21
2625.659153633382
 31
0.0
  0
LINE
  5
24C
330
2
100
AcDbEntity
  8
UMRISS05
100
AcDbLine
 10
-1072.39647147097
 20
2626.144981212754
 30
0.0
 11
-1073.743332110463
 21
2627.008674687192
 31
0.0
  0
LINE
  5
24D
330
2
100
AcDbEntity
  8
UMRISS05
100
AcDbLine
 10
-1070.376180511732
 20
2624.849441001097
 30
0.0
 11
-1071.723041151224
 21
2625.713134475535
 31
0.0
  0
LINE
  5
24E
330
2
100
AcDbEntity
  8
UMRISS05
100
AcDbLine
 10
-1074.175178847681
 20
2626.335244367446
 30
0.0
 11
-1072.82831820819
 21
2625.471550893008
 31
0.0
  0
LINE
  5
24F
330
2
100
AcDbEntity
  8
UMRISS05
100
AcDbLine
 10
-1072.154887888443
 20
2625.039704155789
 30
0.0
 11
-1070.80802724895
 21
2624.17601068135
 31
0.0
  0
CIRCLE
  5
250
330
2
100
AcDbEntity
  8
UMRISS05
100
AcDbCircle
 10
-1076.275679679707
 20
2776.592342684271
 30
0.0
 40
2.999999999999948
  0
LINE
  5
251
330
2
100
AcDbEntity
  8
UMRISS05
100
AcDbLine
 10
-1078.08714766054
 20
2775.655014697698
 30
0.0
 11
-1077.58729320564
 21
2775.030398396345
 31
0.0
  0
LINE
  5
252
330
2
100
AcDbEntity
  8
UMRISS05
100
AcDbLine
 10
-1074.464211698873
 20
2777.529670670844
 30
0.0
 11
-1074.964066153774
 21
2778.154286972198
 31
0.0
  0
LINE
  5
253
330
2
100
AcDbEntity
  8
UMRISS05
100
AcDbLine
 10
-1074.964066153774
 20
2778.154286972198
 30
0.0
 11
-1076.213298756479
 21
2777.154578062398
 31
0.0
  0
LINE
  5
254
330
2
100
AcDbEntity
  8
UMRISS05
100
AcDbLine
 10
-1076.837915057833
 20
2776.654723607498
 30
0.0
 11
-1078.08714766054
 21
2775.655014697698
 31
0.0
  0
LINE
  5
255
330
2
100
AcDbEntity
  8
UMRISS05
100
AcDbLine
 10
-1076.915992095503
 20
2776.592241800636
 30
0.0
 11
-1076.416137640602
 21
2775.967625499282
 31
0.0
  0
LINE
  5
256
330
2
100
AcDbEntity
  8
UMRISS05
100
AcDbLine
 10
-1075.63536726391
 20
2776.592443567907
 30
0.0
 11
-1076.135221718812
 21
2777.21705986926
 31
0.0
  0
LINE
  5
257
330
2
100
AcDbEntity
  8
UMRISS05
100
AcDbLine
 10
-1075.713444301581
 20
2776.529961761045
 30
0.0
 11
-1074.464211698873
 21
2777.529670670844
 31
0.0
  0
LINE
  5
258
330
2
100
AcDbEntity
  8
UMRISS05
100
AcDbLine
 10
-1077.58729320564
 20
2775.030398396345
 30
0.0
 11
-1076.338060602934
 21
2776.030107306145
 31
0.0
  0
LINE
  5
259
330
2
100
AcDbEntity
  8
UMRISS05
100
AcDbLine
 10
-1076.275578796073
 20
2775.952030268475
 30
0.0
 11
-1075.650962494718
 21
2776.451884723375
 31
0.0
  0
LINE
  5
25A
330
2
100
AcDbEntity
  8
UMRISS05
100
AcDbLine
 10
-1075.338351693133
 20
2774.780874703437
 30
0.0
 11
-1074.71373539178
 21
2775.280729158338
 31
0.0
  0
LINE
  5
25B
330
2
100
AcDbEntity
  8
UMRISS05
100
AcDbLine
 10
-1077.21300766628
 20
2778.403810665106
 30
0.0
 11
-1077.837623967634
 21
2777.903956210206
 31
0.0
  0
LINE
  5
25C
330
2
100
AcDbEntity
  8
UMRISS05
100
AcDbLine
 10
-1076.275780563342
 20
2777.232655100067
 30
0.0
 11
-1076.900396864696
 21
2776.732800645167
 31
0.0
  0
LINE
  5
25D
330
2
100
AcDbEntity
  8
UMRISS05
100
AcDbLine
 10
-1076.338060602934
 20
2776.030107306145
 30
0.0
 11
-1075.338351693133
 21
2774.780874703437
 31
0.0
  0
LINE
  5
25E
330
2
100
AcDbEntity
  8
UMRISS05
100
AcDbLine
 10
-1077.837623967634
 20
2777.903956210206
 30
0.0
 11
-1076.837915057833
 21
2776.654723607498
 31
0.0
  0
LINE
  5
25F
330
2
100
AcDbEntity
  8
UMRISS05
100
AcDbLine
 10
-1074.71373539178
 20
2775.280729158338
 30
0.0
 11
-1075.713444301581
 21
2776.529961761045
 31
0.0
  0
LINE
  5
260
330
2
100
AcDbEntity
  8
UMRISS05
100
AcDbLine
 10
-1076.213298756479
 20
2777.154578062398
 30
0.0
 11
-1077.21300766628
 21
2778.403810665106
 31
0.0
  0
CIRCLE
  5
261
330
2
100
AcDbEntity
  8
UMRISS05
100
AcDbCircle
 10
-1075.775679679707
 20
2743.584528275991
 30
0.0
 40
2.999999999999971
  0
LINE
  5
262
330
2
100
AcDbEntity
  8
UMRISS05
100
AcDbLine
 10
-1077.603437232493
 20
2742.679375068942
 30
0.0
 11
-1077.114704648799
 21
2742.046018564566
 31
0.0
  0
LINE
  5
263
330
2
100
AcDbEntity
  8
UMRISS05
100
AcDbLine
 10
-1073.947922126921
 20
2744.48968148304
 30
0.0
 11
-1074.436654710615
 21
2745.123037987415
 31
0.0
  0
LINE
  5
264
330
2
100
AcDbEntity
  8
UMRISS05
100
AcDbLine
 10
-1074.436654710615
 20
2745.123037987415
 30
0.0
 11
-1075.703367719367
 21
2744.145572820026
 31
0.0
  0
LINE
  5
265
330
2
100
AcDbEntity
  8
UMRISS05
100
AcDbLine
 10
-1076.336724223742
 20
2743.656840236331
 30
0.0
 11
-1077.603437232493
 21
2742.679375068942
 31
0.0
  0
LINE
  5
266
330
2
100
AcDbEntity
  8
UMRISS05
100
AcDbLine
 10
-1076.41589378679
 20
2743.595748663369
 30
0.0
 11
-1075.927161203095
 21
2742.962392158994
 31
0.0
  0
LINE
  5
267
330
2
100
AcDbEntity
  8
UMRISS05
100
AcDbLine
 10
-1075.135465572624
 20
2743.573307888612
 30
0.0
 11
-1075.62419815632
 21
2744.206664392988
 31
0.0
  0
LINE
  5
268
330
2
100
AcDbEntity
  8
UMRISS05
100
AcDbLine
 10
-1075.214635135673
 20
2743.51221631565
 30
0.0
 11
-1073.947922126921
 21
2744.48968148304
 31
0.0
  0
LINE
  5
269
330
2
100
AcDbEntity
  8
UMRISS05
100
AcDbLine
 10
-1077.114704648799
 20
2742.046018564566
 30
0.0
 11
-1075.847991640048
 21
2743.023483731956
 31
0.0
  0
LINE
  5
26A
330
2
100
AcDbEntity
  8
UMRISS05
100
AcDbLine
 10
-1075.786900067086
 20
2742.944314168909
 30
0.0
 11
-1075.153543562709
 21
2743.433046752603
 31
0.0
  0
LINE
  5
26B
330
2
100
AcDbEntity
  8
UMRISS05
100
AcDbLine
 10
-1074.870526472659
 20
2741.756770723204
 30
0.0
 11
-1074.237169968282
 21
2742.245503306899
 31
0.0
  0
LINE
  5
26C
330
2
100
AcDbEntity
  8
UMRISS05
100
AcDbLine
 10
-1076.680832886755
 20
2745.412285828777
 30
0.0
 11
-1077.314189391132
 21
2744.923553245083
 31
0.0
  0
LINE
  5
26D
330
2
100
AcDbEntity
  8
UMRISS05
100
AcDbLine
 10
-1075.764459292328
 20
2744.224742383073
 30
0.0
 11
-1076.397815796704
 21
2743.736009799378
 31
0.0
  0
LINE
  5
26E
330
2
100
AcDbEntity
  8
UMRISS05
100
AcDbLine
 10
-1075.847991640048
 20
2743.023483731956
 30
0.0
 11
-1074.870526472659
 21
2741.756770723204
 31
0.0
  0
LINE
  5
26F
330
2
100
AcDbEntity
  8
UMRISS05
100
AcDbLine
 10
-1077.314189391132
 20
2744.923553245083
 30
0.0
 11
-1076.336724223742
 21
2743.656840236331
 31
0.0
  0
LINE
  5
270
330
2
100
AcDbEntity
  8
UMRISS05
100
AcDbLine
 10
-1074.237169968282
 20
2742.245503306899
 30
0.0
 11
-1075.214635135673
 21
2743.51221631565
 31
0.0
  0
LINE
  5
271
330
2
100
AcDbEntity
  8
UMRISS05
100
AcDbLine
 10
-1075.703367719367
 20
2744.145572820026
 30
0.0
 11
-1076.680832886755
 21
2745.412285828777
 31
0.0
  0
CIRCLE
  5
272
330
2
100
AcDbEntity
  8
UMRISS05
100
AcDbCircle
 10
-1076.275679679707
 20
2706.092342684271
 30
0.0
 40
4.749999999999955
  0
CIRCLE
  5
273
330
2
100
AcDbEntity
  8
UMRISS05
100
AcDbCircle
 10
-1076.275679679707
 20
2706.092342684271
 30
0.0
 40
5.099999999999952
  0
LINE
  5
274
330
2
100
AcDbEntity
  8
UMRISS05
100
AcDbLine
 10
-1044.775679679707
 20
2668.092342684271
 30
0.0
 11
-1044.775679679707
 21
2675.092342684271
 31
0.0
  0
LINE
  5
275
330
2
100
AcDbEntity
  8
UMRISS05
100
AcDbLine
 10
-1019.275679679707
 20
2692.092342684271
 30
0.0
 11
-1019.275679679709
 21
2736.092342684271
 31
0.0
  0
LINE
  5
276
330
2
100
AcDbEntity
  8
UMRISS05
100
AcDbLine
 10
-1019.275679679706
 20
2605.592342684271
 30
0.0
 11
-1019.275679679707
 21
2643.092342684271
 31
0.0
  0
CIRCLE
  5
277
330
2
100
AcDbEntity
  8
UMRISS05
100
AcDbCircle
 10
-1076.275679679707
 20
2727.592342684271
 30
0.0
 40
9.050000000000002
  0
ARC
  5
278
330
2
100
AcDbEntity
  8
UMRISS05
100
AcDbCircle
 10
-1037.2903852907
 20
2669.630665339289
 30
0.0
 40
0.4999999999999587
100
AcDbArc
 50
285.7947765070302
 51
15.74616180128587
  0
LINE
  5
279
330
2
100
AcDbEntity
  8
UMRISS05
100
AcDbLine
 10
-1036.809148581763
 20
2669.766353326863
 30
0.0
 11
-1038.437405182315
 21
2675.541196492961
 31
0.0
  0
ARC
  5
27A
330
2
100
AcDbEntity
  8
UMRISS05
100
AcDbCircle
 10
-1038.918641891253
 20
2675.405508505388
 30
0.0
 40
0.5000000000000174
100
AcDbArc
 50
15.74616180128587
 51
105.8083434064345
  0
ARC
  5
27B
330
2
100
AcDbEntity
  8
UMRISS05
100
AcDbCircle
 10
-1044.775679679707
 20
2696.09234268427
 30
0.0
 40
20.99999999999836
100
AcDbArc
 50
269.4182340873386
 51
285.8083434064345
  0
ARC
  5
27C
330
2
100
AcDbEntity
  8
UMRISS05
100
AcDbCircle
 10
-1044.993981137591
 20
2674.593450980895
 30
0.0
 40
0.5000000000000174
100
AcDbArc
 50
89.41823408733865
 51
175.9416325344879
  0
LINE
  5
27D
330
2
100
AcDbEntity
  8
UMRISS05
100
AcDbLine
 10
-1045.492727373305
 20
2674.62883731105
 30
0.0
 11
-1045.91797509482
 21
2668.635260146503
 31
0.0
  0
ARC
  5
27E
330
2
100
AcDbEntity
  8
UMRISS05
100
AcDbCircle
 10
-1045.419228859107
 20
2668.599873816349
 30
0.0
 40
0.4999999999999899
100
AcDbArc
 50
175.9416325344879
 51
268.6590538825408
  0
ARC
  5
27F
330
2
100
AcDbEntity
  8
UMRISS05
100
AcDbCircle
 10
-1044.775679679707
 20
2696.092342684271
 30
0.0
 40
27.99999999999999
100
AcDbArc
 50
268.6590538825408
 51
285.7947765070857
  0
CIRCLE
  5
280
330
2
100
AcDbEntity
  8
UMRISS05
100
AcDbCircle
 10
-1057.275679679707
 20
2727.592342684271
 30
0.0
 40
3.25
  0
CIRCLE
  5
281
330
2
100
AcDbEntity
  8
UMRISS05
100
AcDbCircle
 10
-1032.175679679706
 20
2698.492342684271
 30
0.0
 40
3.25
  0
CIRCLE
  5
282
330
2
100
AcDbEntity
  8
UMRISS05
100
AcDbCircle
 10
-1075.775679679707
 20
2743.584528275991
 30
0.0
 40
3.25
  0
CIRCLE
  5
283
330
2
100
AcDbEntity
  8
UMRISS05
100
AcDbCircle
 10
-1076.275679679707
 20
2776.592342684271
 30
0.0
 40
3.25
  0
CIRCLE
  5
284
330
2
100
AcDbEntity
  8
UMRISS05
100
AcDbCircle
 10
-1072.275679679706
 20
2625.592342684271
 30
0.0
 40
3.25
  0
LINE
  5
285
330
2
100
AcDbEntity
  8
UMRISS05
100
AcDbLine
 10
-1019.275679679707
 20
2692.092342684271
 30
0.0
 11
-1034.775679679707
 21
2692.092342684271
 31
0.0
  0
LINE
  5
286
330
2
100
AcDbEntity
  8
UMRISS05
100
AcDbLine
 10
-1034.775679679707
 20
2692.092342684271
 30
0.0
 11
-1034.775679679707
 21
2643.092342684271
 31
0.0
  0
LINE
  5
287
330
2
100
AcDbEntity
  8
UMRISS05
100
AcDbLine
 10
-1034.775679679707
 20
2643.092342684271
 30
0.0
 11
-1019.275679679707
 21
2643.092342684271
 31
0.0
  0
LINE
  5
288
330
2
100
AcDbEntity
  8
UMRISS05
100
AcDbLine
 10
-1034.775679679707
 20
2736.092342684271
 30
0.0
 11
-1019.275679679707
 21
2736.092342684271
 31
0.0
  0
LINE
  5
289
330
2
100
AcDbEntity
  8
UMRISS05
100
AcDbLine
 10
-1019.275679679707
 20
2799.092342684271
 30
0.0
 11
-1034.775679679707
 21
2799.092342684271
 31
0.0
  0
LINE
  5
28A
330
2
100
AcDbEntity
  8
UMRISS05
100
AcDbLine
 10
-1034.775679679707
 20
2799.092342684271
 30
0.0
 11
-1034.775679679707
 21
2736.092342684271
 31
0.0
  0
LINE
  5
28B
330
2
100
AcDbEntity
  8
UMRISS05
100
AcDbLine
 10
-1091.775679679707
 20
2805.592342684271
 30
0.0
 11
-1091.775679679707
 21
2605.592342684271
 31
0.0
  0
LINE
  5
28C
330
2
100
AcDbEntity
  8
UMRISS05
100
AcDbLine
 10
-1019.275679679707
 20
2805.592342684271
 30
0.0
 11
-1040.275679679706
 21
2805.592342684271
 31
0.0
  0
LINE
  5
28D
330
2
100
AcDbEntity
  8
UMRISS05
100
AcDbLine
 10
-1091.775679679707
 20
2605.592342684271
 30
0.0
 11
-1019.275679679706
 21
2605.592342684271
 31
0.0
  0
LINE
  5
28E
330
2
100
AcDbEntity
  8
UMRISS05
100
AcDbLine
 10
-1081.275679679707
 20
2805.592342684272
 30
0.0
 11
-1091.775679679707
 21
2805.592342684271
 31
0.0
  0
LINE
  5
28F
330
2
100
AcDbEntity
  8
UMRISS05
100
AcDbLine
 10
-1040.275679679706
 20
2805.592342684274
 30
0.0
 11
-1071.275679679707
 21
2805.592342684272
 31
0.0
  0
LINE
  5
290
330
2
100
AcDbEntity
  8
UMRISS05
100
AcDbLine
 10
-1019.275679679702
 20
2437.720935955308
 30
0.0
 11
-1017.275679679702
 21
2437.720935955308
 31
0.0
  0
LINE
  5
291
330
2
100
AcDbEntity
  8
ACHSEN
 48
0.8
100
AcDbLine
 10
-1038.829465504806
 20
2447.720935955449
 30
0.0
 11
-1012.156612262365
 21
2447.720935955449
 31
0.0
  0
ARC
  5
292
330
2
100
AcDbEntity
  8
UMRISS05
100
AcDbCircle
 10
-1019.275679679702
 20
2456.720935955309
 30
0.0
 40
1.999999999999999
100
AcDbArc
 50
0.0
 51
90.0
  0
LINE
  5
293
330
2
100
AcDbEntity
  8
UMRISS05
100
AcDbLine
 10
-1019.275679679702
 20
2456.720935955309
 30
0.0
 11
-1019.275679679702
 21
2437.720935955308
 31
0.0
  0
LINE
  5
294
330
2
100
AcDbEntity
  8
UMRISS05
100
AcDbLine
 10
-1017.275679679702
 20
2437.720935955308
 30
0.0
 11
-1017.275679679702
 21
2456.720935955309
 31
0.0
  0
LINE
  5
295
330
2
100
AcDbEntity
  8
UMRISS05
100
AcDbLine
 10
-1039.2756796797
 20
2458.720935955309
 30
0.0
 11
-1019.275679679702
 21
2458.720935955309
 31
0.0
  0
LINE
  5
296
330
2
100
AcDbEntity
  8
UMRISS05
100
AcDbLine
 10
-1039.2756796797
 20
2456.720935955309
 30
0.0
 11
-1019.275679679702
 21
2456.720935955309
 31
0.0
  0
LINE
  5
297
330
2
100
AcDbEntity
  8
UMRISS05
100
AcDbLine
 10
-1039.2756796797
 20
2458.720935955309
 30
0.0
 11
-1039.2756796797
 21
2456.720935955309
 31
0.0
  0
LWPOLYLINE
  5
298
330
2
100
AcDbEntity
  8
UMRISS05
100
AcDbPolyline
 90
        8
 70
     1
 43
0.0
 10
-1250.746650085014
 20
2637.197757733359
 42
0.479585965525286
 10
-1250.138541976905
 20
2637.685930486553
 10
-1250.138541976905
 20
2639.884150412712
 42
0.3562016063779358
 10
-1250.538207528745
 20
2640.373979973389
 42
0.1013653785930407
 10
-1262.738876425066
 20
2640.373979973389
 42
0.3562016063778755
 10
-1263.138541976906
 20
2639.884150412713
 10
-1263.138541976906
 20
2637.685930486554
 42
0.479585965525286
 10
-1262.530433868797
 20
2637.197757733359
 42
-0.1094020329529157
  0
LWPOLYLINE
  5
299
330
2
100
AcDbEntity
  8
UMRISS05
100
AcDbPolyline
 90
        8
 70
     1
 43
0.0
 10
-1263.138541976906
 20
2689.092342684271
 42
-0.4142135623731151
 10
-1261.138541976905
 20
2691.092342684271
 10
-1252.138541976905
 20
2691.092342684271
 42
-0.4142135623730784
 10
-1250.138541976905
 20
2689.092342684271
 10
-1250.138541976905
 20
2646.092342684271
 42
-0.4142135623731014
 10
-1252.138541976905
 20
2644.092342684271
 10
-1261.138541976905
 20
2644.092342684271
 42
-0.4142135623730879
 10
-1263.138541976906
 20
2646.092342684271
  0
DIMENSION
  5
29A
330
2
100
AcDbEntity
  8
BEMASSUNG
100
AcDbDimension
280
     0
  2
*D7
 10
-1330.323311171081
 20
2545.592342684271
 30
0.0
 11
-1330.323311171082
 21
2705.592342684271
 31
0.0
 70
   128
 71
     5
 42
320.0
 73
     0
 74
     0
 75
     0
  3
Katalog 09$0
100
AcDbAlignedDimension
 13
-1256.138541976901
 23
2865.592342684271
 33
0.0
 14
-1256.1385419769
 24
2545.592342684271
 34
0.0
 50
90.0
100
AcDbRotatedDimension
1001
ACAD_DSTYLE_DIMINSPECT
1070
   396
1000
100%
1070
   395
1000

1070
   394
1070
    33
1070
   393
1070
     0
  0
LINE
  5
2A7
330
2
100
AcDbEntity
  8
ACHSEN
 48
0.8
100
AcDbLine
 10
-1262.888541976901
 20
2555.592342684271
 30
0.0
 11
-1249.388541976901
 21
2555.592342684271
 31
0.0
  0
LINE
  5
2A8
330
2
100
AcDbEntity
  8
ACHSEN
 48
0.8
100
AcDbLine
 10
-1256.138541976901
 20
2548.842342684271
 30
0.0
 11
-1256.138541976901
 21
2738.340453622535
 31
0.0
  0
LINE
  5
2A9
330
2
100
AcDbEntity
  8
UMRISS05
100
AcDbLine
 10
-1256.138541976901
 20
2545.592342684271
 30
0.0
 11
-1245.1385419769
 21
2545.592342684271
 31
0.0
  0
CIRCLE
  5
2AA
330
2
100
AcDbEntity
  8
UMRISS05
100
AcDbCircle
 10
-1256.138541976901
 20
2555.592342684271
 30
0.0
 40
2.75
  0
CIRCLE
  5
2AB
330
2
100
AcDbEntity
  8
UMRISS05
100
AcDbCircle
 10
-1256.138541976901
 20
2555.592342684271
 30
0.0
 40
4.75
  0
ARC
  5
2AC
330
2
100
AcDbEntity
  8
UMRISS05
100
AcDbCircle
 10
-1256.138541976901
 20
2555.592342684271
 30
0.0
 40
10.0
100
AcDbArc
 50
180.0
 51
270.0
  0
LINE
  5
2AD
330
2
100
AcDbEntity
  8
UMRISS05
100
AcDbLine
 10
-1256.4385419769
 20
2616.592342684271
 30
0.0
 11
-1255.8385419769
 21
2616.592342684271
 31
0.0
  0
LINE
  5
2AE
330
2
100
AcDbEntity
  8
UMRISS05
100
AcDbLine
 10
-1256.4385419769
 20
2696.092342684271
 30
0.0
 11
-1255.8385419769
 21
2696.092342684271
 31
0.0
  0
LINE
  5
2AF
330
2
100
AcDbEntity
  8
UMRISS05
100
AcDbLine
 10
-1256.438541976901
 20
2729.092342684271
 30
0.0
 11
-1255.838541976901
 21
2729.092342684271
 31
0.0
  0
LINE
  5
2B0
330
2
100
AcDbEntity
  8
UMRISS05
100
AcDbLine
 10
-1254.1385419769
 20
2618.292342684271
 30
0.0
 11
-1255.8385419769
 21
2618.292342684271
 31
0.0
  0
LINE
  5
2B1
330
2
100
AcDbEntity
  8
UMRISS05
100
AcDbLine
 10
-1258.138541976901
 20
2618.292342684271
 30
0.0
 11
-1258.138541976901
 21
2618.892342684271
 31
0.0
  0
LINE
  5
2B2
330
2
100
AcDbEntity
  8
UMRISS05
100
AcDbLine
 10
-1255.8385419769
 20
2618.892342684271
 30
0.0
 11
-1254.1385419769
 21
2618.892342684271
 31
0.0
  0
LINE
  5
2B3
330
2
100
AcDbEntity
  8
UMRISS05
100
AcDbLine
 10
-1254.1385419769
 20
2618.892342684271
 30
0.0
 11
-1254.1385419769
 21
2618.292342684271
 31
0.0
  0
LINE
  5
2B4
330
2
100
AcDbEntity
  8
UMRISS05
100
AcDbLine
 10
-1256.4385419769
 20
2618.292342684271
 30
0.0
 11
-1258.138541976901
 21
2618.292342684272
 31
0.0
  0
LINE
  5
2B5
330
2
100
AcDbEntity
  8
UMRISS05
100
AcDbLine
 10
-1258.138541976901
 20
2618.892342684271
 30
0.0
 11
-1256.4385419769
 21
2618.892342684271
 31
0.0
  0
LINE
  5
2B6
330
2
100
AcDbEntity
  8
UMRISS05
100
AcDbLine
 10
-1256.4385419769
 20
2618.892342684271
 30
0.0
 11
-1256.4385419769
 21
2620.592342684271
 31
0.0
  0
LINE
  5
2B7
330
2
100
AcDbEntity
  8
UMRISS05
100
AcDbLine
 10
-1256.4385419769
 20
2620.592342684271
 30
0.0
 11
-1255.8385419769
 21
2620.592342684271
 31
0.0
  0
LINE
  5
2B8
330
2
100
AcDbEntity
  8
UMRISS05
100
AcDbLine
 10
-1256.4385419769
 20
2616.592342684271
 30
0.0
 11
-1256.4385419769
 21
2618.292342684271
 31
0.0
  0
LINE
  5
2B9
330
2
100
AcDbEntity
  8
UMRISS05
100
AcDbLine
 10
-1255.8385419769
 20
2620.592342684271
 30
0.0
 11
-1255.8385419769
 21
2618.892342684271
 31
0.0
  0
LINE
  5
2BA
330
2
100
AcDbEntity
  8
UMRISS05
100
AcDbLine
 10
-1255.8385419769
 20
2618.292342684271
 30
0.0
 11
-1255.8385419769
 21
2616.592342684271
 31
0.0
  0
CIRCLE
  5
2BB
330
2
100
AcDbEntity
  8
UMRISS05
100
AcDbCircle
 10
-1256.138541976901
 20
2618.592342684271
 30
0.0
 40
4.0
  0
LINE
  5
2BC
330
2
100
AcDbEntity
  8
UMRISS05
100
AcDbLine
 10
-1254.1385419769
 20
2697.792342684271
 30
0.0
 11
-1255.8385419769
 21
2697.792342684271
 31
0.0
  0
LINE
  5
2BD
330
2
100
AcDbEntity
  8
UMRISS05
100
AcDbLine
 10
-1258.138541976901
 20
2697.792342684271
 30
0.0
 11
-1258.138541976901
 21
2698.392342684272
 31
0.0
  0
LINE
  5
2BE
330
2
100
AcDbEntity
  8
UMRISS05
100
AcDbLine
 10
-1255.8385419769
 20
2698.392342684272
 30
0.0
 11
-1254.1385419769
 21
2698.392342684272
 31
0.0
  0
LINE
  5
2BF
330
2
100
AcDbEntity
  8
UMRISS05
100
AcDbLine
 10
-1254.1385419769
 20
2698.392342684272
 30
0.0
 11
-1254.1385419769
 21
2697.792342684271
 31
0.0
  0
LINE
  5
2C0
330
2
100
AcDbEntity
  8
UMRISS05
100
AcDbLine
 10
-1256.4385419769
 20
2697.792342684271
 30
0.0
 11
-1258.138541976901
 21
2697.792342684271
 31
0.0
  0
LINE
  5
2C1
330
2
100
AcDbEntity
  8
UMRISS05
100
AcDbLine
 10
-1258.138541976901
 20
2698.392342684272
 30
0.0
 11
-1256.4385419769
 21
2698.392342684272
 31
0.0
  0
LINE
  5
2C2
330
2
100
AcDbEntity
  8
UMRISS05
100
AcDbLine
 10
-1256.4385419769
 20
2698.392342684272
 30
0.0
 11
-1256.4385419769
 21
2700.092342684271
 31
0.0
  0
LINE
  5
2C3
330
2
100
AcDbEntity
  8
UMRISS05
100
AcDbLine
 10
-1256.4385419769
 20
2700.092342684271
 30
0.0
 11
-1255.8385419769
 21
2700.092342684271
 31
0.0
  0
LINE
  5
2C4
330
2
100
AcDbEntity
  8
UMRISS05
100
AcDbLine
 10
-1256.4385419769
 20
2696.092342684271
 30
0.0
 11
-1256.4385419769
 21
2697.792342684271
 31
0.0
  0
LINE
  5
2C5
330
2
100
AcDbEntity
  8
UMRISS05
100
AcDbLine
 10
-1255.8385419769
 20
2700.092342684271
 30
0.0
 11
-1255.8385419769
 21
2698.392342684272
 31
0.0
  0
LINE
  5
2C6
330
2
100
AcDbEntity
  8
UMRISS05
100
AcDbLine
 10
-1255.8385419769
 20
2697.792342684271
 30
0.0
 11
-1255.8385419769
 21
2696.092342684271
 31
0.0
  0
CIRCLE
  5
2C7
330
2
100
AcDbEntity
  8
UMRISS05
100
AcDbCircle
 10
-1256.138541976901
 20
2698.092342684271
 30
0.0
 40
4.0
  0
LINE
  5
2C8
330
2
100
AcDbEntity
  8
UMRISS05
100
AcDbLine
 10
-1254.1385419769
 20
2730.792342684271
 30
0.0
 11
-1255.8385419769
 21
2730.792342684271
 31
0.0
  0
LINE
  5
2C9
330
2
100
AcDbEntity
  8
UMRISS05
100
AcDbLine
 10
-1258.138541976901
 20
2730.792342684271
 30
0.0
 11
-1258.138541976901
 21
2731.392342684272
 31
0.0
  0
LINE
  5
2CA
330
2
100
AcDbEntity
  8
UMRISS05
100
AcDbLine
 10
-1255.8385419769
 20
2731.392342684272
 30
0.0
 11
-1254.1385419769
 21
2731.392342684272
 31
0.0
  0
LINE
  5
2CB
330
2
100
AcDbEntity
  8
UMRISS05
100
AcDbLine
 10
-1254.1385419769
 20
2731.392342684272
 30
0.0
 11
-1254.1385419769
 21
2730.792342684271
 31
0.0
  0
LINE
  5
2CC
330
2
100
AcDbEntity
  8
UMRISS05
100
AcDbLine
 10
-1256.438541976901
 20
2730.792342684271
 30
0.0
 11
-1258.138541976901
 21
2730.792342684272
 31
0.0
  0
LINE
  5
2CD
330
2
100
AcDbEntity
  8
UMRISS05
100
AcDbLine
 10
-1258.138541976901
 20
2731.392342684272
 30
0.0
 11
-1256.438541976901
 21
2731.392342684272
 31
0.0
  0
LINE
  5
2CE
330
2
100
AcDbEntity
  8
UMRISS05
100
AcDbLine
 10
-1256.438541976901
 20
2731.392342684272
 30
0.0
 11
-1256.438541976901
 21
2733.092342684271
 31
0.0
  0
LINE
  5
2CF
330
2
100
AcDbEntity
  8
UMRISS05
100
AcDbLine
 10
-1256.438541976901
 20
2733.092342684271
 30
0.0
 11
-1255.8385419769
 21
2733.092342684271
 31
0.0
  0
LINE
  5
2D0
330
2
100
AcDbEntity
  8
UMRISS05
100
AcDbLine
 10
-1256.438541976901
 20
2729.092342684271
 30
0.0
 11
-1256.438541976901
 21
2730.792342684271
 31
0.0
  0
LINE
  5
2D1
330
2
100
AcDbEntity
  8
UMRISS05
100
AcDbLine
 10
-1255.8385419769
 20
2733.092342684271
 30
0.0
 11
-1255.8385419769
 21
2731.392342684272
 31
0.0
  0
LINE
  5
2D2
330
2
100
AcDbEntity
  8
UMRISS05
100
AcDbLine
 10
-1255.8385419769
 20
2730.792342684271
 30
0.0
 11
-1255.838541976901
 21
2729.092342684271
 31
0.0
  0
CIRCLE
  5
2D3
330
2
100
AcDbEntity
  8
UMRISS05
100
AcDbCircle
 10
-1256.138541976901
 20
2731.092342684271
 30
0.0
 40
4.0
  0
LINE
  5
2D4
330
2
100
AcDbEntity
  8
Mittelpunktmarkierung(MSL)
  6
CHAIN
 48
11.90569400787353
100
AcDbLine
 10
-1249.138541976906
 20
2731.092342684271
 30
0.0
 11
-1264.138541976905
 21
2731.092342684271
 31
0.0
  0
LINE
  5
2D5
330
2
100
AcDbEntity
  8
Mittelpunktmarkierung(MSL)
  6
CHAIN
 48
11.90569400787353
100
AcDbLine
 10
-1249.138541976906
 20
2698.092342684271
 30
0.0
 11
-1264.138541976905
 21
2698.092342684271
 31
0.0
  0
LINE
  5
2D6
330
2
100
AcDbEntity
  8
Mittelpunktmarkierung(MSL)
  6
CHAIN
 48
11.90569400787353
100
AcDbLine
 10
-1248.638541976901
 20
2618.592342684271
 30
0.0
 11
-1263.638541976901
 21
2618.598915638752
 31
0.0
  0
LINE
  5
2D7
330
2
100
AcDbEntity
  8
Mittelpunktmarkierung(MSL)
  6
CHAIN
 48
11.90569400787353
100
AcDbLine
 10
-1249.138541976906
 20
2793.842342684272
 30
0.0
 11
-1264.138541976905
 21
2793.842342684272
 31
0.0
  0
LINE
  5
2D8
330
2
100
AcDbEntity
  8
Mittelpunktmarkierung(MSL)
  6
CHAIN
 48
11.90569400787353
100
AcDbLine
 10
-1248.638541976902
 20
2802.592342684272
 30
0.0
 11
-1263.638541976901
 21
2802.592342684272
 31
0.0
  0
LINE
  5
2D9
330
2
100
AcDbEntity
  8
UMRISS05
100
AcDbLine
 10
-1256.438541976901
 20
2800.592342684271
 30
0.0
 11
-1255.838541976901
 21
2800.592342684271
 31
0.0
  0
LINE
  5
2DA
330
2
100
AcDbEntity
  8
UMRISS05
100
AcDbLine
 10
-1254.1385419769
 20
2802.292342684271
 30
0.0
 11
-1255.8385419769
 21
2802.292342684271
 31
0.0
  0
LINE
  5
2DB
330
2
100
AcDbEntity
  8
UMRISS05
100
AcDbLine
 10
-1258.138541976901
 20
2802.292342684271
 30
0.0
 11
-1258.138541976901
 21
2802.892342684272
 31
0.0
  0
LINE
  5
2DC
330
2
100
AcDbEntity
  8
UMRISS05
100
AcDbLine
 10
-1255.8385419769
 20
2802.892342684272
 30
0.0
 11
-1254.1385419769
 21
2802.892342684272
 31
0.0
  0
LINE
  5
2DD
330
2
100
AcDbEntity
  8
UMRISS05
100
AcDbLine
 10
-1254.1385419769
 20
2802.892342684272
 30
0.0
 11
-1254.1385419769
 21
2802.292342684271
 31
0.0
  0
LINE
  5
2DE
330
2
100
AcDbEntity
  8
UMRISS05
100
AcDbLine
 10
-1256.438541976901
 20
2802.292342684271
 30
0.0
 11
-1258.138541976901
 21
2802.292342684271
 31
0.0
  0
LINE
  5
2DF
330
2
100
AcDbEntity
  8
UMRISS05
100
AcDbLine
 10
-1258.138541976901
 20
2802.892342684272
 30
0.0
 11
-1256.438541976901
 21
2802.892342684272
 31
0.0
  0
LINE
  5
2E0
330
2
100
AcDbEntity
  8
UMRISS05
100
AcDbLine
 10
-1256.438541976901
 20
2802.892342684272
 30
0.0
 11
-1256.438541976901
 21
2804.592342684271
 31
0.0
  0
LINE
  5
2E1
330
2
100
AcDbEntity
  8
UMRISS05
100
AcDbLine
 10
-1256.438541976901
 20
2804.592342684271
 30
0.0
 11
-1255.8385419769
 21
2804.592342684271
 31
0.0
  0
LINE
  5
2E2
330
2
100
AcDbEntity
  8
UMRISS05
100
AcDbLine
 10
-1256.438541976901
 20
2800.592342684271
 30
0.0
 11
-1256.438541976901
 21
2802.292342684271
 31
0.0
  0
LINE
  5
2E3
330
2
100
AcDbEntity
  8
UMRISS05
100
AcDbLine
 10
-1255.8385419769
 20
2804.592342684271
 30
0.0
 11
-1255.8385419769
 21
2802.892342684272
 31
0.0
  0
LINE
  5
2E4
330
2
100
AcDbEntity
  8
UMRISS05
100
AcDbLine
 10
-1255.8385419769
 20
2802.292342684271
 30
0.0
 11
-1255.838541976901
 21
2800.592342684271
 31
0.0
  0
CIRCLE
  5
2E5
330
2
100
AcDbEntity
  8
UMRISS05
100
AcDbCircle
 10
-1256.138541976901
 20
2802.592342684271
 30
0.0
 40
4.0
  0
LINE
  5
2E6
330
2
100
AcDbEntity
  8
UMRISS05
100
AcDbLine
 10
-1258.6385419769
 20
2741.642362361153
 30
0.0
 11
-1256.9385419769
 21
2741.642362361153
 31
0.0
  0
LINE
  5
2E7
330
2
100
AcDbEntity
  8
UMRISS05
100
AcDbLine
 10
-1254.6385419769
 20
2741.642362361153
 30
0.0
 11
-1254.6385419769
 21
2741.042362361153
 31
0.0
  0
LINE
  5
2E8
330
2
100
AcDbEntity
  8
UMRISS05
100
AcDbLine
 10
-1256.9385419769
 20
2741.042362361153
 30
0.0
 11
-1258.6385419769
 21
2741.042362361153
 31
0.0
  0
LINE
  5
2E9
330
2
100
AcDbEntity
  8
UMRISS05
100
AcDbLine
 10
-1258.6385419769
 20
2741.042362361153
 30
0.0
 11
-1258.6385419769
 21
2741.642362361153
 31
0.0
  0
LINE
  5
2EA
330
2
100
AcDbEntity
  8
UMRISS05
100
AcDbLine
 10
-1256.3385419769
 20
2741.642362361153
 30
0.0
 11
-1254.6385419769
 21
2741.642362361153
 31
0.0
  0
LINE
  5
2EB
330
2
100
AcDbEntity
  8
UMRISS05
100
AcDbLine
 10
-1254.6385419769
 20
2741.042362361153
 30
0.0
 11
-1256.3385419769
 21
2741.042362361153
 31
0.0
  0
LINE
  5
2EC
330
2
100
AcDbEntity
  8
UMRISS05
100
AcDbLine
 10
-1256.938541976905
 20
2743.342362361153
 30
0.0
 11
-1256.338541976905
 21
2743.342362361153
 31
0.0
  0
LINE
  5
2ED
330
2
100
AcDbEntity
  8
UMRISS05
100
AcDbLine
 10
-1256.3385419769
 20
2741.042362361153
 30
0.0
 11
-1256.3385419769
 21
2739.342362361153
 31
0.0
  0
LINE
  5
2EE
330
2
100
AcDbEntity
  8
UMRISS05
100
AcDbLine
 10
-1256.3385419769
 20
2739.342362361153
 30
0.0
 11
-1256.9385419769
 21
2739.342362361153
 31
0.0
  0
LINE
  5
2EF
330
2
100
AcDbEntity
  8
UMRISS05
100
AcDbLine
 10
-1256.3385419769
 20
2743.342362361153
 30
0.0
 11
-1256.3385419769
 21
2741.642362361153
 31
0.0
  0
LINE
  5
2F0
330
2
100
AcDbEntity
  8
UMRISS05
100
AcDbLine
 10
-1256.9385419769
 20
2739.342362361153
 30
0.0
 11
-1256.9385419769
 21
2741.042362361153
 31
0.0
  0
LINE
  5
2F1
330
2
100
AcDbEntity
  8
UMRISS05
100
AcDbLine
 10
-1256.9385419769
 20
2741.642362361153
 30
0.0
 11
-1256.9385419769
 21
2743.342362361153
 31
0.0
  0
LINE
  5
2F2
330
2
100
AcDbEntity
  8
UMRISS05
100
AcDbLine
 10
-1253.345648758092
 20
2789.885255579966
 30
0.0
 11
-1251.931435195719
 21
2791.299469142339
 31
0.0
  0
ARC
  5
2F3
330
2
100
AcDbEntity
  8
UMRISS05
100
AcDbCircle
 10
-1251.224328414532
 20
2744.592362361153
 30
0.0
 40
1.000000000000013
100
AcDbArc
 50
224.9999999999908
 51
270.0
  0
CIRCLE
  5
2F4
330
2
100
AcDbEntity
  8
UMRISS05
100
AcDbCircle
 10
-1255.138541976906
 20
2783.092342684271
 30
0.0
 40
3.999999999999998
  0
CIRCLE
  5
2F5
330
2
100
AcDbEntity
  8
UMRISS05
100
AcDbCircle
 10
-1255.138541976906
 20
2752.092342684271
 30
0.0
 40
3.999999999999998
  0
DIMENSION
  5
2F6
330
2
100
AcDbEntity
  8
BEMASSUNG
100
AcDbDimension
280
     0
  2
*D6
 10
-1306.073364569886
 20
2644.092342684271
 30
0.0
 11
-1311.551573983256
 21
2685.842342684271
 31
0.0
 71
     5
 42
83.50000000000136
 73
     0
 74
     0
 75
     0
  3
Katalog 09$0
100
AcDbAlignedDimension
 13
-1289.048344654096
 23
2727.592342684272
 33
0.0
 14
-1261.138541976907
 24
2644.092342684271
 34
0.0
 50
90.0
100
AcDbRotatedDimension
1001
ACAD_DSTYLE_DIMINSPECT
1070
   396
1000
100%
1070
   395
1000

1070
   394
1070
    33
1070
   393
1070
     0
  0
DIMENSION
  5
303
330
2
100
AcDbEntity
  8
BEMASSUNG
100
AcDbDimension
280
     0
  2
*D5
 10
-1290.001811158808
 20
2691.092342684271
 30
0.0
 11
-1295.480020572178
 21
2709.342342684271
 31
0.0
 71
     5
 42
36.50000000000182
 73
     0
 74
     0
 75
     0
  3
Katalog 09
100
AcDbAlignedDimension
 13
-1290.001811158808
 23
2727.592342684273
 33
0.0
 14
-1261.138541976905
 24
2691.092342684271
 34
0.0
 50
90.0
100
AcDbRotatedDimension
  0
DIMENSION
  5
310
330
2
100
AcDbEntity
  8
BEMASSUNG
100
AcDbDimension
280
     0
  2
*D4
 10
-1290.001811158808
 20
2798.592342684271
 30
0.0
 11
-1290.001811158808
 21
2767.592342684271
 31
0.0
 70
   128
 71
     5
 42
70.99999999999818
 73
     0
 74
     0
 75
     0
  3
Katalog 09$0
100
AcDbAlignedDimension
 13
-1289.048344654096
 23
2727.592342684273
 33
0.0
 14
-1264.535093185259
 24
2798.592342684271
 34
0.0
 50
90.0
100
AcDbRotatedDimension
1001
ACAD_DSTYLE_DIMINSPECT
1070
   396
1000
100%
1070
   395
1000

1070
   394
1070
    33
1070
   393
1070
     0
  0
DIMENSION
  5
31D
330
2
100
AcDbEntity
  8
BEMASSUNG
100
AcDbDimension
280
     0
  2
*D3
 10
-1273.597610635937
 20
2736.592342684271
 30
0.0
 11
-1279.073297880139
 21
2732.092342684272
 31
0.0
 71
     5
 42
8.999999999998181
 73
     0
 74
     0
 75
     0
  3
Katalog 09$0
100
AcDbAlignedDimension
 13
-1271.990704551779
 23
2727.592342684273
 33
0.0
 14
-1264.535093185259
 24
2736.592342684271
 34
0.0
 50
90.0
100
AcDbRotatedDimension
1001
ACAD_DSTYLE_DIMINSPECT
1070
   396
1000
100%
1070
   395
1000

1070
   394
1070
    33
1070
   393
1070
     0
  0
DIMENSION
  5
32C
330
2
100
AcDbEntity
  8
BEMASSUNG
100
AcDbDimension
280
     0
  2
*D2
 10
-1306.073364569886
 20
2865.592342684271
 30
0.0
 11
-1306.073364569886
 21
2796.592342684272
 31
0.0
 70
   128
 71
     5
 42
137.9999999999986
 73
     0
 74
     0
 75
     0
  3
Katalog 09$0
100
AcDbAlignedDimension
 13
-1306.073364569886
 23
2727.592342684272
 33
0.0
 14
-1256.138541976901
 24
2865.592342684271
 34
0.0
 50
90.0
100
AcDbRotatedDimension
1001
ACAD_DSTYLE_DIMINSPECT
1070
   396
1000
100%
1070
   395
1000

1070
   394
1070
    33
1070
   393
1070
     0
  0
LINE
  5
339
330
2
100
AcDbEntity
  8
AVERDECKTE
100
AcDbLine
 10
-1264.535093185259
 20
2736.592342684271
 30
0.0
 11
-1264.535093185259
 21
2798.592342684271
 31
0.0
  0
LINE
  5
33E
330
2
100
AcDbEntity
  8
ACHSEN
 48
0.8
100
AcDbLine
 10
-1262.888541976901
 20
2855.592342684272
 30
0.0
 11
-1249.388541976901
 21
2855.592342684272
 31
0.0
  0
LINE
  5
33F
330
2
100
AcDbEntity
  8
ACHSEN
 48
0.8
100
AcDbLine
 10
-1256.638541976901
 20
2798.27603572511
 30
0.0
 11
-1256.638541976901
 21
2737.112274728961
 31
0.0
  0
LINE
  5
340
330
2
100
AcDbEntity
  8
ACHSEN
 48
0.8
100
AcDbLine
 10
-1256.138541976901
 20
2862.342342684271
 30
0.0
 11
-1256.138541976901
 21
2797.014177236753
 31
0.0
  0
LINE
  5
341
330
2
100
AcDbEntity
  8
AVERDECKTE
100
AcDbLine
 10
-1247.135093185258
 20
2791.592342684272
 30
0.0
 11
-1247.135093185253
 21
2865.592342684271
 31
0.0
  0
ARC
  5
342
330
2
100
AcDbEntity
  8
AVERDECKTE
100
AcDbCircle
 10
-1248.438541976906
 20
2797.092342684271
 30
0.0
 40
1.5
100
AcDbArc
 50
29.66131261668636
 51
90.0
  0
LINE
  5
343
330
2
100
AcDbEntity
  8
AVERDECKTE
100
AcDbLine
 10
-1248.438541976906
 20
2798.592342684271
 30
0.0
 11
-1264.535093185259
 21
2798.592342684271
 31
0.0
  0
ARC
  5
344
330
2
100
AcDbEntity
  8
AVERDECKTE
100
AcDbCircle
 10
-1248.438541976906
 20
2738.092342684271
 30
0.0
 40
1.5
100
AcDbArc
 50
270.0
 51
330.3386873833137
  0
LINE
  5
345
330
2
100
AcDbEntity
  8
AVERDECKTE
100
AcDbLine
 10
-1248.438541976906
 20
2736.592342684271
 30
0.0
 11
-1264.535093185259
 21
2736.592342684271
 31
0.0
  0
LINE
  5
346
330
2
100
AcDbEntity
  8
AVERDECKTE
100
AcDbLine
 10
-1247.135093185263
 20
2545.592342684271
 30
0.0
 11
-1247.135093185258
 21
2743.592342684271
 31
0.0
  0
LINE
  5
347
330
2
100
AcDbEntity
  8
ACHSEN
 48
0.8
100
AcDbLine
 10
-1247.838541976906
 20
2752.092342684271
 30
0.0
 11
-1262.788541976906
 21
2752.092342684271
 31
0.0
  0
LINE
  5
348
330
2
100
AcDbEntity
  8
ACHSEN
 48
0.8
100
AcDbLine
 10
-1262.788541976906
 20
2783.092342684271
 30
0.0
 11
-1247.922435711736
 21
2783.092342684271
 31
0.0
  0
LINE
  5
349
330
2
100
AcDbEntity
  8
ACHSEN
 48
0.8
100
AcDbLine
 10
-1265.157974940019
 20
2767.592342684271
 30
0.0
 11
-1241.952587130707
 21
2767.592342684271
 31
0.0
  0
DIMENSION
  5
34A
330
2
100
AcDbEntity
  8
BEMASSUNG
100
AcDbDimension
280
     0
  2
*D1
 10
-1266.13854197691
 20
2494.037139841602
 30
0.0
 11
-1255.63854197691
 21
2499.449772856609
 31
0.0
 71
     5
 42
21.0
 73
     0
 74
     0
 75
     0
  3
Katalog 09
100
AcDbAlignedDimension
 13
-1245.13854197691
 23
2545.592342684271
 33
0.0
 14
-1266.13854197691
 24
2555.592342684272
 34
0.0
100
AcDbRotatedDimension
  0
LINE
  5
357
330
2
100
AcDbEntity
  8
UMRISS05
100
AcDbLine
 10
-1254.638541976901
 20
2741.042342684271
 30
0.0
 11
-1256.338541976901
 21
2741.042342684271
 31
0.0
  0
LINE
  5
358
330
2
100
AcDbEntity
  8
UMRISS05
100
AcDbLine
 10
-1258.638541976901
 20
2741.042342684272
 30
0.0
 11
-1258.638541976901
 21
2741.642342684273
 31
0.0
  0
LINE
  5
359
330
2
100
AcDbEntity
  8
UMRISS05
100
AcDbLine
 10
-1256.338541976901
 20
2741.642342684273
 30
0.0
 11
-1254.638541976901
 21
2741.642342684273
 31
0.0
  0
LINE
  5
35A
330
2
100
AcDbEntity
  8
UMRISS05
100
AcDbLine
 10
-1254.638541976901
 20
2741.642342684273
 30
0.0
 11
-1254.638541976901
 21
2741.042342684271
 31
0.0
  0
LINE
  5
35B
330
2
100
AcDbEntity
  8
UMRISS05
100
AcDbLine
 10
-1256.938541976901
 20
2741.042342684271
 30
0.0
 11
-1258.638541976901
 21
2741.042342684272
 31
0.0
  0
LINE
  5
35C
330
2
100
AcDbEntity
  8
UMRISS05
100
AcDbLine
 10
-1258.638541976901
 20
2741.642342684273
 30
0.0
 11
-1256.938541976901
 21
2741.642342684273
 31
0.0
  0
LINE
  5
35D
330
2
100
AcDbEntity
  8
UMRISS05
100
AcDbLine
 10
-1256.338541976901
 20
2739.342342684271
 30
0.0
 11
-1256.938541976901
 21
2739.342342684271
 31
0.0
  0
LINE
  5
35E
330
2
100
AcDbEntity
  8
UMRISS05
100
AcDbLine
 10
-1256.938541976901
 20
2741.642342684273
 30
0.0
 11
-1256.938541976901
 21
2743.342342684272
 31
0.0
  0
LINE
  5
35F
330
2
100
AcDbEntity
  8
UMRISS05
100
AcDbLine
 10
-1256.938541976905
 20
2743.342342684272
 30
0.0
 11
-1256.338541976905
 21
2743.342342684272
 31
0.0
  0
LINE
  5
360
330
2
100
AcDbEntity
  8
UMRISS05
100
AcDbLine
 10
-1256.938541976901
 20
2739.342342684271
 30
0.0
 11
-1256.938541976901
 21
2741.042342684271
 31
0.0
  0
LINE
  5
361
330
2
100
AcDbEntity
  8
UMRISS05
100
AcDbLine
 10
-1256.338541976901
 20
2743.342342684272
 30
0.0
 11
-1256.338541976901
 21
2741.642342684273
 31
0.0
  0
LINE
  5
362
330
2
100
AcDbEntity
  8
UMRISS05
100
AcDbLine
 10
-1256.338541976901
 20
2741.042342684271
 30
0.0
 11
-1256.338541976901
 21
2739.342342684271
 31
0.0
  0
LINE
  5
363
330
2
100
AcDbEntity
  8
UMRISS05
100
AcDbLine
 10
-1254.638541976901
 20
2793.542342684271
 30
0.0
 11
-1256.338541976901
 21
2793.542342684271
 31
0.0
  0
LINE
  5
364
330
2
100
AcDbEntity
  8
UMRISS05
100
AcDbLine
 10
-1258.638541976901
 20
2793.542342684272
 30
0.0
 11
-1258.638541976901
 21
2794.142342684271
 31
0.0
  0
LINE
  5
365
330
2
100
AcDbEntity
  8
UMRISS05
100
AcDbLine
 10
-1256.338541976901
 20
2794.142342684271
 30
0.0
 11
-1254.638541976901
 21
2794.142342684271
 31
0.0
  0
LINE
  5
366
330
2
100
AcDbEntity
  8
UMRISS05
100
AcDbLine
 10
-1254.638541976901
 20
2794.142342684271
 30
0.0
 11
-1254.638541976901
 21
2793.542342684271
 31
0.0
  0
LINE
  5
367
330
2
100
AcDbEntity
  8
UMRISS05
100
AcDbLine
 10
-1256.938541976901
 20
2793.542342684271
 30
0.0
 11
-1258.638541976901
 21
2793.542342684272
 31
0.0
  0
LINE
  5
368
330
2
100
AcDbEntity
  8
UMRISS05
100
AcDbLine
 10
-1258.638541976901
 20
2794.142342684271
 30
0.0
 11
-1256.938541976901
 21
2794.142342684271
 31
0.0
  0
LINE
  5
369
330
2
100
AcDbEntity
  8
UMRISS05
100
AcDbLine
 10
-1256.338541976901
 20
2791.842342684271
 30
0.0
 11
-1256.938541976901
 21
2791.842342684271
 31
0.0
  0
LINE
  5
36A
330
2
100
AcDbEntity
  8
UMRISS05
100
AcDbLine
 10
-1256.938541976901
 20
2794.142342684271
 30
0.0
 11
-1256.938541976901
 21
2795.842342684271
 31
0.0
  0
LINE
  5
36B
330
2
100
AcDbEntity
  8
UMRISS05
100
AcDbLine
 10
-1256.938541976901
 20
2795.842342684271
 30
0.0
 11
-1256.338541976901
 21
2795.842342684271
 31
0.0
  0
LINE
  5
36C
330
2
100
AcDbEntity
  8
UMRISS05
100
AcDbLine
 10
-1256.938541976901
 20
2791.842342684271
 30
0.0
 11
-1256.938541976901
 21
2793.542342684271
 31
0.0
  0
LINE
  5
36D
330
2
100
AcDbEntity
  8
UMRISS05
100
AcDbLine
 10
-1256.338541976901
 20
2795.842342684271
 30
0.0
 11
-1256.338541976901
 21
2794.142342684271
 31
0.0
  0
LINE
  5
36E
330
2
100
AcDbEntity
  8
UMRISS05
100
AcDbLine
 10
-1256.338541976901
 20
2793.542342684271
 30
0.0
 11
-1256.338541976901
 21
2791.842342684271
 31
0.0
  0
LINE
  5
36F
330
2
100
AcDbEntity
  8
UMRISS05
100
AcDbLine
 10
-1257.138541976906
 20
2752.392342684272
 30
0.0
 11
-1255.438541976906
 21
2752.392342684272
 31
0.0
  0
LINE
  5
370
330
2
100
AcDbEntity
  8
UMRISS05
100
AcDbLine
 10
-1253.138541976906
 20
2752.392342684272
 30
0.0
 11
-1253.138541976906
 21
2751.792342684271
 31
0.0
  0
LINE
  5
371
330
2
100
AcDbEntity
  8
UMRISS05
100
AcDbLine
 10
-1255.438541976906
 20
2751.792342684271
 30
0.0
 11
-1257.138541976906
 21
2751.792342684271
 31
0.0
  0
LINE
  5
372
330
2
100
AcDbEntity
  8
UMRISS05
100
AcDbLine
 10
-1257.138541976906
 20
2751.792342684271
 30
0.0
 11
-1257.138541976906
 21
2752.392342684272
 31
0.0
  0
LINE
  5
373
330
2
100
AcDbEntity
  8
UMRISS05
100
AcDbLine
 10
-1254.838541976905
 20
2752.392342684272
 30
0.0
 11
-1253.138541976906
 21
2752.392342684272
 31
0.0
  0
LINE
  5
374
330
2
100
AcDbEntity
  8
UMRISS05
100
AcDbLine
 10
-1253.138541976906
 20
2751.792342684271
 30
0.0
 11
-1254.838541976905
 21
2751.792342684271
 31
0.0
  0
LINE
  5
375
330
2
100
AcDbEntity
  8
UMRISS05
100
AcDbLine
 10
-1255.438541976906
 20
2754.092342684271
 30
0.0
 11
-1254.838541976905
 21
2754.092342684271
 31
0.0
  0
LINE
  5
376
330
2
100
AcDbEntity
  8
UMRISS05
100
AcDbLine
 10
-1254.838541976905
 20
2751.792342684271
 30
0.0
 11
-1254.838541976905
 21
2750.092342684271
 31
0.0
  0
LINE
  5
377
330
2
100
AcDbEntity
  8
UMRISS05
100
AcDbLine
 10
-1254.838541976905
 20
2750.092342684271
 30
0.0
 11
-1255.438541976906
 21
2750.092342684271
 31
0.0
  0
LINE
  5
378
330
2
100
AcDbEntity
  8
UMRISS05
100
AcDbLine
 10
-1254.838541976905
 20
2754.092342684271
 30
0.0
 11
-1254.838541976905
 21
2752.392342684272
 31
0.0
  0
LINE
  5
379
330
2
100
AcDbEntity
  8
UMRISS05
100
AcDbLine
 10
-1255.438541976906
 20
2750.092342684271
 30
0.0
 11
-1255.438541976906
 21
2751.792342684271
 31
0.0
  0
LINE
  5
37A
330
2
100
AcDbEntity
  8
UMRISS05
100
AcDbLine
 10
-1255.438541976906
 20
2752.392342684272
 30
0.0
 11
-1255.438541976906
 21
2754.092342684271
 31
0.0
  0
LINE
  5
37B
330
2
100
AcDbEntity
  8
UMRISS05
100
AcDbLine
 10
-1253.187045966303
 20
2782.561623059045
 30
0.0
 11
-1254.875494241344
 21
2782.759467499231
 31
0.0
  0
LINE
  5
37C
330
2
100
AcDbEntity
  8
UMRISS05
100
AcDbLine
 10
-1257.159865436986
 20
2783.027139388896
 30
0.0
 11
-1257.090037987508
 21
2783.623062309498
 31
0.0
  0
LINE
  5
37D
330
2
100
AcDbEntity
  8
UMRISS05
100
AcDbLine
 10
-1254.805666791866
 20
2783.355390419833
 30
0.0
 11
-1253.117218516825
 21
2783.157545979647
 31
0.0
  0
LINE
  5
37E
330
2
100
AcDbEntity
  8
UMRISS05
100
AcDbLine
 10
-1253.117218516825
 20
2783.157545979647
 30
0.0
 11
-1253.187045966303
 21
2782.561623059045
 31
0.0
  0
LINE
  5
37F
330
2
100
AcDbEntity
  8
UMRISS05
100
AcDbLine
 10
-1255.471417161946
 20
2782.829294948709
 30
0.0
 11
-1257.159865436986
 21
2783.027139388896
 31
0.0
  0
LINE
  5
380
330
2
100
AcDbEntity
  8
UMRISS05
100
AcDbLine
 10
-1257.090037987508
 20
2783.623062309498
 30
0.0
 11
-1255.401589712468
 21
2783.425217869312
 31
0.0
  0
LINE
  5
381
330
2
100
AcDbEntity
  8
UMRISS05
100
AcDbLine
 10
-1255.07333868153
 20
2781.071019224191
 30
0.0
 11
-1255.669261602132
 21
2781.140846673669
 31
0.0
  0
LINE
  5
382
330
2
100
AcDbEntity
  8
UMRISS05
100
AcDbLine
 10
-1255.401589712468
 20
2783.425217869312
 30
0.0
 11
-1255.203745272281
 21
2785.113666144352
 31
0.0
  0
LINE
  5
383
330
2
100
AcDbEntity
  8
UMRISS05
100
AcDbLine
 10
-1255.203745272281
 20
2785.113666144352
 30
0.0
 11
-1254.607822351679
 21
2785.043838694874
 31
0.0
  0
LINE
  5
384
330
2
100
AcDbEntity
  8
UMRISS05
100
AcDbLine
 10
-1255.669261602132
 20
2781.140846673669
 30
0.0
 11
-1255.471417161946
 21
2782.829294948709
 31
0.0
  0
LINE
  5
385
330
2
100
AcDbEntity
  8
UMRISS05
100
AcDbLine
 10
-1254.607822351679
 20
2785.043838694874
 30
0.0
 11
-1254.805666791866
 21
2783.355390419833
 31
0.0
  0
LINE
  5
386
330
2
100
AcDbEntity
  8
UMRISS05
100
AcDbLine
 10
-1254.875494241344
 20
2782.759467499231
 30
0.0
 11
-1255.07333868153
 21
2781.071019224191
 31
0.0
  0
LINE
  5
387
330
2
100
AcDbEntity
  8
UMRISS05
100
AcDbLine
 10
-1255.138541976906
 20
2787.092342684272
 30
0.0
 11
-1258.538541976906
 21
2787.092342684272
 31
0.0
  0
ARC
  5
388
330
2
100
AcDbEntity
  8
UMRISS05
100
AcDbCircle
 10
-1258.538541976906
 20
2783.092342684271
 30
0.0
 40
3.99999999999999
100
AcDbArc
 50
90.0
 51
270.0
  0
LINE
  5
389
330
2
100
AcDbEntity
  8
UMRISS05
100
AcDbLine
 10
-1258.538541976906
 20
2779.092342684272
 30
0.0
 11
-1255.138541976906
 21
2779.092342684272
 31
0.0
  0
LINE
  5
38A
330
2
100
AcDbEntity
  8
UMRISS05
100
AcDbLine
 10
-1255.138541976906
 20
2756.092342684271
 30
0.0
 11
-1258.538541976906
 21
2756.092342684271
 31
0.0
  0
ARC
  5
38B
330
2
100
AcDbEntity
  8
UMRISS05
100
AcDbCircle
 10
-1258.538541976906
 20
2752.092342684271
 30
0.0
 40
3.99999999999999
100
AcDbArc
 50
90.0
 51
270.0
  0
LINE
  5
38C
330
2
100
AcDbEntity
  8
UMRISS05
100
AcDbLine
 10
-1258.538541976906
 20
2748.092342684271
 30
0.0
 11
-1255.138541976906
 21
2748.092342684271
 31
0.0
  0
ARC
  5
38D
330
2
100
AcDbEntity
  8
UMRISS05
100
AcDbCircle
 10
-1258.538541976906
 20
2752.092342684271
 30
0.0
 40
2.149999999999994
100
AcDbArc
 50
89.28476393023236
 51
270.7152360697676
  0
ARC
  5
38E
330
2
100
AcDbEntity
  8
UMRISS05
100
AcDbCircle
 10
-1258.538541976906
 20
2783.092342684271
 30
0.0
 40
2.149999999999994
100
AcDbArc
 50
89.28476393023236
 51
270.0
  0
LINE
  5
38F
330
2
100
AcDbEntity
  8
UMRISS05
100
AcDbLine
 10
-1246.888541976906
 20
2744.642342684271
 30
0.0
 11
-1246.888541976906
 21
2790.542342684272
 31
0.0
  0
LINE
  5
390
330
2
100
AcDbEntity
  8
UMRISS05
100
AcDbLine
 10
-1252.688542014532
 20
2790.542342684272
 30
0.0
 11
-1246.888541976906
 21
2790.542342684272
 31
0.0
  0
LINE
  5
391
330
2
100
AcDbEntity
  8
UMRISS05
100
AcDbLine
 10
-1246.888541976906
 20
2744.642342684271
 30
0.0
 11
-1252.688542014532
 21
2744.642342684271
 31
0.0
  0
LINE
  5
392
330
2
100
AcDbEntity
  8
UMRISS05
100
AcDbLine
 10
-1251.138541976906
 20
2790.542342684272
 30
0.0
 11
-1251.138541976906
 21
2744.642342684271
 31
0.0
  0
LINE
  5
393
330
2
100
AcDbEntity
  8
UMRISS05
100
AcDbLine
 10
-1247.135093185258
 20
2744.642342684271
 30
0.0
 11
-1247.135093185258
 21
2743.592342684271
 31
0.0
  0
LINE
  5
394
330
2
100
AcDbEntity
  8
UMRISS05
100
AcDbLine
 10
-1247.135093185258
 20
2791.592342684272
 30
0.0
 11
-1247.135093185258
 21
2790.542342684272
 31
0.0
  0
LINE
  5
395
330
2
100
AcDbEntity
  8
UMRISS05
100
AcDbLine
 10
-1245.138541976909
 20
2545.592342684271
 30
0.0
 11
-1245.1385419769
 21
2865.592342684271
 31
0.0
  0
LINE
  5
396
330
2
100
AcDbEntity
  8
UMRISS05
100
AcDbLine
 10
-1245.138541976905
 20
2791.592342684272
 30
0.0
 11
-1251.224328452159
 21
2791.592342684272
 31
0.0
  0
LINE
  5
397
330
2
100
AcDbEntity
  8
UMRISS05
100
AcDbLine
 10
-1266.13854197691
 20
2555.592342684272
 30
0.0
 11
-1266.138541976901
 21
2855.592342684272
 31
0.0
  0
LINE
  5
398
330
2
100
AcDbEntity
  8
UMRISS05
100
AcDbLine
 10
-1256.138541976901
 20
2865.592342684271
 30
0.0
 11
-1245.1385419769
 21
2865.592342684271
 31
0.0
  0
ARC
  5
399
330
2
100
AcDbEntity
  8
UMRISS05
100
AcDbCircle
 10
-1251.224328452159
 20
2790.592342684272
 30
0.0
 40
1.000000000000015
100
AcDbArc
 50
90.0
 51
135.0000000000092
  0
LINE
  5
39A
330
2
100
AcDbEntity
  8
UMRISS05
100
AcDbLine
 10
-1253.345648795719
 20
2789.885235903085
 30
0.0
 11
-1251.931435233346
 21
2791.299449465458
 31
0.0
  0
ARC
  5
39B
330
2
100
AcDbEntity
  8
UMRISS05
100
AcDbCircle
 10
-1254.052755576906
 20
2790.592342684272
 30
0.0
 40
1.000000000000012
100
AcDbArc
 50
270.0
 51
315.0000000000092
  0
LINE
  5
39C
330
2
100
AcDbEntity
  8
UMRISS05
100
AcDbLine
 10
-1261.638541976906
 20
2789.592342684271
 30
0.0
 11
-1254.052755576906
 21
2789.592342684271
 31
0.0
  0
ARC
  5
39D
330
2
100
AcDbEntity
  8
UMRISS05
100
AcDbCircle
 10
-1261.638541976906
 20
2788.592342684271
 30
0.0
 40
0.9999999999999975
100
AcDbArc
 50
90.0
 51
180.0
  0
LINE
  5
39E
330
2
100
AcDbEntity
  8
UMRISS05
100
AcDbLine
 10
-1262.638541976905
 20
2746.592342684271
 30
0.0
 11
-1262.638541976905
 21
2788.592342684271
 31
0.0
  0
ARC
  5
39F
330
2
100
AcDbEntity
  8
UMRISS05
100
AcDbCircle
 10
-1261.638541976906
 20
2746.592342684271
 30
0.0
 40
0.9999999999999964
100
AcDbArc
 50
180.0
 51
270.0
  0
LINE
  5
3A0
330
2
100
AcDbEntity
  8
UMRISS05
100
AcDbLine
 10
-1254.052755576906
 20
2745.592342684271
 30
0.0
 11
-1261.638541976906
 21
2745.592342684271
 31
0.0
  0
ARC
  5
3A1
330
2
100
AcDbEntity
  8
UMRISS05
100
AcDbCircle
 10
-1254.052755576906
 20
2744.592342684271
 30
0.0
 40
1.000000000000105
100
AcDbArc
 50
44.99999999999078
 51
89.99999999997395
  0
LINE
  5
3A2
330
2
100
AcDbEntity
  8
UMRISS05
100
AcDbLine
 10
-1251.931435233346
 20
2743.885235903085
 30
0.0
 11
-1253.345648795719
 21
2745.299449465458
 31
0.0
  0
ARC
  5
3A3
330
2
100
AcDbEntity
  8
UMRISS05
100
AcDbCircle
 10
-1251.224328452159
 20
2744.592342684271
 30
0.0
 40
0.9999999999998188
100
AcDbArc
 50
224.9999999999908
 51
270.0
  0
LINE
  5
3A4
330
2
100
AcDbEntity
  8
UMRISS05
100
AcDbLine
 10
-1245.138541976905
 20
2743.592342684271
 30
0.0
 11
-1251.224328452159
 21
2743.592342684271
 31
0.0
  0
CIRCLE
  5
3A5
330
2
100
AcDbEntity
  8
UMRISS05
100
AcDbCircle
 10
-1256.138541976901
 20
2855.592342684272
 30
0.0
 40
2.75
  0
CIRCLE
  5
3A6
330
2
100
AcDbEntity
  8
UMRISS05
100
AcDbCircle
 10
-1256.138541976901
 20
2855.592342684272
 30
0.0
 40
4.75
  0
CIRCLE
  5
3A7
330
2
100
AcDbEntity
  8
UMRISS05
100
AcDbCircle
 10
-1256.638541976901
 20
2741.342342684272
 30
0.0
 40
3.999999999999998
  0
CIRCLE
  5
3A8
330
2
100
AcDbEntity
  8
UMRISS05
100
AcDbCircle
 10
-1256.638541976901
 20
2793.842342684272
 30
0.0
 40
3.999999999999998
  0
ARC
  5
3A9
330
2
100
AcDbEntity
  8
UMRISS05
100
AcDbCircle
 10
-1256.138541976901
 20
2855.592342684272
 30
0.0
 40
10.0
100
AcDbArc
 50
90.0
 51
180.0
  0
LINE
  5
3AA
330
2
100
AcDbEntity
  8
ACHSEN
 48
2.0
100
AcDbLine
 10
-1048.521312967416
 20
2727.592342684271
 30
0.0
 11
-1289.048344654096
 21
2727.592342684271
 31
0.0
  0
ENDSEC
  0
SECTION
  2
OBJECTS
  0
DICTIONARY
  5
9
330
0
100
AcDbDictionary
281
     1
  3
ACAD_COLOR
350
4B
  3
ACAD_DETAILVIEWSTYLE
350
3CF
  3
ACAD_FIELDLIST
350
400
  3
ACAD_GROUP
350
38
  3
ACAD_LAYOUT
350
8
  3
ACAD_MATERIAL
350
15
  3
ACAD_MLEADERSTYLE
350
4E
  3
ACAD_MLINESTYLE
350
39
  3
ACAD_PLOTSETTINGS
350
3A
  3
ACAD_PLOTSTYLENAME
350
13
  3
ACAD_SCALELIST
350
4C
  3
ACAD_SECTIONVIEWSTYLE
350
3E4
  3
ACAD_TABLESTYLE
350
4D
  3
ACAD_VISUALSTYLE
350
2C
  3
ACDB_RECOMPOSE_DATA
350
439
  3
AcDbVariableDictionary
350
429
  3
AcmDictionary
350
3BE
  3
AMG
350
3AD
  0
DICTIONARY
  5
1E
330
E
100
AcDbDictionary
280
     1
281
     1
  3
ACAD_LAYERSTATES
360
1F
  3
AMLAYER_GROUPCOLORS
360
20
  0
DICTIONARY
  5
10
330
F
100
AcDbDictionary
280
     1
281
     1
  3
ADSK_XREC_LAYER_RECONCILED
360
11
  0
DICTIONARY
  5
50
330
4F
100
AcDbDictionary
280
     1
281
     1
  3
ADSK_XREC_LAYER_RECONCILED
360
51
  0
DICTIONARY
  5
3D9
330
3D8
100
AcDbDictionary
280
     1
281
     1
  3
ADSK_XREC_LAYER_RECONCILED
360
3DA
  0
DICTIONARY
  5
70
330
6F
100
AcDbDictionary
280
     1
281
     1
  3
ADSK_XREC_LAYER_RECONCILED
360
71
  0
DICTIONARY
  5
FA
330
F9
100
AcDbDictionary
280
     1
281
     1
  3
ADSK_XREC_LAYER_RECONCILED
360
FB
  0
DICTIONARY
  5
33B
330
33A
100
AcDbDictionary
280
     1
281
     1
  3
ADSK_XREC_LAYER_RECONCILED
360
33C
  0
DICTIONARY
  5
3
330
2
100
AcDbDictionary
280
     1
281
     1
  3
ACAD_SORTENTS
360
3AB
  0
DICTIONARY
  5
4B
102
{ACAD_REACTORS
330
9
102
}
330
9
100
AcDbDictionary
281
     1
  0
DICTIONARY
  5
3CF
102
{ACAD_REACTORS
330
9
102
}
330
9
100
AcDbDictionary
281
     1
  3
Imperial24
350
3E0
  3
Metric50
350
3DD
  0
FIELDLIST
  5
400
102
{ACAD_REACTORS
330
9
102
}
330
9
100
AcDbIdSet
 90
        6
330
3D2
330
3D3
330
3D4
330
3E7
330
3E8
330
3E9
100
AcDbFieldList
  0
DICTIONARY
  5
38
102
{ACAD_REACTORS
330
9
102
}
330
9
100
AcDbDictionary
281
     1
  0
DICTIONARY
  5
8
102
{ACAD_REACTORS
330
9
102
}
330
9
100
AcDbDictionary
281
     1
  3
Layout1
350
D
  3
Model
350
7
  0
DICTIONARY
  5
15
102
{ACAD_REACTORS
330
9
102
}
330
9
100
AcDbDictionary
281
     1
  3
ByBlock
350
43
  3
ByLayer
350
3B
  3
Global
350
14
  0
DICTIONARY
  5
4E
102
{ACAD_REACTORS
330
9
102
}
330
9
100
AcDbDictionary
281
     1
  3
Standard
350
15F
  0
DICTIONARY
  5
39
102
{ACAD_REACTORS
330
9
102
}
330
9
100
AcDbDictionary
281
     1
  3
STANDARD
350
53
  0
DICTIONARY
  5
3A
102
{ACAD_REACTORS
330
9
102
}
330
9
100
AcDbDictionary
281
     1
  0
ACDBDICTIONARYWDFLT
  5
13
102
{ACAD_REACTORS
330
9
102
}
330
9
100
AcDbDictionary
281
     1
  3
Normal
350
12
100
AcDbDictionaryWithDefault
340
12
  0
DICTIONARY
  5
4C
102
{ACAD_REACTORS
330
9
102
}
330
9
100
AcDbDictionary
281
     1
  3
A0
350
58
  3
A1
350
59
  3
A2
350
5A
  3
A3
350
5B
  3
A4
350
5C
  3
A5
350
5D
  3
A6
350
5E
  3
A7
350
5F
  3
A8
350
60
  3
A9
350
61
  3
B0
350
62
  3
B1
350
63
  3
B2
350
64
  3
B3
350
65
  3
B4
350
66
  3
B5
350
67
  3
B6
350
68
  0
DICTIONARY
  5
3E4
102
{ACAD_REACTORS
330
9
102
}
330
9
100
AcDbDictionary
281
     1
  3
Imperial24
350
3EF
  3
Metric50
350
3EC
  0
DICTIONARY
  5
4D
102
{ACAD_REACTORS
330
9
102
}
330
9
100
AcDbDictionary
281
     1
  3
Standard
350
54
  0
DICTIONARY
  5
2C
102
{ACAD_REACTORS
330
9
102
}
330
9
100
AcDbDictionary
281
     1
  3
2dWireframe
350
2B
  3
Realistic
350
56
  3
Wireframe
350
57
  0
XRECORD
  5
439
102
{ACAD_REACTORS
330
9
102
}
330
9
100
AcDbXrecord
280
     1
 90
        1
330
54
330
3DD
330
3E0
330
3EC
330
3EF
  0
DICTIONARY
  5
429
102
{ACAD_REACTORS
330
9
102
}
330
9
100
AcDbDictionary
281
     1
  3
CANNOSCALE
350
42F
  3
CMLEADERSTYLE
350
42B
  3
CTABLESTYLE
350
42A
  3
CVIEWDETAILSTYLE
350
42C
  3
CVIEWSECTIONSTYLE
350
42D
  3
LAYEREVAL
350
431
  3
LAYERNOTIFY
350
432
  3
LIGHTINGUNITS
350
430
  3
MSLTSCALE
350
42E
  0
DICTIONARY
  5
3BE
102
{ACAD_REACTORS
330
9
102
}
330
9
100
AcDbDictionary
281
     1
  3
AcmStdDictionary
350
3BF
  0
DICTIONARY
  5
3AD
102
{ACAD_REACTORS
330
9
102
}
330
9
100
AcDbDictionary
281
     1
  3
AcMgSettings
350
3B7
  3
AMGLAYCFG
350
3AC
  0
DICTIONARY
  5
1F
102
{ACAD_REACTORS
330
1E
102
}
330
1E
100
AcDbDictionary
281
     1
  0
DICTIONARY
  5
20
102
{ACAD_REACTORS
330
1E
102
}
330
1E
100
AcDbDictionary
280
     1
281
     1
  0
XRECORD
  5
11
102
{ACAD_REACTORS
330
10
102
}
330
10
100
AcDbXrecord
280
     1
290
     1
  0
XRECORD
  5
51
102
{ACAD_REACTORS
330
50
102
}
330
50
100
AcDbXrecord
280
     1
290
     1
  0
XRECORD
  5
3DA
102
{ACAD_REACTORS
330
3D9
102
}
330
3D9
100
AcDbXrecord
280
     1
290
     1
  0
XRECORD
  5
71
102
{ACAD_REACTORS
330
70
102
}
330
70
100
AcDbXrecord
280
     1
290
     1
  0
XRECORD
  5
FB
102
{ACAD_REACTORS
330
FA
102
}
330
FA
100
AcDbXrecord
280
     1
290
     1
  0
XRECORD
  5
33C
102
{ACAD_REACTORS
330
33B
102
}
330
33B
100
AcDbXrecord
280
     1
290
     1
  0
SORTENTSTABLE
  5
3AB
102
{ACAD_REACTORS
330
3
102
}
330
3
100
AcDbSortentsTable
330
2
331
21E
  5
299
331
385
  5
AE
331
381
  5
B2
331
21A
  5
2A9
331
255
  5
262
331
37D
  5
B6
331
19C
  5
2C2
331
216
  5
2AD
331
212
  5
2B1
331
294
  5
223
331
251
  5
266
331
379
  5
BA
331
198
  5
2C6
331
290
  5
227
331
2CF
  5
14F
331
2CB
  5
161
331
345
  5
F1
331
28C
  5
22B
331
341
  5
F5
331
288
  5
22F
331
6C
  5
3A7
331
A5
  5
38E
331
E4
  5
35E
331
15E
  5
2CD
331
A1
  5
392
331
9D
  5
396
331
113
  5
2E7
331
99
  5
39A
331
20E
  5
2B5
331
24D
  5
26A
331
375
  5
BE
331
371
  5
C2
331
249
  5
26E
331
245
  5
272
331
2C7
  5
197
331
36D
  5
C6
331
241
  5
276
331
284
  5
233
331
2C3
  5
19B
331
369
  5
CA
331
3A8
  5
6B
331
339
  5
FD
331
280
  5
237
331
2BF
  5
1AB
331
2F6
  5
104
331
27C
  5
23B
331
2BB
  5
1E1
331
2F2
  5
108
331
278
  5
23F
331
95
  5
39E
331
10F
  5
2EB
331
D0
  5
363
331
10B
  5
2EF
331
107
  5
2F3
331
CC
  5
367
331
C8
  5
36B
331
103
  5
303
331
142
  5
2D0
331
1C7
  5
2BD
331
3A4
  5
81
331
1FE
  5
2B9
331
23D
  5
27A
331
365
  5
CE
331
361
  5
D2
331
3A0
  5
93
331
239
  5
27E
331
235
  5
282
331
2B7
  5
20C
331
35D
  5
E5
331
39C
  5
97
331
231
  5
286
331
274
  5
243
331
2B3
  5
210
331
2EE
  5
10C
331
359
  5
E9
331
398
  5
9B
331
270
  5
247
331
2AF
  5
214
331
2EA
  5
110
331
2E6
  5
114
331
26C
  5
24B
331
2AB
  5
218
331
2E2
  5
130
331
268
  5
24F
331
C4
  5
36F
331
13E
  5
2D4
331
13A
  5
2D8
331
81
  5
3A4
331
C0
  5
373
331
F7
  5
33F
331
136
  5
2DC
331
BC
  5
377
331
B8
  5
37B
331
F3
  5
343
331
132
  5
2E0
331
394
  5
9F
331
22D
  5
28A
331
390
  5
A3
331
229
  5
28E
331
225
  5
292
331
2A7
  5
21C
331
38C
  5
A7
331
1AB
  5
2BF
331
264
  5
253
331
221
  5
296
331
349
  5
ED
331
2DE
  5
134
331
31D
  5
101
331
388
  5
AB
331
260
  5
257
331
2DA
  5
138
331
25C
  5
25B
331
2D6
  5
13C
331
2D2
  5
140
331
258
  5
25F
331
B4
  5
37F
331
12E
  5
2E4
331
B0
  5
383
331
EF
  5
347
331
EB
  5
357
331
AC
  5
387
331
A8
  5
38B
331
161
  5
2CB
331
384
  5
AF
331
21D
  5
29A
331
380
  5
B3
331
219
  5
2AA
331
215
  5
2AE
331
297
  5
220
331
254
  5
263
331
37C
  5
B7
331
19B
  5
2C3
331
211
  5
2B2
331
293
  5
224
331
250
  5
267
331
378
  5
BB
331
28F
  5
228
331
2CE
  5
15D
331
2CA
  5
16E
331
344
  5
F2
331
28B
  5
22C
331
340
  5
F6
331
E7
  5
35B
331
6B
  5
3A8
331
15D
  5
2CE
331
A4
  5
38F
331
A0
  5
393
331
9C
  5
397
331
98
  5
39B
331
112
  5
2E8
331
197
  5
2C7
331
20D
  5
2B6
331
24C
  5
26B
331
374
  5
BF
331
248
  5
26F
331
370
  5
C3
331
244
  5
273
331
287
  5
230
331
2C6
  5
198
331
36C
  5
C7
331
240
  5
277
331
283
  5
234
331
2C2
  5
19C
331
368
  5
CB
331
27F
  5
238
331
2BE
  5
1B8
331
2BA
  5
1EF
331
2F5
  5
105
331
27B
  5
23C
331
2F1
  5
109
331
94
  5
39F
331
D3
  5
360
331
10E
  5
2EC
331
CF
  5
364
331
10A
  5
2F0
331
CB
  5
368
331
106
  5
2F4
331
102
  5
310
331
141
  5
2D1
331
3A7
  5
6C
331
3A3
  5
8E
331
23C
  5
27B
331
364
  5
CF
331
360
  5
D3
331
39F
  5
94
331
238
  5
27F
331
17B
  5
2C9
331
234
  5
283
331
2B6
  5
20D
331
35C
  5
E6
331
39B
  5
98
331
277
  5
240
331
230
  5
287
331
273
  5
244
331
2B2
  5
211
331
358
  5
EA
331
2ED
  5
10D
331
32C
  5
FE
331
26F
  5
248
331
2AE
  5
215
331
2E9
  5
111
331
2E5
  5
121
331
26B
  5
24C
331
2AA
  5
219
331
2E1
  5
131
331
C7
  5
36C
331
C3
  5
370
331
FE
  5
32C
331
13D
  5
2D5
331
139
  5
2D9
331
BF
  5
374
331
F6
  5
340
331
135
  5
2DD
331
BB
  5
378
331
F2
  5
344
331
131
  5
2E1
331
397
  5
9C
331
393
  5
A0
331
22C
  5
28B
331
38F
  5
A4
331
228
  5
28F
331
224
  5
293
331
38B
  5
A8
331
267
  5
250
331
1E1
  5
2BB
331
263
  5
254
331
220
  5
297
331
2DD
  5
135
331
348
  5
EE
331
25F
  5
258
331
2D9
  5
139
331
2D5
  5
13D
331
25B
  5
25C
331
29A
  5
21D
331
2D1
  5
141
331
310
  5
102
331
B7
  5
37C
331
B3
  5
380
331
AF
  5
384
331
EE
  5
348
331
EA
  5
358
331
AB
  5
388
331
121
  5
2E5
331
160
  5
2CC
331
387
  5
AC
331
383
  5
B0
331
21C
  5
2A7
331
257
  5
260
331
37F
  5
B4
331
19E
  5
2C0
331
218
  5
2AB
331
214
  5
2AF
331
296
  5
221
331
253
  5
264
331
37B
  5
B8
331
19A
  5
2C4
331
210
  5
2B3
331
292
  5
225
331
347
  5
EF
331
28E
  5
229
331
2CD
  5
15E
331
2C9
  5
17B
331
343
  5
F3
331
28A
  5
22D
331
6E
  5
3A5
331
A7
  5
38C
331
E6
  5
35C
331
6A
  5
3A9
331
A3
  5
390
331
E2
  5
35F
331
9F
  5
394
331
9B
  5
398
331
111
  5
2E9
331
24F
  5
268
331
377
  5
BC
331
196
  5
2C8
331
373
  5
C0
331
20C
  5
2B7
331
24B
  5
26C
331
247
  5
270
331
36F
  5
C4
331
243
  5
274
331
286
  5
231
331
2C5
  5
199
331
36B
  5
C8
331
3AA
  5
69
331
33F
  5
F7
331
282
  5
235
331
2C1
  5
19D
331
27E
  5
239
331
2BD
  5
1C7
331
2B9
  5
1FE
331
2F4
  5
106
331
27A
  5
23D
331
2F0
  5
10A
331
97
  5
39C
331
93
  5
3A0
331
D2
  5
361
331
10D
  5
2ED
331
8F
  5
3A2
331
CE
  5
365
331
109
  5
2F1
331
CA
  5
369
331
105
  5
2F5
331
101
  5
31D
331
140
  5
2D2
331
3A6
  5
6D
331
23F
  5
278
331
367
  5
CC
331
3A2
  5
8F
331
23B
  5
27C
331
363
  5
D0
331
237
  5
280
331
35F
  5
E2
331
39E
  5
95
331
233
  5
284
331
276
  5
241
331
2B5
  5
20E
331
35B
  5
E7
331
39A
  5
99
331
272
  5
245
331
2B1
  5
212
331
2EC
  5
10E
331
26E
  5
249
331
2AD
  5
216
331
2E8
  5
112
331
2A9
  5
21A
331
2E4
  5
12E
331
26A
  5
24D
331
2E0
  5
132
331
C6
  5
36D
331
C2
  5
371
331
FD
  5
339
331
13C
  5
2D6
331
138
  5
2DA
331
BE
  5
375
331
BA
  5
379
331
F5
  5
341
331
134
  5
2DE
331
F1
  5
345
331
130
  5
2E2
331
22F
  5
288
331
357
  5
EB
331
396
  5
9D
331
392
  5
A1
331
22B
  5
28C
331
16E
  5
2CA
331
38E
  5
A5
331
227
  5
290
331
223
  5
294
331
38A
  5
A9
331
266
  5
251
331
262
  5
255
331
2DC
  5
136
331
25E
  5
259
331
2D8
  5
13A
331
2D4
  5
13E
331
25A
  5
25D
331
299
  5
21E
331
2D0
  5
142
331
B6
  5
37D
331
B2
  5
381
331
ED
  5
349
331
AE
  5
385
331
E9
  5
359
331
AA
  5
389
331
21F
  5
298
331
386
  5
AD
331
382
  5
B1
331
21B
  5
2A8
331
256
  5
261
331
37E
  5
B5
331
19D
  5
2C1
331
217
  5
2AC
331
213
  5
2B0
331
295
  5
222
331
252
  5
265
331
37A
  5
B9
331
199
  5
2C5
331
291
  5
226
331
346
  5
F0
331
28D
  5
22A
331
2CC
  5
160
331
2C8
  5
196
331
303
  5
103
331
342
  5
F4
331
289
  5
22E
331
6D
  5
3A6
331
A6
  5
38D
331
E5
  5
35D
331
69
  5
3AA
331
A2
  5
391
331
9E
  5
395
331
114
  5
2E6
331
9A
  5
399
331
110
  5
2EA
331
1D4
  5
2BC
331
20F
  5
2B4
331
24E
  5
269
331
376
  5
BD
331
372
  5
C1
331
20B
  5
2B8
331
24A
  5
26D
331
246
  5
271
331
36E
  5
C5
331
242
  5
275
331
285
  5
232
331
2C4
  5
19A
331
36A
  5
C9
331
3A9
  5
6A
331
33E
  5
F8
331
281
  5
236
331
2C0
  5
19E
331
27D
  5
23A
331
2BC
  5
1D4
331
2B8
  5
20B
331
2F3
  5
107
331
279
  5
23E
331
96
  5
39D
331
14F
  5
2CF
331
92
  5
3A1
331
D1
  5
362
331
10C
  5
2EE
331
108
  5
2F2
331
8E
  5
3A3
331
CD
  5
366
331
C9
  5
36A
331
104
  5
2F6
331
3A5
  5
6E
331
23E
  5
279
331
366
  5
CD
331
362
  5
D1
331
3A1
  5
92
331
23A
  5
27D
331
236
  5
281
331
35E
  5
E4
331
39D
  5
96
331
232
  5
285
331
275
  5
242
331
2B4
  5
20F
331
2EF
  5
10B
331
35A
  5
E8
331
399
  5
9A
331
1B8
  5
2BE
331
271
  5
246
331
2B0
  5
213
331
2EB
  5
10F
331
26D
  5
24A
331
2AC
  5
217
331
2E7
  5
113
331
2A8
  5
21B
331
2E3
  5
12F
331
269
  5
24E
331
C5
  5
36E
331
13F
  5
2D3
331
13B
  5
2D7
331
C1
  5
372
331
137
  5
2DB
331
BD
  5
376
331
F8
  5
33E
331
B9
  5
37A
331
F4
  5
342
331
133
  5
2DF
331
F0
  5
346
331
395
  5
9E
331
1EF
  5
2BA
331
22E
  5
289
331
391
  5
A2
331
22A
  5
28D
331
226
  5
291
331
38D
  5
A6
331
265
  5
252
331
222
  5
295
331
2DF
  5
133
331
34A
  5
EC
331
389
  5
AA
331
261
  5
256
331
2DB
  5
137
331
25D
  5
25A
331
2D7
  5
13B
331
298
  5
21F
331
2D3
  5
13F
331
259
  5
25E
331
B5
  5
37E
331
12F
  5
2E3
331
B1
  5
382
331
EC
  5
34A
331
AD
  5
386
331
A9
  5
38A
331
E8
  5
35A
  0
ACDBDETAILVIEWSTYLE
  5
3E0
102
{ACAD_XDICTIONARY
360
3E1
102
}
102
{ACAD_REACTORS
330
3CF
330
3DF
102
}
330
3CF
100
AcDbModelDocViewStyle
 70
     0
  3
Imperial24
290
     0
100
AcDbDetailViewStyle
 70
     0
 71
     0
 90
        3
 71
     1
340
22
 62
   256
 40
0.24
340
0
 62
   256
 40
0.24
300

 40
0.36
280
     3
 71
     2
340
1D
 90
       25
 62
   256
 71
     3
340
22
 62
   256
 40
0.24
 90
        1
 40
0.75
 90
        1
300
%<\AcVar ViewType \f "%tc1">% %<\AcVar ViewDetailId>%\PVARIA %<\AcVar ViewScale \f "%sn">%
 71
     4
340
1D
 90
       25
 62
   256
340
1D
 90
       25
 62
   256
280
     0
  0
ACDBDETAILVIEWSTYLE
  5
3DD
102
{ACAD_XDICTIONARY
360
3DE
102
}
102
{ACAD_REACTORS
330
3CF
330
3DC
102
}
330
3CF
100
AcDbModelDocViewStyle
 70
     0
  3
Metric50
290
     0
100
AcDbDetailViewStyle
 70
     0
 71
     0
 90
        3
 71
     1
340
22
 62
   256
 40
5.0
340
0
 62
   256
 40
5.0
300

 40
0.0
280
     1
 71
     2
340
1D
 90
       25
 62
   256
 71
     3
340
22
 62
   256
 40
5.0
 90
        0
 40
15.0
 90
        1
300
%<\AcVar ViewDetailId>% (%<\AcVar ViewScale \f "%sn">%)
 71
     4
340
1D
 90
       25
 62
   256
340
1D
 90
       25
 62
   256
280
     0
  0
LAYOUT
  5
D
102
{ACAD_REACTORS
330
8
102
}
330
8
100
AcDbPlotSettings
  1

  2
none_device
  4
Letter_(8.50_x_11.00_Inches)
  6

 40
6.349999904632568
 41
6.349999904632568
 42
6.350006103515625
 43
6.350006103515625
 44
215.8999938964844
 45
279.3999938964844
 46
0.0
 47
0.0
 48
0.0
 49
0.0
140
0.0
141
0.0
142
1.0
143
1.0
 70
   688
 72
     1
 73
     1
 74
     5
  7
monochrome.ctb
 75
    16
147
1.0
 76
     0
 77
     2
 78
   300
148
0.0
149
0.0
100
AcDbLayout
  1
Layout1
 70
     1
 71
     1
 10
-6.350006103515625
 20
-6.349999904632568
 11
273.0499877929688
 21
209.5499939918518
 12
0.0
 22
0.0
 32
0.0
 14
26.66999878883363
 24
20.31999878883363
 34
0.0
 15
240.0299890995026
 25
182.8799890995025
 35
0.0
146
0.0
 13
0.0
 23
0.0
 33
0.0
 16
1.0
 26
0.0
 36
0.0
 17
0.0
 27
1.0
 37
0.0
 76
     0
330
A
  0
LAYOUT
  5
7
102
{ACAD_REACTORS
330
8
102
}
330
8
100
AcDbPlotSettings
  1

  2
A3quer-MSL.pc3
  4
A3
  6

 40
6.085416793823242
 41
6.12772798538208
 42
5.662078857421875
 43
5.53509521484375
 44
296.9683227539062
 45
419.9889831542968
 46
4.5
 47
2.5
 48
0.0
 49
0.0
140
0.0
141
0.0
142
1.0
143
1.0
 70
 11952
 72
     1
 73
     1
 74
     1
  7
monochrome.ctb
 75
    16
147
1.0
 76
     0
 77
     2
 78
   300
148
0.0160923307578855
149
0.4351688123455233
100
AcDbLayout
  1
Model
 70
     1
 71
     0
 10
0.0
 20
0.0
 11
12.0
 21
9.0
 12
0.0
 22
0.0
 32
0.0
 14
0.0
 24
0.0
 34
0.0
 15
0.0
 25
0.0
 35
0.0
146
0.0
 13
0.0
 23
0.0
 33
0.0
 16
1.0
 26
0.0
 36
0.0
 17
0.0
 27
1.0
 37
0.0
 76
     0
330
2
331
2A
  0
MATERIAL
  5
43
102
{ACAD_XDICTIONARY
360
44
102
}
102
{ACAD_REACTORS
330
15
102
}
330
15
100
AcDbMaterial
  1
ByBlock
 72
     0
 43
0.0208333333333333
 43
0.0
 43
0.0
 43
0.0
 43
0.0
 43
0.0208333333333333
 43
0.0
 43
0.0
 43
0.0
 43
0.0
 43
1.0
 43
0.0
 43
0.0
 43
0.0
 43
0.0
 43
1.0
 77
     0
 47
0.0208333333333333
 47
0.0
 47
0.0
 47
0.0
 47
0.0
 47
0.0208333333333333
 47
0.0
 47
0.0
 47
0.0
 47
0.0
 47
1.0
 47
0.0
 47
0.0
 47
0.0
 47
0.0
 47
1.0
171
     0
 49
0.0208333333333333
 49
0.0
 49
0.0
 49
0.0
 49
0.0
 49
0.0208333333333333
 49
0.0
 49
0.0
 49
0.0
 49
0.0
 49
1.0
 49
0.0
 49
0.0
 49
0.0
 49
0.0
 49
1.0
175
     0
142
0.0208333333333333
142
0.0
142
0.0
142
0.0
142
0.0
142
0.0208333333333333
142
0.0
142
0.0
142
0.0
142
0.0
142
1.0
142
0.0
142
0.0
142
0.0
142
0.0
142
1.0
179
     0
144
0.0208333333333333
144
0.0
144
0.0
144
0.0
144
0.0
144
0.0208333333333333
144
0.0
144
0.0
144
0.0
144
0.0
144
1.0
144
0.0
144
0.0
144
0.0
144
0.0
144
1.0
147
0.0208333333333333
147
0.0
147
0.0
147
0.0
147
0.0
147
0.0208333333333333
147
0.0
147
0.0
147
0.0
147
0.0
147
1.0
147
0.0
147
0.0
147
0.0
147
0.0
147
1.0
  0
MATERIAL
  5
3B
102
{ACAD_XDICTIONARY
360
3C
102
}
102
{ACAD_REACTORS
330
15
102
}
330
15
100
AcDbMaterial
  1
ByLayer
 72
     0
 43
0.0208333333333333
 43
0.0
 43
0.0
 43
0.0
 43
0.0
 43
0.0208333333333333
 43
0.0
 43
0.0
 43
0.0
 43
0.0
 43
1.0
 43
0.0
 43
0.0
 43
0.0
 43
0.0
 43
1.0
 77
     0
 47
0.0208333333333333
 47
0.0
 47
0.0
 47
0.0
 47
0.0
 47
0.0208333333333333
 47
0.0
 47
0.0
 47
0.0
 47
0.0
 47
1.0
 47
0.0
 47
0.0
 47
0.0
 47
0.0
 47
1.0
171
     0
 49
0.0208333333333333
 49
0.0
 49
0.0
 49
0.0
 49
0.0
 49
0.0208333333333333
 49
0.0
 49
0.0
 49
0.0
 49
0.0
 49
1.0
 49
0.0
 49
0.0
 49
0.0
 49
0.0
 49
1.0
175
     0
142
0.0208333333333333
142
0.0
142
0.0
142
0.0
142
0.0
142
0.0208333333333333
142
0.0
142
0.0
142
0.0
142
0.0
142
1.0
142
0.0
142
0.0
142
0.0
142
0.0
142
1.0
179
     0
144
0.0208333333333333
144
0.0
144
0.0
144
0.0
144
0.0
144
0.0208333333333333
144
0.0
144
0.0
144
0.0
144
0.0
144
1.0
144
0.0
144
0.0
144
0.0
144
0.0
144
1.0
147
0.0208333333333333
147
0.0
147
0.0
147
0.0
147
0.0
147
0.0208333333333333
147
0.0
147
0.0
147
0.0
147
0.0
147
1.0
147
0.0
147
0.0
147
0.0
147
0.0
147
1.0
  0
MATERIAL
  5
14
102
{ACAD_XDICTIONARY
360
16
102
}
102
{ACAD_REACTORS
330
15
102
}
330
15
100
AcDbMaterial
  1
Global
 72
     0
 43
0.0208333333333333
 43
0.0
 43
0.0
 43
0.0
 43
0.0
 43
0.0208333333333333
 43
0.0
 43
0.0
 43
0.0
 43
0.0
 43
1.0
 43
0.0
 43
0.0
 43
0.0
 43
0.0
 43
1.0
 77
     0
 47
0.0208333333333333
 47
0.0
 47
0.0
 47
0.0
 47
0.0
 47
0.0208333333333333
 47
0.0
 47
0.0
 47
0.0
 47
0.0
 47
1.0
 47
0.0
 47
0.0
 47
0.0
 47
0.0
 47
1.0
171
     0
 49
0.0208333333333333
 49
0.0
 49
0.0
 49
0.0
 49
0.0
 49
0.0208333333333333
 49
0.0
 49
0.0
 49
0.0
 49
0.0
 49
1.0
 49
0.0
 49
0.0
 49
0.0
 49
0.0
 49
1.0
175
     0
142
0.0208333333333333
142
0.0
142
0.0
142
0.0
142
0.0
142
0.0208333333333333
142
0.0
142
0.0
142
0.0
142
0.0
142
1.0
142
0.0
142
0.0
142
0.0
142
0.0
142
1.0
179
     0
144
0.0208333333333333
144
0.0
144
0.0
144
0.0
144
0.0
144
0.0208333333333333
144
0.0
144
0.0
144
0.0
144
0.0
144
1.0
144
0.0
144
0.0
144
0.0
144
0.0
144
1.0
147
0.0208333333333333
147
0.0
147
0.0
147
0.0
147
0.0
147
0.0208333333333333
147
0.0
147
0.0
147
0.0
147
0.0
147
1.0
147
0.0
147
0.0
147
0.0
147
0.0
147
1.0
  0
MLEADERSTYLE
  5
15F
102
{ACAD_REACTORS
330
4E
330
160
330
15E
102
}
330
4E
100
AcDbMLeaderStyle
179
     2
170
     2
171
     1
172
     0
 90
        2
 40
0.0
 41
0.0
173
     1
 91
-1056964608
340
25
 92
       -2
290
     1
 42
2.0
291
     1
 43
0.36
  3
Standard
 44
4.0
300

342
22
174
     1
178
     6
175
     1
176
     0
 93
-1056964608
 45
4.0
292
     0
297
     0
 46
4.0
 94
-1056964608
 47
1.0
 49
1.0
140
1.0
293
     1
141
0.0
294
     1
177
     0
142
1.0
295
     0
296
     0
143
0.125
271
     0
272
     9
273
     9
298
     1
  0
MLINESTYLE
  5
53
102
{ACAD_REACTORS
330
39
102
}
330
39
100
AcDbMlineStyle
  2
STANDARD
 70
     0
  3

 62
     0
 51
90.0
 52
90.0
 71
     2
 49
0.5
 62
   256
  6
BYLAYER
 49
-0.5
 62
   256
  6
BYLAYER
  0
ACDBPLACEHOLDER
  5
12
102
{ACAD_REACTORS
330
13
102
}
330
13
  0
SCALE
  5
58
102
{ACAD_REACTORS
330
4C
102
}
330
4C
100
AcDbScale
 70
     0
300
1:1
140
1.0
141
1.0
290
     1
  0
SCALE
  5
59
102
{ACAD_REACTORS
330
4C
102
}
330
4C
100
AcDbScale
 70
     0
300
1:2
140
1.0
141
2.0
290
     0
  0
SCALE
  5
5A
102
{ACAD_REACTORS
330
4C
102
}
330
4C
100
AcDbScale
 70
     0
300
1:4
140
1.0
141
4.0
290
     0
  0
SCALE
  5
5B
102
{ACAD_REACTORS
330
4C
102
}
330
4C
100
AcDbScale
 70
     0
300
1:5
140
1.0
141
5.0
290
     0
  0
SCALE
  5
5C
102
{ACAD_REACTORS
330
4C
102
}
330
4C
100
AcDbScale
 70
     0
300
1:8
140
1.0
141
8.0
290
     0
  0
SCALE
  5
5D
102
{ACAD_REACTORS
330
4C
102
}
330
4C
100
AcDbScale
 70
     0
300
1:10
140
1.0
141
10.0
290
     0
  0
SCALE
  5
5E
102
{ACAD_REACTORS
330
4C
102
}
330
4C
100
AcDbScale
 70
     0
300
1:16
140
1.0
141
16.0
290
     0
  0
SCALE
  5
5F
102
{ACAD_REACTORS
330
4C
102
}
330
4C
100
AcDbScale
 70
     0
300
1:20
140
1.0
141
20.0
290
     0
  0
SCALE
  5
60
102
{ACAD_REACTORS
330
4C
102
}
330
4C
100
AcDbScale
 70
     0
300
1:30
140
1.0
141
30.0
290
     0
  0
SCALE
  5
61
102
{ACAD_REACTORS
330
4C
102
}
330
4C
100
AcDbScale
 70
     0
300
1:40
140
1.0
141
40.0
290
     0
  0
SCALE
  5
62
102
{ACAD_REACTORS
330
4C
102
}
330
4C
100
AcDbScale
 70
     0
300
1:50
140
1.0
141
50.0
290
     0
  0
SCALE
  5
63
102
{ACAD_REACTORS
330
4C
102
}
330
4C
100
AcDbScale
 70
     0
300
1:100
140
1.0
141
100.0
290
     0
  0
SCALE
  5
64
102
{ACAD_REACTORS
330
4C
102
}
330
4C
100
AcDbScale
 70
     0
300
2:1
140
2.0
141
1.0
290
     0
  0
SCALE
  5
65
102
{ACAD_REACTORS
330
4C
102
}
330
4C
100
AcDbScale
 70
     0
300
4:1
140
4.0
141
1.0
290
     0
  0
SCALE
  5
66
102
{ACAD_REACTORS
330
4C
102
}
330
4C
100
AcDbScale
 70
     0
300
8:1
140
8.0
141
1.0
290
     0
  0
SCALE
  5
67
102
{ACAD_REACTORS
330
4C
102
}
330
4C
100
AcDbScale
 70
     0
300
10:1
140
10.0
141
1.0
290
     0
  0
SCALE
  5
68
102
{ACAD_REACTORS
330
4C
102
}
330
4C
100
AcDbScale
 70
     0
300
100:1
140
100.0
141
1.0
290
     0
  0
ACDBSECTIONVIEWSTYLE
  5
3EF
102
{ACAD_XDICTIONARY
360
3F0
102
}
102
{ACAD_REACTORS
330
3E4
330
3EE
102
}
330
3E4
100
AcDbModelDocViewStyle
 70
     0
  3
Imperial24
290
     0
100
AcDbSectionViewStyle
 70
     0
 71
     0
 90
       78
 71
     1
340
22
 62
   256
 40
0.24
340
0
340
0
 62
   256
 40
0.24
300
I, O, Q, S, X, Z
 40
0.48
 90
        3
 40
0.18
 90
        1
 71
     2
340
1D
 90
       25
 62
   256
340
1D
 90
       50
 62
   256
 40
0.24
 40
0.0
 40
0.24
 71
     3
340
22
 62
   256
 40
0.24
 90
        1
 40
0.75
 90
        1
300
%<\AcVar ViewType \f "%tc1">% %<\AcVar ViewSectionStartId>%-%<\AcVar ViewSectionEndId>%\PVARIA %<\AcVar ViewScale \f "%sn">%
 71
     4
 62
   256
 62
   257
300
ANSI31
 40
1.0
 90
        0
290
     0
290
     0
 90
        6
 40
0.0
 40
1.570796326794896
 40
0.2617993877991494
 40
1.308996938995747
 40
-0.2617993877991494
 40
1.832595714594046
  0
ACDBSECTIONVIEWSTYLE
  5
3EC
102
{ACAD_XDICTIONARY
360
3ED
102
}
102
{ACAD_REACTORS
330
3E4
330
3EB
102
}
330
3E4
100
AcDbModelDocViewStyle
 70
     0
  3
Metric50
290
     0
100
AcDbSectionViewStyle
 70
     0
 71
     0
 90
      102
 71
     1
340
22
 62
   256
 40
5.0
340
0
340
0
 62
   256
 40
5.0
300
I, O, Q, S, X, Z
 40
10.0
 90
        0
 40
2.5
 90
        0
 71
     2
340
1D
 90
       25
 62
   256
340
1D
 90
       50
 62
   256
 40
5.0
 40
2.5
 40
5.0
 71
     3
340
22
 62
   256
 40
5.0
 90
        0
 40
15.0
 90
        1
300
%<\AcVar ViewSectionStartId>%-%<\AcVar ViewSectionEndId>% (%<\AcVar ViewScale \f "%sn">%)
 71
     4
 62
   256
 62
   257
300
ANSI31
 40
1.0
 90
        0
290
     0
290
     0
 90
        6
 40
0.0
 40
1.570796326794896
 40
0.2617993877991494
 40
1.308996938995747
 40
-0.2617993877991494
 40
1.832595714594046
  0
TABLESTYLE
  5
54
102
{ACAD_XDICTIONARY
360
55
102
}
102
{ACAD_REACTORS
330
4D
102
}
330
4D
100
AcDbTableStyle
280
     0
  3
Standard
 70
     0
 71
     0
 40
1.5
 41
1.5
280
     0
281
     0
  7
STANDARD
140
4.5
170
     2
 62
     0
 63
     7
283
     0
 90
        4
 91
        0
  1

274
    -2
284
     1
 64
     0
275
    -2
285
     1
 65
     0
276
    -2
286
     1
 66
     0
277
    -2
287
     1
 67
     0
278
    -2
288
     1
 68
     0
279
    -2
289
     1
 69
     0
  7
STANDARD
140
6.0
170
     5
 62
     0
 63
     7
283
     0
 90
        4
 91
        0
  1

274
    -2
284
     1
 64
     0
275
    -2
285
     1
 65
     0
276
    -2
286
     1
 66
     0
277
    -2
287
     1
 67
     0
278
    -2
288
     1
 68
     0
279
    -2
289
     1
 69
     0
  7
STANDARD
140
4.5
170
     5
 62
     0
 63
     7
283
     0
 90
        4
 91
        0
  1

274
    -2
284
     1
 64
     0
275
    -2
285
     1
 65
     0
276
    -2
286
     1
 66
     0
277
    -2
287
     1
 67
     0
278
    -2
288
     1
 68
     0
279
    -2
289
     1
 69
     0
  0
VISUALSTYLE
  5
2B
102
{ACAD_REACTORS
330
2C
102
}
330
2C
100
AcDbVisualStyle
  2
2dWireframe
 70
     4
177
     3
291
     0
 70
    58
 90
        0
176
     1
 90
        2
176
     1
 90
        0
176
     1
 90
        0
176
     1
 40
0.6
176
     1
 40
30.0
176
     1
 62
     7
420
 16777215
176
     1
 90
        1
176
     1
 90
        4
176
     1
 62
     7
176
     1
 62
   257
176
     1
 90
        1
176
     1
 90
        1
176
     1
 40
1.0
176
     1
 90
        0
176
     1
 62
   257
176
     1
 40
1.0
176
     1
 90
        1
176
     1
 90
        6
176
     1
 90
        2
176
     1
 62
     7
176
     1
 90
        5
176
     1
 90
        0
176
     1
 90
        0
176
     1
290
     0
176
     1
 90
        1
176
     1
 40
0.0
176
     1
 90
        0
176
     1
290
     1
176
     1
290
     1
176
     1
290
     0
176
     1
290
     0
176
     1
290
     0
176
     1
290
     0
176
     1
290
     0
176
     1
290
     0
176
     1
290
     0
176
     1
 90
       50
176
     1
 40
0.0
176
     1
 40
1.0
176
     1
 90
        0
176
     1
 62
    18
420
        0
176
     1
 90
       50
176
     1
 90
        3
176
     1
 62
     5
420
      255
176
     1
290
     0
176
     1
 90
       50
176
     1
 90
       50
176
     1
 90
       50
176
     1
290
     0
176
     1
 90
       50
176
     1
 62
   256
176
     0
 40
1.0
176
     0
 90
        2
176
     1
  1
strokes_ogs.tif
176
     1
290
     0
176
     1
 40
1.0
176
     1
 40
1.0
176
     1
  0
VISUALSTYLE
  5
56
102
{ACAD_REACTORS
330
2C
102
}
330
2C
100
AcDbVisualStyle
  2
Realistic
 70
     8
177
     3
291
     0
 70
    58
 90
        2
176
     1
 90
        2
176
     1
 90
        0
176
     1
 90
        0
176
     1
 40
0.6
176
     1
 40
30.0
176
     1
 62
     7
420
 16777215
176
     1
 90
        1
176
     1
 90
        0
176
     1
 62
     7
176
     1
 62
   257
176
     1
 90
        1
176
     1
 90
        1
176
     1
 40
1.0
176
     1
 90
        8
176
     1
 62
     8
420
  7895160
176
     1
 40
1.0
176
     1
 90
        1
176
     1
 90
        6
176
     1
 90
        2
176
     1
 62
     7
176
     1
 90
        5
176
     1
 90
        0
176
     1
 90
        0
176
     1
290
     0
176
     1
 90
       13
176
     1
 40
0.0
176
     1
 90
        0
176
     1
290
     0
176
     1
290
     1
176
     1
290
     1
176
     1
290
     0
176
     1
290
     0
176
     1
290
     0
176
     1
290
     0
176
     1
290
     0
176
     1
290
     0
176
     1
 90
       50
176
     1
 40
0.0
176
     1
 40
1.0
176
     1
 90
        0
176
     1
 62
    18
420
        0
176
     1
 90
       50
176
     1
 90
        3
176
     1
 62
     5
420
      255
176
     1
290
     0
176
     1
 90
       50
176
     1
 90
       50
176
     1
 90
       50
176
     1
290
     0
176
     1
 90
       50
176
     1
 62
   256
176
     0
 40
1.0
176
     0
 90
        2
176
     1
  1
strokes_ogs.tif
176
     1
290
     0
176
     1
 40
1.0
176
     1
 40
1.0
176
     1
  0
VISUALSTYLE
  5
57
102
{ACAD_REACTORS
330
2C
102
}
330
2C
100
AcDbVisualStyle
  2
Wireframe
 70
     5
177
     3
291
     0
 70
    58
 90
        0
176
     1
 90
        2
176
     1
 90
        0
176
     1
 90
        0
176
     1
 40
0.6
176
     1
 40
30.0
176
     1
 62
     7
420
 16777215
176
     1
 90
        1
176
     1
 90
        4
176
     1
 62
     7
176
     1
 62
   257
176
     1
 90
        1
176
     1
 90
        1
176
     1
 40
1.0
176
     1
 90
        0
176
     1
 62
   257
176
     1
 40
1.0
176
     1
 90
        1
176
     1
 90
        6
176
     1
 90
        2
176
     1
 62
     7
176
     1
 90
        3
176
     1
 90
        0
176
     1
 90
        0
176
     1
290
     0
176
     1
 90
        1
176
     1
 40
0.0
176
     1
 90
        0
176
     1
290
     0
176
     1
290
     1
176
     1
290
     1
176
     1
290
     0
176
     1
290
     0
176
     1
290
     0
176
     1
290
     0
176
     1
290
     0
176
     1
290
     0
176
     1
 90
       50
176
     1
 40
0.0
176
     1
 40
1.0
176
     1
 90
        0
176
     1
 62
    18
420
        0
176
     1
 90
       50
176
     1
 90
        3
176
     1
 62
     5
420
      255
176
     1
290
     0
176
     1
 90
       50
176
     1
 90
       50
176
     1
 90
       50
176
     1
290
     0
176
     1
 90
       50
176
     1
 62
   256
176
     0
 40
1.0
176
     0
 90
        2
176
     1
  1
strokes_ogs.tif
176
     1
290
     0
176
     1
 40
1.0
176
     1
 40
1.0
176
     1
  0
DICTIONARYVAR
  5
42F
102
{ACAD_REACTORS
330
429
102
}
330
429
100
DictionaryVariables
280
     0
  1
1:1
  0
DICTIONARYVAR
  5
42B
102
{ACAD_REACTORS
330
429
102
}
330
429
100
DictionaryVariables
280
     0
  1
STANDARD
  0
DICTIONARYVAR
  5
42A
102
{ACAD_REACTORS
330
429
102
}
330
429
100
DictionaryVariables
280
     0
  1
STANDARD
  0
DICTIONARYVAR
  5
42C
102
{ACAD_REACTORS
330
429
102
}
330
429
100
DictionaryVariables
280
     0
  1

  0
DICTIONARYVAR
  5
42D
102
{ACAD_REACTORS
330
429
102
}
330
429
100
DictionaryVariables
280
     0
  1

  0
DICTIONARYVAR
  5
431
102
{ACAD_REACTORS
330
429
102
}
330
429
100
DictionaryVariables
280
     0
  1
1
  0
DICTIONARYVAR
  5
432
102
{ACAD_REACTORS
330
429
102
}
330
429
100
DictionaryVariables
280
     0
  1
15
  0
DICTIONARYVAR
  5
430
102
{ACAD_REACTORS
330
429
102
}
330
429
100
DictionaryVariables
280
     0
  1
0
  0
DICTIONARYVAR
  5
42E
102
{ACAD_REACTORS
330
429
102
}
330
429
100
DictionaryVariables
280
     0
  1
0
  0
DICTIONARY
  5
3BF
102
{ACAD_REACTORS
330
3BE
102
}
330
3BE
100
AcDbDictionary
281
     1
  0
DICTIONARY
  5
3B7
102
{ACAD_REACTORS
330
3AD
102
}
330
3AD
100
AcDbDictionary
281
     1
  3
DWGSETTINGS
350
3B6
  3
Shaft
350
3B8
  3
TRANSSETTINGS
350
3B9
  0
DICTIONARY
  5
3E1
330
3E0
100
AcDbDictionary
280
     1
281
     1
  3
ACAD_XREC_ROUNDTRIP
360
436
  0
DICTIONARY
  5
3DE
330
3DD
100
AcDbDictionary
280
     1
281
     1
  3
ACAD_XREC_ROUNDTRIP
360
435
  0
DICTIONARY
  5
44
330
43
100
AcDbDictionary
280
     1
281
     1
  3
BUMPTILE
360
45
  3
DIFFUSETILE
360
46
  3
OPACITYTILE
360
47
  3
REFLECTIONTILE
360
48
  3
REFRACTIONTILE
360
49
  3
SPECULARTILE
360
4A
  0
DICTIONARY
  5
3C
330
3B
100
AcDbDictionary
280
     1
281
     1
  3
BUMPTILE
360
3D
  3
DIFFUSETILE
360
3E
  3
OPACITYTILE
360
3F
  3
REFLECTIONTILE
360
40
  3
REFRACTIONTILE
360
41
  3
SPECULARTILE
360
42
  0
DICTIONARY
  5
16
330
14
100
AcDbDictionary
280
     1
281
     1
  3
BUMPTILE
360
17
  3
DIFFUSETILE
360
18
  3
OPACITYTILE
360
19
  3
REFLECTIONTILE
360
1A
  3
REFRACTIONTILE
360
1B
  3
SPECULARTILE
360
1C
  0
DICTIONARY
  5
3F0
330
3EF
100
AcDbDictionary
280
     1
281
     1
  3
ACAD_XREC_ROUNDTRIP
360
438
  0
DICTIONARY
  5
3ED
330
3EC
100
AcDbDictionary
280
     1
281
     1
  3
ACAD_XREC_ROUNDTRIP
360
437
  0
DICTIONARY
  5
55
330
54
100
AcDbDictionary
280
     1
281
     1
  3
ACAD_ROUNDTRIP_2008_TABLESTYLE_CELLSTYLEMAP
360
433
  0
XRECORD
  5
436
102
{ACAD_REACTORS
330
3E1
102
}
330
3E1
100
AcDbXrecord
280
     1
102
DISPLAYNAME
  1
Imperial24
102
FLAGS
 90
        0
  0
XRECORD
  5
435
102
{ACAD_REACTORS
330
3DE
102
}
330
3DE
100
AcDbXrecord
280
     1
102
DISPLAYNAME
  1
Metric50
102
FLAGS
 90
        0
  0
XRECORD
  5
45
102
{ACAD_REACTORS
330
44
102
}
330
44
100
AcDbXrecord
280
     1
270
     1
271
     1
  0
XRECORD
  5
46
102
{ACAD_REACTORS
330
44
102
}
330
44
100
AcDbXrecord
280
     1
270
     1
271
     1
  0
XRECORD
  5
47
102
{ACAD_REACTORS
330
44
102
}
330
44
100
AcDbXrecord
280
     1
270
     1
271
     1
  0
XRECORD
  5
48
102
{ACAD_REACTORS
330
44
102
}
330
44
100
AcDbXrecord
280
     1
270
     1
271
     1
  0
XRECORD
  5
49
102
{ACAD_REACTORS
330
44
102
}
330
44
100
AcDbXrecord
280
     1
270
     1
271
     1
  0
XRECORD
  5
4A
102
{ACAD_REACTORS
330
44
102
}
330
44
100
AcDbXrecord
280
     1
270
     1
271
     1
  0
XRECORD
  5
3D
102
{ACAD_REACTORS
330
3C
102
}
330
3C
100
AcDbXrecord
280
     1
270
     1
271
     1
  0
XRECORD
  5
3E
102
{ACAD_REACTORS
330
3C
102
}
330
3C
100
AcDbXrecord
280
     1
270
     1
271
     1
  0
XRECORD
  5
3F
102
{ACAD_REACTORS
330
3C
102
}
330
3C
100
AcDbXrecord
280
     1
270
     1
271
     1
  0
XRECORD
  5
40
102
{ACAD_REACTORS
330
3C
102
}
330
3C
100
AcDbXrecord
280
     1
270
     1
271
     1
  0
XRECORD
  5
41
102
{ACAD_REACTORS
330
3C
102
}
330
3C
100
AcDbXrecord
280
     1
270
     1
271
     1
  0
XRECORD
  5
42
102
{ACAD_REACTORS
330
3C
102
}
330
3C
100
AcDbXrecord
280
     1
270
     1
271
     1
  0
XRECORD
  5
17
102
{ACAD_REACTORS
330
16
102
}
330
16
100
AcDbXrecord
280
     1
270
     1
271
     1
  0
XRECORD
  5
18
102
{ACAD_REACTORS
330
16
102
}
330
16
100
AcDbXrecord
280
     1
270
     1
271
     1
  0
XRECORD
  5
19
102
{ACAD_REACTORS
330
16
102
}
330
16
100
AcDbXrecord
280
     1
270
     1
271
     1
  0
XRECORD
  5
1A
102
{ACAD_REACTORS
330
16
102
}
330
16
100
AcDbXrecord
280
     1
270
     1
271
     1
  0
XRECORD
  5
1B
102
{ACAD_REACTORS
330
16
102
}
330
16
100
AcDbXrecord
280
     1
270
     1
271
     1
  0
XRECORD
  5
1C
102
{ACAD_REACTORS
330
16
102
}
330
16
100
AcDbXrecord
280
     1
270
     1
271
     1
  0
XRECORD
  5
438
102
{ACAD_REACTORS
330
3F0
102
}
330
3F0
100
AcDbXrecord
280
     1
102
DISPLAYNAME
  1
Imperial24
102
FLAGS
 90
        0
  0
XRECORD
  5
437
102
{ACAD_REACTORS
330
3ED
102
}
330
3ED
100
AcDbXrecord
280
     1
102
DISPLAYNAME
  1
Metric50
102
FLAGS
 90
        0
  0
CELLSTYLEMAP
  5
433
102
{ACAD_REACTORS
330
55
102
}
330
55
100
AcDbCellStyleMap
 90
        3
300
CELLSTYLE
  1
TABLEFORMAT_BEGIN
 90
        5
170
     1
 91
        0
 92
    32768
 62
   257
 93
        1
300
CONTENTFORMAT
  1
CONTENTFORMAT_BEGIN
 90
        0
 91
        0
 92
        4
 93
        0
300

 40
0.0
140
1.0
 94
        5
 62
     0
340
22
144
6.0
309
CONTENTFORMAT_END
171
     1
301
MARGIN
  1
CELLMARGIN_BEGIN
 40
1.5
 40
1.5
 40
1.5
 40
1.5
 40
0.18
 40
0.18
309
CELLMARGIN_END
 94
        6
 95
        1
302
GRIDFORMAT
  1
GRIDFORMAT_BEGIN
 90
        0
 91
        1
 62
     0
 92
       -2
340
0
 93
        0
 40
0.045
309
GRIDFORMAT_END
 95
        2
302
GRIDFORMAT
  1
GRIDFORMAT_BEGIN
 90
        0
 91
        1
 62
     0
 92
       -2
340
0
 93
        0
 40
0.045
309
GRIDFORMAT_END
 95
        4
302
GRIDFORMAT
  1
GRIDFORMAT_BEGIN
 90
        0
 91
        1
 62
     0
 92
       -2
340
0
 93
        0
 40
0.045
309
GRIDFORMAT_END
 95
        8
302
GRIDFORMAT
  1
GRIDFORMAT_BEGIN
 90
        0
 91
        1
 62
     0
 92
       -2
340
0
 93
        0
 40
0.045
309
GRIDFORMAT_END
 95
       16
302
GRIDFORMAT
  1
GRIDFORMAT_BEGIN
 90
        0
 91
        1
 62
     0
 92
       -2
340
0
 93
        0
 40
0.045
309
GRIDFORMAT_END
 95
       32
302
GRIDFORMAT
  1
GRIDFORMAT_BEGIN
 90
        0
 91
        1
 62
     0
 92
       -2
340
0
 93
        0
 40
0.045
309
GRIDFORMAT_END
309
TABLEFORMAT_END
  1
CELLSTYLE_BEGIN
 90
        1
 91
        1
300
_TITLE
309
CELLSTYLE_END
300
CELLSTYLE
  1
TABLEFORMAT_BEGIN
 90
        5
170
     1
 91
        0
 92
        0
 62
   257
 93
        1
300
CONTENTFORMAT
  1
CONTENTFORMAT_BEGIN
 90
        0
 91
        0
 92
        4
 93
        0
300

 40
0.0
140
1.0
 94
        5
 62
     0
340
22
144
4.5
309
CONTENTFORMAT_END
171
     1
301
MARGIN
  1
CELLMARGIN_BEGIN
 40
1.5
 40
1.5
 40
1.5
 40
1.5
 40
0.18
 40
0.18
309
CELLMARGIN_END
 94
        6
 95
        1
302
GRIDFORMAT
  1
GRIDFORMAT_BEGIN
 90
        0
 91
        1
 62
     0
 92
       -2
340
0
 93
        0
 40
0.045
309
GRIDFORMAT_END
 95
        2
302
GRIDFORMAT
  1
GRIDFORMAT_BEGIN
 90
        0
 91
        1
 62
     0
 92
       -2
340
0
 93
        0
 40
0.045
309
GRIDFORMAT_END
 95
        4
302
GRIDFORMAT
  1
GRIDFORMAT_BEGIN
 90
        0
 91
        1
 62
     0
 92
       -2
340
0
 93
        0
 40
0.045
309
GRIDFORMAT_END
 95
        8
302
GRIDFORMAT
  1
GRIDFORMAT_BEGIN
 90
        0
 91
        1
 62
     0
 92
       -2
340
0
 93
        0
 40
0.045
309
GRIDFORMAT_END
 95
       16
302
GRIDFORMAT
  1
GRIDFORMAT_BEGIN
 90
        0
 91
        1
 62
     0
 92
       -2
340
0
 93
        0
 40
0.045
309
GRIDFORMAT_END
 95
       32
302
GRIDFORMAT
  1
GRIDFORMAT_BEGIN
 90
        0
 91
        1
 62
     0
 92
       -2
340
0
 93
        0
 40
0.045
309
GRIDFORMAT_END
309
TABLEFORMAT_END
  1
CELLSTYLE_BEGIN
 90
        2
 91
        1
300
_HEADER
309
CELLSTYLE_END
300
CELLSTYLE
  1
TABLEFORMAT_BEGIN
 90
        5
170
     1
 91
        0
 92
        0
 62
   257
 93
        1
300
CONTENTFORMAT
  1
CONTENTFORMAT_BEGIN
 90
        0
 91
        0
 92
        4
 93
        0
300

 40
0.0
140
1.0
 94
        2
 62
     0
340
22
144
4.5
309
CONTENTFORMAT_END
171
     1
301
MARGIN
  1
CELLMARGIN_BEGIN
 40
1.5
 40
1.5
 40
1.5
 40
1.5
 40
0.18
 40
0.18
309
CELLMARGIN_END
 94
        6
 95
        1
302
GRIDFORMAT
  1
GRIDFORMAT_BEGIN
 90
        0
 91
        1
 62
     0
 92
       -2
340
0
 93
        0
 40
0.045
309
GRIDFORMAT_END
 95
        2
302
GRIDFORMAT
  1
GRIDFORMAT_BEGIN
 90
        0
 91
        1
 62
     0
 92
       -2
340
0
 93
        0
 40
0.045
309
GRIDFORMAT_END
 95
        4
302
GRIDFORMAT
  1
GRIDFORMAT_BEGIN
 90
        0
 91
        1
 62
     0
 92
       -2
340
0
 93
        0
 40
0.045
309
GRIDFORMAT_END
 95
        8
302
GRIDFORMAT
  1
GRIDFORMAT_BEGIN
 90
        0
 91
        1
 62
     0
 92
       -2
340
0
 93
        0
 40
0.045
309
GRIDFORMAT_END
 95
       16
302
GRIDFORMAT
  1
GRIDFORMAT_BEGIN
 90
        0
 91
        1
 62
     0
 92
       -2
340
0
 93
        0
 40
0.045
309
GRIDFORMAT_END
 95
       32
302
GRIDFORMAT
  1
GRIDFORMAT_BEGIN
 90
        0
 91
        1
 62
     0
 92
       -2
340
0
 93
        0
 40
0.045
309
GRIDFORMAT_END
309
TABLEFORMAT_END
  1
CELLSTYLE_BEGIN
 90
        3
 91
        2
300
_DATA
309
CELLSTYLE_END
  0
ENDSEC
  0
SECTION
  2
ACDSDATA
 70
     2
 71
     6
  0
ACDSSCHEMA
 90
        0
  1
AcDb_Thumbnail_Schema
  2
AcDbDs::ID
280
    10
 91
        8
  2
Thumbnail_Data
280
    15
 91
        0
101
ACDSRECORD
 95
        0
 90
        1
  2
AcDbDs::TreatedAsObjectData
280
     1
291
     1
101
ACDSRECORD
 95
        0
 90
        2
  2
AcDbDs::Legacy
280
     1
291
     1
101
ACDSRECORD
  1
AcDbDs::ID
 90
        3
  2
AcDs:Indexable
280
     1
291
     1
101
ACDSRECORD
  1
AcDbDs::ID
 90
        4
  2
AcDbDs::HandleAttribute
280
     7
282
     1
  0
ACDSSCHEMA
 90
        1
  1
AcDbDs::TreatedAsObjectDataSchema
  2
AcDbDs::TreatedAsObjectData
280
     1
 91
        0
  0
ACDSSCHEMA
 90
        2
  1
AcDbDs::LegacySchema
  2
AcDbDs::Legacy
280
     1
 91
        0
  0
ACDSSCHEMA
 90
        3
  1
AcDbDs::IndexedPropertySchema
  2
AcDs:Indexable
280
     1
 91
        0
  0
ACDSSCHEMA
 90
        4
  1
AcDbDs::HandleAttributeSchema
  2
AcDbDs::HandleAttribute
280
     7
 91
        1
284
     1
  0
ACDSRECORD
 90
        0
  2
AcDbDs::ID
280
    10
320
7
  2
Thumbnail_Data
280
    15
 94
     2785
310
89504E470D0A1A0A0000000D494844520000010000000076080300000010A0BD3C00000300504C5445000000000000C8C8C80000000000000000000000000000000000000000000000000000330000660000990000CC0000FF0033000033330033660033990033CC0033FF0066000066330066660066990066CC0066FF0099
310
000099330099660099990099CC0099FF00CC0000CC3300CC6600CC9900CCCC00CCFF00FF0000FF3300FF6600FF9900FFCC00FFFF3300003300333300663300993300CC3300FF3333003333333333663333993333CC3333FF3366003366333366663366993366CC3366FF3399003399333399663399993399CC3399FF33CC00
310
33CC3333CC6633CC9933CCCC33CCFF33FF0033FF3333FF6633FF9933FFCC33FFFF6600006600336600666600996600CC6600FF6633006633336633666633996633CC6633FF6666006666336666666666996666CC6666FF6699006699336699666699996699CC6699FF66CC0066CC3366CC6666CC9966CCCC66CCFF66FF0066
310
FF3366FF6666FF9966FFCC66FFFF9900009900339900669900999900CC9900FF9933009933339933669933999933CC9933FF9966009966339966669966999966CC9966FF9999009999339999669999999999CC9999FF99CC0099CC3399CC6699CC9999CCCC99CCFF99FF0099FF3399FF6699FF9999FFCC99FFFFCC0000CC00
310
33CC0066CC0099CC00CCCC00FFCC3300CC3333CC3366CC3399CC33CCCC33FFCC6600CC6633CC6666CC6699CC66CCCC66FFCC9900CC9933CC9966CC9999CC99CCCC99FFCCCC00CCCC33CCCC66CCCC99CCCCCCCCCCFFCCFF00CCFF33CCFF66CCFF99CCFFCCCCFFFFFF0000FF0033FF0066FF0099FF00CCFF00FFFF3300FF3333
310
FF3366FF3399FF33CCFF33FFFF6600FF6633FF6666FF6699FF66CCFF66FFFF9900FF9933FF9966FF9999FF99CCFF99FFFFCC00FFCC33FFCC66FFCC99FFCCCCFFCCFFFFFF00FFFF33FFFF66FFFF99FFFFCCFFFFFF0000000D0D0D1A1A1A2828283535354343435050505D5D5D6B6B6B787878868686939393A1A1A1AEAEAEBB
310
BBBBC9C9C9D6D6D6E4E4E4F1F1F1FFFFFF00000000000000000000000000000000000000000000000000000000000008F1915C000005AC4944415478DAED5C4D9AA3380CF50D6AF63307F08665CFB9EA587D0A6DB8868EC056FBB1FE6CF3134227CC97C2584D624252E9E8F9498867E310BA7DCC628C1D84107063EF269E9B
310
D57B37EB7A200380F742330044F5C403BCC479CCB12FEEA3F43C09008C03611BB180E05D59D8BDC97CEE774A9F360690EC25409008AF0DC020BF7F00F56D1804004408810F69C7031A129451D2BDE43D51030C60180669C100480D263082786F00E88EEE0563005C1F00F1049409A93500D2610700A333203A00181D008A6D
310
0080C604CF01F21A07677EF41D00FB100390F2E7D040080C0680B61E02306400D621002D8580D7360B00C45B4D820640D8CC01D40A00960473084827E7E48F3904705E13125DBD2694F35D391B60A90ABCD8534072A110AA57B277F19230BA979CE8D4EFC79783CB22B15BB76EDDBA75EBD6AD5BB76E57B7982BFC38AFFB67
310
6A31803E6E6776F90BC9EE0A003B9F5810631CC75B02209D1FC7C80834DBC92BDA17F107038F038C7F35CB00553D5D0C164D1CB4DBD578242C01F04FCB00B80D3A1AA0E228A2BFC320C4D86C0888CC2B4AB88E90F808918D17180023B4CA80E435C4DCD755AF6F5BD30CD001021914993120B57F6B04B49B0407AC00D80801
310
01001A05C073BF8E097BEE4FC7C8CE096CED3260B2E04F2D4C537A9ED8401B3529841883072920D71188E1828325D578481E07AB2E823C5726F71B056005C51F8FF83503C0EB39A4E24F07A003D001E80074003A009FB022E67600F63FB7DDC6F527B6BE3C5786A6924FA57C6600AA02BAB9EB2553C709D4FF4A25C7A5BDF6
310
9FFC640002D8D43198368C889FF20EE174CC42184792C7FE0CAD9F0080F72D915C23CF55F2897F3C7B41FA84C758E57FC18FF326DE3FFB1A783CBBAFCA65A206249693CD100C3C938EA71502E82F1D47970738F067FC3FE80A233912A5FEE7BDF03E00F5CCFE1D3AF92C58F4F9903C471C54F7A8B5F0076C9764B77E550E95
310
3CF81400E27E37F7CF01000F003098D0353860A0B74988166C5F2493C81906F9718859212F0C282A797262E249C3EC033F85C30CA0403EE1F8140000AC47CB9D300F0010ED7BB009E189019167BF5700C8AC600E01A288F9500DC05751C9DF028004023A9501B0C700517F99EBAA006A3BEC68E1F5217D9F701E29EF017026
310
03A4E344E18F4F18E03AB8DD1331A0B79E9E636640450A6500C9B1AC92BF078074FF793940354D1039F76908947B221C80650ED806000A00AC92C7370050F7E9BCB300C909099E9E05245420DF0B320C116B96AB1CAEA741A37B1938B21008150304F6170040FD0BFD2B3C0500ABC77700F00F4CAA83A39FED5C0C87A3455C
310
39EB6DD9D14AB000704625E8773CED7FD71C1E0CD58D3378E00A2A136947253F56AF195DE45F9033E2876AE1BAFEFB78C5FDFFDB74B6856EDDBA75EBD6AD5B43167F4655F431F77904400440AAAC5977D7CE45A2EF6FFC4E8F5B00A06AF6CCFFE8D7E8F7603CAD23204694E7C63C1DCD70D7FFBBD97DFCAFF219EEF9FF6484
310
33B68001EEF57FC42C5562AB24C03DFE5767FFE62AA125000FE31F5B5C33F06851636375850106052BD8265E86B2015D1E005C1C5F032003093A4A92FCB527DF80AE48823D00646DA039004841EE1BE34DDA90B770A94CB902603318D600A45EE6F1A0CC00688501445F64C7F70090B1B6E47BBD69ABCD7573C02FFAAADEA9
310
6262030063403679A55328AECA80DF44FF6E02B0C180D82800BFC2911CA0134F3C099021C15B804057BA8F701102BFD98E31C042606E1763C06175679D03B40E90E523D3E6AD6C41D6D7BD741D7020047CF299DF451ACA266B4D360E40BE136CCBC2F52F186AED773304822DB6D8EAC5D01100A091CBC2574320C67B01606B
310
29DF7764A85BB76EDD6616F57A27DAE6AD1FBC81C1ADFBDF5693AF5461B8A42AFC2E005B82085D4C10391D80702300685B11226A7F8545076043150E575285DF0E81AD55C55A5D5B6C0180DC83D78224F63203160BAB5D56127B1D82D0B024768C02372F05E1E6D2C8CF91C4FE032647C488A6D5A8FB0000000049454E44AE
310
426082F58064894C42206D119280AF42E126D60362252730A6240678371D0590BE810580FD2CEE1493ABC5FD329AEE3A9AAFFD02BFAE243B7E6E2C962E5C806A0B985CE64647818CD28E862657D1750A87495BFE5C313B699DE409E5F706B10460ED7B1200FFED0B8C53DCBEC49A6E2600B4BFDBB1B7E57D2F1C689E245D19
310
135D20E33C6D01BE1ECC568E29DDA16C33D17C0F00950088A077120C3F75593C6ADA0500AEF38DFBEDC11F2C129D76D22B09EF0E008EFF83887F1D00C0BD2DE03894DD18002553917067DDD705F2940011E9BE00EE71A75F37178844229148241289442291482412896EA6FF014E6D0B6171CCA88E0000000049454E44AE42
310
60828BF554F84900E0AFB30AEC78FCE8084A1EF7899EA8017F9B53F5FE9A69E3691FCFACFF435EF093E2DF4965F67FF6FFD5923878BF13FDE95F751B17CA133D2B666CF59F9E31E67B60009BF79F281E112DF280B71CF47E48FFE984A3FE53A6FCA28D9559A3B79AD1ADA4C82115A5B7F03294EC3C0A401C03C04E27782600
310
BBC260FC83DB7627FFDFA26C6EFD2F18D74A5303DEC207D8DF500A832AAE30B24D0B79E92D00603C928C54D676B75181CAD27B00008C00B8DF65C1C16D5C284BEF120629F10114D76E6DA342A5F4164E50C600A4DB5385FA56645B57A8967E20FF0307895F16799788F40000000049454E44AE426082
  0
ENDSEC
  0
EOF
