  0
SECTION
  2
HEADER
  9
$ACADVER
  1
AC1015
  9
$ACADMAINTVER
 70
    20
  9
$DWGCODEPAGE
  3
ANSI_1252
  9
$INSBASE
 10
0.0
 20
0.0
 30
0.0
  9
$EXTMIN
 10
-19.26854138140627
 20
3.683266408715758
 30
0.0
  9
$EXTMAX
 10
502.9414503813357
 20
490.9855099218225
 30
0.0
  9
$LIMMIN
 10
0.0
 20
0.0
  9
$LIMMAX
 10
566.4069975479701
 20
669.6985897720049
  9
$ORTHOMODE
 70
     1
  9
$REGENMODE
 70
     1
  9
$FILLMODE
 70
     1
  9
$QTEXTMODE
 70
     0
  9
$MIRRTEXT
 70
     0
  9
$LTSCALE
 40
1.0
  9
$ATTMODE
 70
     1
  9
$TEXTSIZE
 40
3.5
  9
$TRACEWID
 40
0.05
  9
$TEXTSTYLE
  7
ARIAL-STANDARD
  9
$CLAYER
  8
ACHSEN
  9
$CELTYPE
  6
BYLAYER
  9
$CECOLOR
 62
   256
  9
$CELTSCALE
 40
1.0
  9
$DISPSILH
 70
     0
  9
$DIMSCALE
 40
1.0
  9
$DIMASZ
 40
4.0
  9
$DIMEXO
 40
0.0
  9
$DIMDLI
 40
8.0
  9
$DIMRND
 40
0.0
  9
$DIMDLE
 40
0.0
  9
$DIMEXE
 40
1.0
  9
$DIMTP
 40
0.0
  9
$DIMTM
 40
0.0
  9
$DIMTXT
 40
4.349999999999999
  9
$DIMCEN
 40
1.5
  9
$DIMTSZ
 40
0.0
  9
$DIMTOL
 70
     0
  9
$DIMLIM
 70
     0
  9
$DIMTIH
 70
     0
  9
$DIMTOH
 70
     0
  9
$DIMSE1
 70
     0
  9
$DIMSE2
 70
     0
  9
$DIMTAD
 70
     1
  9
$DIMZIN
 70
     8
  9
$DIMBLK
  1

  9
$DIMASO
 70
     1
  9
$DIMSHO
 70
     1
  9
$DIMPOST
  1

  9
$DIMAPOST
  1

  9
$DIMALT
 70
     0
  9
$DIMALTD
 70
     2
  9
$DIMALTF
 40
25.39999999999999
  9
$DIMLFAC
 40
1.0
  9
$DIMTOFL
 70
     1
  9
$DIMTVP
 40
0.0
  9
$DIMTIX
 70
     1
  9
$DIMSOXD
 70
     0
  9
$DIMSAH
 70
     0
  9
$DIMBLK1
  1

  9
$DIMBLK2
  1

  9
$DIMSTYLE
  2
Katalog 09
  9
$DIMCLRD
 70
     2
  9
$DIMCLRE
 70
     2
  9
$DIMCLRT
 70
     3
  9
$DIMTFAC
 40
0.4285714285714286
  9
$DIMGAP
 40
1.0
  9
$DIMJUST
 70
     0
  9
$DIMSD1
 70
     0
  9
$DIMSD2
 70
     0
  9
$DIMTOLJ
 70
     1
  9
$DIMTZIN
 70
     8
  9
$DIMALTZ
 70
     8
  9
$DIMALTTZ
 70
     8
  9
$DIMUPT
 70
     0
  9
$DIMDEC
 70
     2
  9
$DIMTDEC
 70
     2
  9
$DIMALTU
 70
     2
  9
$DIMALTTD
 70
     2
  9
$DIMTXSTY
  7
ARIAL-STANDARD
  9
$DIMAUNIT
 70
     0
  9
$DIMADEC
 70
     0
  9
$DIMALTRND
 40
0.0
  9
$DIMAZIN
 70
     0
  9
$DIMDSEP
 70
    46
  9
$DIMATFIT
 70
     3
  9
$DIMFRAC
 70
     0
  9
$DIMLDRBLK
  1

  9
$DIMLUNIT
 70
     2
  9
$DIMLWD
 70
    -2
  9
$DIMLWE
 70
    -2
  9
$DIMTMOVE
 70
     2
  9
$LUNITS
 70
     2
  9
$LUPREC
 70
     4
  9
$SKETCHINC
 40
0.1
  9
$FILLETRAD
 40
1.5
  9
$AUNITS
 70
     0
  9
$AUPREC
 70
     0
  9
$MENU
  1
.
  9
$ELEVATION
 40
0.0
  9
$PELEVATION
 40
0.0
  9
$THICKNESS
 40
0.0
  9
$LIMCHECK
 70
     0
  9
$CHAMFERA
 40
0.0
  9
$CHAMFERB
 40
0.0
  9
$CHAMFERC
 40
1.0
  9
$CHAMFERD
 40
0.0
  9
$SKPOLY
 70
     0
  9
$TDCREATE
 40
2451554.447219456
  9
$TDUCREATE
 40
2451554.363886123
  9
$TDUPDATE
 40
2454900.508905556
  9
$TDUUPDATE
 40
2454900.425572222
  9
$TDINDWG
 40
1.9399003241
  9
$TDUSRTIMER
 40
1.9399003241
  9
$USRTIMER
 70
     1
  9
$ANGBASE
 50
0.0
  9
$ANGDIR
 70
     0
  9
$PDMODE
 70
     0
  9
$PDSIZE
 40
0.0
  9
$PLINEWID
 40
0.0
  9
$SPLFRAME
 70
     0
  9
$SPLINETYPE
 70
     6
  9
$SPLINESEGS
 70
     8
  9
$HANDSEED
  5
326
  9
$SURFTAB1
 70
     6
  9
$SURFTAB2
 70
     6
  9
$SURFTYPE
 70
     6
  9
$SURFU
 70
     6
  9
$SURFV
 70
     6
  9
$UCSBASE
  2

  9
$UCSNAME
  2

  9
$UCSORG
 10
0.0
 20
0.0
 30
0.0
  9
$UCSXDIR
 10
1.0
 20
0.0
 30
0.0
  9
$UCSYDIR
 10
0.0
 20
1.0
 30
0.0
  9
$UCSORTHOREF
  2

  9
$UCSORTHOVIEW
 70
     0
  9
$UCSORGTOP
 10
0.0
 20
0.0
 30
0.0
  9
$UCSORGBOTTOM
 10
0.0
 20
0.0
 30
0.0
  9
$UCSORGLEFT
 10
0.0
 20
0.0
 30
0.0
  9
$UCSORGRIGHT
 10
0.0
 20
0.0
 30
0.0
  9
$UCSORGFRONT
 10
0.0
 20
0.0
 30
0.0
  9
$UCSORGBACK
 10
0.0
 20
0.0
 30
0.0
  9
$PUCSBASE
  2

  9
$PUCSNAME
  2

  9
$PUCSORG
 10
0.0
 20
0.0
 30
0.0
  9
$PUCSXDIR
 10
1.0
 20
0.0
 30
0.0
  9
$PUCSYDIR
 10
0.0
 20
1.0
 30
0.0
  9
$PUCSORTHOREF
  2

  9
$PUCSORTHOVIEW
 70
     0
  9
$PUCSORGTOP
 10
0.0
 20
0.0
 30
0.0
  9
$PUCSORGBOTTOM
 10
0.0
 20
0.0
 30
0.0
  9
$PUCSORGLEFT
 10
0.0
 20
0.0
 30
0.0
  9
$PUCSORGRIGHT
 10
0.0
 20
0.0
 30
0.0
  9
$PUCSORGFRONT
 10
0.0
 20
0.0
 30
0.0
  9
$PUCSORGBACK
 10
0.0
 20
0.0
 30
0.0
  9
$USERI1
 70
     0
  9
$USERI2
 70
     0
  9
$USERI3
 70
     0
  9
$USERI4
 70
     0
  9
$USERI5
 70
     0
  9
$USERR1
 40
0.0
  9
$USERR2
 40
0.0
  9
$USERR3
 40
0.0
  9
$USERR4
 40
0.0
  9
$USERR5
 40
0.0
  9
$WORLDVIEW
 70
     1
  9
$SHADEDGE
 70
     3
  9
$SHADEDIF
 70
    70
  9
$TILEMODE
 70
     1
  9
$MAXACTVP
 70
    48
  9
$PINSBASE
 10
0.0
 20
0.0
 30
0.0
  9
$PLIMCHECK
 70
     0
  9
$PEXTMIN
 10
1.000000000000000E+20
 20
1.000000000000000E+20
 30
1.000000000000000E+20
  9
$PEXTMAX
 10
-1.000000000000000E+20
 20
-1.000000000000000E+20
 30
-1.000000000000000E+20
  9
$PLIMMIN
 10
0.0
 20
0.0
  9
$PLIMMAX
 10
12.0
 20
9.0
  9
$UNITMODE
 70
     0
  9
$VISRETAIN
 70
     1
  9
$PLINEGEN
 70
     0
  9
$PSLTSCALE
 70
     1
  9
$TREEDEPTH
 70
  3020
  9
$CMLSTYLE
  2
STANDARD
  9
$CMLJUST
 70
     0
  9
$CMLSCALE
 40
1.0
  9
$PROXYGRAPHICS
 70
     1
  9
$MEASUREMENT
 70
     1
  9
$CELWEIGHT
370
    -1
  9
$ENDCAPS
280
     0
  9
$JOINSTYLE
280
     0
  9
$LWDISPLAY
290
     0
  9
$INSUNITS
 70
     0
  9
$HYPERLINKBASE
  1

  9
$STYLESHEET
  1

  9
$XEDIT
290
     1
  9
$CEPSNTYPE
380
     0
  9
$PSTYLEMODE
290
     1
  9
$FINGERPRINTGUID
  2
{8357A0F4-C66E-497E-A5CC-9E49101CFADB}
  9
$VERSIONGUID
  2
{2BF26AC3-989A-4F22-A565-1C55C31648F3}
  9
$EXTNAMES
290
     1
  9
$PSVPSCALE
 40
0.0
  9
$OLESTARTUP
290
     0
  0
ENDSEC
  0
SECTION
  2
CLASSES
  0
CLASS
  1
ACDBDICTIONARYWDFLT
  2
AcDbDictionaryWithDefault
  3
ObjectDBX Classes
 90
        0
280
     0
281
     0
  0
CLASS
  1
ACDBPLACEHOLDER
  2
AcDbPlaceHolder
  3
ObjectDBX Classes
 90
        0
280
     0
281
     0
  0
CLASS
  1
LAYOUT
  2
AcDbLayout
  3
ObjectDBX Classes
 90
        0
280
     0
281
     0
  0
CLASS
  1
ACME_DOCUMENT
  2
AcMeDbDoc
  3
AcMeServices
 90
    33792
280
     0
281
     0
  0
CLASS
  1
AMGSETTINGSOBJ
  2
AmgSettingsObj
  3
"AcadM|Product Description: AutoCAD Mechanical|Company: Autodesk, Inc."
 90
     1024
280
     0
281
     0
  0
CLASS
  1
ACMESCOPE
  2
AcMeScope
  3
AcMeServices
 90
     1024
280
     0
281
     0
  0
CLASS
  1
ACMECOMMANDHISTORY
  2
AcMeCommandHistory
  3
AcMeServices
 90
    33792
280
     0
281
     0
  0
CLASS
  1
ACIMSYSVARMAN
  2
AcImSysVarManager
  3
AcMeServices
 90
     1024
280
     0
281
     0
  0
CLASS
  1
ACIMREALSYSVAR
  2
AcImRealSysVar
  3
AcMeServices
 90
     1024
280
     0
281
     0
  0
CLASS
  1
ACIMINTSYSVAR
  2
AcImIntSysVar
  3
AcMeServices
 90
     1024
280
     0
281
     0
  0
CLASS
  1
ACMEDRAWINGMAN
  2
AcMeDrawingMan
  3
AcMeServices
 90
    33792
280
     0
281
     0
  0
CLASS
  1
ACMEVIEW
  2
AcMeView
  3
AcMeServices
 90
    33792
280
     0
281
     0
  0
CLASS
  1
ACDBENTITYCACHE
  2
AcMeEntityCache
  3
AcMeServices
 90
    33792
280
     0
281
     0
  0
CLASS
  1
GSMANAGER
  2
AcMeGSManager
  3
AcMeServices
 90
    33792
280
     0
281
     0
  0
CLASS
  1
AMDTINTERNALREACTOR
  2
AmdtInternalReactor
  3
AcMeServices
 90
     1024
280
     0
281
     0
  0
CLASS
  1
ACMESTATEMGR
  2
AcMeStateMgr
  3
AcMeServices
 90
     1024
280
     0
281
     0
  0
CLASS
  1
ACGREFMASTER
  2
AcGrefMaster
  3
AcAttribServices
 90
     1024
280
     0
281
     0
  0
CLASS
  1
ACME_DATABASE
  2
AcMeDbDatabase
  3
AcMeServices
 90
    33792
280
     0
281
     0
  0
CLASS
  1
ACRFINSADJUSTERMGR
  2
AcRfInsAdjusterMgr
  3
AcMeServices
 90
    33792
280
     0
281
     0
  0
CLASS
  1
ACGREFACADMASTER
  2
AcGrefacadMaster
  3
AcGrefServices
 90
    33792
280
     0
281
     0
  0
CLASS
  1
AMIMASTER
  2
AmiMaster
  3
AmiServices
 90
    33792
280
     0
281
     0
  0
CLASS
  1
ACMDATADICTIONARY
  2
AcmDataDictionary
  3
"AcmSymBB|Product Description: AutoCAD Mechanical|Company: Autodesk, Inc."
 90
     1024
280
     0
281
     0
  0
CLASS
  1
ACMDATAENTRYBLOCK
  2
AcmDataEntryBlock
  3
AcmSymBB|Product Description: AutoCAD Mechanical|Company: Autodesk, Inc.
 90
     1024
280
     0
281
     0
  0
CLASS
  1
ACIMSTRSYSVAR
  2
AcImStrSysVar
  3
AcMeServices
 90
     1024
280
     0
281
     0
  0
CLASS
  1
ACMSTANDARDDIN
  2
AcmStandardDIN
  3
"Amdt_StdImp|Product Description: AutoCAD Mechanical|Company: Autodesk, Inc."
 90
     1024
280
     0
281
     0
  0
CLASS
  1
AMGOBJPROPCFG
  2
AmgObjPropCfg
  3
"AmgLay|Product Description: AutoCAD Mechanical|Company: Autodesk, Inc."
 90
     1025
280
     0
281
     0
  0
CLASS
  1
AMDTEDGESTANDARDDIN
  2
AmdtEdgeStdDIN
  3
"Amdt_StdImp|Product Description: AutoCAD Mechanical|Company: Autodesk, Inc."
 90
     1024
280
     0
281
     0
  0
CLASS
  1
ACMSURFSTANDARDDIN
  2
AcmSurfTextStdDIN
  3
"Amdt_StdImp|Product Description: AutoCAD Mechanical|Company: Autodesk, Inc."
 90
     1024
280
     0
281
     0
  0
CLASS
  1
ACMFCFSTANDARDDIN
  2
AcmFCFStdDIN
  3
"Amdt_StdImp|Product Description: AutoCAD Mechanical|Company: Autodesk, Inc."
 90
     1024
280
     0
281
     0
  0
CLASS
  1
ACMWELDSTANDARDDIN
  2
AcmWeldingStdDIN
  3
"Amdt_StdImp|Product Description: AutoCAD Mechanical|Company: Autodesk, Inc."
 90
     1024
280
     0
281
     0
  0
CLASS
  1
ACMIDSTANDARDDIN
  2
AcmIdStdDIN
  3
"Amdt_StdImp|Product Description: AutoCAD Mechanical|Company: Autodesk, Inc."
 90
     1024
280
     0
281
     0
  0
CLASS
  1
ACMDATUMSTANDARDDIN
  2
AcmDatumStdDIN
  3
"Amdt_StdImp|Product Description: AutoCAD Mechanical|Company: Autodesk, Inc."
 90
     1024
280
     0
281
     0
  0
CLASS
  1
ACMBOMSTANDARDDIN
  2
AcmBOMStdDIN
  3
"Amdt_StdImp|Product Description: AutoCAD Mechanical|Company: Autodesk, Inc."
 90
     1024
280
     0
281
     0
  0
CLASS
  1
ACMDETAILSTANDARDDIN
  2
AmdtDetailSymStdDIN
  3
"Amdt_StdImp|Product Description: AutoCAD Mechanical|Company: Autodesk, Inc."
 90
     1024
280
     0
281
     0
  0
CLASS
  1
ACMSECTIONSTANDARDDIN
  2
AmdtSectionSymStdDIN
  3
"Amdt_StdImp|Product Description: AutoCAD Mechanical|Company: Autodesk, Inc."
 90
     1024
280
     0
281
     0
  0
CLASS
  1
ACMCENTERLINESTANDARDDIN
  2
AmdtCenterLineStdDIN
  3
"Amdt_StdImp|Product Description: AutoCAD Mechanical|Company: Autodesk, Inc."
 90
     1024
280
     0
281
     0
  0
CLASS
  1
ACMNOTESTANDARDDIN
  2
AmdtNoteStdDIN
  3
"Amdt_StdImp|Product Description: AutoCAD Mechanical|Company: Autodesk, Inc."
 90
     1024
280
     0
281
     0
  0
CLASS
  1
ACAMGLAYSTD
  2
AcAmgLayStd
  3
"AmgLay|Product Description: AutoCAD Mechanical|Company: Autodesk, Inc."
 90
     1024
280
     0
281
     0
  0
CLASS
  1
ACAMGDIMSTD
  2
AcAmgDimStd
  3
"AmgDim|Product Description: AutoCAD Mechanical|Company: Autodesk, Inc."
 90
     1024
280
     0
281
     0
  0
CLASS
  1
ACAMGHOLECHARTSTDDIN
  2
AcAmgHoleChartStdDIN
  3
AmgDim|Product Description: AutoCAD Mechanical|Company: Autodesk, Inc.
 90
     1024
280
     0
281
     0
  0
CLASS
  1
ACAMGTITLESTD
  2
AcAmgTitleStd
  3
"AmgTitle|Product Description: AutoCAD Mechanical|Company: Autodesk, Inc."
 90
     4095
280
     0
281
     0
  0
CLASS
  1
ACAMGFILTERDAT
  2
AcAmgFilterDat
  3
"AcadM|Product Description: AutoCAD Mechanical|Company: Autodesk, Inc."
 90
    33792
280
     0
281
     0
  0
CLASS
  1
LAYER_INDEX
  2
AcDbLayerIndex
  3
ObjectDBX Classes
 90
    32768
280
     0
281
     0
  0
CLASS
  1
IDBUFFER
  2
AcDbIdBuffer
  3
ObjectDBX Classes
 90
    32768
280
     0
281
     0
  0
CLASS
  1
DICTIONARYVAR
  2
AcDbDictionaryVar
  3
ObjectDBX Classes
 90
        0
280
     0
281
     0
  0
CLASS
  1
ACMDIMBREAKPERSREACTOR
  2
AcmDimBreakPersReactor
  3
AmgDim|Product Description: AutoCAD Mechanical|Company: Autodesk, Inc.
 90
    36863
280
     0
281
     0
  0
CLASS
  1
AMDTNOTE
  2
AmdtNote
  3
"AcmSymBB|Product Description: AutoCAD Mechanical|Company: Autodesk, Inc."
 90
    36863
280
     0
281
     1
  0
CLASS
  1
AMDTFORMULAUPDATEDISPATCHER
  2
AmdtFormulaUpdateDispatcher
  3
AcMeServices
 90
    33792
280
     0
281
     0
  0
CLASS
  1
PLOTSETTINGS
  2
AcDbPlotSettings
  3
ObjectDBX Classes
 90
    32768
280
     0
281
     0
  0
CLASS
  1
TABLESTYLE
  2
AcDbTableStyle
  3
ObjectDBX Classes
 90
     4095
280
     0
281
     0
  0
CLASS
  1
AM_DRAWING_MGR
  2
AcDmDwgMgr
  3
AcMechDwgViewMgmt
 90
     1024
280
     0
281
     0
  0
CLASS
  1
AM_DWG_DOCUMENT
  2
AcDmDwgDocument
  3
AcMechDwgViewMgmt
 90
     1024
280
     0
281
     0
  0
CLASS
  1
AM_DWG_SHEET
  2
AcDmSheet
  3
AcMechDwgViewMgmt
 90
     1024
280
     0
281
     0
  0
CLASS
  1
AM_VIEWDIMPARMAP
  2
AcDmViewDimParMap
  3
AcMechDwgViewMgmt
 90
     1024
280
     0
281
     0
  0
CLASS
  1
AM_DWGMGR_NAME
  2
AcDmDwgMgrName
  3
AcMechDwgViewMgmt
 90
     1024
280
     0
281
     0
  0
CLASS
  1
AMDTMENUSTATEMGR
  2
AmdtMenuStateMgr
  3
McadcomServices
 90
    33792
280
     0
281
     0
  0
CLASS
  1
AMDTMCOMMENUSTATE
  2
AmdtMcomMenuState
  3
McadcomServices
 90
    33792
280
     0
281
     0
  0
CLASS
  1
MAPIAMMOUDLE
  2
MApiAmModule
  3
MApiAmServices
 90
    33792
280
     0
281
     0
  0
CLASS
  1
AMDTADMENUSTATE
  2
AmdtAdMenuState
  3
DesignerServices
 90
    33792
280
     0
281
     0
  0
CLASS
  1
ADAPPL
  2
AcAdAppl
  3
DesignerServices
 90
     1024
280
     0
281
     0
  0
CLASS
  1
DEPMGR
  2
AcAdDepMgr
  3
DesignerServices
 90
     1024
280
     0
281
     0
  0
CLASS
  1
PARAMMGR
  2
AcAdParamMgr
  3
DesignerServices
 90
     1024
280
     0
281
     0
  0
CLASS
  1
PARAMSCOPE
  2
AcAdParamScope
  3
DesignerServices
 90
     1024
280
     0
281
     0
  0
CLASS
  1
NAMEDAPPL
  2
AcAdNamedAppl
  3
DesignerServices
 90
     1024
280
     0
281
     0
  0
CLASS
  1
AMDTDMMENUSTATE
  2
AmdtDmMenuState
  3
AcMechDwgViewMgmt
 90
    33792
280
     0
281
     0
  0
CLASS
  1
AMDTAMMENUSTATE
  2
AmdtAmMenuState
  3
DesignerAssemblies
 90
    33792
280
     0
281
     0
  0
CLASS
  1
ACAMPROJECT
  2
AcAmProject
  3
DesignerAssemblies
 90
    33792
280
     0
281
     0
  0
CLASS
  1
ACAMGRCOMPDEF
  2
AcAmGrCompDef
  3
DesignerAssemblies
 90
    33792
280
     0
281
     0
  0
CLASS
  1
ACCMCONTEXT
  2
AcCmContext
  3
DesignerAssemblies
 90
    33792
280
     0
281
     0
  0
CLASS
  1
ACAMCOMPDEF
  2
AcAmCompDef
  3
DesignerAssemblies
 90
    33792
280
     0
281
     0
  0
CLASS
  1
ACAMCOMPDEFMGR
  2
AcAmCompDefMgr
  3
DesignerAssemblies
 90
    33792
280
     0
281
     0
  0
CLASS
  1
AMCONTEXTMGR
  2
AcAmContextMgr
  3
DesignerAssemblies
 90
    33792
280
     0
281
     0
  0
CLASS
  1
ACAMCONTEXTMODELER
  2
AcAmContextModeler
  3
DesignerAssemblies
 90
    33792
280
     0
281
     0
  0
CLASS
  1
ACRFATTGENMGR
  2
AcRfAttGeneralMgr
  3
AcAttribServices
 90
    33792
280
     0
281
     0
  0
CLASS
  1
ACRFOBJATTMGR
  2
AcRfObjAttGroupMgr
  3
AcAttribServices
 90
    33792
280
     0
281
     0
  0
CLASS
  1
ACRFMCADAPIATTHOLDER
  2
AcRfMCADAPIAttHolder
  3
AcAttribServices
 90
    33792
280
     0
281
     0
  0
CLASS
  1
AMDTSYSATTR
  2
AmdtSystemAttribute
  3
AcAttribServices
 90
    33792
280
     0
281
     0
  0
CLASS
  1
ACMTHREADLINESTANDARDDIN
  2
AmdtThreadLineStdDIN
  3
"Amdt_StdImp|Product Description: AutoCAD Mechanical|Company: Autodesk, Inc."
 90
     1024
280
     0
281
     0
  0
CLASS
  1
CATALOGSTATE
  2
AcAmCatalogState
  3
DesignerAssemblies
 90
    33792
280
     0
281
     0
  0
CLASS
  1
ACAMGRCOMPDEFSET
  2
AcAmGrCompDefSet
  3
DesignerAssemblies
 90
    33792
280
     0
281
     0
  0
CLASS
  1
AMDTBROWSERDBTAB
  2
AmdtBrowserDbTab
  3
McadcomServices
 90
    33792
280
     0
281
     0
  0
CLASS
  1
CBROWSERAPPOBJECT
  2
CBrowserAppObject
  3
McadcomServices
 90
    33792
280
     0
281
     0
  0
CLASS
  1
DM_PLACEHOLDER
  2
AcDmSelsetPlaceholder
  3
AcMechDwgViewMgmt
 90
    33792
280
     0
281
     0
  0
CLASS
  1
SORTENTSTABLE
  2
AcDbSortentsTable
  3
ObjectDBX Classes
 90
        0
280
     0
281
     0
  0
CLASS
  1
MATERIAL
  2
AcDbMaterial
  3
ObjectDBX Classes
 90
     1153
280
     0
281
     0
  0
CLASS
  1
VISUALSTYLE
  2
AcDbVisualStyle
  3
ObjectDBX Classes
 90
     4095
280
     0
281
     0
  0
CLASS
  1
SCALE
  2
AcDbScale
  3
ObjectDBX Classes
 90
     1153
280
     0
281
     0
  0
CLASS
  1
MLEADERSTYLE
  2
AcDbMLeaderStyle
  3
ACDB_MLEADERSTYLE_CLASS
 90
    36863
280
     0
281
     0
  0
CLASS
  1
ACMTAPERSTANDARDDIN
  2
AcmTaperStdDIN
  3
"Amdt_StdImp|Product Description: AutoCAD Mechanical|Company: Autodesk, Inc."
 90
     1024
280
     0
281
     0
  0
CLASS
  1
ACMANOOTATIONVIEWSTANDARDDIN
  2
AmdtAnViewStdDIN
  3
"Amdt_StdImp|Product Description: AutoCAD Mechanical|Company: Autodesk, Inc."
 90
     1024
280
     0
281
     0
  0
CLASS
  1
VLO-VL
  2
vlo_VL
  3
VL|AutoLISP based application
 90
    32897
280
     0
281
     0
  0
CLASS
  1
CAMSSTRUCTBTNSTATE
  2
StructBtnState
  3
DesignerAssemblies
 90
    33792
280
     0
281
     0
  0
CLASS
  1
CELLSTYLEMAP
  2
AcDbCellStyleMap
  3
ObjectDBX Classes
 90
     1152
280
     0
281
     0
  0
ENDSEC
  0
SECTION
  2
TABLES
  0
TABLE
  2
VPORT
  5
28
330
0
100
AcDbSymbolTable
 70
     1
  0
VPORT
  5
29
330
28
100
AcDbSymbolTableRecord
100
AcDbViewportTableRecord
  2
*Active
 70
     0
 10
0.0
 20
0.0
 11
1.0
 21
1.0
 12
242.2376347886508
 22
277.6839399830536
 13
0.0
 23
0.0
 14
10.0
 24
10.0
 15
10.0
 25
10.0
 16
0.0
 26
0.0
 36
1.0
 17
0.0
 27
0.0
 37
0.0
 40
490.4480273454105
 41
1.55496264674493
 42
50.0
 43
0.0
 44
0.0
 50
0.0
 51
0.0
 71
     0
 72
  5000
 73
     1
 74
     0
 75
     0
 76
     0
 77
     0
 78
     0
281
     0
 65
     1
110
0.0
120
0.0
130
0.0
111
1.0
121
0.0
131
0.0
112
0.0
122
1.0
132
0.0
 79
     0
146
0.0
  0
ENDTAB
  0
TABLE
  2
LTYPE
  5
23
330
0
100
AcDbSymbolTable
 70
    16
  0
LTYPE
  5
24
330
23
100
AcDbSymbolTableRecord
100
AcDbLinetypeTableRecord
  2
BYBLOCK
 70
     0
  3

 72
    65
 73
     0
 40
0.0
  0
LTYPE
  5
25
330
23
100
AcDbSymbolTableRecord
100
AcDbLinetypeTableRecord
  2
BYLAYER
 70
     0
  3

 72
    65
 73
     0
 40
0.0
  0
LTYPE
  5
15
330
23
100
AcDbSymbolTableRecord
100
AcDbLinetypeTableRecord
  2
CONTINUOUS
 70
     0
  3
Solid line
 72
    65
 73
     0
 40
0.0
  0
LTYPE
  5
50
330
23
100
AcDbSymbolTableRecord
100
AcDbLinetypeTableRecord
  2
STRICHPUNKT2
 70
     0
  3
Strichpunkt (.5x) _._._._._._._._._._._._._._._
 72
    65
 73
     4
 40
12.7
 49
6.349999999999999
 74
     0
 49
-3.174999999999999
 74
     0
 49
0.0
 74
     0
 49
-3.174999999999999
 74
     0
  0
LTYPE
  5
2C1
330
23
100
AcDbSymbolTableRecord
100
AcDbLinetypeTableRecord
  2
AM_ISO02W050
 70
     0
  3
__ __ __ __ __ __ __ __ __ __ __ __ __ __ __
 72
    65
 73
     2
 40
7.5
 49
6.0
 74
     0
 49
-1.5
 74
     0
  0
LTYPE
  5
2D3
330
23
100
AcDbSymbolTableRecord
100
AcDbLinetypeTableRecord
  2
ACDINWELD
 70
     0
  3
_ _ _ _ _
 72
    65
 73
     2
 40
2.0
 49
2.0
 74
     0
 49
-1.0
 74
     0
  0
LTYPE
  5
2D6
330
23
100
AcDbSymbolTableRecord
100
AcDbLinetypeTableRecord
  2
ACDINTGB
 70
     0
  3
__ . . __ . .
 72
    65
 73
     6
 40
9.0
 49
4.0
 74
     0
 49
-1.0
 74
     0
 49
1.0
 74
     0
 49
-1.0
 74
     0
 49
1.0
 74
     0
 49
-1.0
 74
     0
  0
LTYPE
  5
2D7
330
23
100
AcDbSymbolTableRecord
100
AcDbLinetypeTableRecord
  2
ACDINTGL
 70
     0
  3
_ _ _ _ _
 72
    65
 73
     2
 40
3.0
 49
2.0
 74
     0
 49
-1.0
 74
     0
  0
LTYPE
  5
2DB
330
23
100
AcDbSymbolTableRecord
100
AcDbLinetypeTableRecord
  2
CENTER
 70
     0
  3
__ . __
 72
    65
 73
     4
 40
7.0
 49
4.0
 74
     0
 49
-1.0
 74
     0
 49
1.0
 74
     0
 49
-1.0
 74
     0
  0
LTYPE
  5
2BC
330
23
100
AcDbSymbolTableRecord
100
AcDbLinetypeTableRecord
  2
gen3
 70
     0
  3
-- -- -- -- -- -- -- -- -- -- -- -- -- -- --
 72
    65
 73
     2
 40
6.25
 49
4.75
 74
     0
 49
-1.5
 74
     0
  0
LTYPE
  5
2BD
330
23
100
AcDbSymbolTableRecord
100
AcDbLinetypeTableRecord
  2
gen7
 70
     0
  3
____ . ____ . ____ . ____ . ____ . ____ . ____
 72
    65
 73
     4
 40
13.75
 49
9.75
 74
     0
 49
-1.5
 74
     0
 49
1.0
 74
     0
 49
-1.5
 74
     0
  0
LTYPE
  5
2BE
330
23
100
AcDbSymbolTableRecord
100
AcDbLinetypeTableRecord
  2
gen3a
 70
     0
  3
 - - - - -
 72
    65
 73
     2
 40
3.125
 49
2.25
 74
     0
 49
-0.875
 74
     0
  0
LTYPE
  5
2BF
330
23
100
AcDbSymbolTableRecord
100
AcDbLinetypeTableRecord
  2
gen7a
 70
     0
  3
__ . __ . __
 72
    65
 73
     4
 40
6.875
 49
4.75
 74
     0
 49
-0.875
 74
     0
 49
0.375
 74
     0
 49
-0.875
 74
     0
  0
LTYPE
  5
2C0
330
23
100
AcDbSymbolTableRecord
100
AcDbLinetypeTableRecord
  2
gen4a
 70
     0
  3
_____ . . _____ . . _____ . . ____ .. ____
 72
    65
 73
     6
 40
16.25
 49
9.75
 74
     0
 49
-1.5
 74
     0
 49
1.0
 74
     0
 49
-1.5
 74
     0
 49
1.0
 74
     0
 49
-1.5
 74
     0
  0
LTYPE
  5
2C2
330
23
100
AcDbSymbolTableRecord
100
AcDbLinetypeTableRecord
  2
genzigzag
 70
     0
  3
/\/-/\/-/\/-/\/-/\/-/\/
 72
    65
 73
     2
 40
12.0001
 49
0.0001
 74
     4
 75
   135
340
2C3
 46
2.0
 50
0.0
 44
0.0
 45
0.0
 49
-12.0
 74
     0
  0
LTYPE
  5
9C
330
23
100
AcDbSymbolTableRecord
100
AcDbLinetypeTableRecord
  2
VERDECKT
 70
     0
  3
Verdeckt __ __ __ __ __ __ __ __ __ __ __ __ __
 72
    65
 73
     2
 40
9.524999999999998
 49
6.349999999999999
 74
     0
 49
-3.174999999999999
 74
     0
  0
LTYPE
  5
30E
330
23
100
AcDbSymbolTableRecord
100
AcDbLinetypeTableRecord
  2
HIDDEN
 70
     0
  3
Verdeckt
 72
    65
 73
     2
 40
9.525
 49
6.349999999999999
 74
     0
 49
-3.174999999999999
 74
     0
  0
LTYPE
  5
30F
330
23
100
AcDbSymbolTableRecord
100
AcDbLinetypeTableRecord
  2
PHANTOM2
 70
     0
  3
Phantom (.5x) ___ _ _ ___ _ _ ___ _ _ ___ _ _
 72
    65
 73
     6
 40
31.75
 49
15.875
 74
     0
 49
-3.174999999999999
 74
     0
 49
3.174999999999999
 74
     0
 49
-3.174999999999999
 74
     0
 49
3.174999999999999
 74
     0
 49
-3.174999999999999
 74
     0
  0
ENDTAB
  0
TABLE
  2
LAYER
  5
1D
102
{ACAD_XDICTIONARY
360
1E
102
}
330
0
100
AcDbSymbolTable
 70
     7
  0
LAYER
  5
6
102
{ACAD_XDICTIONARY
360
7
102
}
330
1D
100
AcDbSymbolTableRecord
100
AcDbLayerTableRecord
  2
0
 70
     0
 62
     7
  6
CONTINUOUS
370
    -3
390
9
  0
LAYER
  5
88
102
{ACAD_XDICTIONARY
360
89
102
}
330
1D
100
AcDbSymbolTableRecord
100
AcDbLayerTableRecord
  2
UMRISS05
 70
     0
 62
     4
  6
CONTINUOUS
370
    -3
390
9
  0
LAYER
  5
68
102
{ACAD_XDICTIONARY
360
69
102
}
330
1D
100
AcDbSymbolTableRecord
100
AcDbLayerTableRecord
  2
BEMASSUNG
 70
     0
 62
     2
  6
CONTINUOUS
370
    -3
390
9
  0
LAYER
  5
4D
102
{ACAD_XDICTIONARY
360
4E
102
}
330
1D
100
AcDbSymbolTableRecord
100
AcDbLayerTableRecord
  2
ACHSEN
 70
     0
 62
     1
  6
STRICHPUNKT2
370
    -3
390
9
  0
LAYER
  5
74
330
1D
100
AcDbSymbolTableRecord
100
AcDbLayerTableRecord
  2
DEFPOINTS
 70
     0
 62
     7
  6
CONTINUOUS
290
     0
370
    -3
390
9
  0
LAYER
  5
148
102
{ACAD_XDICTIONARY
360
149
102
}
330
1D
100
AcDbSymbolTableRecord
100
AcDbLayerTableRecord
  2
1855
 70
     0
 62
     4
  6
CONTINUOUS
370
    -3
390
9
  0
LAYER
  5
9A
102
{ACAD_XDICTIONARY
360
9B
102
}
330
1D
100
AcDbSymbolTableRecord
100
AcDbLayerTableRecord
  2
AVERDECKTE
 70
     0
 62
    13
  6
VERDECKT
370
    -3
390
9
  0
ENDTAB
  0
TABLE
  2
STYLE
  5
20
330
0
100
AcDbSymbolTable
 70
     6
  0
STYLE
  5
21
330
20
100
AcDbSymbolTableRecord
100
AcDbTextStyleTableRecord
  2
STANDARD
 70
     0
 40
0.0
 41
1.0
 50
0.0
 71
     0
 42
10.0
  3
txt
  4

  0
STYLE
  5
30
330
20
100
AcDbSymbolTableRecord
100
AcDbTextStyleTableRecord
  2
ARIAL-STANDARD
 70
     0
 40
0.0
 41
1.0
 50
0.0
 71
     0
 42
3.5
  3
ARIAL.TTF
  4

1001
ACAD
1000
Arial
1071
       34
  0
STYLE
  5
35
330
20
100
AcDbSymbolTableRecord
100
AcDbTextStyleTableRecord
  2
WMF
 70
     0
 40
0.0
 41
1.0
 50
0.0
 71
     0
 42
6.5
  3
ARIAL.TTF
  4

1001
ACAD
1000
Arial
1071
       34
  0
STYLE
  5
2CD
330
20
100
AcDbSymbolTableRecord
100
AcDbTextStyleTableRecord
  2
ACDINTS
 70
     0
 40
1.0
 41
1.0
 50
0.0
 71
     0
 42
3.5
  3
isocp.shx
  4

  0
STYLE
  5
2D1
330
20
100
AcDbSymbolTableRecord
100
AcDbTextStyleTableRecord
  2
ACDINGDT
 70
     0
 40
0.0
 41
1.0
 50
0.0
 71
     0
 42
3.5
  3
amgdt.shx
  4

  0
STYLE
  5
2C3
330
20
100
AcDbSymbolTableRecord
100
AcDbTextStyleTableRecord
  2

 70
     1
 40
0.0
 41
1.0
 50
0.0
 71
     0
 42
3.5
  3
genltshp.shx
  4

  0
ENDTAB
  0
TABLE
  2
VIEW
  5
26
330
0
100
AcDbSymbolTable
 70
     0
  0
ENDTAB
  0
TABLE
  2
UCS
  5
27
330
0
100
AcDbSymbolTable
 70
     0
  0
ENDTAB
  0
TABLE
  2
APPID
  5
2C
330
0
100
AcDbSymbolTable
 70
     6
  0
APPID
  5
2D
330
2C
100
AcDbSymbolTableRecord
100
AcDbRegAppTableRecord
  2
ACAD
 70
     0
  0
APPID
  5
32
330
2C
100
AcDbSymbolTableRecord
100
AcDbRegAppTableRecord
  2
ACAD_DSTYLE_DIMJAG
 70
     0
  0
APPID
  5
31
330
2C
100
AcDbSymbolTableRecord
100
AcDbRegAppTableRecord
  2
ACAD_DSTYLE_DIMBREAK
 70
     0
  0
APPID
  5
33
330
2C
100
AcDbSymbolTableRecord
100
AcDbRegAppTableRecord
  2
ACAD_DSTYLE_DIMTALN
 70
     0
  0
APPID
  5
85
330
2C
100
AcDbSymbolTableRecord
100
AcDbRegAppTableRecord
  2
ACAD_DSTYLE_DIMINSPECT
 70
     0
  0
APPID
  5
2ED
330
2C
100
AcDbSymbolTableRecord
100
AcDbRegAppTableRecord
  2
ACATTRIBSERVICES
 70
     0
  0
ENDTAB
  0
TABLE
  2
DIMSTYLE
  5
2E
330
0
100
AcDbSymbolTable
 70
     2
100
AcDbDimStyleTable
 71
     2
340
2F
340
34
  0
DIMSTYLE
105
34
330
2E
100
AcDbSymbolTableRecord
100
AcDbDimStyleTableRecord
  2
WMF
 70
     0
 40
1.9
 41
2.799999999999999
 42
1.0
 43
0.0
 44
1.0
 73
     0
 74
     0
 77
     1
 78
     8
140
3.399999999999999
141
1.5
146
0.5
147
1.0
172
     1
174
     1
176
   256
177
   256
178
   256
271
     2
272
     2
279
     2
284
     8
285
     8
286
     8
340
35
  0
DIMSTYLE
105
2F
102
{ACAD_REACTORS
330
14F
330
160
330
1D0
330
12A
330
112
330
18A
330
16D
330
17D
330
1FD
330
278
330
285
330
2AC
330
199
330
20F
330
21F
330
262
330
1A9
330
1B6
330
1C3
330
233
330
240
330
253
330
292
330
29F
330
102
330
78
330
67
102
}
330
2E
100
AcDbSymbolTableRecord
100
AcDbDimStyleTableRecord
  2
Katalog 09
 70
     0
 41
4.0
 42
0.0
 43
8.0
 44
1.0
 73
     0
 74
     0
 77
     1
 78
     8
140
4.349999999999999
141
1.5
143
25.39999999999999
146
0.4285714285714286
147
1.0
172
     1
174
     1
176
     2
177
     2
178
     3
271
     2
272
     2
279
     2
284
     8
285
     8
286
     8
340
30
1001
ACAD_DSTYLE_DIMBREAK
1070
   391
1040
3.75
1001
ACAD_DSTYLE_DIMJAG
1070
   388
1040
1.5
1001
ACAD_DSTYLE_DIMTALN
1070
   392
1070
     0
  0
ENDTAB
  0
TABLE
  2
BLOCK_RECORD
  5
1
330
0
100
AcDbSymbolTable
 70
    27
  0
BLOCK_RECORD
  5
2
102
{ACAD_XDICTIONARY
360
3
102
}
330
1
100
AcDbSymbolTableRecord
100
AcDbBlockTableRecord
  2
*MODEL_SPACE
340
17
  0
BLOCK_RECORD
  5
19
330
1
100
AcDbSymbolTableRecord
100
AcDbBlockTableRecord
  2
*PAPER_SPACE
340
1C
  0
BLOCK_RECORD
  5
220
330
1
100
AcDbSymbolTableRecord
100
AcDbBlockTableRecord
  2
*D0
340
0
  0
BLOCK_RECORD
  5
210
330
1
100
AcDbSymbolTableRecord
100
AcDbBlockTableRecord
  2
*D1
340
0
  0
BLOCK_RECORD
  5
1AA
330
1
100
AcDbSymbolTableRecord
100
AcDbBlockTableRecord
  2
*D2
340
0
  0
BLOCK_RECORD
  5
254
330
1
100
AcDbSymbolTableRecord
100
AcDbBlockTableRecord
  2
*D3
340
0
  0
BLOCK_RECORD
  5
1FE
330
1
100
AcDbSymbolTableRecord
100
AcDbBlockTableRecord
  2
*D4
340
0
  0
BLOCK_RECORD
  5
263
330
1
100
AcDbSymbolTableRecord
100
AcDbBlockTableRecord
  2
*D5
340
0
  0
BLOCK_RECORD
  5
2A0
330
1
100
AcDbSymbolTableRecord
100
AcDbBlockTableRecord
  2
*D6
340
0
  0
BLOCK_RECORD
  5
19A
330
1
100
AcDbSymbolTableRecord
100
AcDbBlockTableRecord
  2
*D7
340
0
  0
BLOCK_RECORD
  5
12B
330
1
100
AcDbSymbolTableRecord
100
AcDbBlockTableRecord
  2
*D8
340
0
  0
BLOCK_RECORD
  5
150
330
1
100
AcDbSymbolTableRecord
100
AcDbBlockTableRecord
  2
*D9
340
0
  0
BLOCK_RECORD
  5
18B
330
1
100
AcDbSymbolTableRecord
100
AcDbBlockTableRecord
  2
*D10
340
0
  0
BLOCK_RECORD
  5
16E
330
1
100
AcDbSymbolTableRecord
100
AcDbBlockTableRecord
  2
*D11
340
0
  0
BLOCK_RECORD
  5
2AD
330
1
100
AcDbSymbolTableRecord
100
AcDbBlockTableRecord
  2
*D12
340
0
  0
BLOCK_RECORD
  5
17E
330
1
100
AcDbSymbolTableRecord
100
AcDbBlockTableRecord
  2
*D13
340
0
  0
BLOCK_RECORD
  5
279
330
1
100
AcDbSymbolTableRecord
100
AcDbBlockTableRecord
  2
*D14
340
0
  0
BLOCK_RECORD
  5
286
330
1
100
AcDbSymbolTableRecord
100
AcDbBlockTableRecord
  2
*D15
340
0
  0
BLOCK_RECORD
  5
161
330
1
100
AcDbSymbolTableRecord
100
AcDbBlockTableRecord
  2
*D16
340
0
  0
BLOCK_RECORD
  5
234
330
1
100
AcDbSymbolTableRecord
100
AcDbBlockTableRecord
  2
*D17
340
0
  0
BLOCK_RECORD
  5
241
330
1
100
AcDbSymbolTableRecord
100
AcDbBlockTableRecord
  2
*D18
340
0
  0
BLOCK_RECORD
  5
293
330
1
100
AcDbSymbolTableRecord
100
AcDbBlockTableRecord
  2
*D19
340
0
  0
BLOCK_RECORD
  5
1B7
330
1
100
AcDbSymbolTableRecord
100
AcDbBlockTableRecord
  2
*D20
340
0
  0
BLOCK_RECORD
  5
1C4
330
1
100
AcDbSymbolTableRecord
100
AcDbBlockTableRecord
  2
*D21
340
0
  0
BLOCK_RECORD
  5
1D1
330
1
100
AcDbSymbolTableRecord
100
AcDbBlockTableRecord
  2
*D22
340
0
  0
BLOCK_RECORD
  5
113
330
1
100
AcDbSymbolTableRecord
100
AcDbBlockTableRecord
  2
*D23
340
0
  0
BLOCK_RECORD
  5
103
330
1
100
AcDbSymbolTableRecord
100
AcDbBlockTableRecord
  2
*D24
340
0
  0
BLOCK_RECORD
  5
79
330
1
100
AcDbSymbolTableRecord
100
AcDbBlockTableRecord
  2
*D25
340
0
  0
BLOCK_RECORD
  5
6B
330
1
100
AcDbSymbolTableRecord
100
AcDbBlockTableRecord
  2
*D26
340
0
  0
ENDTAB
  0
ENDSEC
  0
SECTION
  2
BLOCKS
  0
BLOCK
  5
5
330
2
100
AcDbEntity
  8
0
100
AcDbBlockBegin
  2
*MODEL_SPACE
 70
     0
 10
0.0
 20
0.0
 30
0.0
  3
*MODEL_SPACE
  1

  0
ENDBLK
  5
16
330
2
100
AcDbEntity
  8
0
100
AcDbBlockEnd
  0
BLOCK
  5
1A
330
19
100
AcDbEntity
 67
     1
  8
0
100
AcDbBlockBegin
  2
*PAPER_SPACE
 70
     0
 10
0.0
 20
0.0
 30
0.0
  3
*PAPER_SPACE
  1

  0
ENDBLK
  5
1B
330
19
100
AcDbEntity
 67
     1
  8
0
100
AcDbBlockEnd
  0
BLOCK
  5
221
330
220
100
AcDbEntity
  8
0
100
AcDbBlockBegin
  2
*D0
 70
     1
 10
0.0
 20
0.0
 30
0.0
  3
*D0
  1

  0
LINE
  5
222
330
220
100
AcDbEntity
  8
BEMASSUNG
  6
Continuous
 62
     2
370
    -2
100
AcDbLine
 10
120.6896315036681
 20
186.3455282659028
 30
0.0
 11
144.016144413678
 21
186.3455282659028
 31
0.0
  0
LINE
  5
223
330
220
100
AcDbEntity
  8
BEMASSUNG
  6
Continuous
 62
     2
370
    -2
100
AcDbLine
 10
120.6896315036681
 20
173.145528265903
 30
0.0
 11
144.016144413678
 21
173.145528265903
 31
0.0
  0
LINE
  5
224
330
220
100
AcDbEntity
  8
BEMASSUNG
  6
Continuous
 62
     2
370
    -2
100
AcDbLine
 10
143.0161444136779
 20
182.3455282659028
 30
0.0
 11
143.0161444136779
 21
177.145528265903
 31
0.0
  0
MTEXT
  5
225
330
220
100
AcDbEntity
  8
BEMASSUNG
  6
Continuous
 62
     3
100
AcDbMText
 10
138.3460961043347
 20
179.5413218126732
 30
0.0
 40
4.349999999999999
 41
0.0
 71
     5
 72
     1
  1
\A1;13.2
  7
ARIAL-STANDARD
 11
0.0000000000000001
 21
1.0
 31
0.0
 73
     1
 44
1.0
1001
ACAD
1000
MTEXTBEGIN
1070
    73
1070
     1
1070
    44
1040
1.0
1070
    74
1070
     0
1000
MTEXTEND
  0
SOLID
  5
226
330
220
100
AcDbEntity
  8
BEMASSUNG
  6
Continuous
 62
     2
100
AcDbTrace
 10
142.3494777470113
 20
182.3455282659028
 30
0.0
 11
143.6828110803446
 21
182.3455282659028
 31
0.0
 12
143.0161444136779
 22
186.3455282659028
 32
0.0
 13
143.0161444136779
 23
186.3455282659028
 33
0.0
  0
SOLID
  5
227
330
220
100
AcDbEntity
  8
BEMASSUNG
  6
Continuous
 62
     2
100
AcDbTrace
 10
142.3494777470113
 20
177.145528265903
 30
0.0
 11
143.6828110803446
 21
177.145528265903
 31
0.0
 12
143.0161444136779
 22
173.145528265903
 32
0.0
 13
143.0161444136779
 23
173.145528265903
 33
0.0
  0
POINT
  5
228
330
220
100
AcDbEntity
  8
DEFPOINTS
  6
Continuous
 62
     0
100
AcDbPoint
 10
120.6896315036681
 20
186.3455282659028
 30
0.0
  0
POINT
  5
229
330
220
100
AcDbEntity
  8
DEFPOINTS
  6
Continuous
 62
     0
100
AcDbPoint
 10
120.6896315036681
 20
173.145528265903
 30
0.0
  0
POINT
  5
22A
330
220
100
AcDbEntity
  8
DEFPOINTS
  6
Continuous
 62
     0
100
AcDbPoint
 10
143.0161444136779
 20
173.145528265903
 30
0.0
  0
ENDBLK
  5
22B
330
220
100
AcDbEntity
  8
0
100
AcDbBlockEnd
  0
BLOCK
  5
211
330
210
100
AcDbEntity
  8
0
100
AcDbBlockBegin
  2
*D1
 70
     1
 10
0.0
 20
0.0
 30
0.0
  3
*D1
  1

  0
LINE
  5
212
330
210
100
AcDbEntity
  8
BEMASSUNG
  6
Continuous
 62
     2
370
    -2
100
AcDbLine
 10
198.0714618819727
 20
247.8257031729494
 30
0.0
 11
198.0714618819727
 21
214.3668905872266
 31
0.0
  0
LINE
  5
213
330
210
100
AcDbEntity
  8
BEMASSUNG
  6
Continuous
 62
     2
370
    -2
100
AcDbLine
 10
218.0714618819727
 20
247.8257031729494
 30
0.0
 11
218.0714618819727
 21
214.3668905872266
 31
0.0
  0
LINE
  5
214
330
210
100
AcDbEntity
  8
BEMASSUNG
  6
Continuous
 62
     2
370
    -2
100
AcDbLine
 10
202.0714618819727
 20
215.3668905872266
 30
0.0
 11
214.0714618819727
 21
215.3668905872266
 31
0.0
  0
MTEXT
  5
215
330
210
100
AcDbEntity
  8
BEMASSUNG
  6
Continuous
 62
     3
100
AcDbMText
 10
207.4432447747604
 20
220.6925293864911
 30
0.0
 40
4.349999999999999
 41
0.0
 71
     5
 72
     1
  1
\A1;20
  7
ARIAL-STANDARD
 73
     1
 44
1.0
1001
ACAD
1000
MTEXTBEGIN
1070
    73
1070
     1
1070
    44
1040
1.0
1070
    74
1070
     0
1000
MTEXTEND
  0
SOLID
  5
216
330
210
100
AcDbEntity
  8
BEMASSUNG
  6
Continuous
 62
     2
100
AcDbTrace
 10
202.0714618819727
 20
216.0335572538933
 30
0.0
 11
202.0714618819727
 21
214.70022392056
 31
0.0
 12
198.0714618819727
 22
215.3668905872266
 32
0.0
 13
198.0714618819727
 23
215.3668905872266
 33
0.0
  0
SOLID
  5
217
330
210
100
AcDbEntity
  8
BEMASSUNG
  6
Continuous
 62
     2
100
AcDbTrace
 10
214.0714618819727
 20
216.0335572538933
 30
0.0
 11
214.0714618819727
 21
214.70022392056
 31
0.0
 12
218.0714618819727
 22
215.3668905872266
 32
0.0
 13
218.0714618819727
 23
215.3668905872266
 33
0.0
  0
POINT
  5
218
330
210
100
AcDbEntity
  8
DEFPOINTS
  6
Continuous
 62
     0
100
AcDbPoint
 10
198.0714618819727
 20
247.8257031729494
 30
0.0
  0
POINT
  5
219
330
210
100
AcDbEntity
  8
DEFPOINTS
  6
Continuous
 62
     0
100
AcDbPoint
 10
218.0714618819727
 20
247.8257031729494
 30
0.0
  0
POINT
  5
21A
330
210
100
AcDbEntity
  8
DEFPOINTS
  6
Continuous
 62
     0
100
AcDbPoint
 10
218.0714618819727
 20
215.3668905872266
 30
0.0
  0
ENDBLK
  5
21B
330
210
100
AcDbEntity
  8
0
100
AcDbBlockEnd
  0
BLOCK
  5
1AB
330
1AA
100
AcDbEntity
  8
0
100
AcDbBlockBegin
  2
*D2
 70
     1
 10
0.0
 20
0.0
 30
0.0
  3
*D2
  1

  0
LINE
  5
1AC
330
1AA
100
AcDbEntity
  8
BEMASSUNG
  6
Continuous
 62
     2
370
    -2
100
AcDbLine
 10
31.68963150367267
 20
467.825703172949
 30
0.0
 11
3.924883227242852
 21
467.825703172949
 31
0.0
  0
LINE
  5
1AD
330
1AA
100
AcDbEntity
  8
BEMASSUNG
  6
Continuous
 62
     2
370
    -2
100
AcDbLine
 10
34.68963150367085
 20
432.3257031729491
 30
0.0
 11
3.924883227242844
 21
432.3257031729491
 31
0.0
  0
LINE
  5
1AE
330
1AA
100
AcDbEntity
  8
BEMASSUNG
  6
Continuous
 62
     2
370
    -2
100
AcDbLine
 10
4.924883227242851
 20
463.825703172949
 30
0.0
 11
4.924883227242845
 21
436.3257031729491
 31
0.0
  0
SOLID
  5
1AF
330
1AA
100
AcDbEntity
  8
BEMASSUNG
  6
Continuous
 62
     2
100
AcDbTrace
 10
4.258216560576184
 20
463.825703172949
 30
0.0
 11
5.591549893909518
 21
463.825703172949
 31
0.0
 12
4.924883227242852
 22
467.825703172949
 32
0.0
 13
4.924883227242852
 23
467.825703172949
 33
0.0
  0
SOLID
  5
1B0
330
1AA
100
AcDbEntity
  8
BEMASSUNG
  6
Continuous
 62
     2
100
AcDbTrace
 10
4.258216560576178
 20
436.3257031729491
 30
0.0
 11
5.591549893909512
 21
436.3257031729491
 31
0.0
 12
4.924883227242844
 22
432.3257031729491
 32
0.0
 13
4.924883227242844
 23
432.3257031729491
 33
0.0
  0
MTEXT
  5
1B1
330
1AA
100
AcDbEntity
  8
BEMASSUNG
  6
Continuous
 62
     3
100
AcDbMText
 10
1.702407101731179
 20
450.0757031729491
 30
0.0
 40
4.349999999999999
 41
0.0
 71
     5
 72
     1
  1
\A1;35.5
  7
ARIAL-STANDARD
 11
0.0000000000000001
 21
1.0
 31
0.0
 73
     1
 44
1.0
1001
ACAD
1000
MTEXTBEGIN
1070
    73
1070
     1
1070
    44
1040
1.0
1070
    74
1070
     0
1000
MTEXTEND
  0
POINT
  5
1B2
330
1AA
100
AcDbEntity
  8
DEFPOINTS
  6
Continuous
 62
     0
100
AcDbPoint
 10
31.68963150367267
 20
467.825703172949
 30
0.0
  0
POINT
  5
1B3
330
1AA
100
AcDbEntity
  8
DEFPOINTS
  6
Continuous
 62
     0
100
AcDbPoint
 10
34.68963150367085
 20
432.3257031729491
 30
0.0
  0
POINT
  5
1B4
330
1AA
100
AcDbEntity
  8
DEFPOINTS
  6
Continuous
 62
     0
100
AcDbPoint
 10
4.924883227242844
 20
432.3257031729491
 30
0.0
  0
ENDBLK
  5
1B5
330
1AA
100
AcDbEntity
  8
0
100
AcDbBlockEnd
  0
BLOCK
  5
255
330
254
100
AcDbEntity
  8
0
100
AcDbBlockBegin
  2
*D3
 70
     1
 10
0.0
 20
0.0
 30
0.0
  3
*D3
  1

  0
LINE
  5
256
330
254
100
AcDbEntity
  8
BEMASSUNG
  6
Continuous
 62
     2
370
    -2
100
AcDbLine
 10
34.68963150366813
 20
273.3257031729494
 30
0.0
 11
3.896570092775171
 21
273.3257031729494
 31
0.0
  0
LINE
  5
257
330
254
100
AcDbEntity
  8
BEMASSUNG
  6
Continuous
 62
     2
370
    -2
100
AcDbLine
 10
31.68963150367222
 20
237.8257031729494
 30
0.0
 11
3.896570092775163
 21
237.8257031729494
 31
0.0
  0
LINE
  5
258
330
254
100
AcDbEntity
  8
BEMASSUNG
  6
Continuous
 62
     2
370
    -2
100
AcDbLine
 10
4.896570092775171
 20
269.3257031729494
 30
0.0
 11
4.896570092775164
 21
241.8257031729494
 31
0.0
  0
SOLID
  5
259
330
254
100
AcDbEntity
  8
BEMASSUNG
  6
Continuous
 62
     2
100
AcDbTrace
 10
4.229903426108504
 20
269.3257031729494
 30
0.0
 11
5.563236759441838
 21
269.3257031729494
 31
0.0
 12
4.896570092775172
 22
273.3257031729494
 32
0.0
 13
4.896570092775172
 23
273.3257031729494
 33
0.0
  0
SOLID
  5
25A
330
254
100
AcDbEntity
  8
BEMASSUNG
  6
Continuous
 62
     2
100
AcDbTrace
 10
4.229903426108498
 20
241.8257031729494
 30
0.0
 11
5.563236759441831
 21
241.8257031729494
 31
0.0
 12
4.896570092775164
 22
237.8257031729494
 32
0.0
 13
4.896570092775164
 23
237.8257031729494
 33
0.0
  0
MTEXT
  5
25B
330
254
100
AcDbEntity
  8
BEMASSUNG
  6
Continuous
 62
     3
100
AcDbMText
 10
1.674093967263531
 20
255.5757031729494
 30
0.0
 40
4.349999999999999
 41
0.0
 71
     5
 72
     1
  1
\A1;35.5
  7
ARIAL-STANDARD
 11
0.0000000000000001
 21
1.0
 31
0.0
 73
     1
 44
1.0
1001
ACAD
1000
MTEXTBEGIN
1070
    73
1070
     1
1070
    44
1040
1.0
1070
    74
1070
     0
1000
MTEXTEND
  0
POINT
  5
25C
330
254
100
AcDbEntity
  8
DEFPOINTS
  6
Continuous
 62
     0
100
AcDbPoint
 10
34.68963150366813
 20
273.3257031729494
 30
0.0
  0
POINT
  5
25D
330
254
100
AcDbEntity
  8
DEFPOINTS
  6
Continuous
 62
     0
100
AcDbPoint
 10
31.68963150367222
 20
237.8257031729494
 30
0.0
  0
POINT
  5
25E
330
254
100
AcDbEntity
  8
DEFPOINTS
  6
Continuous
 62
     0
100
AcDbPoint
 10
4.896570092775164
 20
237.8257031729494
 30
0.0
  0
ENDBLK
  5
25F
330
254
100
AcDbEntity
  8
0
100
AcDbBlockEnd
  0
BLOCK
  5
1FF
330
1FE
100
AcDbEntity
  8
0
100
AcDbBlockBegin
  2
*D4
 70
     1
 10
0.0
 20
0.0
 30
0.0
  3
*D4
  1

  0
LINE
  5
200
330
1FE
100
AcDbEntity
  8
BEMASSUNG
  6
Continuous
 62
     2
370
    -2
100
AcDbLine
 10
104.564860770952
 20
302.8257031729496
 30
0.0
 11
147.8971598740668
 21
302.8257031729495
 31
0.0
  0
LINE
  5
201
330
1FE
100
AcDbEntity
  8
BEMASSUNG
  6
Continuous
 62
     2
370
    -2
100
AcDbLine
 10
102.8896315036725
 20
273.3257031729494
 30
0.0
 11
147.8971598740668
 21
273.3257031729493
 31
0.0
  0
LINE
  5
202
330
1FE
100
AcDbEntity
  8
BEMASSUNG
  6
Continuous
 62
     2
370
    -2
100
AcDbLine
 10
146.8971598740668
 20
298.8257031729495
 30
0.0
 11
146.8971598740668
 21
277.3257031729493
 31
0.0
  0
SOLID
  5
203
330
1FE
100
AcDbEntity
  8
BEMASSUNG
  6
Continuous
 62
     2
100
AcDbTrace
 10
146.2304932074001
 20
298.8257031729495
 30
0.0
 11
147.5638265407334
 21
298.8257031729495
 31
0.0
 12
146.8971598740668
 22
302.8257031729495
 32
0.0
 13
146.8971598740668
 23
302.8257031729495
 33
0.0
  0
SOLID
  5
204
330
1FE
100
AcDbEntity
  8
BEMASSUNG
  6
Continuous
 62
     2
100
AcDbTrace
 10
146.2304932074001
 20
277.3257031729493
 30
0.0
 11
147.5638265407334
 21
277.3257031729493
 31
0.0
 12
146.8971598740668
 22
273.3257031729493
 32
0.0
 13
146.8971598740668
 23
273.3257031729493
 33
0.0
  0
MTEXT
  5
205
330
1FE
100
AcDbEntity
  8
BEMASSUNG
  6
Continuous
 62
     3
100
AcDbMText
 10
143.6761673774774
 20
288.0757031729495
 30
0.0
 40
4.349999999999999
 41
0.0
 71
     5
 72
     1
  1
\A1;29.5
  7
ARIAL-STANDARD
 11
0.0000000000000001
 21
1.0
 31
0.0
 73
     1
 44
1.0
1001
ACAD
1000
MTEXTBEGIN
1070
    73
1070
     1
1070
    44
1040
1.0
1070
    74
1070
     0
1000
MTEXTEND
  0
POINT
  5
206
330
1FE
100
AcDbEntity
  8
DEFPOINTS
  6
Continuous
 62
     0
100
AcDbPoint
 10
104.564860770952
 20
302.8257031729496
 30
0.0
  0
POINT
  5
207
330
1FE
100
AcDbEntity
  8
DEFPOINTS
  6
Continuous
 62
     0
100
AcDbPoint
 10
102.8896315036725
 20
273.3257031729494
 30
0.0
  0
POINT
  5
208
330
1FE
100
AcDbEntity
  8
DEFPOINTS
  6
Continuous
 62
     0
100
AcDbPoint
 10
146.8971598740668
 20
273.3257031729493
 30
0.0
  0
ENDBLK
  5
209
330
1FE
100
AcDbEntity
  8
0
100
AcDbBlockEnd
  0
BLOCK
  5
264
330
263
100
AcDbEntity
  8
0
100
AcDbBlockBegin
  2
*D5
 70
     1
 10
0.0
 20
0.0
 30
0.0
  3
*D5
  1

  0
LINE
  5
265
330
263
100
AcDbEntity
  8
BEMASSUNG
  6
Continuous
 62
     2
370
    -2
100
AcDbLine
 10
34.68963150366813
 20
187.3455282659033
 30
0.0
 11
52.23551171395417
 21
187.3455282659033
 31
0.0
  0
LINE
  5
266
330
263
100
AcDbEntity
  8
BEMASSUNG
  6
Continuous
 62
     2
370
    -2
100
AcDbLine
 10
52.69691664449374
 20
186.3455282659033
 30
0.0
 11
50.23551171395417
 21
186.3455282659033
 31
0.0
  0
LINE
  5
267
330
263
100
AcDbEntity
  8
BEMASSUNG
  6
Continuous
 62
     2
370
    -2
100
AcDbLine
 10
51.23551171395416
 20
191.3455282659033
 30
0.0
 11
51.23551171395416
 21
195.3455282659033
 31
0.0
  0
LINE
  5
268
330
263
100
AcDbEntity
  8
BEMASSUNG
  6
Continuous
 62
     2
370
    -2
100
AcDbLine
 10
51.23551171395416
 20
182.3455282659033
 30
0.0
 11
51.23551171395416
 21
178.3455282659033
 31
0.0
  0
MTEXT
  5
269
330
263
100
AcDbEntity
  8
BEMASSUNG
  6
Continuous
 62
     3
100
AcDbMText
 10
47.36272996421303
 20
192.7754085304314
 30
0.0
 40
4.349999999999999
 41
0.0
 71
     5
 72
     1
  1
\A1;1
  7
ARIAL-STANDARD
 11
0.0000000000000001
 21
1.0
 31
0.0
 73
     1
 44
1.0
1001
ACAD
1000
MTEXTBEGIN
1070
    73
1070
     1
1070
    44
1040
1.0
1070
    74
1070
     0
1000
MTEXTEND
  0
LINE
  5
26A
330
263
100
AcDbEntity
  8
BEMASSUNG
  6
Continuous
 62
     2
370
    -2
100
AcDbLine
 10
51.23551171395416
 20
187.3455282659033
 30
0.0
 11
51.23551171395416
 21
186.3455282659033
 31
0.0
  0
SOLID
  5
26B
330
263
100
AcDbEntity
  8
BEMASSUNG
  6
Continuous
 62
     2
100
AcDbTrace
 10
50.5688450472875
 20
191.3455282659033
 30
0.0
 11
51.90217838062083
 21
191.3455282659033
 31
0.0
 12
51.23551171395416
 22
187.3455282659033
 32
0.0
 13
51.23551171395416
 23
187.3455282659033
 33
0.0
  0
SOLID
  5
26C
330
263
100
AcDbEntity
  8
BEMASSUNG
  6
Continuous
 62
     2
100
AcDbTrace
 10
50.5688450472875
 20
182.3455282659033
 30
0.0
 11
51.90217838062083
 21
182.3455282659033
 31
0.0
 12
51.23551171395416
 22
186.3455282659033
 32
0.0
 13
51.23551171395416
 23
186.3455282659033
 33
0.0
  0
POINT
  5
26D
330
263
100
AcDbEntity
  8
DEFPOINTS
  6
Continuous
 62
     0
100
AcDbPoint
 10
34.68963150366813
 20
187.3455282659033
 30
0.0
  0
POINT
  5
26E
330
263
100
AcDbEntity
  8
DEFPOINTS
  6
Continuous
 62
     0
100
AcDbPoint
 10
52.69691664449374
 20
186.3455282659033
 30
0.0
  0
POINT
  5
26F
330
263
100
AcDbEntity
  8
DEFPOINTS
  6
Continuous
 62
     0
100
AcDbPoint
 10
51.23551171395416
 20
186.3455282659033
 30
0.0
  0
ENDBLK
  5
270
330
263
100
AcDbEntity
  8
0
100
AcDbBlockEnd
  0
BLOCK
  5
2A1
330
2A0
100
AcDbEntity
  8
0
100
AcDbBlockBegin
  2
*D6
 70
     1
 10
0.0
 20
0.0
 30
0.0
  3
*D6
  1

  0
LINE
  5
2A2
330
2A0
100
AcDbEntity
  8
BEMASSUNG
  6
Continuous
 62
     2
370
    -2
100
AcDbLine
 10
31.68963150367267
 20
467.825703172949
 30
0.0
 11
-12.95610463575156
 21
467.825703172949
 31
0.0
  0
LINE
  5
2A3
330
2A0
100
AcDbEntity
  8
BEMASSUNG
  6
Continuous
 62
     2
370
    -2
100
AcDbLine
 10
31.68963150367222
 20
237.8257031729494
 30
0.0
 11
-12.95610463575161
 21
237.8257031729494
 31
0.0
  0
LINE
  5
2A4
330
2A0
100
AcDbEntity
  8
BEMASSUNG
  6
Continuous
 62
     2
370
    -2
100
AcDbLine
 10
-11.95610463575156
 20
463.825703172949
 30
0.0
 11
-11.95610463575161
 21
241.8257031729494
 31
0.0
  0
MTEXT
  5
2A5
330
2A0
100
AcDbEntity
  8
BEMASSUNG
  6
Continuous
 62
     3
100
AcDbMText
 10
-15.90367098577189
 20
355.9893432640706
 30
0.0
 40
4.349999999999999
 41
0.0
 71
     5
 72
     1
  1
\A1;230
  7
ARIAL-STANDARD
 11
0.0000000000000001
 21
1.0
 31
0.0
 73
     1
 44
1.0
1001
ACAD
1000
MTEXTBEGIN
1070
    73
1070
     1
1070
    44
1040
1.0
1070
    74
1070
     0
1000
MTEXTEND
  0
SOLID
  5
2A6
330
2A0
100
AcDbEntity
  8
BEMASSUNG
  6
Continuous
 62
     2
100
AcDbTrace
 10
-12.62277130241823
 20
463.825703172949
 30
0.0
 11
-11.2894379690849
 21
463.825703172949
 31
0.0
 12
-11.95610463575156
 22
467.825703172949
 32
0.0
 13
-11.95610463575156
 23
467.825703172949
 33
0.0
  0
SOLID
  5
2A7
330
2A0
100
AcDbEntity
  8
BEMASSUNG
  6
Continuous
 62
     2
100
AcDbTrace
 10
-12.62277130241828
 20
241.8257031729494
 30
0.0
 11
-11.28943796908495
 21
241.8257031729494
 31
0.0
 12
-11.95610463575161
 22
237.8257031729494
 32
0.0
 13
-11.95610463575161
 23
237.8257031729494
 33
0.0
  0
POINT
  5
2A8
330
2A0
100
AcDbEntity
  8
DEFPOINTS
  6
Continuous
 62
     0
100
AcDbPoint
 10
31.68963150367267
 20
467.825703172949
 30
0.0
  0
POINT
  5
2A9
330
2A0
100
AcDbEntity
  8
DEFPOINTS
  6
Continuous
 62
     0
100
AcDbPoint
 10
31.68963150367222
 20
237.8257031729494
 30
0.0
  0
POINT
  5
2AA
330
2A0
100
AcDbEntity
  8
DEFPOINTS
  6
Continuous
 62
     0
100
AcDbPoint
 10
-11.95610463575161
 20
237.8257031729494
 30
0.0
  0
ENDBLK
  5
2AB
330
2A0
100
AcDbEntity
  8
0
100
AcDbBlockEnd
  0
BLOCK
  5
19B
330
19A
100
AcDbEntity
  8
0
100
AcDbBlockBegin
  2
*D7
 70
     1
 10
0.0
 20
0.0
 30
0.0
  3
*D7
  1

  0
LINE
  5
19C
330
19A
100
AcDbEntity
  8
BEMASSUNG
  6
Continuous
 62
     2
370
    -2
100
AcDbLine
 10
201.4714618819728
 20
403.8930903967477
 30
0.0
 11
201.4714618819728
 21
409.4653394942509
 31
0.0
  0
LINE
  5
19D
330
19A
100
AcDbEntity
  8
BEMASSUNG
  6
Continuous
 62
     2
370
    -2
100
AcDbLine
 10
198.0714618819727
 20
404.1955164566318
 30
0.0
 11
198.0714618819727
 21
409.4653394942509
 31
0.0
  0
LINE
  5
19E
330
19A
100
AcDbEntity
  8
BEMASSUNG
  6
Continuous
 62
     2
370
    -2
100
AcDbLine
 10
205.4714618819728
 20
408.4653394942509
 30
0.0
 11
209.4714618819728
 21
408.4653394942509
 31
0.0
  0
LINE
  5
19F
330
19A
100
AcDbEntity
  8
BEMASSUNG
  6
Continuous
 62
     2
370
    -2
100
AcDbLine
 10
194.0714618819727
 20
408.4653394942509
 30
0.0
 11
190.0714618819727
 21
408.4653394942509
 31
0.0
  0
MTEXT
  5
1A0
330
19A
100
AcDbEntity
  8
BEMASSUNG
  6
Continuous
 62
     3
100
AcDbMText
 10
188.7304160301028
 20
413.4649079334971
 30
0.0
 40
4.349999999999999
 41
0.0
 71
     5
 72
     1
  1
\A1;3.4
  7
ARIAL-STANDARD
 73
     1
 44
1.0
1001
ACAD
1000
MTEXTBEGIN
1070
    73
1070
     1
1070
    44
1040
1.0
1070
    74
1070
     0
1000
MTEXTEND
  0
LINE
  5
1A1
330
19A
100
AcDbEntity
  8
BEMASSUNG
  6
Continuous
 62
     2
370
    -2
100
AcDbLine
 10
201.4714618819728
 20
408.4653394942509
 30
0.0
 11
198.0714618819727
 21
408.4653394942509
 31
0.0
  0
SOLID
  5
1A2
330
19A
100
AcDbEntity
  8
BEMASSUNG
  6
Continuous
 62
     2
100
AcDbTrace
 10
205.4714618819728
 20
409.1320061609176
 30
0.0
 11
205.4714618819728
 21
407.7986728275842
 31
0.0
 12
201.4714618819728
 22
408.4653394942509
 32
0.0
 13
201.4714618819728
 23
408.4653394942509
 33
0.0
  0
SOLID
  5
1A3
330
19A
100
AcDbEntity
  8
BEMASSUNG
  6
Continuous
 62
     2
100
AcDbTrace
 10
194.0714618819727
 20
409.1320061609176
 30
0.0
 11
194.0714618819727
 21
407.7986728275842
 31
0.0
 12
198.0714618819727
 22
408.4653394942509
 32
0.0
 13
198.0714618819727
 23
408.4653394942509
 33
0.0
  0
POINT
  5
1A4
330
19A
100
AcDbEntity
  8
DEFPOINTS
  6
Continuous
 62
     0
100
AcDbPoint
 10
201.4714618819728
 20
403.8930903967477
 30
0.0
  0
POINT
  5
1A5
330
19A
100
AcDbEntity
  8
DEFPOINTS
  6
Continuous
 62
     0
100
AcDbPoint
 10
198.0714618819727
 20
404.1955164566318
 30
0.0
  0
POINT
  5
1A6
330
19A
100
AcDbEntity
  8
DEFPOINTS
  6
Continuous
 62
     0
100
AcDbPoint
 10
198.0714618819727
 20
408.4653394942509
 30
0.0
  0
ENDBLK
  5
1A7
330
19A
100
AcDbEntity
  8
0
100
AcDbBlockEnd
  0
BLOCK
  5
12C
330
12B
100
AcDbEntity
  8
0
100
AcDbBlockBegin
  2
*D8
 70
     1
 10
0.0
 20
0.0
 30
0.0
  3
*D8
  1

  0
LINE
  5
12D
330
12B
100
AcDbEntity
  8
BEMASSUNG
  6
Continuous
 62
     2
370
    -2
100
AcDbLine
 10
201.4714618819728
 20
387.7257031729498
 30
0.0
 11
201.4714618819728
 21
372.0601100727449
 31
0.0
  0
LINE
  5
12E
330
12B
100
AcDbEntity
  8
BEMASSUNG
  6
Continuous
 62
     2
370
    -2
100
AcDbLine
 10
212.471461881973
 20
390.2257031729497
 30
0.0
 11
212.471461881973
 21
372.0601100727449
 31
0.0
  0
LINE
  5
12F
330
12B
100
AcDbEntity
  8
BEMASSUNG
  6
Continuous
 62
     2
370
    -2
100
AcDbLine
 10
205.4714618819728
 20
373.0601100727449
 30
0.0
 11
208.471461881973
 21
373.0601100727449
 31
0.0
  0
MTEXT
  5
130
330
12B
100
AcDbEntity
  8
BEMASSUNG
  6
Continuous
 62
     3
100
AcDbMText
 10
206.9714618819729
 20
377.8020564890196
 30
0.0
 40
4.349999999999999
 41
0.0
 71
     5
 72
     1
  1
\A1;11
  7
ARIAL-STANDARD
 73
     1
 44
1.0
1001
ACAD
1000
MTEXTBEGIN
1070
    73
1070
     1
1070
    44
1040
1.0
1070
    74
1070
     0
1000
MTEXTEND
  0
SOLID
  5
131
330
12B
100
AcDbEntity
  8
BEMASSUNG
  6
Continuous
 62
     2
100
AcDbTrace
 10
205.4714618819728
 20
373.7267767394116
 30
0.0
 11
205.4714618819728
 21
372.3934434060782
 31
0.0
 12
201.4714618819728
 22
373.0601100727449
 32
0.0
 13
201.4714618819728
 23
373.0601100727449
 33
0.0
  0
SOLID
  5
132
330
12B
100
AcDbEntity
  8
BEMASSUNG
  6
Continuous
 62
     2
100
AcDbTrace
 10
208.471461881973
 20
373.7267767394116
 30
0.0
 11
208.471461881973
 21
372.3934434060782
 31
0.0
 12
212.471461881973
 22
373.0601100727449
 32
0.0
 13
212.471461881973
 23
373.0601100727449
 33
0.0
  0
POINT
  5
133
330
12B
100
AcDbEntity
  8
DEFPOINTS
  6
Continuous
 62
     0
100
AcDbPoint
 10
201.4714618819728
 20
387.7257031729498
 30
0.0
  0
POINT
  5
134
330
12B
100
AcDbEntity
  8
DEFPOINTS
  6
Continuous
 62
     0
100
AcDbPoint
 10
212.471461881973
 20
390.2257031729497
 30
0.0
  0
POINT
  5
135
330
12B
100
AcDbEntity
  8
DEFPOINTS
  6
Continuous
 62
     0
100
AcDbPoint
 10
212.471461881973
 20
373.0601100727449
 30
0.0
  0
ENDBLK
  5
136
330
12B
100
AcDbEntity
  8
0
100
AcDbBlockEnd
  0
BLOCK
  5
151
330
150
100
AcDbEntity
  8
0
100
AcDbBlockBegin
  2
*D9
 70
     1
 10
0.0
 20
0.0
 30
0.0
  3
*D9
  1

  0
LINE
  5
152
330
150
100
AcDbEntity
  8
BEMASSUNG
  6
Continuous
 62
     2
370
    -2
100
AcDbLine
 10
95.68963150367256
 20
384.8257031729505
 30
0.0
 11
95.68963150367256
 21
396.4117212561177
 31
0.0
  0
LINE
  5
153
330
150
100
AcDbEntity
  8
BEMASSUNG
  6
Continuous
 62
     2
370
    -2
100
AcDbLine
 10
87.68963150367268
 20
384.8257031729503
 30
0.0
 11
87.68963150367268
 21
396.4117212561177
 31
0.0
  0
LINE
  5
154
330
150
100
AcDbEntity
  8
BEMASSUNG
  6
Continuous
 62
     2
370
    -2
100
AcDbLine
 10
99.68963150367256
 20
395.4117212561178
 30
0.0
 11
103.6896315036725
 21
395.4117212561178
 31
0.0
  0
LINE
  5
155
330
150
100
AcDbEntity
  8
BEMASSUNG
  6
Continuous
 62
     2
370
    -2
100
AcDbLine
 10
83.68963150367267
 20
395.4117212561178
 30
0.0
 11
79.68963150367267
 21
395.4117212561178
 31
0.0
  0
MTEXT
  5
156
330
150
100
AcDbEntity
  8
BEMASSUNG
  6
Continuous
 62
     3
100
AcDbMText
 10
80.19038663221909
 20
399.1212032782346
 30
0.0
 40
4.349999999999999
 41
0.0
 71
     5
 72
     1
  1
\A1;9
  7
ARIAL-STANDARD
 73
     1
 44
1.0
1001
ACAD
1000
MTEXTBEGIN
1070
    73
1070
     1
1070
    44
1040
1.0
1070
    74
1070
     0
1000
MTEXTEND
  0
LINE
  5
157
330
150
100
AcDbEntity
  8
BEMASSUNG
  6
Continuous
 62
     2
370
    -2
100
AcDbLine
 10
95.68963150367256
 20
395.4117212561178
 30
0.0
 11
87.68963150367268
 21
395.4117212561178
 31
0.0
  0
SOLID
  5
158
330
150
100
AcDbEntity
  8
BEMASSUNG
  6
Continuous
 62
     2
100
AcDbTrace
 10
99.68963150367256
 20
396.0783879227845
 30
0.0
 11
99.68963150367256
 21
394.7450545894511
 31
0.0
 12
95.68963150367256
 22
395.4117212561178
 32
0.0
 13
95.68963150367256
 23
395.4117212561178
 33
0.0
  0
SOLID
  5
159
330
150
100
AcDbEntity
  8
BEMASSUNG
  6
Continuous
 62
     2
100
AcDbTrace
 10
83.68963150367267
 20
396.0783879227845
 30
0.0
 11
83.68963150367267
 21
394.7450545894511
 31
0.0
 12
87.68963150367268
 22
395.4117212561178
 32
0.0
 13
87.68963150367268
 23
395.4117212561178
 33
0.0
  0
POINT
  5
15A
330
150
100
AcDbEntity
  8
DEFPOINTS
  6
Continuous
 62
     0
100
AcDbPoint
 10
95.68963150367256
 20
384.8257031729505
 30
0.0
  0
POINT
  5
15B
330
150
100
AcDbEntity
  8
DEFPOINTS
  6
Continuous
 62
     0
100
AcDbPoint
 10
87.68963150367268
 20
384.8257031729503
 30
0.0
  0
POINT
  5
15C
330
150
100
AcDbEntity
  8
DEFPOINTS
  6
Continuous
 62
     0
100
AcDbPoint
 10
87.68963150367268
 20
395.4117212561178
 30
0.0
  0
ENDBLK
  5
15D
330
150
100
AcDbEntity
  8
0
100
AcDbBlockEnd
  0
BLOCK
  5
18C
330
18B
100
AcDbEntity
  8
0
100
AcDbBlockBegin
  2
*D10
 70
     1
 10
0.0
 20
0.0
 30
0.0
  3
*D10
  1

  0
LINE
  5
18D
330
18B
100
AcDbEntity
  8
BEMASSUNG
  6
Continuous
 62
     2
370
    -2
100
AcDbLine
 10
87.18963150367267
 20
426.8257031729499
 30
0.0
 11
87.18963150367267
 21
444.0598541767099
 31
0.0
  0
LINE
  5
18E
330
18B
100
AcDbEntity
  8
BEMASSUNG
  6
Continuous
 62
     2
370
    -2
100
AcDbLine
 10
96.18963150367267
 20
426.8257031729499
 30
0.0
 11
96.18963150367267
 21
444.0598541767099
 31
0.0
  0
LINE
  5
18F
330
18B
100
AcDbEntity
  8
BEMASSUNG
  6
Continuous
 62
     2
370
    -2
100
AcDbLine
 10
83.18963150367267
 20
443.0598541767099
 30
0.0
 11
79.18963150367267
 21
443.0598541767099
 31
0.0
  0
LINE
  5
190
330
18B
100
AcDbEntity
  8
BEMASSUNG
  6
Continuous
 62
     2
370
    -2
100
AcDbLine
 10
100.1896315036727
 20
443.0598541767099
 30
0.0
 11
104.1896315036726
 21
443.0598541767099
 31
0.0
  0
MTEXT
  5
191
330
18B
100
AcDbEntity
  8
BEMASSUNG
  6
Continuous
 62
     3
100
AcDbMText
 10
91.43171347215139
 20
447.2945275475636
 30
0.0
 40
4.349999999999999
 41
0.0
 71
     5
 72
     1
  1
\A1;9
  7
ARIAL-STANDARD
 73
     1
 44
1.0
1001
ACAD
1000
MTEXTBEGIN
1070
    73
1070
     1
1070
    44
1040
1.0
1070
    74
1070
     0
1000
MTEXTEND
  0
LINE
  5
192
330
18B
100
AcDbEntity
  8
BEMASSUNG
  6
Continuous
 62
     2
370
    -2
100
AcDbLine
 10
87.18963150367267
 20
443.0598541767099
 30
0.0
 11
96.18963150367267
 21
443.0598541767099
 31
0.0
  0
SOLID
  5
193
330
18B
100
AcDbEntity
  8
BEMASSUNG
  6
Continuous
 62
     2
100
AcDbTrace
 10
83.18963150367267
 20
443.7265208433766
 30
0.0
 11
83.18963150367267
 21
442.3931875100432
 31
0.0
 12
87.18963150367267
 22
443.0598541767099
 32
0.0
 13
87.18963150367267
 23
443.0598541767099
 33
0.0
  0
SOLID
  5
194
330
18B
100
AcDbEntity
  8
BEMASSUNG
  6
Continuous
 62
     2
100
AcDbTrace
 10
100.1896315036727
 20
443.7265208433766
 30
0.0
 11
100.1896315036727
 21
442.3931875100432
 31
0.0
 12
96.18963150367267
 22
443.0598541767099
 32
0.0
 13
96.18963150367267
 23
443.0598541767099
 33
0.0
  0
POINT
  5
195
330
18B
100
AcDbEntity
  8
DEFPOINTS
  6
Continuous
 62
     0
100
AcDbPoint
 10
87.18963150367267
 20
426.8257031729499
 30
0.0
  0
POINT
  5
196
330
18B
100
AcDbEntity
  8
DEFPOINTS
  6
Continuous
 62
     0
100
AcDbPoint
 10
96.18963150367267
 20
426.8257031729499
 30
0.0
  0
POINT
  5
197
330
18B
100
AcDbEntity
  8
DEFPOINTS
  6
Continuous
 62
     0
100
AcDbPoint
 10
96.18963150367267
 20
443.0598541767099
 30
0.0
  0
ENDBLK
  5
198
330
18B
100
AcDbEntity
  8
0
100
AcDbBlockEnd
  0
BLOCK
  5
16F
330
16E
100
AcDbEntity
  8
0
100
AcDbBlockBegin
  2
*D11
 70
     1
 10
0.0
 20
0.0
 30
0.0
  3
*D11
  1

  0
LINE
  5
170
330
16E
100
AcDbEntity
  8
BEMASSUNG
  6
Continuous
 62
     2
370
    -2
100
AcDbLine
 10
115.2896315036725
 20
380.82570317295
 30
0.0
 11
136.7202852743936
 21
380.8257031729499
 31
0.0
  0
LINE
  5
171
330
16E
100
AcDbEntity
  8
BEMASSUNG
  6
Continuous
 62
     2
370
    -2
100
AcDbLine
 10
98.68963150367267
 20
426.8257031729499
 30
0.0
 11
136.7202852743936
 21
426.8257031729499
 31
0.0
  0
LINE
  5
172
330
16E
100
AcDbEntity
  8
BEMASSUNG
  6
Continuous
 62
     2
370
    -2
100
AcDbLine
 10
135.7202852743936
 20
384.8257031729499
 30
0.0
 11
135.7202852743936
 21
422.8257031729499
 31
0.0
  0
SOLID
  5
173
330
16E
100
AcDbEntity
  8
BEMASSUNG
  6
Continuous
 62
     2
100
AcDbTrace
 10
135.0536186077269
 20
384.8257031729499
 30
0.0
 11
136.3869519410603
 21
384.8257031729499
 31
0.0
 12
135.7202852743936
 22
380.8257031729499
 32
0.0
 13
135.7202852743936
 23
380.8257031729499
 33
0.0
  0
SOLID
  5
174
330
16E
100
AcDbEntity
  8
BEMASSUNG
  6
Continuous
 62
     2
100
AcDbTrace
 10
135.0536186077269
 20
422.8257031729499
 30
0.0
 11
136.3869519410603
 21
422.8257031729499
 31
0.0
 12
135.7202852743936
 22
426.8257031729499
 32
0.0
 13
135.7202852743936
 23
426.8257031729499
 33
0.0
  0
MTEXT
  5
175
330
16E
100
AcDbEntity
  8
BEMASSUNG
  6
Continuous
 62
     3
100
AcDbMText
 10
132.4992927778042
 20
403.8257031729499
 30
0.0
 40
4.349999999999999
 41
0.0
 71
     5
 72
     1
  1
\A1;46
  7
ARIAL-STANDARD
 11
0.0000000000000001
 21
1.0
 31
0.0
 73
     1
 44
1.0
1001
ACAD
1000
MTEXTBEGIN
1070
    73
1070
     1
1070
    44
1040
1.0
1070
    74
1070
     0
1000
MTEXTEND
  0
POINT
  5
176
330
16E
100
AcDbEntity
  8
DEFPOINTS
  6
Continuous
 62
     0
100
AcDbPoint
 10
115.2896315036725
 20
380.82570317295
 30
0.0
  0
POINT
  5
177
330
16E
100
AcDbEntity
  8
DEFPOINTS
  6
Continuous
 62
     0
100
AcDbPoint
 10
98.68963150367267
 20
426.8257031729499
 30
0.0
  0
POINT
  5
178
330
16E
100
AcDbEntity
  8
DEFPOINTS
  6
Continuous
 62
     0
100
AcDbPoint
 10
135.7202852743936
 20
426.8257031729499
 30
0.0
  0
ENDBLK
  5
179
330
16E
100
AcDbEntity
  8
0
100
AcDbBlockEnd
  0
BLOCK
  5
2AE
330
2AD
100
AcDbEntity
  8
0
100
AcDbBlockBegin
  2
*D12
 70
     1
 10
0.0
 20
0.0
 30
0.0
  3
*D12
  1

  0
LINE
  5
2AF
330
2AD
100
AcDbEntity
  8
BEMASSUNG
  6
Continuous
 62
     2
370
    -2
100
AcDbLine
 10
102.8896315036725
 20
432.3257031729501
 30
0.0
 11
158.8056021946986
 21
432.3257031729501
 31
0.0
  0
LINE
  5
2B0
330
2AD
100
AcDbEntity
  8
BEMASSUNG
  6
Continuous
 62
     2
370
    -2
100
AcDbLine
 10
102.8896315036725
 20
273.3257031729502
 30
0.0
 11
158.8056021946986
 21
273.3257031729501
 31
0.0
  0
LINE
  5
2B1
330
2AD
100
AcDbEntity
  8
BEMASSUNG
  6
Continuous
 62
     2
370
    -2
100
AcDbLine
 10
157.8056021946986
 20
428.3257031729501
 30
0.0
 11
157.8056021946986
 21
277.3257031729501
 31
0.0
  0
MTEXT
  5
2B2
330
2AD
100
AcDbEntity
  8
BEMASSUNG
  6
Continuous
 62
     3
100
AcDbMText
 10
153.8103035268527
 20
351.9621067843052
 30
0.0
 40
4.349999999999999
 41
0.0
 71
     5
 72
     1
  1
\A1;159
  7
ARIAL-STANDARD
 11
0.0000000000000001
 21
1.0
 31
0.0
 73
     1
 44
1.0
1001
ACAD
1000
MTEXTBEGIN
1070
    73
1070
     1
1070
    44
1040
1.0
1070
    74
1070
     0
1000
MTEXTEND
  0
SOLID
  5
2B3
330
2AD
100
AcDbEntity
  8
BEMASSUNG
  6
Continuous
 62
     2
100
AcDbTrace
 10
157.138935528032
 20
428.3257031729501
 30
0.0
 11
158.4722688613653
 21
428.3257031729501
 31
0.0
 12
157.8056021946986
 22
432.3257031729501
 32
0.0
 13
157.8056021946986
 23
432.3257031729501
 33
0.0
  0
SOLID
  5
2B4
330
2AD
100
AcDbEntity
  8
BEMASSUNG
  6
Continuous
 62
     2
100
AcDbTrace
 10
157.1389355280319
 20
277.3257031729501
 30
0.0
 11
158.4722688613652
 21
277.3257031729501
 31
0.0
 12
157.8056021946986
 22
273.3257031729501
 32
0.0
 13
157.8056021946986
 23
273.3257031729501
 33
0.0
  0
POINT
  5
2B5
330
2AD
100
AcDbEntity
  8
DEFPOINTS
  6
Continuous
 62
     0
100
AcDbPoint
 10
102.8896315036725
 20
432.3257031729501
 30
0.0
  0
POINT
  5
2B6
330
2AD
100
AcDbEntity
  8
DEFPOINTS
  6
Continuous
 62
     0
100
AcDbPoint
 10
102.8896315036725
 20
273.3257031729502
 30
0.0
  0
POINT
  5
2B7
330
2AD
100
AcDbEntity
  8
DEFPOINTS
  6
Continuous
 62
     0
100
AcDbPoint
 10
157.8056021946986
 20
273.3257031729501
 30
0.0
  0
ENDBLK
  5
2B8
330
2AD
100
AcDbEntity
  8
0
100
AcDbBlockEnd
  0
BLOCK
  5
17F
330
17E
100
AcDbEntity
  8
0
100
AcDbBlockBegin
  2
*D13
 70
     1
 10
0.0
 20
0.0
 30
0.0
  3
*D13
  1

  0
LINE
  5
180
330
17E
100
AcDbEntity
  8
BEMASSUNG
  6
Continuous
 62
     2
370
    -2
100
AcDbLine
 10
102.8896315036725
 20
432.3257031729501
 30
0.0
 11
147.960234297274
 21
432.3257031729501
 31
0.0
  0
LINE
  5
181
330
17E
100
AcDbEntity
  8
BEMASSUNG
  6
Continuous
 62
     2
370
    -2
100
AcDbLine
 10
115.2896315036725
 20
380.82570317295
 30
0.0
 11
147.960234297274
 21
380.8257031729499
 31
0.0
  0
LINE
  5
182
330
17E
100
AcDbEntity
  8
BEMASSUNG
  6
Continuous
 62
     2
370
    -2
100
AcDbLine
 10
146.960234297274
 20
428.3257031729501
 30
0.0
 11
146.960234297274
 21
384.8257031729499
 31
0.0
  0
SOLID
  5
183
330
17E
100
AcDbEntity
  8
BEMASSUNG
  6
Continuous
 62
     2
100
AcDbTrace
 10
146.2935676306074
 20
428.3257031729501
 30
0.0
 11
147.6269009639407
 21
428.3257031729501
 31
0.0
 12
146.960234297274
 22
432.3257031729501
 32
0.0
 13
146.960234297274
 23
432.3257031729501
 33
0.0
  0
SOLID
  5
184
330
17E
100
AcDbEntity
  8
BEMASSUNG
  6
Continuous
 62
     2
100
AcDbTrace
 10
146.2935676306074
 20
384.8257031729499
 30
0.0
 11
147.6269009639407
 21
384.8257031729499
 31
0.0
 12
146.960234297274
 22
380.8257031729499
 32
0.0
 13
146.960234297274
 23
380.8257031729499
 33
0.0
  0
MTEXT
  5
185
330
17E
100
AcDbEntity
  8
BEMASSUNG
  6
Continuous
 62
     3
100
AcDbMText
 10
143.7392418006846
 20
406.57570317295
 30
0.0
 40
4.349999999999999
 41
0.0
 71
     5
 72
     1
  1
\A1;51.5
  7
ARIAL-STANDARD
 11
0.0000000000000001
 21
1.0
 31
0.0
 73
     1
 44
1.0
1001
ACAD
1000
MTEXTBEGIN
1070
    73
1070
     1
1070
    44
1040
1.0
1070
    74
1070
     0
1000
MTEXTEND
  0
POINT
  5
186
330
17E
100
AcDbEntity
  8
DEFPOINTS
  6
Continuous
 62
     0
100
AcDbPoint
 10
102.8896315036725
 20
432.3257031729501
 30
0.0
  0
POINT
  5
187
330
17E
100
AcDbEntity
  8
DEFPOINTS
  6
Continuous
 62
     0
100
AcDbPoint
 10
115.2896315036725
 20
380.82570317295
 30
0.0
  0
POINT
  5
188
330
17E
100
AcDbEntity
  8
DEFPOINTS
  6
Continuous
 62
     0
100
AcDbPoint
 10
146.960234297274
 20
380.8257031729499
 30
0.0
  0
ENDBLK
  5
189
330
17E
100
AcDbEntity
  8
0
100
AcDbBlockEnd
  0
BLOCK
  5
27A
330
279
100
AcDbEntity
  8
0
100
AcDbBlockBegin
  2
*D14
 70
     1
 10
0.0
 20
0.0
 30
0.0
  3
*D14
  1

  0
LINE
  5
27B
330
279
100
AcDbEntity
  8
BEMASSUNG
  6
Continuous
 62
     2
370
    -2
100
AcDbLine
 10
115.2896315036725
 20
380.82570317295
 30
0.0
 11
147.960234297274
 21
380.8257031729499
 31
0.0
  0
LINE
  5
27C
330
279
100
AcDbEntity
  8
BEMASSUNG
  6
Continuous
 62
     2
370
    -2
100
AcDbLine
 10
104.7896315036725
 20
302.8257031729497
 30
0.0
 11
147.960234297274
 21
302.8257031729497
 31
0.0
  0
LINE
  5
27D
330
279
100
AcDbEntity
  8
BEMASSUNG
  6
Continuous
 62
     2
370
    -2
100
AcDbLine
 10
146.960234297274
 20
376.8257031729499
 30
0.0
 11
146.960234297274
 21
306.8257031729497
 31
0.0
  0
SOLID
  5
27E
330
279
100
AcDbEntity
  8
BEMASSUNG
  6
Continuous
 62
     2
100
AcDbTrace
 10
146.2935676306074
 20
376.8257031729499
 30
0.0
 11
147.6269009639407
 21
376.8257031729499
 31
0.0
 12
146.960234297274
 22
380.8257031729499
 32
0.0
 13
146.960234297274
 23
380.8257031729499
 33
0.0
  0
SOLID
  5
27F
330
279
100
AcDbEntity
  8
BEMASSUNG
  6
Continuous
 62
     2
100
AcDbTrace
 10
146.2935676306074
 20
306.8257031729497
 30
0.0
 11
147.6269009639407
 21
306.8257031729497
 31
0.0
 12
146.960234297274
 22
302.8257031729497
 32
0.0
 13
146.960234297274
 23
302.8257031729497
 33
0.0
  0
MTEXT
  5
280
330
279
100
AcDbEntity
  8
BEMASSUNG
  6
Continuous
 62
     3
100
AcDbMText
 10
143.7392418006846
 20
341.8257031729498
 30
0.0
 40
4.349999999999999
 41
0.0
 71
     5
 72
     1
  1
\A1;78
  7
ARIAL-STANDARD
 11
0.0000000000000001
 21
1.0
 31
0.0
 73
     1
 44
1.0
1001
ACAD
1000
MTEXTBEGIN
1070
    73
1070
     1
1070
    44
1040
1.0
1070
    74
1070
     0
1000
MTEXTEND
  0
POINT
  5
281
330
279
100
AcDbEntity
  8
DEFPOINTS
  6
Continuous
 62
     0
100
AcDbPoint
 10
115.2896315036725
 20
380.82570317295
 30
0.0
  0
POINT
  5
282
330
279
100
AcDbEntity
  8
DEFPOINTS
  6
Continuous
 62
     0
100
AcDbPoint
 10
104.7896315036725
 20
302.8257031729497
 30
0.0
  0
POINT
  5
283
330
279
100
AcDbEntity
  8
DEFPOINTS
  6
Continuous
 62
     0
100
AcDbPoint
 10
146.960234297274
 20
302.8257031729497
 30
0.0
  0
ENDBLK
  5
284
330
279
100
AcDbEntity
  8
0
100
AcDbBlockEnd
  0
BLOCK
  5
287
330
286
100
AcDbEntity
  8
0
100
AcDbBlockBegin
  2
*D15
 70
     1
 10
0.0
 20
0.0
 30
0.0
  3
*D15
  1

  0
LINE
  5
288
330
286
100
AcDbEntity
  8
BEMASSUNG
  6
Continuous
 62
     2
370
    -2
100
AcDbLine
 10
115.2896315036725
 20
380.82570317295
 30
0.0
 11
136.7202852743936
 21
380.8257031729499
 31
0.0
  0
LINE
  5
289
330
286
100
AcDbEntity
  8
BEMASSUNG
  6
Continuous
 62
     2
370
    -2
100
AcDbLine
 10
98.68963150367267
 20
359.3257031729536
 30
0.0
 11
136.7202852743936
 21
359.3257031729535
 31
0.0
  0
LINE
  5
28A
330
286
100
AcDbEntity
  8
BEMASSUNG
  6
Continuous
 62
     2
370
    -2
100
AcDbLine
 10
135.7202852743936
 20
376.8257031729499
 30
0.0
 11
135.7202852743936
 21
363.3257031729535
 31
0.0
  0
SOLID
  5
28B
330
286
100
AcDbEntity
  8
BEMASSUNG
  6
Continuous
 62
     2
100
AcDbTrace
 10
135.0536186077269
 20
376.8257031729499
 30
0.0
 11
136.3869519410603
 21
376.8257031729499
 31
0.0
 12
135.7202852743936
 22
380.8257031729499
 32
0.0
 13
135.7202852743936
 23
380.8257031729499
 33
0.0
  0
SOLID
  5
28C
330
286
100
AcDbEntity
  8
BEMASSUNG
  6
Continuous
 62
     2
100
AcDbTrace
 10
135.0536186077269
 20
363.3257031729535
 30
0.0
 11
136.3869519410603
 21
363.3257031729535
 31
0.0
 12
135.7202852743936
 22
359.3257031729535
 32
0.0
 13
135.7202852743936
 23
359.3257031729535
 33
0.0
  0
MTEXT
  5
28D
330
286
100
AcDbEntity
  8
BEMASSUNG
  6
Continuous
 62
     3
100
AcDbMText
 10
132.4992927778042
 20
370.0757031729517
 30
0.0
 40
4.349999999999999
 41
0.0
 71
     5
 72
     1
  1
\A1;21.5
  7
ARIAL-STANDARD
 11
0.0000000000000001
 21
1.0
 31
0.0
 73
     1
 44
1.0
1001
ACAD
1000
MTEXTBEGIN
1070
    73
1070
     1
1070
    44
1040
1.0
1070
    74
1070
     0
1000
MTEXTEND
  0
POINT
  5
28E
330
286
100
AcDbEntity
  8
DEFPOINTS
  6
Continuous
 62
     0
100
AcDbPoint
 10
115.2896315036725
 20
380.82570317295
 30
0.0
  0
POINT
  5
28F
330
286
100
AcDbEntity
  8
DEFPOINTS
  6
Continuous
 62
     0
100
AcDbPoint
 10
98.68963150367267
 20
359.3257031729536
 30
0.0
  0
POINT
  5
290
330
286
100
AcDbEntity
  8
DEFPOINTS
  6
Continuous
 62
     0
100
AcDbPoint
 10
135.7202852743936
 20
359.3257031729535
 30
0.0
  0
ENDBLK
  5
291
330
286
100
AcDbEntity
  8
0
100
AcDbBlockEnd
  0
BLOCK
  5
162
330
161
100
AcDbEntity
  8
0
100
AcDbBlockBegin
  2
*D16
 70
     1
 10
0.0
 20
0.0
 30
0.0
  3
*D16
  1

  0
LINE
  5
163
330
161
100
AcDbEntity
  8
BEMASSUNG
  6
Continuous
 62
     2
370
    -2
100
AcDbLine
 10
72.68963150367267
 20
385.4257031729501
 30
0.0
 11
72.68963150367267
 21
405.7115768776018
 31
0.0
  0
LINE
  5
164
330
161
100
AcDbEntity
  8
BEMASSUNG
  6
Continuous
 62
     2
370
    -2
100
AcDbLine
 10
110.6896315036727
 20
385.4257031729501
 30
0.0
 11
110.6896315036727
 21
405.7115768776018
 31
0.0
  0
LINE
  5
165
330
161
100
AcDbEntity
  8
BEMASSUNG
  6
Continuous
 62
     2
370
    -2
100
AcDbLine
 10
76.68963150367267
 20
404.7115768776018
 30
0.0
 11
106.6896315036726
 21
404.7115768776018
 31
0.0
  0
SOLID
  5
166
330
161
100
AcDbEntity
  8
BEMASSUNG
  6
Continuous
 62
     2
100
AcDbTrace
 10
76.68963150367267
 20
405.3782435442685
 30
0.0
 11
76.68963150367267
 21
404.0449102109351
 31
0.0
 12
72.68963150367267
 22
404.7115768776018
 32
0.0
 13
72.68963150367267
 23
404.7115768776018
 33
0.0
  0
SOLID
  5
167
330
161
100
AcDbEntity
  8
BEMASSUNG
  6
Continuous
 62
     2
100
AcDbTrace
 10
106.6896315036726
 20
405.3782435442685
 30
0.0
 11
106.6896315036726
 21
404.0449102109351
 31
0.0
 12
110.6896315036727
 22
404.7115768776018
 32
0.0
 13
110.6896315036727
 23
404.7115768776018
 33
0.0
  0
MTEXT
  5
168
330
161
100
AcDbEntity
  8
BEMASSUNG
  6
Continuous
 62
     3
100
AcDbMText
 10
91.68963150367266
 20
407.9340530031134
 30
0.0
 40
4.349999999999999
 41
0.0
 71
     5
 72
     1
  1
\A1;38
  7
ARIAL-STANDARD
 73
     1
 44
1.0
1001
ACAD
1000
MTEXTBEGIN
1070
    73
1070
     1
1070
    44
1040
1.0
1070
    74
1070
     0
1000
MTEXTEND
  0
POINT
  5
169
330
161
100
AcDbEntity
  8
DEFPOINTS
  6
Continuous
 62
     0
100
AcDbPoint
 10
72.68963150367267
 20
385.4257031729501
 30
0.0
  0
POINT
  5
16A
330
161
100
AcDbEntity
  8
DEFPOINTS
  6
Continuous
 62
     0
100
AcDbPoint
 10
110.6896315036727
 20
385.4257031729501
 30
0.0
  0
POINT
  5
16B
330
161
100
AcDbEntity
  8
DEFPOINTS
  6
Continuous
 62
     0
100
AcDbPoint
 10
110.6896315036727
 20
404.7115768776018
 30
0.0
  0
ENDBLK
  5
16C
330
161
100
AcDbEntity
  8
0
100
AcDbBlockEnd
  0
BLOCK
  5
235
330
234
100
AcDbEntity
  8
0
100
AcDbBlockBegin
  2
*D17
 70
     1
 10
0.0
 20
0.0
 30
0.0
  3
*D17
  1

  0
LINE
  5
236
330
234
100
AcDbEntity
  8
BEMASSUNG
  6
Continuous
 62
     2
370
    -2
100
AcDbLine
 10
34.68963150366813
 20
273.3257031729494
 30
0.0
 11
3.938264839293076
 21
273.3257031729494
 31
0.0
  0
LINE
  5
237
330
234
100
AcDbEntity
  8
BEMASSUNG
  6
Continuous
 62
     2
370
    -2
100
AcDbLine
 10
11.69963150367312
 20
309.8256938178408
 30
0.0
 11
3.938264839293083
 21
309.8256938178408
 31
0.0
  0
LINE
  5
238
330
234
100
AcDbEntity
  8
BEMASSUNG
  6
Continuous
 62
     2
370
    -2
100
AcDbLine
 10
4.938264839293076
 20
277.3257031729494
 30
0.0
 11
4.938264839293082
 21
305.8256938178408
 31
0.0
  0
SOLID
  5
239
330
234
100
AcDbEntity
  8
BEMASSUNG
  6
Continuous
 62
     2
100
AcDbTrace
 10
4.271598172626409
 20
277.3257031729494
 30
0.0
 11
5.604931505959743
 21
277.3257031729494
 31
0.0
 12
4.938264839293075
 22
273.3257031729494
 32
0.0
 13
4.938264839293075
 23
273.3257031729494
 33
0.0
  0
SOLID
  5
23A
330
234
100
AcDbEntity
  8
BEMASSUNG
  6
Continuous
 62
     2
100
AcDbTrace
 10
4.271598172626415
 20
305.8256938178408
 30
0.0
 11
5.604931505959749
 21
305.8256938178408
 31
0.0
 12
4.938264839293083
 22
309.8256938178408
 32
0.0
 13
4.938264839293083
 23
309.8256938178408
 33
0.0
  0
MTEXT
  5
23B
330
234
100
AcDbEntity
  8
BEMASSUNG
  6
Continuous
 62
     3
100
AcDbMText
 10
1.715788713781436
 20
291.5756984953951
 30
0.0
 40
4.349999999999999
 41
0.0
 71
     5
 72
     1
  1
\A1;36.5
  7
ARIAL-STANDARD
 11
0.0000000000000001
 21
1.0
 31
0.0
 73
     1
 44
1.0
1001
ACAD
1000
MTEXTBEGIN
1070
    73
1070
     1
1070
    44
1040
1.0
1070
    74
1070
     0
1000
MTEXTEND
  0
POINT
  5
23C
330
234
100
AcDbEntity
  8
DEFPOINTS
  6
Continuous
 62
     0
100
AcDbPoint
 10
34.68963150366813
 20
273.3257031729494
 30
0.0
  0
POINT
  5
23D
330
234
100
AcDbEntity
  8
DEFPOINTS
  6
Continuous
 62
     0
100
AcDbPoint
 10
11.69963150367312
 20
309.8256938178408
 30
0.0
  0
POINT
  5
23E
330
234
100
AcDbEntity
  8
DEFPOINTS
  6
Continuous
 62
     0
100
AcDbPoint
 10
4.938264839293083
 20
309.8256938178408
 30
0.0
  0
ENDBLK
  5
23F
330
234
100
AcDbEntity
  8
0
100
AcDbBlockEnd
  0
BLOCK
  5
242
330
241
100
AcDbEntity
  8
0
100
AcDbBlockBegin
  2
*D18
 70
     1
 10
0.0
 20
0.0
 30
0.0
  3
*D18
  1

  0
LINE
  5
243
330
241
100
AcDbEntity
  8
BEMASSUNG
  6
Continuous
 62
     2
370
    -2
100
AcDbLine
 10
22.19106142435363
 20
309.8256938178408
 30
0.0
 11
3.938264839293077
 21
309.8256938178408
 31
0.0
  0
LINE
  5
244
330
241
100
AcDbEntity
  8
BEMASSUNG
  6
Continuous
 62
     2
370
    -2
100
AcDbLine
 10
22.19106142435363
 20
339.8256939154089
 30
0.0
 11
3.938264839293084
 21
339.8256939154089
 31
0.0
  0
LINE
  5
245
330
241
100
AcDbEntity
  8
BEMASSUNG
  6
Continuous
 62
     2
370
    -2
100
AcDbLine
 10
4.938264839293077
 20
313.8256938178408
 30
0.0
 11
4.938264839293082
 21
335.8256939154089
 31
0.0
  0
MTEXT
  5
246
330
241
100
AcDbEntity
  8
BEMASSUNG
  6
Continuous
 62
     3
100
AcDbMText
 10
1.393247835932925
 20
324.467861612376
 30
0.0
 40
4.349999999999999
 41
0.0
 71
     5
 72
     1
  1
\A1;30
  7
ARIAL-STANDARD
 11
0.0000000000000001
 21
1.0
 31
0.0
 73
     1
 44
1.0
1001
ACAD
1000
MTEXTBEGIN
1070
    73
1070
     1
1070
    44
1040
1.0
1070
    74
1070
     0
1000
MTEXTEND
  0
SOLID
  5
247
330
241
100
AcDbEntity
  8
BEMASSUNG
  6
Continuous
 62
     2
100
AcDbTrace
 10
4.27159817262641
 20
313.8256938178408
 30
0.0
 11
5.604931505959743
 21
313.8256938178408
 31
0.0
 12
4.938264839293076
 22
309.8256938178408
 32
0.0
 13
4.938264839293076
 23
309.8256938178408
 33
0.0
  0
SOLID
  5
248
330
241
100
AcDbEntity
  8
BEMASSUNG
  6
Continuous
 62
     2
100
AcDbTrace
 10
4.271598172626415
 20
335.8256939154089
 30
0.0
 11
5.604931505959749
 21
335.8256939154089
 31
0.0
 12
4.938264839293083
 22
339.8256939154089
 32
0.0
 13
4.938264839293083
 23
339.8256939154089
 33
0.0
  0
POINT
  5
249
330
241
100
AcDbEntity
  8
DEFPOINTS
  6
Continuous
 62
     0
100
AcDbPoint
 10
22.19106142435363
 20
309.8256938178408
 30
0.0
  0
POINT
  5
24A
330
241
100
AcDbEntity
  8
DEFPOINTS
  6
Continuous
 62
     0
100
AcDbPoint
 10
22.19106142435363
 20
339.8256939154089
 30
0.0
  0
POINT
  5
24B
330
241
100
AcDbEntity
  8
DEFPOINTS
  6
Continuous
 62
     0
100
AcDbPoint
 10
4.938264839293083
 20
339.8256939154089
 30
0.0
  0
ENDBLK
  5
24C
330
241
100
AcDbEntity
  8
0
100
AcDbBlockEnd
  0
BLOCK
  5
294
330
293
100
AcDbEntity
  8
0
100
AcDbBlockBegin
  2
*D19
 70
     1
 10
0.0
 20
0.0
 30
0.0
  3
*D19
  1

  0
LINE
  5
295
330
293
100
AcDbEntity
  8
BEMASSUNG
  6
Continuous
 62
     2
370
    -2
100
AcDbLine
 10
11.69963150367312
 20
339.825693817841
 30
0.0
 11
3.938264839293072
 21
339.825693817841
 31
0.0
  0
LINE
  5
296
330
293
100
AcDbEntity
  8
BEMASSUNG
  6
Continuous
 62
     2
370
    -2
100
AcDbLine
 10
21.69964893544512
 20
387.8256938178413
 30
0.0
 11
3.938264839293084
 21
387.8256938178413
 31
0.0
  0
LINE
  5
297
330
293
100
AcDbEntity
  8
BEMASSUNG
  6
Continuous
 62
     2
370
    -2
100
AcDbLine
 10
4.938264839293073
 20
343.825693817841
 30
0.0
 11
4.938264839293082
 21
383.8256938178413
 31
0.0
  0
SOLID
  5
298
330
293
100
AcDbEntity
  8
BEMASSUNG
  6
Continuous
 62
     2
100
AcDbTrace
 10
4.271598172626406
 20
343.825693817841
 30
0.0
 11
5.60493150595974
 21
343.825693817841
 31
0.0
 12
4.938264839293072
 22
339.825693817841
 32
0.0
 13
4.938264839293072
 23
339.825693817841
 33
0.0
  0
SOLID
  5
299
330
293
100
AcDbEntity
  8
BEMASSUNG
  6
Continuous
 62
     2
100
AcDbTrace
 10
4.271598172626415
 20
383.8256938178413
 30
0.0
 11
5.604931505959749
 21
383.8256938178413
 31
0.0
 12
4.938264839293083
 22
387.8256938178413
 32
0.0
 13
4.938264839293083
 23
387.8256938178413
 33
0.0
  0
MTEXT
  5
29A
330
293
100
AcDbEntity
  8
BEMASSUNG
  6
Continuous
 62
     3
100
AcDbMText
 10
1.71727234270366
 20
363.8256938178411
 30
0.0
 40
4.349999999999999
 41
0.0
 71
     5
 72
     1
  1
\A1;48
  7
ARIAL-STANDARD
 11
0.0000000000000001
 21
1.0
 31
0.0
 73
     1
 44
1.0
1001
ACAD
1000
MTEXTBEGIN
1070
    73
1070
     1
1070
    44
1040
1.0
1070
    74
1070
     0
1000
MTEXTEND
  0
POINT
  5
29B
330
293
100
AcDbEntity
  8
DEFPOINTS
  6
Continuous
 62
     0
100
AcDbPoint
 10
11.69963150367312
 20
339.825693817841
 30
0.0
  0
POINT
  5
29C
330
293
100
AcDbEntity
  8
DEFPOINTS
  6
Continuous
 62
     0
100
AcDbPoint
 10
21.69964893544512
 20
387.8256938178413
 30
0.0
  0
POINT
  5
29D
330
293
100
AcDbEntity
  8
DEFPOINTS
  6
Continuous
 62
     0
100
AcDbPoint
 10
4.938264839293083
 20
387.8256938178413
 30
0.0
  0
ENDBLK
  5
29E
330
293
100
AcDbEntity
  8
0
100
AcDbBlockEnd
  0
BLOCK
  5
1B8
330
1B7
100
AcDbEntity
  8
0
100
AcDbBlockBegin
  2
*D20
 70
     1
 10
0.0
 20
0.0
 30
0.0
  3
*D20
  1

  0
LINE
  5
1B9
330
1B7
100
AcDbEntity
  8
BEMASSUNG
  6
Continuous
 62
     2
370
    -2
100
AcDbLine
 10
22.19106142435363
 20
387.8257031729491
 30
0.0
 11
3.938264839293077
 21
387.8257031729491
 31
0.0
  0
LINE
  5
1BA
330
1B7
100
AcDbEntity
  8
BEMASSUNG
  6
Continuous
 62
     2
370
    -2
100
AcDbLine
 10
22.19106142435363
 20
417.8257031729491
 30
0.0
 11
3.938264839293083
 21
417.8257031729491
 31
0.0
  0
LINE
  5
1BB
330
1B7
100
AcDbEntity
  8
BEMASSUNG
  6
Continuous
 62
     2
370
    -2
100
AcDbLine
 10
4.938264839293077
 20
391.8257031729491
 30
0.0
 11
4.938264839293082
 21
413.8257031729491
 31
0.0
  0
MTEXT
  5
1BC
330
1B7
100
AcDbEntity
  8
BEMASSUNG
  6
Continuous
 62
     3
100
AcDbMText
 10
1.402127254568767
 20
404.3237125032929
 30
0.0
 40
4.349999999999999
 41
0.0
 71
     5
 72
     1
  1
\A1;30
  7
ARIAL-STANDARD
 11
0.0000000000000001
 21
1.0
 31
0.0
 73
     1
 44
1.0
1001
ACAD
1000
MTEXTBEGIN
1070
    73
1070
     1
1070
    44
1040
1.0
1070
    74
1070
     0
1000
MTEXTEND
  0
SOLID
  5
1BD
330
1B7
100
AcDbEntity
  8
BEMASSUNG
  6
Continuous
 62
     2
100
AcDbTrace
 10
4.27159817262641
 20
391.8257031729491
 30
0.0
 11
5.604931505959744
 21
391.8257031729491
 31
0.0
 12
4.938264839293077
 22
387.8257031729491
 32
0.0
 13
4.938264839293077
 23
387.8257031729491
 33
0.0
  0
SOLID
  5
1BE
330
1B7
100
AcDbEntity
  8
BEMASSUNG
  6
Continuous
 62
     2
100
AcDbTrace
 10
4.271598172626415
 20
413.8257031729491
 30
0.0
 11
5.604931505959749
 21
413.8257031729491
 31
0.0
 12
4.938264839293083
 22
417.8257031729491
 32
0.0
 13
4.938264839293083
 23
417.8257031729491
 33
0.0
  0
POINT
  5
1BF
330
1B7
100
AcDbEntity
  8
DEFPOINTS
  6
Continuous
 62
     0
100
AcDbPoint
 10
22.19106142435363
 20
387.8257031729491
 30
0.0
  0
POINT
  5
1C0
330
1B7
100
AcDbEntity
  8
DEFPOINTS
  6
Continuous
 62
     0
100
AcDbPoint
 10
22.19106142435363
 20
417.8257031729491
 30
0.0
  0
POINT
  5
1C1
330
1B7
100
AcDbEntity
  8
DEFPOINTS
  6
Continuous
 62
     0
100
AcDbPoint
 10
4.938264839293083
 20
417.8257031729491
 30
0.0
  0
ENDBLK
  5
1C2
330
1B7
100
AcDbEntity
  8
0
100
AcDbBlockEnd
  0
BLOCK
  5
1C5
330
1C4
100
AcDbEntity
  8
0
100
AcDbBlockBegin
  2
*D21
 70
     1
 10
0.0
 20
0.0
 30
0.0
  3
*D21
  1

  0
LINE
  5
1C6
330
1C4
100
AcDbEntity
  8
BEMASSUNG
  6
Continuous
 62
     2
370
    -2
100
AcDbLine
 10
21.69964893544512
 20
417.8256938178415
 30
0.0
 11
4.000233428039447
 21
417.8256938178415
 31
0.0
  0
LINE
  5
1C7
330
1C4
100
AcDbEntity
  8
BEMASSUNG
  6
Continuous
 62
     2
370
    -2
100
AcDbLine
 10
34.68963150367085
 20
432.3257031729491
 30
0.0
 11
4.00023342803945
 21
432.3257031729491
 31
0.0
  0
LINE
  5
1C8
330
1C4
100
AcDbEntity
  8
BEMASSUNG
  6
Continuous
 62
     2
370
    -2
100
AcDbLine
 10
5.000233428039448
 20
421.8256938178415
 30
0.0
 11
5.000233428039449
 21
428.3257031729491
 31
0.0
  0
MTEXT
  5
1C9
330
1C4
100
AcDbEntity
  8
BEMASSUNG
  6
Continuous
 62
     3
100
AcDbMText
 10
0.7884467903058976
 20
425.4239955381308
 30
0.0
 40
4.349999999999999
 41
0.0
 71
     5
 72
     1
  1
\A1;14.5
  7
ARIAL-STANDARD
 11
0.0000000000000001
 21
1.0
 31
0.0
 73
     1
 44
1.0
1001
ACAD
1000
MTEXTBEGIN
1070
    73
1070
     1
1070
    44
1040
1.0
1070
    74
1070
     0
1000
MTEXTEND
  0
SOLID
  5
1CA
330
1C4
100
AcDbEntity
  8
BEMASSUNG
  6
Continuous
 62
     2
100
AcDbTrace
 10
4.333566761372781
 20
421.8256938178415
 30
0.0
 11
5.666900094706114
 21
421.8256938178415
 31
0.0
 12
5.000233428039447
 22
417.8256938178415
 32
0.0
 13
5.000233428039447
 23
417.8256938178415
 33
0.0
  0
SOLID
  5
1CB
330
1C4
100
AcDbEntity
  8
BEMASSUNG
  6
Continuous
 62
     2
100
AcDbTrace
 10
4.333566761372782
 20
428.3257031729491
 30
0.0
 11
5.666900094706116
 21
428.3257031729491
 31
0.0
 12
5.00023342803945
 22
432.3257031729491
 32
0.0
 13
5.00023342803945
 23
432.3257031729491
 33
0.0
  0
POINT
  5
1CC
330
1C4
100
AcDbEntity
  8
DEFPOINTS
  6
Continuous
 62
     0
100
AcDbPoint
 10
21.69964893544512
 20
417.8256938178415
 30
0.0
  0
POINT
  5
1CD
330
1C4
100
AcDbEntity
  8
DEFPOINTS
  6
Continuous
 62
     0
100
AcDbPoint
 10
34.68963150367085
 20
432.3257031729491
 30
0.0
  0
POINT
  5
1CE
330
1C4
100
AcDbEntity
  8
DEFPOINTS
  6
Continuous
 62
     0
100
AcDbPoint
 10
5.00023342803945
 20
432.3257031729491
 30
0.0
  0
ENDBLK
  5
1CF
330
1C4
100
AcDbEntity
  8
0
100
AcDbBlockEnd
  0
BLOCK
  5
1D2
330
1D1
100
AcDbEntity
  8
0
100
AcDbBlockBegin
  2
*D22
 70
     1
 10
0.0
 20
0.0
 30
0.0
  3
*D22
  1

  0
LINE
  5
1D3
330
1D1
100
AcDbEntity
  8
BEMASSUNG
  6
Continuous
 62
     2
370
    -2
100
AcDbLine
 10
21.69106142435364
 20
416.9177775541211
 30
0.0
 11
21.69106142435364
 21
423.9024932998392
 31
0.0
  0
LINE
  5
1D4
330
1D1
100
AcDbEntity
  8
BEMASSUNG
  6
Continuous
 62
     2
370
    -2
100
AcDbLine
 10
31.68963150367324
 20
425.5851346035894
 30
0.0
 11
31.68963150367324
 21
421.9024932998393
 31
0.0
  0
LINE
  5
1D5
330
1D1
100
AcDbEntity
  8
BEMASSUNG
  6
Continuous
 62
     2
370
    -2
100
AcDbLine
 10
17.69106142435363
 20
422.9024932998393
 30
0.0
 11
13.69106142435363
 21
422.9024932998393
 31
0.0
  0
LINE
  5
1D6
330
1D1
100
AcDbEntity
  8
BEMASSUNG
  6
Continuous
 62
     2
370
    -2
100
AcDbLine
 10
35.68963150367324
 20
422.9024932998393
 30
0.0
 11
39.68963150367324
 21
422.9024932998393
 31
0.0
  0
LINE
  5
1D7
330
1D1
100
AcDbEntity
  8
BEMASSUNG
  6
Continuous
 62
     2
370
    -2
100
AcDbLine
 10
21.69106142435364
 20
422.9024932998393
 30
0.0
 11
31.68963150367324
 21
422.9024932998393
 31
0.0
  0
SOLID
  5
1D8
330
1D1
100
AcDbEntity
  8
BEMASSUNG
  6
Continuous
 62
     2
100
AcDbTrace
 10
17.69106142435363
 20
423.5691599665059
 30
0.0
 11
17.69106142435363
 21
422.2358266331726
 31
0.0
 12
21.69106142435364
 22
422.9024932998393
 32
0.0
 13
21.69106142435364
 23
422.9024932998393
 33
0.0
  0
SOLID
  5
1D9
330
1D1
100
AcDbEntity
  8
BEMASSUNG
  6
Continuous
 62
     2
100
AcDbTrace
 10
35.68963150367324
 20
423.5691599665059
 30
0.0
 11
35.68963150367324
 21
422.2358266331726
 31
0.0
 12
31.68963150367324
 22
422.9024932998393
 32
0.0
 13
31.68963150367324
 23
422.9024932998393
 33
0.0
  0
MTEXT
  5
1DA
330
1D1
100
AcDbEntity
  8
BEMASSUNG
  6
Continuous
 62
     3
100
AcDbMText
 10
26.69034646401344
 20
426.1234857964287
 30
0.0
 40
4.349999999999999
 41
0.0
 71
     5
 72
     1
  1
\A1;10
  7
ARIAL-STANDARD
 73
     1
 44
1.0
1001
ACAD
1000
MTEXTBEGIN
1070
    73
1070
     1
1070
    44
1040
1.0
1070
    74
1070
     0
1000
MTEXTEND
  0
POINT
  5
1DB
330
1D1
100
AcDbEntity
  8
DEFPOINTS
  6
Continuous
 62
     0
100
AcDbPoint
 10
21.69106142435364
 20
416.9177775541211
 30
0.0
  0
POINT
  5
1DC
330
1D1
100
AcDbEntity
  8
DEFPOINTS
  6
Continuous
 62
     0
100
AcDbPoint
 10
31.68963150367324
 20
425.5851346035894
 30
0.0
  0
POINT
  5
1DD
330
1D1
100
AcDbEntity
  8
DEFPOINTS
  6
Continuous
 62
     0
100
AcDbPoint
 10
31.68963150367324
 20
422.9024932998393
 30
0.0
  0
ENDBLK
  5
1DE
330
1D1
100
AcDbEntity
  8
0
100
AcDbBlockEnd
  0
BLOCK
  5
114
330
113
100
AcDbEntity
  8
0
100
AcDbBlockBegin
  2
*D23
 70
     1
 10
0.0
 20
0.0
 30
0.0
  3
*D23
  1

  0
LINE
  5
115
330
113
100
AcDbEntity
  8
BEMASSUNG
  6
Continuous
 62
     2
370
    -2
100
AcDbLine
 10
31.68963150367267
 20
467.825703172949
 30
0.0
 11
31.68963150367267
 21
485.3981634006766
 31
0.0
  0
LINE
  5
116
330
113
100
AcDbEntity
  8
BEMASSUNG
  6
Continuous
 62
     2
370
    -2
100
AcDbLine
 10
34.68963150367267
 20
467.825703172949
 30
0.0
 11
34.68963150367267
 21
485.3981634006766
 31
0.0
  0
LINE
  5
117
330
113
100
AcDbEntity
  8
BEMASSUNG
  6
Continuous
 62
     2
370
    -2
100
AcDbLine
 10
27.68963150367267
 20
484.3981634006765
 30
0.0
 11
23.68963150367267
 21
484.3981634006765
 31
0.0
  0
LINE
  5
118
330
113
100
AcDbEntity
  8
BEMASSUNG
  6
Continuous
 62
     2
370
    -2
100
AcDbLine
 10
38.68963150367267
 20
484.3981634006765
 30
0.0
 11
42.68963150367267
 21
484.3981634006765
 31
0.0
  0
LINE
  5
119
330
113
100
AcDbEntity
  8
BEMASSUNG
  6
Continuous
 62
     2
370
    -2
100
AcDbLine
 10
31.68963150367267
 20
484.3981634006765
 30
0.0
 11
34.68963150367267
 21
484.3981634006765
 31
0.0
  0
SOLID
  5
11A
330
113
100
AcDbEntity
  8
BEMASSUNG
  6
Continuous
 62
     2
100
AcDbTrace
 10
27.68963150367267
 20
485.0648300673433
 30
0.0
 11
27.68963150367267
 21
483.7314967340098
 31
0.0
 12
31.68963150367267
 22
484.3981634006765
 32
0.0
 13
31.68963150367267
 23
484.3981634006765
 33
0.0
  0
SOLID
  5
11B
330
113
100
AcDbEntity
  8
BEMASSUNG
  6
Continuous
 62
     2
100
AcDbTrace
 10
38.68963150367267
 20
485.0648300673433
 30
0.0
 11
38.68963150367267
 21
483.7314967340098
 31
0.0
 12
34.68963150367267
 22
484.3981634006765
 32
0.0
 13
34.68963150367267
 23
484.3981634006765
 33
0.0
  0
MTEXT
  5
11C
330
113
100
AcDbEntity
  8
BEMASSUNG
  6
Continuous
 62
     3
100
AcDbMText
 10
33.18963150367267
 20
487.6206395261881
 30
0.0
 40
4.349999999999999
 41
0.0
 71
     5
 72
     1
  1
\A1;3
  7
ARIAL-STANDARD
 73
     1
 44
1.0
1001
ACAD
1000
MTEXTBEGIN
1070
    73
1070
     1
1070
    44
1040
1.0
1070
    74
1070
     0
1000
MTEXTEND
  0
POINT
  5
11D
330
113
100
AcDbEntity
  8
DEFPOINTS
  6
Continuous
 62
     0
100
AcDbPoint
 10
31.68963150367267
 20
467.825703172949
 30
0.0
  0
POINT
  5
11E
330
113
100
AcDbEntity
  8
DEFPOINTS
  6
Continuous
 62
     0
100
AcDbPoint
 10
34.68963150367267
 20
467.825703172949
 30
0.0
  0
POINT
  5
11F
330
113
100
AcDbEntity
  8
DEFPOINTS
  6
Continuous
 62
     0
100
AcDbPoint
 10
34.68963150367267
 20
484.3981634006765
 30
0.0
  0
ENDBLK
  5
120
330
113
100
AcDbEntity
  8
0
100
AcDbBlockEnd
  0
BLOCK
  5
104
330
103
100
AcDbEntity
  8
0
100
AcDbBlockBegin
  2
*D24
 70
     1
 10
0.0
 20
0.0
 30
0.0
  3
*D24
  1

  0
LINE
  5
105
330
103
100
AcDbEntity
  8
BEMASSUNG
  6
Continuous
 62
     2
370
    -2
100
AcDbLine
 10
21.69106142435363
 20
339.3256939154089
 30
0.0
 11
21.69106142435363
 21
352.5973550159063
 31
0.0
  0
LINE
  5
106
330
103
100
AcDbEntity
  8
BEMASSUNG
  6
Continuous
 62
     2
370
    -2
100
AcDbLine
 10
31.68963150367301
 20
352.2680153418435
 30
0.0
 11
31.68963150367301
 21
350.5973550159063
 31
0.0
  0
LINE
  5
107
330
103
100
AcDbEntity
  8
BEMASSUNG
  6
Continuous
 62
     2
370
    -2
100
AcDbLine
 10
17.69106142435363
 20
351.5973550159062
 30
0.0
 11
13.69106142435362
 21
351.5973550159062
 31
0.0
  0
LINE
  5
108
330
103
100
AcDbEntity
  8
BEMASSUNG
  6
Continuous
 62
     2
370
    -2
100
AcDbLine
 10
35.68963150367301
 20
351.5973550159062
 30
0.0
 11
39.68963150367301
 21
351.5973550159062
 31
0.0
  0
LINE
  5
109
330
103
100
AcDbEntity
  8
BEMASSUNG
  6
Continuous
 62
     2
370
    -2
100
AcDbLine
 10
21.69106142435363
 20
351.5973550159062
 30
0.0
 11
31.68963150367301
 21
351.5973550159062
 31
0.0
  0
SOLID
  5
10A
330
103
100
AcDbEntity
  8
BEMASSUNG
  6
Continuous
 62
     2
100
AcDbTrace
 10
17.69106142435363
 20
352.2640216825729
 30
0.0
 11
17.69106142435363
 21
350.9306883492396
 31
0.0
 12
21.69106142435363
 22
351.5973550159062
 32
0.0
 13
21.69106142435363
 23
351.5973550159062
 33
0.0
  0
SOLID
  5
10B
330
103
100
AcDbEntity
  8
BEMASSUNG
  6
Continuous
 62
     2
100
AcDbTrace
 10
35.68963150367301
 20
352.2640216825729
 30
0.0
 11
35.68963150367301
 21
350.9306883492396
 31
0.0
 12
31.68963150367301
 22
351.5973550159062
 32
0.0
 13
31.68963150367301
 23
351.5973550159062
 33
0.0
  0
MTEXT
  5
10C
330
103
100
AcDbEntity
  8
BEMASSUNG
  6
Continuous
 62
     3
100
AcDbMText
 10
26.69034646401332
 20
354.8183475124956
 30
0.0
 40
4.349999999999999
 41
0.0
 71
     5
 72
     1
  1
\A1;10
  7
ARIAL-STANDARD
 73
     1
 44
1.0
1001
ACAD
1000
MTEXTBEGIN
1070
    73
1070
     1
1070
    44
1040
1.0
1070
    74
1070
     0
1000
MTEXTEND
  0
POINT
  5
10D
330
103
100
AcDbEntity
  8
DEFPOINTS
  6
Continuous
 62
     0
100
AcDbPoint
 10
21.69106142435363
 20
339.3256939154089
 30
0.0
  0
POINT
  5
10E
330
103
100
AcDbEntity
  8
DEFPOINTS
  6
Continuous
 62
     0
100
AcDbPoint
 10
31.68963150367301
 20
352.2680153418435
 30
0.0
  0
POINT
  5
10F
330
103
100
AcDbEntity
  8
DEFPOINTS
  6
Continuous
 62
     0
100
AcDbPoint
 10
31.68963150367301
 20
351.5973550159062
 30
0.0
  0
ENDBLK
  5
110
330
103
100
AcDbEntity
  8
0
100
AcDbBlockEnd
  0
BLOCK
  5
7A
330
79
100
AcDbEntity
  8
0
100
AcDbBlockBegin
  2
*D25
 70
     1
 10
0.0
 20
0.0
 30
0.0
  3
*D25
  1

  0
LINE
  5
7B
330
79
100
AcDbEntity
  8
BEMASSUNG
  6
Continuous
 62
     2
370
    -2
100
AcDbLine
 10
31.68963150367222
 20
237.8257031729494
 30
0.0
 11
31.68963150367222
 21
257.3523684154468
 31
0.0
  0
LINE
  5
7C
330
79
100
AcDbEntity
  8
BEMASSUNG
  6
Continuous
 62
     2
370
    -2
100
AcDbLine
 10
91.68963150367266
 20
276.5257031729495
 30
0.0
 11
91.68963150367266
 21
255.3523684154468
 31
0.0
  0
LINE
  5
7D
330
79
100
AcDbEntity
  8
BEMASSUNG
  6
Continuous
 62
     2
370
    -2
100
AcDbLine
 10
35.68963150367222
 20
256.3523684154468
 30
0.0
 11
87.68963150367268
 21
256.3523684154468
 31
0.0
  0
SOLID
  5
7E
330
79
100
AcDbEntity
  8
BEMASSUNG
  6
Continuous
 62
     2
100
AcDbTrace
 10
35.68963150367222
 20
257.0190350821135
 30
0.0
 11
35.68963150367222
 21
255.6857017487801
 31
0.0
 12
31.68963150367222
 22
256.3523684154468
 32
0.0
 13
31.68963150367222
 23
256.3523684154468
 33
0.0
  0
SOLID
  5
7F
330
79
100
AcDbEntity
  8
BEMASSUNG
  6
Continuous
 62
     2
100
AcDbTrace
 10
87.68963150367268
 20
257.0190350821135
 30
0.0
 11
87.68963150367268
 21
255.6857017487801
 31
0.0
 12
91.68963150367266
 22
256.3523684154468
 32
0.0
 13
91.68963150367266
 23
256.3523684154468
 33
0.0
  0
MTEXT
  5
80
330
79
100
AcDbEntity
  8
BEMASSUNG
  6
Continuous
 62
     3
100
AcDbMText
 10
61.68963150367244
 20
259.5273684154468
 30
0.0
 40
4.349999999999999
 41
0.0
 71
     5
 72
     1
  1
\A1;DM
  7
ARIAL-STANDARD
 73
     1
 44
1.0
1001
ACAD
1000
MTEXTBEGIN
1070
    73
1070
     1
1070
    44
1040
1.0
1070
    74
1070
     0
1000
MTEXTEND
  0
POINT
  5
81
330
79
100
AcDbEntity
  8
DEFPOINTS
  6
Continuous
 62
     0
100
AcDbPoint
 10
31.68963150367222
 20
237.8257031729494
 30
0.0
  0
POINT
  5
82
330
79
100
AcDbEntity
  8
DEFPOINTS
  6
Continuous
 62
     0
100
AcDbPoint
 10
91.68963150367266
 20
276.5257031729495
 30
0.0
  0
POINT
  5
83
330
79
100
AcDbEntity
  8
DEFPOINTS
  6
Continuous
 62
     0
100
AcDbPoint
 10
91.68963150367266
 20
256.3523684154468
 30
0.0
  0
ENDBLK
  5
84
330
79
100
AcDbEntity
  8
0
100
AcDbBlockEnd
  0
BLOCK
  5
6C
330
6B
100
AcDbEntity
  8
0
100
AcDbBlockBegin
  2
*D26
 70
     1
 10
0.0
 20
0.0
 30
0.0
  3
*D26
  1

  0
LINE
  5
6D
330
6B
100
AcDbEntity
  8
BEMASSUNG
  6
Continuous
 62
     2
370
    -2
100
AcDbLine
 10
91.68963150367266
 20
276.5257031729495
 30
0.0
 11
91.68963150367266
 21
255.3523684154468
 31
0.0
  0
LINE
  5
6E
330
6B
100
AcDbEntity
  8
BEMASSUNG
  6
Continuous
 62
     2
370
    -2
100
AcDbLine
 10
120.6896315036722
 20
292.4470235165097
 30
0.0
 11
120.6896315036722
 21
255.3523684154468
 31
0.0
  0
LINE
  5
6F
330
6B
100
AcDbEntity
  8
BEMASSUNG
  6
Continuous
 62
     2
370
    -2
100
AcDbLine
 10
95.68963150367267
 20
256.3523684154468
 30
0.0
 11
116.6896315036722
 21
256.3523684154468
 31
0.0
  0
SOLID
  5
70
330
6B
100
AcDbEntity
  8
BEMASSUNG
  6
Continuous
 62
     2
100
AcDbTrace
 10
95.68963150367267
 20
257.0190350821135
 30
0.0
 11
95.68963150367267
 21
255.6857017487801
 31
0.0
 12
91.68963150367266
 22
256.3523684154468
 32
0.0
 13
91.68963150367266
 23
256.3523684154468
 33
0.0
  0
SOLID
  5
71
330
6B
100
AcDbEntity
  8
BEMASSUNG
  6
Continuous
 62
     2
100
AcDbTrace
 10
116.6896315036722
 20
257.0190350821135
 30
0.0
 11
116.6896315036722
 21
255.6857017487801
 31
0.0
 12
120.6896315036722
 22
256.3523684154468
 32
0.0
 13
120.6896315036722
 23
256.3523684154468
 33
0.0
  0
MTEXT
  5
72
330
6B
100
AcDbEntity
  8
BEMASSUNG
  6
Continuous
 62
     3
100
AcDbMText
 10
106.1896315036724
 20
259.5733609120362
 30
0.0
 40
4.349999999999999
 41
0.0
 71
     5
 72
     1
  1
\A1;29
  7
ARIAL-STANDARD
 73
     1
 44
1.0
1001
ACAD
1000
MTEXTBEGIN
1070
    73
1070
     1
1070
    44
1040
1.0
1070
    74
1070
     0
1000
MTEXTEND
  0
POINT
  5
73
330
6B
100
AcDbEntity
  8
DEFPOINTS
  6
Continuous
 62
     0
100
AcDbPoint
 10
91.68963150367266
 20
276.5257031729495
 30
0.0
  0
POINT
  5
75
330
6B
100
AcDbEntity
  8
DEFPOINTS
  6
Continuous
 62
     0
100
AcDbPoint
 10
120.6896315036722
 20
292.4470235165097
 30
0.0
  0
POINT
  5
76
330
6B
100
AcDbEntity
  8
DEFPOINTS
  6
Continuous
 62
     0
100
AcDbPoint
 10
120.6896315036722
 20
256.3523684154468
 30
0.0
  0
ENDBLK
  5
77
330
6B
100
AcDbEntity
  8
0
100
AcDbBlockEnd
  0
ENDSEC
  0
SECTION
  2
ENTITIES
  0
DIMENSION
  5
67
330
2
100
AcDbEntity
  8
BEMASSUNG
  6
Continuous
100
AcDbDimension
  2
*D26
 10
120.6896315036722
 20
256.3523684154468
 30
0.0
 11
106.1896315036724
 21
259.5733609120362
 31
0.0
 71
     5
 42
28.99999999999955
  3
Katalog 09
100
AcDbAlignedDimension
 13
91.68963150367266
 23
276.5257031729495
 33
0.0
 14
120.6896315036722
 24
292.4470235165097
 34
0.0
100
AcDbRotatedDimension
  0
DIMENSION
  5
78
330
2
100
AcDbEntity
  8
BEMASSUNG
  6
Continuous
100
AcDbDimension
  2
*D25
 10
91.68963150367266
 20
256.3523684154468
 30
0.0
 11
61.68963150367244
 21
259.5273684154468
 31
0.0
  1
DM
 71
     5
 42
60.00000000000046
  3
Katalog 09
100
AcDbAlignedDimension
 13
31.68963150367222
 23
237.8257031729494
 33
0.0
 14
91.68963150367266
 24
276.5257031729495
 34
0.0
100
AcDbRotatedDimension
1001
ACAD_DSTYLE_DIMINSPECT
1070
   396
1000
100%
1070
   395
1000

1070
   394
1070
    33
1070
   393
1070
     0
  0
LINE
  5
86
330
2
100
AcDbEntity
  8
ACHSEN
100
AcDbLine
 10
110.6896315036731
 20
386.3257031729501
 30
0.0
 11
110.6896315036731
 21
375.3257031729502
 31
0.0
  0
CIRCLE
  5
87
330
2
100
AcDbEntity
  8
UMRISS05
100
AcDbCircle
 10
110.6896315036731
 20
380.8257031729502
 30
0.0
 40
3.5
  0
CIRCLE
  5
8B
330
2
100
AcDbEntity
  8
UMRISS05
100
AcDbCircle
 10
72.68963150367307
 20
380.8257031729502
 30
0.0
 40
3.5
  0
LINE
  5
8C
330
2
100
AcDbEntity
  8
ACHSEN
100
AcDbLine
 10
72.68963150367307
 20
386.3257031729501
 30
0.0
 11
72.68963150367307
 21
375.3257031729502
 31
0.0
  0
LINE
  5
8D
330
2
100
AcDbEntity
  8
UMRISS05
100
AcDbLine
 10
21.42153040538517
 20
180.8689238215771
 30
0.0
 11
30.0480467266122
 21
173.6304171580906
 31
0.0
  0
LINE
  5
8E
330
2
100
AcDbEntity
  8
UMRISS05
100
AcDbLine
 10
21.68106142440831
 20
181.045528265889
 30
0.0
 11
21.48580916635382
 21
181.045528265889
 31
0.0
  0
LINE
  5
8F
330
2
100
AcDbEntity
  8
UMRISS05
100
AcDbLine
 10
21.68106142440831
 20
183.7815282658892
 30
0.0
 11
21.68106142440831
 21
181.045528265889
 31
0.0
  0
ARC
  5
90
330
2
100
AcDbEntity
  8
UMRISS05
100
AcDbCircle
 10
31.65501575082857
 20
175.5455282658881
 30
0.0
 40
2.5
100
AcDbArc
 50
230.0000000000001
 51
270.0
  0
ARC
  5
91
330
2
100
AcDbEntity
  8
UMRISS05
100
AcDbCircle
 10
21.48580916635382
 20
180.945528265889
 30
0.0
 40
0.1
100
AcDbArc
 50
90.0
 51
230.0000000000001
  0
LINE
  5
92
330
2
100
AcDbEntity
  8
UMRISS05
100
AcDbLine
 10
21.5058091663538
 20
181.045528265889
 30
0.0
 11
31.68963150367222
 21
181.045528265889
 31
0.0
  0
LINE
  5
93
330
2
100
AcDbEntity
  8
UMRISS05
100
AcDbLine
 10
21.68106142440831
 20
183.7815282658892
 30
0.0
 11
24.98106142440838
 21
184.0455282658891
 31
0.0
  0
LINE
  5
94
330
2
100
AcDbEntity
  8
UMRISS05
100
AcDbLine
 10
31.68963150367222
 20
184.0455282658891
 30
0.0
 11
24.98106142440838
 21
184.0455282658891
 31
0.0
  0
LINE
  5
95
330
2
100
AcDbEntity
  8
UMRISS05
100
AcDbLine
 10
46.38963150367328
 20
417.3257031729492
 30
0.0
 11
34.68963150367257
 21
417.3257031729492
 31
0.0
  0
LINE
  5
96
330
2
100
AcDbEntity
  8
UMRISS05
100
AcDbLine
 10
42.54906483061882
 20
320.7288871557969
 30
0.0
 11
39.94505461182314
 21
318.8192796620133
 31
0.0
  0
ARC
  5
97
330
2
100
AcDbEntity
  8
UMRISS05
100
AcDbCircle
 10
39.35369094819561
 20
330.025684657869
 30
0.0
 40
1.0
100
AcDbArc
 50
53.74616226255419
 51
90.0
  0
LINE
  5
98
330
2
100
AcDbEntity
  8
UMRISS05
100
AcDbLine
 10
39.94505461182314
 20
330.8320896537247
 30
0.0
 11
42.54906483061887
 21
328.9224821599412
 31
0.0
  0
LINE
  5
99
330
2
100
AcDbEntity
  8
AVERDECKTE
100
AcDbLine
 10
31.68963150367216
 20
312.8256939154089
 30
0.0
 11
34.68963150367211
 21
312.8256939154089
 31
0.0
  0
ARC
  5
9D
330
2
100
AcDbEntity
  8
UMRISS05
100
AcDbCircle
 10
22.18107341955631
 20
336.3256939154088
 30
0.0
 40
0.5
100
AcDbArc
 50
90.0
 51
175.6176454975437
  0
ARC
  5
9E
330
2
100
AcDbEntity
  8
UMRISS05
100
AcDbCircle
 10
22.18107341955574
 20
313.3256939154088
 30
0.0
 40
0.5
100
AcDbArc
 50
184.3823545024497
 51
270.0
  0
LINE
  5
9F
330
2
100
AcDbEntity
  8
AVERDECKTE
100
AcDbLine
 10
31.6896315036721
 20
336.8256939154087
 30
0.0
 11
34.68963150367211
 21
336.8256939154089
 31
0.0
  0
ARC
  5
A0
330
2
100
AcDbEntity
  8
UMRISS05
100
AcDbCircle
 10
172.2410614243536
 20
324.8256939154052
 30
0.0
 40
150.9999999999999
100
AcDbArc
 50
175.6176454975478
 51
184.3823545024497
  0
LINE
  5
A1
330
2
100
AcDbEntity
  8
UMRISS05
100
AcDbLine
 10
35.68106142435363
 20
322.8256846578691
 30
0.0
 11
34.68963150367211
 21
322.8256846578691
 31
0.0
  0
LINE
  5
A2
330
2
100
AcDbEntity
  8
UMRISS05
100
AcDbLine
 10
35.68106142435363
 20
322.6756846578692
 30
0.0
 11
34.68963150367216
 21
322.6756846578691
 31
0.0
  0
LINE
  5
A3
330
2
100
AcDbEntity
  8
UMRISS05
100
AcDbLine
 10
35.68106142435363
 20
326.8256846578691
 30
0.0
 11
34.68963150367211
 21
326.8256846578691
 31
0.0
  0
LINE
  5
A4
330
2
100
AcDbEntity
  8
UMRISS05
100
AcDbLine
 10
35.68106142435363
 20
326.9756846578691
 30
0.0
 11
34.68963150367211
 21
326.9756846578691
 31
0.0
  0
LINE
  5
A5
330
2
100
AcDbEntity
  8
UMRISS05
100
AcDbLine
 10
39.35369094819555
 20
331.025684657869
 30
0.0
 11
35.68106142435363
 21
331.025684657869
 31
0.0
  0
ARC
  5
A6
330
2
100
AcDbEntity
  8
UMRISS05
100
AcDbCircle
 10
39.35369094819561
 20
319.6256846578691
 30
0.0
 40
1.0
100
AcDbArc
 50
270.0
 51
306.2538377374458
  0
LINE
  5
A7
330
2
100
AcDbEntity
  8
UMRISS05
100
AcDbLine
 10
39.35369094819561
 20
318.625684657869
 30
0.0
 11
35.68106142435363
 21
318.625684657869
 31
0.0
  0
ARC
  5
A8
330
2
100
AcDbEntity
  8
UMRISS05
100
AcDbCircle
 10
42.84474666243261
 20
329.3256846578691
 30
0.0
 40
0.5
100
AcDbArc
 50
233.7461622625542
 51
270.0
  0
LINE
  5
A9
330
2
100
AcDbEntity
  8
UMRISS05
100
AcDbLine
 10
46.38963150367328
 20
328.8256846578691
 30
0.0
 11
42.84474666243261
 21
328.8256846578691
 31
0.0
  0
ARC
  5
AA
330
2
100
AcDbEntity
  8
UMRISS05
100
AcDbCircle
 10
42.84474666243261
 20
320.3256846578691
 30
0.0
 40
0.5
100
AcDbArc
 50
90.0
 51
126.2538377374458
  0
LINE
  5
AB
330
2
100
AcDbEntity
  8
UMRISS05
100
AcDbLine
 10
46.38963150367328
 20
320.8256846578691
 30
0.0
 11
42.84474666243261
 21
320.8256846578691
 31
0.0
  0
LINE
  5
AC
330
2
100
AcDbEntity
  8
UMRISS05
100
AcDbLine
 10
34.68963150367242
 20
339.325693915409
 30
0.0
 11
46.38963150367328
 21
339.325693915409
 31
0.0
  0
LINE
  5
AD
330
2
100
AcDbEntity
  8
UMRISS05
100
AcDbLine
 10
46.38963150367328
 20
339.325693915409
 30
0.0
 11
46.38963150367328
 21
310.3256939154092
 31
0.0
  0
LINE
  5
AE
330
2
100
AcDbEntity
  8
UMRISS05
100
AcDbLine
 10
46.38963150367328
 20
310.3256939154092
 30
0.0
 11
34.68963150367236
 21
310.3256939154092
 31
0.0
  0
LINE
  5
AF
330
2
100
AcDbEntity
  8
UMRISS05
100
AcDbLine
 10
46.38963150367305
 20
333.6429893877043
 30
0.0
 11
41.70060318950516
 21
339.3256939154091
 31
0.0
  0
LINE
  5
B0
330
2
100
AcDbEntity
  8
UMRISS05
100
AcDbLine
 10
36.9209830894838
 20
326.6176057608709
 30
0.0
 11
46.38963150367328
 21
328.2849508070695
 31
0.0
  0
ARC
  5
B1
330
2
100
AcDbEntity
  8
UMRISS05
100
AcDbCircle
 10
37.18189498953825
 20
325.1359190192296
 30
0.0
 40
1.5044835060399
100
AcDbArc
 50
99.98689397380491
 51
245.3000900866797
  0
LINE
  5
B2
330
2
100
AcDbEntity
  8
UMRISS05
100
AcDbLine
 10
37.46173185291798
 20
323.351216817225
 30
0.0
 11
36.55322301837612
 21
323.7690824625699
 31
0.0
  0
LINE
  5
B3
330
2
100
AcDbEntity
  8
UMRISS05
100
AcDbLine
 10
37.67265249512195
 20
323.8097930820226
 30
0.0
 11
37.46173185291798
 21
323.351216817225
 31
0.0
  0
LINE
  5
B4
330
2
100
AcDbEntity
  8
UMRISS05
100
AcDbLine
 10
36.76414366058009
 20
324.2276587273675
 30
0.0
 11
37.67265249512195
 21
323.8097930820226
 31
0.0
  0
ARC
  5
B5
330
2
100
AcDbEntity
  8
UMRISS05
100
AcDbCircle
 10
37.18189498953825
 20
325.1359190192296
 30
0.0
 40
0.9997264278889424
100
AcDbArc
 50
99.98796017931992
 51
245.3000900866797
  0
LINE
  5
B6
330
2
100
AcDbEntity
  8
UMRISS05
100
AcDbLine
 10
46.38963150367328
 20
327.7726076809714
 30
0.0
 11
37.00850120648431
 21
326.1204938140612
 31
0.0
  0
LINE
  5
B7
330
2
100
AcDbEntity
  8
UMRISS05
100
AcDbLine
 10
42.35461752278934
 20
339.3256939154092
 30
0.0
 11
46.38963150367317
 21
334.4357488682375
 31
0.0
  0
LINE
  5
B8
330
2
100
AcDbEntity
  8
UMRISS05
100
AcDbLine
 10
38.68106142435363
 20
310.3256939154089
 30
0.0
 11
38.68106142435363
 21
313.3256939154088
 31
0.0
  0
ARC
  5
B9
330
2
100
AcDbEntity
  8
UMRISS05
100
AcDbCircle
 10
40.68106142435363
 20
313.3256939154088
 30
0.0
 40
1.999999999999997
100
AcDbArc
 50
90.0
 51
180.0
  0
LINE
  5
BA
330
2
100
AcDbEntity
  8
UMRISS05
100
AcDbLine
 10
40.68106142435363
 20
315.3256939154089
 30
0.0
 11
46.38963150367317
 21
315.3256939154089
 31
0.0
  0
LINE
  5
BB
330
2
100
AcDbEntity
  8
UMRISS05
100
AcDbLine
 10
34.68963150367211
 20
312.8256939154089
 30
0.0
 11
35.68106142435363
 21
312.8256939154088
 31
0.0
  0
LINE
  5
BC
330
2
100
AcDbEntity
  8
UMRISS05
100
AcDbLine
 10
22.18107341955574
 20
312.8256939154089
 30
0.0
 11
31.68963150367216
 21
312.8256939154089
 31
0.0
  0
ARC
  5
BD
330
2
100
AcDbEntity
  8
UMRISS05
100
AcDbCircle
 10
22.19106142435363
 20
310.3256939154089
 30
0.0
 40
0.5
100
AcDbArc
 50
180.0
 51
270.0
  0
LINE
  5
BE
330
2
100
AcDbEntity
  8
UMRISS05
100
AcDbLine
 10
22.19106142435363
 20
309.8256939154089
 30
0.0
 11
31.6896315036721
 21
309.8256939154089
 31
0.0
  0
LINE
  5
BF
330
2
100
AcDbEntity
  8
UMRISS05
100
AcDbLine
 10
35.68106142435363
 20
336.8256939154089
 30
0.0
 11
34.68963150367211
 21
336.8256939154089
 31
0.0
  0
LINE
  5
C0
330
2
100
AcDbEntity
  8
UMRISS05
100
AcDbLine
 10
31.6896315036721
 20
336.8256939154087
 30
0.0
 11
22.18107341955631
 21
336.8256939154087
 31
0.0
  0
LINE
  5
C1
330
2
100
AcDbEntity
  8
UMRISS05
100
AcDbLine
 10
35.68106142435363
 20
326.9756846578691
 30
0.0
 11
35.68106142435363
 21
336.8256939154089
 31
0.0
  0
LINE
  5
C2
330
2
100
AcDbEntity
  8
UMRISS05
100
AcDbLine
 10
35.68106142435363
 20
322.8256846578691
 30
0.0
 11
35.68106142435363
 21
326.8256846578691
 31
0.0
  0
LINE
  5
C3
330
2
100
AcDbEntity
  8
UMRISS05
100
AcDbLine
 10
35.68106142435363
 20
312.8256939154088
 30
0.0
 11
35.68106142435363
 21
322.6756846578691
 31
0.0
  0
LINE
  5
C4
330
2
100
AcDbEntity
  8
UMRISS05
100
AcDbLine
 10
21.69106142435363
 20
336.4251335682516
 30
0.0
 11
21.69106142435363
 21
339.3256939154089
 31
0.0
  0
LINE
  5
C5
330
2
100
AcDbEntity
  8
AVERDECKTE
100
AcDbLine
 10
21.69106142435363
 20
313.2262542625633
 30
0.0
 11
21.69106142435363
 21
336.4251335682516
 31
0.0
  0
LINE
  5
C6
330
2
100
AcDbEntity
  8
UMRISS05
100
AcDbLine
 10
21.69106142435363
 20
310.3256939154089
 30
0.0
 11
21.69106142435363
 21
313.2262542625633
 31
0.0
  0
ARC
  5
C7
330
2
100
AcDbEntity
  8
UMRISS05
100
AcDbCircle
 10
22.19106142435363
 20
339.3256939154089
 30
0.0
 40
0.5
100
AcDbArc
 50
90.0
 51
180.0
  0
LINE
  5
C8
330
2
100
AcDbEntity
  8
UMRISS05
100
AcDbLine
 10
31.6896315036721
 20
339.8256939154089
 30
0.0
 11
22.19106142435363
 21
339.8256939154089
 31
0.0
  0
LINE
  5
C9
330
2
100
AcDbEntity
  8
UMRISS05
100
AcDbLine
 10
42.54906483061882
 20
398.7288964133372
 30
0.0
 11
39.81305801808844
 21
396.7224914174815
 31
0.0
  0
ARC
  5
CA
330
2
100
AcDbEntity
  8
UMRISS05
100
AcDbCircle
 10
39.51737618627465
 20
408.5256939154093
 30
0.0
 40
0.5
100
AcDbArc
 50
53.74616226255419
 51
90.0
  0
LINE
  5
CB
330
2
100
AcDbEntity
  8
UMRISS05
100
AcDbLine
 10
39.81305801808844
 20
408.9288964133372
 30
0.0
 11
42.54906483061887
 21
406.9224914174815
 31
0.0
  0
LINE
  5
CC
330
2
100
AcDbEntity
  8
AVERDECKTE
100
AcDbLine
 10
31.68963150367216
 20
390.8257031729491
 30
0.0
 11
34.68963150367216
 21
390.8257031729491
 31
0.0
  0
ARC
  5
CD
330
2
100
AcDbEntity
  8
UMRISS05
100
AcDbCircle
 10
22.18107341955631
 20
414.325703172949
 30
0.0
 40
0.5
100
AcDbArc
 50
90.0
 51
175.6176454975437
  0
ARC
  5
CE
330
2
100
AcDbEntity
  8
UMRISS05
100
AcDbCircle
 10
22.18107341955574
 20
391.3257031729491
 30
0.0
 40
0.5
100
AcDbArc
 50
184.3823545024497
 51
270.0
  0
LINE
  5
CF
330
2
100
AcDbEntity
  8
AVERDECKTE
100
AcDbLine
 10
31.6896315036721
 20
414.825703172949
 30
0.0
 11
34.68963150367211
 21
414.8257031729491
 31
0.0
  0
ARC
  5
D0
330
2
100
AcDbEntity
  8
UMRISS05
100
AcDbCircle
 10
172.2410614243536
 20
402.8257031729454
 30
0.0
 40
150.9999999999999
100
AcDbArc
 50
175.6176454975478
 51
184.3823545024497
  0
LINE
  5
D1
330
2
100
AcDbEntity
  8
ACHSEN
100
AcDbLine
 10
37.74731527730785
 20
324.8256846578691
 30
0.0
 11
19.75731527730784
 21
324.8256846578691
 31
0.0
  0
LINE
  5
D2
330
2
100
AcDbEntity
  8
UMRISS05
100
AcDbLine
 10
35.68106142435363
 20
400.8256939154093
 30
0.0
 11
34.68963150367216
 21
400.8256939154093
 31
0.0
  0
LINE
  5
D3
330
2
100
AcDbEntity
  8
UMRISS05
100
AcDbLine
 10
35.68106142435363
 20
400.6756939154094
 30
0.0
 11
34.68963150367216
 21
400.6756939154094
 31
0.0
  0
LINE
  5
D4
330
2
100
AcDbEntity
  8
UMRISS05
100
AcDbLine
 10
35.68106142435363
 20
404.8256939154093
 30
0.0
 11
34.68963150367211
 21
404.8256939154093
 31
0.0
  0
LINE
  5
D5
330
2
100
AcDbEntity
  8
UMRISS05
100
AcDbLine
 10
35.68106142435363
 20
404.9756939154093
 30
0.0
 11
34.68963150367211
 21
404.9756939154092
 31
0.0
  0
LINE
  5
D6
330
2
100
AcDbEntity
  8
UMRISS05
100
AcDbLine
 10
39.51737618627465
 20
409.0256939154093
 30
0.0
 11
35.68106142435363
 21
409.0256939154092
 31
0.0
  0
ARC
  5
D7
330
2
100
AcDbEntity
  8
UMRISS05
100
AcDbCircle
 10
39.51737618627465
 20
397.1256939154093
 30
0.0
 40
0.5
100
AcDbArc
 50
270.0
 51
306.2538377374458
  0
LINE
  5
D8
330
2
100
AcDbEntity
  8
UMRISS05
100
AcDbLine
 10
39.51737618627465
 20
396.6256939154093
 30
0.0
 11
35.68106142435363
 21
396.6256939154093
 31
0.0
  0
ARC
  5
D9
330
2
100
AcDbEntity
  8
UMRISS05
100
AcDbCircle
 10
42.84474666243267
 20
407.3256939154092
 30
0.0
 40
0.5
100
AcDbArc
 50
233.7461622625542
 51
270.0
  0
LINE
  5
DA
330
2
100
AcDbEntity
  8
UMRISS05
100
AcDbLine
 10
46.38963150367328
 20
406.8256939154093
 30
0.0
 11
42.84474666243267
 21
406.8256939154093
 31
0.0
  0
ARC
  5
DB
330
2
100
AcDbEntity
  8
UMRISS05
100
AcDbCircle
 10
42.84474666243261
 20
398.3256939154093
 30
0.0
 40
0.5
100
AcDbArc
 50
90.0
 51
126.2538377374458
  0
LINE
  5
DC
330
2
100
AcDbEntity
  8
UMRISS05
100
AcDbLine
 10
46.38963150367328
 20
398.8256939154093
 30
0.0
 11
42.84474666243261
 21
398.8256939154093
 31
0.0
  0
LINE
  5
DD
330
2
100
AcDbEntity
  8
ACHSEN
100
AcDbLine
 10
37.74731527730785
 20
402.8256939154092
 30
0.0
 11
19.75731527730784
 21
402.8256939154092
 31
0.0
  0
LINE
  5
DE
330
2
100
AcDbEntity
  8
UMRISS05
100
AcDbLine
 10
46.38963150367328
 20
417.3257031729492
 30
0.0
 11
46.38963150367328
 21
388.3257031729494
 31
0.0
  0
LINE
  5
DF
330
2
100
AcDbEntity
  8
UMRISS05
100
AcDbLine
 10
46.38963150367328
 20
388.3257031729494
 30
0.0
 11
34.68963150367252
 21
388.3257031729495
 31
0.0
  0
LINE
  5
E0
330
2
100
AcDbEntity
  8
UMRISS05
100
AcDbLine
 10
46.38963150367305
 20
411.6429986452445
 30
0.0
 11
41.70060318950516
 21
417.3257031729493
 31
0.0
  0
LINE
  5
E1
330
2
100
AcDbEntity
  8
UMRISS05
100
AcDbLine
 10
36.9209830894838
 20
404.6176150184112
 30
0.0
 11
46.38963150367328
 21
406.2849600646098
 31
0.0
  0
ARC
  5
E2
330
2
100
AcDbEntity
  8
UMRISS05
100
AcDbCircle
 10
37.18189498953825
 20
403.1359282767698
 30
0.0
 40
1.5044835060399
100
AcDbArc
 50
99.9868939738049
 51
245.3000900866797
  0
LINE
  5
E3
330
2
100
AcDbEntity
  8
UMRISS05
100
AcDbLine
 10
37.46173185291798
 20
401.3512260747651
 30
0.0
 11
36.55322301837612
 21
401.76909172011
 31
0.0
  0
LINE
  5
E4
330
2
100
AcDbEntity
  8
UMRISS05
100
AcDbLine
 10
37.67265249512195
 20
401.8098023395628
 30
0.0
 11
37.46173185291798
 21
401.3512260747651
 31
0.0
  0
LINE
  5
E5
330
2
100
AcDbEntity
  8
UMRISS05
100
AcDbLine
 10
36.76414366058009
 20
402.2276679849078
 30
0.0
 11
37.67265249512195
 21
401.8098023395628
 31
0.0
  0
ARC
  5
E6
330
2
100
AcDbEntity
  8
UMRISS05
100
AcDbCircle
 10
37.18189498953825
 20
403.1359282767698
 30
0.0
 40
0.9997264278889424
100
AcDbArc
 50
99.98796017931992
 51
245.3000900866797
  0
LINE
  5
E7
330
2
100
AcDbEntity
  8
UMRISS05
100
AcDbLine
 10
46.38963150367328
 20
405.7726169385116
 30
0.0
 11
37.00850120648431
 21
404.1205030716015
 31
0.0
  0
LINE
  5
E8
330
2
100
AcDbEntity
  8
UMRISS05
100
AcDbLine
 10
42.35461752278934
 20
417.3257031729494
 30
0.0
 11
46.38963150367317
 21
412.4357581257776
 31
0.0
  0
LINE
  5
E9
330
2
100
AcDbEntity
  8
UMRISS05
100
AcDbLine
 10
38.68106142435363
 20
388.3257031729491
 30
0.0
 11
38.68106142435363
 21
391.3257031729491
 31
0.0
  0
ARC
  5
EA
330
2
100
AcDbEntity
  8
UMRISS05
100
AcDbCircle
 10
40.68106142435363
 20
391.3257031729491
 30
0.0
 40
1.999999999999997
100
AcDbArc
 50
90.0
 51
180.0
  0
LINE
  5
EB
330
2
100
AcDbEntity
  8
UMRISS05
100
AcDbLine
 10
40.68106142435363
 20
393.3257031729491
 30
0.0
 11
46.38963150367317
 21
393.3257031729491
 31
0.0
  0
LINE
  5
EC
330
2
100
AcDbEntity
  8
UMRISS05
100
AcDbLine
 10
34.68963150367211
 20
390.8257031729491
 30
0.0
 11
35.68106142435363
 21
390.825703172949
 31
0.0
  0
LINE
  5
ED
330
2
100
AcDbEntity
  8
UMRISS05
100
AcDbLine
 10
22.18107341955574
 20
390.8257031729491
 30
0.0
 11
31.68963150367216
 21
390.8257031729491
 31
0.0
  0
ARC
  5
EE
330
2
100
AcDbEntity
  8
UMRISS05
100
AcDbCircle
 10
22.19106142435363
 20
388.3257031729491
 30
0.0
 40
0.5
100
AcDbArc
 50
180.0
 51
270.0
  0
LINE
  5
EF
330
2
100
AcDbEntity
  8
UMRISS05
100
AcDbLine
 10
22.19106142435363
 20
387.8257031729491
 30
0.0
 11
31.6896315036721
 21
387.8257031729491
 31
0.0
  0
LINE
  5
F0
330
2
100
AcDbEntity
  8
UMRISS05
100
AcDbLine
 10
35.68106142435363
 20
414.8257031729491
 30
0.0
 11
34.68963150367211
 21
414.8257031729491
 31
0.0
  0
LINE
  5
F1
330
2
100
AcDbEntity
  8
UMRISS05
100
AcDbLine
 10
31.6896315036721
 20
414.825703172949
 30
0.0
 11
22.18107341955631
 21
414.825703172949
 31
0.0
  0
LINE
  5
F2
330
2
100
AcDbEntity
  8
UMRISS05
100
AcDbLine
 10
35.68106142435363
 20
404.9756939154092
 30
0.0
 11
35.68106142435363
 21
414.8257031729491
 31
0.0
  0
LINE
  5
F3
330
2
100
AcDbEntity
  8
UMRISS05
100
AcDbLine
 10
35.68106142435363
 20
400.8256939154093
 30
0.0
 11
35.68106142435363
 21
404.8256939154093
 31
0.0
  0
LINE
  5
F4
330
2
100
AcDbEntity
  8
UMRISS05
100
AcDbLine
 10
35.68106142435363
 20
390.825703172949
 30
0.0
 11
35.68106142435363
 21
400.6756939154094
 31
0.0
  0
LINE
  5
F5
330
2
100
AcDbEntity
  8
UMRISS05
100
AcDbLine
 10
21.69106142435363
 20
414.4251428257919
 30
0.0
 11
21.69106142435363
 21
417.325703172949
 31
0.0
  0
LINE
  5
F6
330
2
100
AcDbEntity
  8
AVERDECKTE
100
AcDbLine
 10
21.69106142435363
 20
391.2262635201036
 30
0.0
 11
21.69106142435363
 21
414.4251428257918
 31
0.0
  0
LINE
  5
F7
330
2
100
AcDbEntity
  8
UMRISS05
100
AcDbLine
 10
21.69106142435363
 20
388.3257031729491
 30
0.0
 11
21.69106142435363
 21
391.2262635201035
 31
0.0
  0
ARC
  5
F8
330
2
100
AcDbEntity
  8
UMRISS05
100
AcDbCircle
 10
22.19106142435363
 20
417.325703172949
 30
0.0
 40
0.5
100
AcDbArc
 50
90.0
 51
180.0
  0
LINE
  5
F9
330
2
100
AcDbEntity
  8
UMRISS05
100
AcDbLine
 10
31.6896315036721
 20
417.8257031729491
 30
0.0
 11
22.19106142435363
 21
417.8257031729491
 31
0.0
  0
LINE
  5
FA
330
2
100
AcDbEntity
  8
UMRISS05
100
AcDbLine
 10
201.4714618819728
 20
339.9257031729499
 30
0.0
 11
204.571461881973
 21
339.9257031729498
 31
0.0
  0
LINE
  5
FB
330
2
100
AcDbEntity
  8
UMRISS05
100
AcDbLine
 10
204.571461881973
 20
337.4257031729496
 30
0.0
 11
212.471461881973
 21
337.4257031729497
 31
0.0
  0
LINE
  5
FC
330
2
100
AcDbEntity
  8
UMRISS05
100
AcDbLine
 10
204.571461881973
 20
312.2257031729497
 30
0.0
 11
212.471461881973
 21
312.2257031729497
 31
0.0
  0
LINE
  5
FD
330
2
100
AcDbEntity
  8
UMRISS05
100
AcDbLine
 10
201.4714618819728
 20
309.7257031729498
 30
0.0
 11
204.571461881973
 21
309.7257031729497
 31
0.0
  0
LINE
  5
FE
330
2
100
AcDbEntity
  8
UMRISS05
100
AcDbLine
 10
212.471461881973
 20
337.4257031729497
 30
0.0
 11
212.471461881973
 21
312.2257031729497
 31
0.0
  0
ARC
  5
FF
330
2
100
AcDbEntity
  8
UMRISS05
100
AcDbCircle
 10
125.6914618819728
 20
324.8257031729499
 30
0.0
 40
79.88000000000024
100
AcDbArc
 50
350.9244549841862
 51
9.07554501581383
  0
LINE
  5
100
330
2
100
AcDbEntity
  8
UMRISS05
100
AcDbLine
 10
204.571461881973
 20
339.92570317295
 30
0.0
 11
204.571461881973
 21
309.7257031729497
 31
0.0
  0
LINE
  5
101
330
2
100
AcDbEntity
  8
UMRISS05
100
AcDbLine
 10
201.4714618819728
 20
339.9257031729499
 30
0.0
 11
201.4714618819728
 21
309.7257031729498
 31
0.0
  0
DIMENSION
  5
102
330
2
100
AcDbEntity
  8
BEMASSUNG
  6
Continuous
100
AcDbDimension
  2
*D24
 10
31.68963150367301
 20
351.5973550159062
 30
0.0
 11
26.69034646401332
 21
354.8183475124956
 31
0.0
 71
     5
 42
9.998570079319385
  3
Katalog 09
100
AcDbAlignedDimension
 13
21.69106142435363
 23
339.3256939154089
 33
0.0
 14
31.68963150367301
 24
352.2680153418435
 34
0.0
100
AcDbRotatedDimension
  0
CIRCLE
  5
111
330
2
100
AcDbEntity
  8
UMRISS05
100
AcDbCircle
 10
91.68963150367266
 20
359.3257031729536
 30
0.0
 40
4.5
  0
DIMENSION
  5
112
330
2
100
AcDbEntity
  8
BEMASSUNG
  6
Continuous
100
AcDbDimension
  2
*D23
 10
34.68963150367267
 20
484.3981634006765
 30
0.0
 11
33.18963150367267
 21
487.6206395261881
 31
0.0
 71
     5
 42
3.0
  3
Katalog 09
100
AcDbAlignedDimension
 13
31.68963150367267
 23
467.825703172949
 33
0.0
 14
34.68963150367267
 24
467.825703172949
 34
0.0
100
AcDbRotatedDimension
  0
LINE
  5
121
330
2
100
AcDbEntity
  8
ACHSEN
100
AcDbLine
 10
201.3214618819727
 20
458.825703172949
 30
0.0
 11
214.8214618819727
 21
458.825703172949
 31
0.0
  0
ARC
  5
122
330
2
100
AcDbEntity
  8
UMRISS05
100
AcDbCircle
 10
208.0714618819727
 20
457.825703172949
 30
0.0
 40
10.0
100
AcDbArc
 50
0.0
 51
180.0
  0
CIRCLE
  5
123
330
2
100
AcDbEntity
  8
UMRISS05
100
AcDbCircle
 10
208.0714618819727
 20
458.825703172949
 30
0.0
 40
2.549999999999999
  0
CIRCLE
  5
124
330
2
100
AcDbEntity
  8
UMRISS05
100
AcDbCircle
 10
208.0714618819727
 20
458.825703172949
 30
0.0
 40
4.75
  0
LINE
  5
125
330
2
100
AcDbEntity
  8
ACHSEN
100
AcDbLine
 10
208.0714618819727
 20
465.575703172949
 30
0.0
 11
208.0714618819727
 21
452.075703172949
 31
0.0
  0
LINE
  5
126
330
2
100
AcDbEntity
  8
UMRISS05
100
AcDbLine
 10
201.4714618819728
 20
417.9257031729498
 30
0.0
 11
204.571461881973
 21
417.9257031729497
 31
0.0
  0
LINE
  5
127
330
2
100
AcDbEntity
  8
UMRISS05
100
AcDbLine
 10
204.571461881973
 20
415.4257031729496
 30
0.0
 11
212.471461881973
 21
415.4257031729497
 31
0.0
  0
LINE
  5
128
330
2
100
AcDbEntity
  8
UMRISS05
100
AcDbLine
 10
204.571461881973
 20
390.2257031729497
 30
0.0
 11
212.471461881973
 21
390.2257031729497
 31
0.0
  0
LINE
  5
129
330
2
100
AcDbEntity
  8
UMRISS05
100
AcDbLine
 10
201.4714618819728
 20
387.7257031729498
 30
0.0
 11
204.571461881973
 21
387.7257031729497
 31
0.0
  0
DIMENSION
  5
12A
330
2
100
AcDbEntity
  8
BEMASSUNG
  6
Continuous
100
AcDbDimension
  2
*D8
 10
212.471461881973
 20
373.0601100727449
 30
0.0
 11
206.9714618819729
 21
377.8020564890196
 31
0.0
 70
   128
 71
     5
 42
11.00000000000022
  3
Katalog 09
100
AcDbAlignedDimension
 13
201.4714618819728
 23
387.7257031729498
 33
0.0
 14
212.471461881973
 24
390.2257031729497
 34
0.0
100
AcDbRotatedDimension
  0
LINE
  5
137
330
2
100
AcDbEntity
  8
UMRISS05
100
AcDbLine
 10
212.471461881973
 20
415.4257031729497
 30
0.0
 11
212.471461881973
 21
390.2257031729497
 31
0.0
  0
ARC
  5
138
330
2
100
AcDbEntity
  8
UMRISS05
100
AcDbCircle
 10
125.6914618819728
 20
402.8257031729499
 30
0.0
 40
79.88000000000024
100
AcDbArc
 50
350.9244549841865
 51
9.07554501581348
  0
LINE
  5
139
330
2
100
AcDbEntity
  8
UMRISS05
100
AcDbLine
 10
204.571461881973
 20
417.9257031729499
 30
0.0
 11
204.571461881973
 21
387.7257031729497
 31
0.0
  0
LINE
  5
13A
330
2
100
AcDbEntity
  8
UMRISS05
100
AcDbLine
 10
201.4714618819728
 20
417.9257031729498
 30
0.0
 11
201.4714618819728
 21
387.7257031729498
 31
0.0
  0
LINE
  5
13B
330
2
100
AcDbEntity
  8
UMRISS05
100
AcDbLine
 10
102.8896315036725
 20
430.8257031729492
 30
0.0
 11
103.1946567568418
 21
430.6993575762207
 31
0.0
  0
LINE
  5
13C
330
2
100
AcDbEntity
  8
UMRISS05
100
AcDbLine
 10
104.2553169286216
 20
431.7600177480005
 30
0.0
 11
103.1946567568418
 21
430.6993575762207
 31
0.0
  0
LINE
  5
13D
330
2
100
AcDbEntity
  8
UMRISS05
100
AcDbLine
 10
102.8896315036725
 20
432.3257031729491
 30
0.0
 11
102.8896315036725
 21
430.8257031729492
 31
0.0
  0
ARC
  5
13E
330
2
100
AcDbEntity
  8
UMRISS05
100
AcDbCircle
 10
89.48963150367285
 20
431.5373907687047
 30
0.0
 40
0.2
100
AcDbArc
 50
295.0289994876284
 51
0.0
  0
LINE
  5
13F
330
2
100
AcDbEntity
  8
UMRISS05
100
AcDbLine
 10
89.68963150367267
 20
431.5373907687047
 30
0.0
 11
89.68963150367267
 21
432.3257031729491
 31
0.0
  0
ARC
  5
140
330
2
100
AcDbEntity
  8
UMRISS05
100
AcDbCircle
 10
93.88963150367294
 20
431.5373907687047
 30
0.0
 40
0.2
100
AcDbArc
 50
180.0
 51
244.9710005123717
  0
LINE
  5
141
330
2
100
AcDbEntity
  8
UMRISS05
100
AcDbLine
 10
93.68963150367267
 20
431.5373907687047
 30
0.0
 11
93.68963150367267
 21
432.3257031729491
 31
0.0
  0
LINE
  5
142
330
2
100
AcDbEntity
  8
UMRISS05
100
AcDbLine
 10
93.68963150367221
 20
432.3257031729492
 30
0.0
 11
102.8896315036725
 21
432.3257031729491
 31
0.0
  0
LINE
  5
143
330
2
100
AcDbEntity
  8
UMRISS05
100
AcDbLine
 10
120.6896315036726
 20
415.3257031729491
 30
0.0
 11
119.6289713318929
 21
414.2650430011694
 31
0.0
  0
LINE
  5
144
330
2
100
AcDbEntity
  8
UMRISS05
100
AcDbLine
 10
119.6289713318929
 20
414.2650430011694
 30
0.0
 11
120.6880867279551
 21
413.2059276051072
 31
0.0
  0
LINE
  5
145
330
2
100
AcDbEntity
  8
ACHSEN
100
AcDbLine
 10
84.93429854570626
 20
426.8257031729496
 30
0.0
 11
98.44496446163862
 21
426.8257031729496
 31
0.0
  0
LINE
  5
146
330
2
100
AcDbEntity
  8
ACHSEN
100
AcDbLine
 10
98.14865811391133
 20
426.8257031729496
 30
0.0
 11
85.23060489343402
 21
426.8257031729496
 31
0.0
  0
LINE
  5
147
330
2
100
AcDbEntity
  8
1855
100
AcDbLine
 10
95.6896315036729
 20
384.8257031729502
 30
0.0
 11
95.6896315036729
 21
376.8257031729502
 31
0.0
  0
LINE
  5
14B
330
2
100
AcDbEntity
  8
1855
100
AcDbLine
 10
95.6896315036729
 20
384.8257031729502
 30
0.0
 11
87.68963150367245
 21
384.8257031729501
 31
0.0
  0
LINE
  5
14C
330
2
100
AcDbEntity
  8
1855
100
AcDbLine
 10
87.68963150367245
 20
384.8257031729501
 30
0.0
 11
87.68963150367268
 21
376.8257031729502
 31
0.0
  0
LINE
  5
14D
330
2
100
AcDbEntity
  8
1855
100
AcDbLine
 10
87.68963150367268
 20
376.8257031729502
 30
0.0
 11
95.6896315036729
 21
376.8257031729502
 31
0.0
  0
LINE
  5
14E
330
2
100
AcDbEntity
  8
ACHSEN
100
AcDbLine
 10
114.9035211897878
 20
380.8257031729498
 30
0.0
 11
68.36085324041846
 21
380.8257031729498
 31
0.0
  0
DIMENSION
  5
14F
330
2
100
AcDbEntity
  8
BEMASSUNG
  6
Continuous
100
AcDbDimension
  2
*D9
 10
87.68963150367268
 20
395.4117212561178
 30
0.0
 11
80.19038663221909
 21
399.1212032782346
 31
0.0
 70
   128
  1
9
 71
     5
 42
7.999999999999886
  3
Katalog 09
100
AcDbAlignedDimension
 13
95.68963150367256
 23
384.8257031729505
 33
0.0
 14
87.68963150367268
 24
384.8257031729503
 34
0.0
100
AcDbRotatedDimension
1001
ACAD_DSTYLE_DIMINSPECT
1070
   396
1000
100%
1070
   395
1000

1070
   394
1070
    33
1070
   393
1070
     0
  0
CIRCLE
  5
15E
330
2
100
AcDbEntity
  8
UMRISS05
100
AcDbCircle
 10
91.68963150367266
 20
380.8257031729502
 30
0.0
 40
8.0
  0
LINE
  5
15F
330
2
100
AcDbEntity
  8
ACHSEN
100
AcDbLine
 10
115.2896315036725
 20
380.82570317295
 30
0.0
 11
68.08963150367276
 21
380.8257031729502
 31
0.0
  0
DIMENSION
  5
160
330
2
100
AcDbEntity
  8
BEMASSUNG
  6
Continuous
100
AcDbDimension
  2
*D16
 10
110.6896315036727
 20
404.7115768776018
 30
0.0
 11
91.68963150367266
 21
407.9340530031134
 31
0.0
 71
     5
 42
38.0
  3
Katalog 09
100
AcDbAlignedDimension
 13
72.68963150367267
 23
385.4257031729501
 33
0.0
 14
110.6896315036727
 24
385.4257031729501
 34
0.0
100
AcDbRotatedDimension
  0
DIMENSION
  5
16D
330
2
100
AcDbEntity
  8
BEMASSUNG
  6
Continuous
100
AcDbDimension
  2
*D11
 10
135.7202852743936
 20
426.8257031729499
 30
0.0
 11
132.4992927778042
 21
403.8257031729499
 31
0.0
 71
     5
 42
46.0
  3
Katalog 09
100
AcDbAlignedDimension
 13
115.2896315036725
 23
380.82570317295
 33
0.0
 14
98.68963150367267
 24
426.8257031729499
 34
0.0
 50
90.0
100
AcDbRotatedDimension
  0
ARC
  5
17A
330
2
100
AcDbEntity
  8
UMRISS05
100
AcDbCircle
 10
91.68963150367266
 20
426.8257031729499
 30
0.0
 40
5.0
100
AcDbArc
 50
115.7192795021853
 51
64.28072049781471
  0
LINE
  5
17B
330
2
100
AcDbEntity
  8
UMRISS05
100
AcDbLine
 10
104.2553169286216
 20
431.7600177480005
 30
0.0
 11
120.6896315036726
 21
415.3257031729491
 31
0.0
  0
CIRCLE
  5
17C
330
2
100
AcDbEntity
  8
UMRISS05
100
AcDbCircle
 10
91.68963150367266
 20
426.8257031729499
 30
0.0
 40
4.5
  0
DIMENSION
  5
17D
330
2
100
AcDbEntity
  8
BEMASSUNG
  6
Continuous
100
AcDbDimension
  2
*D13
 10
146.960234297274
 20
380.8257031729499
 30
0.0
 11
143.7392418006846
 21
406.57570317295
 31
0.0
 71
     5
 42
51.50000000000023
  3
Katalog 09
100
AcDbAlignedDimension
 13
102.8896315036725
 23
432.3257031729501
 33
0.0
 14
115.2896315036725
 24
380.82570317295
 34
0.0
 50
90.0
100
AcDbRotatedDimension
  0
DIMENSION
  5
18A
330
2
100
AcDbEntity
  8
BEMASSUNG
  6
Continuous
100
AcDbDimension
  2
*D10
 10
96.18963150367267
 20
443.0598541767099
 30
0.0
 11
91.43171347215139
 21
447.2945275475636
 31
0.0
 70
   128
 71
     5
 42
9.0
  3
Katalog 09
100
AcDbAlignedDimension
 13
87.18963150367267
 23
426.8257031729499
 33
0.0
 14
96.18963150367267
 24
426.8257031729499
 34
0.0
100
AcDbRotatedDimension
  0
DIMENSION
  5
199
330
2
100
AcDbEntity
  8
BEMASSUNG
  6
Continuous
100
AcDbDimension
  2
*D7
 10
198.0714618819727
 20
408.4653394942509
 30
0.0
 11
188.7304160301028
 21
413.4649079334971
 31
0.0
 70
   128
 71
     5
 42
3.40000000000009
  3
Katalog 09
100
AcDbAlignedDimension
 13
201.4714618819728
 23
403.8930903967477
 33
0.0
 14
198.0714618819727
 24
404.1955164566318
 34
0.0
100
AcDbRotatedDimension
  0
LINE
  5
1A8
330
2
100
AcDbEntity
  8
UMRISS05
100
AcDbLine
 10
31.68963150367267
 20
467.825703172949
 30
0.0
 11
34.68963150367267
 21
467.825703172949
 31
0.0
  0
DIMENSION
  5
1A9
330
2
100
AcDbEntity
  8
BEMASSUNG
  6
Continuous
100
AcDbDimension
  2
*D2
 10
4.924883227242844
 20
432.3257031729491
 30
0.0
 11
1.702407101731179
 21
450.0757031729491
 31
0.0
 71
     5
 42
35.49999999999989
  3
Katalog 09
100
AcDbAlignedDimension
 13
31.68963150367267
 23
467.825703172949
 33
0.0
 14
34.68963150367085
 24
432.3257031729491
 34
0.0
 50
90.0
100
AcDbRotatedDimension
  0
DIMENSION
  5
1B6
330
2
100
AcDbEntity
  8
BEMASSUNG
  6
Continuous
100
AcDbDimension
  2
*D20
 10
4.938264839293083
 20
417.8257031729491
 30
0.0
 11
1.402127254568767
 21
404.3237125032929
 31
0.0
 70
   128
 71
     5
 42
30.0
  3
Katalog 09
100
AcDbAlignedDimension
 13
22.19106142435363
 23
387.8257031729491
 33
0.0
 14
22.19106142435363
 24
417.8257031729491
 34
0.0
 50
90.0
100
AcDbRotatedDimension
  0
DIMENSION
  5
1C3
330
2
100
AcDbEntity
  8
BEMASSUNG
  6
Continuous
100
AcDbDimension
  2
*D21
 10
5.00023342803945
 20
432.3257031729491
 30
0.0
 11
0.7884467903058976
 21
425.4239955381308
 31
0.0
 70
   128
 71
     5
 42
14.50000935510763
  3
Katalog 09
100
AcDbAlignedDimension
 13
21.69964893544512
 23
417.8256938178415
 33
0.0
 14
34.68963150367085
 24
432.3257031729491
 34
0.0
 50
90.0
100
AcDbRotatedDimension
  0
DIMENSION
  5
1D0
330
2
100
AcDbEntity
  8
BEMASSUNG
  6
Continuous
100
AcDbDimension
  2
*D22
 10
31.68963150367324
 20
422.9024932998393
 30
0.0
 11
26.69034646401344
 21
426.1234857964287
 31
0.0
 71
     5
 42
9.998570079319605
  3
Katalog 09
100
AcDbAlignedDimension
 13
21.69106142435364
 23
416.9177775541211
 33
0.0
 14
31.68963150367324
 24
425.5851346035894
 34
0.0
100
AcDbRotatedDimension
  0
LINE
  5
1DF
330
2
100
AcDbEntity
  8
UMRISS05
100
AcDbLine
 10
34.68963150367085
 20
432.3257031729491
 30
0.0
 11
89.68963150367221
 21
432.3257031729492
 31
0.0
  0
LINE
  5
1E0
330
2
100
AcDbEntity
  8
ACHSEN
100
AcDbLine
 10
199.3214618819727
 20
284.4257031729497
 30
0.0
 11
212.8214618819727
 21
284.4257031729497
 31
0.0
  0
CIRCLE
  5
1E1
330
2
100
AcDbEntity
  8
UMRISS05
100
AcDbCircle
 10
206.0714618819727
 20
284.4257031729497
 30
0.0
 40
2.75
  0
CIRCLE
  5
1E2
330
2
100
AcDbEntity
  8
UMRISS05
100
AcDbCircle
 10
206.0714618819727
 20
284.4257031729497
 30
0.0
 40
4.75
  0
LINE
  5
1E3
330
2
100
AcDbEntity
  8
ACHSEN
100
AcDbLine
 10
206.0714618819727
 20
291.1757031729497
 30
0.0
 11
206.0714618819727
 21
277.6757031729498
 31
0.0
  0
LINE
  5
1E4
330
2
100
AcDbEntity
  8
ACHSEN
100
AcDbLine
 10
98.05224190361082
 20
359.3257031729534
 30
0.0
 11
85.32702110373453
 21
359.3257031729534
 31
0.0
  0
CIRCLE
  5
1E5
330
2
100
AcDbEntity
  8
UMRISS05
100
AcDbCircle
 10
91.68963150367266
 20
359.3257031729536
 30
0.0
 40
5.0
  0
LINE
  5
1E6
330
2
100
AcDbEntity
  8
ACHSEN
100
AcDbLine
 10
98.68963150367267
 20
359.3257031729536
 30
0.0
 11
84.68963150367267
 21
359.3257031729536
 31
0.0
  0
LINE
  5
1E7
330
2
100
AcDbEntity
  8
UMRISS05
100
AcDbLine
 10
120.6896315036726
 20
290.3257031729503
 30
0.0
 11
119.6289713318929
 21
291.3863633447301
 31
0.0
  0
LINE
  5
1E8
330
2
100
AcDbEntity
  8
UMRISS05
100
AcDbLine
 10
120.6896315036726
 20
290.3257031729503
 30
0.0
 11
119.6289713318929
 21
291.3863633447301
 31
0.0
  0
LINE
  5
1E9
330
2
100
AcDbEntity
  8
UMRISS05
100
AcDbLine
 10
119.6289713318929
 20
291.3863633447301
 30
0.0
 11
120.6896315036722
 21
292.4470235165097
 31
0.0
  0
LINE
  5
1EA
330
2
100
AcDbEntity
  8
ACHSEN
100
AcDbLine
 10
116.1896315036726
 20
295.4257031729503
 30
0.0
 11
105.1896315036726
 21
295.4257031729503
 31
0.0
  0
LINE
  5
1EB
330
2
100
AcDbEntity
  8
ACHSEN
100
AcDbLine
 10
101.6896315036726
 20
292.9257031729501
 30
0.0
 11
101.6896315036726
 21
283.7257031729498
 31
0.0
  0
LINE
  5
1EC
330
2
100
AcDbEntity
  8
ACHSEN
100
AcDbLine
 10
106.2896315036726
 20
288.3257031729499
 30
0.0
 11
97.08963150367276
 21
288.3257031729499
 31
0.0
  0
CIRCLE
  5
1ED
330
2
100
AcDbEntity
  8
UMRISS05
100
AcDbCircle
 10
101.6896315036726
 20
288.3257031729499
 30
0.0
 40
2.6
  0
LINE
  5
1EE
330
2
100
AcDbEntity
  8
ACHSEN
100
AcDbLine
 10
110.6896315036727
 20
300.9257031729503
 30
0.0
 11
110.6896315036727
 21
289.9257031729503
 31
0.0
  0
CIRCLE
  5
1EF
330
2
100
AcDbEntity
  8
UMRISS05
100
AcDbCircle
 10
110.6896315036727
 20
295.4257031729503
 30
0.0
 40
3.5
  0
LINE
  5
1F0
330
2
100
AcDbEntity
  8
ACHSEN
100
AcDbLine
 10
81.68963150367266
 20
292.9257031729501
 30
0.0
 11
81.68963150367266
 21
283.7257031729498
 31
0.0
  0
CIRCLE
  5
1F1
330
2
100
AcDbEntity
  8
UMRISS05
100
AcDbCircle
 10
81.68963150367266
 20
288.3257031729499
 30
0.0
 40
2.6
  0
LINE
  5
1F2
330
2
100
AcDbEntity
  8
ACHSEN
100
AcDbLine
 10
86.28963150367258
 20
288.3257031729499
 30
0.0
 11
77.08963150367276
 21
288.3257031729499
 31
0.0
  0
LINE
  5
1F3
330
2
100
AcDbEntity
  8
ACHSEN
100
AcDbLine
 10
78.18963150367267
 20
295.4257031729503
 30
0.0
 11
67.18963150367267
 21
295.4257031729503
 31
0.0
  0
CIRCLE
  5
1F4
330
2
100
AcDbEntity
  8
UMRISS05
100
AcDbCircle
 10
72.68963150367267
 20
295.4257031729503
 30
0.0
 40
3.5
  0
LINE
  5
1F5
330
2
100
AcDbEntity
  8
ACHSEN
100
AcDbLine
 10
72.68963150367267
 20
300.9257031729503
 30
0.0
 11
72.68963150367267
 21
289.9257031729503
 31
0.0
  0
LINE
  5
1F6
330
2
100
AcDbEntity
  8
ACHSEN
100
AcDbLine
 10
104.564860770952
 20
302.8257031729496
 30
0.0
 11
78.81440223639334
 21
302.8257031729496
 31
0.0
  0
LINE
  5
1F7
330
2
100
AcDbEntity
  8
ACHSEN
100
AcDbLine
 10
85.73649689352647
 20
283.6257031729494
 30
0.0
 11
97.64276611381887
 21
283.6257031729496
 31
0.0
  0
LINE
  5
1F8
330
2
100
AcDbEntity
  8
UMRISS05
100
AcDbLine
 10
102.8896315036725
 20
274.8257031729504
 30
0.0
 11
103.1946567568418
 21
274.9520487696788
 31
0.0
  0
LINE
  5
1F9
330
2
100
AcDbEntity
  8
UMRISS05
100
AcDbLine
 10
104.2553169286216
 20
273.891388597899
 30
0.0
 11
103.1946567568418
 21
274.9520487696788
 31
0.0
  0
LINE
  5
1FA
330
2
100
AcDbEntity
  8
UMRISS05
100
AcDbLine
 10
102.8896315036725
 20
273.3257031729494
 30
0.0
 11
102.8896315036725
 21
274.8257031729504
 31
0.0
  0
LWPOLYLINE
  5
1FB
330
2
100
AcDbEntity
  8
ACHSEN
100
AcDbPolyline
 90
        4
 70
     1
 43
0.0
 10
86.58963150367275
 20
282.8257031729497
 10
86.58963150367275
 20
295.9011093220443
 42
-3.044038009981497
 10
96.78963150367259
 20
295.9011093220443
 10
96.78963150367259
 20
282.8257031729497
 42
-0.9999999999999998
  0
LINE
  5
1FC
330
2
100
AcDbEntity
  8
UMRISS05
100
AcDbLine
 10
104.2553169286216
 20
273.891388597899
 30
0.0
 11
120.6896315036726
 21
290.3257031729503
 31
0.0
  0
DIMENSION
  5
1FD
330
2
100
AcDbEntity
  8
BEMASSUNG
  6
Continuous
100
AcDbDimension
  2
*D4
 10
146.8971598740668
 20
273.3257031729493
 30
0.0
 11
143.6761673774774
 21
288.0757031729495
 31
0.0
 71
     5
 42
29.50000000000023
  3
Katalog 09
100
AcDbAlignedDimension
 13
104.564860770952
 23
302.8257031729496
 33
0.0
 14
102.8896315036725
 24
273.3257031729494
 34
0.0
 50
90.0
100
AcDbRotatedDimension
  0
LWPOLYLINE
  5
20A
330
2
100
AcDbEntity
  8
UMRISS05
100
AcDbPolyline
 90
        4
 70
     1
 43
0.0
 10
96.78963150367259
 20
283.6257031729497
 10
96.78963150367259
 20
292.9666971378567
 42
4.109609026488815
 10
86.58963150367275
 20
292.9666971378567
 10
86.58963150367275
 20
283.6257031729497
 42
1.0
  0
LINE
  5
20B
330
2
100
AcDbEntity
  8
ACHSEN
100
AcDbLine
 10
201.3214618819727
 20
246.8257031729494
 30
0.0
 11
214.8214618819727
 21
246.8257031729494
 31
0.0
  0
CIRCLE
  5
20C
330
2
100
AcDbEntity
  8
UMRISS05
100
AcDbCircle
 10
208.0714618819727
 20
246.8257031729494
 30
0.0
 40
2.549999999999999
  0
CIRCLE
  5
20D
330
2
100
AcDbEntity
  8
UMRISS05
100
AcDbCircle
 10
208.0714618819727
 20
246.8257031729494
 30
0.0
 40
4.75
  0
ARC
  5
20E
330
2
100
AcDbEntity
  8
UMRISS05
100
AcDbCircle
 10
208.0714618819727
 20
247.8257031729494
 30
0.0
 40
10.0
100
AcDbArc
 50
180.0
 51
0.0
  0
DIMENSION
  5
20F
330
2
100
AcDbEntity
  8
BEMASSUNG
  6
Continuous
100
AcDbDimension
  2
*D1
 10
218.0714618819727
 20
215.3668905872266
 30
0.0
 11
207.4432447747604
 21
220.6925293864911
 31
0.0
 70
   128
  1
<>
 71
     5
 42
20.0
  3
Katalog 09
100
AcDbAlignedDimension
 13
198.0714618819727
 23
247.8257031729494
 33
0.0
 14
218.0714618819727
 24
247.8257031729494
 34
0.0
100
AcDbRotatedDimension
1001
ACAD_DSTYLE_DIMINSPECT
1070
   396
1000
100%
1070
   395
1000

1070
   394
1070
    33
1070
   393
1070
     0
  0
LINE
  5
21C
330
2
100
AcDbEntity
  8
UMRISS05
100
AcDbLine
 10
87.18963150366812
 20
184.845528265903
 30
0.0
 11
96.18963150366813
 21
184.845528265903
 31
0.0
  0
LINE
  5
21D
330
2
100
AcDbEntity
  8
UMRISS05
100
AcDbLine
 10
70.89851710281187
 20
186.3455282659033
 30
0.0
 11
120.6896315036681
 21
186.3455282659028
 31
0.0
  0
LINE
  5
21E
330
2
100
AcDbEntity
  8
UMRISS05
100
AcDbLine
 10
87.18963150366812
 20
174.645528265903
 30
0.0
 11
96.18963150366813
 21
174.645528265903
 31
0.0
  0
DIMENSION
  5
21F
330
2
100
AcDbEntity
  8
BEMASSUNG
  6
Continuous
100
AcDbDimension
  2
*D0
 10
143.0161444136779
 20
173.145528265903
 30
0.0
 11
138.3460961043347
 21
179.5413218126732
 31
0.0
 70
   128
 71
     5
 42
13.19999999999982
  3
Katalog 09
100
AcDbAlignedDimension
 13
120.6896315036681
 23
186.3455282659028
 33
0.0
 14
120.6896315036681
 24
173.145528265903
 34
0.0
 50
90.0
100
AcDbRotatedDimension
  0
LINE
  5
22C
330
2
100
AcDbEntity
  8
UMRISS05
100
AcDbLine
 10
120.6896315036731
 20
185.3455282659032
 30
0.0
 11
120.6896315036726
 21
174.1455282659033
 31
0.0
  0
LINE
  5
22D
330
2
100
AcDbEntity
  8
UMRISS05
100
AcDbLine
 10
87.18963150366812
 20
173.145528265903
 30
0.0
 11
87.18963150366858
 21
186.345528265903
 31
0.0
  0
LINE
  5
22E
330
2
100
AcDbEntity
  8
UMRISS05
100
AcDbLine
 10
96.18963150366813
 20
173.145528265903
 30
0.0
 11
96.18963150366859
 21
186.345528265903
 31
0.0
  0
LINE
  5
22F
330
2
100
AcDbEntity
  8
UMRISS05
100
AcDbLine
 10
103.0683111601085
 20
186.345528265903
 30
0.0
 11
103.0683111601085
 21
173.145528265903
 31
0.0
  0
LINE
  5
230
330
2
100
AcDbEntity
  8
UMRISS05
100
AcDbLine
 10
104.1289713318886
 20
186.345528265903
 30
0.0
 11
104.1289713318886
 21
173.145528265903
 31
0.0
  0
LINE
  5
231
330
2
100
AcDbEntity
  8
UMRISS05
100
AcDbLine
 10
120.6896315036681
 20
186.3455282659028
 30
0.0
 11
120.6896315036681
 21
173.145528265903
 31
0.0
  0
LINE
  5
232
330
2
100
AcDbEntity
  8
ACHSEN
100
AcDbLine
 10
208.0714618819727
 20
253.5757031729494
 30
0.0
 11
208.0714618819727
 21
240.0757031729494
 31
0.0
  0
DIMENSION
  5
233
330
2
100
AcDbEntity
  8
BEMASSUNG
  6
Continuous
100
AcDbDimension
  2
*D17
 10
4.938264839293083
 20
309.8256938178408
 30
0.0
 11
1.715788713781436
 21
291.5756984953951
 31
0.0
 71
     5
 42
36.49999064489146
  3
Katalog 09
100
AcDbAlignedDimension
 13
34.68963150366813
 23
273.3257031729494
 33
0.0
 14
11.69963150367312
 24
309.8256938178408
 34
0.0
 50
90.0
100
AcDbRotatedDimension
  0
DIMENSION
  5
240
330
2
100
AcDbEntity
  8
BEMASSUNG
  6
Continuous
100
AcDbDimension
  2
*D18
 10
4.938264839293083
 20
339.8256939154089
 30
0.0
 11
1.393247835932925
 21
324.467861612376
 31
0.0
 70
   128
 71
     5
 42
30.00000009756803
  3
Katalog 09
100
AcDbAlignedDimension
 13
22.19106142435363
 23
309.8256938178408
 33
0.0
 14
22.19106142435363
 24
339.8256939154089
 34
0.0
 50
90.0
100
AcDbRotatedDimension
  0
LINE
  5
24D
330
2
100
AcDbEntity
  8
UMRISS05
100
AcDbLine
 10
31.68963150367222
 20
237.8257031729494
 30
0.0
 11
34.68963150367222
 21
237.8257031729494
 31
0.0
  0
LINE
  5
24E
330
2
100
AcDbEntity
  8
UMRISS05
100
AcDbLine
 10
31.68963150367222
 20
187.3455282659033
 30
0.0
 11
34.68963150366813
 21
187.3455282659033
 31
0.0
  0
LINE
  5
24F
330
2
100
AcDbEntity
  8
UMRISS05
100
AcDbLine
 10
31.68963150367222
 20
167.3455282659033
 30
0.0
 11
34.68963150366813
 21
167.3455282659033
 31
0.0
  0
LINE
  5
250
330
2
100
AcDbEntity
  8
UMRISS05
100
AcDbLine
 10
34.68963150366813
 20
173.1455282659032
 30
0.0
 11
34.68963150366813
 21
173.4955282659032
 31
0.0
  0
LINE
  5
251
330
2
100
AcDbEntity
  8
UMRISS05
100
AcDbLine
 10
31.68963150367222
 20
187.3455282659033
 30
0.0
 11
31.68963150367222
 21
167.3455282659033
 31
0.0
  0
LINE
  5
252
330
2
100
AcDbEntity
  8
UMRISS05
100
AcDbLine
 10
34.68963150366813
 20
187.3455282659033
 30
0.0
 11
34.68963150366813
 21
167.3455282659033
 31
0.0
  0
DIMENSION
  5
253
330
2
100
AcDbEntity
  8
BEMASSUNG
  6
Continuous
100
AcDbDimension
  2
*D3
 10
4.896570092775164
 20
237.8257031729494
 30
0.0
 11
1.674093967263531
 21
255.5757031729494
 31
0.0
 71
     5
 42
35.5
  3
Katalog 09
100
AcDbAlignedDimension
 13
34.68963150366813
 23
273.3257031729494
 33
0.0
 14
31.68963150367222
 24
237.8257031729494
 34
0.0
 50
90.0
100
AcDbRotatedDimension
  0
LINE
  5
260
330
2
100
AcDbEntity
  8
UMRISS05
100
AcDbLine
 10
34.68963150366813
 20
186.3455282659033
 30
0.0
 11
119.6896315036731
 21
186.3455282659032
 31
0.0
  0
LINE
  5
261
330
2
100
AcDbEntity
  8
UMRISS05
100
AcDbLine
 10
34.68963150366813
 20
173.1455282659032
 30
0.0
 11
120.6896315036681
 21
173.145528265903
 31
0.0
  0
DIMENSION
  5
262
330
2
100
AcDbEntity
  8
BEMASSUNG
  6
Continuous
100
AcDbDimension
  2
*D5
 10
51.23551171395416
 20
186.3455282659033
 30
0.0
 11
47.36272996421303
 21
192.7754085304314
 31
0.0
 70
   128
 71
     5
 42
1.000000000000056
  3
Katalog 09
100
AcDbAlignedDimension
 13
34.68963150366813
 23
187.3455282659033
 33
0.0
 14
52.69691664449374
 24
186.3455282659033
 34
0.0
 50
90.0
100
AcDbRotatedDimension
  0
LINE
  5
271
330
2
100
AcDbEntity
  8
UMRISS05
100
AcDbLine
 10
34.68963150366813
 20
273.3257031729494
 30
0.0
 11
102.8896315036725
 21
273.3257031729494
 31
0.0
  0
LINE
  5
272
330
2
100
AcDbEntity
  8
ACHSEN
100
AcDbLine
 10
91.68963150367266
 20
433.5174706437442
 30
0.0
 11
91.68963150367266
 21
276.5257031729495
 31
0.0
  0
LINE
  5
273
330
2
100
AcDbEntity
  8
UMRISS05
100
AcDbLine
 10
218.0714618819727
 20
457.825703172949
 30
0.0
 11
218.0714618819727
 21
247.8257031729494
 31
0.0
  0
LINE
  5
274
330
2
100
AcDbEntity
  8
UMRISS05
100
AcDbLine
 10
198.0714618819727
 20
457.825703172949
 30
0.0
 11
198.0714618819727
 21
247.8257031729494
 31
0.0
  0
LINE
  5
275
330
2
100
AcDbEntity
  8
UMRISS05
100
AcDbLine
 10
31.68963150367222
 20
237.8257031729494
 30
0.0
 11
31.68963150367267
 21
467.825703172949
 31
0.0
  0
LINE
  5
276
330
2
100
AcDbEntity
  8
UMRISS05
100
AcDbLine
 10
34.68963150367222
 20
237.8257031729494
 30
0.0
 11
34.68963150367267
 21
467.825703172949
 31
0.0
  0
LINE
  5
277
330
2
100
AcDbEntity
  8
UMRISS05
100
AcDbLine
 10
120.6880867279551
 20
413.2059276051072
 30
0.0
 11
120.6880867279542
 21
292.4454787407917
 31
0.0
  0
DIMENSION
  5
278
330
2
100
AcDbEntity
  8
BEMASSUNG
  6
Continuous
100
AcDbDimension
  2
*D14
 10
146.960234297274
 20
302.8257031729497
 30
0.0
 11
143.7392418006846
 21
341.8257031729498
 31
0.0
 71
     5
 42
78.00000000000022
  3
Katalog 09
100
AcDbAlignedDimension
 13
115.2896315036725
 23
380.82570317295
 33
0.0
 14
104.7896315036725
 24
302.8257031729497
 34
0.0
 50
90.0
100
AcDbRotatedDimension
  0
DIMENSION
  5
285
330
2
100
AcDbEntity
  8
BEMASSUNG
  6
Continuous
100
AcDbDimension
  2
*D15
 10
135.7202852743936
 20
359.3257031729535
 30
0.0
 11
132.4992927778042
 21
370.0757031729517
 31
0.0
 71
     5
 42
21.49999999999636
  3
Katalog 09
100
AcDbAlignedDimension
 13
115.2896315036725
 23
380.82570317295
 33
0.0
 14
98.68963150367267
 24
359.3257031729536
 34
0.0
 50
90.0
100
AcDbRotatedDimension
  0
DIMENSION
  5
292
330
2
100
AcDbEntity
  8
BEMASSUNG
  6
Continuous
100
AcDbDimension
  2
*D19
 10
4.938264839293083
 20
387.8256938178413
 30
0.0
 11
1.71727234270366
 21
363.8256938178411
 31
0.0
 71
     5
 42
48.00000000000034
  3
Katalog 09
100
AcDbAlignedDimension
 13
11.69963150367312
 23
339.825693817841
 33
0.0
 14
21.69964893544512
 24
387.8256938178413
 34
0.0
 50
90.0
100
AcDbRotatedDimension
  0
DIMENSION
  5
29F
330
2
100
AcDbEntity
  8
BEMASSUNG
  6
Continuous
100
AcDbDimension
  2
*D6
 10
-11.95610463575161
 20
237.8257031729494
 30
0.0
 11
-15.90367098577189
 21
355.9893432640706
 31
0.0
 70
   128
 71
     5
 42
229.9999999999997
  3
Katalog 09
100
AcDbAlignedDimension
 13
31.68963150367267
 23
467.825703172949
 33
0.0
 14
31.68963150367222
 24
237.8257031729494
 34
0.0
 50
90.0
100
AcDbRotatedDimension
  0
DIMENSION
  5
2AC
330
2
100
AcDbEntity
  8
BEMASSUNG
  6
Continuous
100
AcDbDimension
  2
*D12
 10
157.8056021946986
 20
273.3257031729501
 30
0.0
 11
153.8103035268527
 21
351.9621067843052
 31
0.0
 70
   128
 71
     5
 42
159.0
  3
Katalog 09
100
AcDbAlignedDimension
 13
102.8896315036725
 23
432.3257031729501
 33
0.0
 14
102.8896315036725
 24
273.3257031729502
 34
0.0
 50
90.0
100
AcDbRotatedDimension
  0
ENDSEC
  0
SECTION
  2
OBJECTS
  0
DICTIONARY
  5
B
330
0
100
AcDbDictionary
281
     1
  3
ACAD_COLOR
350
4A
  3
ACAD_GROUP
350
37
  3
ACAD_LAYOUT
350
18
  3
ACAD_MATERIAL
350
D
  3
ACAD_MLINESTYLE
350
38
  3
ACAD_PLOTSETTINGS
350
39
  3
ACAD_PLOTSTYLENAME
350
A
  3
ACAD_SCALELIST
350
4B
  3
ACAD_TABLESTYLE
350
4C
  3
ACAD_VISUALSTYLE
350
2B
  3
ACDB_RECOMPOSE_DATA
350
31D
  3
AcDbVariableDictionary
350
313
  3
AcmDictionary
350
2CA
  3
AMG
350
2BB
  0
DICTIONARY
  5
1E
330
1D
100
AcDbDictionary
280
     1
281
     1
  3
ACAD_LAYERSTATES
360
1F
  0
DICTIONARY
  5
7
330
6
100
AcDbDictionary
280
     1
281
     1
  3
ADSK_XREC_LAYER_RECONCILED
360
8
  0
DICTIONARY
  5
89
330
88
100
AcDbDictionary
280
     1
281
     1
  3
ADSK_XREC_LAYER_RECONCILED
360
8A
  0
DICTIONARY
  5
69
330
68
100
AcDbDictionary
280
     1
281
     1
  3
ADSK_XREC_LAYER_RECONCILED
360
6A
  0
DICTIONARY
  5
4E
330
4D
100
AcDbDictionary
280
     1
281
     1
  3
ADSK_XREC_LAYER_RECONCILED
360
4F
  0
DICTIONARY
  5
149
330
148
100
AcDbDictionary
280
     1
281
     1
  3
ADSK_XREC_LAYER_RECONCILED
360
14A
  0
DICTIONARY
  5
9B
330
9A
100
AcDbDictionary
280
     1
281
     1
  0
DICTIONARY
  5
3
330
2
100
AcDbDictionary
280
     1
281
     1
  3
ACAD_SORTENTS
360
2B9
  0
DICTIONARY
  5
4A
102
{ACAD_REACTORS
330
B
102
}
330
B
100
AcDbDictionary
281
     1
  0
DICTIONARY
  5
37
102
{ACAD_REACTORS
330
B
102
}
330
B
100
AcDbDictionary
281
     1
  0
DICTIONARY
  5
18
102
{ACAD_REACTORS
330
B
102
}
330
B
100
AcDbDictionary
281
     1
  3
Layout1
350
1C
  3
Model
350
17
  0
DICTIONARY
  5
D
102
{ACAD_REACTORS
330
B
102
}
330
B
100
AcDbDictionary
281
     1
  3
ByBlock
350
42
  3
ByLayer
350
3A
  3
Global
350
C
  0
DICTIONARY
  5
38
102
{ACAD_REACTORS
330
B
102
}
330
B
100
AcDbDictionary
281
     1
  3
STANDARD
350
51
  0
DICTIONARY
  5
39
102
{ACAD_REACTORS
330
B
102
}
330
B
100
AcDbDictionary
281
     1
  0
ACDBDICTIONARYWDFLT
  5
A
102
{ACAD_REACTORS
330
B
102
}
330
B
100
AcDbDictionary
281
     1
  3
Normal
350
9
100
AcDbDictionaryWithDefault
340
9
  0
DICTIONARY
  5
4B
102
{ACAD_REACTORS
330
B
102
}
330
B
100
AcDbDictionary
281
     1
  3
A0
350
56
  3
A1
350
57
  3
A2
350
58
  3
A3
350
59
  3
A4
350
5A
  3
A5
350
5B
  3
A6
350
5C
  3
A7
350
5D
  3
A8
350
5E
  3
A9
350
5F
  3
B0
350
60
  3
B1
350
61
  3
B2
350
62
  3
B3
350
63
  3
B4
350
64
  3
B5
350
65
  3
B6
350
66
  0
DICTIONARY
  5
4C
102
{ACAD_REACTORS
330
B
102
}
330
B
100
AcDbDictionary
281
     1
  3
Standard
350
52
  0
DICTIONARY
  5
2B
102
{ACAD_REACTORS
330
B
102
}
330
B
100
AcDbDictionary
281
     1
  3
2dWireframe
350
2A
  3
3dWireframe
350
55
  3
Realistic
350
54
  0
XRECORD
  5
31D
102
{ACAD_REACTORS
330
B
102
}
330
B
100
AcDbXrecord
280
     1
 90
        1
330
52
  0
DICTIONARY
  5
313
102
{ACAD_REACTORS
330
B
102
}
330
B
100
AcDbDictionary
281
     1
  3
CANNOSCALE
350
316
  3
CMLEADERSTYLE
350
315
  3
CTABLESTYLE
350
314
  3
DIMASSOC
350
31A
  3
HIDETEXT
350
319
  3
INDEXCTL
350
318
  3
SORTENTS
350
317
  0
DICTIONARY
  5
2CA
102
{ACAD_REACTORS
330
B
102
}
330
B
100
AcDbDictionary
281
     1
  3
AcmStdDictionary
350
2CB
  0
DICTIONARY
  5
2BB
102
{ACAD_REACTORS
330
B
102
}
330
B
100
AcDbDictionary
281
     1
  3
AcMgSettings
350
2C5
  0
DICTIONARY
  5
1F
102
{ACAD_REACTORS
330
1E
102
}
330
1E
100
AcDbDictionary
281
     1
  0
XRECORD
  5
8
102
{ACAD_REACTORS
330
7
102
}
330
7
100
AcDbXrecord
280
     1
290
     1
  0
XRECORD
  5
8A
102
{ACAD_REACTORS
330
89
102
}
330
89
100
AcDbXrecord
280
     1
290
     1
  0
XRECORD
  5
6A
102
{ACAD_REACTORS
330
69
102
}
330
69
100
AcDbXrecord
280
     1
290
     1
  0
XRECORD
  5
4F
102
{ACAD_REACTORS
330
4E
102
}
330
4E
100
AcDbXrecord
280
     1
290
     1
  0
XRECORD
  5
14A
102
{ACAD_REACTORS
330
149
102
}
330
149
100
AcDbXrecord
280
     1
290
     1
  0
SORTENTSTABLE
  5
2B9
102
{ACAD_REACTORS
330
3
102
}
330
3
100
AcDbSortentsTable
330
2
331
1A8
  5
D6
331
BC
  5
1F4
331
F3
  5
13A
331
FB
  5
126
331
13A
  5
F3
331
1E7
  5
C9
331
C4
  5
1EC
331
22E
  5
A6
331
CC
  5
1E4
331
8D
  5
276
331
142
  5
EB
331
1EF
  5
C1
331
1F7
  5
B9
331
D4
  5
1B6
331
95
  5
260
331
277
  5
8C
331
9D
  5
24F
331
DC
  5
17A
331
1D0
  5
D2
331
A5
  5
22F
331
E4
  5
14C
331
24E
  5
9E
331
199
  5
D7
331
EC
  5
141
331
123
  5
FE
331
AD
  5
20F
331
20F
  5
AD
331
B5
  5
1FB
331
21F
  5
A9
331
BD
  5
1F3
331
F4
  5
139
331
1A9
  5
D5
331
1E0
  5
D0
331
13B
  5
F2
331
1E8
  5
C8
331
86
  5
292
331
C5
  5
1EB
331
FC
  5
125
331
1F0
  5
C0
331
143
  5
EA
331
8E
  5
275
331
CD
  5
1E3
331
17A
  5
DC
331
22F
  5
A5
331
14B
  5
E5
331
1F8
  5
B8
331
96
  5
253
331
D5
  5
1A9
331
29F
  5
78
331
260
  5
95
331
DD
  5
16D
331
18A
  5
D8
331
9E
  5
24E
331
E5
  5
14B
331
A6
  5
22E
331
67
  5
2AC
331
24F
  5
9D
331
AE
  5
20E
331
ED
  5
140
331
124
  5
FD
331
B6
  5
1FA
331
278
  5
8B
331
F5
  5
138
331
1E1
  5
CF
331
BE
  5
1F2
331
FD
  5
124
331
13C
  5
F1
331
1E9
  5
C7
331
87
  5
285
331
C6
  5
1EA
331
230
  5
A4
331
17B
  5
DB
331
CE
  5
1E2
331
8F
  5
274
331
144
  5
E9
331
1F1
  5
BF
331
14C
  5
E4
331
1F9
  5
B7
331
97
  5
252
331
D6
  5
1A8
331
261
  5
94
331
271
  5
92
331
9F
  5
24D
331
DE
  5
160
331
240
  5
A0
331
A7
  5
22D
331
E6
  5
147
331
250
  5
99
331
EE
  5
13F
331
125
  5
FC
331
AF
  5
20D
331
B7
  5
1F9
331
78
  5
29F
331
BF
  5
1F1
331
F6
  5
137
331
1E2
  5
CE
331
13D
  5
F0
331
1EA
  5
C6
331
C7
  5
1E9
331
FE
  5
123
331
1F2
  5
BE
331
145
  5
E8
331
90
  5
273
331
CF
  5
1E1
331
17C
  5
DA
331
231
  5
A3
331
1C3
  5
D3
331
14D
  5
E3
331
1FA
  5
B6
331
D7
  5
199
331
262
  5
93
331
272
  5
91
331
98
  5
251
331
DF
  5
15F
331
A0
  5
240
331
20A
  5
B2
331
A8
  5
22C
331
E7
  5
146
331
251
  5
98
331
B0
  5
20C
331
EF
  5
13E
331
126
  5
FB
331
292
  5
86
331
B8
  5
1F8
331
1E3
  5
CD
331
F7
  5
12A
331
C0
  5
1F0
331
16D
  5
DD
331
FF
  5
122
331
13E
  5
EF
331
1EB
  5
C5
331
C8
  5
1E8
331
232
  5
A2
331
17D
  5
D9
331
D0
  5
1E0
331
91
  5
272
331
146
  5
E7
331
1F3
  5
BD
331
14E
  5
E2
331
1FB
  5
B5
331
273
  5
90
331
99
  5
250
331
D8
  5
18A
331
A1
  5
233
331
E0
  5
15E
331
15E
  5
E0
331
20B
  5
B1
331
A9
  5
21F
331
E8
  5
145
331
252
  5
97
331
127
  5
FA
331
B1
  5
20B
331
B9
  5
1F7
331
F0
  5
13D
331
1E4
  5
CC
331
C1
  5
1EF
331
F8
  5
129
331
137
  5
F6
331
13F
  5
EE
331
1EC
  5
C4
331
C9
  5
1E7
331
100
  5
121
331
147
  5
E6
331
1F4
  5
BC
331
92
  5
271
331
D1
  5
1DF
331
233
  5
A1
331
14F
  5
E1
331
1FC
  5
B4
331
274
  5
8F
331
D9
  5
17D
331
E1
  5
14F
331
A2
  5
232
331
15F
  5
DF
331
20C
  5
B0
331
AA
  5
21E
331
E9
  5
144
331
128
  5
F9
331
B2
  5
20A
331
253
  5
96
331
21C
  5
AC
331
BA
  5
1F6
331
F1
  5
13C
331
F9
  5
128
331
138
  5
F5
331
1E5
  5
CB
331
C2
  5
1EE
331
22C
  5
A8
331
1B6
  5
D4
331
CA
  5
1E6
331
101
  5
112
331
8B
  5
278
331
140
  5
ED
331
1ED
  5
C3
331
1F5
  5
BB
331
D2
  5
1D0
331
93
  5
262
331
1FD
  5
B3
331
2AC
  5
67
331
275
  5
8E
331
DA
  5
17C
331
111
  5
102
331
A3
  5
231
331
E2
  5
14E
331
121
  5
100
331
160
  5
DE
331
20D
  5
AF
331
AB
  5
21D
331
EA
  5
143
331
129
  5
F8
331
B3
  5
1FD
331
21D
  5
AB
331
285
  5
87
331
BB
  5
1F5
331
F2
  5
13B
331
139
  5
F4
331
1E6
  5
CA
331
C3
  5
1ED
331
FA
  5
127
331
141
  5
EC
331
1EE
  5
C2
331
22D
  5
A7
331
8C
  5
277
331
CB
  5
1E5
331
102
  5
111
331
1F6
  5
BA
331
94
  5
261
331
D3
  5
1C3
331
276
  5
8D
331
DB
  5
17B
331
112
  5
101
331
E3
  5
14D
331
A4
  5
230
331
20E
  5
AE
331
24D
  5
9F
331
AC
  5
21C
331
EB
  5
142
331
122
  5
FF
331
12A
  5
F7
331
1DF
  5
D1
331
B4
  5
1FC
331
21E
  5
AA
  0
LAYOUT
  5
1C
102
{ACAD_XDICTIONARY
360
321
102
}
102
{ACAD_REACTORS
330
18
102
}
330
18
100
AcDbPlotSettings
  1

  2
G:\VORLAGEN\AutoCAD2002\Plotten\A3hoch-MSL.pc3
  4

  6

 40
0.0
 41
0.0
 42
0.0
 43
0.0
 44
0.0
 45
0.0
 46
0.0
 47
0.0
 48
0.0
 49
0.0
140
0.0
141
0.0
142
1.0
143
1.0
 70
   688
 72
     0
 73
     0
 74
     5
  7
Katalog 09.ctb
 75
    16
147
1.0
148
0.0
149
0.0
100
AcDbLayout
  1
Layout1
 70
     1
 71
     1
 10
0.0
 20
0.0
 11
12.0
 21
9.0
 12
0.0
 22
0.0
 32
0.0
 14
1.000000000000000E+20
 24
1.000000000000000E+20
 34
1.000000000000000E+20
 15
-1.000000000000000E+20
 25
-1.000000000000000E+20
 35
-1.000000000000000E+20
146
0.0
 13
0.0
 23
0.0
 33
0.0
 16
1.0
 26
0.0
 36
0.0
 17
0.0
 27
1.0
 37
0.0
 76
     0
330
19
  0
LAYOUT
  5
17
102
{ACAD_XDICTIONARY
360
31F
102
}
102
{ACAD_REACTORS
330
18
102
}
330
18
100
AcDbPlotSettings
  1

  2
G:\VORLAGEN\AutoCAD2002\Plotten\A3hoch-MSL.pc3
  4
A3
  6

 40
6.085416793823242
 41
6.12772798538208
 42
5.662078857421875
 43
5.53509521484375
 44
296.9683227539062
 45
419.9889831542968
 46
0.0
 47
0.0
 48
0.0
 49
0.0
140
0.0
141
0.0
142
1.0
143
1.0
 70
 11952
 72
     1
 73
     1
 74
     0
  7
Katalog 09.ctb
 75
     0
147
1.0
148
500.5406631691881
149
273.6766449544727
100
AcDbLayout
  1
Model
 70
     1
 71
     0
 10
0.0
 20
0.0
 11
12.0
 21
9.0
 12
0.0
 22
0.0
 32
0.0
 14
0.0
 24
0.0
 34
0.0
 15
0.0
 25
0.0
 35
0.0
146
0.0
 13
0.0
 23
0.0
 33
0.0
 16
1.0
 26
0.0
 36
0.0
 17
0.0
 27
1.0
 37
0.0
 76
     0
330
2
331
29
  0
MATERIAL
  5
42
102
{ACAD_XDICTIONARY
360
43
102
}
102
{ACAD_REACTORS
330
D
102
}
330
D
100
AcDbMaterial
  1
ByBlock
 72
     0
 43
0.0208333333333333
 43
0.0
 43
0.0
 43
0.0
 43
0.0
 43
0.0208333333333333
 43
0.0
 43
0.0
 43
0.0
 43
0.0
 43
1.0
 43
0.0
 43
0.0
 43
0.0
 43
0.0
 43
1.0
 77
     0
 47
0.0208333333333333
 47
0.0
 47
0.0
 47
0.0
 47
0.0
 47
0.0208333333333333
 47
0.0
 47
0.0
 47
0.0
 47
0.0
 47
1.0
 47
0.0
 47
0.0
 47
0.0
 47
0.0
 47
1.0
171
     0
 49
0.0208333333333333
 49
0.0
 49
0.0
 49
0.0
 49
0.0
 49
0.0208333333333333
 49
0.0
 49
0.0
 49
0.0
 49
0.0
 49
1.0
 49
0.0
 49
0.0
 49
0.0
 49
0.0
 49
1.0
175
     0
142
0.0208333333333333
142
0.0
142
0.0
142
0.0
142
0.0
142
0.0208333333333333
142
0.0
142
0.0
142
0.0
142
0.0
142
1.0
142
0.0
142
0.0
142
0.0
142
0.0
142
1.0
179
     0
144
0.0208333333333333
144
0.0
144
0.0
144
0.0
144
0.0
144
0.0208333333333333
144
0.0
144
0.0
144
0.0
144
0.0
144
1.0
144
0.0
144
0.0
144
0.0
144
0.0
144
1.0
147
0.0208333333333333
147
0.0
147
0.0
147
0.0
147
0.0
147
0.0208333333333333
147
0.0
147
0.0
147
0.0
147
0.0
147
1.0
147
0.0
147
0.0
147
0.0
147
0.0
147
1.0
  0
MATERIAL
  5
3A
102
{ACAD_XDICTIONARY
360
3B
102
}
102
{ACAD_REACTORS
330
D
102
}
330
D
100
AcDbMaterial
  1
ByLayer
 72
     0
 43
0.0208333333333333
 43
0.0
 43
0.0
 43
0.0
 43
0.0
 43
0.0208333333333333
 43
0.0
 43
0.0
 43
0.0
 43
0.0
 43
1.0
 43
0.0
 43
0.0
 43
0.0
 43
0.0
 43
1.0
 77
     0
 47
0.0208333333333333
 47
0.0
 47
0.0
 47
0.0
 47
0.0
 47
0.0208333333333333
 47
0.0
 47
0.0
 47
0.0
 47
0.0
 47
1.0
 47
0.0
 47
0.0
 47
0.0
 47
0.0
 47
1.0
171
     0
 49
0.0208333333333333
 49
0.0
 49
0.0
 49
0.0
 49
0.0
 49
0.0208333333333333
 49
0.0
 49
0.0
 49
0.0
 49
0.0
 49
1.0
 49
0.0
 49
0.0
 49
0.0
 49
0.0
 49
1.0
175
     0
142
0.0208333333333333
142
0.0
142
0.0
142
0.0
142
0.0
142
0.0208333333333333
142
0.0
142
0.0
142
0.0
142
0.0
142
1.0
142
0.0
142
0.0
142
0.0
142
0.0
142
1.0
179
     0
144
0.0208333333333333
144
0.0
144
0.0
144
0.0
144
0.0
144
0.0208333333333333
144
0.0
144
0.0
144
0.0
144
0.0
144
1.0
144
0.0
144
0.0
144
0.0
144
0.0
144
1.0
147
0.0208333333333333
147
0.0
147
0.0
147
0.0
147
0.0
147
0.0208333333333333
147
0.0
147
0.0
147
0.0
147
0.0
147
1.0
147
0.0
147
0.0
147
0.0
147
0.0
147
1.0
  0
MATERIAL
  5
C
102
{ACAD_XDICTIONARY
360
E
102
}
102
{ACAD_REACTORS
330
D
102
}
330
D
100
AcDbMaterial
  1
Global
 72
     0
 43
0.0208333333333333
 43
0.0
 43
0.0
 43
0.0
 43
0.0
 43
0.0208333333333333
 43
0.0
 43
0.0
 43
0.0
 43
0.0
 43
1.0
 43
0.0
 43
0.0
 43
0.0
 43
0.0
 43
1.0
 77
     0
 47
0.0208333333333333
 47
0.0
 47
0.0
 47
0.0
 47
0.0
 47
0.0208333333333333
 47
0.0
 47
0.0
 47
0.0
 47
0.0
 47
1.0
 47
0.0
 47
0.0
 47
0.0
 47
0.0
 47
1.0
171
     0
 49
0.0208333333333333
 49
0.0
 49
0.0
 49
0.0
 49
0.0
 49
0.0208333333333333
 49
0.0
 49
0.0
 49
0.0
 49
0.0
 49
1.0
 49
0.0
 49
0.0
 49
0.0
 49
0.0
 49
1.0
175
     0
142
0.0208333333333333
142
0.0
142
0.0
142
0.0
142
0.0
142
0.0208333333333333
142
0.0
142
0.0
142
0.0
142
0.0
142
1.0
142
0.0
142
0.0
142
0.0
142
0.0
142
1.0
179
     0
144
0.0208333333333333
144
0.0
144
0.0
144
0.0
144
0.0
144
0.0208333333333333
144
0.0
144
0.0
144
0.0
144
0.0
144
1.0
144
0.0
144
0.0
144
0.0
144
0.0
144
1.0
147
0.0208333333333333
147
0.0
147
0.0
147
0.0
147
0.0
147
0.0208333333333333
147
0.0
147
0.0
147
0.0
147
0.0
147
1.0
147
0.0
147
0.0
147
0.0
147
0.0
147
1.0
  0
MLINESTYLE
  5
51
102
{ACAD_REACTORS
330
38
102
}
330
38
100
AcDbMlineStyle
  2
STANDARD
 70
     0
  3

 62
     0
 51
90.0
 52
90.0
 71
     2
 49
0.5
 62
   256
  6
BYLAYER
 49
-0.5
 62
   256
  6
BYLAYER
  0
ACDBPLACEHOLDER
  5
9
102
{ACAD_REACTORS
330
A
102
}
330
A
  0
SCALE
  5
56
102
{ACAD_REACTORS
330
4B
102
}
330
4B
100
AcDbScale
 70
     0
300
1:1
140
1.0
141
1.0
290
     1
  0
SCALE
  5
57
102
{ACAD_REACTORS
330
4B
102
}
330
4B
100
AcDbScale
 70
     0
300
1:2
140
1.0
141
2.0
290
     0
  0
SCALE
  5
58
102
{ACAD_REACTORS
330
4B
102
}
330
4B
100
AcDbScale
 70
     0
300
1:4
140
1.0
141
4.0
290
     0
  0
SCALE
  5
59
102
{ACAD_REACTORS
330
4B
102
}
330
4B
100
AcDbScale
 70
     0
300
1:5
140
1.0
141
5.0
290
     0
  0
SCALE
  5
5A
102
{ACAD_REACTORS
330
4B
102
}
330
4B
100
AcDbScale
 70
     0
300
1:8
140
1.0
141
8.0
290
     0
  0
SCALE
  5
5B
102
{ACAD_REACTORS
330
4B
102
}
330
4B
100
AcDbScale
 70
     0
300
1:10
140
1.0
141
10.0
290
     0
  0
SCALE
  5
5C
102
{ACAD_REACTORS
330
4B
102
}
330
4B
100
AcDbScale
 70
     0
300
1:16
140
1.0
141
16.0
290
     0
  0
SCALE
  5
5D
102
{ACAD_REACTORS
330
4B
102
}
330
4B
100
AcDbScale
 70
     0
300
1:20
140
1.0
141
20.0
290
     0
  0
SCALE
  5
5E
102
{ACAD_REACTORS
330
4B
102
}
330
4B
100
AcDbScale
 70
     0
300
1:30
140
1.0
141
30.0
290
     0
  0
SCALE
  5
5F
102
{ACAD_REACTORS
330
4B
102
}
330
4B
100
AcDbScale
 70
     0
300
1:40
140
1.0
141
40.0
290
     0
  0
SCALE
  5
60
102
{ACAD_REACTORS
330
4B
102
}
330
4B
100
AcDbScale
 70
     0
300
1:50
140
1.0
141
50.0
290
     0
  0
SCALE
  5
61
102
{ACAD_REACTORS
330
4B
102
}
330
4B
100
AcDbScale
 70
     0
300
1:100
140
1.0
141
100.0
290
     0
  0
SCALE
  5
62
102
{ACAD_REACTORS
330
4B
102
}
330
4B
100
AcDbScale
 70
     0
300
2:1
140
2.0
141
1.0
290
     0
  0
SCALE
  5
63
102
{ACAD_REACTORS
330
4B
102
}
330
4B
100
AcDbScale
 70
     0
300
4:1
140
4.0
141
1.0
290
     0
  0
SCALE
  5
64
102
{ACAD_REACTORS
330
4B
102
}
330
4B
100
AcDbScale
 70
     0
300
8:1
140
8.0
141
1.0
290
     0
  0
SCALE
  5
65
102
{ACAD_REACTORS
330
4B
102
}
330
4B
100
AcDbScale
 70
     0
300
10:1
140
10.0
141
1.0
290
     0
  0
SCALE
  5
66
102
{ACAD_REACTORS
330
4B
102
}
330
4B
100
AcDbScale
 70
     0
300
100:1
140
100.0
141
1.0
290
     0
  0
TABLESTYLE
  5
52
102
{ACAD_XDICTIONARY
360
53
102
}
102
{ACAD_REACTORS
330
4C
102
}
330
4C
100
AcDbTableStyle
  3
Standard
 70
     0
 71
     0
 40
1.5
 41
1.5
280
     0
281
     0
  7
STANDARD
140
4.5
170
     2
 62
     0
 63
     7
283
     0
274
    -2
284
     1
 64
     0
275
    -2
285
     1
 65
     0
276
    -2
286
     1
 66
     0
277
    -2
287
     1
 67
     0
278
    -2
288
     1
 68
     0
279
    -2
289
     1
 69
     0
  7
STANDARD
140
6.0
170
     5
 62
     0
 63
     7
283
     0
274
    -2
284
     1
 64
     0
275
    -2
285
     1
 65
     0
276
    -2
286
     1
 66
     0
277
    -2
287
     1
 67
     0
278
    -2
288
     1
 68
     0
279
    -2
289
     1
 69
     0
  7
STANDARD
140
4.5
170
     5
 62
     0
 63
     7
283
     0
274
    -2
284
     1
 64
     0
275
    -2
285
     1
 65
     0
276
    -2
286
     1
 66
     0
277
    -2
287
     1
 67
     0
278
    -2
288
     1
 68
     0
279
    -2
289
     1
 69
     0
  0
VISUALSTYLE
  5
2A
102
{ACAD_REACTORS
330
2B
102
}
330
2B
100
AcDbVisualStyle
  2
2dWireframe
 70
     4
 71
     0
 72
     2
 73
     0
 90
        0
 40
-0.6
 41
-30.0
 62
     5
 63
     7
 74
     1
 91
        4
 64
     7
 65
   257
 75
     1
175
     1
 42
1.0
 92
        0
 66
   257
 43
1.0
 76
     1
 77
     6
 78
     2
 67
     7
 79
     5
170
     0
171
     0
290
     0
174
     0
 93
        1
 44
0.0
173
     0
291
     0
 45
0.0
1001
ACAD
1000
AcDbSavedByObjectVersion
1070
     0
  0
VISUALSTYLE
  5
55
102
{ACAD_REACTORS
330
2B
102
}
330
2B
100
AcDbVisualStyle
  2
3dWireframe
 70
     5
 71
     0
 72
     2
 73
     0
 90
        0
 40
-0.6
 41
-30.0
 62
     5
 63
     7
 74
     1
 91
        4
 64
     7
 65
   257
 75
     1
175
     1
 42
1.0
 92
        0
 66
   257
 43
1.0
 76
     1
 77
     6
 78
     2
 67
     7
 79
     5
170
     0
171
     0
290
     0
174
     0
 93
        1
 44
0.0
173
     0
291
     0
 45
0.0
1001
ACAD
1000
AcDbSavedByObjectVersion
1070
     0
  0
VISUALSTYLE
  5
54
102
{ACAD_REACTORS
330
2B
102
}
330
2B
100
AcDbVisualStyle
  2
Realistic
 70
     8
 71
     2
 72
     2
 73
     0
 90
        0
 40
-0.6
 41
-30.0
 62
     5
 63
     7
 74
     1
 91
        0
 64
     7
 65
   257
 75
     1
175
     1
 42
1.0
 92
        8
 66
     8
 43
1.0
 76
     1
 77
     6
 78
     2
 67
     7
 79
     5
170
     0
171
     0
290
     0
174
     0
 93
       13
 44
0.0
173
     0
291
     0
 45
0.0
1001
ACAD
1000
AcDbSavedByObjectVersion
1070
     0
  0
DICTIONARYVAR
  5
316
102
{ACAD_REACTORS
330
313
102
}
330
313
100
DictionaryVariables
280
     0
  1
1:1
  0
DICTIONARYVAR
  5
315
102
{ACAD_REACTORS
330
313
102
}
330
313
100
DictionaryVariables
280
     0
  1
STANDARD
  0
DICTIONARYVAR
  5
314
102
{ACAD_REACTORS
330
313
102
}
330
313
100
DictionaryVariables
280
     0
  1
STANDARD
  0
DICTIONARYVAR
  5
31A
102
{ACAD_REACTORS
330
313
102
}
330
313
100
DictionaryVariables
280
     0
  1
1
  0
DICTIONARYVAR
  5
319
102
{ACAD_REACTORS
330
313
102
}
330
313
100
DictionaryVariables
280
     0
  1
1
  0
DICTIONARYVAR
  5
318
102
{ACAD_REACTORS
330
313
102
}
330
313
100
DictionaryVariables
280
     0
  1
0
  0
DICTIONARYVAR
  5
317
102
{ACAD_REACTORS
330
313
102
}
330
313
100
DictionaryVariables
280
     0
  1
127
  0
DICTIONARY
  5
2CB
102
{ACAD_REACTORS
330
2CA
102
}
330
2CA
100
AcDbDictionary
281
     1
  0
DICTIONARY
  5
2C5
102
{ACAD_REACTORS
330
2BB
102
}
330
2BB
100
AcDbDictionary
281
     1
  3
DWGSETTINGS
350
2C4
  3
TRANSSETTINGS
350
2C6
  0
DICTIONARY
  5
321
330
1C
100
AcDbDictionary
280
     1
281
     1
  3
ACAD_XREC_ROUNDTRIP
360
322
  0
DICTIONARY
  5
31F
330
17
100
AcDbDictionary
280
     1
281
     1
  3
ACAD_XREC_ROUNDTRIP
360
320
  0
DICTIONARY
  5
43
330
42
100
AcDbDictionary
280
     1
281
     1
  3
ACAD_XREC_ROUNDTRIP
360
324
  3
BUMPTILE
360
44
  3
DIFFUSETILE
360
45
  3
OPACITYTILE
360
46
  3
REFLECTIONTILE
360
47
  3
REFRACTIONTILE
360
48
  3
SPECULARTILE
360
49
  0
DICTIONARY
  5
3B
330
3A
100
AcDbDictionary
280
     1
281
     1
  3
ACAD_XREC_ROUNDTRIP
360
323
  3
BUMPTILE
360
3C
  3
DIFFUSETILE
360
3D
  3
OPACITYTILE
360
3E
  3
REFLECTIONTILE
360
3F
  3
REFRACTIONTILE
360
40
  3
SPECULARTILE
360
41
  0
DICTIONARY
  5
E
330
C
100
AcDbDictionary
280
     1
281
     1
  3
ACAD_XREC_ROUNDTRIP
360
31E
  3
BUMPTILE
360
F
  3
DIFFUSETILE
360
10
  3
OPACITYTILE
360
11
  3
REFLECTIONTILE
360
12
  3
REFRACTIONTILE
360
13
  3
SPECULARTILE
360
14
  0
DICTIONARY
  5
53
330
52
100
AcDbDictionary
280
     1
281
     1
  3
ACAD_ROUNDTRIP_2008_TABLESTYLE_CELLSTYLEMAP
360
31B
  3
ACAD_XREC_ROUNDTRIP
360
325
  0
XRECORD
  5
322
102
{ACAD_REACTORS
330
321
102
}
330
321
100
AcDbXrecord
280
     1
102
SHADEPLOT
 70
     0
102
SHADEPLOTRESLEVEL
 70
     2
102
SHADEPLOTCUSTOMDPI
 70
   300
  0
XRECORD
  5
320
102
{ACAD_REACTORS
330
31F
102
}
330
31F
100
AcDbXrecord
280
     1
102
SHADEPLOT
 70
     0
102
SHADEPLOTRESLEVEL
 70
     2
102
SHADEPLOTCUSTOMDPI
 70
   300
  0
XRECORD
  5
324
102
{ACAD_REACTORS
330
43
102
}
330
43
100
AcDbXrecord
280
     1
102
MATERIAL
148
0.0
149
0.0
149
0.0
 93
        0
 94
      127
282
     0
 72
     0
 77
     0
171
     0
175
     0
179
     0
273
     0
  0
XRECORD
  5
44
102
{ACAD_REACTORS
330
43
102
}
330
43
100
AcDbXrecord
280
     1
270
     1
271
     1
  0
XRECORD
  5
45
102
{ACAD_REACTORS
330
43
102
}
330
43
100
AcDbXrecord
280
     1
270
     1
271
     1
  0
XRECORD
  5
46
102
{ACAD_REACTORS
330
43
102
}
330
43
100
AcDbXrecord
280
     1
270
     1
271
     1
  0
XRECORD
  5
47
102
{ACAD_REACTORS
330
43
102
}
330
43
100
AcDbXrecord
280
     1
270
     1
271
     1
  0
XRECORD
  5
48
102
{ACAD_REACTORS
330
43
102
}
330
43
100
AcDbXrecord
280
     1
270
     1
271
     1
  0
XRECORD
  5
49
102
{ACAD_REACTORS
330
43
102
}
330
43
100
AcDbXrecord
280
     1
270
     1
271
     1
  0
XRECORD
  5
323
102
{ACAD_REACTORS
330
3B
102
}
330
3B
100
AcDbXrecord
280
     1
102
MATERIAL
148
0.0
149
0.0
149
0.0
 93
        0
 94
      127
282
     0
 72
     0
 77
     0
171
     0
175
     0
179
     0
273
     0
  0
XRECORD
  5
3C
102
{ACAD_REACTORS
330
3B
102
}
330
3B
100
AcDbXrecord
280
     1
270
     1
271
     1
  0
XRECORD
  5
3D
102
{ACAD_REACTORS
330
3B
102
}
330
3B
100
AcDbXrecord
280
     1
270
     1
271
     1
  0
XRECORD
  5
3E
102
{ACAD_REACTORS
330
3B
102
}
330
3B
100
AcDbXrecord
280
     1
270
     1
271
     1
  0
XRECORD
  5
3F
102
{ACAD_REACTORS
330
3B
102
}
330
3B
100
AcDbXrecord
280
     1
270
     1
271
     1
  0
XRECORD
  5
40
102
{ACAD_REACTORS
330
3B
102
}
330
3B
100
AcDbXrecord
280
     1
270
     1
271
     1
  0
XRECORD
  5
41
102
{ACAD_REACTORS
330
3B
102
}
330
3B
100
AcDbXrecord
280
     1
270
     1
271
     1
  0
XRECORD
  5
31E
102
{ACAD_REACTORS
330
E
102
}
330
E
100
AcDbXrecord
280
     1
102
MATERIAL
148
0.0
149
0.0
149
0.0
 93
        0
 94
      127
282
     0
 72
     0
 77
     0
171
     0
175
     0
179
     0
273
     0
  0
XRECORD
  5
F
102
{ACAD_REACTORS
330
E
102
}
330
E
100
AcDbXrecord
280
     1
270
     1
271
     1
  0
XRECORD
  5
10
102
{ACAD_REACTORS
330
E
102
}
330
E
100
AcDbXrecord
280
     1
270
     1
271
     1
  0
XRECORD
  5
11
102
{ACAD_REACTORS
330
E
102
}
330
E
100
AcDbXrecord
280
     1
270
     1
271
     1
  0
XRECORD
  5
12
102
{ACAD_REACTORS
330
E
102
}
330
E
100
AcDbXrecord
280
     1
270
     1
271
     1
  0
XRECORD
  5
13
102
{ACAD_REACTORS
330
E
102
}
330
E
100
AcDbXrecord
280
     1
270
     1
271
     1
  0
XRECORD
  5
14
102
{ACAD_REACTORS
330
E
102
}
330
E
100
AcDbXrecord
280
     1
270
     1
271
     1
  0
CELLSTYLEMAP
  5
31B
102
{ACAD_REACTORS
330
53
102
}
330
53
100
AcDbCellStyleMap
 90
        3
300
CELLSTYLE
  1
TABLEFORMAT_BEGIN
 90
        5
170
     1
 91
        0
 92
    32768
 62
   257
 93
        1
300
CONTENTFORMAT
  1
CONTENTFORMAT_BEGIN
 90
        0
 91
        0
 92
        4
 93
        0
300

 40
0.0
140
1.0
 94
        5
 62
     0
340
21
144
6.0
309
CONTENTFORMAT_END
171
     1
301
MARGIN
  1
CELLMARGIN_BEGIN
 40
1.5
 40
1.5
 40
1.5
 40
1.5
 40
0.18
 40
0.18
309
CELLMARGIN_END
 94
        6
 95
        1
302
GRIDFORMAT
  1
GRIDFORMAT_BEGIN
 90
        0
 91
        1
 62
     0
 92
       -2
340
0
 93
        0
 40
0.045
309
GRIDFORMAT_END
 95
        2
302
GRIDFORMAT
  1
GRIDFORMAT_BEGIN
 90
        0
 91
        1
 62
     0
 92
       -2
340
0
 93
        0
 40
0.045
309
GRIDFORMAT_END
 95
        4
302
GRIDFORMAT
  1
GRIDFORMAT_BEGIN
 90
        0
 91
        1
 62
     0
 92
       -2
340
0
 93
        0
 40
0.045
309
GRIDFORMAT_END
 95
        8
302
GRIDFORMAT
  1
GRIDFORMAT_BEGIN
 90
        0
 91
        1
 62
     0
 92
       -2
340
0
 93
        0
 40
0.045
309
GRIDFORMAT_END
 95
       16
302
GRIDFORMAT
  1
GRIDFORMAT_BEGIN
 90
        0
 91
        1
 62
     0
 92
       -2
340
0
 93
        0
 40
0.045
309
GRIDFORMAT_END
 95
       32
302
GRIDFORMAT
  1
GRIDFORMAT_BEGIN
 90
        0
 91
        1
 62
     0
 92
       -2
340
0
 93
        0
 40
0.045
309
GRIDFORMAT_END
309
TABLEFORMAT_END
  1
CELLSTYLE_BEGIN
 90
        1
 91
        1
300
_TITLE
309
CELLSTYLE_END
300
CELLSTYLE
  1
TABLEFORMAT_BEGIN
 90
        5
170
     1
 91
        0
 92
        0
 62
   257
 93
        1
300
CONTENTFORMAT
  1
CONTENTFORMAT_BEGIN
 90
        0
 91
        0
 92
        4
 93
        0
300

 40
0.0
140
1.0
 94
        5
 62
     0
340
21
144
4.5
309
CONTENTFORMAT_END
171
     1
301
MARGIN
  1
CELLMARGIN_BEGIN
 40
1.5
 40
1.5
 40
1.5
 40
1.5
 40
0.18
 40
0.18
309
CELLMARGIN_END
 94
        6
 95
        1
302
GRIDFORMAT
  1
GRIDFORMAT_BEGIN
 90
        0
 91
        1
 62
     0
 92
       -2
340
0
 93
        0
 40
0.045
309
GRIDFORMAT_END
 95
        2
302
GRIDFORMAT
  1
GRIDFORMAT_BEGIN
 90
        0
 91
        1
 62
     0
 92
       -2
340
0
 93
        0
 40
0.045
309
GRIDFORMAT_END
 95
        4
302
GRIDFORMAT
  1
GRIDFORMAT_BEGIN
 90
        0
 91
        1
 62
     0
 92
       -2
340
0
 93
        0
 40
0.045
309
GRIDFORMAT_END
 95
        8
302
GRIDFORMAT
  1
GRIDFORMAT_BEGIN
 90
        0
 91
        1
 62
     0
 92
       -2
340
0
 93
        0
 40
0.045
309
GRIDFORMAT_END
 95
       16
302
GRIDFORMAT
  1
GRIDFORMAT_BEGIN
 90
        0
 91
        1
 62
     0
 92
       -2
340
0
 93
        0
 40
0.045
309
GRIDFORMAT_END
 95
       32
302
GRIDFORMAT
  1
GRIDFORMAT_BEGIN
 90
        0
 91
        1
 62
     0
 92
       -2
340
0
 93
        0
 40
0.045
309
GRIDFORMAT_END
309
TABLEFORMAT_END
  1
CELLSTYLE_BEGIN
 90
        2
 91
        1
300
_HEADER
309
CELLSTYLE_END
300
CELLSTYLE
  1
TABLEFORMAT_BEGIN
 90
        5
170
     1
 91
        0
 92
        0
 62
   257
 93
        1
300
CONTENTFORMAT
  1
CONTENTFORMAT_BEGIN
 90
        0
 91
        0
 92
        4
 93
        0
300

 40
0.0
140
1.0
 94
        2
 62
     0
340
21
144
4.5
309
CONTENTFORMAT_END
171
     1
301
MARGIN
  1
CELLMARGIN_BEGIN
 40
1.5
 40
1.5
 40
1.5
 40
1.5
 40
0.18
 40
0.18
309
CELLMARGIN_END
 94
        6
 95
        1
302
GRIDFORMAT
  1
GRIDFORMAT_BEGIN
 90
        0
 91
        1
 62
     0
 92
       -2
340
0
 93
        0
 40
0.045
309
GRIDFORMAT_END
 95
        2
302
GRIDFORMAT
  1
GRIDFORMAT_BEGIN
 90
        0
 91
        1
 62
     0
 92
       -2
340
0
 93
        0
 40
0.045
309
GRIDFORMAT_END
 95
        4
302
GRIDFORMAT
  1
GRIDFORMAT_BEGIN
 90
        0
 91
        1
 62
     0
 92
       -2
340
0
 93
        0
 40
0.045
309
GRIDFORMAT_END
 95
        8
302
GRIDFORMAT
  1
GRIDFORMAT_BEGIN
 90
        0
 91
        1
 62
     0
 92
       -2
340
0
 93
        0
 40
0.045
309
GRIDFORMAT_END
 95
       16
302
GRIDFORMAT
  1
GRIDFORMAT_BEGIN
 90
        0
 91
        1
 62
     0
 92
       -2
340
0
 93
        0
 40
0.045
309
GRIDFORMAT_END
 95
       32
302
GRIDFORMAT
  1
GRIDFORMAT_BEGIN
 90
        0
 91
        1
 62
     0
 92
       -2
340
0
 93
        0
 40
0.045
309
GRIDFORMAT_END
309
TABLEFORMAT_END
  1
CELLSTYLE_BEGIN
 90
        3
 91
        2
300
_DATA
309
CELLSTYLE_END
  0
XRECORD
  5
325
102
{ACAD_REACTORS
330
53
102
}
330
53
100
AcDbXrecord
280
     1
102
ACAD_ROUNDTRIP_PRE2007_TABLESTYLE
 90
        4
 91
        0
  1

 92
        4
 93
        0
  2

 94
        4
 95
        0
  3

  0
ENDSEC
  0
EOF
