  0
SECTION
  2
HEADER
  9
$ACADVER
  1
AC1015
  9
$ACADMAINTVER
 70
    20
  9
$DWGCODEPAGE
  3
ANSI_1252
  9
$INSBASE
 10
0.0
 20
0.0
 30
0.0
  9
$EXTMIN
 10
608.5919120924804
 20
134.5991988016167
 30
-0.0015258207003583
  9
$EXTMAX
 10
847.0961868505565
 20
475.1881239037575
 30
0.0000000349246037
  9
$LIMMIN
 10
0.0
 20
0.0
  9
$LIMMAX
 10
566.4069975479701
 20
669.6985897720049
  9
$ORTHOMODE
 70
     1
  9
$REGENMODE
 70
     1
  9
$FILLMODE
 70
     1
  9
$QTEXTMODE
 70
     0
  9
$MIRRTEXT
 70
     0
  9
$LTSCALE
 40
1.0
  9
$ATTMODE
 70
     1
  9
$TEXTSIZE
 40
3.5
  9
$TRACEWID
 40
0.05
  9
$TEXTSTYLE
  7
ARIAL-STANDARD
  9
$CLAYER
  8
UMRISS07
  9
$CELTYPE
  6
BYLAYER
  9
$CECOLOR
 62
   256
  9
$CELTSCALE
 40
1.0
  9
$DISPSILH
 70
     0
  9
$DIMSCALE
 40
1.0
  9
$DIMASZ
 40
3.5
  9
$DIMEXO
 40
1.0
  9
$DIMDLI
 40
10.0
  9
$DIMRND
 40
0.0
  9
$DIMDLE
 40
0.0
  9
$DIMEXE
 40
1.0
  9
$DIMTP
 40
0.1
  9
$DIMTM
 40
0.1
  9
$DIMTXT
 40
3.5
  9
$DIMCEN
 40
0.0
  9
$DIMTSZ
 40
0.0
  9
$DIMTOL
 70
     0
  9
$DIMLIM
 70
     0
  9
$DIMTIH
 70
     0
  9
$DIMTOH
 70
     0
  9
$DIMSE1
 70
     0
  9
$DIMSE2
 70
     0
  9
$DIMTAD
 70
     1
  9
$DIMZIN
 70
     8
  9
$DIMBLK
  1

  9
$DIMASO
 70
     1
  9
$DIMSHO
 70
     1
  9
$DIMPOST
  1

  9
$DIMAPOST
  1
"
  9
$DIMALT
 70
     0
  9
$DIMALTD
 70
     2
  9
$DIMALTF
 40
0.0393701
  9
$DIMLFAC
 40
1.0
  9
$DIMTOFL
 70
     1
  9
$DIMTVP
 40
0.0
  9
$DIMTIX
 70
     0
  9
$DIMSOXD
 70
     0
  9
$DIMSAH
 70
     0
  9
$DIMBLK1
  1

  9
$DIMBLK2
  1

  9
$DIMSTYLE
  2
AM_DIN
  9
$DIMCLRD
 70
   256
  9
$DIMCLRE
 70
   256
  9
$DIMCLRT
 70
     2
  9
$DIMTFAC
 40
0.71
  9
$DIMGAP
 40
1.5
  9
$DIMJUST
 70
     0
  9
$DIMSD1
 70
     0
  9
$DIMSD2
 70
     0
  9
$DIMTOLJ
 70
     0
  9
$DIMTZIN
 70
     8
  9
$DIMALTZ
 70
     0
  9
$DIMALTTZ
 70
     0
  9
$DIMUPT
 70
     0
  9
$DIMDEC
 70
     2
  9
$DIMTDEC
 70
     3
  9
$DIMALTU
 70
     2
  9
$DIMALTTD
 70
     4
  9
$DIMTXSTY
  7
STANDARD
  9
$DIMAUNIT
 70
     0
  9
$DIMADEC
 70
     0
  9
$DIMALTRND
 40
0.0
  9
$DIMAZIN
 70
     2
  9
$DIMDSEP
 70
    46
  9
$DIMATFIT
 70
     3
  9
$DIMFRAC
 70
     0
  9
$DIMLDRBLK
  1

  9
$DIMLUNIT
 70
     2
  9
$DIMLWD
 70
    -1
  9
$DIMLWE
 70
    -1
  9
$DIMTMOVE
 70
     0
  9
$LUNITS
 70
     2
  9
$LUPREC
 70
     2
  9
$SKETCHINC
 40
0.1
  9
$FILLETRAD
 40
0.0
  9
$AUNITS
 70
     0
  9
$AUPREC
 70
     0
  9
$MENU
  1
.
  9
$ELEVATION
 40
0.0
  9
$PELEVATION
 40
0.0
  9
$THICKNESS
 40
0.0
  9
$LIMCHECK
 70
     0
  9
$CHAMFERA
 40
0.0
  9
$CHAMFERB
 40
0.0
  9
$CHAMFERC
 40
1.0
  9
$CHAMFERD
 40
0.0
  9
$SKPOLY
 70
     0
  9
$TDCREATE
 40
2451554.447219456
  9
$TDUCREATE
 40
2451554.363886123
  9
$TDUPDATE
 40
2458312.302079467
  9
$TDUUPDATE
 40
2458312.218746134
  9
$TDINDWG
 40
1.2948410417
  9
$TDUSRTIMER
 40
1.2948409954
  9
$USRTIMER
 70
     1
  9
$ANGBASE
 50
0.0
  9
$ANGDIR
 70
     0
  9
$PDMODE
 70
     0
  9
$PDSIZE
 40
0.0
  9
$PLINEWID
 40
0.0
  9
$SPLFRAME
 70
     0
  9
$SPLINETYPE
 70
     6
  9
$SPLINESEGS
 70
     8
  9
$HANDSEED
  5
49F
  9
$SURFTAB1
 70
     6
  9
$SURFTAB2
 70
     6
  9
$SURFTYPE
 70
     6
  9
$SURFU
 70
     6
  9
$SURFV
 70
     6
  9
$UCSBASE
  2

  9
$UCSNAME
  2

  9
$UCSORG
 10
0.0
 20
0.0
 30
0.0
  9
$UCSXDIR
 10
1.0
 20
0.0
 30
0.0
  9
$UCSYDIR
 10
0.0
 20
1.0
 30
0.0
  9
$UCSORTHOREF
  2

  9
$UCSORTHOVIEW
 70
     0
  9
$UCSORGTOP
 10
0.0
 20
0.0
 30
0.0
  9
$UCSORGBOTTOM
 10
0.0
 20
0.0
 30
0.0
  9
$UCSORGLEFT
 10
0.0
 20
0.0
 30
0.0
  9
$UCSORGRIGHT
 10
0.0
 20
0.0
 30
0.0
  9
$UCSORGFRONT
 10
0.0
 20
0.0
 30
0.0
  9
$UCSORGBACK
 10
0.0
 20
0.0
 30
0.0
  9
$PUCSBASE
  2

  9
$PUCSNAME
  2

  9
$PUCSORG
 10
0.0
 20
0.0
 30
0.0
  9
$PUCSXDIR
 10
1.0
 20
0.0
 30
0.0
  9
$PUCSYDIR
 10
0.0
 20
1.0
 30
0.0
  9
$PUCSORTHOREF
  2

  9
$PUCSORTHOVIEW
 70
     0
  9
$PUCSORGTOP
 10
0.0
 20
0.0
 30
0.0
  9
$PUCSORGBOTTOM
 10
0.0
 20
0.0
 30
0.0
  9
$PUCSORGLEFT
 10
0.0
 20
0.0
 30
0.0
  9
$PUCSORGRIGHT
 10
0.0
 20
0.0
 30
0.0
  9
$PUCSORGFRONT
 10
0.0
 20
0.0
 30
0.0
  9
$PUCSORGBACK
 10
0.0
 20
0.0
 30
0.0
  9
$USERI1
 70
     0
  9
$USERI2
 70
     0
  9
$USERI3
 70
     0
  9
$USERI4
 70
     0
  9
$USERI5
 70
     0
  9
$USERR1
 40
0.0
  9
$USERR2
 40
0.0
  9
$USERR3
 40
0.0
  9
$USERR4
 40
0.0
  9
$USERR5
 40
0.0
  9
$WORLDVIEW
 70
     1
  9
$SHADEDGE
 70
     3
  9
$SHADEDIF
 70
    70
  9
$TILEMODE
 70
     1
  9
$MAXACTVP
 70
    48
  9
$PINSBASE
 10
0.0
 20
0.0
 30
0.0
  9
$PLIMCHECK
 70
     0
  9
$PEXTMIN
 10
1.000000000000000E+20
 20
1.000000000000000E+20
 30
1.000000000000000E+20
  9
$PEXTMAX
 10
-1.000000000000000E+20
 20
-1.000000000000000E+20
 30
-1.000000000000000E+20
  9
$PLIMMIN
 10
0.0
 20
0.0
  9
$PLIMMAX
 10
12.0
 20
9.0
  9
$UNITMODE
 70
     0
  9
$VISRETAIN
 70
     1
  9
$PLINEGEN
 70
     0
  9
$PSLTSCALE
 70
     1
  9
$TREEDEPTH
 70
  3020
  9
$CMLSTYLE
  2
STANDARD
  9
$CMLJUST
 70
     0
  9
$CMLSCALE
 40
1.0
  9
$PROXYGRAPHICS
 70
     1
  9
$MEASUREMENT
 70
     1
  9
$CELWEIGHT
370
    -1
  9
$ENDCAPS
280
     0
  9
$JOINSTYLE
280
     0
  9
$LWDISPLAY
290
     0
  9
$INSUNITS
 70
     0
  9
$HYPERLINKBASE
  1

  9
$STYLESHEET
  1

  9
$XEDIT
290
     1
  9
$CEPSNTYPE
380
     0
  9
$PSTYLEMODE
290
     1
  9
$FINGERPRINTGUID
  2
{51E1557B-3A99-4BDB-8039-72C48727E31E}
  9
$VERSIONGUID
  2
{D2117CB2-93D6-491D-AE5D-40AD47824085}
  9
$EXTNAMES
290
     1
  9
$PSVPSCALE
 40
0.0
  9
$OLESTARTUP
290
     0
  0
ENDSEC
  0
SECTION
  2
CLASSES
  0
CLASS
  1
ACDBDICTIONARYWDFLT
  2
AcDbDictionaryWithDefault
  3
ObjectDBX Classes
 90
        0
280
     0
281
     0
  0
CLASS
  1
ACME_DOCUMENT
  2
AcMeDbDoc
  3
AcMeServices
 90
     1024
280
     0
281
     0
  0
CLASS
  1
AMGSETTINGSOBJ
  2
AmgSettingsObj
  3
"AcadM|Product Description: AutoCAD Mechanical|Company: Autodesk, Inc."
 90
     1024
280
     0
281
     0
  0
CLASS
  1
ACMESCOPE
  2
AcMeScope
  3
AcMeServices
 90
     1024
280
     0
281
     0
  0
CLASS
  1
ACMECOMMANDHISTORY
  2
AcMeCommandHistory
  3
AcMeServices
 90
     1024
280
     0
281
     0
  0
CLASS
  1
ACIMSYSVARMAN
  2
AcImSysVarManager
  3
AcMeServices
 90
     1024
280
     0
281
     0
  0
CLASS
  1
ACIMREALSYSVAR
  2
AcImRealSysVar
  3
AcMeServices
 90
    33792
280
     0
281
     0
  0
CLASS
  1
ACIMINTSYSVAR
  2
AcImIntSysVar
  3
AcMeServices
 90
     1024
280
     0
281
     0
  0
CLASS
  1
ACMEDRAWINGMAN
  2
AcMeDrawingMan
  3
AcMeServices
 90
    33792
280
     0
281
     0
  0
CLASS
  1
ACMEVIEW
  2
AcMeView
  3
AcMeServices
 90
    33792
280
     0
281
     0
  0
CLASS
  1
ACDBENTITYCACHE
  2
AcMeEntityCache
  3
AcMeServices
 90
     1024
280
     0
281
     0
  0
CLASS
  1
GSMANAGER
  2
AcMeGSManager
  3
AcMeServices
 90
    32768
280
     0
281
     0
  0
CLASS
  1
AMDTINTERNALREACTOR
  2
AmdtInternalReactor
  3
AcMeServices
 90
    33792
280
     0
281
     0
  0
CLASS
  1
ACMESTATEMGR
  2
AcMeStateMgr
  3
AcMeServices
 90
     1024
280
     0
281
     0
  0
CLASS
  1
ACGREFMASTER
  2
AcGrefMaster
  3
AcAttribServices
 90
     1024
280
     0
281
     0
  0
CLASS
  1
ACME_DATABASE
  2
AcMeDbDatabase
  3
AcMeServices
 90
     1024
280
     0
281
     0
  0
CLASS
  1
ACRFINSADJUSTERMGR
  2
AcRfInsAdjusterMgr
  3
AcMeServices
 90
     1024
280
     0
281
     0
  0
CLASS
  1
ACGREFACADMASTER
  2
AcGrefacadMaster
  3
AcGrefServices
 90
     1024
280
     0
281
     0
  0
CLASS
  1
AMIMASTER
  2
AmiMaster
  3
AmiServices
 90
     1024
280
     0
281
     0
  0
CLASS
  1
ACMDATADICTIONARY
  2
AcmDataDictionary
  3
"AcmSymBB|Product Description: AutoCAD Mechanical|Company: Autodesk, Inc."
 90
     1024
280
     0
281
     0
  0
CLASS
  1
ACMDATAENTRYBLOCK
  2
AcmDataEntryBlock
  3
AcmSymBB|Product Description: AutoCAD Mechanical|Company: Autodesk, Inc.
 90
    33792
280
     0
281
     0
  0
CLASS
  1
ACIMSTRSYSVAR
  2
AcImStrSysVar
  3
AcMeServices
 90
     1024
280
     0
281
     0
  0
CLASS
  1
ACMSTANDARDDIN
  2
AcmStandardDIN
  3
"Amdt_StdImp|Product Description: AutoCAD Mechanical|Company: Autodesk, Inc."
 90
     1024
280
     0
281
     0
  0
CLASS
  1
AMGOBJPROPCFG
  2
AmgObjPropCfg
  3
"AmgLay|Product Description: AutoCAD Mechanical|Company: Autodesk, Inc."
 90
     1024
280
     0
281
     0
  0
CLASS
  1
AMDTEDGESTANDARDDIN
  2
AmdtEdgeStdDIN
  3
"Amdt_StdImp|Product Description: AutoCAD Mechanical|Company: Autodesk, Inc."
 90
    33792
280
     0
281
     0
  0
CLASS
  1
ACMSURFSTANDARDDIN
  2
AcmSurfTextStdDIN
  3
"Amdt_StdImp|Product Description: AutoCAD Mechanical|Company: Autodesk, Inc."
 90
    33792
280
     0
281
     0
  0
CLASS
  1
ACMFCFSTANDARDDIN
  2
AcmFCFStdDIN
  3
"Amdt_StdImp|Product Description: AutoCAD Mechanical|Company: Autodesk, Inc."
 90
    33792
280
     0
281
     0
  0
CLASS
  1
ACMWELDSTANDARDDIN
  2
AcmWeldingStdDIN
  3
"Amdt_StdImp|Product Description: AutoCAD Mechanical|Company: Autodesk, Inc."
 90
     1024
280
     0
281
     0
  0
CLASS
  1
ACMIDSTANDARDDIN
  2
AcmIdStdDIN
  3
"Amdt_StdImp|Product Description: AutoCAD Mechanical|Company: Autodesk, Inc."
 90
    33792
280
     0
281
     0
  0
CLASS
  1
ACMDATUMSTANDARDDIN
  2
AcmDatumStdDIN
  3
"Amdt_StdImp|Product Description: AutoCAD Mechanical|Company: Autodesk, Inc."
 90
     1024
280
     0
281
     0
  0
CLASS
  1
ACMBOMSTANDARDDIN
  2
AcmBOMStdDIN
  3
"Amdt_StdImp|Product Description: AutoCAD Mechanical|Company: Autodesk, Inc."
 90
     1024
280
     0
281
     0
  0
CLASS
  1
ACMDETAILSTANDARDDIN
  2
AmdtDetailSymStdDIN
  3
"Amdt_StdImp|Product Description: AutoCAD Mechanical|Company: Autodesk, Inc."
 90
     1024
280
     0
281
     0
  0
CLASS
  1
ACMSECTIONSTANDARDDIN
  2
AmdtSectionSymStdDIN
  3
"Amdt_StdImp|Product Description: AutoCAD Mechanical|Company: Autodesk, Inc."
 90
     1024
280
     0
281
     0
  0
CLASS
  1
ACMCENTERLINESTANDARDDIN
  2
AmdtCenterLineStdDIN
  3
"Amdt_StdImp|Product Description: AutoCAD Mechanical|Company: Autodesk, Inc."
 90
     1024
280
     0
281
     0
  0
CLASS
  1
ACMNOTESTANDARDDIN
  2
AmdtNoteStdDIN
  3
"Amdt_StdImp|Product Description: AutoCAD Mechanical|Company: Autodesk, Inc."
 90
     1024
280
     0
281
     0
  0
CLASS
  1
ACAMGLAYSTD
  2
AcAmgLayStd
  3
"AmgLay|Product Description: AutoCAD Mechanical|Company: Autodesk, Inc."
 90
     1024
280
     0
281
     0
  0
CLASS
  1
ACAMGDIMSTD
  2
AcAmgDimStd
  3
"AmgDim|Product Description: AutoCAD Mechanical|Company: Autodesk, Inc."
 90
     1024
280
     0
281
     0
  0
CLASS
  1
ACAMGHOLECHARTSTDDIN
  2
AcAmgHoleChartStdDIN
  3
AmgDim|Product Description: AutoCAD Mechanical|Company: Autodesk, Inc.
 90
     1024
280
     0
281
     0
  0
CLASS
  1
ACAMGTITLESTD
  2
AcAmgTitleStd
  3
"AmgTitle|Product Description: AutoCAD Mechanical|Company: Autodesk, Inc."
 90
     1024
280
     0
281
     0
  0
CLASS
  1
ACAMGFILTERDAT
  2
AcAmgFilterDat
  3
"AcadM|Product Description: AutoCAD Mechanical|Company: Autodesk, Inc."
 90
     1024
280
     0
281
     0
  0
CLASS
  1
LAYER_INDEX
  2
AcDbLayerIndex
  3
ObjectDBX Classes
 90
    32768
280
     0
281
     0
  0
CLASS
  1
IDBUFFER
  2
AcDbIdBuffer
  3
ObjectDBX Classes
 90
    32768
280
     0
281
     0
  0
CLASS
  1
DICTIONARYVAR
  2
AcDbDictionaryVar
  3
ObjectDBX Classes
 90
        0
280
     0
281
     0
  0
CLASS
  1
ACMDIMBREAKPERSREACTOR
  2
AcmDimBreakPersReactor
  3
AmgDim|Product Description: AutoCAD Mechanical|Company: Autodesk, Inc.
 90
    33792
280
     0
281
     0
  0
CLASS
  1
AMDTNOTE
  2
AmdtNote
  3
"AcmSymBB|Product Description: AutoCAD Mechanical|Company: Autodesk, Inc."
 90
    33792
280
     0
281
     1
  0
CLASS
  1
AMDTFORMULAUPDATEDISPATCHER
  2
AmdtFormulaUpdateDispatcher
  3
AcMeServices
 90
    33792
280
     0
281
     0
  0
CLASS
  1
PLOTSETTINGS
  2
AcDbPlotSettings
  3
ObjectDBX Classes
 90
    32768
280
     0
281
     0
  0
CLASS
  1
TABLESTYLE
  2
AcDbTableStyle
  3
ObjectDBX Classes
 90
     4095
280
     0
281
     0
  0
CLASS
  1
AM_DRAWING_MGR
  2
AcDmDwgMgr
  3
AcMechDwgViewMgmt
 90
    33792
280
     0
281
     0
  0
CLASS
  1
AM_DWG_DOCUMENT
  2
AcDmDwgDocument
  3
AcMechDwgViewMgmt
 90
    33792
280
     0
281
     0
  0
CLASS
  1
AM_DWG_SHEET
  2
AcDmSheet
  3
AcMechDwgViewMgmt
 90
    33792
280
     0
281
     0
  0
CLASS
  1
AM_VIEWDIMPARMAP
  2
AcDmViewDimParMap
  3
AcMechDwgViewMgmt
 90
    33792
280
     0
281
     0
  0
CLASS
  1
AM_DWGMGR_NAME
  2
AcDmDwgMgrName
  3
AcMechDwgViewMgmt
 90
    33792
280
     0
281
     0
  0
CLASS
  1
AMDTMENUSTATEMGR
  2
AmdtMenuStateMgr
  3
McadcomServices
 90
     1024
280
     0
281
     0
  0
CLASS
  1
AMDTMCOMMENUSTATE
  2
AmdtMcomMenuState
  3
McadcomServices
 90
     1024
280
     0
281
     0
  0
CLASS
  1
MAPIAMMOUDLE
  2
MApiAmModule
  3
MApiAmServices
 90
     1024
280
     0
281
     0
  0
CLASS
  1
AMDTADMENUSTATE
  2
AmdtAdMenuState
  3
DesignerServices
 90
    32768
280
     0
281
     0
  0
CLASS
  1
ADAPPL
  2
AcAdAppl
  3
DesignerAssemblies
 90
    33792
280
     0
281
     0
  0
CLASS
  1
DEPMGR
  2
AcAdDepMgr
  3
DesignerAssemblies
 90
    33792
280
     0
281
     0
  0
CLASS
  1
PARAMMGR
  2
AcAdParamMgr
  3
DesignerAssemblies
 90
    33792
280
     0
281
     0
  0
CLASS
  1
PARAMSCOPE
  2
AcAdParamScope
  3
DesignerAssemblies
 90
    33792
280
     0
281
     0
  0
CLASS
  1
NAMEDAPPL
  2
AcAdNamedAppl
  3
DesignerAssemblies
 90
    33792
280
     0
281
     0
  0
CLASS
  1
AMDTDMMENUSTATE
  2
AmdtDmMenuState
  3
AcMechDwgViewMgmt
 90
    32768
280
     0
281
     0
  0
CLASS
  1
AMDTAMMENUSTATE
  2
AmdtAmMenuState
  3
DesignerAssemblies
 90
     1024
280
     0
281
     0
  0
CLASS
  1
ACAMPROJECT
  2
AcAmProject
  3
DesignerAssemblies
 90
     1024
280
     0
281
     0
  0
CLASS
  1
ACAMGRCOMPDEF
  2
AcAmGrCompDef
  3
DesignerAssemblies
 90
     1024
280
     0
281
     0
  0
CLASS
  1
ACCMCONTEXT
  2
AcCmContext
  3
DesignerAssemblies
 90
    33792
280
     0
281
     0
  0
CLASS
  1
ACAMCOMPDEF
  2
AcAmCompDef
  3
DesignerAssemblies
 90
     1024
280
     0
281
     0
  0
CLASS
  1
ACAMCOMPDEFMGR
  2
AcAmCompDefMgr
  3
DesignerAssemblies
 90
     1024
280
     0
281
     0
  0
CLASS
  1
AMCONTEXTMGR
  2
AcAmContextMgr
  3
DesignerAssemblies
 90
     1024
280
     0
281
     0
  0
CLASS
  1
ACAMCONTEXTMODELER
  2
AcAmContextModeler
  3
DesignerAssemblies
 90
     1024
280
     0
281
     0
  0
CLASS
  1
ACRFATTGENMGR
  2
AcRfAttGeneralMgr
  3
AcAttribServices
 90
    33792
280
     0
281
     0
  0
CLASS
  1
ACRFOBJATTMGR
  2
AcRfObjAttGroupMgr
  3
AcAttribServices
 90
    33792
280
     0
281
     0
  0
CLASS
  1
ACRFMCADAPIATTHOLDER
  2
AcRfMCADAPIAttHolder
  3
AcAttribServices
 90
    33792
280
     0
281
     0
  0
CLASS
  1
AMDTSYSATTR
  2
AmdtSystemAttribute
  3
AcAttribServices
 90
    33792
280
     0
281
     0
  0
CLASS
  1
ACMTHREADLINESTANDARDDIN
  2
AmdtThreadLineStdDIN
  3
"Amdt_StdImp|Product Description: AutoCAD Mechanical|Company: Autodesk, Inc."
 90
     1024
280
     0
281
     0
  0
CLASS
  1
CATALOGSTATE
  2
AcAmCatalogState
  3
DesignerAssemblies
 90
    33792
280
     0
281
     0
  0
CLASS
  1
ACAMGRCOMPDEFSET
  2
AcAmGrCompDefSet
  3
DesignerAssemblies
 90
     1024
280
     0
281
     0
  0
CLASS
  1
AMDTBROWSERDBTAB
  2
AmdtBrowserDbTab
  3
McadcomServices
 90
     1024
280
     0
281
     0
  0
CLASS
  1
CBROWSERAPPOBJECT
  2
CBrowserAppObject
  3
McadcomServices
 90
     1024
280
     0
281
     0
  0
CLASS
  1
DM_PLACEHOLDER
  2
AcDmSelsetPlaceholder
  3
McadcomServices
 90
     1024
280
     0
281
     0
  0
CLASS
  1
SORTENTSTABLE
  2
AcDbSortentsTable
  3
ObjectDBX Classes
 90
        0
280
     0
281
     0
  0
CLASS
  1
MATERIAL
  2
AcDbMaterial
  3
ObjectDBX Classes
 90
     1153
280
     0
281
     0
  0
CLASS
  1
VISUALSTYLE
  2
AcDbVisualStyle
  3
ObjectDBX Classes
 90
     4095
280
     0
281
     0
  0
CLASS
  1
SCALE
  2
AcDbScale
  3
ObjectDBX Classes
 90
     1153
280
     0
281
     0
  0
CLASS
  1
MLEADERSTYLE
  2
AcDbMLeaderStyle
  3
ACDB_MLEADERSTYLE_CLASS
 90
     4095
280
     0
281
     0
  0
CLASS
  1
ACDBSECTIONVIEWSTYLE
  2
AcDbSectionViewStyle
  3
ObjectDBX Classes
 90
     1025
280
     0
281
     0
  0
CLASS
  1
ACDBDETAILVIEWSTYLE
  2
AcDbDetailViewStyle
  3
ObjectDBX Classes
 90
     1025
280
     0
281
     0
  0
CLASS
  1
AMDTEDGESTANDARDDIN13715
  2
AmdtEdgeStdDIN13715
  3
"Amdt_StdImp|Product Description: AutoCAD Mechanical|Company: Autodesk, Inc."
 90
     1024
280
     0
281
     0
  0
CLASS
  1
ACMSURFSTANDARDDIN2002
  2
AcmSurfTextStdDIN2002
  3
"Amdt_StdImp|Product Description: AutoCAD Mechanical|Company: Autodesk, Inc."
 90
     1024
280
     0
281
     0
  0
CLASS
  1
ACMFCFSTANDARDDIN2008
  2
AcmFCFStdDIN2008
  3
"Amdt_StdImp|Product Description: AutoCAD Mechanical|Company: Autodesk, Inc."
 90
     1024
280
     0
281
     0
  0
CLASS
  1
ACMIDSTANDARDDIN2008
  2
AcmIdStdDIN2008
  3
"Amdt_StdImp|Product Description: AutoCAD Mechanical|Company: Autodesk, Inc."
 90
     1024
280
     0
281
     0
  0
CLASS
  1
ACMTAPERSTANDARDDIN
  2
AcmTaperStdDIN
  3
"Amdt_StdImp|Product Description: AutoCAD Mechanical|Company: Autodesk, Inc."
 90
     1024
280
     0
281
     0
  0
CLASS
  1
ACMANOOTATIONVIEWSTANDARDDIN
  2
AmdtAnViewStdDIN
  3
"Amdt_StdImp|Product Description: AutoCAD Mechanical|Company: Autodesk, Inc."
 90
     1024
280
     0
281
     0
  0
CLASS
  1
ACMSECTIONSTANDARDCUSTOM
  2
AmdtSectionSymStdCustom
  3
"Amdt_StdImp|Product Description: AutoCAD Mechanical|Company: Autodesk, Inc."
 90
     1024
280
     0
281
     0
  0
CLASS
  1
ACMDETAILTANDARDCUSTOM
  2
AmdtDetailSymStdCustom
  3
"Amdt_StdImp|Product Description: AutoCAD Mechanical|Company: Autodesk, Inc."
 90
     1024
280
     0
281
     0
  0
CLASS
  1
FIELD
  2
AcDbField
  3
ObjectDBX Classes
 90
     1152
280
     0
281
     0
  0
CLASS
  1
FIELDLIST
  2
AcDbFieldList
  3
ObjectDBX Classes
 90
     1152
280
     0
281
     0
  0
CLASS
  1
AMDTNOTETEMPLATEDB
  2
AmdtNoteTemplateDB
  3
AcmSymBB|Product Description: AutoCAD Mechanical|Company: Autodesk, Inc.
 90
     1024
280
     0
281
     0
  0
CLASS
  1
CELLSTYLEMAP
  2
AcDbCellStyleMap
  3
ObjectDBX Classes
 90
     1152
280
     0
281
     0
  0
CLASS
  1
ACDBPLACEHOLDER
  2
AcDbPlaceHolder
  3
ObjectDBX Classes
 90
        0
280
     0
281
     0
  0
CLASS
  1
LAYOUT
  2
AcDbLayout
  3
ObjectDBX Classes
 90
        0
280
     0
281
     0
  0
ENDSEC
  0
SECTION
  2
TABLES
  0
TABLE
  2
VPORT
  5
1D
330
0
100
AcDbSymbolTable
 70
     1
  0
VPORT
  5
1E
330
1D
100
AcDbSymbolTableRecord
100
AcDbViewportTableRecord
  2
*Active
 70
     0
 10
0.0
 20
0.0
 11
1.0
 21
1.0
 12
727.8440494715185
 22
304.8936613526871
 13
0.0
 23
0.0
 14
10.0
 24
10.0
 15
10.0
 25
10.0
 16
0.0
 26
0.0
 36
1.0
 17
0.0
 27
0.0
 37
0.0
 40
342.7628969644949
 41
1.896698615548455
 42
50.0
 43
0.0
 44
0.0
 50
0.0
 51
0.0
 71
     0
 72
  5000
 73
     1
 74
     0
 75
     0
 76
     0
 77
     0
 78
     0
281
     0
 65
     0
110
0.0
120
0.0
130
0.0
111
1.0
121
0.0
131
0.0
112
0.0
122
1.0
132
0.0
 79
     0
146
0.0
1001
ACAD_NAV_VCDISPLAY
1070
     3
  0
ENDTAB
  0
TABLE
  2
LTYPE
  5
18
330
0
100
AcDbSymbolTable
 70
    26
  0
LTYPE
  5
19
330
18
100
AcDbSymbolTableRecord
100
AcDbLinetypeTableRecord
  2
BYBLOCK
 70
     0
  3

 72
    65
 73
     0
 40
0.0
  0
LTYPE
  5
1A
330
18
100
AcDbSymbolTableRecord
100
AcDbLinetypeTableRecord
  2
BYLAYER
 70
     0
  3

 72
    65
 73
     0
 40
0.0
  0
LTYPE
  5
A
330
18
100
AcDbSymbolTableRecord
100
AcDbLinetypeTableRecord
  2
CONTINUOUS
 70
     0
  3
Solid line
 72
    65
 73
     0
 40
0.0
  0
LTYPE
  5
6C
330
18
100
AcDbSymbolTableRecord
100
AcDbLinetypeTableRecord
  2
STRICHPUNKT2
 70
     0
  3
Strichpunkt (.5x) _._._._._._._._._._._._._._._
 72
    65
 73
     4
 40
12.7
 49
6.349999999999998
 74
     0
 49
-3.174999999999998
 74
     0
 49
0.0
 74
     0
 49
-3.174999999999998
 74
     0
  0
LTYPE
  5
2E2
330
18
100
AcDbSymbolTableRecord
100
AcDbLinetypeTableRecord
  2
AM_ISO02W050
 70
     0
  3
__ __ __ __ __ __ __ __ __ __ __ __ __ __ __
 72
    65
 73
     2
 40
7.5
 49
6.0
 74
     0
 49
-1.5
 74
     0
  0
LTYPE
  5
2F4
330
18
100
AcDbSymbolTableRecord
100
AcDbLinetypeTableRecord
  2
ACDINWELD
 70
     0
  3
_ _ _ _ _
 72
    65
 73
     2
 40
2.0
 49
2.0
 74
     0
 49
-1.0
 74
     0
  0
LTYPE
  5
2F7
330
18
100
AcDbSymbolTableRecord
100
AcDbLinetypeTableRecord
  2
ACDINTGB
 70
     0
  3
__ . . __ . .
 72
    65
 73
     6
 40
9.0
 49
4.0
 74
     0
 49
-1.0
 74
     0
 49
1.0
 74
     0
 49
-1.0
 74
     0
 49
1.0
 74
     0
 49
-1.0
 74
     0
  0
LTYPE
  5
2F8
330
18
100
AcDbSymbolTableRecord
100
AcDbLinetypeTableRecord
  2
ACDINTGL
 70
     0
  3
_ _ _ _ _
 72
    65
 73
     2
 40
3.0
 49
2.0
 74
     0
 49
-1.0
 74
     0
  0
LTYPE
  5
2FC
330
18
100
AcDbSymbolTableRecord
100
AcDbLinetypeTableRecord
  2
CENTER
 70
     0
  3
__ . __
 72
    65
 73
     4
 40
7.0
 49
4.0
 74
     0
 49
-1.0
 74
     0
 49
1.0
 74
     0
 49
-1.0
 74
     0
  0
LTYPE
  5
2DD
330
18
100
AcDbSymbolTableRecord
100
AcDbLinetypeTableRecord
  2
gen3
 70
     0
  3
-- -- -- -- -- -- -- -- -- -- -- -- -- -- --
 72
    65
 73
     2
 40
6.25
 49
4.75
 74
     0
 49
-1.5
 74
     0
  0
LTYPE
  5
2DE
330
18
100
AcDbSymbolTableRecord
100
AcDbLinetypeTableRecord
  2
gen7
 70
     0
  3
____ . ____ . ____ . ____ . ____ . ____ . ____
 72
    65
 73
     4
 40
13.75
 49
9.75
 74
     0
 49
-1.5
 74
     0
 49
1.0
 74
     0
 49
-1.5
 74
     0
  0
LTYPE
  5
2DF
330
18
100
AcDbSymbolTableRecord
100
AcDbLinetypeTableRecord
  2
gen3a
 70
     0
  3
 - - - - -
 72
    65
 73
     2
 40
3.125
 49
2.25
 74
     0
 49
-0.875
 74
     0
  0
LTYPE
  5
2E0
330
18
100
AcDbSymbolTableRecord
100
AcDbLinetypeTableRecord
  2
gen7a
 70
     0
  3
__ . __ . __
 72
    65
 73
     4
 40
6.875
 49
4.75
 74
     0
 49
-0.875
 74
     0
 49
0.375
 74
     0
 49
-0.875
 74
     0
  0
LTYPE
  5
2E1
330
18
100
AcDbSymbolTableRecord
100
AcDbLinetypeTableRecord
  2
gen4a
 70
     0
  3
_____ . . _____ . . _____ . . ____ .. ____
 72
    65
 73
     6
 40
16.25
 49
9.75
 74
     0
 49
-1.5
 74
     0
 49
1.0
 74
     0
 49
-1.5
 74
     0
 49
1.0
 74
     0
 49
-1.5
 74
     0
  0
LTYPE
  5
2E3
330
18
100
AcDbSymbolTableRecord
100
AcDbLinetypeTableRecord
  2
genzigzag
 70
     0
  3
/\/-/\/-/\/-/\/-/\/-/\/
 72
    65
 73
     2
 40
12.0001
 49
0.0001
 74
     4
 75
   135
340
2E4
 46
2.0
 50
0.0
 44
0.0
 45
0.0
 49
-12.0
 74
     0
  0
LTYPE
  5
32A
330
18
100
AcDbSymbolTableRecord
100
AcDbLinetypeTableRecord
  2
HIDDEN
 70
     0
  3
Verdeckt
 72
    65
 73
     2
 40
9.525
 49
6.349999999999998
 74
     0
 49
-3.174999999999998
 74
     0
  0
LTYPE
  5
32B
330
18
100
AcDbSymbolTableRecord
100
AcDbLinetypeTableRecord
  2
PHANTOM2
 70
     0
  3
Phantom (.5x) ___ _ _ ___ _ _ ___ _ _ ___ _ _
 72
    65
 73
     6
 40
31.75
 49
15.875
 74
     0
 49
-3.174999999999998
 74
     0
 49
3.174999999999998
 74
     0
 49
-3.174999999999998
 74
     0
 49
3.174999999999998
 74
     0
 49
-3.174999999999998
 74
     0
  0
LTYPE
  5
3C5
330
18
100
AcDbSymbolTableRecord
100
AcDbLinetypeTableRecord
  2
AM_ISO08W050
 70
     0
  3
____ . ____ . ____ . ____ . ____ . ____ . ____
 72
    65
 73
     4
 40
18.0
 49
12.0
 74
     0
 49
-1.5
 74
     0
 49
3.0
 74
     0
 49
-1.5
 74
     0
  0
LTYPE
  5
3C6
330
18
100
AcDbSymbolTableRecord
100
AcDbLinetypeTableRecord
  2
AM_ISO09W050
 70
     0
  3
_____ . . _____ . . _____ . . ____ .. ____
 72
    65
 73
     6
 40
22.5
 49
12.0
 74
     0
 49
-1.5
 74
     0
 49
3.0
 74
     0
 49
-1.5
 74
     0
 49
3.0
 74
     0
 49
-1.5
 74
     0
  0
LTYPE
  5
3C7
330
18
100
AcDbSymbolTableRecord
100
AcDbLinetypeTableRecord
  2
Amconstr
 70
     0
  3
_______________________
 72
    65
 73
     2
 40
9999.0
 49
9999.0
 74
     0
 49
0.0
 74
     0
  0
LTYPE
  5
3C8
330
18
100
AcDbSymbolTableRecord
100
AcDbLinetypeTableRecord
  2
AM_ISO08W050x2
 70
     0
  3
__ . __ . __ . __ . __ . __
 72
    65
 73
     4
 40
9.0
 49
6.0
 74
     0
 49
-0.75
 74
     0
 49
1.5
 74
     0
 49
-0.75
 74
     0
  0
LTYPE
  5
3C9
330
18
100
AcDbSymbolTableRecord
100
AcDbLinetypeTableRecord
  2
AM_ISO02W050x2
 70
     0
  3
 _ _ _ _ _ _ _ _ _ _ _ _
 72
    65
 73
     2
 40
3.75
 49
3.0
 74
     0
 49
-0.75
 74
     0
  0
LTYPE
  5
3CA
330
18
100
AcDbSymbolTableRecord
100
AcDbLinetypeTableRecord
  2
Amzigzag
 70
     0
  3
/\/-/\/-/\/-/\/-/\/-/\/
 72
    65
 73
     2
 40
11.0001
 49
0.0001
 74
     4
 75
   136
340
2E4
 46
0.04
 50
0.0
 44
0.0
 45
0.0
 49
-11.0
 74
     0
  0
LTYPE
  5
3CB
330
18
100
AcDbSymbolTableRecord
100
AcDbLinetypeTableRecord
  2
AM_DIN_F_W050
 70
     0
  3
__ __ __ __ __ __ __ __ __ __ __ __ __ __ __
 72
    65
 73
     2
 40
6.25
 49
4.75
 74
     0
 49
-1.5
 74
     0
  0
LTYPE
  5
3CC
330
18
100
AcDbSymbolTableRecord
100
AcDbLinetypeTableRecord
  2
AM_DIN_G_W050
 70
     0
  3
____ . ____ . ____ . ____ . ____ . ____ . ____
 72
    65
 73
     4
 40
13.75
 49
9.75
 74
     0
 49
-1.5
 74
     0
 49
1.0
 74
     0
 49
-1.5
 74
     0
  0
LTYPE
  5
3CD
330
18
100
AcDbSymbolTableRecord
100
AcDbLinetypeTableRecord
  2
AM_DIN_K_W050
 70
     0
  3
_____ . . _____ . . _____ . . ____ .. ____
 72
    65
 73
     6
 40
16.25
 49
9.75
 74
     0
 49
-1.5
 74
     0
 49
1.0
 74
     0
 49
-1.5
 74
     0
 49
1.0
 74
     0
 49
-1.5
 74
     0
  0
LTYPE
  5
3CE
330
18
100
AcDbSymbolTableRecord
100
AcDbLinetypeTableRecord
  2
AM_DIN_G_W050x2
 70
     0
  3
__ . __ . __ . __ . __ . __
 72
    65
 73
     4
 40
6.875
 49
4.75
 74
     0
 49
-0.875
 74
     0
 49
0.375
 74
     0
 49
-0.875
 74
     0
  0
LTYPE
  5
3CF
330
18
100
AcDbSymbolTableRecord
100
AcDbLinetypeTableRecord
  2
AM_DIN_F_W050x2
 70
     0
  3
 _ _ _ _ _ _ _ _ _ _ _ _
 72
    65
 73
     2
 40
3.125
 49
2.25
 74
     0
 49
-0.875
 74
     0
  0
ENDTAB
  0
TABLE
  2
LAYER
  5
12
102
{ACAD_XDICTIONARY
360
13
102
}
330
0
100
AcDbSymbolTable
 70
     8
  0
LAYER
  5
6
102
{ACAD_XDICTIONARY
360
43E
102
}
330
12
100
AcDbSymbolTableRecord
100
AcDbLayerTableRecord
  2
0
 70
     0
 62
     7
  6
CONTINUOUS
370
    -3
390
7
  0
LAYER
  5
58
102
{ACAD_XDICTIONARY
360
440
102
}
330
12
100
AcDbSymbolTableRecord
100
AcDbLayerTableRecord
  2
UMRISS03
 70
     0
 62
     3
  6
CONTINUOUS
370
    -3
390
7
  0
LAYER
  5
44
102
{ACAD_XDICTIONARY
360
442
102
}
330
12
100
AcDbSymbolTableRecord
100
AcDbLayerTableRecord
  2
UMRISS05
 70
     0
 62
     4
  6
CONTINUOUS
370
    -3
390
7
  0
LAYER
  5
2F
102
{ACAD_XDICTIONARY
360
444
102
}
330
12
100
AcDbSymbolTableRecord
100
AcDbLayerTableRecord
  2
UMRISS07
 70
     0
 62
     6
  6
CONTINUOUS
370
    -3
390
7
  0
LAYER
  5
33
102
{ACAD_XDICTIONARY
360
446
102
}
330
12
100
AcDbSymbolTableRecord
100
AcDbLayerTableRecord
  2
BEMASSUNG
 70
     0
 62
     2
  6
CONTINUOUS
370
    -3
390
7
  0
LAYER
  5
6B
102
{ACAD_XDICTIONARY
360
448
102
}
330
12
100
AcDbSymbolTableRecord
100
AcDbLayerTableRecord
  2
ACHSEN
 70
     0
 62
     1
  6
STRICHPUNKT2
370
    -3
390
7
  0
LAYER
  5
3F
330
12
100
AcDbSymbolTableRecord
100
AcDbLayerTableRecord
  2
DEFPOINTS
 70
     0
 62
     7
  6
CONTINUOUS
290
     0
370
    -3
390
7
  0
LAYER
  5
9D
102
{ACAD_XDICTIONARY
360
44A
102
}
330
12
100
AcDbSymbolTableRecord
100
AcDbLayerTableRecord
  2
1855
 70
     0
 62
     4
  6
CONTINUOUS
370
    -3
390
7
  0
ENDTAB
  0
TABLE
  2
STYLE
  5
15
330
0
100
AcDbSymbolTable
 70
     7
  0
STYLE
  5
16
330
15
100
AcDbSymbolTableRecord
100
AcDbTextStyleTableRecord
  2
STANDARD
 70
     0
 40
0.0
 41
1.0
 50
0.0
 71
     0
 42
10.0
  3
txt
  4

  0
STYLE
  5
27
330
15
100
AcDbSymbolTableRecord
100
AcDbTextStyleTableRecord
  2
ARIAL-STANDARD
 70
     0
 40
0.0
 41
1.0
 50
0.0
 71
     0
 42
3.5
  3
ARIAL.TTF
  4

1001
ACAD
1000
Arial
1071
       34
  0
STYLE
  5
23
330
15
100
AcDbSymbolTableRecord
100
AcDbTextStyleTableRecord
  2
NORM
 70
     0
 40
0.0
 41
1.0
 50
0.0
 71
     0
 42
2.399999999999999
  3
SIMPLEX
  4

  0
STYLE
  5
25
330
15
100
AcDbSymbolTableRecord
100
AcDbTextStyleTableRecord
  2
WMF
 70
     0
 40
0.0
 41
1.0
 50
0.0
 71
     0
 42
6.5
  3
ARIAL.TTF
  4

1001
ACAD
1000
Arial
1071
       34
  0
STYLE
  5
2EE
330
15
100
AcDbSymbolTableRecord
100
AcDbTextStyleTableRecord
  2
ACDINTS
 70
     0
 40
1.0
 41
1.0
 50
0.0
 71
     0
 42
3.5
  3
isocp.shx
  4

  0
STYLE
  5
2F2
330
15
100
AcDbSymbolTableRecord
100
AcDbTextStyleTableRecord
  2
ACDINGDT
 70
     0
 40
0.0
 41
1.0
 50
0.0
 71
     0
 42
3.5
  3
amgdt.shx
  4

  0
STYLE
  5
2E4
330
15
100
AcDbSymbolTableRecord
100
AcDbTextStyleTableRecord
  2

 70
     1
 40
0.0
 41
1.0
 50
0.0
 71
     0
 42
3.5
  3
genltshp.shx
  4

  0
ENDTAB
  0
TABLE
  2
VIEW
  5
1B
330
0
100
AcDbSymbolTable
 70
     0
  0
ENDTAB
  0
TABLE
  2
UCS
  5
1C
330
0
100
AcDbSymbolTable
 70
     0
  0
ENDTAB
  0
TABLE
  2
APPID
  5
1F
330
0
100
AcDbSymbolTable
 70
    15
  0
APPID
  5
20
330
1F
100
AcDbSymbolTableRecord
100
AcDbRegAppTableRecord
  2
ACAD
 70
     0
  0
APPID
  5
386
330
1F
100
AcDbSymbolTableRecord
100
AcDbRegAppTableRecord
  2
MCAD_NO_VIS
 70
     0
  0
APPID
  5
387
330
1F
100
AcDbSymbolTableRecord
100
AcDbRegAppTableRecord
  2
ACAD_TEMP_GRAPHIC
 70
     0
  0
APPID
  5
391
330
1F
100
AcDbSymbolTableRecord
100
AcDbRegAppTableRecord
  2
ACATTRIBSERVICES
 70
     0
  0
APPID
  5
3A9
330
1F
100
AcDbSymbolTableRecord
100
AcDbRegAppTableRecord
  2
DESIGNERASSEMBLIES
 70
     0
  0
APPID
  5
3C2
330
1F
100
AcDbSymbolTableRecord
100
AcDbRegAppTableRecord
  2
ACAD_DSTYLE_DIMJAG
 70
     0
  0
APPID
  5
3C3
330
1F
100
AcDbSymbolTableRecord
100
AcDbRegAppTableRecord
  2
ACAD_DSTYLE_DIMBREAK
 70
     0
  0
APPID
  5
3F6
330
1F
100
AcDbSymbolTableRecord
100
AcDbRegAppTableRecord
  2
ACAD_NAV_VCDISPLAY
 70
     0
  0
APPID
  5
418
330
1F
100
AcDbSymbolTableRecord
100
AcDbRegAppTableRecord
  2
GENIUS_GENDTOL_13
 70
     0
  0
APPID
  5
419
330
1F
100
AcDbSymbolTableRecord
100
AcDbRegAppTableRecord
  2
ACAD_DSTYLE_DIMINSPECT
 70
     0
  0
APPID
  5
496
330
1F
100
AcDbSymbolTableRecord
100
AcDbRegAppTableRecord
  2
ACAD_MLEADERVER
 70
     0
  0
APPID
  5
49B
330
1F
100
AcDbSymbolTableRecord
100
AcDbRegAppTableRecord
  2
ACAD_DSTYLE_DIMJOGGED_JOGANGLE_SYMBOL
 70
     0
  0
APPID
  5
49C
330
1F
100
AcDbSymbolTableRecord
100
AcDbRegAppTableRecord
  2
ACAD_DSTYLE_DIM_LINETYPE
 70
     0
  0
APPID
  5
49D
330
1F
100
AcDbSymbolTableRecord
100
AcDbRegAppTableRecord
  2
ACAD_DSTYLE_DIM_EXT1_LINETYPE
 70
     0
  0
APPID
  5
49E
330
1F
100
AcDbSymbolTableRecord
100
AcDbRegAppTableRecord
  2
ACAD_DSTYLE_DIM_EXT2_LINETYPE
 70
     0
  0
ENDTAB
  0
TABLE
  2
DIMSTYLE
  5
21
330
0
100
AcDbSymbolTable
 70
    10
100
AcDbDimStyleTable
 71
     4
340
22
340
3C1
340
24
340
26
  0
DIMSTYLE
105
26
330
21
100
AcDbSymbolTableRecord
100
AcDbDimStyleTableRecord
  2
NORMAL
 70
     0
 41
3.5
 42
0.0
 43
8.0
 44
0.5
 73
     0
 74
     0
 77
     1
 78
     8
140
3.5
141
1.5
146
0.5
147
1.0
172
     1
174
     1
176
   256
177
   256
178
     3
271
     2
272
     2
279
     2
284
     8
340
27
  0
DIMSTYLE
105
24
330
21
100
AcDbSymbolTableRecord
100
AcDbDimStyleTableRecord
  2
WMF
 70
     0
 40
1.9
 41
2.799999999999998
 42
1.0
 43
0.0
 44
1.0
 73
     0
 74
     0
 77
     1
 78
     8
140
3.399999999999999
141
1.5
146
0.5
147
1.0
172
     1
174
     1
176
   256
177
   256
178
   256
271
     2
272
     2
279
     2
284
     8
285
     8
286
     8
340
25
  0
DIMSTYLE
105
22
102
{ACAD_REACTORS
330
2AB
330
29E
330
291
330
284
330
277
330
265
330
254
330
245
330
22E
330
220
330
20F
330
1FD
330
1E8
330
1D8
330
1C5
330
1B5
330
171
330
160
330
151
330
142
330
135
330
110
330
FF
330
F0
330
E1
330
D4
330
C4
330
B7
330
A5
330
75
330
5B
330
32
330
3FE
330
40B
102
}
330
21
100
AcDbSymbolTableRecord
100
AcDbDimStyleTableRecord
  2
PROSPEKT
 70
     0
 40
1.6
 41
3.5
 42
0.5
 43
0.0
 44
0.5
 73
     0
 74
     0
 77
     1
 78
     8
140
3.5
141
1.5
147
1.0
172
     1
174
     1
176
   256
177
   256
178
     3
271
     2
272
     2
279
     2
284
     8
340
23
  0
DIMSTYLE
105
3C1
102
{ACAD_REACTORS
330
3B0
102
}
330
21
100
AcDbSymbolTableRecord
100
AcDbDimStyleTableRecord
  2
AM_DIN
 70
     0
  4
"
 41
3.5
 42
1.0
 43
10.0
 44
1.0
 47
0.1
 48
0.1
 73
     0
 74
     0
 77
     1
 78
     8
 79
     2
140
3.5
141
0.0
143
0.0393701
146
0.71
147
1.5
172
     1
176
   256
177
   256
178
     2
271
     2
272
     3
274
     4
283
     0
284
     8
340
16
371
    -1
372
    -1
1001
ACAD_DSTYLE_DIMJAG
1070
   388
1040
1.5
1001
ACAD_DSTYLE_DIMBREAK
1070
   391
1040
3.75
1001
ACAD_DSTYLE_DIMJOGGED_JOGANGLE_SYMBOL
1070
   384
1040
1.570796326794896
1001
ACAD_DSTYLE_DIM_LINETYPE
1070
   380
1005
19
1001
ACAD_DSTYLE_DIM_EXT1_LINETYPE
1070
   381
1005
19
1001
ACAD_DSTYLE_DIM_EXT2_LINETYPE
1070
   382
1005
19
  0
DIMSTYLE
105
3D0
330
21
100
AcDbSymbolTableRecord
100
AcDbDimStyleTableRecord
  2
AM_DIN$3
 70
     0
  4
"
 41
3.5
 42
1.0
 43
10.0
 44
1.0
 47
0.1
 48
0.1
 73
     0
 77
     1
 78
     8
 79
     2
140
3.5
141
0.0
143
0.0393701
146
0.71
147
1.5
176
   256
177
   256
178
     2
271
     2
272
     3
274
     4
283
     0
284
     8
288
     1
289
     0
340
16
371
    -1
372
    -1
1001
ACAD_DSTYLE_DIMBREAK
1070
   391
1040
3.75
1001
ACAD_DSTYLE_DIMJAG
1070
   388
1040
1.5
1001
ACAD_DSTYLE_DIMJOGGED_JOGANGLE_SYMBOL
1070
   384
1040
1.570796326794896
1001
ACAD_DSTYLE_DIM_LINETYPE
1070
   380
1005
19
1001
ACAD_DSTYLE_DIM_EXT1_LINETYPE
1070
   381
1005
19
1001
ACAD_DSTYLE_DIM_EXT2_LINETYPE
1070
   382
1005
19
  0
DIMSTYLE
105
3D1
330
21
100
AcDbSymbolTableRecord
100
AcDbDimStyleTableRecord
  2
AM_DIN$4
 70
     0
  4
"
 41
3.5
 42
1.0
 43
10.0
 44
1.0
 47
0.1
 48
0.1
 73
     0
 74
     0
 77
     1
 78
     8
 79
     2
140
3.5
141
0.0
143
0.0393701
146
0.71
147
1.5
172
     1
176
   256
177
   256
178
     2
271
     2
272
     3
274
     4
283
     0
284
     8
340
16
371
    -1
372
    -1
1001
ACAD_DSTYLE_DIMBREAK
1070
   391
1040
3.75
1001
ACAD_DSTYLE_DIMJAG
1070
   388
1040
1.5
1001
ACAD_DSTYLE_DIMJOGGED_JOGANGLE_SYMBOL
1070
   384
1040
1.570796326794896
1001
ACAD_DSTYLE_DIM_LINETYPE
1070
   380
1005
19
1001
ACAD_DSTYLE_DIM_EXT1_LINETYPE
1070
   381
1005
19
1001
ACAD_DSTYLE_DIM_EXT2_LINETYPE
1070
   382
1005
19
  0
DIMSTYLE
105
3D2
330
21
100
AcDbSymbolTableRecord
100
AcDbDimStyleTableRecord
  2
AM_DIN$6
 70
     0
  4
"
 41
3.5
 42
1.0
 43
10.0
 44
1.0
 47
0.1
 48
0.1
 73
     0
 74
     0
 78
     8
 79
     2
140
3.5
141
0.0
143
0.0393701
146
0.71
147
1.5
172
     1
176
   256
177
   256
178
     2
271
     2
272
     3
274
     4
283
     0
284
     8
340
16
371
    -1
372
    -1
1001
ACAD_DSTYLE_DIMBREAK
1070
   391
1040
3.75
1001
ACAD_DSTYLE_DIMJAG
1070
   388
1040
1.5
1001
ACAD_DSTYLE_DIMJOGGED_JOGANGLE_SYMBOL
1070
   384
1040
1.570796326794896
1001
ACAD_DSTYLE_DIM_LINETYPE
1070
   380
1005
19
1001
ACAD_DSTYLE_DIM_EXT1_LINETYPE
1070
   381
1005
19
1001
ACAD_DSTYLE_DIM_EXT2_LINETYPE
1070
   382
1005
19
  0
DIMSTYLE
105
3D3
330
21
100
AcDbSymbolTableRecord
100
AcDbDimStyleTableRecord
  2
AM_DIN$7
 70
     0
  4
"
 41
3.5
 42
1.0
 43
10.0
 44
1.0
 47
0.1
 48
0.1
 73
     0
 74
     0
 77
     1
 78
     8
 79
     2
140
3.5
141
0.0
143
0.0393701
146
0.71
147
1.5
172
     1
176
   256
177
   256
178
     2
271
     2
272
     3
274
     4
283
     0
284
     8
340
16
371
    -1
372
    -1
1001
ACAD_DSTYLE_DIMBREAK
1070
   391
1040
3.75
1001
ACAD_DSTYLE_DIMJAG
1070
   388
1040
1.5
1001
ACAD_DSTYLE_DIMJOGGED_JOGANGLE_SYMBOL
1070
   384
1040
1.570796326794896
1001
ACAD_DSTYLE_DIM_LINETYPE
1070
   380
1005
19
1001
ACAD_DSTYLE_DIM_EXT1_LINETYPE
1070
   381
1005
19
1001
ACAD_DSTYLE_DIM_EXT2_LINETYPE
1070
   382
1005
19
  0
DIMSTYLE
105
3D4
330
21
100
AcDbSymbolTableRecord
100
AcDbDimStyleTableRecord
  2
AM_DIN$SF
 70
     0
  4
"
 41
3.5
 42
1.0
 43
10.0
 44
1.0
 47
0.1
 48
0.1
 73
     0
 74
     0
 75
     1
 76
     1
 77
     1
 78
     8
 79
     2
140
3.5
141
0.0
143
0.0393701
146
0.71
147
1.5
172
     1
176
   256
177
   256
178
     2
271
     2
272
     3
274
     4
283
     0
284
     8
340
16
371
    -1
372
    -1
1001
ACAD_DSTYLE_DIMBREAK
1070
   391
1040
3.75
1001
ACAD_DSTYLE_DIMJAG
1070
   388
1040
1.5
1001
ACAD_DSTYLE_DIMJOGGED_JOGANGLE_SYMBOL
1070
   384
1040
1.570796326794896
1001
ACAD_DSTYLE_DIM_LINETYPE
1070
   380
1005
19
1001
ACAD_DSTYLE_DIM_EXT1_LINETYPE
1070
   381
1005
19
1001
ACAD_DSTYLE_DIM_EXT2_LINETYPE
1070
   382
1005
19
  0
DIMSTYLE
105
3D9
330
21
100
AcDbSymbolTableRecord
100
AcDbDimStyleTableRecord
  2
AM_DIN$SH
 70
     0
  4
"
 41
3.5
 42
1.0
 43
10.0
 44
1.0
 47
0.1
 48
0.1
 73
     0
 74
     0
 75
     1
 76
     1
 77
     1
 78
     8
 79
     2
140
3.5
141
0.0
143
0.0393701
144
2.0
146
0.71
147
1.5
172
     1
173
     1
176
   256
177
   256
178
     2
271
     2
272
     3
274
     4
283
     0
284
     8
340
16
343
3D5
371
    -1
372
    -1
1001
ACAD_DSTYLE_DIMBREAK
1070
   391
1040
3.75
1001
ACAD_DSTYLE_DIMJAG
1070
   388
1040
1.5
1001
ACAD_DSTYLE_DIMJOGGED_JOGANGLE_SYMBOL
1070
   384
1040
1.570796326794896
1001
ACAD_DSTYLE_DIM_LINETYPE
1070
   380
1005
19
1001
ACAD_DSTYLE_DIM_EXT1_LINETYPE
1070
   381
1005
19
1001
ACAD_DSTYLE_DIM_EXT2_LINETYPE
1070
   382
1005
19
  0
ENDTAB
  0
TABLE
  2
BLOCK_RECORD
  5
1
330
0
100
AcDbSymbolTable
 70
    37
  0
BLOCK_RECORD
  5
2
102
{ACAD_XDICTIONARY
360
3
102
}
330
1
100
AcDbSymbolTableRecord
100
AcDbBlockTableRecord
  2
*MODEL_SPACE
340
C
  0
BLOCK_RECORD
  5
E
330
1
100
AcDbSymbolTableRecord
100
AcDbBlockTableRecord
  2
*PAPER_SPACE
340
11
  0
BLOCK_RECORD
  5
2AC
330
1
100
AcDbSymbolTableRecord
100
AcDbBlockTableRecord
  2
*D0
340
0
  0
BLOCK_RECORD
  5
29F
330
1
100
AcDbSymbolTableRecord
100
AcDbBlockTableRecord
  2
*D1
340
0
  0
BLOCK_RECORD
  5
292
330
1
100
AcDbSymbolTableRecord
100
AcDbBlockTableRecord
  2
*D2
340
0
  0
BLOCK_RECORD
  5
285
330
1
100
AcDbSymbolTableRecord
100
AcDbBlockTableRecord
  2
*D3
340
0
  0
BLOCK_RECORD
  5
278
330
1
100
AcDbSymbolTableRecord
100
AcDbBlockTableRecord
  2
*D4
340
0
  0
BLOCK_RECORD
  5
266
330
1
100
AcDbSymbolTableRecord
100
AcDbBlockTableRecord
  2
*D5
340
0
  0
BLOCK_RECORD
  5
255
330
1
100
AcDbSymbolTableRecord
100
AcDbBlockTableRecord
  2
*D6
340
0
  0
BLOCK_RECORD
  5
246
330
1
100
AcDbSymbolTableRecord
100
AcDbBlockTableRecord
  2
*D7
340
0
  0
BLOCK_RECORD
  5
22F
330
1
100
AcDbSymbolTableRecord
100
AcDbBlockTableRecord
  2
*D8
340
0
  0
BLOCK_RECORD
  5
221
330
1
100
AcDbSymbolTableRecord
100
AcDbBlockTableRecord
  2
*D9
340
0
  0
BLOCK_RECORD
  5
210
330
1
100
AcDbSymbolTableRecord
100
AcDbBlockTableRecord
  2
*D10
340
0
  0
BLOCK_RECORD
  5
1FE
330
1
100
AcDbSymbolTableRecord
100
AcDbBlockTableRecord
  2
*D11
340
0
  0
BLOCK_RECORD
  5
1E9
330
1
100
AcDbSymbolTableRecord
100
AcDbBlockTableRecord
  2
*D12
340
0
  0
BLOCK_RECORD
  5
1D9
330
1
100
AcDbSymbolTableRecord
100
AcDbBlockTableRecord
  2
*D13
340
0
  0
BLOCK_RECORD
  5
1C6
330
1
100
AcDbSymbolTableRecord
100
AcDbBlockTableRecord
  2
*D14
340
0
  0
BLOCK_RECORD
  5
1B6
330
1
100
AcDbSymbolTableRecord
100
AcDbBlockTableRecord
  2
*D15
340
0
  0
BLOCK_RECORD
  5
172
330
1
100
AcDbSymbolTableRecord
100
AcDbBlockTableRecord
  2
*D16
340
0
  0
BLOCK_RECORD
  5
161
330
1
100
AcDbSymbolTableRecord
100
AcDbBlockTableRecord
  2
*D17
340
0
  0
BLOCK_RECORD
  5
152
330
1
100
AcDbSymbolTableRecord
100
AcDbBlockTableRecord
  2
*D18
340
0
  0
BLOCK_RECORD
  5
143
330
1
100
AcDbSymbolTableRecord
100
AcDbBlockTableRecord
  2
*D19
340
0
  0
BLOCK_RECORD
  5
136
330
1
100
AcDbSymbolTableRecord
100
AcDbBlockTableRecord
  2
*D20
340
0
  0
BLOCK_RECORD
  5
111
330
1
100
AcDbSymbolTableRecord
100
AcDbBlockTableRecord
  2
*D21
340
0
  0
BLOCK_RECORD
  5
100
330
1
100
AcDbSymbolTableRecord
100
AcDbBlockTableRecord
  2
*D22
340
0
  0
BLOCK_RECORD
  5
F1
330
1
100
AcDbSymbolTableRecord
100
AcDbBlockTableRecord
  2
*D23
340
0
  0
BLOCK_RECORD
  5
E2
330
1
100
AcDbSymbolTableRecord
100
AcDbBlockTableRecord
  2
*D24
340
0
  0
BLOCK_RECORD
  5
D5
330
1
100
AcDbSymbolTableRecord
100
AcDbBlockTableRecord
  2
*D25
340
0
  0
BLOCK_RECORD
  5
C5
330
1
100
AcDbSymbolTableRecord
100
AcDbBlockTableRecord
  2
*D26
340
0
  0
BLOCK_RECORD
  5
B8
330
1
100
AcDbSymbolTableRecord
100
AcDbBlockTableRecord
  2
*D27
340
0
  0
BLOCK_RECORD
  5
A6
330
1
100
AcDbSymbolTableRecord
100
AcDbBlockTableRecord
  2
*D28
340
0
  0
BLOCK_RECORD
  5
76
330
1
100
AcDbSymbolTableRecord
100
AcDbBlockTableRecord
  2
*D29
340
0
  0
BLOCK_RECORD
  5
5C
330
1
100
AcDbSymbolTableRecord
100
AcDbBlockTableRecord
  2
*D30
340
0
  0
BLOCK_RECORD
  5
34
330
1
100
AcDbSymbolTableRecord
100
AcDbBlockTableRecord
  2
*D31
340
0
  0
BLOCK_RECORD
  5
3D5
330
1
100
AcDbSymbolTableRecord
100
AcDbBlockTableRecord
  2
GENAXEH
340
0
  0
BLOCK_RECORD
  5
3E6
330
1
100
AcDbSymbolTableRecord
100
AcDbBlockTableRecord
  2
_ACMFILLED30
340
0
  0
BLOCK_RECORD
  5
3FF
330
1
100
AcDbSymbolTableRecord
100
AcDbBlockTableRecord
  2
*D35
340
0
  0
BLOCK_RECORD
  5
40C
330
1
100
AcDbSymbolTableRecord
100
AcDbBlockTableRecord
  2
*D36
340
0
  0
ENDTAB
  0
ENDSEC
  0
SECTION
  2
BLOCKS
  0
BLOCK
  5
5
330
2
100
AcDbEntity
  8
0
100
AcDbBlockBegin
  2
*MODEL_SPACE
 70
     0
 10
0.0
 20
0.0
 30
0.0
  3
*MODEL_SPACE
  1

  0
ENDBLK
  5
B
330
2
100
AcDbEntity
  8
0
100
AcDbBlockEnd
  0
BLOCK
  5
F
330
E
100
AcDbEntity
 67
     1
  8
0
100
AcDbBlockBegin
  2
*PAPER_SPACE
 70
     0
 10
0.0
 20
0.0
 30
0.0
  3
*PAPER_SPACE
  1

  0
ENDBLK
  5
10
330
E
100
AcDbEntity
 67
     1
  8
0
100
AcDbBlockEnd
  0
BLOCK
  5
2AD
330
2AC
100
AcDbEntity
  8
0
100
AcDbBlockBegin
  2
*D0
 70
     1
 10
0.0
 20
0.0
 30
0.0
  3
*D0
  1

  0
LINE
  5
2AE
330
2AC
100
AcDbEntity
  8
BEMASSUNG
  6
Continuous
370
    -2
100
AcDbLine
 10
727.099569063642
 20
415.8428854613658
 30
0.0
 11
782.7931222171603
 21
415.8428854613658
 31
0.0
  0
LINE
  5
2AF
330
2AC
100
AcDbEntity
  8
BEMASSUNG
  6
Continuous
370
    -2
100
AcDbLine
 10
727.099569063642
 20
256.842885461366
 30
0.0
 11
782.7931222171603
 21
256.842885461366
 31
0.0
  0
LINE
  5
2B0
330
2AC
100
AcDbEntity
  8
BEMASSUNG
  6
Continuous
370
    -2
100
AcDbLine
 10
781.9931222171605
 20
410.2428854613659
 30
0.0
 11
781.9931222171605
 21
262.442885461366
 31
0.0
  0
MTEXT
  5
2B1
330
2AC
100
AcDbEntity
  8
BEMASSUNG
  6
Continuous
 62
     3
100
AcDbMText
 10
777.2202410868222
 20
335.479289072721
 30
0.0
 40
5.599999999999999
 41
0.0
 71
     5
 72
     1
  1
\A1;159
  7
NORM
 11
0.0000000000000001
 21
1.0
 31
0.0
 73
     1
 44
1.0
1001
ACAD
1000
MTEXTBEGIN
1070
    73
1070
     1
1070
    44
1040
1.0
1070
    74
1070
     0
1000
MTEXTEND
  0
SOLID
  5
2B2
330
2AC
100
AcDbEntity
  8
BEMASSUNG
  6
Continuous
100
AcDbTrace
 10
781.059788883827
 20
410.2428854613659
 30
0.0
 11
782.9264555504937
 21
410.2428854613659
 31
0.0
 12
781.9931222171605
 22
415.8428854613658
 32
0.0
 13
781.9931222171605
 23
415.8428854613658
 33
0.0
  0
SOLID
  5
2B3
330
2AC
100
AcDbEntity
  8
BEMASSUNG
  6
Continuous
100
AcDbTrace
 10
781.059788883827
 20
262.442885461366
 30
0.0
 11
782.9264555504937
 21
262.442885461366
 31
0.0
 12
781.9931222171605
 22
256.842885461366
 32
0.0
 13
781.9931222171605
 23
256.842885461366
 33
0.0
  0
POINT
  5
2B4
330
2AC
100
AcDbEntity
  8
DEFPOINTS
  6
Continuous
 62
     0
100
AcDbPoint
 10
726.2995690636419
 20
415.8428854613658
 30
0.0
  0
POINT
  5
2B5
330
2AC
100
AcDbEntity
  8
DEFPOINTS
  6
Continuous
 62
     0
100
AcDbPoint
 10
726.2995690636419
 20
256.842885461366
 30
0.0
  0
POINT
  5
2B6
330
2AC
100
AcDbEntity
  8
DEFPOINTS
  6
Continuous
 62
     0
100
AcDbPoint
 10
781.9931222171605
 20
256.842885461366
 30
0.0
  0
ENDBLK
  5
2B7
330
2AC
100
AcDbEntity
  8
0
100
AcDbBlockEnd
  0
BLOCK
  5
2A0
330
29F
100
AcDbEntity
  8
0
100
AcDbBlockBegin
  2
*D1
 70
     1
 10
0.0
 20
0.0
 30
0.0
  3
*D1
  1

  0
LINE
  5
2A1
330
29F
100
AcDbEntity
  8
BEMASSUNG
  6
Continuous
370
    -2
100
AcDbLine
 10
654.2995690636423
 20
451.3428854613648
 30
0.0
 11
615.8327497024387
 21
451.3428854613649
 31
0.0
  0
LINE
  5
2A2
330
29F
100
AcDbEntity
  8
BEMASSUNG
  6
Continuous
370
    -2
100
AcDbLine
 10
654.2995690636416
 20
221.3428854613652
 30
0.0
 11
615.8327497024387
 21
221.3428854613652
 31
0.0
  0
LINE
  5
2A3
330
29F
100
AcDbEntity
  8
BEMASSUNG
  6
Continuous
370
    -2
100
AcDbLine
 10
616.6327497024387
 20
445.7428854613649
 30
0.0
 11
616.6327497024386
 21
226.9428854613652
 31
0.0
  0
MTEXT
  5
2A4
330
29F
100
AcDbEntity
  8
BEMASSUNG
  6
Continuous
 62
     3
100
AcDbMText
 10
611.4538329242177
 20
339.0247078100176
 30
0.0
 40
5.599999999999999
 41
0.0
 71
     5
 72
     1
  1
\A1;230
  7
NORM
 11
0.0000000000000001
 21
1.0
 31
0.0
 73
     1
 44
1.0
1001
ACAD
1000
MTEXTBEGIN
1070
    73
1070
     1
1070
    44
1040
1.0
1070
    74
1070
     0
1000
MTEXTEND
  0
SOLID
  5
2A5
330
29F
100
AcDbEntity
  8
BEMASSUNG
  6
Continuous
100
AcDbTrace
 10
615.6994163691055
 20
445.7428854613649
 30
0.0
 11
617.566083035772
 21
445.7428854613649
 31
0.0
 12
616.6327497024387
 22
451.3428854613649
 32
0.0
 13
616.6327497024387
 23
451.3428854613649
 33
0.0
  0
SOLID
  5
2A6
330
29F
100
AcDbEntity
  8
BEMASSUNG
  6
Continuous
100
AcDbTrace
 10
615.6994163691052
 20
226.9428854613652
 30
0.0
 11
617.566083035772
 21
226.9428854613652
 31
0.0
 12
616.6327497024386
 22
221.3428854613652
 32
0.0
 13
616.6327497024386
 23
221.3428854613652
 33
0.0
  0
POINT
  5
2A7
330
29F
100
AcDbEntity
  8
DEFPOINTS
  6
Continuous
 62
     0
100
AcDbPoint
 10
655.0995690636423
 20
451.3428854613648
 30
0.0
  0
POINT
  5
2A8
330
29F
100
AcDbEntity
  8
DEFPOINTS
  6
Continuous
 62
     0
100
AcDbPoint
 10
655.0995690636417
 20
221.3428854613652
 30
0.0
  0
POINT
  5
2A9
330
29F
100
AcDbEntity
  8
DEFPOINTS
  6
Continuous
 62
     0
100
AcDbPoint
 10
616.6327497024386
 20
221.3428854613652
 30
0.0
  0
ENDBLK
  5
2AA
330
29F
100
AcDbEntity
  8
0
100
AcDbBlockEnd
  0
BLOCK
  5
293
330
292
100
AcDbEntity
  8
0
100
AcDbBlockBegin
  2
*D2
 70
     1
 10
0.0
 20
0.0
 30
0.0
  3
*D2
  1

  0
LINE
  5
294
330
292
100
AcDbEntity
  8
BEMASSUNG
  6
Continuous
370
    -2
100
AcDbLine
 10
634.2995690636427
 20
323.3428761062568
 30
0.0
 11
627.5482023992626
 21
323.3428761062568
 31
0.0
  0
LINE
  5
295
330
292
100
AcDbEntity
  8
BEMASSUNG
  6
Continuous
370
    -2
100
AcDbLine
 10
644.2995864954147
 20
371.3428761062571
 30
0.0
 11
627.5482023992626
 21
371.3428761062572
 31
0.0
  0
LINE
  5
296
330
292
100
AcDbEntity
  8
BEMASSUNG
  6
Continuous
370
    -2
100
AcDbLine
 10
628.3482023992625
 20
328.9428761062568
 30
0.0
 11
628.3482023992625
 21
365.7428761062571
 31
0.0
  0
SOLID
  5
297
330
292
100
AcDbEntity
  8
BEMASSUNG
  6
Continuous
100
AcDbTrace
 10
627.4148690659292
 20
328.9428761062568
 30
0.0
 11
629.2815357325959
 21
328.9428761062568
 31
0.0
 12
628.3482023992625
 22
323.3428761062568
 32
0.0
 13
628.3482023992625
 23
323.3428761062568
 33
0.0
  0
SOLID
  5
298
330
292
100
AcDbEntity
  8
BEMASSUNG
  6
Continuous
100
AcDbTrace
 10
627.4148690659292
 20
365.7428761062571
 30
0.0
 11
629.2815357325959
 21
365.7428761062571
 31
0.0
 12
628.3482023992625
 22
371.3428761062572
 32
0.0
 13
628.3482023992625
 23
371.3428761062572
 33
0.0
  0
MTEXT
  5
299
330
292
100
AcDbEntity
  8
BEMASSUNG
  6
Continuous
 62
     3
100
AcDbMText
 10
623.9482023992624
 20
347.342876106257
 30
0.0
 40
5.599999999999999
 41
0.0
 71
     5
 72
     1
  1
\A1;48
  7
NORM
 11
0.0000000000000001
 21
1.0
 31
0.0
 73
     1
 44
1.0
1001
ACAD
1000
MTEXTBEGIN
1070
    73
1070
     1
1070
    44
1040
1.0
1070
    74
1070
     0
1000
MTEXTEND
  0
POINT
  5
29A
330
292
100
AcDbEntity
  8
DEFPOINTS
  6
Continuous
 62
     0
100
AcDbPoint
 10
635.0995690636426
 20
323.3428761062568
 30
0.0
  0
POINT
  5
29B
330
292
100
AcDbEntity
  8
DEFPOINTS
  6
Continuous
 62
     0
100
AcDbPoint
 10
645.0995864954146
 20
371.3428761062571
 30
0.0
  0
POINT
  5
29C
330
292
100
AcDbEntity
  8
DEFPOINTS
  6
Continuous
 62
     0
100
AcDbPoint
 10
628.3482023992625
 20
371.3428761062572
 30
0.0
  0
ENDBLK
  5
29D
330
292
100
AcDbEntity
  8
0
100
AcDbBlockEnd
  0
BLOCK
  5
286
330
285
100
AcDbEntity
  8
0
100
AcDbBlockBegin
  2
*D3
 70
     1
 10
0.0
 20
0.0
 30
0.0
  3
*D3
  1

  0
LINE
  5
287
330
285
100
AcDbEntity
  8
BEMASSUNG
  6
Continuous
370
    -2
100
AcDbLine
 10
739.4995690636419
 20
364.3428854613658
 30
0.0
 11
759.9302228343631
 21
364.3428854613658
 31
0.0
  0
LINE
  5
288
330
285
100
AcDbEntity
  8
BEMASSUNG
  6
Continuous
370
    -2
100
AcDbLine
 10
722.8995690636422
 20
342.8428854613693
 30
0.0
 11
759.9302228343631
 21
342.8428854613693
 31
0.0
  0
LINE
  5
289
330
285
100
AcDbEntity
  8
BEMASSUNG
  6
Continuous
370
    -2
100
AcDbLine
 10
759.130222834363
 20
358.7428854613658
 30
0.0
 11
759.130222834363
 21
348.4428854613694
 31
0.0
  0
SOLID
  5
28A
330
285
100
AcDbEntity
  8
BEMASSUNG
  6
Continuous
100
AcDbTrace
 10
758.1968895010297
 20
358.7428854613658
 30
0.0
 11
760.0635561676963
 21
358.7428854613658
 31
0.0
 12
759.130222834363
 22
364.3428854613658
 32
0.0
 13
759.130222834363
 23
364.3428854613658
 33
0.0
  0
SOLID
  5
28B
330
285
100
AcDbEntity
  8
BEMASSUNG
  6
Continuous
100
AcDbTrace
 10
758.1968895010297
 20
348.4428854613694
 30
0.0
 11
760.0635561676963
 21
348.4428854613694
 31
0.0
 12
759.130222834363
 22
342.8428854613693
 32
0.0
 13
759.130222834363
 23
342.8428854613693
 33
0.0
  0
MTEXT
  5
28C
330
285
100
AcDbEntity
  8
BEMASSUNG
  6
Continuous
 62
     3
100
AcDbMText
 10
754.7302228343631
 20
353.5928854613677
 30
0.0
 40
5.599999999999999
 41
0.0
 71
     5
 72
     1
  1
\A1;21.5
  7
NORM
 11
0.0000000000000001
 21
1.0
 31
0.0
 73
     1
 44
1.0
1001
ACAD
1000
MTEXTBEGIN
1070
    73
1070
     1
1070
    44
1040
1.0
1070
    74
1070
     0
1000
MTEXTEND
  0
POINT
  5
28D
330
285
100
AcDbEntity
  8
DEFPOINTS
  6
Continuous
 62
     0
100
AcDbPoint
 10
738.6995690636421
 20
364.3428854613658
 30
0.0
  0
POINT
  5
28E
330
285
100
AcDbEntity
  8
DEFPOINTS
  6
Continuous
 62
     0
100
AcDbPoint
 10
722.0995690636422
 20
342.8428854613693
 30
0.0
  0
POINT
  5
28F
330
285
100
AcDbEntity
  8
DEFPOINTS
  6
Continuous
 62
     0
100
AcDbPoint
 10
759.130222834363
 20
342.8428854613693
 30
0.0
  0
ENDBLK
  5
290
330
285
100
AcDbEntity
  8
0
100
AcDbBlockEnd
  0
BLOCK
  5
279
330
278
100
AcDbEntity
  8
0
100
AcDbBlockBegin
  2
*D4
 70
     1
 10
0.0
 20
0.0
 30
0.0
  3
*D4
  1

  0
LINE
  5
27A
330
278
100
AcDbEntity
  8
BEMASSUNG
  6
Continuous
370
    -2
100
AcDbLine
 10
739.4995690636419
 20
364.3428854613658
 30
0.0
 11
771.1701718572435
 21
364.3428854613658
 31
0.0
  0
LINE
  5
27B
330
278
100
AcDbEntity
  8
BEMASSUNG
  6
Continuous
370
    -2
100
AcDbLine
 10
728.9995690636421
 20
286.3428854613655
 30
0.0
 11
771.1701718572435
 21
286.3428854613655
 31
0.0
  0
LINE
  5
27C
330
278
100
AcDbEntity
  8
BEMASSUNG
  6
Continuous
370
    -2
100
AcDbLine
 10
770.3701718572435
 20
358.7428854613658
 30
0.0
 11
770.3701718572435
 21
291.9428854613656
 31
0.0
  0
SOLID
  5
27D
330
278
100
AcDbEntity
  8
BEMASSUNG
  6
Continuous
100
AcDbTrace
 10
769.4368385239101
 20
358.7428854613658
 30
0.0
 11
771.3035051905769
 21
358.7428854613658
 31
0.0
 12
770.3701718572435
 22
364.3428854613658
 32
0.0
 13
770.3701718572435
 23
364.3428854613658
 33
0.0
  0
SOLID
  5
27E
330
278
100
AcDbEntity
  8
BEMASSUNG
  6
Continuous
100
AcDbTrace
 10
769.4368385239101
 20
291.9428854613656
 30
0.0
 11
771.3035051905769
 21
291.9428854613656
 31
0.0
 12
770.3701718572435
 22
286.3428854613655
 32
0.0
 13
770.3701718572435
 23
286.3428854613655
 33
0.0
  0
MTEXT
  5
27F
330
278
100
AcDbEntity
  8
BEMASSUNG
  6
Continuous
 62
     3
100
AcDbMText
 10
765.9701718572435
 20
325.3428854613658
 30
0.0
 40
5.599999999999999
 41
0.0
 71
     5
 72
     1
  1
\A1;78
  7
NORM
 11
0.0000000000000001
 21
1.0
 31
0.0
 73
     1
 44
1.0
1001
ACAD
1000
MTEXTBEGIN
1070
    73
1070
     1
1070
    44
1040
1.0
1070
    74
1070
     0
1000
MTEXTEND
  0
POINT
  5
280
330
278
100
AcDbEntity
  8
DEFPOINTS
  6
Continuous
 62
     0
100
AcDbPoint
 10
738.6995690636421
 20
364.3428854613658
 30
0.0
  0
POINT
  5
281
330
278
100
AcDbEntity
  8
DEFPOINTS
  6
Continuous
 62
     0
100
AcDbPoint
 10
728.1995690636421
 20
286.3428854613655
 30
0.0
  0
POINT
  5
282
330
278
100
AcDbEntity
  8
DEFPOINTS
  6
Continuous
 62
     0
100
AcDbPoint
 10
770.3701718572435
 20
286.3428854613655
 30
0.0
  0
ENDBLK
  5
283
330
278
100
AcDbEntity
  8
0
100
AcDbBlockEnd
  0
BLOCK
  5
267
330
266
100
AcDbEntity
  8
0
100
AcDbBlockBegin
  2
*D5
 70
     1
 10
0.0
 20
0.0
 30
0.0
  3
*D5
  1

  0
LINE
  5
268
330
266
100
AcDbEntity
  8
BEMASSUNG
  6
Continuous
370
    -2
100
AcDbLine
 10
690.6995690636422
 20
364.342885461366
 30
0.0
 11
686.372810537297
 21
364.342885461366
 31
0.0
  0
LINE
  5
269
330
266
100
AcDbEntity
  8
BEMASSUNG
  6
Continuous
370
    -2
100
AcDbLine
 10
655.8995690636423
 20
308.3428761062568
 30
0.0
 11
687.9728105372969
 21
308.3428761062568
 31
0.0
  0
LINE
  5
26A
330
266
100
AcDbEntity
  8
BEMASSUNG
  6
Continuous
370
    -2
100
AcDbLine
 10
687.1728105372969
 20
358.742885461366
 30
0.0
 11
687.1728105372969
 21
313.9428761062569
 31
0.0
  0
SOLID
  5
26B
330
266
100
AcDbEntity
  8
BEMASSUNG
  6
Continuous
100
AcDbTrace
 10
686.2394772039635
 20
358.742885461366
 30
0.0
 11
688.1061438706301
 21
358.742885461366
 31
0.0
 12
687.1728105372969
 22
364.342885461366
 32
0.0
 13
687.1728105372969
 23
364.342885461366
 33
0.0
  0
SOLID
  5
26C
330
266
100
AcDbEntity
  8
BEMASSUNG
  6
Continuous
100
AcDbTrace
 10
686.2394772039635
 20
313.9428761062569
 30
0.0
 11
688.1061438706301
 21
313.9428761062569
 31
0.0
 12
687.1728105372969
 22
308.3428761062568
 32
0.0
 13
687.1728105372969
 23
308.3428761062568
 33
0.0
  0
MTEXT
  5
26D
330
266
100
AcDbEntity
  8
BEMASSUNG
  6
Continuous
 62
     3
100
AcDbMText
 10
682.7728105372969
 20
336.3428807838115
 30
0.0
 40
5.599999999999999
 41
0.0
 71
     5
 72
     1
  1
\A1;56
  7
NORM
 11
0.0000000000000001
 21
1.0
 31
0.0
 73
     1
 44
1.0
1001
ACAD
1000
MTEXTBEGIN
1070
    73
1070
     1
1070
    44
1040
1.0
1070
    74
1070
     0
1000
MTEXTEND
  0
POINT
  5
26E
330
266
100
AcDbEntity
  8
DEFPOINTS
  6
Continuous
 62
     0
100
AcDbPoint
 10
691.4995690636422
 20
364.342885461366
 30
0.0
  0
POINT
  5
26F
330
266
100
AcDbEntity
  8
DEFPOINTS
  6
Continuous
 62
     0
100
AcDbPoint
 10
655.0995690636425
 20
308.3428761062568
 30
0.0
  0
POINT
  5
270
330
266
100
AcDbEntity
  8
DEFPOINTS
  6
Continuous
 62
     0
100
AcDbPoint
 10
687.1728105372969
 20
308.3428761062568
 30
0.0
  0
ENDBLK
  5
271
330
266
100
AcDbEntity
  8
0
100
AcDbBlockEnd
  0
BLOCK
  5
256
330
255
100
AcDbEntity
  8
0
100
AcDbBlockBegin
  2
*D6
 70
     1
 10
0.0
 20
0.0
 30
0.0
  3
*D6
  1

  0
LINE
  5
257
330
255
100
AcDbEntity
  8
BEMASSUNG
  6
Continuous
370
    -2
100
AcDbLine
 10
658.8995690636376
 20
170.8627105543191
 30
0.0
 11
680.4436517364382
 21
170.8627105543191
 31
0.0
  0
LINE
  5
258
330
255
100
AcDbEntity
  8
BEMASSUNG
  6
Continuous
370
    -2
100
AcDbLine
 10
676.9068542044632
 20
169.8627105543191
 30
0.0
 11
680.4436517364382
 21
169.8627105543191
 31
0.0
  0
LINE
  5
259
330
255
100
AcDbEntity
  8
BEMASSUNG
  6
Continuous
370
    -2
100
AcDbLine
 10
679.6436517364382
 20
176.4627105543191
 30
0.0
 11
679.6436517364382
 21
182.062710554319
 31
0.0
  0
LINE
  5
25A
330
255
100
AcDbEntity
  8
BEMASSUNG
  6
Continuous
370
    -2
100
AcDbLine
 10
679.6436517364382
 20
164.2627105543192
 30
0.0
 11
679.6436517364382
 21
158.6627105543191
 31
0.0
  0
MTEXT
  5
25B
330
255
100
AcDbEntity
  8
BEMASSUNG
  6
Continuous
 62
     3
100
AcDbMText
 10
674.6454492739236
 20
178.9599911358943
 30
0.0
 40
5.599999999999999
 41
0.0
 71
     5
 72
     1
  1
\A1;1
  7
NORM
 11
0.0000000000000001
 21
1.0
 31
0.0
 73
     1
 44
1.0
1001
ACAD
1000
MTEXTBEGIN
1070
    73
1070
     1
1070
    44
1040
1.0
1070
    74
1070
     0
1000
MTEXTEND
  0
LINE
  5
25C
330
255
100
AcDbEntity
  8
BEMASSUNG
  6
Continuous
370
    -2
100
AcDbLine
 10
679.6436517364382
 20
170.8627105543191
 30
0.0
 11
679.6436517364382
 21
169.8627105543191
 31
0.0
  0
SOLID
  5
25D
330
255
100
AcDbEntity
  8
BEMASSUNG
  6
Continuous
100
AcDbTrace
 10
678.710318403105
 20
176.4627105543191
 30
0.0
 11
680.5769850697714
 21
176.4627105543191
 31
0.0
 12
679.6436517364382
 22
170.8627105543191
 32
0.0
 13
679.6436517364382
 23
170.8627105543191
 33
0.0
  0
SOLID
  5
25E
330
255
100
AcDbEntity
  8
BEMASSUNG
  6
Continuous
100
AcDbTrace
 10
678.710318403105
 20
164.2627105543192
 30
0.0
 11
680.5769850697714
 21
164.2627105543192
 31
0.0
 12
679.6436517364382
 22
169.8627105543191
 32
0.0
 13
679.6436517364382
 23
169.8627105543191
 33
0.0
  0
POINT
  5
25F
330
255
100
AcDbEntity
  8
DEFPOINTS
  6
Continuous
 62
     0
100
AcDbPoint
 10
658.0995690636378
 20
170.8627105543191
 30
0.0
  0
POINT
  5
260
330
255
100
AcDbEntity
  8
DEFPOINTS
  6
Continuous
 62
     0
100
AcDbPoint
 10
676.1068542044633
 20
169.8627105543191
 30
0.0
  0
POINT
  5
261
330
255
100
AcDbEntity
  8
DEFPOINTS
  6
Continuous
 62
     0
100
AcDbPoint
 10
679.6436517364382
 20
169.8627105543191
 30
0.0
  0
ENDBLK
  5
262
330
255
100
AcDbEntity
  8
0
100
AcDbBlockEnd
  0
BLOCK
  5
247
330
246
100
AcDbEntity
  8
0
100
AcDbBlockBegin
  2
*D7
 70
     1
 10
0.0
 20
0.0
 30
0.0
  3
*D7
  1

  0
LINE
  5
248
330
246
100
AcDbEntity
  8
BEMASSUNG
  6
Continuous
370
    -2
100
AcDbLine
 10
657.2995690636378
 20
256.8428854613652
 30
0.0
 11
627.5065076527447
 21
256.8428854613653
 31
0.0
  0
LINE
  5
249
330
246
100
AcDbEntity
  8
BEMASSUNG
  6
Continuous
370
    -2
100
AcDbLine
 10
654.2995690636416
 20
221.3428854613652
 30
0.0
 11
627.5065076527447
 21
221.3428854613652
 31
0.0
  0
LINE
  5
24A
330
246
100
AcDbEntity
  8
BEMASSUNG
  6
Continuous
370
    -2
100
AcDbLine
 10
628.3065076527447
 20
251.2428854613652
 30
0.0
 11
628.3065076527447
 21
226.9428854613652
 31
0.0
  0
SOLID
  5
24B
330
246
100
AcDbEntity
  8
BEMASSUNG
  6
Continuous
100
AcDbTrace
 10
627.3731743194112
 20
251.2428854613652
 30
0.0
 11
629.239840986078
 21
251.2428854613652
 31
0.0
 12
628.3065076527447
 22
256.8428854613653
 32
0.0
 13
628.3065076527447
 23
256.8428854613653
 33
0.0
  0
SOLID
  5
24C
330
246
100
AcDbEntity
  8
BEMASSUNG
  6
Continuous
100
AcDbTrace
 10
627.3731743194112
 20
226.9428854613652
 30
0.0
 11
629.239840986078
 21
226.9428854613652
 31
0.0
 12
628.3065076527447
 22
221.3428854613652
 32
0.0
 13
628.3065076527447
 23
221.3428854613652
 33
0.0
  0
MTEXT
  5
24D
330
246
100
AcDbEntity
  8
BEMASSUNG
  6
Continuous
 62
     3
100
AcDbMText
 10
623.9065076527447
 20
239.0928854613653
 30
0.0
 40
5.599999999999999
 41
0.0
 71
     5
 72
     1
  1
\A1;35.5
  7
NORM
 11
0.0000000000000001
 21
1.0
 31
0.0
 73
     1
 44
1.0
1001
ACAD
1000
MTEXTBEGIN
1070
    73
1070
     1
1070
    44
1040
1.0
1070
    74
1070
     0
1000
MTEXTEND
  0
POINT
  5
24E
330
246
100
AcDbEntity
  8
DEFPOINTS
  6
Continuous
 62
     0
100
AcDbPoint
 10
658.0995690636378
 20
256.8428854613652
 30
0.0
  0
POINT
  5
24F
330
246
100
AcDbEntity
  8
DEFPOINTS
  6
Continuous
 62
     0
100
AcDbPoint
 10
655.0995690636417
 20
221.3428854613652
 30
0.0
  0
POINT
  5
250
330
246
100
AcDbEntity
  8
DEFPOINTS
  6
Continuous
 62
     0
100
AcDbPoint
 10
628.3065076527447
 20
221.3428854613652
 30
0.0
  0
ENDBLK
  5
251
330
246
100
AcDbEntity
  8
0
100
AcDbBlockEnd
  0
BLOCK
  5
230
330
22F
100
AcDbEntity
  8
0
100
AcDbBlockBegin
  2
*D8
 70
     1
 10
0.0
 20
0.0
 30
0.0
  3
*D8
  1

  0
LINE
  5
231
330
22F
100
AcDbEntity
  8
BEMASSUNG
  6
Continuous
370
    -2
100
AcDbLine
 10
634.2995690636427
 20
293.3428761062566
 30
0.0
 11
627.6045765517592
 21
293.3428761062566
 31
0.0
  0
LINE
  5
232
330
22F
100
AcDbEntity
  8
BEMASSUNG
  6
Continuous
370
    -2
100
AcDbLine
 10
634.2995690636427
 20
323.3428761062568
 30
0.0
 11
627.6045765517592
 21
323.3428761062568
 31
0.0
  0
LINE
  5
233
330
22F
100
AcDbEntity
  8
BEMASSUNG
  6
Continuous
370
    -2
100
AcDbLine
 10
628.4045765517593
 20
298.9428761062567
 30
0.0
 11
628.4045765517593
 21
317.7428761062567
 31
0.0
  0
MTEXT
  5
234
330
22F
100
AcDbEntity
  8
BEMASSUNG
  6
Continuous
 62
     3
100
AcDbMText
 10
623.2280620766543
 20
308.3508455855437
 30
0.0
 40
5.599999999999999
 41
0.0
 71
     5
 72
     1
  1
\A1;30
  7
NORM
 11
0.0000000000000001
 21
1.0
 31
0.0
 73
     1
 44
1.0
1001
ACAD
1000
MTEXTBEGIN
1070
    73
1070
     1
1070
    44
1040
1.0
1070
    74
1070
     0
1000
MTEXTEND
  0
SOLID
  5
235
330
22F
100
AcDbEntity
  8
BEMASSUNG
  6
Continuous
100
AcDbTrace
 10
627.4712432184259
 20
298.9428761062567
 30
0.0
 11
629.3379098850923
 21
298.9428761062567
 31
0.0
 12
628.4045765517593
 22
293.3428761062566
 32
0.0
 13
628.4045765517593
 23
293.3428761062566
 33
0.0
  0
SOLID
  5
236
330
22F
100
AcDbEntity
  8
BEMASSUNG
  6
Continuous
100
AcDbTrace
 10
627.4712432184259
 20
317.7428761062567
 30
0.0
 11
629.3379098850923
 21
317.7428761062567
 31
0.0
 12
628.4045765517593
 22
323.3428761062568
 32
0.0
 13
628.4045765517593
 23
323.3428761062568
 33
0.0
  0
POINT
  5
237
330
22F
100
AcDbEntity
  8
DEFPOINTS
  6
Continuous
 62
     0
100
AcDbPoint
 10
635.0995690636426
 20
293.3428761062566
 30
0.0
  0
POINT
  5
238
330
22F
100
AcDbEntity
  8
DEFPOINTS
  6
Continuous
 62
     0
100
AcDbPoint
 10
635.0995690636426
 20
323.3428761062568
 30
0.0
  0
POINT
  5
239
330
22F
100
AcDbEntity
  8
DEFPOINTS
  6
Continuous
 62
     0
100
AcDbPoint
 10
628.4045765517593
 20
323.3428761062568
 30
0.0
  0
ENDBLK
  5
23A
330
22F
100
AcDbEntity
  8
0
100
AcDbBlockEnd
  0
BLOCK
  5
222
330
221
100
AcDbEntity
  8
0
100
AcDbBlockBegin
  2
*D9
 70
     1
 10
0.0
 20
0.0
 30
0.0
  3
*D9
  1

  0
LINE
  5
223
330
221
100
AcDbEntity
  8
BEMASSUNG
  6
Continuous
370
    -2
100
AcDbLine
 10
657.2995690636378
 20
256.8428854613652
 30
0.0
 11
627.5482023992626
 21
256.8428854613653
 31
0.0
  0
LINE
  5
224
330
221
100
AcDbEntity
  8
BEMASSUNG
  6
Continuous
370
    -2
100
AcDbLine
 10
634.2995690636427
 20
293.3428761062566
 30
0.0
 11
627.5482023992626
 21
293.3428761062566
 31
0.0
  0
LINE
  5
225
330
221
100
AcDbEntity
  8
BEMASSUNG
  6
Continuous
370
    -2
100
AcDbLine
 10
628.3482023992625
 20
262.4428854613654
 30
0.0
 11
628.3482023992625
 21
287.7428761062566
 31
0.0
  0
SOLID
  5
226
330
221
100
AcDbEntity
  8
BEMASSUNG
  6
Continuous
100
AcDbTrace
 10
627.4148690659292
 20
262.4428854613654
 30
0.0
 11
629.2815357325959
 21
262.4428854613654
 31
0.0
 12
628.3482023992625
 22
256.8428854613653
 32
0.0
 13
628.3482023992625
 23
256.8428854613653
 33
0.0
  0
SOLID
  5
227
330
221
100
AcDbEntity
  8
BEMASSUNG
  6
Continuous
100
AcDbTrace
 10
627.4148690659292
 20
287.7428761062566
 30
0.0
 11
629.2815357325959
 21
287.7428761062566
 31
0.0
 12
628.3482023992625
 22
293.3428761062566
 32
0.0
 13
628.3482023992625
 23
293.3428761062566
 33
0.0
  0
MTEXT
  5
228
330
221
100
AcDbEntity
  8
BEMASSUNG
  6
Continuous
 62
     3
100
AcDbMText
 10
623.9482023992624
 20
275.0928807838111
 30
0.0
 40
5.599999999999999
 41
0.0
 71
     5
 72
     1
  1
\A1;36.5
  7
NORM
 11
0.0000000000000001
 21
1.0
 31
0.0
 73
     1
 44
1.0
1001
ACAD
1000
MTEXTBEGIN
1070
    73
1070
     1
1070
    44
1040
1.0
1070
    74
1070
     0
1000
MTEXTEND
  0
POINT
  5
229
330
221
100
AcDbEntity
  8
DEFPOINTS
  6
Continuous
 62
     0
100
AcDbPoint
 10
658.0995690636378
 20
256.8428854613652
 30
0.0
  0
POINT
  5
22A
330
221
100
AcDbEntity
  8
DEFPOINTS
  6
Continuous
 62
     0
100
AcDbPoint
 10
635.0995690636426
 20
293.3428761062566
 30
0.0
  0
POINT
  5
22B
330
221
100
AcDbEntity
  8
DEFPOINTS
  6
Continuous
 62
     0
100
AcDbPoint
 10
628.3482023992625
 20
293.3428761062566
 30
0.0
  0
ENDBLK
  5
22C
330
221
100
AcDbEntity
  8
0
100
AcDbBlockEnd
  0
BLOCK
  5
211
330
210
100
AcDbEntity
  8
0
100
AcDbBlockBegin
  2
*D10
 70
     1
 10
0.0
 20
0.0
 30
0.0
  3
*D10
  1

  0
LINE
  5
212
330
210
100
AcDbEntity
  8
BEMASSUNG
  6
Continuous
370
    -2
100
AcDbLine
 10
635.0995690636426
 20
324.1428761062568
 30
0.0
 11
635.0995690636426
 21
335.9145373043221
 31
0.0
  0
LINE
  5
213
330
210
100
AcDbEntity
  8
BEMASSUNG
  6
Continuous
370
    -2
100
AcDbLine
 10
655.0995690636425
 20
334.9851976302594
 30
0.0
 11
655.0995690636425
 21
334.3145373043221
 31
0.0
  0
LINE
  5
214
330
210
100
AcDbEntity
  8
BEMASSUNG
  6
Continuous
370
    -2
100
AcDbLine
 10
640.6995690636427
 20
335.1145373043221
 30
0.0
 11
649.4995690636425
 21
335.1145373043221
 31
0.0
  0
SOLID
  5
215
330
210
100
AcDbEntity
  8
BEMASSUNG
  6
Continuous
100
AcDbTrace
 10
640.6995690636427
 20
336.0478706376554
 30
0.0
 11
640.6995690636427
 21
334.1812039709887
 31
0.0
 12
635.0995690636426
 22
335.1145373043221
 32
0.0
 13
635.0995690636426
 23
335.1145373043221
 33
0.0
  0
SOLID
  5
216
330
210
100
AcDbEntity
  8
BEMASSUNG
  6
Continuous
100
AcDbTrace
 10
649.4995690636425
 20
336.0478706376554
 30
0.0
 11
649.4995690636425
 21
334.1812039709887
 31
0.0
 12
655.0995690636425
 22
335.1145373043221
 32
0.0
 13
655.0995690636425
 23
335.1145373043221
 33
0.0
  0
MTEXT
  5
217
330
210
100
AcDbEntity
  8
BEMASSUNG
  6
Continuous
 62
     3
100
AcDbMText
 10
645.0995690636425
 20
339.5145373043221
 30
0.0
 40
5.599999999999999
 41
0.0
 71
     5
 72
     1
  1
\A1;20
  7
NORM
 73
     1
 44
1.0
1001
ACAD
1000
MTEXTBEGIN
1070
    73
1070
     1
1070
    44
1040
1.0
1070
    74
1070
     0
1000
MTEXTEND
  0
POINT
  5
218
330
210
100
AcDbEntity
  8
DEFPOINTS
  6
Continuous
 62
     0
100
AcDbPoint
 10
635.0995690636426
 20
323.3428761062568
 30
0.0
  0
POINT
  5
219
330
210
100
AcDbEntity
  8
DEFPOINTS
  6
Continuous
 62
     0
100
AcDbPoint
 10
655.0995690636425
 20
335.7851976302594
 30
0.0
  0
POINT
  5
21A
330
210
100
AcDbEntity
  8
DEFPOINTS
  6
Continuous
 62
     0
100
AcDbPoint
 10
655.0995690636425
 20
335.1145373043221
 30
0.0
  0
ENDBLK
  5
21B
330
210
100
AcDbEntity
  8
0
100
AcDbBlockEnd
  0
BLOCK
  5
1FF
330
1FE
100
AcDbEntity
  8
0
100
AcDbBlockBegin
  2
*D11
 70
     1
 10
0.0
 20
0.0
 30
0.0
  3
*D11
  1

  0
LINE
  5
200
330
1FE
100
AcDbEntity
  8
BEMASSUNG
  6
Continuous
370
    -2
100
AcDbLine
 10
823.9313994419422
 20
230.3428854613652
 30
0.0
 11
806.907997587742
 21
230.3428854613652
 31
0.0
  0
LINE
  5
201
330
1FE
100
AcDbEntity
  8
BEMASSUNG
  6
Continuous
370
    -2
100
AcDbLine
 10
830.6813994419423
 20
221.3428854613652
 30
0.0
 11
806.907997587742
 21
221.3428854613652
 31
0.0
  0
LINE
  5
202
330
1FE
100
AcDbEntity
  8
BEMASSUNG
  6
Continuous
370
    -2
100
AcDbLine
 10
807.7079975877419
 20
235.9428854613652
 30
0.0
 11
807.7079975877419
 21
241.5428854613652
 31
0.0
  0
LINE
  5
203
330
1FE
100
AcDbEntity
  8
BEMASSUNG
  6
Continuous
370
    -2
100
AcDbLine
 10
807.7079975877419
 20
215.7428854613652
 30
0.0
 11
807.7079975877419
 21
210.1428854613652
 31
0.0
  0
MTEXT
  5
204
330
1FE
100
AcDbEntity
  8
BEMASSUNG
  6
Continuous
 62
     3
100
AcDbMText
 10
803.1575557995294
 20
226.0684050130778
 30
0.0
 40
5.599999999999999
 41
0.0
 71
     5
 72
     1
  1
\A1;9
  7
NORM
 11
0.0000000000000001
 21
1.0
 31
0.0
 73
     1
 44
1.0
1001
ACAD
1000
MTEXTBEGIN
1070
    73
1070
     1
1070
    44
1040
1.0
1070
    74
1070
     0
1000
MTEXTEND
  0
LINE
  5
205
330
1FE
100
AcDbEntity
  8
BEMASSUNG
  6
Continuous
370
    -2
100
AcDbLine
 10
807.7079975877419
 20
230.3428854613652
 30
0.0
 11
807.7079975877419
 21
221.3428854613652
 31
0.0
  0
SOLID
  5
206
330
1FE
100
AcDbEntity
  8
BEMASSUNG
  6
Continuous
100
AcDbTrace
 10
806.7746642544085
 20
235.9428854613652
 30
0.0
 11
808.6413309210751
 21
235.9428854613652
 31
0.0
 12
807.7079975877419
 22
230.3428854613652
 32
0.0
 13
807.7079975877419
 23
230.3428854613652
 33
0.0
  0
SOLID
  5
207
330
1FE
100
AcDbEntity
  8
BEMASSUNG
  6
Continuous
100
AcDbTrace
 10
806.7746642544085
 20
215.7428854613652
 30
0.0
 11
808.6413309210751
 21
215.7428854613652
 31
0.0
 12
807.7079975877419
 22
221.3428854613652
 32
0.0
 13
807.7079975877419
 23
221.3428854613652
 33
0.0
  0
POINT
  5
208
330
1FE
100
AcDbEntity
  8
DEFPOINTS
  6
Continuous
 62
     0
100
AcDbPoint
 10
824.7313994419423
 20
230.3428854613652
 30
0.0
  0
POINT
  5
209
330
1FE
100
AcDbEntity
  8
DEFPOINTS
  6
Continuous
 62
     0
100
AcDbPoint
 10
831.4813994419422
 20
221.3428854613652
 30
0.0
  0
POINT
  5
20A
330
1FE
100
AcDbEntity
  8
DEFPOINTS
  6
Continuous
 62
     0
100
AcDbPoint
 10
807.7079975877419
 20
221.3428854613652
 30
0.0
  0
ENDBLK
  5
20B
330
1FE
100
AcDbEntity
  8
0
100
AcDbBlockEnd
  0
BLOCK
  5
1EA
330
1E9
100
AcDbEntity
  8
0
100
AcDbBlockBegin
  2
*D12
 70
     1
 10
0.0
 20
0.0
 30
0.0
  3
*D12
  1

  0
LINE
  5
1EB
330
1E9
100
AcDbEntity
  8
BEMASSUNG
  6
Continuous
370
    -2
100
AcDbLine
 10
744.8995690636377
 20
169.8627105543186
 30
0.0
 11
771.8640434167572
 21
169.8627105543186
 31
0.0
  0
LINE
  5
1EC
330
1E9
100
AcDbEntity
  8
BEMASSUNG
  6
Continuous
370
    -2
100
AcDbLine
 10
744.8995690636377
 20
156.6627105543189
 30
0.0
 11
771.8640434167572
 21
156.6627105543189
 31
0.0
  0
LINE
  5
1ED
330
1E9
100
AcDbEntity
  8
BEMASSUNG
  6
Continuous
370
    -2
100
AcDbLine
 10
771.0640434167571
 20
175.4627105543187
 30
0.0
 11
771.0640434167571
 21
181.0627105543187
 31
0.0
  0
LINE
  5
1EE
330
1E9
100
AcDbEntity
  8
BEMASSUNG
  6
Continuous
370
    -2
100
AcDbLine
 10
771.0640434167571
 20
151.0627105543189
 30
0.0
 11
771.0640434167571
 21
145.4627105543189
 31
0.0
  0
MTEXT
  5
1EF
330
1E9
100
AcDbEntity
  8
BEMASSUNG
  6
Continuous
 62
     3
100
AcDbMText
 10
766.4260819736473
 20
142.6034187263224
 30
0.0
 40
5.599999999999999
 41
0.0
 71
     5
 72
     1
  1
\A1;13.2
  7
NORM
 11
0.0000000000000001
 21
1.0
 31
0.0
 73
     1
 44
1.0
1001
ACAD
1000
MTEXTBEGIN
1070
    73
1070
     1
1070
    44
1040
1.0
1070
    74
1070
     0
1000
MTEXTEND
  0
LINE
  5
1F0
330
1E9
100
AcDbEntity
  8
BEMASSUNG
  6
Continuous
370
    -2
100
AcDbLine
 10
771.0640434167571
 20
169.8627105543186
 30
0.0
 11
771.0640434167571
 21
156.6627105543189
 31
0.0
  0
SOLID
  5
1F1
330
1E9
100
AcDbEntity
  8
BEMASSUNG
  6
Continuous
100
AcDbTrace
 10
770.1307100834241
 20
175.4627105543187
 30
0.0
 11
771.9973767500904
 21
175.4627105543187
 31
0.0
 12
771.0640434167571
 22
169.8627105543186
 32
0.0
 13
771.0640434167571
 23
169.8627105543186
 33
0.0
  0
SOLID
  5
1F2
330
1E9
100
AcDbEntity
  8
BEMASSUNG
  6
Continuous
100
AcDbTrace
 10
770.1307100834241
 20
151.0627105543189
 30
0.0
 11
771.9973767500904
 21
151.0627105543189
 31
0.0
 12
771.0640434167571
 22
156.6627105543189
 32
0.0
 13
771.0640434167571
 23
156.6627105543189
 33
0.0
  0
POINT
  5
1F3
330
1E9
100
AcDbEntity
  8
DEFPOINTS
  6
Continuous
 62
     0
100
AcDbPoint
 10
744.0995690636376
 20
169.8627105543186
 30
0.0
  0
POINT
  5
1F4
330
1E9
100
AcDbEntity
  8
DEFPOINTS
  6
Continuous
 62
     0
100
AcDbPoint
 10
744.0995690636376
 20
156.6627105543189
 30
0.0
  0
POINT
  5
1F5
330
1E9
100
AcDbEntity
  8
DEFPOINTS
  6
Continuous
 62
     0
100
AcDbPoint
 10
771.0640434167571
 20
156.6627105543189
 30
0.0
  0
ENDBLK
  5
1F6
330
1E9
100
AcDbEntity
  8
0
100
AcDbBlockEnd
  0
BLOCK
  5
1DA
330
1D9
100
AcDbEntity
  8
0
100
AcDbBlockBegin
  2
*D13
 70
     1
 10
0.0
 20
0.0
 30
0.0
  3
*D13
  1

  0
LINE
  5
1DB
330
1D9
100
AcDbEntity
  8
BEMASSUNG
  6
Continuous
370
    -2
100
AcDbLine
 10
821.4813994419422
 20
230.5428854613652
 30
0.0
 11
821.4813994419422
 21
193.7603369568202
 31
0.0
  0
LINE
  5
1DC
330
1D9
100
AcDbEntity
  8
BEMASSUNG
  6
Continuous
370
    -2
100
AcDbLine
 10
841.4813994419422
 20
230.5428854613652
 30
0.0
 11
841.4813994419422
 21
193.7603369568202
 31
0.0
  0
LINE
  5
1DD
330
1D9
100
AcDbEntity
  8
BEMASSUNG
  6
Continuous
370
    -2
100
AcDbLine
 10
827.0813994419423
 20
194.5603369568202
 30
0.0
 11
835.8813994419422
 21
194.5603369568202
 31
0.0
  0
MTEXT
  5
1DE
330
1D9
100
AcDbEntity
  8
BEMASSUNG
  6
Continuous
 62
     3
100
AcDbMText
 10
831.0798266527372
 20
198.8840728756424
 30
0.0
 40
5.599999999999999
 41
0.0
 71
     5
 72
     1
  1
\A1;18/20
  7
NORM
 73
     1
 44
1.0
1001
ACAD
1000
MTEXTBEGIN
1070
    73
1070
     1
1070
    44
1040
1.0
1070
    74
1070
     0
1000
MTEXTEND
  0
SOLID
  5
1DF
330
1D9
100
AcDbEntity
  8
BEMASSUNG
  6
Continuous
100
AcDbTrace
 10
827.0813994419423
 20
195.4936702901536
 30
0.0
 11
827.0813994419423
 21
193.6270036234869
 31
0.0
 12
821.4813994419422
 22
194.5603369568202
 32
0.0
 13
821.4813994419422
 23
194.5603369568202
 33
0.0
  0
SOLID
  5
1E0
330
1D9
100
AcDbEntity
  8
BEMASSUNG
  6
Continuous
100
AcDbTrace
 10
835.8813994419422
 20
195.4936702901536
 30
0.0
 11
835.8813994419422
 21
193.6270036234869
 31
0.0
 12
841.4813994419422
 22
194.5603369568202
 32
0.0
 13
841.4813994419422
 23
194.5603369568202
 33
0.0
  0
POINT
  5
1E1
330
1D9
100
AcDbEntity
  8
DEFPOINTS
  6
Continuous
 62
     0
100
AcDbPoint
 10
821.4813994419422
 20
231.3428854613652
 30
0.0
  0
POINT
  5
1E2
330
1D9
100
AcDbEntity
  8
DEFPOINTS
  6
Continuous
 62
     0
100
AcDbPoint
 10
841.4813994419422
 20
231.3428854613652
 30
0.0
  0
POINT
  5
1E3
330
1D9
100
AcDbEntity
  8
DEFPOINTS
  6
Continuous
 62
     0
100
AcDbPoint
 10
841.4813994419422
 20
194.5603369568202
 30
0.0
  0
ENDBLK
  5
1E4
330
1D9
100
AcDbEntity
  8
0
100
AcDbBlockEnd
  0
BLOCK
  5
1C7
330
1C6
100
AcDbEntity
  8
0
100
AcDbBlockBegin
  2
*D14
 70
     1
 10
0.0
 20
0.0
 30
0.0
  3
*D14
  1

  0
LINE
  5
1C8
330
1C6
100
AcDbEntity
  8
BEMASSUNG
  6
Continuous
370
    -2
100
AcDbLine
 10
821.4813994419422
 20
306.7221681471379
 30
0.0
 11
821.4813994419422
 21
308.3239947737052
 31
0.0
  0
LINE
  5
1C9
330
1C6
100
AcDbEntity
  8
BEMASSUNG
  6
Continuous
370
    -2
100
AcDbLine
 10
825.1813994419423
 20
307.5428854613655
 30
0.0
 11
825.1813994419423
 21
306.7239947737052
 31
0.0
  0
LINE
  5
1CA
330
1C6
100
AcDbEntity
  8
BEMASSUNG
  6
Continuous
370
    -2
100
AcDbLine
 10
815.8813994419421
 20
307.5239947737052
 30
0.0
 11
810.2813994419422
 21
307.5239947737052
 31
0.0
  0
LINE
  5
1CB
330
1C6
100
AcDbEntity
  8
BEMASSUNG
  6
Continuous
370
    -2
100
AcDbLine
 10
830.7813994419426
 20
307.5239947737052
 30
0.0
 11
836.3813994419425
 21
307.5239947737052
 31
0.0
  0
MTEXT
  5
1CC
330
1C6
100
AcDbEntity
  8
BEMASSUNG
  6
Continuous
 62
     3
100
AcDbMText
 10
811.2585513030976
 20
311.7463705890839
 30
0.0
 40
5.599999999999999
 41
0.0
 71
     5
 72
     1
  1
\A1;3.7
  7
NORM
 73
     1
 44
1.0
1001
ACAD
1000
MTEXTBEGIN
1070
    73
1070
     1
1070
    44
1040
1.0
1070
    74
1070
     0
1000
MTEXTEND
  0
LINE
  5
1CD
330
1C6
100
AcDbEntity
  8
BEMASSUNG
  6
Continuous
370
    -2
100
AcDbLine
 10
821.4813994419422
 20
307.5239947737052
 30
0.0
 11
825.1813994419423
 21
307.5239947737052
 31
0.0
  0
SOLID
  5
1CE
330
1C6
100
AcDbEntity
  8
BEMASSUNG
  6
Continuous
100
AcDbTrace
 10
815.8813994419421
 20
308.4573281070386
 30
0.0
 11
815.8813994419421
 21
306.5906614403719
 31
0.0
 12
821.4813994419422
 22
307.5239947737052
 32
0.0
 13
821.4813994419422
 23
307.5239947737052
 33
0.0
  0
SOLID
  5
1CF
330
1C6
100
AcDbEntity
  8
BEMASSUNG
  6
Continuous
100
AcDbTrace
 10
830.7813994419426
 20
308.4573281070386
 30
0.0
 11
830.7813994419426
 21
306.5906614403719
 31
0.0
 12
825.1813994419423
 22
307.5239947737052
 32
0.0
 13
825.1813994419423
 23
307.5239947737052
 33
0.0
  0
POINT
  5
1D0
330
1C6
100
AcDbEntity
  8
DEFPOINTS
  6
Continuous
 62
     0
100
AcDbPoint
 10
821.4813994419422
 20
305.9221681471379
 30
0.0
  0
POINT
  5
1D1
330
1C6
100
AcDbEntity
  8
DEFPOINTS
  6
Continuous
 62
     0
100
AcDbPoint
 10
825.1813994419423
 20
308.3428854613655
 30
0.0
  0
POINT
  5
1D2
330
1C6
100
AcDbEntity
  8
DEFPOINTS
  6
Continuous
 62
     0
100
AcDbPoint
 10
825.1813994419423
 20
307.5239947737052
 30
0.0
  0
ENDBLK
  5
1D3
330
1C6
100
AcDbEntity
  8
0
100
AcDbBlockEnd
  0
BLOCK
  5
1B7
330
1B6
100
AcDbEntity
  8
0
100
AcDbBlockBegin
  2
*D15
 70
     1
 10
0.0
 20
0.0
 30
0.0
  3
*D15
  1

  0
LINE
  5
1B8
330
1B6
100
AcDbEntity
  8
BEMASSUNG
  6
Continuous
370
    -2
100
AcDbLine
 10
728.7747983309213
 20
286.3428854613654
 30
0.0
 11
771.1070974340363
 21
286.3428854613654
 31
0.0
  0
LINE
  5
1B9
330
1B6
100
AcDbEntity
  8
BEMASSUNG
  6
Continuous
370
    -2
100
AcDbLine
 10
727.099569063642
 20
256.8428854613652
 30
0.0
 11
771.1070974340363
 21
256.8428854613652
 31
0.0
  0
LINE
  5
1BA
330
1B6
100
AcDbEntity
  8
BEMASSUNG
  6
Continuous
370
    -2
100
AcDbLine
 10
770.3070974340362
 20
280.7428854613654
 30
0.0
 11
770.3070974340362
 21
262.4428854613652
 31
0.0
  0
SOLID
  5
1BB
330
1B6
100
AcDbEntity
  8
BEMASSUNG
  6
Continuous
100
AcDbTrace
 10
769.3737641007031
 20
280.7428854613654
 30
0.0
 11
771.2404307673697
 21
280.7428854613654
 31
0.0
 12
770.3070974340362
 22
286.3428854613654
 32
0.0
 13
770.3070974340362
 23
286.3428854613654
 33
0.0
  0
SOLID
  5
1BC
330
1B6
100
AcDbEntity
  8
BEMASSUNG
  6
Continuous
100
AcDbTrace
 10
769.3737641007031
 20
262.4428854613652
 30
0.0
 11
771.2404307673697
 21
262.4428854613652
 31
0.0
 12
770.3070974340362
 22
256.8428854613652
 32
0.0
 13
770.3070974340362
 23
256.8428854613652
 33
0.0
  0
MTEXT
  5
1BD
330
1B6
100
AcDbEntity
  8
BEMASSUNG
  6
Continuous
 62
     3
100
AcDbMText
 10
765.9070974340362
 20
271.5928854613654
 30
0.0
 40
5.599999999999999
 41
0.0
 71
     5
 72
     1
  1
\A1;29.5
  7
NORM
 11
0.0000000000000001
 21
1.0
 31
0.0
 73
     1
 44
1.0
1001
ACAD
1000
MTEXTBEGIN
1070
    73
1070
     1
1070
    44
1040
1.0
1070
    74
1070
     0
1000
MTEXTEND
  0
POINT
  5
1BE
330
1B6
100
AcDbEntity
  8
DEFPOINTS
  6
Continuous
 62
     0
100
AcDbPoint
 10
727.9747983309214
 20
286.3428854613654
 30
0.0
  0
POINT
  5
1BF
330
1B6
100
AcDbEntity
  8
DEFPOINTS
  6
Continuous
 62
     0
100
AcDbPoint
 10
726.2995690636419
 20
256.8428854613652
 30
0.0
  0
POINT
  5
1C0
330
1B6
100
AcDbEntity
  8
DEFPOINTS
  6
Continuous
 62
     0
100
AcDbPoint
 10
770.3070974340362
 20
256.8428854613652
 30
0.0
  0
ENDBLK
  5
1C1
330
1B6
100
AcDbEntity
  8
0
100
AcDbBlockEnd
  0
BLOCK
  5
173
330
172
100
AcDbEntity
  8
0
100
AcDbBlockBegin
  2
*D16
 70
     1
 10
0.0
 20
0.0
 30
0.0
  3
*D16
  1

  0
LINE
  5
174
330
172
100
AcDbEntity
  8
BEMASSUNG
  6
Continuous
370
    -2
100
AcDbLine
 10
825.1813994419423
 20
292.4428854613656
 30
0.0
 11
825.1813994419423
 21
281.8074055595102
 31
0.0
  0
LINE
  5
175
330
172
100
AcDbEntity
  8
BEMASSUNG
  6
Continuous
370
    -2
100
AcDbLine
 10
832.6813994419422
 20
292.4428854613656
 30
0.0
 11
832.6813994419422
 21
281.8074055595102
 31
0.0
  0
LINE
  5
176
330
172
100
AcDbEntity
  8
BEMASSUNG
  6
Continuous
370
    -2
100
AcDbLine
 10
819.5813994419424
 20
282.6074055595102
 30
0.0
 11
813.9813994419425
 21
282.6074055595102
 31
0.0
  0
LINE
  5
177
330
172
100
AcDbEntity
  8
BEMASSUNG
  6
Continuous
370
    -2
100
AcDbLine
 10
838.2813994419423
 20
282.6074055595102
 30
0.0
 11
843.8813994419422
 21
282.6074055595102
 31
0.0
  0
MTEXT
  5
178
330
172
100
AcDbEntity
  8
BEMASSUNG
  6
Continuous
 62
     3
100
AcDbMText
 10
812.3082185007426
 20
286.748827644042
 30
0.0
 40
5.599999999999999
 41
0.0
 71
     5
 72
     1
  1
\A1;7.5
  7
NORM
 73
     1
 44
1.0
1001
ACAD
1000
MTEXTBEGIN
1070
    73
1070
     1
1070
    44
1040
1.0
1070
    74
1070
     0
1000
MTEXTEND
  0
LINE
  5
179
330
172
100
AcDbEntity
  8
BEMASSUNG
  6
Continuous
370
    -2
100
AcDbLine
 10
825.1813994419423
 20
282.6074055595102
 30
0.0
 11
832.6813994419422
 21
282.6074055595102
 31
0.0
  0
SOLID
  5
17A
330
172
100
AcDbEntity
  8
BEMASSUNG
  6
Continuous
100
AcDbTrace
 10
819.5813994419424
 20
283.5407388928435
 30
0.0
 11
819.5813994419424
 21
281.6740722261769
 31
0.0
 12
825.1813994419423
 22
282.6074055595102
 32
0.0
 13
825.1813994419423
 23
282.6074055595102
 33
0.0
  0
SOLID
  5
17B
330
172
100
AcDbEntity
  8
BEMASSUNG
  6
Continuous
100
AcDbTrace
 10
838.2813994419423
 20
283.5407388928435
 30
0.0
 11
838.2813994419423
 21
281.6740722261769
 31
0.0
 12
832.6813994419422
 22
282.6074055595102
 32
0.0
 13
832.6813994419422
 23
282.6074055595102
 33
0.0
  0
POINT
  5
17C
330
172
100
AcDbEntity
  8
DEFPOINTS
  6
Continuous
 62
     0
100
AcDbPoint
 10
825.1813994419423
 20
293.2428854613656
 30
0.0
  0
POINT
  5
17D
330
172
100
AcDbEntity
  8
DEFPOINTS
  6
Continuous
 62
     0
100
AcDbPoint
 10
832.6813994419422
 20
293.2428854613656
 30
0.0
  0
POINT
  5
17E
330
172
100
AcDbEntity
  8
DEFPOINTS
  6
Continuous
 62
     0
100
AcDbPoint
 10
832.6813994419422
 20
282.6074055595102
 30
0.0
  0
ENDBLK
  5
17F
330
172
100
AcDbEntity
  8
0
100
AcDbBlockEnd
  0
BLOCK
  5
162
330
161
100
AcDbEntity
  8
0
100
AcDbBlockBegin
  2
*D17
 70
     1
 10
0.0
 20
0.0
 30
0.0
  3
*D17
  1

  0
LINE
  5
163
330
161
100
AcDbEntity
  8
BEMASSUNG
  6
Continuous
370
    -2
100
AcDbLine
 10
659.8995864954146
 20
386.3428761062573
 30
0.0
 11
687.9728105372969
 21
386.3428761062573
 31
0.0
  0
LINE
  5
164
330
161
100
AcDbEntity
  8
BEMASSUNG
  6
Continuous
370
    -2
100
AcDbLine
 10
690.6995690636422
 20
364.342885461366
 30
0.0
 11
686.372810537297
 21
364.342885461366
 31
0.0
  0
LINE
  5
165
330
161
100
AcDbEntity
  8
BEMASSUNG
  6
Continuous
370
    -2
100
AcDbLine
 10
687.1728105372969
 20
380.7428761062573
 30
0.0
 11
687.1728105372969
 21
369.942885461366
 31
0.0
  0
SOLID
  5
166
330
161
100
AcDbEntity
  8
BEMASSUNG
  6
Continuous
100
AcDbTrace
 10
686.2394772039635
 20
380.7428761062573
 30
0.0
 11
688.1061438706301
 21
380.7428761062573
 31
0.0
 12
687.1728105372969
 22
386.3428761062573
 32
0.0
 13
687.1728105372969
 23
386.3428761062573
 33
0.0
  0
SOLID
  5
167
330
161
100
AcDbEntity
  8
BEMASSUNG
  6
Continuous
100
AcDbTrace
 10
686.2394772039635
 20
369.942885461366
 30
0.0
 11
688.1061438706301
 21
369.942885461366
 31
0.0
 12
687.1728105372969
 22
364.342885461366
 32
0.0
 13
687.1728105372969
 23
364.342885461366
 33
0.0
  0
MTEXT
  5
168
330
161
100
AcDbEntity
  8
BEMASSUNG
  6
Continuous
 62
     3
100
AcDbMText
 10
682.7728105372969
 20
375.3428807838118
 30
0.0
 40
5.599999999999999
 41
0.0
 71
     5
 72
     1
  1
\A1;22
  7
NORM
 11
0.0000000000000001
 21
1.0
 31
0.0
 73
     1
 44
1.0
1001
ACAD
1000
MTEXTBEGIN
1070
    73
1070
     1
1070
    44
1040
1.0
1070
    74
1070
     0
1000
MTEXTEND
  0
POINT
  5
169
330
161
100
AcDbEntity
  8
DEFPOINTS
  6
Continuous
 62
     0
100
AcDbPoint
 10
659.0995864954146
 20
386.3428761062573
 30
0.0
  0
POINT
  5
16A
330
161
100
AcDbEntity
  8
DEFPOINTS
  6
Continuous
 62
     0
100
AcDbPoint
 10
691.4995690636422
 20
364.342885461366
 30
0.0
  0
POINT
  5
16B
330
161
100
AcDbEntity
  8
DEFPOINTS
  6
Continuous
 62
     0
100
AcDbPoint
 10
687.1728105372969
 20
364.342885461366
 30
0.0
  0
ENDBLK
  5
16C
330
161
100
AcDbEntity
  8
0
100
AcDbBlockEnd
  0
BLOCK
  5
153
330
152
100
AcDbEntity
  8
0
100
AcDbBlockBegin
  2
*D18
 70
     1
 10
0.0
 20
0.0
 30
0.0
  3
*D18
  1

  0
LINE
  5
154
330
152
100
AcDbEntity
  8
BEMASSUNG
  6
Continuous
370
    -2
100
AcDbLine
 10
645.0995864954146
 20
402.1428761062573
 30
0.0
 11
645.0995864954146
 21
407.2196755882551
 31
0.0
  0
LINE
  5
155
330
152
100
AcDbEntity
  8
BEMASSUNG
  6
Continuous
370
    -2
100
AcDbLine
 10
655.0995690636427
 20
408.3023168920051
 30
0.0
 11
655.0995690636427
 21
405.6196755882552
 31
0.0
  0
LINE
  5
156
330
152
100
AcDbEntity
  8
BEMASSUNG
  6
Continuous
370
    -2
100
AcDbLine
 10
639.4995864954146
 20
406.4196755882551
 30
0.0
 11
633.8995864954146
 21
406.4196755882551
 31
0.0
  0
LINE
  5
157
330
152
100
AcDbEntity
  8
BEMASSUNG
  6
Continuous
370
    -2
100
AcDbLine
 10
660.6995690636426
 20
406.4196755882551
 30
0.0
 11
666.2995690636427
 21
406.4196755882551
 31
0.0
  0
LINE
  5
158
330
152
100
AcDbEntity
  8
BEMASSUNG
  6
Continuous
370
    -2
100
AcDbLine
 10
645.0995864954146
 20
406.4196755882551
 30
0.0
 11
655.0995690636427
 21
406.4196755882551
 31
0.0
  0
SOLID
  5
159
330
152
100
AcDbEntity
  8
BEMASSUNG
  6
Continuous
100
AcDbTrace
 10
639.4995864954146
 20
407.3530089215883
 30
0.0
 11
639.4995864954146
 21
405.4863422549217
 31
0.0
 12
645.0995864954146
 22
406.4196755882551
 32
0.0
 13
645.0995864954146
 23
406.4196755882551
 33
0.0
  0
SOLID
  5
15A
330
152
100
AcDbEntity
  8
BEMASSUNG
  6
Continuous
100
AcDbTrace
 10
660.6995690636426
 20
407.3530089215883
 30
0.0
 11
660.6995690636426
 21
405.4863422549217
 31
0.0
 12
655.0995690636427
 22
406.4196755882551
 32
0.0
 13
655.0995690636427
 23
406.4196755882551
 33
0.0
  0
MTEXT
  5
15B
330
152
100
AcDbEntity
  8
BEMASSUNG
  6
Continuous
 62
     3
100
AcDbMText
 10
650.0995777795288
 20
410.8196755882549
 30
0.0
 40
5.599999999999999
 41
0.0
 71
     5
 72
     1
  1
\A1;10
  7
NORM
 73
     1
 44
1.0
1001
ACAD
1000
MTEXTBEGIN
1070
    73
1070
     1
1070
    44
1040
1.0
1070
    74
1070
     0
1000
MTEXTEND
  0
POINT
  5
15C
330
152
100
AcDbEntity
  8
DEFPOINTS
  6
Continuous
 62
     0
100
AcDbPoint
 10
645.0995864954146
 20
401.3428761062573
 30
0.0
  0
POINT
  5
15D
330
152
100
AcDbEntity
  8
DEFPOINTS
  6
Continuous
 62
     0
100
AcDbPoint
 10
655.0995690636427
 20
409.1023168920051
 30
0.0
  0
POINT
  5
15E
330
152
100
AcDbEntity
  8
DEFPOINTS
  6
Continuous
 62
     0
100
AcDbPoint
 10
655.0995690636427
 20
406.4196755882551
 30
0.0
  0
ENDBLK
  5
15F
330
152
100
AcDbEntity
  8
0
100
AcDbBlockEnd
  0
BLOCK
  5
144
330
143
100
AcDbEntity
  8
0
100
AcDbBlockBegin
  2
*D19
 70
     1
 10
0.0
 20
0.0
 30
0.0
  3
*D19
  1

  0
LINE
  5
145
330
143
100
AcDbEntity
  8
BEMASSUNG
  6
Continuous
370
    -2
100
AcDbLine
 10
644.2995864954147
 20
401.3428761062573
 30
0.0
 11
627.610170988009
 21
401.3428761062574
 31
0.0
  0
LINE
  5
146
330
143
100
AcDbEntity
  8
BEMASSUNG
  6
Continuous
370
    -2
100
AcDbLine
 10
657.2995690636403
 20
415.8428854613648
 30
0.0
 11
627.610170988009
 21
415.8428854613648
 31
0.0
  0
LINE
  5
147
330
143
100
AcDbEntity
  8
BEMASSUNG
  6
Continuous
370
    -2
100
AcDbLine
 10
628.410170988009
 20
395.7428761062574
 30
0.0
 11
628.410170988009
 21
390.1428761062574
 31
0.0
  0
LINE
  5
148
330
143
100
AcDbEntity
  8
BEMASSUNG
  6
Continuous
370
    -2
100
AcDbLine
 10
628.410170988009
 20
421.4428854613649
 30
0.0
 11
628.410170988009
 21
427.0428854613649
 31
0.0
  0
LINE
  5
149
330
143
100
AcDbEntity
  8
BEMASSUNG
  6
Continuous
370
    -2
100
AcDbLine
 10
628.410170988009
 20
401.3428761062574
 30
0.0
 11
628.410170988009
 21
415.8428854613648
 31
0.0
  0
SOLID
  5
14A
330
143
100
AcDbEntity
  8
BEMASSUNG
  6
Continuous
100
AcDbTrace
 10
627.4768376546757
 20
395.7428761062574
 30
0.0
 11
629.3435043213422
 21
395.7428761062574
 31
0.0
 12
628.410170988009
 22
401.3428761062574
 32
0.0
 13
628.410170988009
 23
401.3428761062574
 33
0.0
  0
SOLID
  5
14B
330
143
100
AcDbEntity
  8
BEMASSUNG
  6
Continuous
100
AcDbTrace
 10
627.4768376546757
 20
421.4428854613649
 30
0.0
 11
629.3435043213422
 21
421.4428854613649
 31
0.0
 12
628.410170988009
 22
415.8428854613648
 32
0.0
 13
628.410170988009
 23
415.8428854613648
 33
0.0
  0
MTEXT
  5
14C
330
143
100
AcDbEntity
  8
BEMASSUNG
  6
Continuous
 62
     3
100
AcDbMText
 10
624.0101709880089
 20
408.5928807838111
 30
0.0
 40
5.599999999999999
 41
0.0
 71
     5
 72
     1
  1
\A1;14.5
  7
NORM
 11
0.0000000000000001
 21
1.0
 31
0.0
 73
     1
 44
1.0
1001
ACAD
1000
MTEXTBEGIN
1070
    73
1070
     1
1070
    44
1040
1.0
1070
    74
1070
     0
1000
MTEXTEND
  0
POINT
  5
14D
330
143
100
AcDbEntity
  8
DEFPOINTS
  6
Continuous
 62
     0
100
AcDbPoint
 10
645.0995864954146
 20
401.3428761062573
 30
0.0
  0
POINT
  5
14E
330
143
100
AcDbEntity
  8
DEFPOINTS
  6
Continuous
 62
     0
100
AcDbPoint
 10
658.0995690636401
 20
415.8428854613648
 30
0.0
  0
POINT
  5
14F
330
143
100
AcDbEntity
  8
DEFPOINTS
  6
Continuous
 62
     0
100
AcDbPoint
 10
628.410170988009
 20
415.8428854613648
 30
0.0
  0
ENDBLK
  5
150
330
143
100
AcDbEntity
  8
0
100
AcDbBlockEnd
  0
BLOCK
  5
137
330
136
100
AcDbEntity
  8
0
100
AcDbBlockBegin
  2
*D20
 70
     1
 10
0.0
 20
0.0
 30
0.0
  3
*D20
  1

  0
LINE
  5
138
330
136
100
AcDbEntity
  8
BEMASSUNG
  6
Continuous
370
    -2
100
AcDbLine
 10
644.2995864954147
 20
371.3428761062571
 30
0.0
 11
627.6137641039331
 21
371.3428761062572
 31
0.0
  0
LINE
  5
139
330
136
100
AcDbEntity
  8
BEMASSUNG
  6
Continuous
370
    -2
100
AcDbLine
 10
644.2995864954147
 20
401.3428761062573
 30
0.0
 11
627.6137641039331
 21
401.3428761062574
 31
0.0
  0
LINE
  5
13A
330
136
100
AcDbEntity
  8
BEMASSUNG
  6
Continuous
370
    -2
100
AcDbLine
 10
628.4137641039331
 20
376.9428761062572
 30
0.0
 11
628.4137641039331
 21
395.7428761062574
 31
0.0
  0
MTEXT
  5
13B
330
136
100
AcDbEntity
  8
BEMASSUNG
  6
Continuous
 62
     3
100
AcDbMText
 10
623.2364256504644
 20
385.7545153088675
 30
0.0
 40
5.599999999999999
 41
0.0
 71
     5
 72
     1
  1
\A1;30
  7
NORM
 11
0.0000000000000001
 21
1.0
 31
0.0
 73
     1
 44
1.0
1001
ACAD
1000
MTEXTBEGIN
1070
    73
1070
     1
1070
    44
1040
1.0
1070
    74
1070
     0
1000
MTEXTEND
  0
SOLID
  5
13C
330
136
100
AcDbEntity
  8
BEMASSUNG
  6
Continuous
100
AcDbTrace
 10
627.4804307705997
 20
376.9428761062572
 30
0.0
 11
629.3470974372662
 21
376.9428761062572
 31
0.0
 12
628.4137641039331
 22
371.3428761062572
 32
0.0
 13
628.4137641039331
 23
371.3428761062572
 33
0.0
  0
SOLID
  5
13D
330
136
100
AcDbEntity
  8
BEMASSUNG
  6
Continuous
100
AcDbTrace
 10
627.4804307705997
 20
395.7428761062574
 30
0.0
 11
629.3470974372662
 21
395.7428761062574
 31
0.0
 12
628.4137641039331
 22
401.3428761062574
 32
0.0
 13
628.4137641039331
 23
401.3428761062574
 33
0.0
  0
POINT
  5
13E
330
136
100
AcDbEntity
  8
DEFPOINTS
  6
Continuous
 62
     0
100
AcDbPoint
 10
645.0995864954146
 20
371.3428761062571
 30
0.0
  0
POINT
  5
13F
330
136
100
AcDbEntity
  8
DEFPOINTS
  6
Continuous
 62
     0
100
AcDbPoint
 10
645.0995864954146
 20
401.3428761062573
 30
0.0
  0
POINT
  5
140
330
136
100
AcDbEntity
  8
DEFPOINTS
  6
Continuous
 62
     0
100
AcDbPoint
 10
628.4137641039331
 20
401.3428761062574
 30
0.0
  0
ENDBLK
  5
141
330
136
100
AcDbEntity
  8
0
100
AcDbBlockEnd
  0
BLOCK
  5
112
330
111
100
AcDbEntity
  8
0
100
AcDbBlockBegin
  2
*D21
 70
     1
 10
0.0
 20
0.0
 30
0.0
  3
*D21
  1

  0
LINE
  5
113
330
111
100
AcDbEntity
  8
BEMASSUNG
  6
Continuous
370
    -2
100
AcDbLine
 10
654.2995690636423
 20
451.3428854613648
 30
0.0
 11
627.5348207872124
 21
451.3428854613649
 31
0.0
  0
LINE
  5
114
330
111
100
AcDbEntity
  8
BEMASSUNG
  6
Continuous
370
    -2
100
AcDbLine
 10
657.2995690636403
 20
415.8428854613648
 30
0.0
 11
627.5348207872124
 21
415.8428854613648
 31
0.0
  0
LINE
  5
115
330
111
100
AcDbEntity
  8
BEMASSUNG
  6
Continuous
370
    -2
100
AcDbLine
 10
628.3348207872124
 20
445.7428854613649
 30
0.0
 11
628.3348207872124
 21
421.4428854613649
 31
0.0
  0
SOLID
  5
116
330
111
100
AcDbEntity
  8
BEMASSUNG
  6
Continuous
100
AcDbTrace
 10
627.401487453879
 20
445.7428854613649
 30
0.0
 11
629.2681541205456
 21
445.7428854613649
 31
0.0
 12
628.3348207872124
 22
451.3428854613649
 32
0.0
 13
628.3348207872124
 23
451.3428854613649
 33
0.0
  0
SOLID
  5
117
330
111
100
AcDbEntity
  8
BEMASSUNG
  6
Continuous
100
AcDbTrace
 10
627.401487453879
 20
421.4428854613649
 30
0.0
 11
629.2681541205456
 21
421.4428854613649
 31
0.0
 12
628.3348207872124
 22
415.8428854613648
 32
0.0
 13
628.3348207872124
 23
415.8428854613648
 33
0.0
  0
MTEXT
  5
118
330
111
100
AcDbEntity
  8
BEMASSUNG
  6
Continuous
 62
     3
100
AcDbMText
 10
623.9348207872121
 20
433.592885461365
 30
0.0
 40
5.599999999999999
 41
0.0
 71
     5
 72
     1
  1
\A1;35.5
  7
NORM
 11
0.0000000000000001
 21
1.0
 31
0.0
 73
     1
 44
1.0
1001
ACAD
1000
MTEXTBEGIN
1070
    73
1070
     1
1070
    44
1040
1.0
1070
    74
1070
     0
1000
MTEXTEND
  0
POINT
  5
119
330
111
100
AcDbEntity
  8
DEFPOINTS
  6
Continuous
 62
     0
100
AcDbPoint
 10
655.0995690636423
 20
451.3428854613648
 30
0.0
  0
POINT
  5
11A
330
111
100
AcDbEntity
  8
DEFPOINTS
  6
Continuous
 62
     0
100
AcDbPoint
 10
658.0995690636401
 20
415.8428854613648
 30
0.0
  0
POINT
  5
11B
330
111
100
AcDbEntity
  8
DEFPOINTS
  6
Continuous
 62
     0
100
AcDbPoint
 10
628.3348207872124
 20
415.8428854613648
 30
0.0
  0
ENDBLK
  5
11C
330
111
100
AcDbEntity
  8
0
100
AcDbBlockEnd
  0
BLOCK
  5
101
330
100
100
AcDbEntity
  8
0
100
AcDbBlockBegin
  2
*D22
 70
     1
 10
0.0
 20
0.0
 30
0.0
  3
*D22
  1

  0
LINE
  5
102
330
100
100
AcDbEntity
  8
BEMASSUNG
  6
Continuous
370
    -2
100
AcDbLine
 10
823.9313994419422
 20
442.3428854613647
 30
0.0
 11
806.9181290400127
 21
442.3428854613647
 31
0.0
  0
LINE
  5
103
330
100
100
AcDbEntity
  8
BEMASSUNG
  6
Continuous
370
    -2
100
AcDbLine
 10
830.6813994419423
 20
451.3428854613648
 30
0.0
 11
806.9181290400127
 21
451.3428854613648
 31
0.0
  0
LINE
  5
104
330
100
100
AcDbEntity
  8
BEMASSUNG
  6
Continuous
370
    -2
100
AcDbLine
 10
807.7181290400128
 20
436.7428854613648
 30
0.0
 11
807.7181290400128
 21
431.1428854613648
 31
0.0
  0
LINE
  5
105
330
100
100
AcDbEntity
  8
BEMASSUNG
  6
Continuous
370
    -2
100
AcDbLine
 10
807.7181290400128
 20
456.9428854613648
 30
0.0
 11
807.7181290400128
 21
462.5428854613648
 31
0.0
  0
MTEXT
  5
106
330
100
100
AcDbEntity
  8
BEMASSUNG
  6
Continuous
 62
     3
100
AcDbMText
 10
803.2807463675196
 20
447.1323011864848
 30
0.0
 40
5.599999999999999
 41
0.0
 71
     5
 72
     1
  1
\A1;9
  7
NORM
 11
0.0000000000000001
 21
1.0
 31
0.0
 73
     1
 44
1.0
1001
ACAD
1000
MTEXTBEGIN
1070
    73
1070
     1
1070
    44
1040
1.0
1070
    74
1070
     0
1000
MTEXTEND
  0
LINE
  5
107
330
100
100
AcDbEntity
  8
BEMASSUNG
  6
Continuous
370
    -2
100
AcDbLine
 10
807.7181290400128
 20
442.3428854613647
 30
0.0
 11
807.7181290400128
 21
451.3428854613648
 31
0.0
  0
SOLID
  5
108
330
100
100
AcDbEntity
  8
BEMASSUNG
  6
Continuous
100
AcDbTrace
 10
806.7847957066797
 20
436.7428854613648
 30
0.0
 11
808.6514623733458
 21
436.7428854613648
 31
0.0
 12
807.7181290400128
 22
442.3428854613647
 32
0.0
 13
807.7181290400128
 23
442.3428854613647
 33
0.0
  0
SOLID
  5
109
330
100
100
AcDbEntity
  8
BEMASSUNG
  6
Continuous
100
AcDbTrace
 10
806.7847957066797
 20
456.9428854613648
 30
0.0
 11
808.6514623733458
 21
456.9428854613648
 31
0.0
 12
807.7181290400128
 22
451.3428854613648
 32
0.0
 13
807.7181290400128
 23
451.3428854613648
 33
0.0
  0
POINT
  5
10A
330
100
100
AcDbEntity
  8
DEFPOINTS
  6
Continuous
 62
     0
100
AcDbPoint
 10
824.7313994419423
 20
442.3428854613647
 30
0.0
  0
POINT
  5
10B
330
100
100
AcDbEntity
  8
DEFPOINTS
  6
Continuous
 62
     0
100
AcDbPoint
 10
831.4813994419422
 20
451.3428854613648
 30
0.0
  0
POINT
  5
10C
330
100
100
AcDbEntity
  8
DEFPOINTS
  6
Continuous
 62
     0
100
AcDbPoint
 10
807.7181290400128
 20
451.3428854613648
 30
0.0
  0
ENDBLK
  5
10D
330
100
100
AcDbEntity
  8
0
100
AcDbBlockEnd
  0
BLOCK
  5
F2
330
F1
100
AcDbEntity
  8
0
100
AcDbBlockBegin
  2
*D23
 70
     1
 10
0.0
 20
0.0
 30
0.0
  3
*D23
  1

  0
LINE
  5
F3
330
F1
100
AcDbEntity
  8
BEMASSUNG
  6
Continuous
370
    -2
100
AcDbLine
 10
824.8813994419423
 20
388.2102726851637
 30
0.0
 11
824.8813994419423
 21
388.41189005842
 31
0.0
  0
LINE
  5
F4
330
F1
100
AcDbEntity
  8
BEMASSUNG
  6
Continuous
370
    -2
100
AcDbLine
 10
821.4813994419422
 20
386.9126987450476
 30
0.0
 11
821.4813994419422
 21
386.8118900584199
 31
0.0
  0
LINE
  5
F5
330
F1
100
AcDbEntity
  8
BEMASSUNG
  6
Continuous
370
    -2
100
AcDbLine
 10
830.4813994419424
 20
387.61189005842
 30
0.0
 11
836.0813994419423
 21
387.61189005842
 31
0.0
  0
LINE
  5
F6
330
F1
100
AcDbEntity
  8
BEMASSUNG
  6
Continuous
370
    -2
100
AcDbLine
 10
815.8813994419421
 20
387.61189005842
 30
0.0
 11
810.2813994419422
 21
387.61189005842
 31
0.0
  0
MTEXT
  5
F7
330
F1
100
AcDbEntity
  8
BEMASSUNG
  6
Continuous
 62
     3
100
AcDbMText
 10
810.0705369777077
 20
391.9825217826667
 30
0.0
 40
5.599999999999999
 41
0.0
 71
     5
 72
     1
  1
\A1;3.4
  7
NORM
 73
     1
 44
1.0
1001
ACAD
1000
MTEXTBEGIN
1070
    73
1070
     1
1070
    44
1040
1.0
1070
    74
1070
     0
1000
MTEXTEND
  0
LINE
  5
F8
330
F1
100
AcDbEntity
  8
BEMASSUNG
  6
Continuous
370
    -2
100
AcDbLine
 10
824.8813994419423
 20
387.61189005842
 30
0.0
 11
821.4813994419422
 21
387.61189005842
 31
0.0
  0
SOLID
  5
F9
330
F1
100
AcDbEntity
  8
BEMASSUNG
  6
Continuous
100
AcDbTrace
 10
830.4813994419424
 20
388.5452233917533
 30
0.0
 11
830.4813994419424
 21
386.6785567250866
 31
0.0
 12
824.8813994419423
 22
387.61189005842
 32
0.0
 13
824.8813994419423
 23
387.61189005842
 33
0.0
  0
SOLID
  5
FA
330
F1
100
AcDbEntity
  8
BEMASSUNG
  6
Continuous
100
AcDbTrace
 10
815.8813994419421
 20
388.5452233917533
 30
0.0
 11
815.8813994419421
 21
386.6785567250866
 31
0.0
 12
821.4813994419422
 22
387.61189005842
 32
0.0
 13
821.4813994419422
 23
387.61189005842
 33
0.0
  0
POINT
  5
FB
330
F1
100
AcDbEntity
  8
DEFPOINTS
  6
Continuous
 62
     0
100
AcDbPoint
 10
824.8813994419423
 20
387.4102726851636
 30
0.0
  0
POINT
  5
FC
330
F1
100
AcDbEntity
  8
DEFPOINTS
  6
Continuous
 62
     0
100
AcDbPoint
 10
821.4813994419422
 20
387.7126987450477
 30
0.0
  0
POINT
  5
FD
330
F1
100
AcDbEntity
  8
DEFPOINTS
  6
Continuous
 62
     0
100
AcDbPoint
 10
821.4813994419422
 20
387.61189005842
 30
0.0
  0
ENDBLK
  5
FE
330
F1
100
AcDbEntity
  8
0
100
AcDbBlockEnd
  0
BLOCK
  5
E3
330
E2
100
AcDbEntity
  8
0
100
AcDbBlockBegin
  2
*D24
 70
     1
 10
0.0
 20
0.0
 30
0.0
  3
*D24
  1

  0
LINE
  5
E4
330
E2
100
AcDbEntity
  8
BEMASSUNG
  6
Continuous
370
    -2
100
AcDbLine
 10
710.5995690636421
 20
411.1428854613658
 30
0.0
 11
710.5995690636421
 21
427.306241634632
 31
0.0
  0
LINE
  5
E5
330
E2
100
AcDbEntity
  8
BEMASSUNG
  6
Continuous
370
    -2
100
AcDbLine
 10
719.5995690636423
 20
411.1428854613658
 30
0.0
 11
719.5995690636423
 21
427.306241634632
 31
0.0
  0
LINE
  5
E6
330
E2
100
AcDbEntity
  8
BEMASSUNG
  6
Continuous
370
    -2
100
AcDbLine
 10
704.999569063642
 20
426.506241634632
 30
0.0
 11
699.3995690636421
 21
426.506241634632
 31
0.0
  0
LINE
  5
E7
330
E2
100
AcDbEntity
  8
BEMASSUNG
  6
Continuous
370
    -2
100
AcDbLine
 10
725.1995690636422
 20
426.506241634632
 30
0.0
 11
730.7995690636422
 21
426.506241634632
 31
0.0
  0
MTEXT
  5
E8
330
E2
100
AcDbEntity
  8
BEMASSUNG
  6
Continuous
 62
     3
100
AcDbMText
 10
714.8067504453751
 20
431.4931541077632
 30
0.0
 40
5.599999999999999
 41
0.0
 71
     5
 72
     1
  1
\A1;9
  7
NORM
 73
     1
 44
1.0
1001
ACAD
1000
MTEXTBEGIN
1070
    73
1070
     1
1070
    44
1040
1.0
1070
    74
1070
     0
1000
MTEXTEND
  0
LINE
  5
E9
330
E2
100
AcDbEntity
  8
BEMASSUNG
  6
Continuous
370
    -2
100
AcDbLine
 10
710.5995690636421
 20
426.506241634632
 30
0.0
 11
719.5995690636423
 21
426.506241634632
 31
0.0
  0
SOLID
  5
EA
330
E2
100
AcDbEntity
  8
BEMASSUNG
  6
Continuous
100
AcDbTrace
 10
704.999569063642
 20
427.4395749679653
 30
0.0
 11
704.999569063642
 21
425.5729083012987
 31
0.0
 12
710.5995690636421
 22
426.506241634632
 32
0.0
 13
710.5995690636421
 23
426.506241634632
 33
0.0
  0
SOLID
  5
EB
330
E2
100
AcDbEntity
  8
BEMASSUNG
  6
Continuous
100
AcDbTrace
 10
725.1995690636422
 20
427.4395749679653
 30
0.0
 11
725.1995690636422
 21
425.5729083012987
 31
0.0
 12
719.5995690636423
 22
426.506241634632
 32
0.0
 13
719.5995690636423
 23
426.506241634632
 33
0.0
  0
POINT
  5
EC
330
E2
100
AcDbEntity
  8
DEFPOINTS
  6
Continuous
 62
     0
100
AcDbPoint
 10
710.5995690636421
 20
410.3428854613658
 30
0.0
  0
POINT
  5
ED
330
E2
100
AcDbEntity
  8
DEFPOINTS
  6
Continuous
 62
     0
100
AcDbPoint
 10
719.5995690636423
 20
410.3428854613658
 30
0.0
  0
POINT
  5
EE
330
E2
100
AcDbEntity
  8
DEFPOINTS
  6
Continuous
 62
     0
100
AcDbPoint
 10
719.5995690636423
 20
426.506241634632
 30
0.0
  0
ENDBLK
  5
EF
330
E2
100
AcDbEntity
  8
0
100
AcDbBlockEnd
  0
BLOCK
  5
D6
330
D5
100
AcDbEntity
  8
0
100
AcDbBlockBegin
  2
*D25
 70
     1
 10
0.0
 20
0.0
 30
0.0
  3
*D25
  1

  0
LINE
  5
D7
330
D5
100
AcDbEntity
  8
BEMASSUNG
  6
Continuous
370
    -2
100
AcDbLine
 10
727.099569063642
 20
415.8428854613658
 30
0.0
 11
771.1701718572435
 21
415.8428854613658
 31
0.0
  0
LINE
  5
D8
330
D5
100
AcDbEntity
  8
BEMASSUNG
  6
Continuous
370
    -2
100
AcDbLine
 10
739.4995690636419
 20
364.3428854613658
 30
0.0
 11
771.1701718572435
 21
364.3428854613658
 31
0.0
  0
LINE
  5
D9
330
D5
100
AcDbEntity
  8
BEMASSUNG
  6
Continuous
370
    -2
100
AcDbLine
 10
770.3701718572435
 20
410.2428854613659
 30
0.0
 11
770.3701718572435
 21
369.9428854613658
 31
0.0
  0
SOLID
  5
DA
330
D5
100
AcDbEntity
  8
BEMASSUNG
  6
Continuous
100
AcDbTrace
 10
769.4368385239101
 20
410.2428854613659
 30
0.0
 11
771.3035051905769
 21
410.2428854613659
 31
0.0
 12
770.3701718572435
 22
415.8428854613658
 32
0.0
 13
770.3701718572435
 23
415.8428854613658
 33
0.0
  0
SOLID
  5
DB
330
D5
100
AcDbEntity
  8
BEMASSUNG
  6
Continuous
100
AcDbTrace
 10
769.4368385239101
 20
369.9428854613658
 30
0.0
 11
771.3035051905769
 21
369.9428854613658
 31
0.0
 12
770.3701718572435
 22
364.3428854613658
 32
0.0
 13
770.3701718572435
 23
364.3428854613658
 33
0.0
  0
MTEXT
  5
DC
330
D5
100
AcDbEntity
  8
BEMASSUNG
  6
Continuous
 62
     3
100
AcDbMText
 10
765.9701718572435
 20
390.092885461366
 30
0.0
 40
5.599999999999999
 41
0.0
 71
     5
 72
     1
  1
\A1;51.5
  7
NORM
 11
0.0000000000000001
 21
1.0
 31
0.0
 73
     1
 44
1.0
1001
ACAD
1000
MTEXTBEGIN
1070
    73
1070
     1
1070
    44
1040
1.0
1070
    74
1070
     0
1000
MTEXTEND
  0
POINT
  5
DD
330
D5
100
AcDbEntity
  8
DEFPOINTS
  6
Continuous
 62
     0
100
AcDbPoint
 10
726.2995690636419
 20
415.8428854613658
 30
0.0
  0
POINT
  5
DE
330
D5
100
AcDbEntity
  8
DEFPOINTS
  6
Continuous
 62
     0
100
AcDbPoint
 10
738.6995690636421
 20
364.3428854613658
 30
0.0
  0
POINT
  5
DF
330
D5
100
AcDbEntity
  8
DEFPOINTS
  6
Continuous
 62
     0
100
AcDbPoint
 10
770.3701718572435
 20
364.3428854613658
 30
0.0
  0
ENDBLK
  5
E0
330
D5
100
AcDbEntity
  8
0
100
AcDbBlockEnd
  0
BLOCK
  5
C6
330
C5
100
AcDbEntity
  8
0
100
AcDbBlockBegin
  2
*D26
 70
     1
 10
0.0
 20
0.0
 30
0.0
  3
*D26
  1

  0
LINE
  5
C7
330
C5
100
AcDbEntity
  8
BEMASSUNG
  6
Continuous
370
    -2
100
AcDbLine
 10
739.4995690636419
 20
364.3428854613658
 30
0.0
 11
759.9302228343631
 21
364.3428854613658
 31
0.0
  0
LINE
  5
C8
330
C5
100
AcDbEntity
  8
BEMASSUNG
  6
Continuous
370
    -2
100
AcDbLine
 10
722.8995690636422
 20
410.3428854613658
 30
0.0
 11
759.9302228343631
 21
410.3428854613658
 31
0.0
  0
LINE
  5
C9
330
C5
100
AcDbEntity
  8
BEMASSUNG
  6
Continuous
370
    -2
100
AcDbLine
 10
759.130222834363
 20
369.9428854613658
 30
0.0
 11
759.130222834363
 21
404.7428854613657
 31
0.0
  0
SOLID
  5
CA
330
C5
100
AcDbEntity
  8
BEMASSUNG
  6
Continuous
100
AcDbTrace
 10
758.1968895010297
 20
369.9428854613658
 30
0.0
 11
760.0635561676963
 21
369.9428854613658
 31
0.0
 12
759.130222834363
 22
364.3428854613658
 32
0.0
 13
759.130222834363
 23
364.3428854613658
 33
0.0
  0
SOLID
  5
CB
330
C5
100
AcDbEntity
  8
BEMASSUNG
  6
Continuous
100
AcDbTrace
 10
758.1968895010297
 20
404.7428854613657
 30
0.0
 11
760.0635561676963
 21
404.7428854613657
 31
0.0
 12
759.130222834363
 22
410.3428854613658
 32
0.0
 13
759.130222834363
 23
410.3428854613658
 33
0.0
  0
MTEXT
  5
CC
330
C5
100
AcDbEntity
  8
BEMASSUNG
  6
Continuous
 62
     3
100
AcDbMText
 10
754.7302228343631
 20
387.3428854613659
 30
0.0
 40
5.599999999999999
 41
0.0
 71
     5
 72
     1
  1
\A1;46
  7
NORM
 11
0.0000000000000001
 21
1.0
 31
0.0
 73
     1
 44
1.0
1001
ACAD
1000
MTEXTBEGIN
1070
    73
1070
     1
1070
    44
1040
1.0
1070
    74
1070
     0
1000
MTEXTEND
  0
POINT
  5
CD
330
C5
100
AcDbEntity
  8
DEFPOINTS
  6
Continuous
 62
     0
100
AcDbPoint
 10
738.6995690636421
 20
364.3428854613658
 30
0.0
  0
POINT
  5
CE
330
C5
100
AcDbEntity
  8
DEFPOINTS
  6
Continuous
 62
     0
100
AcDbPoint
 10
722.0995690636422
 20
410.3428854613658
 30
0.0
  0
POINT
  5
CF
330
C5
100
AcDbEntity
  8
DEFPOINTS
  6
Continuous
 62
     0
100
AcDbPoint
 10
759.130222834363
 20
410.3428854613658
 30
0.0
  0
ENDBLK
  5
D0
330
C5
100
AcDbEntity
  8
0
100
AcDbBlockEnd
  0
BLOCK
  5
B9
330
B8
100
AcDbEntity
  8
0
100
AcDbBlockBegin
  2
*D27
 70
     1
 10
0.0
 20
0.0
 30
0.0
  3
*D27
  1

  0
LINE
  5
BA
330
B8
100
AcDbEntity
  8
BEMASSUNG
  6
Continuous
370
    -2
100
AcDbLine
 10
696.0995690636423
 20
369.7428854613659
 30
0.0
 11
696.0995690636423
 21
389.0287591660177
 31
0.0
  0
LINE
  5
BB
330
B8
100
AcDbEntity
  8
BEMASSUNG
  6
Continuous
370
    -2
100
AcDbLine
 10
734.0995690636423
 20
369.7428854613659
 30
0.0
 11
734.0995690636423
 21
389.0287591660177
 31
0.0
  0
LINE
  5
BC
330
B8
100
AcDbEntity
  8
BEMASSUNG
  6
Continuous
370
    -2
100
AcDbLine
 10
701.6995690636422
 20
388.2287591660177
 30
0.0
 11
728.4995690636423
 21
388.2287591660177
 31
0.0
  0
SOLID
  5
BD
330
B8
100
AcDbEntity
  8
BEMASSUNG
  6
Continuous
100
AcDbTrace
 10
701.6995690636422
 20
389.162092499351
 30
0.0
 11
701.6995690636422
 21
387.2954258326843
 31
0.0
 12
696.0995690636423
 22
388.2287591660177
 32
0.0
 13
696.0995690636423
 23
388.2287591660177
 33
0.0
  0
SOLID
  5
BE
330
B8
100
AcDbEntity
  8
BEMASSUNG
  6
Continuous
100
AcDbTrace
 10
728.4995690636423
 20
389.162092499351
 30
0.0
 11
728.4995690636423
 21
387.2954258326843
 31
0.0
 12
734.0995690636423
 22
388.2287591660177
 32
0.0
 13
734.0995690636423
 23
388.2287591660177
 33
0.0
  0
MTEXT
  5
BF
330
B8
100
AcDbEntity
  8
BEMASSUNG
  6
Continuous
 62
     3
100
AcDbMText
 10
715.099569063642
 20
392.6287591660176
 30
0.0
 40
5.599999999999999
 41
0.0
 71
     5
 72
     1
  1
\A1;38
  7
NORM
 73
     1
 44
1.0
1001
ACAD
1000
MTEXTBEGIN
1070
    73
1070
     1
1070
    44
1040
1.0
1070
    74
1070
     0
1000
MTEXTEND
  0
POINT
  5
C0
330
B8
100
AcDbEntity
  8
DEFPOINTS
  6
Continuous
 62
     0
100
AcDbPoint
 10
696.0995690636423
 20
368.9428854613659
 30
0.0
  0
POINT
  5
C1
330
B8
100
AcDbEntity
  8
DEFPOINTS
  6
Continuous
 62
     0
100
AcDbPoint
 10
734.0995690636423
 20
368.9428854613659
 30
0.0
  0
POINT
  5
C2
330
B8
100
AcDbEntity
  8
DEFPOINTS
  6
Continuous
 62
     0
100
AcDbPoint
 10
734.0995690636423
 20
388.2287591660177
 30
0.0
  0
ENDBLK
  5
C3
330
B8
100
AcDbEntity
  8
0
100
AcDbBlockEnd
  0
BLOCK
  5
A7
330
A6
100
AcDbEntity
  8
0
100
AcDbBlockBegin
  2
*D28
 70
     1
 10
0.0
 20
0.0
 30
0.0
  3
*D28
  1

  0
LINE
  5
A8
330
A6
100
AcDbEntity
  8
BEMASSUNG
  6
Continuous
370
    -2
100
AcDbLine
 10
719.099569063642
 20
369.1428854613662
 30
0.0
 11
719.099569063642
 21
374.9358082191057
 31
0.0
  0
LINE
  5
A9
330
A6
100
AcDbEntity
  8
BEMASSUNG
  6
Continuous
370
    -2
100
AcDbLine
 10
711.099569063642
 20
369.1428854613662
 30
0.0
 11
711.099569063642
 21
374.9358082191057
 31
0.0
  0
LINE
  5
AA
330
A6
100
AcDbEntity
  8
BEMASSUNG
  6
Continuous
370
    -2
100
AcDbLine
 10
724.6995690636421
 20
374.1358082191057
 30
0.0
 11
730.2995690636421
 21
374.1358082191057
 31
0.0
  0
LINE
  5
AB
330
A6
100
AcDbEntity
  8
BEMASSUNG
  6
Continuous
370
    -2
100
AcDbLine
 10
705.499569063642
 20
374.1358082191057
 30
0.0
 11
699.8995690636421
 21
374.1358082191057
 31
0.0
  0
MTEXT
  5
AC
330
A6
100
AcDbEntity
  8
BEMASSUNG
  6
Continuous
 62
     3
100
AcDbMText
 10
703.3840581851652
 20
378.9289035445336
 30
0.0
 40
5.599999999999999
 41
0.0
 71
     5
 72
     1
  1
\A1;8/9
  7
NORM
 73
     1
 44
1.0
1001
ACAD
1000
MTEXTBEGIN
1070
    73
1070
     1
1070
    44
1040
1.0
1070
    74
1070
     0
1000
MTEXTEND
  0
LINE
  5
AD
330
A6
100
AcDbEntity
  8
BEMASSUNG
  6
Continuous
370
    -2
100
AcDbLine
 10
719.099569063642
 20
374.1358082191057
 30
0.0
 11
711.099569063642
 21
374.1358082191057
 31
0.0
  0
SOLID
  5
AE
330
A6
100
AcDbEntity
  8
BEMASSUNG
  6
Continuous
100
AcDbTrace
 10
724.6995690636421
 20
375.069141552439
 30
0.0
 11
724.6995690636421
 21
373.2024748857723
 31
0.0
 12
719.099569063642
 22
374.1358082191057
 32
0.0
 13
719.099569063642
 23
374.1358082191057
 33
0.0
  0
SOLID
  5
AF
330
A6
100
AcDbEntity
  8
BEMASSUNG
  6
Continuous
100
AcDbTrace
 10
705.499569063642
 20
375.069141552439
 30
0.0
 11
705.499569063642
 21
373.2024748857723
 31
0.0
 12
711.099569063642
 22
374.1358082191057
 32
0.0
 13
711.099569063642
 23
374.1358082191057
 33
0.0
  0
POINT
  5
B0
330
A6
100
AcDbEntity
  8
DEFPOINTS
  6
Continuous
 62
     0
100
AcDbPoint
 10
719.099569063642
 20
368.3428854613662
 30
0.0
  0
POINT
  5
B1
330
A6
100
AcDbEntity
  8
DEFPOINTS
  6
Continuous
 62
     0
100
AcDbPoint
 10
711.099569063642
 20
368.3428854613662
 30
0.0
  0
POINT
  5
B2
330
A6
100
AcDbEntity
  8
DEFPOINTS
  6
Continuous
 62
     0
100
AcDbPoint
 10
711.099569063642
 20
374.1358082191057
 30
0.0
  0
ENDBLK
  5
B3
330
A6
100
AcDbEntity
  8
0
100
AcDbBlockEnd
  0
BLOCK
  5
77
330
76
100
AcDbEntity
  8
0
100
AcDbBlockBegin
  2
*D29
 70
     1
 10
0.0
 20
0.0
 30
0.0
  3
*D29
  1

  0
LINE
  5
78
330
76
100
AcDbEntity
  8
BEMASSUNG
  6
Continuous
370
    -2
100
AcDbLine
 10
824.8813994419423
 20
370.4428854613657
 30
0.0
 11
824.8813994419423
 21
356.0090169322795
 31
0.0
  0
LINE
  5
79
330
76
100
AcDbEntity
  8
BEMASSUNG
  6
Continuous
370
    -2
100
AcDbLine
 10
835.8813994419426
 20
372.9428854613654
 30
0.0
 11
835.8813994419426
 21
356.0090169322795
 31
0.0
  0
LINE
  5
7A
330
76
100
AcDbEntity
  8
BEMASSUNG
  6
Continuous
370
    -2
100
AcDbLine
 10
819.2813994419422
 20
356.8090169322795
 30
0.0
 11
813.6813994419423
 21
356.8090169322795
 31
0.0
  0
LINE
  5
7B
330
76
100
AcDbEntity
  8
BEMASSUNG
  6
Continuous
370
    -2
100
AcDbLine
 10
841.4813994419425
 20
356.8090169322795
 30
0.0
 11
847.0813994419426
 21
356.8090169322795
 31
0.0
  0
MTEXT
  5
7C
330
76
100
AcDbEntity
  8
BEMASSUNG
  6
Continuous
 62
     3
100
AcDbMText
 10
829.6473189915614
 20
361.3192387774355
 30
0.0
 40
5.599999999999999
 41
0.0
 71
     5
 72
     1
  1
\A1;11
  7
NORM
 73
     1
 44
1.0
1001
ACAD
1000
MTEXTBEGIN
1070
    73
1070
     1
1070
    44
1040
1.0
1070
    74
1070
     0
1000
MTEXTEND
  0
LINE
  5
7D
330
76
100
AcDbEntity
  8
BEMASSUNG
  6
Continuous
370
    -2
100
AcDbLine
 10
824.8813994419423
 20
356.8090169322795
 30
0.0
 11
835.8813994419426
 21
356.8090169322795
 31
0.0
  0
SOLID
  5
7E
330
76
100
AcDbEntity
  8
BEMASSUNG
  6
Continuous
100
AcDbTrace
 10
819.2813994419422
 20
357.7423502656129
 30
0.0
 11
819.2813994419422
 21
355.8756835989461
 31
0.0
 12
824.8813994419423
 22
356.8090169322795
 32
0.0
 13
824.8813994419423
 23
356.8090169322795
 33
0.0
  0
SOLID
  5
7F
330
76
100
AcDbEntity
  8
BEMASSUNG
  6
Continuous
100
AcDbTrace
 10
841.4813994419425
 20
357.7423502656129
 30
0.0
 11
841.4813994419425
 21
355.8756835989461
 31
0.0
 12
835.8813994419426
 22
356.8090169322795
 32
0.0
 13
835.8813994419426
 23
356.8090169322795
 33
0.0
  0
POINT
  5
80
330
76
100
AcDbEntity
  8
DEFPOINTS
  6
Continuous
 62
     0
100
AcDbPoint
 10
824.8813994419423
 20
371.2428854613657
 30
0.0
  0
POINT
  5
81
330
76
100
AcDbEntity
  8
DEFPOINTS
  6
Continuous
 62
     0
100
AcDbPoint
 10
835.8813994419426
 20
373.7428854613654
 30
0.0
  0
POINT
  5
82
330
76
100
AcDbEntity
  8
DEFPOINTS
  6
Continuous
 62
     0
100
AcDbPoint
 10
835.8813994419426
 20
356.8090169322795
 30
0.0
  0
ENDBLK
  5
83
330
76
100
AcDbEntity
  8
0
100
AcDbBlockEnd
  0
BLOCK
  5
5D
330
5C
100
AcDbEntity
  8
0
100
AcDbBlockBegin
  2
*D30
 70
     1
 10
0.0
 20
0.0
 30
0.0
  3
*D30
  1

  0
LINE
  5
5E
330
5C
100
AcDbEntity
  8
BEMASSUNG
  6
Continuous
370
    -2
100
AcDbLine
 10
655.0995690636423
 20
452.1428854613648
 30
0.0
 11
655.0995690636423
 21
468.7153456890924
 31
0.0
  0
LINE
  5
5F
330
5C
100
AcDbEntity
  8
BEMASSUNG
  6
Continuous
370
    -2
100
AcDbLine
 10
658.0995690636423
 20
452.1428854613648
 30
0.0
 11
658.0995690636423
 21
468.7153456890924
 31
0.0
  0
LINE
  5
60
330
5C
100
AcDbEntity
  8
BEMASSUNG
  6
Continuous
370
    -2
100
AcDbLine
 10
649.4995690636423
 20
467.9153456890924
 30
0.0
 11
643.8995690636422
 21
467.9153456890924
 31
0.0
  0
LINE
  5
61
330
5C
100
AcDbEntity
  8
BEMASSUNG
  6
Continuous
370
    -2
100
AcDbLine
 10
663.6995690636422
 20
467.9153456890924
 30
0.0
 11
669.2995690636422
 21
467.9153456890924
 31
0.0
  0
LINE
  5
62
330
5C
100
AcDbEntity
  8
BEMASSUNG
  6
Continuous
370
    -2
100
AcDbLine
 10
655.0995690636423
 20
467.9153456890924
 30
0.0
 11
658.0995690636423
 21
467.9153456890924
 31
0.0
  0
SOLID
  5
63
330
5C
100
AcDbEntity
  8
BEMASSUNG
  6
Continuous
100
AcDbTrace
 10
649.4995690636423
 20
468.8486790224256
 30
0.0
 11
649.4995690636423
 21
466.9820123557591
 31
0.0
 12
655.0995690636423
 22
467.9153456890924
 32
0.0
 13
655.0995690636423
 23
467.9153456890924
 33
0.0
  0
SOLID
  5
64
330
5C
100
AcDbEntity
  8
BEMASSUNG
  6
Continuous
100
AcDbTrace
 10
663.6995690636422
 20
468.8486790224256
 30
0.0
 11
663.6995690636422
 21
466.9820123557591
 31
0.0
 12
658.0995690636423
 22
467.9153456890924
 32
0.0
 13
658.0995690636423
 23
467.9153456890924
 33
0.0
  0
MTEXT
  5
65
330
5C
100
AcDbEntity
  8
BEMASSUNG
  6
Continuous
 62
     3
100
AcDbMText
 10
656.599569063642
 20
472.3153456890924
 30
0.0
 40
5.599999999999999
 41
0.0
 71
     5
 72
     1
  1
\A1;3
  7
NORM
 73
     1
 44
1.0
1001
ACAD
1000
MTEXTBEGIN
1070
    73
1070
     1
1070
    44
1040
1.0
1070
    74
1070
     0
1000
MTEXTEND
  0
POINT
  5
66
330
5C
100
AcDbEntity
  8
DEFPOINTS
  6
Continuous
 62
     0
100
AcDbPoint
 10
655.0995690636423
 20
451.3428854613648
 30
0.0
  0
POINT
  5
67
330
5C
100
AcDbEntity
  8
DEFPOINTS
  6
Continuous
 62
     0
100
AcDbPoint
 10
658.0995690636423
 20
451.3428854613648
 30
0.0
  0
POINT
  5
68
330
5C
100
AcDbEntity
  8
DEFPOINTS
  6
Continuous
 62
     0
100
AcDbPoint
 10
658.0995690636423
 20
467.9153456890924
 30
0.0
  0
ENDBLK
  5
69
330
5C
100
AcDbEntity
  8
0
100
AcDbBlockEnd
  0
BLOCK
  5
35
330
34
100
AcDbEntity
  8
0
100
AcDbBlockBegin
  2
*D31
 70
     1
 10
0.0
 20
0.0
 30
0.0
  3
*D31
  1

  0
LINE
  5
36
330
34
100
AcDbEntity
  8
BEMASSUNG
  6
Continuous
370
    -2
100
AcDbLine
 10
829.4813994419422
 20
260.3928854613656
 30
0.0
 11
829.4813994419422
 21
251.528676590103
 31
0.0
  0
LINE
  5
37
330
34
100
AcDbEntity
  8
BEMASSUNG
  6
Continuous
370
    -2
100
AcDbLine
 10
821.481399441942
 20
254.6251188814241
 30
0.0
 11
821.481399441942
 21
251.528676590103
 31
0.0
  0
LINE
  5
38
330
34
100
AcDbEntity
  8
BEMASSUNG
  6
Continuous
370
    -2
100
AcDbLine
 10
835.0813994419421
 20
252.328676590103
 30
0.0
 11
840.6813994419422
 21
252.328676590103
 31
0.0
  0
LINE
  5
39
330
34
100
AcDbEntity
  8
BEMASSUNG
  6
Continuous
370
    -2
100
AcDbLine
 10
815.8813994419421
 20
252.328676590103
 30
0.0
 11
810.2813994419419
 21
252.328676590103
 31
0.0
  0
LINE
  5
3A
330
34
100
AcDbEntity
  8
BEMASSUNG
  6
Continuous
370
    -2
100
AcDbLine
 10
829.4813994419422
 20
252.328676590103
 30
0.0
 11
821.481399441942
 21
252.328676590103
 31
0.0
  0
SOLID
  5
3B
330
34
100
AcDbEntity
  8
BEMASSUNG
  6
Continuous
100
AcDbTrace
 10
835.0813994419421
 20
253.2620099234363
 30
0.0
 11
835.0813994419421
 21
251.3953432567697
 31
0.0
 12
829.4813994419422
 22
252.328676590103
 32
0.0
 13
829.4813994419422
 23
252.328676590103
 33
0.0
  0
SOLID
  5
3C
330
34
100
AcDbEntity
  8
BEMASSUNG
  6
Continuous
100
AcDbTrace
 10
815.8813994419421
 20
253.2620099234363
 30
0.0
 11
815.8813994419421
 21
251.3953432567697
 31
0.0
 12
821.481399441942
 22
252.328676590103
 32
0.0
 13
821.481399441942
 23
252.328676590103
 33
0.0
  0
MTEXT
  5
3D
330
34
100
AcDbEntity
  8
BEMASSUNG
  6
Continuous
 62
     3
100
AcDbMText
 10
825.4813994419421
 20
256.728676590103
 30
0.0
 40
5.599999999999999
 41
0.0
 71
     5
 72
     1
  1
\A1;8
  7
NORM
 73
     1
 44
1.0
1001
ACAD
1000
MTEXTBEGIN
1070
    73
1070
     1
1070
    44
1040
1.0
1070
    74
1070
     0
1000
MTEXTEND
  0
POINT
  5
3E
330
34
100
AcDbEntity
  8
DEFPOINTS
  6
Continuous
 62
     0
100
AcDbPoint
 10
829.4813994419422
 20
261.1928854613656
 30
0.0
  0
POINT
  5
40
330
34
100
AcDbEntity
  8
DEFPOINTS
  6
Continuous
 62
     0
100
AcDbPoint
 10
821.481399441942
 20
255.4251188814241
 30
0.0
  0
POINT
  5
41
330
34
100
AcDbEntity
  8
DEFPOINTS
  6
Continuous
 62
     0
100
AcDbPoint
 10
821.481399441942
 20
252.328676590103
 30
0.0
  0
ENDBLK
  5
42
330
34
100
AcDbEntity
  8
0
100
AcDbBlockEnd
  0
BLOCK
  5
3D7
330
3D5
100
AcDbEntity
  8
0
100
AcDbBlockBegin
  2
GENAXEH
 70
     0
 10
0.0
 20
0.0
 30
0.0
  3
GENAXEH
  1

  0
LINE
  5
3D6
330
3D5
100
AcDbEntity
  8
0
100
AcDbLine
 10
-1.0
 20
0.0
 30
0.0
 11
1.0
 21
0.0
 31
0.0
  0
ENDBLK
  5
3D8
330
3D5
100
AcDbEntity
  8
0
100
AcDbBlockEnd
  0
BLOCK
  5
3E7
330
3E6
100
AcDbEntity
  8
0
100
AcDbBlockBegin
  2
_ACMFILLED30
 70
     0
 10
0.0
 20
0.0
 30
0.0
  3
_ACMFILLED30
  1

  0
TRACE
  5
3E9
330
3E6
100
AcDbEntity
  8
UMRISS07
 62
     0
100
AcDbTrace
 10
-1.0
 20
-0.26794919
 30
0.0
 11
-1.0
 21
0.26794919
 31
0.0
 12
0.0
 22
0.0
 32
0.0
 13
0.0
 23
0.0
 33
0.0
  0
ENDBLK
  5
3E8
330
3E6
100
AcDbEntity
  8
0
100
AcDbBlockEnd
  0
BLOCK
  5
400
330
3FF
100
AcDbEntity
  8
0
100
AcDbBlockBegin
  2
*D35
 70
     1
 10
0.0
 20
0.0
 30
0.0
  3
*D35
  1

  0
LINE
  5
435
330
3FF
100
AcDbEntity
  8
BEMASSUNG
  6
Continuous
370
    -2
100
AcDbLine
 10
655.0995690636417
 20
247.8293617498777
 30
0.0
 11
655.0995690636417
 21
242.7931155676185
 31
0.0
  0
LINE
  5
436
330
3FF
100
AcDbEntity
  8
BEMASSUNG
  6
Continuous
370
    -2
100
AcDbLine
 10
715.099569063642
 20
259.2428854613654
 30
0.0
 11
715.099569063642
 21
242.7931155676185
 31
0.0
  0
LINE
  5
437
330
3FF
100
AcDbEntity
  8
BEMASSUNG
  6
Continuous
370
    -2
100
AcDbLine
 10
660.6995690636417
 20
243.5931155676185
 30
0.0
 11
709.499569063642
 21
243.5931155676185
 31
0.0
  0
SOLID
  5
438
330
3FF
100
AcDbEntity
  8
BEMASSUNG
  6
Continuous
100
AcDbTrace
 10
660.6995690636417
 20
244.5264489009518
 30
0.0
 11
660.6995690636417
 21
242.6597822342852
 31
0.0
 12
655.0995690636417
 22
243.5931155676185
 32
0.0
 13
655.0995690636417
 23
243.5931155676185
 33
0.0
  0
SOLID
  5
439
330
3FF
100
AcDbEntity
  8
BEMASSUNG
  6
Continuous
100
AcDbTrace
 10
709.499569063642
 20
244.5264489009518
 30
0.0
 11
709.499569063642
 21
242.6597822342852
 31
0.0
 12
715.099569063642
 22
243.5931155676185
 32
0.0
 13
715.099569063642
 23
243.5931155676185
 33
0.0
  0
MTEXT
  5
43A
330
3FF
100
AcDbEntity
  8
BEMASSUNG
  6
Continuous
 62
     3
100
AcDbMText
 10
685.0995690636418
 20
247.9931155676185
 30
0.0
 40
5.6
 41
0.0
 71
     5
 72
     1
  1
\A1;DM
  7
NORM
 73
     1
 44
1.0
1001
ACAD
1000
MTEXTBEGIN
1070
    73
1070
     1
1070
    44
1040
1.0
1070
    74
1070
     0
1000
MTEXTEND
  0
POINT
  5
43B
330
3FF
100
AcDbEntity
  8
DEFPOINTS
  6
Continuous
 62
     0
100
AcDbPoint
 10
655.0995690636417
 20
248.6293617498777
 30
0.0
  0
POINT
  5
43C
330
3FF
100
AcDbEntity
  8
DEFPOINTS
  6
Continuous
 62
     0
100
AcDbPoint
 10
715.099569063642
 20
260.0428854613654
 30
0.0
  0
POINT
  5
43D
330
3FF
100
AcDbEntity
  8
DEFPOINTS
  6
Continuous
 62
     0
100
AcDbPoint
 10
715.099569063642
 20
243.5931155676185
 30
0.0
  0
ENDBLK
  5
401
330
3FF
100
AcDbEntity
  8
0
100
AcDbBlockEnd
  0
BLOCK
  5
40D
330
40C
100
AcDbEntity
  8
0
100
AcDbBlockBegin
  2
*D36
 70
     1
 10
0.0
 20
0.0
 30
0.0
  3
*D36
  1

  0
LINE
  5
423
330
40C
100
AcDbEntity
  8
BEMASSUNG
  6
Continuous
370
    -2
100
AcDbLine
 10
715.099569063642
 20
259.2428854613654
 30
0.0
 11
715.099569063642
 21
242.7931155676185
 31
0.0
  0
LINE
  5
424
330
40C
100
AcDbEntity
  8
BEMASSUNG
  6
Continuous
370
    -2
100
AcDbLine
 10
744.0980242879239
 20
297.1845747922818
 30
0.0
 11
744.0980242879239
 21
242.7931155676185
 31
0.0
  0
LINE
  5
425
330
40C
100
AcDbEntity
  8
BEMASSUNG
  6
Continuous
370
    -2
100
AcDbLine
 10
720.699569063642
 20
243.5931155676185
 30
0.0
 11
738.4980242879239
 21
243.5931155676185
 31
0.0
  0
SOLID
  5
426
330
40C
100
AcDbEntity
  8
BEMASSUNG
  6
Continuous
100
AcDbTrace
 10
720.699569063642
 20
244.5264489009518
 30
0.0
 11
720.699569063642
 21
242.6597822342852
 31
0.0
 12
715.099569063642
 22
243.5931155676185
 32
0.0
 13
715.099569063642
 23
243.5931155676185
 33
0.0
  0
SOLID
  5
427
330
40C
100
AcDbEntity
  8
BEMASSUNG
  6
Continuous
100
AcDbTrace
 10
738.4980242879239
 20
244.5264489009518
 30
0.0
 11
738.4980242879239
 21
242.6597822342852
 31
0.0
 12
744.0980242879239
 22
243.5931155676185
 32
0.0
 13
744.0980242879239
 23
243.5931155676185
 33
0.0
  0
MTEXT
  5
428
330
40C
100
AcDbEntity
  8
BEMASSUNG
  6
Continuous
 62
     3
100
AcDbMText
 10
729.5987966757829
 20
247.9931155676185
 30
0.0
 40
5.6
 41
0.0
 71
     5
 72
     1
  1
\A1;29
  7
NORM
 73
     1
 44
1.0
1001
ACAD
1000
MTEXTBEGIN
1070
    73
1070
     1
1070
    44
1040
1.0
1070
    74
1070
     0
1000
MTEXTEND
  0
POINT
  5
429
330
40C
100
AcDbEntity
  8
DEFPOINTS
  6
Continuous
 62
     0
100
AcDbPoint
 10
715.099569063642
 20
260.0428854613654
 30
0.0
  0
POINT
  5
42A
330
40C
100
AcDbEntity
  8
DEFPOINTS
  6
Continuous
 62
     0
100
AcDbPoint
 10
744.0980242879239
 20
297.9845747922818
 30
0.0
  0
POINT
  5
42B
330
40C
100
AcDbEntity
  8
DEFPOINTS
  6
Continuous
 62
     0
100
AcDbPoint
 10
744.0980242879239
 20
243.5931155676185
 30
0.0
  0
ENDBLK
  5
40E
330
40C
100
AcDbEntity
  8
0
100
AcDbBlockEnd
  0
ENDSEC
  0
SECTION
  2
ENTITIES
  0
DIMENSION
  5
32
330
2
100
AcDbEntity
  8
BEMASSUNG
  6
Continuous
100
AcDbDimension
  2
*D31
 10
821.481399441942
 20
252.328676590103
 30
0.0
 11
825.4813994419421
 21
256.728676590103
 31
0.0
 71
     5
 42
8.000000000000111
  3
PROSPEKT
100
AcDbAlignedDimension
 13
829.4813994419422
 23
261.1928854613656
 33
0.0
 14
821.481399441942
 24
255.4251188814241
 34
0.0
100
AcDbRotatedDimension
  0
LINE
  5
43
330
2
100
AcDbEntity
  8
UMRISS05
100
AcDbLine
 10
646.2603657428068
 20
163.3027256960858
 30
0.0
 11
646.4108746558602
 21
163.4550325888352
 31
0.0
  0
LINE
  5
45
330
2
100
AcDbEntity
  8
UMRISS05
100
AcDbLine
 10
646.2603657428068
 20
163.3027256960858
 30
0.0
 11
653.2021331547436
 21
156.3609582841491
 31
0.0
  0
LINE
  5
46
330
2
100
AcDbEntity
  8
UMRISS05
100
AcDbLine
 10
646.099270696875
 20
164.3609582841492
 30
0.0
 11
655.0995690636376
 21
164.3609582841492
 31
0.0
  0
LINE
  5
47
330
2
100
AcDbEntity
  8
UMRISS05
100
AcDbLine
 10
650.0948941049424
 20
167.3609582841492
 30
0.0
 11
655.0995690636376
 21
167.3609582841492
 31
0.0
  0
LINE
  5
48
330
2
100
AcDbEntity
  8
UMRISS05
100
AcDbLine
 10
645.0948941049424
 20
164.7554780167639
 30
0.0
 11
645.0948941049424
 21
166.9609582841491
 31
0.0
  0
LINE
  5
49
330
2
100
AcDbEntity
  8
UMRISS05
100
AcDbLine
 10
645.0948941049424
 20
165.6523759130142
 30
0.0
 11
646.3863117338031
 21
164.3609582841535
 31
0.0
  0
LINE
  5
4A
330
2
100
AcDbEntity
  8
UMRISS05
100
AcDbLine
 10
645.0948941049424
 20
166.9609582841491
 30
0.0
 11
650.0948941049424
 21
167.3609582841492
 31
0.0
  0
LINE
  5
4B
330
2
100
AcDbEntity
  8
UMRISS05
100
AcDbLine
 10
653.2021331547436
 20
156.3609582841491
 30
0.0
 11
655.0995690636377
 21
156.3609582841491
 31
0.0
  0
LINE
  5
4C
330
2
100
AcDbEntity
  8
UMRISS05
100
AcDbLine
 10
645.0948941049424
 20
164.7554780167639
 30
0.0
 11
653.5896947825932
 21
156.3609582841491
 31
0.0
  0
LINE
  5
4D
330
2
100
AcDbEntity
  8
UMRISS05
100
AcDbLine
 10
646.0992706968713
 20
164.3609582841526
 30
0.0
 11
654.0992706968713
 21
156.3609582841527
 31
0.0
  0
ELLIPSE
  5
4E
330
2
100
AcDbEntity
  8
UMRISS05
100
AcDbEllipse
 10
650.0995864954147
 20
386.342876106257
 30
0.0
 11
0.0
 21
5.0
 31
0.0
210
0.0
220
0.0
230
1.0
 40
0.7691267356287952
 41
0.0
 42
3.141592653589792
  0
ELLIPSE
  5
4F
330
2
100
AcDbEntity
  8
UMRISS05
100
AcDbEllipse
 10
650.0995864954147
 20
386.342876106257
 30
0.0
 11
6.172187440412186
 21
0.0
 31
0.0
210
0.0
220
0.0
230
1.0
 40
0.8100855731085982
 41
6.909683581960733
 42
7.853981633974482
  0
ELLIPSE
  5
50
330
2
100
AcDbEntity
  8
UMRISS05
100
AcDbEllipse
 10
650.0995864954147
 20
386.342876106257
 30
0.0
 11
6.172187440412186
 21
0.0
 31
0.0
210
0.0
220
0.0
230
1.0
 40
0.8100855731085982
 41
4.712388980384688
 42
5.656687032398435
  0
LINE
  5
51
330
2
100
AcDbEntity
  8
UMRISS05
100
AcDbLine
 10
646.1091624096929
 20
398.3428761062573
 30
0.0
 11
655.0995864954153
 21
398.3428761062573
 31
0.0
  0
LINE
  5
52
330
2
100
AcDbEntity
  8
UMRISS05
100
AcDbLine
 10
655.0995864954153
 20
374.3428761062572
 30
0.0
 11
646.1091624096929
 21
374.3428761062572
 31
0.0
  0
ELLIPSE
  5
53
330
2
100
AcDbEntity
  8
UMRISS05
100
AcDbEllipse
 10
928.4422989700335
 20
386.3428761062572
 30
0.0
 11
282.8427124746188
 21
0.0000000000000244
 31
0.0
210
0.0
220
0.0
230
1.0
 40
0.7071067811865479
 41
3.201628712035071
 42
3.216663144666509
  0
ELLIPSE
  5
54
330
2
100
AcDbEntity
  8
UMRISS05
100
AcDbEllipse
 10
928.4422989700335
 20
386.3428761062572
 30
0.0
 11
282.8427124746188
 21
0.0000000000000244
 31
0.0
210
0.0
220
0.0
230
1.0
 40
0.7071067811865479
 41
3.066522162513075
 42
3.081556595144513
  0
ELLIPSE
  5
55
330
2
100
AcDbEntity
  8
UMRISS05
100
AcDbEllipse
 10
936.4422989700335
 20
386.3428761062572
 30
0.0
 11
282.8427124746188
 21
0.0000000000000244
 31
0.0
210
0.0
220
0.0
230
1.0
 40
0.7071067811865479
 41
3.162019387267801
 42
3.201628712035071
  0
ELLIPSE
  5
56
330
2
100
AcDbEntity
  8
UMRISS05
100
AcDbEllipse
 10
936.4422989700335
 20
386.3428761062572
 30
0.0
 11
282.8427124746188
 21
0.0000000000000244
 31
0.0
210
0.0
220
0.0
230
1.0
 40
0.7071067811865479
 41
3.081556595144513
 42
3.121165919911784
  0
CIRCLE
  5
57
330
2
100
AcDbEntity
  8
UMRISS03
100
AcDbCircle
 10
669.0995690636417
 20
406.8428854613656
 30
0.0
 40
3.5
  0
LWPOLYLINE
  5
59
330
2
100
AcDbEntity
  8
UMRISS03
100
AcDbPolyline
 90
       24
 70
     1
 43
0.0
 10
669.2995690636417
 20
408.8428854613651
 10
668.8995690636419
 20
408.8428854613654
 42
0.4142135623733172
 10
668.5995690636417
 20
408.5428854613655
 10
668.5995690636417
 20
407.4428854613653
 42
-0.4142135623732059
 10
668.4995690636417
 20
407.3428854613655
 10
667.3995690636419
 20
407.3428854613657
 42
0.4142135623731427
 10
667.0995690636417
 20
407.0428854613656
 10
667.0995690636417
 20
406.6428854613659
 42
0.4142135623731427
 10
667.3995690636419
 20
406.3428854613658
 10
668.4995690636417
 20
406.3428854613663
 42
-0.4142135623731298
 10
668.5995690636417
 20
406.2428854613664
 10
668.5995690636417
 20
405.1428854613652
 42
0.4142135623730774
 10
668.8995690636419
 20
404.8428854613652
 10
669.2995690636418
 20
404.8428854613654
 42
0.4142135623731189
 10
669.5995690636417
 20
405.1428854613654
 10
669.5995690636417
 20
406.2428854613657
 42
-0.414213562373123
 10
669.6995690636416
 20
406.3428854613658
 10
670.7995690636416
 20
406.3428854613658
 42
0.4142135623730951
 10
671.0995690636417
 20
406.6428854613659
 10
671.0995690636417
 20
407.0428854613653
 42
0.4142135623730475
 10
670.7995690636416
 20
407.3428854613652
 10
669.6995690636416
 20
407.3428854613657
 42
-0.4142135623729705
 10
669.5995690636417
 20
407.4428854613656
 10
669.5995690636417
 20
408.5428854613651
 42
0.4142135623730831
  0
CIRCLE
  5
5A
330
2
100
AcDbEntity
  8
UMRISS05
100
AcDbCircle
 10
715.099569063642
 20
342.8428854613693
 30
0.0
 40
4.5
  0
DIMENSION
  5
5B
330
2
100
AcDbEntity
  8
BEMASSUNG
  6
Continuous
100
AcDbDimension
  2
*D30
 10
658.0995690636423
 20
467.9153456890924
 30
0.0
 11
656.599569063642
 21
472.3153456890924
 31
0.0
 71
     5
 42
3.0
  3
PROSPEKT
100
AcDbAlignedDimension
 13
655.0995690636423
 23
451.3428854613648
 33
0.0
 14
658.0995690636423
 24
451.3428854613648
 34
0.0
100
AcDbRotatedDimension
  0
LINE
  5
6A
330
2
100
AcDbEntity
  8
ACHSEN
100
AcDbLine
 10
824.7313994419423
 20
442.3428854613647
 30
0.0
 11
838.2313994419423
 21
442.3428854613647
 31
0.0
  0
ARC
  5
6D
330
2
100
AcDbEntity
  8
UMRISS05
100
AcDbCircle
 10
831.4813994419422
 20
441.3428854613647
 30
0.0
 40
10.0
100
AcDbArc
 50
0.0
 51
180.0
  0
CIRCLE
  5
6E
330
2
100
AcDbEntity
  8
UMRISS05
100
AcDbCircle
 10
831.4813994419422
 20
442.3428854613647
 30
0.0
 40
2.549999999999998
  0
CIRCLE
  5
6F
330
2
100
AcDbEntity
  8
UMRISS05
100
AcDbCircle
 10
831.4813994419422
 20
442.3428854613647
 30
0.0
 40
4.75
  0
LINE
  5
70
330
2
100
AcDbEntity
  8
ACHSEN
100
AcDbLine
 10
831.4813994419422
 20
449.0928854613648
 30
0.0
 11
831.4813994419422
 21
435.5928854613647
 31
0.0
  0
LINE
  5
71
330
2
100
AcDbEntity
  8
UMRISS05
100
AcDbLine
 10
824.8813994419423
 20
401.4428854613656
 30
0.0
 11
827.9813994419424
 21
401.4428854613656
 31
0.0
  0
LINE
  5
72
330
2
100
AcDbEntity
  8
UMRISS05
100
AcDbLine
 10
827.9813994419424
 20
398.9428854613655
 30
0.0
 11
835.8813994419426
 21
398.9428854613657
 31
0.0
  0
LINE
  5
73
330
2
100
AcDbEntity
  8
UMRISS05
100
AcDbLine
 10
827.9813994419424
 20
373.7428854613654
 30
0.0
 11
835.8813994419426
 21
373.7428854613654
 31
0.0
  0
LINE
  5
74
330
2
100
AcDbEntity
  8
UMRISS05
100
AcDbLine
 10
824.8813994419423
 20
371.2428854613657
 30
0.0
 11
827.9813994419424
 21
371.2428854613654
 31
0.0
  0
DIMENSION
  5
75
330
2
100
AcDbEntity
  8
BEMASSUNG
  6
Continuous
100
AcDbDimension
  2
*D29
 10
835.8813994419426
 20
356.8090169322795
 30
0.0
 11
829.6473189915614
 21
361.3192387774355
 31
0.0
 70
   128
 71
     5
 42
11.00000000000022
  3
PROSPEKT
100
AcDbAlignedDimension
 13
824.8813994419423
 23
371.2428854613657
 33
0.0
 14
835.8813994419426
 24
373.7428854613654
 34
0.0
100
AcDbRotatedDimension
  0
LINE
  5
84
330
2
100
AcDbEntity
  8
UMRISS05
100
AcDbLine
 10
835.8813994419426
 20
398.9428854613657
 30
0.0
 11
835.8813994419426
 21
373.7428854613654
 31
0.0
  0
LINE
  5
85
330
2
100
AcDbEntity
  8
UMRISS05
100
AcDbLine
 10
824.8813994419423
 20
401.4428854613656
 30
0.0
 11
824.8813994419423
 21
371.2428854613657
 31
0.0
  0
LINE
  5
86
330
2
100
AcDbEntity
  8
UMRISS05
100
AcDbLine
 10
726.2995690636419
 20
414.3428854613651
 30
0.0
 11
726.6045943168112
 21
414.2165398646366
 31
0.0
  0
LINE
  5
87
330
2
100
AcDbEntity
  8
UMRISS05
100
AcDbLine
 10
727.6652544885911
 20
415.2772000364164
 30
0.0
 11
726.6045943168112
 21
414.2165398646366
 31
0.0
  0
LINE
  5
88
330
2
100
AcDbEntity
  8
UMRISS05
100
AcDbLine
 10
726.2995690636419
 20
415.8428854613648
 30
0.0
 11
726.2995690636419
 21
414.3428854613651
 31
0.0
  0
ARC
  5
89
330
2
100
AcDbEntity
  8
UMRISS05
100
AcDbCircle
 10
712.8995690636424
 20
415.0545730571206
 30
0.0
 40
0.2
100
AcDbArc
 50
295.0289994876283
 51
0.0
  0
LINE
  5
8A
330
2
100
AcDbEntity
  8
UMRISS05
100
AcDbLine
 10
713.0995690636423
 20
415.0545730571206
 30
0.0
 11
713.0995690636423
 21
415.8428854613648
 31
0.0
  0
ARC
  5
8B
330
2
100
AcDbEntity
  8
UMRISS05
100
AcDbCircle
 10
717.2995690636424
 20
415.0545730571206
 30
0.0
 40
0.2
100
AcDbArc
 50
180.0
 51
244.9710005123717
  0
LINE
  5
8C
330
2
100
AcDbEntity
  8
UMRISS05
100
AcDbLine
 10
717.0995690636423
 20
415.0545730571206
 30
0.0
 11
717.0995690636423
 21
415.8428854613648
 31
0.0
  0
LINE
  5
8D
330
2
100
AcDbEntity
  8
UMRISS05
100
AcDbLine
 10
717.0995690636418
 20
415.8428854613649
 30
0.0
 11
726.2995690636419
 21
415.8428854613648
 31
0.0
  0
LINE
  5
8E
330
2
100
AcDbEntity
  8
UMRISS05
100
AcDbLine
 10
744.099569063642
 20
398.8428854613652
 30
0.0
 11
743.0389088918623
 21
397.7822252895854
 31
0.0
  0
LINE
  5
8F
330
2
100
AcDbEntity
  8
UMRISS05
100
AcDbLine
 10
743.0389088918623
 20
397.7822252895854
 30
0.0
 11
744.0980242879245
 21
396.7231098935231
 31
0.0
  0
LINE
  5
90
330
2
100
AcDbEntity
  8
UMRISS03
100
AcDbLine
 10
726.5456206222453
 20
403.1753386480553
 30
0.0
 11
731.4320222503316
 21
401.3968339027618
 31
0.0
  0
LINE
  5
91
330
2
100
AcDbEntity
  8
UMRISS03
100
AcDbLine
 10
724.767115876952
 20
398.2889370199687
 30
0.0
 11
729.6535175050389
 21
396.5104322746754
 31
0.0
  0
LINE
  5
92
330
2
100
AcDbEntity
  8
UMRISS03
100
AcDbLine
 10
724.767115876952
 20
398.2889370199687
 30
0.0
 11
726.5456206222453
 21
403.1753386480553
 31
0.0
  0
LINE
  5
93
330
2
100
AcDbEntity
  8
UMRISS03
100
AcDbLine
 10
729.6535175050389
 20
396.5104322746754
 30
0.0
 11
731.4320222503316
 21
401.3968339027618
 31
0.0
  0
LINE
  5
94
330
2
100
AcDbEntity
  8
ACHSEN
100
AcDbLine
 10
729.3716034301812
 20
403.3377711602028
 30
0.0
 11
726.8275346971019
 21
396.3479997625271
 31
0.0
  0
LINE
  5
95
330
2
100
AcDbEntity
  8
ACHSEN
100
AcDbLine
 10
731.1593376414424
 20
398.7292207753027
 30
0.0
 11
725.0398004858411
 21
400.9565501474274
 31
0.0
  0
LINE
  5
96
330
2
100
AcDbEntity
  8
ACHSEN
100
AcDbLine
 10
708.3442361056758
 20
410.3428854613651
 30
0.0
 11
721.8549020216081
 21
410.3428854613651
 31
0.0
  0
LINE
  5
97
330
2
100
AcDbEntity
  8
ACHSEN
100
AcDbLine
 10
721.5585956738807
 20
410.3428854613651
 30
0.0
 11
708.6405424534034
 21
410.3428854613651
 31
0.0
  0
LWPOLYLINE
  5
98
330
2
100
AcDbEntity
  8
UMRISS03
100
AcDbPolyline
 90
       24
 70
     1
 43
0.0
 10
717.7995690636422
 20
384.3428854613657
 10
717.3995690636424
 20
384.342885461366
 42
0.4142135623733172
 10
717.0995690636423
 20
384.042885461366
 10
717.0995690636423
 20
382.9428854613659
 42
-0.4142135623732059
 10
716.9995690636422
 20
382.842885461366
 10
715.8995690636422
 20
382.8428854613662
 42
0.4142135623731427
 10
715.5995690636423
 20
382.5428854613662
 10
715.5995690636423
 20
382.1428854613663
 42
0.4142135623731427
 10
715.8995690636422
 20
381.8428854613665
 10
716.9995690636422
 20
381.8428854613669
 42
-0.4142135623731298
 10
717.0995690636423
 20
381.742885461367
 10
717.0995690636423
 20
380.6428854613657
 42
0.4142135623730774
 10
717.3995690636424
 20
380.3428854613658
 10
717.7995690636424
 20
380.342885461366
 42
0.4142135623731189
 10
718.0995690636422
 20
380.642885461366
 10
718.0995690636422
 20
381.7428854613664
 42
-0.414213562373123
 10
718.1995690636421
 20
381.8428854613662
 10
719.2995690636422
 20
381.8428854613665
 42
0.4142135623730951
 10
719.5995690636423
 20
382.1428854613663
 10
719.5995690636423
 20
382.5428854613658
 42
0.4142135623730475
 10
719.2995690636422
 20
382.8428854613658
 10
718.1995690636421
 20
382.8428854613662
 42
-0.4142135623729705
 10
718.0995690636422
 20
382.9428854613661
 10
718.0995690636422
 20
384.0428854613656
 42
0.4142135623730831
  0
LINE
  5
99
330
2
100
AcDbEntity
  8
ACHSEN
100
AcDbLine
 10
734.0995690636411
 20
368.3315519983912
 30
0.0
 11
734.0995690636411
 21
360.3542189243402
 31
0.0
  0
CIRCLE
  5
9A
330
2
100
AcDbEntity
  8
UMRISS05
100
AcDbCircle
 10
734.0995690636411
 20
364.3428854613658
 30
0.0
 40
2.6
  0
LINE
  5
9B
330
2
100
AcDbEntity
  8
ACHSEN
100
AcDbLine
 10
734.0995690636423
 20
368.9428854613659
 30
0.0
 11
734.0995690636423
 21
359.7428854613657
 31
0.0
  0
LINE
  5
9C
330
2
100
AcDbEntity
  8
1855
100
AcDbLine
 10
719.0995690636424
 20
368.342885461366
 30
0.0
 11
719.0995690636424
 21
360.342885461366
 31
0.0
  0
LINE
  5
9E
330
2
100
AcDbEntity
  8
1855
100
AcDbLine
 10
719.0995690636424
 20
368.342885461366
 30
0.0
 11
711.099569063642
 21
368.3428854613658
 31
0.0
  0
LINE
  5
9F
330
2
100
AcDbEntity
  8
1855
100
AcDbLine
 10
711.099569063642
 20
368.3428854613658
 30
0.0
 11
711.099569063642
 21
360.342885461366
 31
0.0
  0
LINE
  5
A0
330
2
100
AcDbEntity
  8
1855
100
AcDbLine
 10
711.099569063642
 20
360.342885461366
 30
0.0
 11
719.0995690636424
 21
360.342885461366
 31
0.0
  0
LINE
  5
A1
330
2
100
AcDbEntity
  8
ACHSEN
100
AcDbLine
 10
696.0995690636411
 20
359.6836802475627
 30
0.0
 11
696.0995690636411
 21
369.0020906751688
 31
0.0
  0
LINE
  5
A2
330
2
100
AcDbEntity
  8
ACHSEN
100
AcDbLine
 10
696.0995690636423
 20
368.9428854613659
 30
0.0
 11
696.0995690636423
 21
359.7428854613661
 31
0.0
  0
CIRCLE
  5
A3
330
2
100
AcDbEntity
  8
UMRISS05
100
AcDbCircle
 10
696.0995690636411
 20
364.3428854613658
 30
0.0
 40
2.6
  0
LINE
  5
A4
330
2
100
AcDbEntity
  8
ACHSEN
100
AcDbLine
 10
738.3134587497574
 20
364.3428854613658
 30
0.0
 11
691.770790800388
 21
364.3428854613658
 31
0.0
  0
DIMENSION
  5
A5
330
2
100
AcDbEntity
  8
BEMASSUNG
  6
Continuous
100
AcDbDimension
  2
*D28
 10
711.099569063642
 20
374.1358082191057
 30
0.0
 11
703.3840581851652
 21
378.9289035445336
 31
0.0
 70
   128
  1
<>/9
 71
     5
 42
7.999999999999886
  3
PROSPEKT
100
AcDbAlignedDimension
 13
719.099569063642
 23
368.3428854613662
 33
0.0
 14
711.099569063642
 24
368.3428854613662
 34
0.0
100
AcDbRotatedDimension
  0
CIRCLE
  5
B4
330
2
100
AcDbEntity
  8
UMRISS05
100
AcDbCircle
 10
715.099569063642
 20
364.342885461366
 30
0.0
 40
8.0
  0
LINE
  5
B5
330
2
100
AcDbEntity
  8
ACHSEN
100
AcDbLine
 10
738.6995690636421
 20
364.3428854613658
 30
0.0
 11
691.4995690636422
 21
364.342885461366
 31
0.0
  0
CIRCLE
  5
B6
330
2
100
AcDbEntity
  8
UMRISS03
100
AcDbCircle
 10
717.5995690636423
 20
382.3428854613662
 30
0.0
 40
3.5
  0
DIMENSION
  5
B7
330
2
100
AcDbEntity
  8
BEMASSUNG
  6
Continuous
100
AcDbDimension
  2
*D27
 10
734.0995690636423
 20
388.2287591660177
 30
0.0
 11
715.099569063642
 21
392.6287591660176
 31
0.0
 71
     5
 42
38.0
  3
PROSPEKT
100
AcDbAlignedDimension
 13
696.0995690636423
 23
368.9428854613659
 33
0.0
 14
734.0995690636423
 24
368.9428854613659
 34
0.0
100
AcDbRotatedDimension
  0
DIMENSION
  5
C4
330
2
100
AcDbEntity
  8
BEMASSUNG
  6
Continuous
100
AcDbDimension
  2
*D26
 10
759.130222834363
 20
410.3428854613658
 30
0.0
 11
754.7302228343631
 21
387.3428854613659
 31
0.0
 71
     5
 42
46.0
  3
PROSPEKT
100
AcDbAlignedDimension
 13
738.6995690636421
 23
364.3428854613658
 33
0.0
 14
722.0995690636422
 24
410.3428854613658
 34
0.0
 50
90.0
100
AcDbRotatedDimension
  0
ARC
  5
D1
330
2
100
AcDbEntity
  8
UMRISS05
100
AcDbCircle
 10
715.099569063642
 20
410.3428854613658
 30
0.0
 40
5.0
100
AcDbArc
 50
115.7192795021854
 51
64.2807204978146
  0
LINE
  5
D2
330
2
100
AcDbEntity
  8
UMRISS05
100
AcDbLine
 10
727.6652544885911
 20
415.2772000364164
 30
0.0
 11
744.099569063642
 21
398.8428854613652
 31
0.0
  0
CIRCLE
  5
D3
330
2
100
AcDbEntity
  8
UMRISS05
100
AcDbCircle
 10
715.099569063642
 20
410.3428854613658
 30
0.0
 40
4.5
  0
DIMENSION
  5
D4
330
2
100
AcDbEntity
  8
BEMASSUNG
  6
Continuous
100
AcDbDimension
  2
*D25
 10
770.3701718572435
 20
364.3428854613658
 30
0.0
 11
765.9701718572435
 21
390.092885461366
 31
0.0
 71
     5
 42
51.50000000000023
  3
PROSPEKT
100
AcDbAlignedDimension
 13
726.2995690636419
 23
415.8428854613658
 33
0.0
 14
738.6995690636421
 24
364.3428854613658
 34
0.0
 50
90.0
100
AcDbRotatedDimension
  0
DIMENSION
  5
E1
330
2
100
AcDbEntity
  8
BEMASSUNG
  6
Continuous
100
AcDbDimension
  2
*D24
 10
719.5995690636423
 20
426.506241634632
 30
0.0
 11
714.8067504453751
 21
431.4931541077632
 31
0.0
 70
   128
 71
     5
 42
9.0
  3
PROSPEKT
100
AcDbAlignedDimension
 13
710.5995690636421
 23
410.3428854613658
 33
0.0
 14
719.5995690636423
 24
410.3428854613658
 34
0.0
100
AcDbRotatedDimension
  0
DIMENSION
  5
F0
330
2
100
AcDbEntity
  8
BEMASSUNG
  6
Continuous
100
AcDbDimension
  2
*D23
 10
821.4813994419422
 20
387.61189005842
 30
0.0
 11
810.0705369777077
 21
391.9825217826667
 31
0.0
 70
   128
 71
     5
 42
3.40000000000009
  3
PROSPEKT
100
AcDbAlignedDimension
 13
824.8813994419423
 23
387.4102726851636
 33
0.0
 14
821.4813994419422
 24
387.7126987450477
 34
0.0
100
AcDbRotatedDimension
  0
DIMENSION
  5
FF
330
2
100
AcDbEntity
  8
BEMASSUNG
  6
Continuous
100
AcDbDimension
  2
*D22
 10
807.7181290400128
 20
451.3428854613648
 30
0.0
 11
803.2807463675196
 21
447.1323011864848
 31
0.0
 70
   128
  1
<>
 71
     5
 42
9.0
  3
PROSPEKT
100
AcDbAlignedDimension
 13
824.7313994419423
 23
442.3428854613647
 33
0.0
 14
831.4813994419422
 24
451.3428854613648
 34
0.0
 50
90.0
100
AcDbRotatedDimension
  0
LINE
  5
10E
330
2
100
AcDbEntity
  8
UMRISS05
100
AcDbLine
 10
655.0995690636423
 20
451.3428854613648
 30
0.0
 11
658.0995690636423
 21
451.3428854613648
 31
0.0
  0
LINE
  5
10F
330
2
100
AcDbEntity
  8
ACHSEN
100
AcDbLine
 10
664.5995690636426
 20
442.3428854613647
 30
0.0
 11
650.0995690636381
 21
442.3428854613647
 31
0.0
  0
DIMENSION
  5
110
330
2
100
AcDbEntity
  8
BEMASSUNG
  6
Continuous
100
AcDbDimension
  2
*D21
 10
628.3348207872124
 20
415.8428854613648
 30
0.0
 11
623.9348207872121
 21
433.592885461365
 31
0.0
 71
     5
 42
35.5
  3
PROSPEKT
100
AcDbAlignedDimension
 13
655.0995690636423
 23
451.3428854613648
 33
0.0
 14
658.0995690636401
 24
415.8428854613648
 34
0.0
 50
90.0
100
AcDbRotatedDimension
  0
LINE
  5
11D
330
2
100
AcDbEntity
  8
UMRISS05
100
AcDbLine
 10
669.5995690636423
 20
401.342885461366
 30
0.0
 11
663.0995690636417
 21
401.342885461366
 31
0.0
  0
LINE
  5
11E
330
2
100
AcDbEntity
  8
UMRISS05
100
AcDbLine
 10
658.0995690636423
 20
401.3428761062573
 30
0.0
 11
663.0995690636417
 21
401.3428761062573
 31
0.0
  0
LINE
  5
11F
330
2
100
AcDbEntity
  8
UMRISS05
100
AcDbLine
 10
665.0995864954146
 20
389.3428761062571
 30
0.0
 11
669.5995690636423
 21
389.3428761062571
 31
0.0
  0
LINE
  5
120
330
2
100
AcDbEntity
  8
UMRISS05
100
AcDbLine
 10
659.0995864954146
 20
398.3428761062573
 30
0.0
 11
658.0995690636423
 21
398.3428761062573
 31
0.0
  0
ARC
  5
121
330
2
100
AcDbEntity
  8
UMRISS05
100
AcDbCircle
 10
661.7097310474812
 20
396.1890800712631
 30
0.0
 40
2.0
100
AcDbArc
 50
137.500000000003
 51
227.5000000000019
  0
LINE
  5
122
330
2
100
AcDbEntity
  8
UMRISS05
100
AcDbLine
 10
660.235176373861
 20
397.5402604864942
 30
0.0
 11
663.719640181433
 21
401.342885461366
 31
0.0
  0
LINE
  5
123
330
2
100
AcDbEntity
  8
UMRISS05
100
AcDbLine
 10
659.8665377054558
 20
397.8780555903022
 30
0.0
 11
663.0414607566008
 21
401.3428761062573
 31
0.0
  0
LINE
  5
124
330
2
100
AcDbEntity
  8
ACHSEN
100
AcDbLine
 10
661.0995864954146
 20
386.3428761062573
 30
0.0
 11
643.0995864954146
 21
386.3428761062573
 31
0.0
  0
LINE
  5
125
330
2
100
AcDbEntity
  8
UMRISS05
100
AcDbLine
 10
645.0995864954146
 20
401.3428761062573
 30
0.0
 11
655.0995690636423
 21
401.3428761062573
 31
0.0
  0
LINE
  5
126
330
2
100
AcDbEntity
  8
UMRISS05
100
AcDbLine
 10
664.1003151040035
 20
376.8430194692923
 30
0.0
 11
669.5995690636423
 21
376.8430194692923
 31
0.0
  0
LINE
  5
127
330
2
100
AcDbEntity
  8
UMRISS05
100
AcDbLine
 10
665.0995864954146
 20
383.3428761062571
 30
0.0
 11
669.5995690636423
 21
383.3428761062569
 31
0.0
  0
LINE
  5
128
330
2
100
AcDbEntity
  8
UMRISS05
100
AcDbLine
 10
662.1003151040033
 20
374.8430194692923
 30
0.0
 11
662.1003151040033
 21
372.3428854613658
 31
0.0
  0
LINE
  5
129
330
2
100
AcDbEntity
  8
UMRISS05
100
AcDbLine
 10
659.0995864954146
 20
374.3428761062571
 30
0.0
 11
658.0995690636423
 21
374.3428761062571
 31
0.0
  0
LINE
  5
12A
330
2
100
AcDbEntity
  8
UMRISS05
100
AcDbLine
 10
661.4953102020622
 20
392.9947063140066
 30
0.0
 11
661.8331053058701
 21
393.3633449824115
 31
0.0
  0
LINE
  5
12B
330
2
100
AcDbEntity
  8
UMRISS05
100
AcDbLine
 10
660.0207555284422
 20
394.3458867292379
 30
0.0
 11
661.4953102020622
 21
392.9947063140066
 31
0.0
  0
ARC
  5
12C
330
2
100
AcDbEntity
  8
UMRISS05
100
AcDbCircle
 10
664.1003151040035
 20
374.8430194692923
 30
0.0
 40
2.0
100
AcDbArc
 50
90.0
 51
180.0
  0
LINE
  5
12D
330
2
100
AcDbEntity
  8
UMRISS05
100
AcDbLine
 10
658.0995690636423
 20
372.3428854613658
 30
0.0
 11
669.5995690636419
 21
372.3428854613656
 31
0.0
  0
LINE
  5
12E
330
2
100
AcDbEntity
  8
UMRISS05
100
AcDbLine
 10
645.0995864954146
 20
371.3428761062571
 30
0.0
 11
655.0995690636426
 21
371.3428761062571
 31
0.0
  0
LINE
  5
12F
330
2
100
AcDbEntity
  8
UMRISS05
100
AcDbLine
 10
645.0995864954146
 20
371.3428761062571
 30
0.0
 11
645.0995864954146
 21
401.3428761062573
 31
0.0
  0
LINE
  5
130
330
2
100
AcDbEntity
  8
UMRISS05
100
AcDbLine
 10
669.5995690636419
 20
372.3428854613656
 30
0.0
 11
669.5995690636423
 21
401.342885461366
 31
0.0
  0
LINE
  5
131
330
2
100
AcDbEntity
  8
UMRISS05
100
AcDbLine
 10
659.0995864954146
 20
374.3428761062571
 30
0.0
 11
659.0995864954146
 21
398.3428761062573
 31
0.0
  0
ARC
  5
132
330
2
100
AcDbEntity
  8
UMRISS05
100
AcDbCircle
 10
665.0995864954146
 20
386.3428761062571
 30
0.0
 40
3.0
100
AcDbArc
 50
90.0
 51
270.0
  0
ARC
  5
133
330
2
100
AcDbEntity
  8
UMRISS05
100
AcDbCircle
 10
661.7097310474812
 20
396.1890800712631
 30
0.0
 40
2.5
100
AcDbArc
 50
137.500000000003
 51
227.5000000000019
  0
LINE
  5
134
330
2
100
AcDbEntity
  8
UMRISS05
100
AcDbLine
 10
660.3585506322501
 20
394.7145253976428
 30
0.0
 11
661.8331053058701
 21
393.3633449824115
 31
0.0
  0
DIMENSION
  5
135
330
2
100
AcDbEntity
  8
BEMASSUNG
  6
Continuous
100
AcDbDimension
  2
*D20
 10
628.4137641039331
 20
401.3428761062574
 30
0.0
 11
623.2364256504644
 21
385.7545153088675
 31
0.0
 70
   128
 71
     5
 42
30.00000000000023
  3
PROSPEKT
100
AcDbAlignedDimension
 13
645.0995864954146
 23
371.3428761062571
 33
0.0
 14
645.0995864954146
 24
401.3428761062573
 34
0.0
 50
90.0
100
AcDbRotatedDimension
  0
DIMENSION
  5
142
330
2
100
AcDbEntity
  8
BEMASSUNG
  6
Continuous
100
AcDbDimension
  2
*D19
 10
628.410170988009
 20
415.8428854613648
 30
0.0
 11
624.0101709880089
 21
408.5928807838111
 31
0.0
 71
     5
 42
14.50000935510752
  3
PROSPEKT
100
AcDbAlignedDimension
 13
645.0995864954146
 23
401.3428761062573
 33
0.0
 14
658.0995690636401
 24
415.8428854613648
 34
0.0
 50
90.0
100
AcDbRotatedDimension
  0
DIMENSION
  5
151
330
2
100
AcDbEntity
  8
BEMASSUNG
  6
Continuous
100
AcDbDimension
  2
*D18
 10
655.0995690636427
 20
406.4196755882551
 30
0.0
 11
650.0995777795288
 21
410.8196755882549
 31
0.0
 71
     5
 42
9.999982568228119
  3
PROSPEKT
100
AcDbAlignedDimension
 13
645.0995864954146
 23
401.3428761062573
 33
0.0
 14
655.0995690636427
 24
409.1023168920051
 34
0.0
100
AcDbRotatedDimension
  0
DIMENSION
  5
160
330
2
100
AcDbEntity
  8
BEMASSUNG
  6
Continuous
100
AcDbDimension
  2
*D17
 10
687.1728105372969
 20
364.342885461366
 30
0.0
 11
682.7728105372969
 21
375.3428807838118
 31
0.0
 71
     5
 42
21.99999064489134
  3
PROSPEKT
100
AcDbAlignedDimension
 13
659.0995864954146
 23
386.3428761062573
 33
0.0
 14
691.4995690636422
 24
364.342885461366
 34
0.0
 50
90.0
100
AcDbRotatedDimension
  0
LINE
  5
16D
330
2
100
AcDbEntity
  8
UMRISS05
100
AcDbLine
 10
658.0995690636401
 20
415.8428854613648
 30
0.0
 11
713.0995690636418
 21
415.8428854613649
 31
0.0
  0
LINE
  5
16E
330
2
100
AcDbEntity
  8
UMRISS05
100
AcDbLine
 10
825.1813994419423
 20
323.4428854613656
 30
0.0
 11
832.6813994419422
 21
323.4428854613656
 31
0.0
  0
LINE
  5
16F
330
2
100
AcDbEntity
  8
UMRISS05
100
AcDbLine
 10
825.1813994419423
 20
293.2428854613656
 30
0.0
 11
832.6813994419422
 21
293.2428854613656
 31
0.0
  0
LINE
  5
170
330
2
100
AcDbEntity
  8
ACHSEN
100
AcDbLine
 10
822.7313994419422
 20
267.9428854613655
 30
0.0
 11
836.2313994419421
 21
267.9428854613655
 31
0.0
  0
DIMENSION
  5
171
330
2
100
AcDbEntity
  8
BEMASSUNG
  6
Continuous
100
AcDbDimension
  2
*D16
 10
832.6813994419422
 20
282.6074055595102
 30
0.0
 11
812.3082185007426
 21
286.748827644042
 31
0.0
 70
   128
 71
     5
 42
7.499999999999772
  3
PROSPEKT
100
AcDbAlignedDimension
 13
825.1813994419423
 23
293.2428854613656
 33
0.0
 14
832.6813994419422
 24
293.2428854613656
 34
0.0
100
AcDbRotatedDimension
  0
CIRCLE
  5
180
330
2
100
AcDbEntity
  8
UMRISS05
100
AcDbCircle
 10
829.4813994419422
 20
267.9428854613655
 30
0.0
 40
2.75
  0
CIRCLE
  5
181
330
2
100
AcDbEntity
  8
UMRISS05
100
AcDbCircle
 10
829.4813994419422
 20
267.9428854613655
 30
0.0
 40
4.75
  0
LINE
  5
182
330
2
100
AcDbEntity
  8
ACHSEN
100
AcDbLine
 10
829.4813994419422
 20
274.6928854613656
 30
0.0
 11
829.4813994419422
 21
261.1928854613656
 31
0.0
  0
LINE
  5
183
330
2
100
AcDbEntity
  8
UMRISS05
100
AcDbLine
 10
825.1813994419423
 20
323.4428854613656
 30
0.0
 11
825.1813994419423
 21
293.2428854613656
 31
0.0
  0
LINE
  5
184
330
2
100
AcDbEntity
  8
UMRISS05
100
AcDbLine
 10
832.6813994419422
 20
323.4428854613656
 30
0.0
 11
832.6813994419422
 21
293.2428854613656
 31
0.0
  0
LWPOLYLINE
  5
185
330
2
100
AcDbEntity
  8
UMRISS03
100
AcDbPolyline
 90
       24
 70
     1
 43
0.0
 10
697.2995690636422
 20
350.3428854613653
 10
696.8995690636424
 20
350.3428854613658
 42
0.4142135623733172
 10
696.5995690636423
 20
350.0428854613658
 10
696.5995690636423
 20
348.9428854613657
 42
-0.4142135623732059
 10
696.4995690636422
 20
348.8428854613658
 10
695.3995690636424
 20
348.842885461366
 42
0.4142135623731427
 10
695.0995690636423
 20
348.542885461366
 10
695.0995690636423
 20
348.1428854613662
 42
0.4142135623731427
 10
695.3995690636424
 20
347.8428854613662
 10
696.4995690636422
 20
347.8428854613667
 42
-0.4142135623731298
 10
696.5995690636423
 20
347.7428854613668
 10
696.5995690636423
 20
346.6428854613655
 42
0.4142135623730774
 10
696.8995690636424
 20
346.3428854613655
 10
697.2995690636424
 20
346.3428854613658
 42
0.4142135623731189
 10
697.5995690636421
 20
346.6428854613657
 10
697.5995690636421
 20
347.7428854613661
 42
-0.414213562373123
 10
697.6995690636421
 20
347.842885461366
 10
698.7995690636422
 20
347.8428854613662
 42
0.4142135623730951
 10
699.0995690636423
 20
348.1428854613662
 10
699.0995690636423
 20
348.5428854613656
 42
0.4142135623730475
 10
698.7995690636422
 20
348.8428854613655
 10
697.6995690636421
 20
348.842885461366
 42
-0.4142135623729705
 10
697.5995690636421
 20
348.9428854613659
 10
697.5995690636421
 20
350.0428854613653
 42
0.4142135623730831
  0
CIRCLE
  5
186
330
2
100
AcDbEntity
  8
UMRISS03
100
AcDbCircle
 10
697.0995690636422
 20
348.342885461366
 30
0.0
 40
3.5
  0
LINE
  5
187
330
2
100
AcDbEntity
  8
ACHSEN
100
AcDbLine
 10
721.4621794635803
 20
342.8428854613692
 30
0.0
 11
708.736958663704
 21
342.8428854613692
 31
0.0
  0
CIRCLE
  5
188
330
2
100
AcDbEntity
  8
UMRISS05
100
AcDbCircle
 10
715.099569063642
 20
342.8428854613693
 30
0.0
 40
5.0
  0
LINE
  5
189
330
2
100
AcDbEntity
  8
ACHSEN
100
AcDbLine
 10
722.0995690636422
 20
342.8428854613693
 30
0.0
 11
708.0995690636423
 21
342.8428854613693
 31
0.0
  0
LINE
  5
18A
330
2
100
AcDbEntity
  8
UMRISS03
100
AcDbLine
 10
710.8495503791202
 20
303.7365397324515
 30
0.0
 11
715.099569063642
 21
303.7365397324513
 31
0.0
  0
LINE
  5
18B
330
2
100
AcDbEntity
  8
UMRISS03
100
AcDbLine
 10
715.099569063642
 20
307.7365397324513
 30
0.0
 11
710.8495503791198
 21
307.7365397324511
 31
0.0
  0
ARC
  5
18C
330
2
100
AcDbEntity
  8
UMRISS03
100
AcDbCircle
 10
715.099569063642
 20
305.7365397324511
 30
0.0
 40
2.0
100
AcDbArc
 50
269.9999999999935
 51
90.0
  0
ARC
  5
18D
330
2
100
AcDbEntity
  8
UMRISS03
100
AcDbCircle
 10
697.2426926724377
 20
303.3428854613653
 30
0.0
 40
7.0
100
AcDbArc
 50
269.999999999987
 51
315.0000000000002
  0
ARC
  5
18E
330
2
100
AcDbEntity
  8
UMRISS03
100
AcDbCircle
 10
697.242692672438
 20
303.3428854613656
 30
0.0
 40
3.0
100
AcDbArc
 50
254.3255346997045
 51
315.0000000000002
  0
LINE
  5
18F
330
2
100
AcDbEntity
  8
UMRISS03
100
AcDbLine
 10
702.3642690048814
 20
304.2218211066902
 30
0.0
 11
699.3640130159977
 21
301.221565117806
 31
0.0
  0
LINE
  5
190
330
2
100
AcDbEntity
  8
UMRISS03
100
AcDbLine
 10
702.192440140744
 20
298.3931379930598
 30
0.0
 11
705.1926961296277
 21
301.393393981944
 31
0.0
  0
LINE
  5
191
330
2
100
AcDbEntity
  8
UMRISS03
100
AcDbLine
 10
693.5995690636421
 20
301.1428854613657
 30
0.0
 11
693.8620945336199
 21
301.1428854613659
 31
0.0
  0
ARC
  5
192
330
2
100
AcDbEntity
  8
UMRISS03
100
AcDbCircle
 10
693.5995690636421
 20
297.8428854613658
 30
0.0
 40
1.5
100
AcDbArc
 50
180.0
 51
269.999999999987
  0
ARC
  5
193
330
2
100
AcDbEntity
  8
UMRISS03
100
AcDbCircle
 10
693.5995690636421
 20
299.6428854613657
 30
0.0
 40
1.5
100
AcDbArc
 50
90.0
 51
180.0
  0
LINE
  5
194
330
2
100
AcDbEntity
  8
UMRISS03
100
AcDbLine
 10
692.0995690636423
 20
299.6428854613657
 30
0.0
 11
692.0995690636423
 21
297.8428854613658
 31
0.0
  0
CIRCLE
  5
195
330
2
100
AcDbEntity
  8
UMRISS03
100
AcDbCircle
 10
695.0995690636411
 20
298.3428854613655
 30
0.0
 40
2.0
  0
LINE
  5
196
330
2
100
AcDbEntity
  8
UMRISS03
100
AcDbLine
 10
696.4662355371303
 20
300.4451079824983
 30
0.0
 11
693.8620945336199
 21
301.1428854613659
 31
0.0
  0
LINE
  5
197
330
2
100
AcDbEntity
  8
UMRISS03
100
AcDbLine
 10
693.599569063642
 20
296.3428854613658
 30
0.0
 11
697.2426926724367
 21
296.3428854613653
 31
0.0
  0
ARC
  5
198
330
2
100
AcDbEntity
  8
UMRISS03
100
AcDbCircle
 10
710.8495503791202
 20
295.7365397324515
 30
0.0
 40
8.0
100
AcDbArc
 50
90.0
 51
135.0000000000002
  0
ARC
  5
199
330
2
100
AcDbEntity
  8
UMRISS03
100
AcDbCircle
 10
710.8495503791195
 20
295.7365397324512
 30
0.0
 40
12.0
100
AcDbArc
 50
90.0
 51
134.9999999999996
  0
CIRCLE
  5
19A
330
2
100
AcDbEntity
  8
UMRISS03
100
AcDbCircle
 10
735.5995690636421
 20
325.8428854613658
 30
0.0
 40
2.049999999999998
  0
LINE
  5
19B
330
2
100
AcDbEntity
  8
UMRISS05
100
AcDbLine
 10
744.099569063642
 20
273.8428854613662
 30
0.0
 11
743.0389088918623
 21
274.903545633146
 31
0.0
  0
LINE
  5
19C
330
2
100
AcDbEntity
  8
UMRISS05
100
AcDbLine
 10
744.099569063642
 20
273.8428854613662
 30
0.0
 11
743.0389088918623
 21
274.903545633146
 31
0.0
  0
LINE
  5
19D
330
2
100
AcDbEntity
  8
UMRISS05
100
AcDbLine
 10
743.0389088918623
 20
274.903545633146
 30
0.0
 11
744.0995690636419
 21
275.9642058049255
 31
0.0
  0
LINE
  5
19E
330
2
100
AcDbEntity
  8
ACHSEN
100
AcDbLine
 10
739.5995690636421
 20
278.9428854613661
 30
0.0
 11
728.5995690636423
 21
278.9428854613661
 31
0.0
  0
LINE
  5
19F
330
2
100
AcDbEntity
  8
ACHSEN
100
AcDbLine
 10
725.0995690636423
 20
276.4428854613659
 30
0.0
 11
725.0995690636423
 21
267.2428854613656
 31
0.0
  0
LINE
  5
1A0
330
2
100
AcDbEntity
  8
ACHSEN
100
AcDbLine
 10
729.6995690636421
 20
271.8428854613658
 30
0.0
 11
720.4995690636422
 21
271.8428854613658
 31
0.0
  0
CIRCLE
  5
1A1
330
2
100
AcDbEntity
  8
UMRISS05
100
AcDbCircle
 10
725.0995690636423
 20
271.8428854613658
 30
0.0
 40
2.6
  0
LINE
  5
1A2
330
2
100
AcDbEntity
  8
ACHSEN
100
AcDbLine
 10
734.0995690636423
 20
284.4428854613661
 30
0.0
 11
734.0995690636423
 21
273.4428854613661
 31
0.0
  0
CIRCLE
  5
1A3
330
2
100
AcDbEntity
  8
UMRISS05
100
AcDbCircle
 10
734.0995690636423
 20
278.9428854613661
 30
0.0
 40
3.5
  0
LINE
  5
1A4
330
2
100
AcDbEntity
  8
ACHSEN
100
AcDbLine
 10
705.0995690636423
 20
276.4428854613659
 30
0.0
 11
705.0995690636423
 21
267.2428854613656
 31
0.0
  0
CIRCLE
  5
1A5
330
2
100
AcDbEntity
  8
UMRISS05
100
AcDbCircle
 10
705.0995690636423
 20
271.8428854613658
 30
0.0
 40
2.6
  0
LINE
  5
1A6
330
2
100
AcDbEntity
  8
ACHSEN
100
AcDbLine
 10
709.6995690636421
 20
271.8428854613658
 30
0.0
 11
700.4995690636422
 21
271.8428854613658
 31
0.0
  0
LINE
  5
1A7
330
2
100
AcDbEntity
  8
ACHSEN
100
AcDbLine
 10
701.5995690636422
 20
278.9428854613661
 30
0.0
 11
690.5995690636423
 21
278.9428854613661
 31
0.0
  0
LINE
  5
1A8
330
2
100
AcDbEntity
  8
UMRISS03
100
AcDbLine
 10
698.5445917947251
 20
270.7713125861117
 30
0.0
 11
693.6545463325589
 21
270.7713125861117
 31
0.0
  0
CIRCLE
  5
1A9
330
2
100
AcDbEntity
  8
UMRISS05
100
AcDbCircle
 10
696.0995690636423
 20
278.9428854613661
 30
0.0
 40
3.5
  0
LINE
  5
1AA
330
2
100
AcDbEntity
  8
ACHSEN
100
AcDbLine
 10
696.0995690636423
 20
284.4428854613661
 30
0.0
 11
696.0995690636423
 21
273.4428854613661
 31
0.0
  0
LINE
  5
1AB
330
2
100
AcDbEntity
  8
ACHSEN
100
AcDbLine
 10
727.9747983309214
 20
286.3428854613654
 30
0.0
 11
702.2243397963627
 21
286.3428854613654
 31
0.0
  0
LINE
  5
1AC
330
2
100
AcDbEntity
  8
ACHSEN
100
AcDbLine
 10
709.1464344534958
 20
267.1428854613653
 30
0.0
 11
721.0527036737882
 21
267.1428854613654
 31
0.0
  0
LINE
  5
1AD
330
2
100
AcDbEntity
  8
UMRISS05
100
AcDbLine
 10
726.2995690636419
 20
258.3428854613662
 30
0.0
 11
726.6045943168112
 21
258.4692310580947
 31
0.0
  0
LINE
  5
1AE
330
2
100
AcDbEntity
  8
UMRISS05
100
AcDbLine
 10
727.6652544885911
 20
257.4085708863149
 30
0.0
 11
726.6045943168112
 21
258.4692310580947
 31
0.0
  0
LINE
  5
1AF
330
2
100
AcDbEntity
  8
UMRISS05
100
AcDbLine
 10
726.2995690636419
 20
256.8428854613652
 30
0.0
 11
726.2995690636419
 21
258.3428854613662
 31
0.0
  0
LINE
  5
1B0
330
2
100
AcDbEntity
  8
UMRISS03
100
AcDbLine
 10
698.5445917947251
 20
265.1144583366193
 30
0.0
 11
693.6545463325589
 21
265.1144583366193
 31
0.0
  0
LWPOLYLINE
  5
1B1
330
2
100
AcDbEntity
  8
ACHSEN
100
AcDbPolyline
 90
        4
 70
     1
 43
0.0
 10
709.9995690636423
 20
266.3428854613655
 10
709.9995690636423
 20
279.4182916104601
 42
-3.044038009981496
 10
720.1995690636421
 20
279.4182916104601
 10
720.1995690636421
 20
266.3428854613655
 42
-0.9999999999999998
  0
ARC
  5
1B2
330
2
100
AcDbEntity
  8
UMRISS03
100
AcDbCircle
 10
691.5995690636423
 20
267.9428854613655
 30
0.0
 40
7.498889300106986
100
AcDbArc
 50
337.8409181306085
 51
22.15908186939147
  0
ARC
  5
1B3
330
2
100
AcDbEntity
  8
UMRISS03
100
AcDbCircle
 10
700.5995690636423
 20
267.9428854613655
 30
0.0
 40
7.498889300106986
100
AcDbArc
 50
157.8409181306085
 51
202.1590818693915
  0
LINE
  5
1B4
330
2
100
AcDbEntity
  8
UMRISS05
100
AcDbLine
 10
727.6652544885911
 20
257.4085708863149
 30
0.0
 11
744.099569063642
 21
273.8428854613662
 31
0.0
  0
DIMENSION
  5
1B5
330
2
100
AcDbEntity
  8
BEMASSUNG
  6
Continuous
100
AcDbDimension
  2
*D15
 10
770.3070974340362
 20
256.8428854613652
 30
0.0
 11
765.9070974340362
 21
271.5928854613654
 31
0.0
 71
     5
 42
29.50000000000023
  3
PROSPEKT
100
AcDbAlignedDimension
 13
727.9747983309214
 23
286.3428854613654
 33
0.0
 14
726.2995690636419
 24
256.8428854613652
 34
0.0
 50
90.0
100
AcDbRotatedDimension
  0
LWPOLYLINE
  5
1C2
330
2
100
AcDbEntity
  8
UMRISS05
100
AcDbPolyline
 90
        4
 70
     1
 43
0.0
 10
720.1995690636421
 20
267.1428854613655
 10
720.1995690636421
 20
276.4838794262725
 42
4.109609026488814
 10
709.9995690636423
 20
276.4838794262725
 10
709.9995690636423
 20
267.1428854613655
 42
1.0
  0
CIRCLE
  5
1C3
330
2
100
AcDbEntity
  8
UMRISS03
100
AcDbCircle
 10
736.099569063642
 20
294.3428854613657
 30
0.0
 40
3.5
  0
LWPOLYLINE
  5
1C4
330
2
100
AcDbEntity
  8
UMRISS03
100
AcDbPolyline
 90
       24
 70
     1
 43
0.0
 10
736.2995690636422
 20
296.3428854613651
 10
735.8995690636422
 20
296.3428854613655
 42
0.4142135623733172
 10
735.5995690636421
 20
296.0428854613656
 10
735.5995690636421
 20
294.9428854613655
 42
-0.4142135623732059
 10
735.4995690636423
 20
294.8428854613656
 10
734.3995690636424
 20
294.8428854613658
 42
0.4142135623731427
 10
734.0995690636423
 20
294.5428854613658
 10
734.0995690636423
 20
294.1428854613659
 42
0.4142135623731427
 10
734.3995690636424
 20
293.842885461366
 10
735.4995690636423
 20
293.8428854613665
 42
-0.4142135623731298
 10
735.5995690636421
 20
293.7428854613665
 10
735.5995690636421
 20
292.6428854613653
 42
0.4142135623730774
 10
735.8995690636422
 20
292.3428854613653
 10
736.2995690636425
 20
292.3428854613655
 42
0.4142135623731189
 10
736.5995690636423
 20
292.6428854613655
 10
736.5995690636423
 20
293.7428854613659
 42
-0.414213562373123
 10
736.6995690636421
 20
293.8428854613658
 10
737.7995690636423
 20
293.842885461366
 42
0.4142135623730951
 10
738.0995690636423
 20
294.1428854613659
 10
738.0995690636423
 20
294.5428854613654
 42
0.4142135623730475
 10
737.7995690636423
 20
294.8428854613653
 10
736.6995690636421
 20
294.8428854613658
 42
-0.4142135623729705
 10
736.5995690636423
 20
294.9428854613657
 10
736.5995690636423
 20
296.0428854613651
 42
0.4142135623730831
  0
DIMENSION
  5
1C5
330
2
100
AcDbEntity
  8
BEMASSUNG
  6
Continuous
100
AcDbDimension
  2
*D14
 10
825.1813994419423
 20
307.5239947737052
 30
0.0
 11
811.2585513030976
 21
311.7463705890839
 31
0.0
 70
   128
 71
     5
 42
3.700000000000271
  3
PROSPEKT
100
AcDbAlignedDimension
 13
821.4813994419422
 23
305.9221681471379
 33
0.0
 14
825.1813994419423
 24
308.3428854613655
 34
0.0
100
AcDbRotatedDimension
  0
LINE
  5
1D4
330
2
100
AcDbEntity
  8
ACHSEN
100
AcDbLine
 10
824.7313994419423
 20
230.3428854613652
 30
0.0
 11
838.2313994419423
 21
230.3428854613652
 31
0.0
  0
CIRCLE
  5
1D5
330
2
100
AcDbEntity
  8
UMRISS05
100
AcDbCircle
 10
831.4813994419422
 20
230.3428854613652
 30
0.0
 40
2.549999999999998
  0
CIRCLE
  5
1D6
330
2
100
AcDbEntity
  8
UMRISS05
100
AcDbCircle
 10
831.4813994419422
 20
230.3428854613652
 30
0.0
 40
4.75
  0
ARC
  5
1D7
330
2
100
AcDbEntity
  8
UMRISS05
100
AcDbCircle
 10
831.4813994419422
 20
231.3428854613652
 30
0.0
 40
10.0
100
AcDbArc
 50
180.0
 51
0.0
  0
DIMENSION
  5
1D8
330
2
100
AcDbEntity
  8
BEMASSUNG
  6
Continuous
100
AcDbDimension
  2
*D13
 10
841.4813994419422
 20
194.5603369568202
 30
0.0
 11
831.0798266527372
 21
198.8840728756424
 31
0.0
 70
   128
  1
18/<>
 71
     5
 42
20.0
  3
PROSPEKT
100
AcDbAlignedDimension
 13
821.4813994419422
 23
231.3428854613652
 33
0.0
 14
841.4813994419422
 24
231.3428854613652
 34
0.0
100
AcDbRotatedDimension
  0
LINE
  5
1E5
330
2
100
AcDbEntity
  8
UMRISS05
100
AcDbLine
 10
710.5995690636376
 20
168.3627105543189
 30
0.0
 11
719.5995690636376
 21
168.3627105543189
 31
0.0
  0
LINE
  5
1E6
330
2
100
AcDbEntity
  8
UMRISS05
100
AcDbLine
 10
694.3084546627812
 20
169.8627105543191
 30
0.0
 11
744.0995690636376
 21
169.8627105543186
 31
0.0
  0
LINE
  5
1E7
330
2
100
AcDbEntity
  8
UMRISS05
100
AcDbLine
 10
710.5995690636376
 20
158.1627105543189
 30
0.0
 11
719.5995690636376
 21
158.1627105543189
 31
0.0
  0
DIMENSION
  5
1E8
330
2
100
AcDbEntity
  8
BEMASSUNG
  6
Continuous
100
AcDbDimension
  2
*D12
 10
771.0640434167571
 20
156.6627105543189
 30
0.0
 11
766.4260819736473
 21
142.6034187263224
 31
0.0
 70
   128
 71
     5
 42
13.19999999999982
  3
PROSPEKT
100
AcDbAlignedDimension
 13
744.0995690636376
 23
169.8627105543186
 33
0.0
 14
744.0995690636376
 24
156.6627105543189
 34
0.0
 50
90.0
100
AcDbRotatedDimension
  0
LINE
  5
1F7
330
2
100
AcDbEntity
  8
UMRISS05
100
AcDbLine
 10
744.0995690636428
 20
168.862710554319
 30
0.0
 11
744.099569063642
 21
157.6627105543191
 31
0.0
  0
LINE
  5
1F8
330
2
100
AcDbEntity
  8
UMRISS05
100
AcDbLine
 10
710.5995690636376
 20
156.6627105543189
 30
0.0
 11
710.5995690636381
 21
169.8627105543189
 31
0.0
  0
LINE
  5
1F9
330
2
100
AcDbEntity
  8
UMRISS05
100
AcDbLine
 10
719.5995690636376
 20
156.6627105543189
 30
0.0
 11
719.599569063638
 21
169.8627105543189
 31
0.0
  0
LINE
  5
1FA
330
2
100
AcDbEntity
  8
UMRISS05
100
AcDbLine
 10
726.4782487200781
 20
169.8627105543189
 30
0.0
 11
726.4782487200781
 21
156.6627105543189
 31
0.0
  0
LINE
  5
1FB
330
2
100
AcDbEntity
  8
UMRISS05
100
AcDbLine
 10
727.5389088918581
 20
169.8627105543189
 30
0.0
 11
727.5389088918581
 21
156.6627105543189
 31
0.0
  0
LINE
  5
1FC
330
2
100
AcDbEntity
  8
UMRISS05
100
AcDbLine
 10
744.0995690636376
 20
169.8627105543186
 30
0.0
 11
744.0995690636376
 21
156.6627105543189
 31
0.0
  0
DIMENSION
  5
1FD
330
2
100
AcDbEntity
  8
BEMASSUNG
  6
Continuous
100
AcDbDimension
  2
*D11
 10
807.7079975877419
 20
221.3428854613652
 30
0.0
 11
803.1575557995294
 21
226.0684050130778
 31
0.0
 70
   128
  1
<>
 71
     5
 42
9.0
  3
PROSPEKT
100
AcDbAlignedDimension
 13
824.7313994419423
 23
230.3428854613652
 33
0.0
 14
831.4813994419422
 24
221.3428854613652
 34
0.0
 50
90.0
100
AcDbRotatedDimension
  0
LINE
  5
20C
330
2
100
AcDbEntity
  8
ACHSEN
100
AcDbLine
 10
831.4813994419422
 20
237.0928854613652
 30
0.0
 11
831.4813994419422
 21
223.5928854613652
 31
0.0
  0
LINE
  5
20D
330
2
100
AcDbEntity
  8
ACHSEN
100
AcDbLine
 10
657.0995690636425
 20
308.3428761062568
 30
0.0
 11
633.0995690636426
 21
308.3428761062568
 31
0.0
  0
LINE
  5
20E
330
2
100
AcDbEntity
  8
UMRISS05
100
AcDbLine
 10
635.0995690636426
 20
323.3428761062568
 30
0.0
 11
655.0995690636426
 21
323.3428761062568
 31
0.0
  0
DIMENSION
  5
20F
330
2
100
AcDbEntity
  8
BEMASSUNG
  6
Continuous
100
AcDbDimension
  2
*D10
 10
655.0995690636425
 20
335.1145373043221
 30
0.0
 11
645.0995690636425
 21
339.5145373043221
 31
0.0
 71
     5
 42
19.99999999999988
  3
PROSPEKT
100
AcDbAlignedDimension
 13
635.0995690636426
 23
323.3428761062568
 33
0.0
 14
655.0995690636425
 24
335.7851976302594
 34
0.0
100
AcDbRotatedDimension
  0
LINE
  5
21C
330
2
100
AcDbEntity
  8
ACHSEN
100
AcDbLine
 10
664.5995690636421
 20
267.9428854613653
 30
0.0
 11
650.0995690636377
 21
267.9428854613653
 31
0.0
  0
LWPOLYLINE
  5
21D
330
2
100
AcDbEntity
  8
UMRISS03
100
AcDbPolyline
 90
       24
 70
     1
 43
0.0
 10
671.7995690636422
 20
284.3428854613646
 10
671.3995690636424
 20
284.3428854613652
 42
0.4142135623733172
 10
671.0995690636423
 20
284.0428854613652
 10
671.0995690636423
 20
282.942885461365
 42
-0.4142135623732059
 10
670.9995690636422
 20
282.8428854613651
 10
669.8995690636422
 20
282.8428854613653
 42
0.4142135623731427
 10
669.5995690636423
 20
282.5428854613654
 10
669.5995690636423
 20
282.1428854613655
 42
0.4142135623731427
 10
669.8995690636422
 20
281.8428854613655
 10
670.9995690636422
 20
281.842885461366
 42
-0.4142135623731298
 10
671.0995690636423
 20
281.7428854613662
 10
671.0995690636423
 20
280.6428854613648
 42
0.4142135623730774
 10
671.3995690636424
 20
280.3428854613649
 10
671.7995690636423
 20
280.3428854613651
 42
0.4142135623731189
 10
672.0995690636422
 20
280.642885461365
 10
672.0995690636422
 20
281.7428854613654
 42
-0.414213562373123
 10
672.1995690636421
 20
281.8428854613653
 10
673.2995690636422
 20
281.8428854613655
 42
0.4142135623730951
 10
673.599569063642
 20
282.1428854613655
 10
673.599569063642
 20
282.5428854613648
 42
0.4142135623730475
 10
673.2995690636422
 20
282.8428854613648
 10
672.1995690636421
 20
282.8428854613653
 42
-0.4142135623729705
 10
672.0995690636422
 20
282.9428854613652
 10
672.0995690636422
 20
284.0428854613647
 42
0.4142135623730831
  0
CIRCLE
  5
21E
330
2
100
AcDbEntity
  8
UMRISS03
100
AcDbCircle
 10
671.5995690636423
 20
282.3428854613653
 30
0.0
 40
3.5
  0
LINE
  5
21F
330
2
100
AcDbEntity
  8
UMRISS05
100
AcDbLine
 10
635.0995690636426
 20
293.3428761062566
 30
0.0
 11
655.0995690636426
 21
293.3428761062566
 31
0.0
  0
DIMENSION
  5
220
330
2
100
AcDbEntity
  8
BEMASSUNG
  6
Continuous
100
AcDbDimension
  2
*D9
 10
628.3482023992625
 20
293.3428761062566
 30
0.0
 11
623.9482023992624
 21
275.0928807838111
 31
0.0
 71
     5
 42
36.4999906448914
  3
PROSPEKT
100
AcDbAlignedDimension
 13
658.0995690636378
 23
256.8428854613652
 33
0.0
 14
635.0995690636426
 24
293.3428761062566
 34
0.0
 50
90.0
100
AcDbRotatedDimension
  0
LINE
  5
22D
330
2
100
AcDbEntity
  8
UMRISS05
100
AcDbLine
 10
635.0995690636426
 20
293.3428761062566
 30
0.0
 11
635.0995690636426
 21
323.3428761062568
 31
0.0
  0
DIMENSION
  5
22E
330
2
100
AcDbEntity
  8
BEMASSUNG
  6
Continuous
100
AcDbDimension
  2
*D8
 10
628.4045765517593
 20
323.3428761062568
 30
0.0
 11
623.2280620766543
 21
308.3508455855437
 31
0.0
 70
   128
 71
     5
 42
30.00000000000011
  3
PROSPEKT
100
AcDbAlignedDimension
 13
635.0995690636426
 23
293.3428761062566
 33
0.0
 14
635.0995690636426
 24
323.3428761062568
 34
0.0
 50
90.0
100
AcDbRotatedDimension
  0
LINE
  5
23B
330
2
100
AcDbEntity
  8
UMRISS05
100
AcDbLine
 10
655.0995690636417
 20
221.3428854613652
 30
0.0
 11
658.0995690636417
 21
221.3428854613652
 31
0.0
  0
LINE
  5
23C
330
2
100
AcDbEntity
  8
ACHSEN
100
AcDbLine
 10
664.5995690636421
 20
230.3428854613653
 30
0.0
 11
650.0995690636377
 21
230.3428854613653
 31
0.0
  0
LINE
  5
23D
330
2
100
AcDbEntity
  8
UMRISS05
100
AcDbLine
 10
655.0995690636417
 20
170.8627105543191
 30
0.0
 11
658.0995690636378
 21
170.8627105543191
 31
0.0
  0
LINE
  5
23E
330
2
100
AcDbEntity
  8
UMRISS05
100
AcDbLine
 10
635.0995690636429
 20
167.1627105543195
 30
0.0
 11
635.0995690636429
 21
159.9627105543196
 31
0.0
  0
LINE
  5
23F
330
2
100
AcDbEntity
  8
UMRISS05
100
AcDbLine
 10
635.0995690636429
 20
159.9627105543196
 30
0.0
 11
649.6003808845729
 21
159.9627105543197
 31
0.0
  0
LINE
  5
240
330
2
100
AcDbEntity
  8
UMRISS05
100
AcDbLine
 10
635.0995690636429
 20
167.1627105543195
 30
0.0
 11
647.6167974820722
 21
167.1627105543195
 31
0.0
  0
LINE
  5
241
330
2
100
AcDbEntity
  8
UMRISS05
100
AcDbLine
 10
655.0995690636417
 20
150.8627105543191
 30
0.0
 11
658.0995690636378
 21
150.8627105543191
 31
0.0
  0
LINE
  5
242
330
2
100
AcDbEntity
  8
UMRISS05
100
AcDbLine
 10
658.0995690636378
 20
156.6627105543191
 30
0.0
 11
658.0995690636378
 21
157.012710554319
 31
0.0
  0
LINE
  5
243
330
2
100
AcDbEntity
  8
UMRISS05
100
AcDbLine
 10
655.0995690636417
 20
170.8627105543191
 30
0.0
 11
655.0995690636417
 21
150.8627105543191
 31
0.0
  0
LINE
  5
244
330
2
100
AcDbEntity
  8
UMRISS05
100
AcDbLine
 10
658.0995690636378
 20
170.8627105543191
 30
0.0
 11
658.0995690636378
 21
150.8627105543191
 31
0.0
  0
DIMENSION
  5
245
330
2
100
AcDbEntity
  8
BEMASSUNG
  6
Continuous
100
AcDbDimension
  2
*D7
 10
628.3065076527447
 20
221.3428854613652
 30
0.0
 11
623.9065076527447
 21
239.0928854613653
 31
0.0
 71
     5
 42
35.50000000000004
  3
PROSPEKT
100
AcDbAlignedDimension
 13
658.0995690636378
 23
256.8428854613652
 33
0.0
 14
655.0995690636417
 24
221.3428854613652
 34
0.0
 50
90.0
100
AcDbRotatedDimension
  0
LINE
  5
252
330
2
100
AcDbEntity
  8
UMRISS05
100
AcDbLine
 10
658.0995690636378
 20
169.8627105543191
 30
0.0
 11
743.0995690636425
 21
169.862710554319
 31
0.0
  0
LINE
  5
253
330
2
100
AcDbEntity
  8
UMRISS05
100
AcDbLine
 10
658.0995690636378
 20
156.6627105543191
 30
0.0
 11
744.0995690636376
 21
156.6627105543189
 31
0.0
  0
DIMENSION
  5
254
330
2
100
AcDbEntity
  8
BEMASSUNG
  6
Continuous
100
AcDbDimension
  2
*D6
 10
679.6436517364382
 20
169.8627105543191
 30
0.0
 11
674.6454492739236
 21
178.9599911358943
 31
0.0
 70
   128
 71
     5
 42
-1.0
  3
PROSPEKT
100
AcDbAlignedDimension
 13
658.0995690636378
 23
170.8627105543191
 33
0.0
 14
676.1068542044633
 24
169.8627105543191
 34
0.0
 50
90.0
100
AcDbRotatedDimension
  0
LINE
  5
263
330
2
100
AcDbEntity
  8
UMRISS05
100
AcDbLine
 10
658.0995690636378
 20
256.8428854613652
 30
0.0
 11
726.2995690636419
 21
256.8428854613652
 31
0.0
  0
LINE
  5
264
330
2
100
AcDbEntity
  8
ACHSEN
100
AcDbLine
 10
715.099569063642
 20
417.03465293216
 30
0.0
 11
715.099569063642
 21
260.0428854613654
 31
0.0
  0
DIMENSION
  5
265
330
2
100
AcDbEntity
  8
BEMASSUNG
  6
Continuous
100
AcDbDimension
  2
*D5
 10
687.1728105372969
 20
308.3428761062568
 30
0.0
 11
682.7728105372969
 21
336.3428807838115
 31
0.0
 71
     5
 42
56.00000935510923
  3
PROSPEKT
100
AcDbAlignedDimension
 13
691.4995690636422
 23
364.342885461366
 33
0.0
 14
655.0995690636425
 24
308.3428761062568
 34
0.0
 50
90.0
100
AcDbRotatedDimension
  0
LINE
  5
272
330
2
100
AcDbEntity
  8
UMRISS05
100
AcDbLine
 10
841.4813994419422
 20
441.3428854613647
 30
0.0
 11
841.4813994419422
 21
231.3428854613652
 31
0.0
  0
LINE
  5
273
330
2
100
AcDbEntity
  8
UMRISS05
100
AcDbLine
 10
821.4813994419422
 20
441.3428854613647
 30
0.0
 11
821.4813994419422
 21
231.3428854613652
 31
0.0
  0
LINE
  5
274
330
2
100
AcDbEntity
  8
UMRISS05
100
AcDbLine
 10
655.0995690636417
 20
221.3428854613652
 30
0.0
 11
655.0995690636423
 21
451.3428854613648
 31
0.0
  0
LINE
  5
275
330
2
100
AcDbEntity
  8
UMRISS05
100
AcDbLine
 10
658.0995690636417
 20
221.3428854613652
 30
0.0
 11
658.0995690636423
 21
451.3428854613648
 31
0.0
  0
LINE
  5
276
330
2
100
AcDbEntity
  8
UMRISS05
100
AcDbLine
 10
744.0980242879245
 20
396.7231098935231
 30
0.0
 11
744.0980242879237
 21
275.9626610292075
 31
0.0
  0
DIMENSION
  5
277
330
2
100
AcDbEntity
  8
BEMASSUNG
  6
Continuous
100
AcDbDimension
  2
*D4
 10
770.3701718572435
 20
286.3428854613655
 30
0.0
 11
765.9701718572435
 21
325.3428854613658
 31
0.0
 71
     5
 42
78.00000000000022
  3
PROSPEKT
100
AcDbAlignedDimension
 13
738.6995690636421
 23
364.3428854613658
 33
0.0
 14
728.1995690636421
 24
286.3428854613655
 34
0.0
 50
90.0
100
AcDbRotatedDimension
  0
DIMENSION
  5
284
330
2
100
AcDbEntity
  8
BEMASSUNG
  6
Continuous
100
AcDbDimension
  2
*D3
 10
759.130222834363
 20
342.8428854613693
 30
0.0
 11
754.7302228343631
 21
353.5928854613677
 31
0.0
 71
     5
 42
21.49999999999636
  3
PROSPEKT
100
AcDbAlignedDimension
 13
738.6995690636421
 23
364.3428854613658
 33
0.0
 14
722.0995690636422
 24
342.8428854613693
 34
0.0
 50
90.0
100
AcDbRotatedDimension
  0
DIMENSION
  5
291
330
2
100
AcDbEntity
  8
BEMASSUNG
  6
Continuous
100
AcDbDimension
  2
*D2
 10
628.3482023992625
 20
371.3428761062572
 30
0.0
 11
623.9482023992624
 21
347.342876106257
 31
0.0
 71
     5
 42
48.00000000000039
  3
PROSPEKT
100
AcDbAlignedDimension
 13
635.0995690636426
 23
323.3428761062568
 33
0.0
 14
645.0995864954146
 24
371.3428761062571
 34
0.0
 50
90.0
100
AcDbRotatedDimension
  0
DIMENSION
  5
29E
330
2
100
AcDbEntity
  8
BEMASSUNG
  6
Continuous
100
AcDbDimension
  2
*D1
 10
616.6327497024386
 20
221.3428854613652
 30
0.0
 11
611.4538329242177
 21
339.0247078100176
 31
0.0
 70
   128
 71
     5
 42
229.9999999999997
  3
PROSPEKT
100
AcDbAlignedDimension
 13
655.0995690636423
 23
451.3428854613648
 33
0.0
 14
655.0995690636417
 24
221.3428854613652
 34
0.0
 50
90.0
100
AcDbRotatedDimension
  0
DIMENSION
  5
2AB
330
2
100
AcDbEntity
  8
BEMASSUNG
  6
Continuous
100
AcDbDimension
  2
*D0
 10
781.9931222171605
 20
256.842885461366
 30
0.0
 11
777.2202410868222
 21
335.479289072721
 31
0.0
 70
   128
 71
     5
 42
159.0
  3
PROSPEKT
100
AcDbAlignedDimension
 13
726.2995690636419
 23
415.8428854613658
 33
0.0
 14
726.2995690636419
 24
256.842885461366
 34
0.0
 50
90.0
100
AcDbRotatedDimension
  0
POLYLINE
  5
2B8
330
2
100
AcDbEntity
  8
UMRISS05
100
AcDb2dPolyline
 66
     1
 10
0.0
 20
0.0
 30
0.0
 70
     2
  0
VERTEX
  5
2B9
330
2B8
100
AcDbEntity
  8
UMRISS05
100
AcDbVertex
100
AcDb2dVertex
 10
835.8813994419426
 20
390.2999204831729
 30
0.0
 42
0.0365787622078215
  0
VERTEX
  5
2BA
330
2B8
100
AcDbEntity
  8
UMRISS05
100
AcDbVertex
100
AcDb2dVertex
 10
835.524897683025
 20
390.7110039626664
 30
0.0
 42
0.0473117037281067
 70
     1
  0
VERTEX
  5
2BB
330
2B8
100
AcDbEntity
  8
UMRISS05
100
AcDbVertex
100
AcDb2dVertex
 10
835.3646856215004
 20
390.8428854613653
 30
0.0
 42
0.1029631275182582
  0
VERTEX
  5
2BC
330
2B8
100
AcDbEntity
  8
UMRISS05
100
AcDbVertex
100
AcDb2dVertex
 10
834.2717791489366
 20
391.2907931966565
 30
0.0
 42
0.0757205675320996
 70
     1
  0
VERTEX
  5
2BD
330
2B8
100
AcDbEntity
  8
UMRISS05
100
AcDbVertex
100
AcDb2dVertex
 10
832.6742914901657
 20
391.3428854613653
 30
0.0
 42
0.0428570655197069
  0
VERTEX
  5
2BE
330
2B8
100
AcDbEntity
  8
UMRISS05
100
AcDbVertex
100
AcDb2dVertex
 10
831.6164123347933
 20
391.1237942566355
 30
0.0
 42
0.0683604080104885
 70
     1
  0
VERTEX
  5
2BF
330
2B8
100
AcDbEntity
  8
UMRISS05
100
AcDbVertex
100
AcDb2dVertex
 10
830.998018632475
 20
390.8428854613653
 30
0.0
 42
0.0643104881780736
  0
VERTEX
  5
2C0
330
2B8
100
AcDbEntity
  8
UMRISS05
100
AcDbVertex
100
AcDb2dVertex
 10
830.1820901719413
 20
390.1676304139347
 30
0.0
 42
0.0674146888273822
 70
     1
  0
VERTEX
  5
2C1
330
2B8
100
AcDbEntity
  8
UMRISS05
100
AcDbVertex
100
AcDb2dVertex
 10
829.5977845476505
 20
389.3428854613653
 30
0.0
 42
0.0264722949251469
  0
VERTEX
  5
2C2
330
2B8
100
AcDbEntity
  8
UMRISS05
100
AcDbVertex
100
AcDb2dVertex
 10
829.1913923758691
 20
388.4540221183783
 30
0.0
 42
0.0405470582853307
 70
     1
  0
VERTEX
  5
2C3
330
2B8
100
AcDbEntity
  8
UMRISS05
100
AcDbVertex
100
AcDb2dVertex
 10
829.0057907702948
 20
387.8428854613653
 30
0.0
 42
0.0240678796217032
  0
VERTEX
  5
2C4
330
2B8
100
AcDbEntity
  8
UMRISS05
100
AcDbVertex
100
AcDb2dVertex
 10
828.8686607249593
 20
387.022745775162
 30
0.0
 42
0.0293945300774401
 70
     1
  0
VERTEX
  5
2C5
330
2B8
100
AcDbEntity
  8
UMRISS05
100
AcDbVertex
100
AcDb2dVertex
 10
828.8286578120217
 20
386.3428854613653
 30
0.0
 42
0.0293945300774338
  0
VERTEX
  5
2C6
330
2B8
100
AcDbEntity
  8
UMRISS05
100
AcDbVertex
100
AcDb2dVertex
 10
828.8686607249593
 20
385.663025147568
 30
0.0
 42
0.0240678796216824
 70
     1
  0
VERTEX
  5
2C7
330
2B8
100
AcDbEntity
  8
UMRISS05
100
AcDbVertex
100
AcDb2dVertex
 10
829.0057907702948
 20
384.8428854613652
 30
0.0
 42
0.0405470582853021
  0
VERTEX
  5
2C8
330
2B8
100
AcDbEntity
  8
UMRISS05
100
AcDbVertex
100
AcDb2dVertex
 10
829.191392375869
 20
384.2317488043528
 30
0.0
 42
0.0264722949250992
 70
     1
  0
VERTEX
  5
2C9
330
2B8
100
AcDbEntity
  8
UMRISS05
100
AcDbVertex
100
AcDb2dVertex
 10
829.5977845476505
 20
383.3428854613658
 30
0.0
 42
0.0674146888273712
  0
VERTEX
  5
2CA
330
2B8
100
AcDbEntity
  8
UMRISS05
100
AcDbVertex
100
AcDb2dVertex
 10
830.1820901719413
 20
382.518140508796
 30
0.0
 42
0.0643104881781116
 70
     1
  0
VERTEX
  5
2CB
330
2B8
100
AcDbEntity
  8
UMRISS05
100
AcDbVertex
100
AcDb2dVertex
 10
830.998018632475
 20
381.8428854613653
 30
0.0
 42
0.0683604080105642
  0
VERTEX
  5
2CC
330
2B8
100
AcDbEntity
  8
UMRISS05
100
AcDbVertex
100
AcDb2dVertex
 10
831.6164123347933
 20
381.5619766660952
 30
0.0
 42
0.0428570655197364
 70
     1
  0
VERTEX
  5
2CD
330
2B8
100
AcDbEntity
  8
UMRISS05
100
AcDbVertex
100
AcDb2dVertex
 10
832.6742914901657
 20
381.3428854613653
 30
0.0
 42
0.0757205675321008
  0
VERTEX
  5
2CE
330
2B8
100
AcDbEntity
  8
UMRISS05
100
AcDbVertex
100
AcDb2dVertex
 10
834.2717791489366
 20
381.3949777260742
 30
0.0
 42
0.1029631275182348
 70
     1
  0
VERTEX
  5
2CF
330
2B8
100
AcDbEntity
  8
UMRISS05
100
AcDbVertex
100
AcDb2dVertex
 10
835.3646856215004
 20
381.8428854613653
 30
0.0
 42
0.0473117037282088
  0
VERTEX
  5
2D0
330
2B8
100
AcDbEntity
  8
UMRISS05
100
AcDbVertex
100
AcDb2dVertex
 10
835.5248976830242
 20
381.9747669600637
 30
0.0
 42
0.0365787622080869
 70
     1
  0
VERTEX
  5
2D1
330
2B8
100
AcDbEntity
  8
UMRISS05
100
AcDbVertex
100
AcDb2dVertex
 10
835.8813994419426
 20
382.3858504395573
 30
0.0
  0
SEQEND
  5
2D2
330
2B8
100
AcDbEntity
  8
UMRISS05
  0
LINE
  5
2D3
330
2
100
AcDbEntity
  8
UMRISS05
100
AcDbLine
 10
826.8813994419421
 20
374.3428854613633
 30
0.0
 11
826.8813994419421
 21
371.2428854613654
 31
0.0
  0
LINE
  5
2D4
330
2
100
AcDbEntity
  8
UMRISS05
100
AcDbLine
 10
826.8813994419426
 20
401.4428854613656
 30
0.0
 11
826.8813994419426
 21
398.3428854613648
 31
0.0
  0
LINE
  5
2D5
330
2
100
AcDbEntity
  8
UMRISS05
100
AcDbLine
 10
826.8813994419426
 20
398.3428854613655
 30
0.0
 11
835.8813994419426
 21
398.3428854613655
 31
0.0
  0
LINE
  5
2D6
330
2
100
AcDbEntity
  8
UMRISS05
100
AcDbLine
 10
827.9813994419424
 20
401.4428854613656
 30
0.0
 11
827.9813994419424
 21
398.3428854613655
 31
0.0
  0
LINE
  5
2D7
330
2
100
AcDbEntity
  8
UMRISS05
100
AcDbLine
 10
827.9813994419424
 20
374.3428854613656
 30
0.0
 11
827.9813994419424
 21
371.2428854613654
 31
0.0
  0
LINE
  5
2D8
330
2
100
AcDbEntity
  8
UMRISS05
100
AcDbLine
 10
826.8813994419421
 20
374.3428854613656
 30
0.0
 11
835.8813994419426
 21
374.3428854613656
 31
0.0
  0
ARC
  5
2D9
330
2
100
AcDbEntity
  8
UMRISS05
100
AcDbCircle
 10
727.1866085613972
 20
386.3428854613657
 30
0.0
 40
100.414398015004
100
AcDbArc
 50
353.1364774147083
 51
6.863522585290019
  0
DIMENSION
  5
3FE
330
2
100
AcDbEntity
  8
BEMASSUNG
  6
Continuous
100
AcDbDimension
  2
*D35
 10
715.099569063642
 20
243.5931155676185
 30
0.0
 11
685.0995690636418
 21
247.9931155676185
 31
0.0
 70
    32
  1
DM
 71
     5
 42
60.00000000000034
  3
PROSPEKT
100
AcDbAlignedDimension
 13
655.0995690636417
 23
248.6293617498777
 33
0.0
 14
715.099569063642
 24
260.0428854613654
 34
0.0
100
AcDbRotatedDimension
1001
ACAD_DSTYLE_DIMINSPECT
1070
   396
1000
100%
1070
   395
1000

1070
   394
1070
    33
1070
   393
1070
     0
  0
DIMENSION
  5
40B
330
2
100
AcDbEntity
  8
BEMASSUNG
  6
Continuous
100
AcDbDimension
  2
*D36
 10
744.0980242879239
 20
243.5931155676185
 30
0.0
 11
729.5987966757829
 21
247.9931155676185
 31
0.0
 70
    32
 71
     5
 42
28.99845522428189
  3
PROSPEKT
100
AcDbAlignedDimension
 13
715.099569063642
 23
260.0428854613654
 33
0.0
 14
744.0980242879239
 24
297.9845747922818
 34
0.0
100
AcDbRotatedDimension
1001
ACAD_DSTYLE_DIMINSPECT
1070
   396
1000
100%
1070
   395
1000

1070
   394
1070
    33
1070
   393
1070
     0
  0
ENDSEC
  0
SECTION
  2
OBJECTS
  0
DICTIONARY
  5
9
330
0
100
AcDbDictionary
281
     1
  3
ACAD_2007HEADERVARS_RT
350
459
  3
ACAD_CIP_PREVIOUS_PRODUCT_INFO
350
382
  3
ACAD_COLOR
350
2D
  3
ACAD_DETAILVIEWSTYLE
350
37A
  3
ACAD_FIELDLIST
350
3E3
  3
ACAD_GROUP
350
29
  3
ACAD_LAYOUT
350
D
  3
ACAD_MATERIAL
350
2C
  3
ACAD_MLEADERSTYLE
350
376
  3
ACAD_MLINESTYLE
350
2A
  3
ACAD_PLOTSETTINGS
350
2B
  3
ACAD_PLOTSTYLENAME
350
8
  3
ACAD_SCALELIST
350
364
  3
ACAD_SECTIONVIEWSTYLE
350
378
  3
ACAD_TABLESTYLE
350
2E
  3
ACAD_VISUALSTYLE
350
34B
  3
ACDB_RECOMPOSE_DATA
350
457
  3
AcDbVariableDictionary
350
32F
  3
AcmDictionary
350
2EB
  3
AMG
350
2DC
  3
AMGSNAPSETTINGS
350
3F7
  3
DWGPROPS
350
458
  0
DICTIONARY
  5
13
330
12
100
AcDbDictionary
280
     1
281
     1
  3
ACAD_LAYERSTATES
360
14
  0
DICTIONARY
  5
43E
330
6
100
AcDbDictionary
280
     1
281
     1
  3
ADSK_XREC_LAYER_RECONCILED
360
43F
  0
DICTIONARY
  5
440
330
58
100
AcDbDictionary
280
     1
281
     1
  3
ADSK_XREC_LAYER_RECONCILED
360
441
  0
DICTIONARY
  5
442
330
44
100
AcDbDictionary
280
     1
281
     1
  3
ADSK_XREC_LAYER_RECONCILED
360
443
  0
DICTIONARY
  5
444
330
2F
100
AcDbDictionary
280
     1
281
     1
  3
ADSK_XREC_LAYER_RECONCILED
360
445
  0
DICTIONARY
  5
446
330
33
100
AcDbDictionary
280
     1
281
     1
  3
ADSK_XREC_LAYER_RECONCILED
360
447
  0
DICTIONARY
  5
448
330
6B
100
AcDbDictionary
280
     1
281
     1
  3
ADSK_XREC_LAYER_RECONCILED
360
449
  0
DICTIONARY
  5
44A
330
9D
100
AcDbDictionary
280
     1
281
     1
  3
ADSK_XREC_LAYER_RECONCILED
360
44B
  0
DICTIONARY
  5
3
330
2
100
AcDbDictionary
280
     1
281
     1
  3
ACAD_SORTENTS
360
2DA
  0
DICTIONARY
  5
459
102
{ACAD_REACTORS
330
9
102
}
330
9
100
AcDbDictionary
281
     1
  3
DIMJOGANG
350
45A
  3
DIMLTEX1
350
45C
  3
DIMLTEX2
350
45D
  3
DIMLTYPE
350
45B
  0
XRECORD
  5
382
102
{ACAD_REACTORS
330
9
102
}
330
9
100
AcDbXrecord
280
     1
300
AMECH_PP
300
2014
300
PDSU_F_S
  0
DICTIONARY
  5
2D
102
{ACAD_REACTORS
330
9
102
}
330
9
100
AcDbDictionary
281
     1
  0
DICTIONARY
  5
37A
102
{ACAD_REACTORS
330
9
102
}
330
9
100
AcDbDictionary
281
     1
  3
Metric50
350
37B
  0
FIELDLIST
  5
3E3
102
{ACAD_REACTORS
330
9
102
}
330
9
100
AcDbIdSet
 90
        6
330
3E1
330
3E2
330
3E4
330
3EC
330
3ED
330
3EE
100
AcDbFieldList
  0
DICTIONARY
  5
29
102
{ACAD_REACTORS
330
9
102
}
330
9
100
AcDbDictionary
281
     1
  0
DICTIONARY
  5
D
102
{ACAD_REACTORS
330
9
102
}
330
9
100
AcDbDictionary
281
     1
  3
Layout1
350
11
  3
Model
350
C
  0
DICTIONARY
  5
2C
102
{ACAD_REACTORS
330
9
102
}
330
9
100
AcDbDictionary
281
     1
  3
ByBlock
350
33B
  3
ByLayer
350
333
  3
Global
350
343
  0
DICTIONARY
  5
376
102
{ACAD_REACTORS
330
9
102
}
330
9
100
AcDbDictionary
281
     1
  3
Standard
350
377
  0
DICTIONARY
  5
2A
102
{ACAD_REACTORS
330
9
102
}
330
9
100
AcDbDictionary
281
     1
  3
STANDARD
350
30
  0
DICTIONARY
  5
2B
102
{ACAD_REACTORS
330
9
102
}
330
9
100
AcDbDictionary
281
     1
  0
ACDBDICTIONARYWDFLT
  5
8
102
{ACAD_REACTORS
330
9
102
}
330
9
100
AcDbDictionary
281
     1
  3
Normal
350
7
100
AcDbDictionaryWithDefault
340
7
  0
DICTIONARY
  5
364
102
{ACAD_REACTORS
330
9
102
}
330
9
100
AcDbDictionary
281
     1
  3
A0
350
365
  3
A1
350
366
  3
A2
350
367
  3
A3
350
368
  3
A4
350
369
  3
A5
350
36A
  3
A6
350
36B
  3
A7
350
36C
  3
A8
350
36D
  3
A9
350
36E
  3
B0
350
36F
  3
B1
350
370
  3
B2
350
371
  3
B3
350
372
  3
B4
350
373
  3
B5
350
374
  3
B6
350
375
  0
DICTIONARY
  5
378
102
{ACAD_REACTORS
330
9
102
}
330
9
100
AcDbDictionary
281
     1
  3
Metric50
350
379
  0
DICTIONARY
  5
2E
102
{ACAD_REACTORS
330
9
102
}
330
9
100
AcDbDictionary
281
     1
  3
Standard
350
31
  0
DICTIONARY
  5
34B
102
{ACAD_REACTORS
330
9
102
}
330
9
100
AcDbDictionary
281
     1
  3
2dWireframe
350
351
  3
Basic
350
350
  3
Brighten
350
357
  3
ColorChange
350
35B
  3
Conceptual
350
354
  3
Dim
350
356
  3
EdgeColorOff
350
363
  3
Facepattern
350
35A
  3
Flat
350
34C
  3
FlatWithEdges
350
34D
  3
Gouraud
350
34E
  3
GouraudWithEdges
350
34F
  3
Hidden
350
353
  3
JitterOff
350
361
  3
Linepattern
350
359
  3
OverhangOff
350
362
  3
Realistic
350
355
  3
Shaded
350
360
  3
Shaded with edges
350
35F
  3
Shades of Gray
350
35C
  3
Sketchy
350
35D
  3
Thicken
350
358
  3
Wireframe
350
352
  3
X-Ray
350
35E
  0
XRECORD
  5
457
102
{ACAD_REACTORS
330
9
102
}
330
9
100
AcDbXrecord
280
     1
 90
        1
330
31
  0
DICTIONARY
  5
32F
102
{ACAD_REACTORS
330
9
102
}
330
9
100
AcDbDictionary
281
     1
  3
CANNOSCALE
350
44F
  3
CMLEADERSTYLE
350
44C
  3
CTABLESTYLE
350
330
  3
CVIEWDETAILSTYLE
350
44D
  3
CVIEWSECTIONSTYLE
350
44E
  3
DIMASSOC
350
454
  3
HIDETEXT
350
452
  3
INDEXCTL
350
451
  3
SORTENTS
350
450
  3
XCLIPFRAME
350
453
  0
DICTIONARY
  5
2EB
102
{ACAD_REACTORS
330
9
102
}
330
9
100
AcDbDictionary
281
     1
  3
AcmStdDictionary
350
2EC
  0
DICTIONARY
  5
2DC
102
{ACAD_REACTORS
330
9
102
}
330
9
100
AcDbDictionary
281
     1
  0
DICTIONARY
  5
3F7
102
{ACAD_REACTORS
330
9
102
}
330
9
100
AcDbDictionary
281
     1
  0
XRECORD
  5
458
102
{ACAD_REACTORS
330
9
102
}
330
9
100
AcDbXrecord
280
     1
  1
DWGPROPS COOKIE
  2

  3

  4

  6

  7

  8
adrren
  9

300
=
301
=
302
=
303
=
304
=
305
=
306
=
307
=
308
=
309
=
 40
1.294840254629629
 41
2451554.447219456
 42
2458312.302079467
  1

 90
        0
  0
DICTIONARY
  5
14
102
{ACAD_REACTORS
330
13
102
}
330
13
100
AcDbDictionary
281
     1
  0
XRECORD
  5
43F
102
{ACAD_REACTORS
330
43E
102
}
330
43E
100
AcDbXrecord
280
     1
290
     1
  0
XRECORD
  5
441
102
{ACAD_REACTORS
330
440
102
}
330
440
100
AcDbXrecord
280
     1
290
     1
  0
XRECORD
  5
443
102
{ACAD_REACTORS
330
442
102
}
330
442
100
AcDbXrecord
280
     1
290
     1
  0
XRECORD
  5
445
102
{ACAD_REACTORS
330
444
102
}
330
444
100
AcDbXrecord
280
     1
290
     1
  0
XRECORD
  5
447
102
{ACAD_REACTORS
330
446
102
}
330
446
100
AcDbXrecord
280
     1
290
     1
  0
XRECORD
  5
449
102
{ACAD_REACTORS
330
448
102
}
330
448
100
AcDbXrecord
280
     1
290
     1
  0
XRECORD
  5
44B
102
{ACAD_REACTORS
330
44A
102
}
330
44A
100
AcDbXrecord
280
     1
290
     1
  0
SORTENTSTABLE
  5
2DA
102
{ACAD_REACTORS
330
3
102
}
330
3
100
AcDbSortentsTable
330
2
331
18C
  5
142
331
188
  5
16E
331
142
  5
18C
331
254
  5
59
331
184
  5
180
331
16D
  5
189
331
264
  5
56
331
180
  5
184
331
2D9
  5
32
331
12C
  5
196
331
128
  5
19A
331
D1
  5
1AF
331
274
  5
52
331
124
  5
19E
331
E1
  5
1AB
331
120
  5
1A2
331
284
  5
4E
331
1FB
  5
92
331
21E
  5
89
331
9C
  5
1D7
331
23E
  5
73
331
1D5
  5
9F
331
98
  5
1E7
331
1AF
  5
D1
331
1AB
  5
E1
331
94
  5
1F9
331
20F
  5
8C
331
90
  5
1FD
331
1A7
  5
10F
331
1B2
  5
B6
331
8C
  5
20F
331
1A3
  5
11F
331
88
  5
21F
331
1C2
  5
A4
331
6D
  5
244
331
1E5
  5
9A
331
87
  5
220
331
2D6
  5
46
331
19F
  5
123
331
19B
  5
127
331
54
  5
272
331
197
  5
12B
331
50
  5
276
331
4C
  5
29E
331
193
  5
12F
331
135
  5
18D
331
131
  5
191
331
48
  5
2D4
331
243
  5
6E
331
A5
  5
1B5
331
A1
  5
1C5
331
B7
  5
1B1
331
73
  5
23E
331
18F
  5
133
331
18B
  5
151
331
253
  5
5A
331
187
  5
16F
331
C4
  5
1B0
331
183
  5
181
331
151
  5
18B
331
263
  5
57
331
2D8
  5
43
331
12F
  5
193
331
D4
  5
1AC
331
277
  5
4F
331
12B
  5
197
331
127
  5
19B
331
273
  5
53
331
123
  5
19F
331
171
  5
185
331
9F
  5
1D5
331
21D
  5
8A
331
1FA
  5
93
331
9B
  5
1D8
331
10F
  5
1A7
331
23D
  5
74
331
1D4
  5
A0
331
97
  5
1E8
331
1AE
  5
D2
331
1AA
  5
F0
331
1B5
  5
A5
331
93
  5
1FA
331
20E
  5
8D
331
8F
  5
20C
331
1A6
  5
110
331
1B1
  5
B7
331
F0
  5
1AA
331
8B
  5
21C
331
1A2
  5
120
331
11F
  5
1A3
331
1C5
  5
A1
331
86
  5
22D
331
2D5
  5
47
331
57
  5
263
331
19E
  5
124
331
19A
  5
128
331
53
  5
274
331
22E
  5
85
331
4F
  5
277
331
196
  5
12C
331
110
  5
1A6
331
2AB
  5
4B
331
4B
  5
2AB
331
192
  5
130
331
134
  5
18E
331
130
  5
192
331
47
  5
2D5
331
242
  5
6F
331
43
  5
2D8
331
A4
  5
1C2
331
72
  5
23F
331
A0
  5
1D4
331
5B
  5
252
331
B6
  5
1B2
331
18E
  5
134
331
18A
  5
160
331
252
  5
5B
331
186
  5
170
331
16F
  5
187
331
12E
  5
194
331
D3
  5
1AD
331
276
  5
50
331
12A
  5
198
331
126
  5
19C
331
272
  5
54
331
160
  5
18A
331
122
  5
1A0
331
1FD
  5
90
331
170
  5
186
331
9E
  5
1D6
331
21C
  5
8B
331
1F9
  5
94
331
1D7
  5
9C
331
9A
  5
1E5
331
10E
  5
1A8
331
23C
  5
75
331
96
  5
1F7
331
1AD
  5
D3
331
1A9
  5
FF
331
20D
  5
8E
331
1B4
  5
B4
331
92
  5
1FB
331
8E
  5
20D
331
1A5
  5
11D
331
1B0
  5
C4
331
FF
  5
1A9
331
8A
  5
21D
331
1A1
  5
121
331
11E
  5
1A4
331
29E
  5
4C
331
1C4
  5
A2
331
6F
  5
242
331
1E7
  5
98
331
32
  5
2D9
331
85
  5
22E
331
2D4
  5
48
331
56
  5
264
331
19D
  5
125
331
199
  5
129
331
52
  5
273
331
22D
  5
86
331
4E
  5
284
331
195
  5
12D
331
133
  5
18F
331
4A
  5
2B8
331
245
  5
6A
331
191
  5
131
331
1F7
  5
96
331
46
  5
2D6
331
241
  5
70
331
A3
  5
1C3
331
75
  5
23C
331
71
  5
240
331
5A
  5
253
331
B5
  5
1B3
331
18D
  5
135
331
189
  5
16D
331
185
  5
171
331
265
  5
55
331
181
  5
183
331
16E
  5
188
331
1D8
  5
9B
331
12D
  5
195
331
129
  5
199
331
D2
  5
1AE
331
275
  5
51
331
125
  5
19D
331
1E8
  5
97
331
121
  5
1A1
331
1FC
  5
91
331
21F
  5
88
331
2B8
  5
4A
331
1F8
  5
95
331
23F
  5
72
331
1D6
  5
9E
331
99
  5
1E6
331
23B
  5
84
331
1AC
  5
D4
331
95
  5
1F8
331
1A8
  5
10E
331
20C
  5
8F
331
1B3
  5
B5
331
91
  5
1FC
331
291
  5
4D
331
8D
  5
20E
331
1A4
  5
11E
331
89
  5
21E
331
1A0
  5
122
331
11D
  5
1A5
331
1C3
  5
A3
331
220
  5
87
331
6E
  5
243
331
6A
  5
245
331
1E6
  5
99
331
84
  5
23B
331
2D7
  5
45
331
2D3
  5
49
331
55
  5
265
331
19C
  5
126
331
198
  5
12A
331
51
  5
275
331
4D
  5
291
331
194
  5
12E
331
132
  5
190
331
49
  5
2D3
331
244
  5
6D
331
190
  5
132
331
45
  5
2D7
331
240
  5
71
331
A2
  5
1C4
331
74
  5
23D
331
70
  5
241
331
59
  5
254
331
B4
  5
1B4
  0
XRECORD
  5
45A
102
{ACAD_REACTORS
330
459
102
}
330
459
100
AcDbXrecord
280
     1
 40
1.570796326794896
  0
XRECORD
  5
45C
102
{ACAD_REACTORS
330
459
102
}
330
459
100
AcDbXrecord
280
     1
340
19
  0
XRECORD
  5
45D
102
{ACAD_REACTORS
330
459
102
}
330
459
100
AcDbXrecord
280
     1
340
19
  0
XRECORD
  5
45B
102
{ACAD_REACTORS
330
459
102
}
330
459
100
AcDbXrecord
280
     1
340
19
  0
ACDBDETAILVIEWSTYLE
  5
37B
102
{ACAD_XDICTIONARY
360
499
102
}
102
{ACAD_REACTORS
330
37A
330
3DD
102
}
330
37A
100
AcDbModelDocViewStyle
 70
     0
  3
Metric50
290
     0
100
AcDbDetailViewStyle
 70
     0
 71
     0
 90
        3
 71
     1
340
16
 40
5.0
340
0
 40
5.0
300

 40
0.0
280
     1
 71
     2
340
A
 90
       25
 71
     3
340
16
 40
5.0
 90
        0
 40
15.0
 90
        1
300
%<\AcVar ViewDetailId>% (%<\AcVar ViewScale \f "%sn">%)
 71
     4
340
A
 90
       25
340
A
 90
       25
280
     0
  0
LAYOUT
  5
11
102
{ACAD_XDICTIONARY
360
460
102
}
102
{ACAD_REACTORS
330
D
102
}
330
D
100
AcDbPlotSettings
  1

  2
G:\VORLAGEN\AutoCAD2002\Plotten\A3hoch-MSL.pc3
  4

  6

 40
0.0
 41
0.0
 42
0.0
 43
0.0
 44
0.0
 45
0.0
 46
0.0
 47
0.0
 48
0.0
 49
0.0
140
0.0
141
0.0
142
1.0
143
1.0
 70
   688
 72
     0
 73
     0
 74
     5
  7
monochrome.ctb
 75
    16
147
1.0
148
0.0
149
0.0
100
AcDbLayout
  1
Layout1
 70
     1
 71
     1
 10
0.0
 20
0.0
 11
12.0
 21
9.0
 12
0.0
 22
0.0
 32
0.0
 14
1.000000000000000E+20
 24
1.000000000000000E+20
 34
1.000000000000000E+20
 15
-1.000000000000000E+20
 25
-1.000000000000000E+20
 35
-1.000000000000000E+20
146
0.0
 13
0.0
 23
0.0
 33
0.0
 16
1.0
 26
0.0
 36
0.0
 17
0.0
 27
1.0
 37
0.0
 76
     0
330
E
  0
LAYOUT
  5
C
102
{ACAD_XDICTIONARY
360
45E
102
}
102
{ACAD_REACTORS
330
D
102
}
330
D
100
AcDbPlotSettings
  1

  2
G:\VORLAGEN\AutoCAD2002\Plotten\A3hoch-MSL.pc3
  4

  6

 40
0.0
 41
0.0
 42
0.0
 43
0.0
 44
0.0
 45
0.0
 46
0.0
 47
0.0
 48
0.0
 49
0.0
140
0.0
141
0.0
142
1.0
143
1.0
 70
  1712
 72
     0
 73
     0
 74
     0
  7
monochrome.ctb
 75
     0
147
1.0
148
0.0
149
0.0
100
AcDbLayout
  1
Model
 70
     1
 71
     0
 10
0.0
 20
0.0
 11
12.0
 21
9.0
 12
0.0
 22
0.0
 32
0.0
 14
0.0
 24
0.0
 34
0.0
 15
0.0
 25
0.0
 35
0.0
146
0.0
 13
0.0
 23
0.0
 33
0.0
 16
1.0
 26
0.0
 36
0.0
 17
0.0
 27
1.0
 37
0.0
 76
     0
330
2
331
1E
  0
MATERIAL
  5
33B
102
{ACAD_XDICTIONARY
360
33C
102
}
102
{ACAD_REACTORS
330
2C
102
}
330
2C
100
AcDbMaterial
  1
ByBlock
 72
     0
 43
0.0208333333333333
 43
0.0
 43
0.0
 43
0.0
 43
0.0
 43
0.0208333333333333
 43
0.0
 43
0.0
 43
0.0
 43
0.0
 43
1.0
 43
0.0
 43
0.0
 43
0.0
 43
0.0
 43
1.0
 77
     0
 47
0.0208333333333333
 47
0.0
 47
0.0
 47
0.0
 47
0.0
 47
0.0208333333333333
 47
0.0
 47
0.0
 47
0.0
 47
0.0
 47
1.0
 47
0.0
 47
0.0
 47
0.0
 47
0.0
 47
1.0
171
     0
 49
0.0208333333333333
 49
0.0
 49
0.0
 49
0.0
 49
0.0
 49
0.0208333333333333
 49
0.0
 49
0.0
 49
0.0
 49
0.0
 49
1.0
 49
0.0
 49
0.0
 49
0.0
 49
0.0
 49
1.0
175
     0
142
0.0208333333333333
142
0.0
142
0.0
142
0.0
142
0.0
142
0.0208333333333333
142
0.0
142
0.0
142
0.0
142
0.0
142
1.0
142
0.0
142
0.0
142
0.0
142
0.0
142
1.0
179
     0
144
0.0208333333333333
144
0.0
144
0.0
144
0.0
144
0.0
144
0.0208333333333333
144
0.0
144
0.0
144
0.0
144
0.0
144
1.0
144
0.0
144
0.0
144
0.0
144
0.0
144
1.0
147
0.0208333333333333
147
0.0
147
0.0
147
0.0
147
0.0
147
0.0208333333333333
147
0.0
147
0.0
147
0.0
147
0.0
147
1.0
147
0.0
147
0.0
147
0.0
147
0.0
147
1.0
  0
MATERIAL
  5
333
102
{ACAD_XDICTIONARY
360
334
102
}
102
{ACAD_REACTORS
330
2C
102
}
330
2C
100
AcDbMaterial
  1
ByLayer
 72
     0
 43
0.0208333333333333
 43
0.0
 43
0.0
 43
0.0
 43
0.0
 43
0.0208333333333333
 43
0.0
 43
0.0
 43
0.0
 43
0.0
 43
1.0
 43
0.0
 43
0.0
 43
0.0
 43
0.0
 43
1.0
 77
     0
 47
0.0208333333333333
 47
0.0
 47
0.0
 47
0.0
 47
0.0
 47
0.0208333333333333
 47
0.0
 47
0.0
 47
0.0
 47
0.0
 47
1.0
 47
0.0
 47
0.0
 47
0.0
 47
0.0
 47
1.0
171
     0
 49
0.0208333333333333
 49
0.0
 49
0.0
 49
0.0
 49
0.0
 49
0.0208333333333333
 49
0.0
 49
0.0
 49
0.0
 49
0.0
 49
1.0
 49
0.0
 49
0.0
 49
0.0
 49
0.0
 49
1.0
175
     0
142
0.0208333333333333
142
0.0
142
0.0
142
0.0
142
0.0
142
0.0208333333333333
142
0.0
142
0.0
142
0.0
142
0.0
142
1.0
142
0.0
142
0.0
142
0.0
142
0.0
142
1.0
179
     0
144
0.0208333333333333
144
0.0
144
0.0
144
0.0
144
0.0
144
0.0208333333333333
144
0.0
144
0.0
144
0.0
144
0.0
144
1.0
144
0.0
144
0.0
144
0.0
144
0.0
144
1.0
147
0.0208333333333333
147
0.0
147
0.0
147
0.0
147
0.0
147
0.0208333333333333
147
0.0
147
0.0
147
0.0
147
0.0
147
1.0
147
0.0
147
0.0
147
0.0
147
0.0
147
1.0
  0
MATERIAL
  5
343
102
{ACAD_XDICTIONARY
360
344
102
}
102
{ACAD_REACTORS
330
2C
102
}
330
2C
100
AcDbMaterial
  1
Global
 72
     0
 43
0.0208333333333333
 43
0.0
 43
0.0
 43
0.0
 43
0.0
 43
0.0208333333333333
 43
0.0
 43
0.0
 43
0.0
 43
0.0
 43
1.0
 43
0.0
 43
0.0
 43
0.0
 43
0.0
 43
1.0
 77
     0
 47
0.0208333333333333
 47
0.0
 47
0.0
 47
0.0
 47
0.0
 47
0.0208333333333333
 47
0.0
 47
0.0
 47
0.0
 47
0.0
 47
1.0
 47
0.0
 47
0.0
 47
0.0
 47
0.0
 47
1.0
171
     0
 49
0.0208333333333333
 49
0.0
 49
0.0
 49
0.0
 49
0.0
 49
0.0208333333333333
 49
0.0
 49
0.0
 49
0.0
 49
0.0
 49
1.0
 49
0.0
 49
0.0
 49
0.0
 49
0.0
 49
1.0
175
     0
142
0.0208333333333333
142
0.0
142
0.0
142
0.0
142
0.0
142
0.0208333333333333
142
0.0
142
0.0
142
0.0
142
0.0
142
1.0
142
0.0
142
0.0
142
0.0
142
0.0
142
1.0
179
     0
144
0.0208333333333333
144
0.0
144
0.0
144
0.0
144
0.0
144
0.0208333333333333
144
0.0
144
0.0
144
0.0
144
0.0
144
1.0
144
0.0
144
0.0
144
0.0
144
0.0
144
1.0
147
0.0208333333333333
147
0.0
147
0.0
147
0.0
147
0.0
147
0.0208333333333333
147
0.0
147
0.0
147
0.0
147
0.0
147
1.0
147
0.0
147
0.0
147
0.0
147
0.0
147
1.0
  0
MLEADERSTYLE
  5
377
102
{ACAD_REACTORS
330
376
102
}
330
376
100
AcDbMLeaderStyle
170
     2
171
     1
172
     0
 90
        2
 40
0.0
 41
0.0
173
     1
 91
-1056964608
340
19
 92
       -2
290
     1
 42
2.0
291
     1
 43
0.36
  3
Standard
 44
4.0
300

342
16
174
     1
178
     6
175
     1
176
     0
 93
-1056964608
 45
4.0
292
     0
297
     0
 46
4.0
 94
-1056964608
 47
1.0
 49
1.0
140
1.0
293
     1
141
0.0
294
     1
177
     0
142
1.0
295
     0
296
     0
143
0.125
1001
ACAD_MLEADERVER
1070
     2
  0
MLINESTYLE
  5
30
102
{ACAD_REACTORS
330
2A
102
}
330
2A
100
AcDbMlineStyle
  2
STANDARD
 70
     0
  3

 62
     0
 51
90.0
 52
90.0
 71
     2
 49
0.5
 62
   256
  6
BYLAYER
 49
-0.5
 62
   256
  6
BYLAYER
  0
ACDBPLACEHOLDER
  5
7
102
{ACAD_REACTORS
330
8
102
}
330
8
  0
SCALE
  5
365
102
{ACAD_REACTORS
330
364
102
}
330
364
100
AcDbScale
 70
     0
300
1:1
140
1.0
141
1.0
290
     1
  0
SCALE
  5
366
102
{ACAD_REACTORS
330
364
102
}
330
364
100
AcDbScale
 70
     0
300
1:2
140
1.0
141
2.0
290
     0
  0
SCALE
  5
367
102
{ACAD_REACTORS
330
364
102
}
330
364
100
AcDbScale
 70
     0
300
1:4
140
1.0
141
4.0
290
     0
  0
SCALE
  5
368
102
{ACAD_REACTORS
330
364
102
}
330
364
100
AcDbScale
 70
     0
300
1:5
140
1.0
141
5.0
290
     0
  0
SCALE
  5
369
102
{ACAD_REACTORS
330
364
102
}
330
364
100
AcDbScale
 70
     0
300
1:8
140
1.0
141
8.0
290
     0
  0
SCALE
  5
36A
102
{ACAD_REACTORS
330
364
102
}
330
364
100
AcDbScale
 70
     0
300
1:10
140
1.0
141
10.0
290
     0
  0
SCALE
  5
36B
102
{ACAD_REACTORS
330
364
102
}
330
364
100
AcDbScale
 70
     0
300
1:16
140
1.0
141
16.0
290
     0
  0
SCALE
  5
36C
102
{ACAD_REACTORS
330
364
102
}
330
364
100
AcDbScale
 70
     0
300
1:20
140
1.0
141
20.0
290
     0
  0
SCALE
  5
36D
102
{ACAD_REACTORS
330
364
102
}
330
364
100
AcDbScale
 70
     0
300
1:30
140
1.0
141
30.0
290
     0
  0
SCALE
  5
36E
102
{ACAD_REACTORS
330
364
102
}
330
364
100
AcDbScale
 70
     0
300
1:40
140
1.0
141
40.0
290
     0
  0
SCALE
  5
36F
102
{ACAD_REACTORS
330
364
102
}
330
364
100
AcDbScale
 70
     0
300
1:50
140
1.0
141
50.0
290
     0
  0
SCALE
  5
370
102
{ACAD_REACTORS
330
364
102
}
330
364
100
AcDbScale
 70
     0
300
1:100
140
1.0
141
100.0
290
     0
  0
SCALE
  5
371
102
{ACAD_REACTORS
330
364
102
}
330
364
100
AcDbScale
 70
     0
300
2:1
140
2.0
141
1.0
290
     0
  0
SCALE
  5
372
102
{ACAD_REACTORS
330
364
102
}
330
364
100
AcDbScale
 70
     0
300
4:1
140
4.0
141
1.0
290
     0
  0
SCALE
  5
373
102
{ACAD_REACTORS
330
364
102
}
330
364
100
AcDbScale
 70
     0
300
8:1
140
8.0
141
1.0
290
     0
  0
SCALE
  5
374
102
{ACAD_REACTORS
330
364
102
}
330
364
100
AcDbScale
 70
     0
300
10:1
140
10.0
141
1.0
290
     0
  0
SCALE
  5
375
102
{ACAD_REACTORS
330
364
102
}
330
364
100
AcDbScale
 70
     0
300
100:1
140
100.0
141
1.0
290
     0
  0
ACDBSECTIONVIEWSTYLE
  5
379
102
{ACAD_XDICTIONARY
360
497
102
}
102
{ACAD_REACTORS
330
378
330
3DC
102
}
330
378
100
AcDbModelDocViewStyle
 70
     0
  3
Metric50
290
     0
100
AcDbSectionViewStyle
 70
     0
 71
     0
 90
      102
 71
     1
340
16
 40
5.0
340
0
340
0
 40
5.0
300
I, O, Q, S, X, Z
 40
10.0
 90
        0
 40
2.5
 90
        0
 71
     2
340
A
 90
       25
340
A
 90
       50
 40
5.0
 40
2.5
 40
5.0
 71
     3
340
16
 40
5.0
 90
        0
 40
15.0
 90
        1
300
%<\AcVar ViewSectionStartId>%-%<\AcVar ViewSectionEndId>% (%<\AcVar ViewScale \f "%sn">%)
 71
     4
300
ANSI31
 40
1.0
 90
        0
290
     0
290
     0
 90
        6
 40
0.0
 40
1.570796326794896
 40
0.2617993877991494
 40
1.308996938995747
 40
-0.2617993877991494
 40
1.832595714594046
  0
TABLESTYLE
  5
31
102
{ACAD_XDICTIONARY
360
455
102
}
102
{ACAD_REACTORS
330
2E
102
}
330
2E
100
AcDbTableStyle
  3
Standard
 70
     0
 71
     0
 40
1.5
 41
1.5
280
     0
281
     0
  7
STANDARD
140
4.5
170
     2
 62
     0
 63
     7
283
     0
274
    -2
284
     1
 64
     0
275
    -2
285
     1
 65
     0
276
    -2
286
     1
 66
     0
277
    -2
287
     1
 67
     0
278
    -2
288
     1
 68
     0
279
    -2
289
     1
 69
     0
  7
STANDARD
140
6.0
170
     5
 62
     0
 63
     7
283
     0
274
    -2
284
     1
 64
     0
275
    -2
285
     1
 65
     0
276
    -2
286
     1
 66
     0
277
    -2
287
     1
 67
     0
278
    -2
288
     1
 68
     0
279
    -2
289
     1
 69
     0
  7
STANDARD
140
4.5
170
     5
 62
     0
 63
     7
283
     0
274
    -2
284
     1
 64
     0
275
    -2
285
     1
 65
     0
276
    -2
286
     1
 66
     0
277
    -2
287
     1
 67
     0
278
    -2
288
     1
 68
     0
279
    -2
289
     1
 69
     0
  0
VISUALSTYLE
  5
351
102
{ACAD_XDICTIONARY
360
470
102
}
102
{ACAD_REACTORS
330
34B
102
}
330
34B
100
AcDbVisualStyle
  2
2dWireframe
 70
     4
 71
     0
 72
     2
 73
     0
 90
        0
 40
-0.6
 41
-30.0
 62
     5
 63
     7
 74
     1
 91
        4
 64
     7
 65
   257
 75
     1
175
     1
 42
1.0
 92
        0
 66
   257
 43
1.0
 76
     1
 77
     6
 78
     2
 67
     7
 79
     5
170
     0
171
     0
290
     0
174
     0
 93
        1
 44
0.0
173
     0
291
     0
 45
0.0
1001
ACAD
1000
AcDbSavedByObjectVersion
1070
     0
  0
VISUALSTYLE
  5
350
102
{ACAD_XDICTIONARY
360
46E
102
}
102
{ACAD_REACTORS
330
34B
102
}
330
34B
100
AcDbVisualStyle
  2
Basic
 70
     7
 71
     1
 72
     0
 73
     1
 90
        0
 40
-0.6
 41
-30.0
 62
     5
 63
     7
 74
     0
 91
        4
 64
     7
 65
   257
 75
     1
175
     1
 42
1.0
 92
        8
 66
     7
 43
1.0
 76
     1
 77
     6
 78
     2
 67
     7
 79
     5
170
     0
171
     0
290
     0
174
     0
 93
        1
 44
0.0
173
     0
291
     1
 45
0.0
1001
ACAD
1000
AcDbSavedByObjectVersion
1070
     0
  0
VISUALSTYLE
  5
357
102
{ACAD_XDICTIONARY
360
47C
102
}
102
{ACAD_REACTORS
330
34B
102
}
330
34B
100
AcDbVisualStyle
  2
Brighten
 70
    12
 71
     2
 72
     2
 73
     0
 90
        0
 40
-0.6
 41
-30.0
 62
     5
 63
     7
 74
     1
 91
        4
 64
     7
 65
   257
 75
     1
175
     1
 42
1.0
 92
        8
 66
     7
 43
1.0
 76
     1
 77
     6
 78
     2
 67
     7
 79
     5
170
     0
171
     0
290
     0
174
     0
 93
        1
 44
50.0
173
     0
291
     1
 45
0.0
1001
ACAD
1000
AcDbSavedByObjectVersion
1070
     0
  0
VISUALSTYLE
  5
35B
102
{ACAD_XDICTIONARY
360
484
102
}
102
{ACAD_REACTORS
330
34B
102
}
330
34B
100
AcDbVisualStyle
  2
ColorChange
 70
    16
 71
     2
 72
     2
 73
     3
 90
        0
 40
-0.6
 41
-30.0
 62
     5
 63
     8
 74
     1
 91
        4
 64
     7
 65
   257
 75
     1
175
     1
 42
1.0
 92
        8
 66
     8
 43
1.0
 76
     1
 77
     6
 78
     2
 67
     7
 79
     5
170
     0
171
     0
290
     0
174
     0
 93
        1
 44
0.0
173
     0
291
     1
 45
0.0
1001
ACAD
1000
AcDbSavedByObjectVersion
1070
     0
  0
VISUALSTYLE
  5
354
102
{ACAD_XDICTIONARY
360
476
102
}
102
{ACAD_REACTORS
330
34B
102
}
330
34B
100
AcDbVisualStyle
  2
Conceptual
 70
     9
 71
     3
 72
     2
 73
     0
 90
        0
 40
-0.6
 41
-30.0
 62
     5
 63
     7
 74
     2
 91
        2
 64
     7
 65
   257
 75
     1
175
     1
 42
179.0
 92
        8
 66
     7
 43
1.0
 76
     1
 77
     6
 78
     2
 67
     7
 79
     3
170
     0
171
     0
290
     0
174
     0
 93
        1
 44
0.0
173
     0
291
     0
 45
0.0
1001
ACAD
1000
AcDbSavedByObjectVersion
1070
     0
  0
VISUALSTYLE
  5
356
102
{ACAD_XDICTIONARY
360
47A
102
}
102
{ACAD_REACTORS
330
34B
102
}
330
34B
100
AcDbVisualStyle
  2
Dim
 70
    11
 71
     2
 72
     2
 73
     0
 90
        0
 40
-0.6
 41
-30.0
 62
     5
 63
     7
 74
     1
 91
        4
 64
     7
 65
   257
 75
     1
175
     1
 42
1.0
 92
        8
 66
     7
 43
1.0
 76
     1
 77
     6
 78
     2
 67
     7
 79
     5
170
     0
171
     0
290
     0
174
     0
 93
        1
 44
-50.0
173
     0
291
     1
 45
0.0
1001
ACAD
1000
AcDbSavedByObjectVersion
1070
     0
  0
VISUALSTYLE
  5
363
102
{ACAD_XDICTIONARY
360
494
102
}
102
{ACAD_REACTORS
330
34B
102
}
330
34B
100
AcDbVisualStyle
  2
EdgeColorOff
 70
    22
 71
     2
 72
     2
 73
     0
 90
        0
 40
-0.6
 41
-30.0
 62
     5
 63
     7
 74
     1
 91
        4
 64
     7
 65
   257
 75
     1
175
     1
 42
1.0
 92
        8
 66
     7
 43
1.0
 76
     1
 77
     6
 78
     2
 67
     7
 79
     5
170
     0
171
     0
290
     0
174
     0
 93
        1
 44
0.0
173
     0
291
     1
 45
0.0
1001
ACAD
1000
AcDbSavedByObjectVersion
1070
     0
  0
VISUALSTYLE
  5
35A
102
{ACAD_XDICTIONARY
360
482
102
}
102
{ACAD_REACTORS
330
34B
102
}
330
34B
100
AcDbVisualStyle
  2
Facepattern
 70
    15
 71
     2
 72
     2
 73
     0
 90
        0
 40
-0.6
 41
-30.0
 62
     5
 63
     7
 74
     1
 91
        4
 64
     7
 65
   257
 75
     1
175
     1
 42
1.0
 92
        8
 66
     7
 43
1.0
 76
     1
 77
     6
 78
     2
 67
     7
 79
     5
170
     0
171
     0
290
     0
174
     0
 93
        1
 44
0.0
173
     0
291
     1
 45
0.0
1001
ACAD
1000
AcDbSavedByObjectVersion
1070
     0
  0
VISUALSTYLE
  5
34C
102
{ACAD_XDICTIONARY
360
466
102
}
102
{ACAD_REACTORS
330
34B
102
}
330
34B
100
AcDbVisualStyle
  2
Flat
 70
     0
 71
     2
 72
     1
 73
     1
 90
        2
 40
-0.6
 41
30.0
 62
     5
 63
     7
 74
     0
 91
        0
 64
     7
 65
   257
 75
     1
175
     1
 42
1.0
 92
        8
 66
     7
 43
1.0
 76
     1
 77
     6
 78
     2
 67
     7
 79
     5
170
     0
171
     0
290
     0
174
     0
 93
       13
 44
0.0
173
     0
291
     1
 45
0.0
1001
ACAD
1000
AcDbSavedByObjectVersion
1070
     0
  0
VISUALSTYLE
  5
34D
102
{ACAD_XDICTIONARY
360
468
102
}
102
{ACAD_REACTORS
330
34B
102
}
330
34B
100
AcDbVisualStyle
  2
FlatWithEdges
 70
     1
 71
     2
 72
     1
 73
     1
 90
        2
 40
-0.6
 41
30.0
 62
     5
 63
     7
 74
     1
 91
        0
 64
     7
 65
   257
 75
     1
175
     1
 42
1.0
 92
        0
 66
   257
 43
1.0
 76
     1
 77
     6
 78
     2
 67
     7
 79
     5
170
     0
171
     0
290
     0
174
     0
 93
       13
 44
0.0
173
     0
291
     1
 45
0.0
1001
ACAD
1000
AcDbSavedByObjectVersion
1070
     0
  0
VISUALSTYLE
  5
34E
102
{ACAD_XDICTIONARY
360
46A
102
}
102
{ACAD_REACTORS
330
34B
102
}
330
34B
100
AcDbVisualStyle
  2
Gouraud
 70
     2
 71
     2
 72
     2
 73
     1
 90
        2
 40
-0.6
 41
30.0
 62
     5
 63
     7
 74
     0
 91
        0
 64
     7
 65
   257
 75
     1
175
     1
 42
1.0
 92
        0
 66
     7
 43
1.0
 76
     1
 77
     6
 78
     2
 67
     7
 79
     5
170
     0
171
     0
290
     0
174
     0
 93
       13
 44
0.0
173
     0
291
     1
 45
0.0
1001
ACAD
1000
AcDbSavedByObjectVersion
1070
     0
  0
VISUALSTYLE
  5
34F
102
{ACAD_XDICTIONARY
360
46C
102
}
102
{ACAD_REACTORS
330
34B
102
}
330
34B
100
AcDbVisualStyle
  2
GouraudWithEdges
 70
     3
 71
     2
 72
     2
 73
     1
 90
        2
 40
-0.6
 41
30.0
 62
     5
 63
     7
 74
     1
 91
        0
 64
     7
 65
   257
 75
     1
175
     1
 42
1.0
 92
        0
 66
   257
 43
1.0
 76
     1
 77
     6
 78
     2
 67
     7
 79
     5
170
     0
171
     0
290
     0
174
     0
 93
       13
 44
0.0
173
     0
291
     1
 45
0.0
1001
ACAD
1000
AcDbSavedByObjectVersion
1070
     0
  0
VISUALSTYLE
  5
353
102
{ACAD_XDICTIONARY
360
474
102
}
102
{ACAD_REACTORS
330
34B
102
}
330
34B
100
AcDbVisualStyle
  2
Hidden
 70
     6
 71
     1
 72
     2
 73
     2
 90
        0
 40
-0.6
 41
-30.0
 62
     5
 63
     7
 74
     2
 91
        2
 64
     7
 65
   257
 75
     2
175
     1
 42
40.0
 92
        0
 66
   257
 43
1.0
 76
     1
 77
     6
 78
     2
 67
     7
 79
     3
170
     0
171
     0
290
     0
174
     0
 93
        1
 44
0.0
173
     0
291
     0
 45
0.0
1001
ACAD
1000
AcDbSavedByObjectVersion
1070
     0
  0
VISUALSTYLE
  5
361
102
{ACAD_XDICTIONARY
360
490
102
}
102
{ACAD_REACTORS
330
34B
102
}
330
34B
100
AcDbVisualStyle
  2
JitterOff
 70
    20
 71
     2
 72
     2
 73
     0
 90
        0
 40
-0.6
 41
-30.0
 62
     5
 63
     7
 74
     1
 91
        4
 64
     7
 65
   257
 75
     1
175
     1
 42
1.0
 92
       10
 66
     7
 43
1.0
 76
     1
 77
     6
 78
     2
 67
     7
 79
     5
170
     0
171
     0
290
     0
174
     0
 93
        1
 44
0.0
173
     0
291
     1
 45
0.0
1001
ACAD
1000
AcDbSavedByObjectVersion
1070
     0
  0
VISUALSTYLE
  5
359
102
{ACAD_XDICTIONARY
360
480
102
}
102
{ACAD_REACTORS
330
34B
102
}
330
34B
100
AcDbVisualStyle
  2
Linepattern
 70
    14
 71
     2
 72
     2
 73
     0
 90
        0
 40
-0.6
 41
-30.0
 62
     5
 63
     7
 74
     1
 91
        4
 64
     7
 65
   257
 75
     7
175
     7
 42
1.0
 92
        8
 66
     7
 43
1.0
 76
     1
 77
     6
 78
     2
 67
     7
 79
     5
170
     0
171
     0
290
     0
174
     0
 93
        1
 44
0.0
173
     0
291
     1
 45
0.0
1001
ACAD
1000
AcDbSavedByObjectVersion
1070
     0
  0
VISUALSTYLE
  5
362
102
{ACAD_XDICTIONARY
360
492
102
}
102
{ACAD_REACTORS
330
34B
102
}
330
34B
100
AcDbVisualStyle
  2
OverhangOff
 70
    21
 71
     2
 72
     2
 73
     0
 90
        0
 40
-0.6
 41
-30.0
 62
     5
 63
     7
 74
     1
 91
        4
 64
     7
 65
   257
 75
     1
175
     1
 42
1.0
 92
        9
 66
     7
 43
1.0
 76
     1
 77
     6
 78
     2
 67
     7
 79
     5
170
     0
171
     0
290
     0
174
     0
 93
        1
 44
0.0
173
     0
291
     1
 45
0.0
1001
ACAD
1000
AcDbSavedByObjectVersion
1070
     0
  0
VISUALSTYLE
  5
355
102
{ACAD_XDICTIONARY
360
478
102
}
102
{ACAD_REACTORS
330
34B
102
}
330
34B
100
AcDbVisualStyle
  2
Realistic
 70
     8
 71
     2
 72
     3
 73
     0
 90
        2
 40
-0.6
 41
30.0
 62
     5
 63
     7
 74
     0
 91
        0
 64
     7
 65
   257
 75
     1
175
     1
 42
1.0
 92
        8
 66
   257
 43
1.0
 76
     1
 77
     6
 78
     2
 67
     7
 79
     3
170
     0
171
     0
290
     0
174
     0
 93
       13
 44
0.0
173
     0
291
     0
 45
0.0
1001
ACAD
1000
AcDbSavedByObjectVersion
1070
     0
  0
VISUALSTYLE
  5
360
102
{ACAD_XDICTIONARY
360
48E
102
}
102
{ACAD_REACTORS
330
34B
102
}
330
34B
100
AcDbVisualStyle
  2
Shaded
 70
    27
 71
     2
 72
     2
 73
     1
 90
        2
 40
-0.6
 41
30.0
 62
     5
 63
     7
 74
     0
 91
        4
 64
     7
 65
   257
 75
     1
175
     1
 42
1.0
 92
        8
 66
   257
 43
1.0
 76
     1
 77
     6
 78
     2
 67
     8
 79
     3
170
     0
171
     0
290
     0
174
     0
 93
        5
 44
0.0
173
     0
291
     0
 45
0.0
1001
ACAD
1000
AcDbSavedByObjectVersion
1070
     0
  0
VISUALSTYLE
  5
35F
102
{ACAD_XDICTIONARY
360
48C
102
}
102
{ACAD_REACTORS
330
34B
102
}
330
34B
100
AcDbVisualStyle
  2
Shaded with edges
 70
    26
 71
     2
 72
     2
 73
     1
 90
        2
 40
-0.6
 41
30.0
 62
     5
 63
     7
 74
     1
 91
       10
 64
     7
 65
   257
 75
     2
175
     1
 42
1.0
 92
        8
 66
   257
 43
1.0
 76
     1
 77
     6
 78
     2
 67
     7
 79
     3
170
     0
171
     0
290
     0
174
     0
 93
        5
 44
0.0
173
     0
291
     0
 45
0.0
1001
ACAD
1000
AcDbSavedByObjectVersion
1070
     0
  0
VISUALSTYLE
  5
35C
102
{ACAD_XDICTIONARY
360
486
102
}
102
{ACAD_REACTORS
330
34B
102
}
330
34B
100
AcDbVisualStyle
  2
Shades of Gray
 70
    23
 71
     2
 72
     2
 73
     3
 90
        0
 40
-0.6
 41
-30.0
 62
     5
 63
     7
 74
     2
 91
        2
 64
     7
 65
     7
 75
     1
175
     1
 42
40.0
 92
        8
 66
     7
 43
1.0
 76
     1
 77
     6
 78
     2
 67
     7
 79
     3
170
     0
171
     0
290
     0
174
     0
 93
        1
 44
0.0
173
     0
291
     0
 45
0.0
1001
ACAD
1000
AcDbSavedByObjectVersion
1070
     0
  0
VISUALSTYLE
  5
35D
102
{ACAD_XDICTIONARY
360
488
102
}
102
{ACAD_REACTORS
330
34B
102
}
330
34B
100
AcDbVisualStyle
  2
Sketchy
 70
    24
 71
     1
 72
     2
 73
     2
 90
        0
 40
-0.6
 41
-30.0
 62
     5
 63
     7
 74
     2
 91
        2
 64
     7
 65
     7
 75
     1
175
     1
 42
40.0
 92
       11
 66
     7
 43
1.0
 76
     1
 77
     6
 78
     2
 67
     7
 79
     6
170
     0
171
     0
290
     0
174
     0
 93
        1
 44
0.0
173
     0
291
     0
 45
0.0
1001
ACAD
1000
AcDbSavedByObjectVersion
1070
     0
  0
VISUALSTYLE
  5
358
102
{ACAD_XDICTIONARY
360
47E
102
}
102
{ACAD_REACTORS
330
34B
102
}
330
34B
100
AcDbVisualStyle
  2
Thicken
 70
    13
 71
     2
 72
     2
 73
     0
 90
        0
 40
-0.6
 41
-30.0
 62
     5
 63
     7
 74
     1
 91
        4
 64
     7
 65
   257
 75
     1
175
     1
 42
1.0
 92
       12
 66
     7
 43
1.0
 76
     1
 77
     6
 78
     2
 67
     7
 79
     5
170
     0
171
     0
290
     0
174
     0
 93
        1
 44
0.0
173
     0
291
     1
 45
0.0
1001
ACAD
1000
AcDbSavedByObjectVersion
1070
     0
  0
VISUALSTYLE
  5
352
102
{ACAD_XDICTIONARY
360
472
102
}
102
{ACAD_REACTORS
330
34B
102
}
330
34B
100
AcDbVisualStyle
  2
Wireframe
 70
     5
 71
     0
 72
     2
 73
     0
 90
        0
 40
-0.6
 41
-30.0
 62
     5
 63
     7
 74
     1
 91
        4
 64
     7
 65
   257
 75
     1
175
     1
 42
1.0
 92
        0
 66
   257
 43
1.0
 76
     1
 77
     6
 78
     2
 67
     7
 79
     3
170
     0
171
     0
290
     0
174
     0
 93
        1
 44
0.0
173
     0
291
     0
 45
0.0
1001
ACAD
1000
AcDbSavedByObjectVersion
1070
     0
  0
VISUALSTYLE
  5
35E
102
{ACAD_XDICTIONARY
360
48A
102
}
102
{ACAD_REACTORS
330
34B
102
}
330
34B
100
AcDbVisualStyle
  2
X-Ray
 70
    25
 71
     2
 72
     2
 73
     1
 90
        1
 40
0.5
 41
-30.0
 62
     5
 63
     7
 74
     1
 91
        0
 64
     7
 65
   257
 75
     1
175
     1
 42
1.0
 92
        8
 66
     7
 43
1.0
 76
     1
 77
     6
 78
     2
 67
     7
 79
     3
170
     0
171
     0
290
     0
174
     0
 93
       13
 44
0.0
173
     0
291
     0
 45
0.0
1001
ACAD
1000
AcDbSavedByObjectVersion
1070
     0
  0
DICTIONARYVAR
  5
44F
102
{ACAD_REACTORS
330
32F
102
}
330
32F
100
DictionaryVariables
280
     0
  1
1:1
  0
DICTIONARYVAR
  5
44C
102
{ACAD_REACTORS
330
32F
102
}
330
32F
100
DictionaryVariables
280
     0
  1
STANDARD
  0
DICTIONARYVAR
  5
330
102
{ACAD_REACTORS
330
32F
102
}
330
32F
100
DictionaryVariables
280
     0
  1
STANDARD
  0
DICTIONARYVAR
  5
44D
102
{ACAD_REACTORS
330
32F
102
}
330
32F
100
DictionaryVariables
280
     0
  1
Metric50
  0
DICTIONARYVAR
  5
44E
102
{ACAD_REACTORS
330
32F
102
}
330
32F
100
DictionaryVariables
280
     0
  1
Metric50
  0
DICTIONARYVAR
  5
454
102
{ACAD_REACTORS
330
32F
102
}
330
32F
100
DictionaryVariables
280
     0
  1
1
  0
DICTIONARYVAR
  5
452
102
{ACAD_REACTORS
330
32F
102
}
330
32F
100
DictionaryVariables
280
     0
  1
1
  0
DICTIONARYVAR
  5
451
102
{ACAD_REACTORS
330
32F
102
}
330
32F
100
DictionaryVariables
280
     0
  1
0
  0
DICTIONARYVAR
  5
450
102
{ACAD_REACTORS
330
32F
102
}
330
32F
100
DictionaryVariables
280
     0
  1
127
  0
DICTIONARYVAR
  5
453
102
{ACAD_REACTORS
330
32F
102
}
330
32F
100
DictionaryVariables
280
     0
  1
0
  0
DICTIONARY
  5
2EC
102
{ACAD_REACTORS
330
2EB
102
}
330
2EB
100
AcDbDictionary
281
     1
  0
DICTIONARY
  5
499
330
37B
100
AcDbDictionary
280
     1
281
     1
  3
ACAD_XREC_ROUNDTRIP
360
49A
  0
DICTIONARY
  5
460
330
11
100
AcDbDictionary
280
     1
281
     1
  3
ACAD_XREC_ROUNDTRIP
360
461
  0
DICTIONARY
  5
45E
330
C
100
AcDbDictionary
280
     1
281
     1
  3
ACAD_XREC_ROUNDTRIP
360
45F
  0
DICTIONARY
  5
33C
330
33B
100
AcDbDictionary
280
     1
281
     1
  3
ACAD_XREC_ROUNDTRIP
360
464
  3
BUMPTILE
360
33E
  3
DIFFUSETILE
360
33D
  3
OPACITYTILE
360
341
  3
REFLECTIONTILE
360
340
  3
REFRACTIONTILE
360
342
  3
SPECULARTILE
360
33F
  0
DICTIONARY
  5
334
330
333
100
AcDbDictionary
280
     1
281
     1
  3
ACAD_XREC_ROUNDTRIP
360
463
  3
BUMPTILE
360
336
  3
DIFFUSETILE
360
335
  3
OPACITYTILE
360
339
  3
REFLECTIONTILE
360
338
  3
REFRACTIONTILE
360
33A
  3
SPECULARTILE
360
337
  0
DICTIONARY
  5
344
330
343
100
AcDbDictionary
280
     1
281
     1
  3
ACAD_XREC_ROUNDTRIP
360
465
  3
BUMPTILE
360
346
  3
DIFFUSETILE
360
345
  3
OPACITYTILE
360
349
  3
REFLECTIONTILE
360
348
  3
REFRACTIONTILE
360
34A
  3
SPECULARTILE
360
347
  0
DICTIONARY
  5
497
330
379
100
AcDbDictionary
280
     1
281
     1
  3
ACAD_XREC_ROUNDTRIP
360
498
  0
DICTIONARY
  5
455
330
31
100
AcDbDictionary
280
     1
281
     1
  3
ACAD_ROUNDTRIP_2008_TABLESTYLE_CELLSTYLEMAP
360
456
  3
ACAD_XREC_ROUNDTRIP
360
462
  0
DICTIONARY
  5
470
330
351
100
AcDbDictionary
280
     1
281
     1
  3
ACAD_XREC_ROUNDTRIP
360
471
  0
DICTIONARY
  5
46E
330
350
100
AcDbDictionary
280
     1
281
     1
  3
ACAD_XREC_ROUNDTRIP
360
46F
  0
DICTIONARY
  5
47C
330
357
100
AcDbDictionary
280
     1
281
     1
  3
ACAD_XREC_ROUNDTRIP
360
47D
  0
DICTIONARY
  5
484
330
35B
100
AcDbDictionary
280
     1
281
     1
  3
ACAD_XREC_ROUNDTRIP
360
485
  0
DICTIONARY
  5
476
330
354
100
AcDbDictionary
280
     1
281
     1
  3
ACAD_XREC_ROUNDTRIP
360
477
  0
DICTIONARY
  5
47A
330
356
100
AcDbDictionary
280
     1
281
     1
  3
ACAD_XREC_ROUNDTRIP
360
47B
  0
DICTIONARY
  5
494
330
363
100
AcDbDictionary
280
     1
281
     1
  3
ACAD_XREC_ROUNDTRIP
360
495
  0
DICTIONARY
  5
482
330
35A
100
AcDbDictionary
280
     1
281
     1
  3
ACAD_XREC_ROUNDTRIP
360
483
  0
DICTIONARY
  5
466
330
34C
100
AcDbDictionary
280
     1
281
     1
  3
ACAD_XREC_ROUNDTRIP
360
467
  0
DICTIONARY
  5
468
330
34D
100
AcDbDictionary
280
     1
281
     1
  3
ACAD_XREC_ROUNDTRIP
360
469
  0
DICTIONARY
  5
46A
330
34E
100
AcDbDictionary
280
     1
281
     1
  3
ACAD_XREC_ROUNDTRIP
360
46B
  0
DICTIONARY
  5
46C
330
34F
100
AcDbDictionary
280
     1
281
     1
  3
ACAD_XREC_ROUNDTRIP
360
46D
  0
DICTIONARY
  5
474
330
353
100
AcDbDictionary
280
     1
281
     1
  3
ACAD_XREC_ROUNDTRIP
360
475
  0
DICTIONARY
  5
490
330
361
100
AcDbDictionary
280
     1
281
     1
  3
ACAD_XREC_ROUNDTRIP
360
491
  0
DICTIONARY
  5
480
330
359
100
AcDbDictionary
280
     1
281
     1
  3
ACAD_XREC_ROUNDTRIP
360
481
  0
DICTIONARY
  5
492
330
362
100
AcDbDictionary
280
     1
281
     1
  3
ACAD_XREC_ROUNDTRIP
360
493
  0
DICTIONARY
  5
478
330
355
100
AcDbDictionary
280
     1
281
     1
  3
ACAD_XREC_ROUNDTRIP
360
479
  0
DICTIONARY
  5
48E
330
360
100
AcDbDictionary
280
     1
281
     1
  3
ACAD_XREC_ROUNDTRIP
360
48F
  0
DICTIONARY
  5
48C
330
35F
100
AcDbDictionary
280
     1
281
     1
  3
ACAD_XREC_ROUNDTRIP
360
48D
  0
DICTIONARY
  5
486
330
35C
100
AcDbDictionary
280
     1
281
     1
  3
ACAD_XREC_ROUNDTRIP
360
487
  0
DICTIONARY
  5
488
330
35D
100
AcDbDictionary
280
     1
281
     1
  3
ACAD_XREC_ROUNDTRIP
360
489
  0
DICTIONARY
  5
47E
330
358
100
AcDbDictionary
280
     1
281
     1
  3
ACAD_XREC_ROUNDTRIP
360
47F
  0
DICTIONARY
  5
472
330
352
100
AcDbDictionary
280
     1
281
     1
  3
ACAD_XREC_ROUNDTRIP
360
473
  0
DICTIONARY
  5
48A
330
35E
100
AcDbDictionary
280
     1
281
     1
  3
ACAD_XREC_ROUNDTRIP
360
48B
  0
XRECORD
  5
49A
102
{ACAD_REACTORS
330
499
102
}
330
499
100
AcDbXrecord
280
     1
102
DISPLAYNAME
  1
Metric50
102
FLAGS
 90
        0
  0
XRECORD
  5
461
102
{ACAD_REACTORS
330
460
102
}
330
460
100
AcDbXrecord
280
     1
102
SHADEPLOT
 70
     0
102
SHADEPLOTRESLEVEL
 70
     2
102
SHADEPLOTCUSTOMDPI
 70
   300
  0
XRECORD
  5
45F
102
{ACAD_REACTORS
330
45E
102
}
330
45E
100
AcDbXrecord
280
     1
102
SHADEPLOT
 70
     0
102
SHADEPLOTRESLEVEL
 70
     2
102
SHADEPLOTCUSTOMDPI
 70
   300
  0
XRECORD
  5
464
102
{ACAD_REACTORS
330
33C
102
}
330
33C
100
AcDbXrecord
280
     1
102
MATERIAL
148
0.0
149
0.0
149
0.0
 93
        0
 94
      127
282
     0
 72
     0
 77
     0
171
     0
175
     0
179
     0
273
     0
  0
XRECORD
  5
33E
102
{ACAD_REACTORS
330
33C
102
}
330
33C
100
AcDbXrecord
280
     1
270
     1
271
     1
  0
XRECORD
  5
33D
102
{ACAD_REACTORS
330
33C
102
}
330
33C
100
AcDbXrecord
280
     1
270
     1
271
     1
  0
XRECORD
  5
341
102
{ACAD_REACTORS
330
33C
102
}
330
33C
100
AcDbXrecord
280
     1
270
     1
271
     1
  0
XRECORD
  5
340
102
{ACAD_REACTORS
330
33C
102
}
330
33C
100
AcDbXrecord
280
     1
270
     1
271
     1
  0
XRECORD
  5
342
102
{ACAD_REACTORS
330
33C
102
}
330
33C
100
AcDbXrecord
280
     1
270
     1
271
     1
  0
XRECORD
  5
33F
102
{ACAD_REACTORS
330
33C
102
}
330
33C
100
AcDbXrecord
280
     1
270
     1
271
     1
  0
XRECORD
  5
463
102
{ACAD_REACTORS
330
334
102
}
330
334
100
AcDbXrecord
280
     1
102
MATERIAL
148
0.0
149
0.0
149
0.0
 93
        0
 94
      127
282
     0
 72
     0
 77
     0
171
     0
175
     0
179
     0
273
     0
  0
XRECORD
  5
336
102
{ACAD_REACTORS
330
334
102
}
330
334
100
AcDbXrecord
280
     1
270
     1
271
     1
  0
XRECORD
  5
335
102
{ACAD_REACTORS
330
334
102
}
330
334
100
AcDbXrecord
280
     1
270
     1
271
     1
  0
XRECORD
  5
339
102
{ACAD_REACTORS
330
334
102
}
330
334
100
AcDbXrecord
280
     1
270
     1
271
     1
  0
XRECORD
  5
338
102
{ACAD_REACTORS
330
334
102
}
330
334
100
AcDbXrecord
280
     1
270
     1
271
     1
  0
XRECORD
  5
33A
102
{ACAD_REACTORS
330
334
102
}
330
334
100
AcDbXrecord
280
     1
270
     1
271
     1
  0
XRECORD
  5
337
102
{ACAD_REACTORS
330
334
102
}
330
334
100
AcDbXrecord
280
     1
270
     1
271
     1
  0
XRECORD
  5
465
102
{ACAD_REACTORS
330
344
102
}
330
344
100
AcDbXrecord
280
     1
102
MATERIAL
148
0.0
149
0.0
149
0.0
 93
        0
 94
      127
282
     0
 72
     0
 77
     0
171
     0
175
     0
179
     0
273
     0
  0
XRECORD
  5
346
102
{ACAD_REACTORS
330
344
102
}
330
344
100
AcDbXrecord
280
     1
270
     1
271
     1
  0
XRECORD
  5
345
102
{ACAD_REACTORS
330
344
102
}
330
344
100
AcDbXrecord
280
     1
270
     1
271
     1
  0
XRECORD
  5
349
102
{ACAD_REACTORS
330
344
102
}
330
344
100
AcDbXrecord
280
     1
270
     1
271
     1
  0
XRECORD
  5
348
102
{ACAD_REACTORS
330
344
102
}
330
344
100
AcDbXrecord
280
     1
270
     1
271
     1
  0
XRECORD
  5
34A
102
{ACAD_REACTORS
330
344
102
}
330
344
100
AcDbXrecord
280
     1
270
     1
271
     1
  0
XRECORD
  5
347
102
{ACAD_REACTORS
330
344
102
}
330
344
100
AcDbXrecord
280
     1
270
     1
271
     1
  0
XRECORD
  5
498
102
{ACAD_REACTORS
330
497
102
}
330
497
100
AcDbXrecord
280
     1
102
DISPLAYNAME
  1
Metric50
102
FLAGS
 90
        0
  0
CELLSTYLEMAP
  5
456
102
{ACAD_REACTORS
330
455
102
}
330
455
100
AcDbCellStyleMap
 90
        3
300
CELLSTYLE
  1
TABLEFORMAT_BEGIN
 90
        5
170
     1
 91
        0
 92
    32768
 62
   257
 93
        1
300
CONTENTFORMAT
  1
CONTENTFORMAT_BEGIN
 90
        0
 91
        0
 92
        4
 93
        0
300

 40
0.0
140
1.0
 94
        5
 62
     0
340
16
144
6.0
309
CONTENTFORMAT_END
171
     1
301
MARGIN
  1
CELLMARGIN_BEGIN
 40
1.5
 40
1.5
 40
1.5
 40
1.5
 40
0.18
 40
0.18
309
CELLMARGIN_END
 94
        6
 95
        1
302
GRIDFORMAT
  1
GRIDFORMAT_BEGIN
 90
        0
 91
        1
 62
     0
 92
       -2
340
0
 93
        0
 40
0.045
309
GRIDFORMAT_END
 95
        2
302
GRIDFORMAT
  1
GRIDFORMAT_BEGIN
 90
        0
 91
        1
 62
     0
 92
       -2
340
0
 93
        0
 40
0.045
309
GRIDFORMAT_END
 95
        4
302
GRIDFORMAT
  1
GRIDFORMAT_BEGIN
 90
        0
 91
        1
 62
     0
 92
       -2
340
0
 93
        0
 40
0.045
309
GRIDFORMAT_END
 95
        8
302
GRIDFORMAT
  1
GRIDFORMAT_BEGIN
 90
        0
 91
        1
 62
     0
 92
       -2
340
0
 93
        0
 40
0.045
309
GRIDFORMAT_END
 95
       16
302
GRIDFORMAT
  1
GRIDFORMAT_BEGIN
 90
        0
 91
        1
 62
     0
 92
       -2
340
0
 93
        0
 40
0.045
309
GRIDFORMAT_END
 95
       32
302
GRIDFORMAT
  1
GRIDFORMAT_BEGIN
 90
        0
 91
        1
 62
     0
 92
       -2
340
0
 93
        0
 40
0.045
309
GRIDFORMAT_END
309
TABLEFORMAT_END
  1
CELLSTYLE_BEGIN
 90
        1
 91
        1
300
_TITLE
309
CELLSTYLE_END
300
CELLSTYLE
  1
TABLEFORMAT_BEGIN
 90
        5
170
     1
 91
        0
 92
        0
 62
   257
 93
        1
300
CONTENTFORMAT
  1
CONTENTFORMAT_BEGIN
 90
        0
 91
        0
 92
        4
 93
        0
300

 40
0.0
140
1.0
 94
        5
 62
     0
340
16
144
4.5
309
CONTENTFORMAT_END
171
     1
301
MARGIN
  1
CELLMARGIN_BEGIN
 40
1.5
 40
1.5
 40
1.5
 40
1.5
 40
0.18
 40
0.18
309
CELLMARGIN_END
 94
        6
 95
        1
302
GRIDFORMAT
  1
GRIDFORMAT_BEGIN
 90
        0
 91
        1
 62
     0
 92
       -2
340
0
 93
        0
 40
0.045
309
GRIDFORMAT_END
 95
        2
302
GRIDFORMAT
  1
GRIDFORMAT_BEGIN
 90
        0
 91
        1
 62
     0
 92
       -2
340
0
 93
        0
 40
0.045
309
GRIDFORMAT_END
 95
        4
302
GRIDFORMAT
  1
GRIDFORMAT_BEGIN
 90
        0
 91
        1
 62
     0
 92
       -2
340
0
 93
        0
 40
0.045
309
GRIDFORMAT_END
 95
        8
302
GRIDFORMAT
  1
GRIDFORMAT_BEGIN
 90
        0
 91
        1
 62
     0
 92
       -2
340
0
 93
        0
 40
0.045
309
GRIDFORMAT_END
 95
       16
302
GRIDFORMAT
  1
GRIDFORMAT_BEGIN
 90
        0
 91
        1
 62
     0
 92
       -2
340
0
 93
        0
 40
0.045
309
GRIDFORMAT_END
 95
       32
302
GRIDFORMAT
  1
GRIDFORMAT_BEGIN
 90
        0
 91
        1
 62
     0
 92
       -2
340
0
 93
        0
 40
0.045
309
GRIDFORMAT_END
309
TABLEFORMAT_END
  1
CELLSTYLE_BEGIN
 90
        2
 91
        1
300
_HEADER
309
CELLSTYLE_END
300
CELLSTYLE
  1
TABLEFORMAT_BEGIN
 90
        5
170
     1
 91
        0
 92
        0
 62
   257
 93
        1
300
CONTENTFORMAT
  1
CONTENTFORMAT_BEGIN
 90
        0
 91
        0
 92
        4
 93
        0
300

 40
0.0
140
1.0
 94
        2
 62
     0
340
16
144
4.5
309
CONTENTFORMAT_END
171
     1
301
MARGIN
  1
CELLMARGIN_BEGIN
 40
1.5
 40
1.5
 40
1.5
 40
1.5
 40
0.18
 40
0.18
309
CELLMARGIN_END
 94
        6
 95
        1
302
GRIDFORMAT
  1
GRIDFORMAT_BEGIN
 90
        0
 91
        1
 62
     0
 92
       -2
340
0
 93
        0
 40
0.045
309
GRIDFORMAT_END
 95
        2
302
GRIDFORMAT
  1
GRIDFORMAT_BEGIN
 90
        0
 91
        1
 62
     0
 92
       -2
340
0
 93
        0
 40
0.045
309
GRIDFORMAT_END
 95
        4
302
GRIDFORMAT
  1
GRIDFORMAT_BEGIN
 90
        0
 91
        1
 62
     0
 92
       -2
340
0
 93
        0
 40
0.045
309
GRIDFORMAT_END
 95
        8
302
GRIDFORMAT
  1
GRIDFORMAT_BEGIN
 90
        0
 91
        1
 62
     0
 92
       -2
340
0
 93
        0
 40
0.045
309
GRIDFORMAT_END
 95
       16
302
GRIDFORMAT
  1
GRIDFORMAT_BEGIN
 90
        0
 91
        1
 62
     0
 92
       -2
340
0
 93
        0
 40
0.045
309
GRIDFORMAT_END
 95
       32
302
GRIDFORMAT
  1
GRIDFORMAT_BEGIN
 90
        0
 91
        1
 62
     0
 92
       -2
340
0
 93
        0
 40
0.045
309
GRIDFORMAT_END
309
TABLEFORMAT_END
  1
CELLSTYLE_BEGIN
 90
        3
 91
        2
300
_DATA
309
CELLSTYLE_END
  0
XRECORD
  5
462
102
{ACAD_REACTORS
330
455
102
}
330
455
100
AcDbXrecord
280
     1
102
ACAD_ROUNDTRIP_PRE2007_TABLESTYLE
 90
        4
 91
        0
  1

 92
        4
 93
        0
  2

 94
        4
 95
        0
  3

  0
XRECORD
  5
471
102
{ACAD_REACTORS
330
470
102
}
330
470
100
AcDbXrecord
280
     1
102
RTVSPost2010Prop28
280
     1
102
RTVSPost2010PropOp28
 70
     1
102
RTVSPost2010Prop29
280
     1
102
RTVSPost2010PropOp29
 70
     1
102
RTVSPost2010Prop30
280
     0
102
RTVSPost2010PropOp30
 70
     1
102
RTVSPost2010Prop31
280
     0
102
RTVSPost2010PropOp31
 70
     1
102
RTVSPost2010Prop32
280
     0
102
RTVSPost2010PropOp32
 70
     1
102
RTVSPost2010Prop33
280
     0
102
RTVSPost2010PropOp33
 70
     1
102
RTVSPost2010Prop34
280
     0
102
RTVSPost2010PropOp34
 70
     1
102
RTVSPost2010Prop35
280
     0
102
RTVSPost2010PropOp35
 70
     1
102
RTVSPost2010Prop36
280
     0
102
RTVSPost2010PropOp36
 70
     1
102
RTVSPost2010Prop37
 90
       50
102
RTVSPost2010PropOp37
 70
     1
102
RTVSPost2010Prop38
140
0.0
102
RTVSPost2010PropOp38
 70
     1
102
RTVSPost2010Prop39
140
1.0
102
RTVSPost2010PropOp39
 70
     1
102
RTVSPost2010Prop40
 90
        0
102
RTVSPost2010PropOp40
 70
     1
102
RTVSPost2010Prop41ColorIndex
 90
       18
102
RTVSPost2010Prop41ColorRGB
 90
        0
102
RTVSPost2010PropOp41
 70
     1
102
RTVSPost2010Prop42
 90
       50
102
RTVSPost2010PropOp42
 70
     1
102
RTVSPost2010Prop43
 90
        3
102
RTVSPost2010PropOp43
 70
     1
102
RTVSPost2010Prop44ColorIndex
 90
        5
102
RTVSPost2010Prop44ColorRGB
 90
      255
102
RTVSPost2010PropOp44
 70
     1
102
RTVSPost2010Prop45
280
     0
102
RTVSPost2010PropOp45
 70
     1
102
RTVSPost2010Prop46
 90
       50
102
RTVSPost2010PropOp46
 70
     1
102
RTVSPost2010Prop47
 90
       50
102
RTVSPost2010PropOp47
 70
     1
102
RTVSPost2010Prop48
 90
       50
102
RTVSPost2010PropOp48
 70
     1
102
RTVSPost2010Prop49
280
     0
102
RTVSPost2010PropOp49
 70
     1
102
RTVSPost2010Prop50
 90
       50
102
RTVSPost2010PropOp50
 70
     1
102
RTVSPost2010Prop51ColorIndex
 90
      256
102
RTVSPost2010Prop51ColorRGB
 90
-16777216
102
RTVSPost2010PropOp51
 70
     0
102
RTVSPost2010Prop52
140
1.0
102
RTVSPost2010PropOp52
 70
     0
102
RTVSPost2010Prop53
 90
        2
102
RTVSPost2010PropOp53
 70
     1
102
RTVSPost2010Prop54
  1
strokes_ogs.tif
102
RTVSPost2010PropOp54
 70
     1
102
RTVSPost2010Prop55
280
     0
102
RTVSPost2010PropOp55
 70
     1
102
RTVSPost2010Prop56
140
1.0
102
RTVSPost2010PropOp56
 70
     1
102
RTVSPost2010Prop57
140
1.0
102
RTVSPost2010PropOp57
 70
     1
102
RTVSPropertyOp0
 70
     1
102
RTVSPropertyOp1
 70
     1
102
RTVSPropertyOp2
 70
     1
102
RTVSPropertyOp3
 70
     1
102
RTVSPropertyOp4
 70
     1
102
RTVSPropertyOp5
 70
     1
102
RTVSPropertyOp6
 70
     1
102
RTVSPropertyOp7
 70
     1
102
RTVSPropertyOp8
 70
     1
102
RTVSPropertyOp9
 70
     1
102
RTVSPropertyOp10
 70
     1
102
RTVSPropertyOp11
 70
     1
102
RTVSPropertyOp12
 70
     1
102
RTVSPropertyOp13
 70
     1
102
RTVSPropertyOp14
 70
     1
102
RTVSPropertyOp15
 70
     1
102
RTVSPropertyOp16
 70
     1
102
RTVSPropertyOp17
 70
     1
102
RTVSPropertyOp18
 70
     1
102
RTVSPropertyOp19
 70
     1
102
RTVSPropertyOp20
 70
     1
102
RTVSPropertyOp21
 70
     1
102
RTVSPropertyOp22
 70
     1
102
RTVSPropertyOp23
 70
     1
102
RTVSPropertyOp24
 70
     1
102
RTVSPropertyOp25
 70
     1
102
RTVSPropertyOp26
 70
     1
102
RTVSPropertyOp27
 70
     1
102
RTVSPropertyOp28
 70
     1
102
RTVSPropertyOp29
 70
     1
102
RTVSPropertyOp30
 70
     1
102
RTVSPropertyOp31
 70
     1
102
RTVSPropertyOp32
 70
     1
102
RTVSPropertyOp33
 70
     1
102
RTVSPropertyOp34
 70
     1
102
RTVSPropertyOp35
 70
     1
102
RTVSPropertyOp36
 70
     1
102
RTVSPropertyOp37
 70
     1
102
RTVSPropertyOp38
 70
     1
102
RTVSPropertyOp39
 70
     1
102
RTVSPropertyOp40
 70
     1
102
RTVSPropertyOp41
 70
     1
102
RTVSPropertyOp42
 70
     1
102
RTVSPropertyOp43
 70
     1
102
RTVSPropertyOp44
 70
     1
102
RTVSPropertyOp45
 70
     1
102
RTVSPropertyOp46
 70
     1
102
RTVSPropertyOp47
 70
     1
102
RTVSPropertyOp48
 70
     1
102
RTVSPropertyOp49
 70
     1
102
RTVSPropertyOp50
 70
     1
102
RTVSPropertyOp51
 70
     0
102
RTVSPropertyOp52
 70
     0
102
RTVSPropertyOp53
 70
     1
102
RTVSPropertyOp54
 70
     1
102
RTVSPropertyOp55
 70
     1
102
RTVSPropertyOp56
 70
     1
102
RTVSPropertyOp57
 70
     1
102
RTVSPropertyOp58
 70
     1
102
RTVSPropertyOp59
 70
     1
102
RTVSPropertyOp60
 70
     1
102
RTVSPropertyOp61
 70
     1
102
RTVSPropertyOp62
 70
     1
  0
XRECORD
  5
46F
102
{ACAD_REACTORS
330
46E
102
}
330
46E
100
AcDbXrecord
280
     1
102
RTVSPost2010Prop28
280
     0
102
RTVSPost2010PropOp28
 70
     1
102
RTVSPost2010Prop29
280
     1
102
RTVSPost2010PropOp29
 70
     1
102
RTVSPost2010Prop30
280
     1
102
RTVSPost2010PropOp30
 70
     1
102
RTVSPost2010Prop31
280
     0
102
RTVSPost2010PropOp31
 70
     1
102
RTVSPost2010Prop32
280
     0
102
RTVSPost2010PropOp32
 70
     1
102
RTVSPost2010Prop33
280
     0
102
RTVSPost2010PropOp33
 70
     1
102
RTVSPost2010Prop34
280
     0
102
RTVSPost2010PropOp34
 70
     1
102
RTVSPost2010Prop35
280
     0
102
RTVSPost2010PropOp35
 70
     1
102
RTVSPost2010Prop36
280
     0
102
RTVSPost2010PropOp36
 70
     1
102
RTVSPost2010Prop37
 90
       50
102
RTVSPost2010PropOp37
 70
     1
102
RTVSPost2010Prop38
140
0.0
102
RTVSPost2010PropOp38
 70
     1
102
RTVSPost2010Prop39
140
1.0
102
RTVSPost2010PropOp39
 70
     1
102
RTVSPost2010Prop40
 90
        0
102
RTVSPost2010PropOp40
 70
     1
102
RTVSPost2010Prop41ColorIndex
 90
       18
102
RTVSPost2010Prop41ColorRGB
 90
        0
102
RTVSPost2010PropOp41
 70
     1
102
RTVSPost2010Prop42
 90
       50
102
RTVSPost2010PropOp42
 70
     1
102
RTVSPost2010Prop43
 90
        3
102
RTVSPost2010PropOp43
 70
     1
102
RTVSPost2010Prop44ColorIndex
 90
        5
102
RTVSPost2010Prop44ColorRGB
 90
      255
102
RTVSPost2010PropOp44
 70
     1
102
RTVSPost2010Prop45
280
     0
102
RTVSPost2010PropOp45
 70
     1
102
RTVSPost2010Prop46
 90
       50
102
RTVSPost2010PropOp46
 70
     1
102
RTVSPost2010Prop47
 90
       50
102
RTVSPost2010PropOp47
 70
     1
102
RTVSPost2010Prop48
 90
       50
102
RTVSPost2010PropOp48
 70
     1
102
RTVSPost2010Prop49
280
     0
102
RTVSPost2010PropOp49
 70
     1
102
RTVSPost2010Prop50
 90
       50
102
RTVSPost2010PropOp50
 70
     1
102
RTVSPost2010Prop51ColorIndex
 90
      256
102
RTVSPost2010Prop51ColorRGB
 90
-16777216
102
RTVSPost2010PropOp51
 70
     0
102
RTVSPost2010Prop52
140
1.0
102
RTVSPost2010PropOp52
 70
     0
102
RTVSPost2010Prop53
 90
        2
102
RTVSPost2010PropOp53
 70
     1
102
RTVSPost2010Prop54
  1
strokes_ogs.tif
102
RTVSPost2010PropOp54
 70
     1
102
RTVSPost2010Prop55
280
     0
102
RTVSPost2010PropOp55
 70
     1
102
RTVSPost2010Prop56
140
1.0
102
RTVSPost2010PropOp56
 70
     1
102
RTVSPost2010Prop57
140
1.0
102
RTVSPost2010PropOp57
 70
     1
102
RTVSPropertyOp0
 70
     1
102
RTVSPropertyOp1
 70
     1
102
RTVSPropertyOp2
 70
     1
102
RTVSPropertyOp3
 70
     1
102
RTVSPropertyOp4
 70
     1
102
RTVSPropertyOp5
 70
     1
102
RTVSPropertyOp6
 70
     1
102
RTVSPropertyOp7
 70
     1
102
RTVSPropertyOp8
 70
     1
102
RTVSPropertyOp9
 70
     1
102
RTVSPropertyOp10
 70
     1
102
RTVSPropertyOp11
 70
     1
102
RTVSPropertyOp12
 70
     1
102
RTVSPropertyOp13
 70
     1
102
RTVSPropertyOp14
 70
     1
102
RTVSPropertyOp15
 70
     1
102
RTVSPropertyOp16
 70
     1
102
RTVSPropertyOp17
 70
     1
102
RTVSPropertyOp18
 70
     1
102
RTVSPropertyOp19
 70
     1
102
RTVSPropertyOp20
 70
     1
102
RTVSPropertyOp21
 70
     1
102
RTVSPropertyOp22
 70
     1
102
RTVSPropertyOp23
 70
     1
102
RTVSPropertyOp24
 70
     1
102
RTVSPropertyOp25
 70
     1
102
RTVSPropertyOp26
 70
     1
102
RTVSPropertyOp27
 70
     1
102
RTVSPropertyOp28
 70
     1
102
RTVSPropertyOp29
 70
     1
102
RTVSPropertyOp30
 70
     1
102
RTVSPropertyOp31
 70
     1
102
RTVSPropertyOp32
 70
     1
102
RTVSPropertyOp33
 70
     1
102
RTVSPropertyOp34
 70
     1
102
RTVSPropertyOp35
 70
     1
102
RTVSPropertyOp36
 70
     1
102
RTVSPropertyOp37
 70
     1
102
RTVSPropertyOp38
 70
     1
102
RTVSPropertyOp39
 70
     1
102
RTVSPropertyOp40
 70
     1
102
RTVSPropertyOp41
 70
     1
102
RTVSPropertyOp42
 70
     1
102
RTVSPropertyOp43
 70
     1
102
RTVSPropertyOp44
 70
     1
102
RTVSPropertyOp45
 70
     1
102
RTVSPropertyOp46
 70
     1
102
RTVSPropertyOp47
 70
     1
102
RTVSPropertyOp48
 70
     1
102
RTVSPropertyOp49
 70
     1
102
RTVSPropertyOp50
 70
     1
102
RTVSPropertyOp51
 70
     0
102
RTVSPropertyOp52
 70
     0
102
RTVSPropertyOp53
 70
     1
102
RTVSPropertyOp54
 70
     1
102
RTVSPropertyOp55
 70
     1
102
RTVSPropertyOp56
 70
     1
102
RTVSPropertyOp57
 70
     1
102
RTVSPropertyOp58
 70
     1
102
RTVSPropertyOp59
 70
     1
102
RTVSPropertyOp60
 70
     1
102
RTVSPropertyOp61
 70
     1
102
RTVSPropertyOp62
 70
     1
  0
XRECORD
  5
47D
102
{ACAD_REACTORS
330
47C
102
}
330
47C
100
AcDbXrecord
280
     1
102
RTVSPost2010Prop28
280
     0
102
RTVSPost2010PropOp28
 70
     1
102
RTVSPost2010Prop29
280
     1
102
RTVSPost2010PropOp29
 70
     1
102
RTVSPost2010Prop30
280
     1
102
RTVSPost2010PropOp30
 70
     1
102
RTVSPost2010Prop31
280
     0
102
RTVSPost2010PropOp31
 70
     1
102
RTVSPost2010Prop32
280
     0
102
RTVSPost2010PropOp32
 70
     1
102
RTVSPost2010Prop33
280
     0
102
RTVSPost2010PropOp33
 70
     1
102
RTVSPost2010Prop34
280
     0
102
RTVSPost2010PropOp34
 70
     1
102
RTVSPost2010Prop35
280
     0
102
RTVSPost2010PropOp35
 70
     1
102
RTVSPost2010Prop36
280
     0
102
RTVSPost2010PropOp36
 70
     1
102
RTVSPost2010Prop37
 90
       50
102
RTVSPost2010PropOp37
 70
     1
102
RTVSPost2010Prop38
140
0.0
102
RTVSPost2010PropOp38
 70
     1
102
RTVSPost2010Prop39
140
1.0
102
RTVSPost2010PropOp39
 70
     1
102
RTVSPost2010Prop40
 90
        0
102
RTVSPost2010PropOp40
 70
     1
102
RTVSPost2010Prop41ColorIndex
 90
       18
102
RTVSPost2010Prop41ColorRGB
 90
        0
102
RTVSPost2010PropOp41
 70
     1
102
RTVSPost2010Prop42
 90
       50
102
RTVSPost2010PropOp42
 70
     1
102
RTVSPost2010Prop43
 90
        3
102
RTVSPost2010PropOp43
 70
     1
102
RTVSPost2010Prop44ColorIndex
 90
        5
102
RTVSPost2010Prop44ColorRGB
 90
      255
102
RTVSPost2010PropOp44
 70
     1
102
RTVSPost2010Prop45
280
     0
102
RTVSPost2010PropOp45
 70
     1
102
RTVSPost2010Prop46
 90
       50
102
RTVSPost2010PropOp46
 70
     1
102
RTVSPost2010Prop47
 90
       50
102
RTVSPost2010PropOp47
 70
     1
102
RTVSPost2010Prop48
 90
       50
102
RTVSPost2010PropOp48
 70
     1
102
RTVSPost2010Prop49
280
     0
102
RTVSPost2010PropOp49
 70
     1
102
RTVSPost2010Prop50
 90
       50
102
RTVSPost2010PropOp50
 70
     1
102
RTVSPost2010Prop51ColorIndex
 90
      256
102
RTVSPost2010Prop51ColorRGB
 90
-16777216
102
RTVSPost2010PropOp51
 70
     0
102
RTVSPost2010Prop52
140
1.0
102
RTVSPost2010PropOp52
 70
     0
102
RTVSPost2010Prop53
 90
        2
102
RTVSPost2010PropOp53
 70
     1
102
RTVSPost2010Prop54
  1
strokes_ogs.tif
102
RTVSPost2010PropOp54
 70
     1
102
RTVSPost2010Prop55
280
     0
102
RTVSPost2010PropOp55
 70
     1
102
RTVSPost2010Prop56
140
1.0
102
RTVSPost2010PropOp56
 70
     1
102
RTVSPost2010Prop57
140
1.0
102
RTVSPost2010PropOp57
 70
     1
102
RTVSPropertyOp0
 70
     1
102
RTVSPropertyOp1
 70
     1
102
RTVSPropertyOp2
 70
     1
102
RTVSPropertyOp3
 70
     1
102
RTVSPropertyOp4
 70
     1
102
RTVSPropertyOp5
 70
     1
102
RTVSPropertyOp6
 70
     1
102
RTVSPropertyOp7
 70
     1
102
RTVSPropertyOp8
 70
     1
102
RTVSPropertyOp9
 70
     1
102
RTVSPropertyOp10
 70
     1
102
RTVSPropertyOp11
 70
     1
102
RTVSPropertyOp12
 70
     1
102
RTVSPropertyOp13
 70
     1
102
RTVSPropertyOp14
 70
     1
102
RTVSPropertyOp15
 70
     1
102
RTVSPropertyOp16
 70
     1
102
RTVSPropertyOp17
 70
     1
102
RTVSPropertyOp18
 70
     1
102
RTVSPropertyOp19
 70
     1
102
RTVSPropertyOp20
 70
     1
102
RTVSPropertyOp21
 70
     1
102
RTVSPropertyOp22
 70
     1
102
RTVSPropertyOp23
 70
     1
102
RTVSPropertyOp24
 70
     1
102
RTVSPropertyOp25
 70
     1
102
RTVSPropertyOp26
 70
     1
102
RTVSPropertyOp27
 70
     1
102
RTVSPropertyOp28
 70
     1
102
RTVSPropertyOp29
 70
     1
102
RTVSPropertyOp30
 70
     1
102
RTVSPropertyOp31
 70
     1
102
RTVSPropertyOp32
 70
     1
102
RTVSPropertyOp33
 70
     1
102
RTVSPropertyOp34
 70
     1
102
RTVSPropertyOp35
 70
     1
102
RTVSPropertyOp36
 70
     1
102
RTVSPropertyOp37
 70
     1
102
RTVSPropertyOp38
 70
     1
102
RTVSPropertyOp39
 70
     1
102
RTVSPropertyOp40
 70
     1
102
RTVSPropertyOp41
 70
     1
102
RTVSPropertyOp42
 70
     1
102
RTVSPropertyOp43
 70
     1
102
RTVSPropertyOp44
 70
     1
102
RTVSPropertyOp45
 70
     1
102
RTVSPropertyOp46
 70
     1
102
RTVSPropertyOp47
 70
     1
102
RTVSPropertyOp48
 70
     1
102
RTVSPropertyOp49
 70
     1
102
RTVSPropertyOp50
 70
     1
102
RTVSPropertyOp51
 70
     0
102
RTVSPropertyOp52
 70
     0
102
RTVSPropertyOp53
 70
     1
102
RTVSPropertyOp54
 70
     1
102
RTVSPropertyOp55
 70
     1
102
RTVSPropertyOp56
 70
     1
102
RTVSPropertyOp57
 70
     1
102
RTVSPropertyOp58
 70
     1
102
RTVSPropertyOp59
 70
     1
102
RTVSPropertyOp60
 70
     1
102
RTVSPropertyOp61
 70
     1
102
RTVSPropertyOp62
 70
     1
  0
XRECORD
  5
485
102
{ACAD_REACTORS
330
484
102
}
330
484
100
AcDbXrecord
280
     1
102
RTVSPost2010Prop28
280
     0
102
RTVSPost2010PropOp28
 70
     1
102
RTVSPost2010Prop29
280
     1
102
RTVSPost2010PropOp29
 70
     1
102
RTVSPost2010Prop30
280
     1
102
RTVSPost2010PropOp30
 70
     1
102
RTVSPost2010Prop31
280
     0
102
RTVSPost2010PropOp31
 70
     1
102
RTVSPost2010Prop32
280
     0
102
RTVSPost2010PropOp32
 70
     1
102
RTVSPost2010Prop33
280
     0
102
RTVSPost2010PropOp33
 70
     1
102
RTVSPost2010Prop34
280
     0
102
RTVSPost2010PropOp34
 70
     1
102
RTVSPost2010Prop35
280
     0
102
RTVSPost2010PropOp35
 70
     1
102
RTVSPost2010Prop36
280
     0
102
RTVSPost2010PropOp36
 70
     1
102
RTVSPost2010Prop37
 90
       50
102
RTVSPost2010PropOp37
 70
     1
102
RTVSPost2010Prop38
140
0.0
102
RTVSPost2010PropOp38
 70
     1
102
RTVSPost2010Prop39
140
1.0
102
RTVSPost2010PropOp39
 70
     1
102
RTVSPost2010Prop40
 90
        0
102
RTVSPost2010PropOp40
 70
     1
102
RTVSPost2010Prop41ColorIndex
 90
       18
102
RTVSPost2010Prop41ColorRGB
 90
        0
102
RTVSPost2010PropOp41
 70
     1
102
RTVSPost2010Prop42
 90
       50
102
RTVSPost2010PropOp42
 70
     1
102
RTVSPost2010Prop43
 90
        3
102
RTVSPost2010PropOp43
 70
     1
102
RTVSPost2010Prop44ColorIndex
 90
        5
102
RTVSPost2010Prop44ColorRGB
 90
      255
102
RTVSPost2010PropOp44
 70
     1
102
RTVSPost2010Prop45
280
     0
102
RTVSPost2010PropOp45
 70
     1
102
RTVSPost2010Prop46
 90
       50
102
RTVSPost2010PropOp46
 70
     1
102
RTVSPost2010Prop47
 90
       50
102
RTVSPost2010PropOp47
 70
     1
102
RTVSPost2010Prop48
 90
       50
102
RTVSPost2010PropOp48
 70
     1
102
RTVSPost2010Prop49
280
     0
102
RTVSPost2010PropOp49
 70
     1
102
RTVSPost2010Prop50
 90
       50
102
RTVSPost2010PropOp50
 70
     1
102
RTVSPost2010Prop51ColorIndex
 90
      256
102
RTVSPost2010Prop51ColorRGB
 90
-16777216
102
RTVSPost2010PropOp51
 70
     0
102
RTVSPost2010Prop52
140
1.0
102
RTVSPost2010PropOp52
 70
     0
102
RTVSPost2010Prop53
 90
        2
102
RTVSPost2010PropOp53
 70
     1
102
RTVSPost2010Prop54
  1
strokes_ogs.tif
102
RTVSPost2010PropOp54
 70
     1
102
RTVSPost2010Prop55
280
     0
102
RTVSPost2010PropOp55
 70
     1
102
RTVSPost2010Prop56
140
1.0
102
RTVSPost2010PropOp56
 70
     1
102
RTVSPost2010Prop57
140
1.0
102
RTVSPost2010PropOp57
 70
     1
102
RTVSPropertyOp0
 70
     1
102
RTVSPropertyOp1
 70
     1
102
RTVSPropertyOp2
 70
     1
102
RTVSPropertyOp3
 70
     1
102
RTVSPropertyOp4
 70
     1
102
RTVSPropertyOp5
 70
     1
102
RTVSPropertyOp6
 70
     1
102
RTVSPropertyOp7
 70
     1
102
RTVSPropertyOp8
 70
     1
102
RTVSPropertyOp9
 70
     1
102
RTVSPropertyOp10
 70
     1
102
RTVSPropertyOp11
 70
     1
102
RTVSPropertyOp12
 70
     1
102
RTVSPropertyOp13
 70
     1
102
RTVSPropertyOp14
 70
     1
102
RTVSPropertyOp15
 70
     1
102
RTVSPropertyOp16
 70
     1
102
RTVSPropertyOp17
 70
     1
102
RTVSPropertyOp18
 70
     1
102
RTVSPropertyOp19
 70
     1
102
RTVSPropertyOp20
 70
     1
102
RTVSPropertyOp21
 70
     1
102
RTVSPropertyOp22
 70
     1
102
RTVSPropertyOp23
 70
     1
102
RTVSPropertyOp24
 70
     1
102
RTVSPropertyOp25
 70
     1
102
RTVSPropertyOp26
 70
     1
102
RTVSPropertyOp27
 70
     1
102
RTVSPropertyOp28
 70
     1
102
RTVSPropertyOp29
 70
     1
102
RTVSPropertyOp30
 70
     1
102
RTVSPropertyOp31
 70
     1
102
RTVSPropertyOp32
 70
     1
102
RTVSPropertyOp33
 70
     1
102
RTVSPropertyOp34
 70
     1
102
RTVSPropertyOp35
 70
     1
102
RTVSPropertyOp36
 70
     1
102
RTVSPropertyOp37
 70
     1
102
RTVSPropertyOp38
 70
     1
102
RTVSPropertyOp39
 70
     1
102
RTVSPropertyOp40
 70
     1
102
RTVSPropertyOp41
 70
     1
102
RTVSPropertyOp42
 70
     1
102
RTVSPropertyOp43
 70
     1
102
RTVSPropertyOp44
 70
     1
102
RTVSPropertyOp45
 70
     1
102
RTVSPropertyOp46
 70
     1
102
RTVSPropertyOp47
 70
     1
102
RTVSPropertyOp48
 70
     1
102
RTVSPropertyOp49
 70
     1
102
RTVSPropertyOp50
 70
     1
102
RTVSPropertyOp51
 70
     0
102
RTVSPropertyOp52
 70
     0
102
RTVSPropertyOp53
 70
     1
102
RTVSPropertyOp54
 70
     1
102
RTVSPropertyOp55
 70
     1
102
RTVSPropertyOp56
 70
     1
102
RTVSPropertyOp57
 70
     1
102
RTVSPropertyOp58
 70
     1
102
RTVSPropertyOp59
 70
     1
102
RTVSPropertyOp60
 70
     1
102
RTVSPropertyOp61
 70
     1
102
RTVSPropertyOp62
 70
     1
  0
XRECORD
  5
477
102
{ACAD_REACTORS
330
476
102
}
330
476
100
AcDbXrecord
280
     1
102
RTVSPost2010Prop28
280
     0
102
RTVSPost2010PropOp28
 70
     1
102
RTVSPost2010Prop29
280
     1
102
RTVSPost2010PropOp29
 70
     1
102
RTVSPost2010Prop30
280
     1
102
RTVSPost2010PropOp30
 70
     1
102
RTVSPost2010Prop31
280
     0
102
RTVSPost2010PropOp31
 70
     1
102
RTVSPost2010Prop32
280
     0
102
RTVSPost2010PropOp32
 70
     1
102
RTVSPost2010Prop33
280
     0
102
RTVSPost2010PropOp33
 70
     1
102
RTVSPost2010Prop34
280
     0
102
RTVSPost2010PropOp34
 70
     1
102
RTVSPost2010Prop35
280
     0
102
RTVSPost2010PropOp35
 70
     1
102
RTVSPost2010Prop36
280
     0
102
RTVSPost2010PropOp36
 70
     1
102
RTVSPost2010Prop37
 90
       50
102
RTVSPost2010PropOp37
 70
     1
102
RTVSPost2010Prop38
140
0.0
102
RTVSPost2010PropOp38
 70
     1
102
RTVSPost2010Prop39
140
1.0
102
RTVSPost2010PropOp39
 70
     1
102
RTVSPost2010Prop40
 90
        0
102
RTVSPost2010PropOp40
 70
     1
102
RTVSPost2010Prop41ColorIndex
 90
       18
102
RTVSPost2010Prop41ColorRGB
 90
        0
102
RTVSPost2010PropOp41
 70
     1
102
RTVSPost2010Prop42
 90
       50
102
RTVSPost2010PropOp42
 70
     1
102
RTVSPost2010Prop43
 90
        3
102
RTVSPost2010PropOp43
 70
     1
102
RTVSPost2010Prop44ColorIndex
 90
        5
102
RTVSPost2010Prop44ColorRGB
 90
      255
102
RTVSPost2010PropOp44
 70
     1
102
RTVSPost2010Prop45
280
     0
102
RTVSPost2010PropOp45
 70
     1
102
RTVSPost2010Prop46
 90
       50
102
RTVSPost2010PropOp46
 70
     1
102
RTVSPost2010Prop47
 90
       50
102
RTVSPost2010PropOp47
 70
     1
102
RTVSPost2010Prop48
 90
       50
102
RTVSPost2010PropOp48
 70
     1
102
RTVSPost2010Prop49
280
     0
102
RTVSPost2010PropOp49
 70
     1
102
RTVSPost2010Prop50
 90
       50
102
RTVSPost2010PropOp50
 70
     1
102
RTVSPost2010Prop51ColorIndex
 90
      256
102
RTVSPost2010Prop51ColorRGB
 90
-16777216
102
RTVSPost2010PropOp51
 70
     0
102
RTVSPost2010Prop52
140
1.0
102
RTVSPost2010PropOp52
 70
     0
102
RTVSPost2010Prop53
 90
        2
102
RTVSPost2010PropOp53
 70
     1
102
RTVSPost2010Prop54
  1
strokes_ogs.tif
102
RTVSPost2010PropOp54
 70
     1
102
RTVSPost2010Prop55
280
     0
102
RTVSPost2010PropOp55
 70
     1
102
RTVSPost2010Prop56
140
1.0
102
RTVSPost2010PropOp56
 70
     1
102
RTVSPost2010Prop57
140
1.0
102
RTVSPost2010PropOp57
 70
     1
102
RTVSPropertyOp0
 70
     1
102
RTVSPropertyOp1
 70
     1
102
RTVSPropertyOp2
 70
     1
102
RTVSPropertyOp3
 70
     1
102
RTVSPropertyOp4
 70
     1
102
RTVSPropertyOp5
 70
     1
102
RTVSPropertyOp6
 70
     1
102
RTVSPropertyOp7
 70
     1
102
RTVSPropertyOp8
 70
     1
102
RTVSPropertyOp9
 70
     1
102
RTVSPropertyOp10
 70
     1
102
RTVSPropertyOp11
 70
     1
102
RTVSPropertyOp12
 70
     1
102
RTVSPropertyOp13
 70
     1
102
RTVSPropertyOp14
 70
     1
102
RTVSPropertyOp15
 70
     1
102
RTVSPropertyOp16
 70
     1
102
RTVSPropertyOp17
 70
     1
102
RTVSPropertyOp18
 70
     1
102
RTVSPropertyOp19
 70
     1
102
RTVSPropertyOp20
 70
     1
102
RTVSPropertyOp21
 70
     1
102
RTVSPropertyOp22
 70
     1
102
RTVSPropertyOp23
 70
     1
102
RTVSPropertyOp24
 70
     1
102
RTVSPropertyOp25
 70
     1
102
RTVSPropertyOp26
 70
     1
102
RTVSPropertyOp27
 70
     1
102
RTVSPropertyOp28
 70
     1
102
RTVSPropertyOp29
 70
     1
102
RTVSPropertyOp30
 70
     1
102
RTVSPropertyOp31
 70
     1
102
RTVSPropertyOp32
 70
     1
102
RTVSPropertyOp33
 70
     1
102
RTVSPropertyOp34
 70
     1
102
RTVSPropertyOp35
 70
     1
102
RTVSPropertyOp36
 70
     1
102
RTVSPropertyOp37
 70
     1
102
RTVSPropertyOp38
 70
     1
102
RTVSPropertyOp39
 70
     1
102
RTVSPropertyOp40
 70
     1
102
RTVSPropertyOp41
 70
     1
102
RTVSPropertyOp42
 70
     1
102
RTVSPropertyOp43
 70
     1
102
RTVSPropertyOp44
 70
     1
102
RTVSPropertyOp45
 70
     1
102
RTVSPropertyOp46
 70
     1
102
RTVSPropertyOp47
 70
     1
102
RTVSPropertyOp48
 70
     1
102
RTVSPropertyOp49
 70
     1
102
RTVSPropertyOp50
 70
     1
102
RTVSPropertyOp51
 70
     0
102
RTVSPropertyOp52
 70
     0
102
RTVSPropertyOp53
 70
     1
102
RTVSPropertyOp54
 70
     1
102
RTVSPropertyOp55
 70
     1
102
RTVSPropertyOp56
 70
     1
102
RTVSPropertyOp57
 70
     1
102
RTVSPropertyOp58
 70
     1
102
RTVSPropertyOp59
 70
     1
102
RTVSPropertyOp60
 70
     1
102
RTVSPropertyOp61
 70
     1
102
RTVSPropertyOp62
 70
     1
  0
XRECORD
  5
47B
102
{ACAD_REACTORS
330
47A
102
}
330
47A
100
AcDbXrecord
280
     1
102
RTVSPost2010Prop28
280
     0
102
RTVSPost2010PropOp28
 70
     1
102
RTVSPost2010Prop29
280
     1
102
RTVSPost2010PropOp29
 70
     1
102
RTVSPost2010Prop30
280
     1
102
RTVSPost2010PropOp30
 70
     1
102
RTVSPost2010Prop31
280
     0
102
RTVSPost2010PropOp31
 70
     1
102
RTVSPost2010Prop32
280
     0
102
RTVSPost2010PropOp32
 70
     1
102
RTVSPost2010Prop33
280
     0
102
RTVSPost2010PropOp33
 70
     1
102
RTVSPost2010Prop34
280
     0
102
RTVSPost2010PropOp34
 70
     1
102
RTVSPost2010Prop35
280
     0
102
RTVSPost2010PropOp35
 70
     1
102
RTVSPost2010Prop36
280
     0
102
RTVSPost2010PropOp36
 70
     1
102
RTVSPost2010Prop37
 90
       50
102
RTVSPost2010PropOp37
 70
     1
102
RTVSPost2010Prop38
140
0.0
102
RTVSPost2010PropOp38
 70
     1
102
RTVSPost2010Prop39
140
1.0
102
RTVSPost2010PropOp39
 70
     1
102
RTVSPost2010Prop40
 90
        0
102
RTVSPost2010PropOp40
 70
     1
102
RTVSPost2010Prop41ColorIndex
 90
       18
102
RTVSPost2010Prop41ColorRGB
 90
        0
102
RTVSPost2010PropOp41
 70
     1
102
RTVSPost2010Prop42
 90
       50
102
RTVSPost2010PropOp42
 70
     1
102
RTVSPost2010Prop43
 90
        3
102
RTVSPost2010PropOp43
 70
     1
102
RTVSPost2010Prop44ColorIndex
 90
        5
102
RTVSPost2010Prop44ColorRGB
 90
      255
102
RTVSPost2010PropOp44
 70
     1
102
RTVSPost2010Prop45
280
     0
102
RTVSPost2010PropOp45
 70
     1
102
RTVSPost2010Prop46
 90
       50
102
RTVSPost2010PropOp46
 70
     1
102
RTVSPost2010Prop47
 90
       50
102
RTVSPost2010PropOp47
 70
     1
102
RTVSPost2010Prop48
 90
       50
102
RTVSPost2010PropOp48
 70
     1
102
RTVSPost2010Prop49
280
     0
102
RTVSPost2010PropOp49
 70
     1
102
RTVSPost2010Prop50
 90
       50
102
RTVSPost2010PropOp50
 70
     1
102
RTVSPost2010Prop51ColorIndex
 90
      256
102
RTVSPost2010Prop51ColorRGB
 90
-16777216
102
RTVSPost2010PropOp51
 70
     0
102
RTVSPost2010Prop52
140
1.0
102
RTVSPost2010PropOp52
 70
     0
102
RTVSPost2010Prop53
 90
        2
102
RTVSPost2010PropOp53
 70
     1
102
RTVSPost2010Prop54
  1
strokes_ogs.tif
102
RTVSPost2010PropOp54
 70
     1
102
RTVSPost2010Prop55
280
     0
102
RTVSPost2010PropOp55
 70
     1
102
RTVSPost2010Prop56
140
1.0
102
RTVSPost2010PropOp56
 70
     1
102
RTVSPost2010Prop57
140
1.0
102
RTVSPost2010PropOp57
 70
     1
102
RTVSPropertyOp0
 70
     1
102
RTVSPropertyOp1
 70
     1
102
RTVSPropertyOp2
 70
     1
102
RTVSPropertyOp3
 70
     1
102
RTVSPropertyOp4
 70
     1
102
RTVSPropertyOp5
 70
     1
102
RTVSPropertyOp6
 70
     1
102
RTVSPropertyOp7
 70
     1
102
RTVSPropertyOp8
 70
     1
102
RTVSPropertyOp9
 70
     1
102
RTVSPropertyOp10
 70
     1
102
RTVSPropertyOp11
 70
     1
102
RTVSPropertyOp12
 70
     1
102
RTVSPropertyOp13
 70
     1
102
RTVSPropertyOp14
 70
     1
102
RTVSPropertyOp15
 70
     1
102
RTVSPropertyOp16
 70
     1
102
RTVSPropertyOp17
 70
     1
102
RTVSPropertyOp18
 70
     1
102
RTVSPropertyOp19
 70
     1
102
RTVSPropertyOp20
 70
     1
102
RTVSPropertyOp21
 70
     1
102
RTVSPropertyOp22
 70
     1
102
RTVSPropertyOp23
 70
     1
102
RTVSPropertyOp24
 70
     1
102
RTVSPropertyOp25
 70
     1
102
RTVSPropertyOp26
 70
     1
102
RTVSPropertyOp27
 70
     1
102
RTVSPropertyOp28
 70
     1
102
RTVSPropertyOp29
 70
     1
102
RTVSPropertyOp30
 70
     1
102
RTVSPropertyOp31
 70
     1
102
RTVSPropertyOp32
 70
     1
102
RTVSPropertyOp33
 70
     1
102
RTVSPropertyOp34
 70
     1
102
RTVSPropertyOp35
 70
     1
102
RTVSPropertyOp36
 70
     1
102
RTVSPropertyOp37
 70
     1
102
RTVSPropertyOp38
 70
     1
102
RTVSPropertyOp39
 70
     1
102
RTVSPropertyOp40
 70
     1
102
RTVSPropertyOp41
 70
     1
102
RTVSPropertyOp42
 70
     1
102
RTVSPropertyOp43
 70
     1
102
RTVSPropertyOp44
 70
     1
102
RTVSPropertyOp45
 70
     1
102
RTVSPropertyOp46
 70
     1
102
RTVSPropertyOp47
 70
     1
102
RTVSPropertyOp48
 70
     1
102
RTVSPropertyOp49
 70
     1
102
RTVSPropertyOp50
 70
     1
102
RTVSPropertyOp51
 70
     0
102
RTVSPropertyOp52
 70
     0
102
RTVSPropertyOp53
 70
     1
102
RTVSPropertyOp54
 70
     1
102
RTVSPropertyOp55
 70
     1
102
RTVSPropertyOp56
 70
     1
102
RTVSPropertyOp57
 70
     1
102
RTVSPropertyOp58
 70
     1
102
RTVSPropertyOp59
 70
     1
102
RTVSPropertyOp60
 70
     1
102
RTVSPropertyOp61
 70
     1
102
RTVSPropertyOp62
 70
     1
  0
XRECORD
  5
495
102
{ACAD_REACTORS
330
494
102
}
330
494
100
AcDbXrecord
280
     1
102
RTVSPost2010Prop28
280
     0
102
RTVSPost2010PropOp28
 70
     1
102
RTVSPost2010Prop29
280
     1
102
RTVSPost2010PropOp29
 70
     1
102
RTVSPost2010Prop30
280
     1
102
RTVSPost2010PropOp30
 70
     1
102
RTVSPost2010Prop31
280
     0
102
RTVSPost2010PropOp31
 70
     1
102
RTVSPost2010Prop32
280
     0
102
RTVSPost2010PropOp32
 70
     1
102
RTVSPost2010Prop33
280
     0
102
RTVSPost2010PropOp33
 70
     1
102
RTVSPost2010Prop34
280
     0
102
RTVSPost2010PropOp34
 70
     1
102
RTVSPost2010Prop35
280
     0
102
RTVSPost2010PropOp35
 70
     1
102
RTVSPost2010Prop36
280
     0
102
RTVSPost2010PropOp36
 70
     1
102
RTVSPost2010Prop37
 90
       50
102
RTVSPost2010PropOp37
 70
     0
102
RTVSPost2010Prop38
140
0.0
102
RTVSPost2010PropOp38
 70
     0
102
RTVSPost2010Prop39
140
1.0
102
RTVSPost2010PropOp39
 70
     0
102
RTVSPost2010Prop40
 90
        0
102
RTVSPost2010PropOp40
 70
     0
102
RTVSPost2010Prop41ColorIndex
 90
       18
102
RTVSPost2010Prop41ColorRGB
 90
        0
102
RTVSPost2010PropOp41
 70
     0
102
RTVSPost2010Prop42
 90
       50
102
RTVSPost2010PropOp42
 70
     0
102
RTVSPost2010Prop43
 90
        3
102
RTVSPost2010PropOp43
 70
     0
102
RTVSPost2010Prop44ColorIndex
 90
        5
102
RTVSPost2010Prop44ColorRGB
 90
      255
102
RTVSPost2010PropOp44
 70
     0
102
RTVSPost2010Prop45
280
     0
102
RTVSPost2010PropOp45
 70
     1
102
RTVSPost2010Prop46
 90
       50
102
RTVSPost2010PropOp46
 70
     0
102
RTVSPost2010Prop47
 90
       50
102
RTVSPost2010PropOp47
 70
     0
102
RTVSPost2010Prop48
 90
       50
102
RTVSPost2010PropOp48
 70
     0
102
RTVSPost2010Prop49
280
     0
102
RTVSPost2010PropOp49
 70
     1
102
RTVSPost2010Prop50
 90
       50
102
RTVSPost2010PropOp50
 70
     0
102
RTVSPost2010Prop51ColorIndex
 90
      256
102
RTVSPost2010Prop51ColorRGB
 90
-16777216
102
RTVSPost2010PropOp51
 70
     0
102
RTVSPost2010Prop52
140
1.0
102
RTVSPost2010PropOp52
 70
     0
102
RTVSPost2010Prop53
 90
        2
102
RTVSPost2010PropOp53
 70
     0
102
RTVSPost2010Prop54
  1
strokes_ogs.tif
102
RTVSPost2010PropOp54
 70
     0
102
RTVSPost2010Prop55
280
     0
102
RTVSPost2010PropOp55
 70
     1
102
RTVSPost2010Prop56
140
1.0
102
RTVSPost2010PropOp56
 70
     0
102
RTVSPost2010Prop57
140
1.0
102
RTVSPost2010PropOp57
 70
     0
102
RTVSPropertyOp0
 70
     0
102
RTVSPropertyOp1
 70
     0
102
RTVSPropertyOp2
 70
     0
102
RTVSPropertyOp3
 70
     0
102
RTVSPropertyOp4
 70
     0
102
RTVSPropertyOp5
 70
     0
102
RTVSPropertyOp6
 70
     0
102
RTVSPropertyOp7
 70
     0
102
RTVSPropertyOp8
 70
     0
102
RTVSPropertyOp9
 70
     0
102
RTVSPropertyOp10
 70
     0
102
RTVSPropertyOp11
 70
     0
102
RTVSPropertyOp12
 70
     0
102
RTVSPropertyOp13
 70
     0
102
RTVSPropertyOp14
 70
     2
102
RTVSPropertyOp15
 70
     0
102
RTVSPropertyOp16
 70
     0
102
RTVSPropertyOp17
 70
     0
102
RTVSPropertyOp18
 70
     0
102
RTVSPropertyOp19
 70
     0
102
RTVSPropertyOp20
 70
     0
102
RTVSPropertyOp21
 70
     0
102
RTVSPropertyOp22
 70
     0
102
RTVSPropertyOp23
 70
     0
102
RTVSPropertyOp24
 70
     0
102
RTVSPropertyOp25
 70
     0
102
RTVSPropertyOp26
 70
     0
102
RTVSPropertyOp27
 70
     0
102
RTVSPropertyOp28
 70
     1
102
RTVSPropertyOp29
 70
     1
102
RTVSPropertyOp30
 70
     1
102
RTVSPropertyOp31
 70
     1
102
RTVSPropertyOp32
 70
     1
102
RTVSPropertyOp33
 70
     1
102
RTVSPropertyOp34
 70
     1
102
RTVSPropertyOp35
 70
     1
102
RTVSPropertyOp36
 70
     1
102
RTVSPropertyOp37
 70
     0
102
RTVSPropertyOp38
 70
     0
102
RTVSPropertyOp39
 70
     0
102
RTVSPropertyOp40
 70
     0
102
RTVSPropertyOp41
 70
     0
102
RTVSPropertyOp42
 70
     0
102
RTVSPropertyOp43
 70
     0
102
RTVSPropertyOp44
 70
     0
102
RTVSPropertyOp45
 70
     1
102
RTVSPropertyOp46
 70
     0
102
RTVSPropertyOp47
 70
     0
102
RTVSPropertyOp48
 70
     0
102
RTVSPropertyOp49
 70
     1
102
RTVSPropertyOp50
 70
     0
102
RTVSPropertyOp51
 70
     0
102
RTVSPropertyOp52
 70
     0
102
RTVSPropertyOp53
 70
     0
102
RTVSPropertyOp54
 70
     0
102
RTVSPropertyOp55
 70
     1
102
RTVSPropertyOp56
 70
     0
102
RTVSPropertyOp57
 70
     0
102
RTVSPropertyOp58
 70
     0
102
RTVSPropertyOp59
 70
     0
102
RTVSPropertyOp60
 70
     0
102
RTVSPropertyOp61
 70
     0
102
RTVSPropertyOp62
 70
     0
  0
XRECORD
  5
483
102
{ACAD_REACTORS
330
482
102
}
330
482
100
AcDbXrecord
280
     1
102
RTVSPost2010Prop28
280
     0
102
RTVSPost2010PropOp28
 70
     1
102
RTVSPost2010Prop29
280
     1
102
RTVSPost2010PropOp29
 70
     1
102
RTVSPost2010Prop30
280
     1
102
RTVSPost2010PropOp30
 70
     1
102
RTVSPost2010Prop31
280
     0
102
RTVSPost2010PropOp31
 70
     1
102
RTVSPost2010Prop32
280
     0
102
RTVSPost2010PropOp32
 70
     1
102
RTVSPost2010Prop33
280
     0
102
RTVSPost2010PropOp33
 70
     1
102
RTVSPost2010Prop34
280
     0
102
RTVSPost2010PropOp34
 70
     1
102
RTVSPost2010Prop35
280
     0
102
RTVSPost2010PropOp35
 70
     1
102
RTVSPost2010Prop36
280
     0
102
RTVSPost2010PropOp36
 70
     1
102
RTVSPost2010Prop37
 90
       50
102
RTVSPost2010PropOp37
 70
     1
102
RTVSPost2010Prop38
140
0.0
102
RTVSPost2010PropOp38
 70
     1
102
RTVSPost2010Prop39
140
1.0
102
RTVSPost2010PropOp39
 70
     1
102
RTVSPost2010Prop40
 90
        0
102
RTVSPost2010PropOp40
 70
     1
102
RTVSPost2010Prop41ColorIndex
 90
       18
102
RTVSPost2010Prop41ColorRGB
 90
        0
102
RTVSPost2010PropOp41
 70
     1
102
RTVSPost2010Prop42
 90
       50
102
RTVSPost2010PropOp42
 70
     1
102
RTVSPost2010Prop43
 90
        3
102
RTVSPost2010PropOp43
 70
     1
102
RTVSPost2010Prop44ColorIndex
 90
        5
102
RTVSPost2010Prop44ColorRGB
 90
      255
102
RTVSPost2010PropOp44
 70
     1
102
RTVSPost2010Prop45
280
     0
102
RTVSPost2010PropOp45
 70
     1
102
RTVSPost2010Prop46
 90
       50
102
RTVSPost2010PropOp46
 70
     1
102
RTVSPost2010Prop47
 90
       50
102
RTVSPost2010PropOp47
 70
     1
102
RTVSPost2010Prop48
 90
       50
102
RTVSPost2010PropOp48
 70
     1
102
RTVSPost2010Prop49
280
     0
102
RTVSPost2010PropOp49
 70
     1
102
RTVSPost2010Prop50
 90
       50
102
RTVSPost2010PropOp50
 70
     1
102
RTVSPost2010Prop51ColorIndex
 90
      256
102
RTVSPost2010Prop51ColorRGB
 90
-16777216
102
RTVSPost2010PropOp51
 70
     0
102
RTVSPost2010Prop52
140
1.0
102
RTVSPost2010PropOp52
 70
     0
102
RTVSPost2010Prop53
 90
        2
102
RTVSPost2010PropOp53
 70
     1
102
RTVSPost2010Prop54
  1
strokes_ogs.tif
102
RTVSPost2010PropOp54
 70
     1
102
RTVSPost2010Prop55
280
     0
102
RTVSPost2010PropOp55
 70
     1
102
RTVSPost2010Prop56
140
1.0
102
RTVSPost2010PropOp56
 70
     1
102
RTVSPost2010Prop57
140
1.0
102
RTVSPost2010PropOp57
 70
     1
102
RTVSPropertyOp0
 70
     1
102
RTVSPropertyOp1
 70
     1
102
RTVSPropertyOp2
 70
     1
102
RTVSPropertyOp3
 70
     1
102
RTVSPropertyOp4
 70
     1
102
RTVSPropertyOp5
 70
     1
102
RTVSPropertyOp6
 70
     1
102
RTVSPropertyOp7
 70
     1
102
RTVSPropertyOp8
 70
     1
102
RTVSPropertyOp9
 70
     1
102
RTVSPropertyOp10
 70
     1
102
RTVSPropertyOp11
 70
     1
102
RTVSPropertyOp12
 70
     1
102
RTVSPropertyOp13
 70
     1
102
RTVSPropertyOp14
 70
     1
102
RTVSPropertyOp15
 70
     1
102
RTVSPropertyOp16
 70
     1
102
RTVSPropertyOp17
 70
     1
102
RTVSPropertyOp18
 70
     1
102
RTVSPropertyOp19
 70
     1
102
RTVSPropertyOp20
 70
     1
102
RTVSPropertyOp21
 70
     1
102
RTVSPropertyOp22
 70
     1
102
RTVSPropertyOp23
 70
     1
102
RTVSPropertyOp24
 70
     1
102
RTVSPropertyOp25
 70
     1
102
RTVSPropertyOp26
 70
     1
102
RTVSPropertyOp27
 70
     1
102
RTVSPropertyOp28
 70
     1
102
RTVSPropertyOp29
 70
     1
102
RTVSPropertyOp30
 70
     1
102
RTVSPropertyOp31
 70
     1
102
RTVSPropertyOp32
 70
     1
102
RTVSPropertyOp33
 70
     1
102
RTVSPropertyOp34
 70
     1
102
RTVSPropertyOp35
 70
     1
102
RTVSPropertyOp36
 70
     1
102
RTVSPropertyOp37
 70
     1
102
RTVSPropertyOp38
 70
     1
102
RTVSPropertyOp39
 70
     1
102
RTVSPropertyOp40
 70
     1
102
RTVSPropertyOp41
 70
     1
102
RTVSPropertyOp42
 70
     1
102
RTVSPropertyOp43
 70
     1
102
RTVSPropertyOp44
 70
     1
102
RTVSPropertyOp45
 70
     1
102
RTVSPropertyOp46
 70
     1
102
RTVSPropertyOp47
 70
     1
102
RTVSPropertyOp48
 70
     1
102
RTVSPropertyOp49
 70
     1
102
RTVSPropertyOp50
 70
     1
102
RTVSPropertyOp51
 70
     0
102
RTVSPropertyOp52
 70
     0
102
RTVSPropertyOp53
 70
     1
102
RTVSPropertyOp54
 70
     1
102
RTVSPropertyOp55
 70
     1
102
RTVSPropertyOp56
 70
     1
102
RTVSPropertyOp57
 70
     1
102
RTVSPropertyOp58
 70
     1
102
RTVSPropertyOp59
 70
     1
102
RTVSPropertyOp60
 70
     1
102
RTVSPropertyOp61
 70
     1
102
RTVSPropertyOp62
 70
     1
  0
XRECORD
  5
467
102
{ACAD_REACTORS
330
466
102
}
330
466
100
AcDbXrecord
280
     1
102
RTVSPost2010Prop28
280
     0
102
RTVSPost2010PropOp28
 70
     1
102
RTVSPost2010Prop29
280
     1
102
RTVSPost2010PropOp29
 70
     1
102
RTVSPost2010Prop30
280
     1
102
RTVSPost2010PropOp30
 70
     1
102
RTVSPost2010Prop31
280
     0
102
RTVSPost2010PropOp31
 70
     1
102
RTVSPost2010Prop32
280
     0
102
RTVSPost2010PropOp32
 70
     1
102
RTVSPost2010Prop33
280
     0
102
RTVSPost2010PropOp33
 70
     1
102
RTVSPost2010Prop34
280
     0
102
RTVSPost2010PropOp34
 70
     1
102
RTVSPost2010Prop35
280
     0
102
RTVSPost2010PropOp35
 70
     1
102
RTVSPost2010Prop36
280
     0
102
RTVSPost2010PropOp36
 70
     1
102
RTVSPost2010Prop37
 90
       50
102
RTVSPost2010PropOp37
 70
     1
102
RTVSPost2010Prop38
140
0.0
102
RTVSPost2010PropOp38
 70
     1
102
RTVSPost2010Prop39
140
1.0
102
RTVSPost2010PropOp39
 70
     1
102
RTVSPost2010Prop40
 90
        0
102
RTVSPost2010PropOp40
 70
     1
102
RTVSPost2010Prop41ColorIndex
 90
       18
102
RTVSPost2010Prop41ColorRGB
 90
        0
102
RTVSPost2010PropOp41
 70
     1
102
RTVSPost2010Prop42
 90
       50
102
RTVSPost2010PropOp42
 70
     1
102
RTVSPost2010Prop43
 90
        3
102
RTVSPost2010PropOp43
 70
     1
102
RTVSPost2010Prop44ColorIndex
 90
        5
102
RTVSPost2010Prop44ColorRGB
 90
      255
102
RTVSPost2010PropOp44
 70
     1
102
RTVSPost2010Prop45
280
     0
102
RTVSPost2010PropOp45
 70
     1
102
RTVSPost2010Prop46
 90
       50
102
RTVSPost2010PropOp46
 70
     1
102
RTVSPost2010Prop47
 90
       50
102
RTVSPost2010PropOp47
 70
     1
102
RTVSPost2010Prop48
 90
       50
102
RTVSPost2010PropOp48
 70
     1
102
RTVSPost2010Prop49
280
     0
102
RTVSPost2010PropOp49
 70
     1
102
RTVSPost2010Prop50
 90
       50
102
RTVSPost2010PropOp50
 70
     1
102
RTVSPost2010Prop51ColorIndex
 90
      256
102
RTVSPost2010Prop51ColorRGB
 90
-16777216
102
RTVSPost2010PropOp51
 70
     0
102
RTVSPost2010Prop52
140
1.0
102
RTVSPost2010PropOp52
 70
     0
102
RTVSPost2010Prop53
 90
        2
102
RTVSPost2010PropOp53
 70
     1
102
RTVSPost2010Prop54
  1
strokes_ogs.tif
102
RTVSPost2010PropOp54
 70
     1
102
RTVSPost2010Prop55
280
     0
102
RTVSPost2010PropOp55
 70
     1
102
RTVSPost2010Prop56
140
1.0
102
RTVSPost2010PropOp56
 70
     1
102
RTVSPost2010Prop57
140
1.0
102
RTVSPost2010PropOp57
 70
     1
102
RTVSPropertyOp0
 70
     1
102
RTVSPropertyOp1
 70
     1
102
RTVSPropertyOp2
 70
     1
102
RTVSPropertyOp3
 70
     1
102
RTVSPropertyOp4
 70
     1
102
RTVSPropertyOp5
 70
     1
102
RTVSPropertyOp6
 70
     1
102
RTVSPropertyOp7
 70
     1
102
RTVSPropertyOp8
 70
     1
102
RTVSPropertyOp9
 70
     1
102
RTVSPropertyOp10
 70
     1
102
RTVSPropertyOp11
 70
     1
102
RTVSPropertyOp12
 70
     1
102
RTVSPropertyOp13
 70
     1
102
RTVSPropertyOp14
 70
     1
102
RTVSPropertyOp15
 70
     1
102
RTVSPropertyOp16
 70
     1
102
RTVSPropertyOp17
 70
     1
102
RTVSPropertyOp18
 70
     1
102
RTVSPropertyOp19
 70
     1
102
RTVSPropertyOp20
 70
     1
102
RTVSPropertyOp21
 70
     1
102
RTVSPropertyOp22
 70
     1
102
RTVSPropertyOp23
 70
     1
102
RTVSPropertyOp24
 70
     1
102
RTVSPropertyOp25
 70
     1
102
RTVSPropertyOp26
 70
     1
102
RTVSPropertyOp27
 70
     1
102
RTVSPropertyOp28
 70
     1
102
RTVSPropertyOp29
 70
     1
102
RTVSPropertyOp30
 70
     1
102
RTVSPropertyOp31
 70
     1
102
RTVSPropertyOp32
 70
     1
102
RTVSPropertyOp33
 70
     1
102
RTVSPropertyOp34
 70
     1
102
RTVSPropertyOp35
 70
     1
102
RTVSPropertyOp36
 70
     1
102
RTVSPropertyOp37
 70
     1
102
RTVSPropertyOp38
 70
     1
102
RTVSPropertyOp39
 70
     1
102
RTVSPropertyOp40
 70
     1
102
RTVSPropertyOp41
 70
     1
102
RTVSPropertyOp42
 70
     1
102
RTVSPropertyOp43
 70
     1
102
RTVSPropertyOp44
 70
     1
102
RTVSPropertyOp45
 70
     1
102
RTVSPropertyOp46
 70
     1
102
RTVSPropertyOp47
 70
     1
102
RTVSPropertyOp48
 70
     1
102
RTVSPropertyOp49
 70
     1
102
RTVSPropertyOp50
 70
     1
102
RTVSPropertyOp51
 70
     0
102
RTVSPropertyOp52
 70
     0
102
RTVSPropertyOp53
 70
     1
102
RTVSPropertyOp54
 70
     1
102
RTVSPropertyOp55
 70
     1
102
RTVSPropertyOp56
 70
     1
102
RTVSPropertyOp57
 70
     1
102
RTVSPropertyOp58
 70
     1
102
RTVSPropertyOp59
 70
     1
102
RTVSPropertyOp60
 70
     1
102
RTVSPropertyOp61
 70
     1
102
RTVSPropertyOp62
 70
     1
  0
XRECORD
  5
469
102
{ACAD_REACTORS
330
468
102
}
330
468
100
AcDbXrecord
280
     1
102
RTVSPost2010Prop28
280
     0
102
RTVSPost2010PropOp28
 70
     1
102
RTVSPost2010Prop29
280
     1
102
RTVSPost2010PropOp29
 70
     1
102
RTVSPost2010Prop30
280
     1
102
RTVSPost2010PropOp30
 70
     1
102
RTVSPost2010Prop31
280
     0
102
RTVSPost2010PropOp31
 70
     1
102
RTVSPost2010Prop32
280
     0
102
RTVSPost2010PropOp32
 70
     1
102
RTVSPost2010Prop33
280
     0
102
RTVSPost2010PropOp33
 70
     1
102
RTVSPost2010Prop34
280
     0
102
RTVSPost2010PropOp34
 70
     1
102
RTVSPost2010Prop35
280
     0
102
RTVSPost2010PropOp35
 70
     1
102
RTVSPost2010Prop36
280
     0
102
RTVSPost2010PropOp36
 70
     1
102
RTVSPost2010Prop37
 90
       50
102
RTVSPost2010PropOp37
 70
     1
102
RTVSPost2010Prop38
140
0.0
102
RTVSPost2010PropOp38
 70
     1
102
RTVSPost2010Prop39
140
1.0
102
RTVSPost2010PropOp39
 70
     1
102
RTVSPost2010Prop40
 90
        0
102
RTVSPost2010PropOp40
 70
     1
102
RTVSPost2010Prop41ColorIndex
 90
       18
102
RTVSPost2010Prop41ColorRGB
 90
        0
102
RTVSPost2010PropOp41
 70
     1
102
RTVSPost2010Prop42
 90
       50
102
RTVSPost2010PropOp42
 70
     1
102
RTVSPost2010Prop43
 90
        3
102
RTVSPost2010PropOp43
 70
     1
102
RTVSPost2010Prop44ColorIndex
 90
        5
102
RTVSPost2010Prop44ColorRGB
 90
      255
102
RTVSPost2010PropOp44
 70
     1
102
RTVSPost2010Prop45
280
     0
102
RTVSPost2010PropOp45
 70
     1
102
RTVSPost2010Prop46
 90
       50
102
RTVSPost2010PropOp46
 70
     1
102
RTVSPost2010Prop47
 90
       50
102
RTVSPost2010PropOp47
 70
     1
102
RTVSPost2010Prop48
 90
       50
102
RTVSPost2010PropOp48
 70
     1
102
RTVSPost2010Prop49
280
     0
102
RTVSPost2010PropOp49
 70
     1
102
RTVSPost2010Prop50
 90
       50
102
RTVSPost2010PropOp50
 70
     1
102
RTVSPost2010Prop51ColorIndex
 90
      256
102
RTVSPost2010Prop51ColorRGB
 90
-16777216
102
RTVSPost2010PropOp51
 70
     0
102
RTVSPost2010Prop52
140
1.0
102
RTVSPost2010PropOp52
 70
     0
102
RTVSPost2010Prop53
 90
        2
102
RTVSPost2010PropOp53
 70
     1
102
RTVSPost2010Prop54
  1
strokes_ogs.tif
102
RTVSPost2010PropOp54
 70
     1
102
RTVSPost2010Prop55
280
     0
102
RTVSPost2010PropOp55
 70
     1
102
RTVSPost2010Prop56
140
1.0
102
RTVSPost2010PropOp56
 70
     1
102
RTVSPost2010Prop57
140
1.0
102
RTVSPost2010PropOp57
 70
     1
102
RTVSPropertyOp0
 70
     1
102
RTVSPropertyOp1
 70
     1
102
RTVSPropertyOp2
 70
     1
102
RTVSPropertyOp3
 70
     1
102
RTVSPropertyOp4
 70
     1
102
RTVSPropertyOp5
 70
     1
102
RTVSPropertyOp6
 70
     1
102
RTVSPropertyOp7
 70
     1
102
RTVSPropertyOp8
 70
     1
102
RTVSPropertyOp9
 70
     1
102
RTVSPropertyOp10
 70
     1
102
RTVSPropertyOp11
 70
     1
102
RTVSPropertyOp12
 70
     1
102
RTVSPropertyOp13
 70
     1
102
RTVSPropertyOp14
 70
     1
102
RTVSPropertyOp15
 70
     1
102
RTVSPropertyOp16
 70
     1
102
RTVSPropertyOp17
 70
     1
102
RTVSPropertyOp18
 70
     1
102
RTVSPropertyOp19
 70
     1
102
RTVSPropertyOp20
 70
     1
102
RTVSPropertyOp21
 70
     1
102
RTVSPropertyOp22
 70
     1
102
RTVSPropertyOp23
 70
     1
102
RTVSPropertyOp24
 70
     1
102
RTVSPropertyOp25
 70
     1
102
RTVSPropertyOp26
 70
     1
102
RTVSPropertyOp27
 70
     1
102
RTVSPropertyOp28
 70
     1
102
RTVSPropertyOp29
 70
     1
102
RTVSPropertyOp30
 70
     1
102
RTVSPropertyOp31
 70
     1
102
RTVSPropertyOp32
 70
     1
102
RTVSPropertyOp33
 70
     1
102
RTVSPropertyOp34
 70
     1
102
RTVSPropertyOp35
 70
     1
102
RTVSPropertyOp36
 70
     1
102
RTVSPropertyOp37
 70
     1
102
RTVSPropertyOp38
 70
     1
102
RTVSPropertyOp39
 70
     1
102
RTVSPropertyOp40
 70
     1
102
RTVSPropertyOp41
 70
     1
102
RTVSPropertyOp42
 70
     1
102
RTVSPropertyOp43
 70
     1
102
RTVSPropertyOp44
 70
     1
102
RTVSPropertyOp45
 70
     1
102
RTVSPropertyOp46
 70
     1
102
RTVSPropertyOp47
 70
     1
102
RTVSPropertyOp48
 70
     1
102
RTVSPropertyOp49
 70
     1
102
RTVSPropertyOp50
 70
     1
102
RTVSPropertyOp51
 70
     0
102
RTVSPropertyOp52
 70
     0
102
RTVSPropertyOp53
 70
     1
102
RTVSPropertyOp54
 70
     1
102
RTVSPropertyOp55
 70
     1
102
RTVSPropertyOp56
 70
     1
102
RTVSPropertyOp57
 70
     1
102
RTVSPropertyOp58
 70
     1
102
RTVSPropertyOp59
 70
     1
102
RTVSPropertyOp60
 70
     1
102
RTVSPropertyOp61
 70
     1
102
RTVSPropertyOp62
 70
     1
  0
XRECORD
  5
46B
102
{ACAD_REACTORS
330
46A
102
}
330
46A
100
AcDbXrecord
280
     1
102
RTVSPost2010Prop28
280
     0
102
RTVSPost2010PropOp28
 70
     1
102
RTVSPost2010Prop29
280
     1
102
RTVSPost2010PropOp29
 70
     1
102
RTVSPost2010Prop30
280
     1
102
RTVSPost2010PropOp30
 70
     1
102
RTVSPost2010Prop31
280
     0
102
RTVSPost2010PropOp31
 70
     1
102
RTVSPost2010Prop32
280
     0
102
RTVSPost2010PropOp32
 70
     1
102
RTVSPost2010Prop33
280
     0
102
RTVSPost2010PropOp33
 70
     1
102
RTVSPost2010Prop34
280
     0
102
RTVSPost2010PropOp34
 70
     1
102
RTVSPost2010Prop35
280
     0
102
RTVSPost2010PropOp35
 70
     1
102
RTVSPost2010Prop36
280
     0
102
RTVSPost2010PropOp36
 70
     1
102
RTVSPost2010Prop37
 90
       50
102
RTVSPost2010PropOp37
 70
     1
102
RTVSPost2010Prop38
140
0.0
102
RTVSPost2010PropOp38
 70
     1
102
RTVSPost2010Prop39
140
1.0
102
RTVSPost2010PropOp39
 70
     1
102
RTVSPost2010Prop40
 90
        0
102
RTVSPost2010PropOp40
 70
     1
102
RTVSPost2010Prop41ColorIndex
 90
       18
102
RTVSPost2010Prop41ColorRGB
 90
        0
102
RTVSPost2010PropOp41
 70
     1
102
RTVSPost2010Prop42
 90
       50
102
RTVSPost2010PropOp42
 70
     1
102
RTVSPost2010Prop43
 90
        3
102
RTVSPost2010PropOp43
 70
     1
102
RTVSPost2010Prop44ColorIndex
 90
        5
102
RTVSPost2010Prop44ColorRGB
 90
      255
102
RTVSPost2010PropOp44
 70
     1
102
RTVSPost2010Prop45
280
     0
102
RTVSPost2010PropOp45
 70
     1
102
RTVSPost2010Prop46
 90
       50
102
RTVSPost2010PropOp46
 70
     1
102
RTVSPost2010Prop47
 90
       50
102
RTVSPost2010PropOp47
 70
     1
102
RTVSPost2010Prop48
 90
       50
102
RTVSPost2010PropOp48
 70
     1
102
RTVSPost2010Prop49
280
     0
102
RTVSPost2010PropOp49
 70
     1
102
RTVSPost2010Prop50
 90
       50
102
RTVSPost2010PropOp50
 70
     1
102
RTVSPost2010Prop51ColorIndex
 90
      256
102
RTVSPost2010Prop51ColorRGB
 90
-16777216
102
RTVSPost2010PropOp51
 70
     0
102
RTVSPost2010Prop52
140
1.0
102
RTVSPost2010PropOp52
 70
     0
102
RTVSPost2010Prop53
 90
        2
102
RTVSPost2010PropOp53
 70
     1
102
RTVSPost2010Prop54
  1
strokes_ogs.tif
102
RTVSPost2010PropOp54
 70
     1
102
RTVSPost2010Prop55
280
     0
102
RTVSPost2010PropOp55
 70
     1
102
RTVSPost2010Prop56
140
1.0
102
RTVSPost2010PropOp56
 70
     1
102
RTVSPost2010Prop57
140
1.0
102
RTVSPost2010PropOp57
 70
     1
102
RTVSPropertyOp0
 70
     1
102
RTVSPropertyOp1
 70
     1
102
RTVSPropertyOp2
 70
     1
102
RTVSPropertyOp3
 70
     1
102
RTVSPropertyOp4
 70
     1
102
RTVSPropertyOp5
 70
     1
102
RTVSPropertyOp6
 70
     1
102
RTVSPropertyOp7
 70
     1
102
RTVSPropertyOp8
 70
     1
102
RTVSPropertyOp9
 70
     1
102
RTVSPropertyOp10
 70
     1
102
RTVSPropertyOp11
 70
     1
102
RTVSPropertyOp12
 70
     1
102
RTVSPropertyOp13
 70
     1
102
RTVSPropertyOp14
 70
     1
102
RTVSPropertyOp15
 70
     1
102
RTVSPropertyOp16
 70
     1
102
RTVSPropertyOp17
 70
     1
102
RTVSPropertyOp18
 70
     1
102
RTVSPropertyOp19
 70
     1
102
RTVSPropertyOp20
 70
     1
102
RTVSPropertyOp21
 70
     1
102
RTVSPropertyOp22
 70
     1
102
RTVSPropertyOp23
 70
     1
102
RTVSPropertyOp24
 70
     1
102
RTVSPropertyOp25
 70
     1
102
RTVSPropertyOp26
 70
     1
102
RTVSPropertyOp27
 70
     1
102
RTVSPropertyOp28
 70
     1
102
RTVSPropertyOp29
 70
     1
102
RTVSPropertyOp30
 70
     1
102
RTVSPropertyOp31
 70
     1
102
RTVSPropertyOp32
 70
     1
102
RTVSPropertyOp33
 70
     1
102
RTVSPropertyOp34
 70
     1
102
RTVSPropertyOp35
 70
     1
102
RTVSPropertyOp36
 70
     1
102
RTVSPropertyOp37
 70
     1
102
RTVSPropertyOp38
 70
     1
102
RTVSPropertyOp39
 70
     1
102
RTVSPropertyOp40
 70
     1
102
RTVSPropertyOp41
 70
     1
102
RTVSPropertyOp42
 70
     1
102
RTVSPropertyOp43
 70
     1
102
RTVSPropertyOp44
 70
     1
102
RTVSPropertyOp45
 70
     1
102
RTVSPropertyOp46
 70
     1
102
RTVSPropertyOp47
 70
     1
102
RTVSPropertyOp48
 70
     1
102
RTVSPropertyOp49
 70
     1
102
RTVSPropertyOp50
 70
     1
102
RTVSPropertyOp51
 70
     0
102
RTVSPropertyOp52
 70
     0
102
RTVSPropertyOp53
 70
     1
102
RTVSPropertyOp54
 70
     1
102
RTVSPropertyOp55
 70
     1
102
RTVSPropertyOp56
 70
     1
102
RTVSPropertyOp57
 70
     1
102
RTVSPropertyOp58
 70
     1
102
RTVSPropertyOp59
 70
     1
102
RTVSPropertyOp60
 70
     1
102
RTVSPropertyOp61
 70
     1
102
RTVSPropertyOp62
 70
     1
  0
XRECORD
  5
46D
102
{ACAD_REACTORS
330
46C
102
}
330
46C
100
AcDbXrecord
280
     1
102
RTVSPost2010Prop28
280
     0
102
RTVSPost2010PropOp28
 70
     1
102
RTVSPost2010Prop29
280
     1
102
RTVSPost2010PropOp29
 70
     1
102
RTVSPost2010Prop30
280
     1
102
RTVSPost2010PropOp30
 70
     1
102
RTVSPost2010Prop31
280
     0
102
RTVSPost2010PropOp31
 70
     1
102
RTVSPost2010Prop32
280
     0
102
RTVSPost2010PropOp32
 70
     1
102
RTVSPost2010Prop33
280
     0
102
RTVSPost2010PropOp33
 70
     1
102
RTVSPost2010Prop34
280
     0
102
RTVSPost2010PropOp34
 70
     1
102
RTVSPost2010Prop35
280
     0
102
RTVSPost2010PropOp35
 70
     1
102
RTVSPost2010Prop36
280
     0
102
RTVSPost2010PropOp36
 70
     1
102
RTVSPost2010Prop37
 90
       50
102
RTVSPost2010PropOp37
 70
     1
102
RTVSPost2010Prop38
140
0.0
102
RTVSPost2010PropOp38
 70
     1
102
RTVSPost2010Prop39
140
1.0
102
RTVSPost2010PropOp39
 70
     1
102
RTVSPost2010Prop40
 90
        0
102
RTVSPost2010PropOp40
 70
     1
102
RTVSPost2010Prop41ColorIndex
 90
       18
102
RTVSPost2010Prop41ColorRGB
 90
        0
102
RTVSPost2010PropOp41
 70
     1
102
RTVSPost2010Prop42
 90
       50
102
RTVSPost2010PropOp42
 70
     1
102
RTVSPost2010Prop43
 90
        3
102
RTVSPost2010PropOp43
 70
     1
102
RTVSPost2010Prop44ColorIndex
 90
        5
102
RTVSPost2010Prop44ColorRGB
 90
      255
102
RTVSPost2010PropOp44
 70
     1
102
RTVSPost2010Prop45
280
     0
102
RTVSPost2010PropOp45
 70
     1
102
RTVSPost2010Prop46
 90
       50
102
RTVSPost2010PropOp46
 70
     1
102
RTVSPost2010Prop47
 90
       50
102
RTVSPost2010PropOp47
 70
     1
102
RTVSPost2010Prop48
 90
       50
102
RTVSPost2010PropOp48
 70
     1
102
RTVSPost2010Prop49
280
     0
102
RTVSPost2010PropOp49
 70
     1
102
RTVSPost2010Prop50
 90
       50
102
RTVSPost2010PropOp50
 70
     1
102
RTVSPost2010Prop51ColorIndex
 90
      256
102
RTVSPost2010Prop51ColorRGB
 90
-16777216
102
RTVSPost2010PropOp51
 70
     0
102
RTVSPost2010Prop52
140
1.0
102
RTVSPost2010PropOp52
 70
     0
102
RTVSPost2010Prop53
 90
        2
102
RTVSPost2010PropOp53
 70
     1
102
RTVSPost2010Prop54
  1
strokes_ogs.tif
102
RTVSPost2010PropOp54
 70
     1
102
RTVSPost2010Prop55
280
     0
102
RTVSPost2010PropOp55
 70
     1
102
RTVSPost2010Prop56
140
1.0
102
RTVSPost2010PropOp56
 70
     1
102
RTVSPost2010Prop57
140
1.0
102
RTVSPost2010PropOp57
 70
     1
102
RTVSPropertyOp0
 70
     1
102
RTVSPropertyOp1
 70
     1
102
RTVSPropertyOp2
 70
     1
102
RTVSPropertyOp3
 70
     1
102
RTVSPropertyOp4
 70
     1
102
RTVSPropertyOp5
 70
     1
102
RTVSPropertyOp6
 70
     1
102
RTVSPropertyOp7
 70
     1
102
RTVSPropertyOp8
 70
     1
102
RTVSPropertyOp9
 70
     1
102
RTVSPropertyOp10
 70
     1
102
RTVSPropertyOp11
 70
     1
102
RTVSPropertyOp12
 70
     1
102
RTVSPropertyOp13
 70
     1
102
RTVSPropertyOp14
 70
     1
102
RTVSPropertyOp15
 70
     1
102
RTVSPropertyOp16
 70
     1
102
RTVSPropertyOp17
 70
     1
102
RTVSPropertyOp18
 70
     1
102
RTVSPropertyOp19
 70
     1
102
RTVSPropertyOp20
 70
     1
102
RTVSPropertyOp21
 70
     1
102
RTVSPropertyOp22
 70
     1
102
RTVSPropertyOp23
 70
     1
102
RTVSPropertyOp24
 70
     1
102
RTVSPropertyOp25
 70
     1
102
RTVSPropertyOp26
 70
     1
102
RTVSPropertyOp27
 70
     1
102
RTVSPropertyOp28
 70
     1
102
RTVSPropertyOp29
 70
     1
102
RTVSPropertyOp30
 70
     1
102
RTVSPropertyOp31
 70
     1
102
RTVSPropertyOp32
 70
     1
102
RTVSPropertyOp33
 70
     1
102
RTVSPropertyOp34
 70
     1
102
RTVSPropertyOp35
 70
     1
102
RTVSPropertyOp36
 70
     1
102
RTVSPropertyOp37
 70
     1
102
RTVSPropertyOp38
 70
     1
102
RTVSPropertyOp39
 70
     1
102
RTVSPropertyOp40
 70
     1
102
RTVSPropertyOp41
 70
     1
102
RTVSPropertyOp42
 70
     1
102
RTVSPropertyOp43
 70
     1
102
RTVSPropertyOp44
 70
     1
102
RTVSPropertyOp45
 70
     1
102
RTVSPropertyOp46
 70
     1
102
RTVSPropertyOp47
 70
     1
102
RTVSPropertyOp48
 70
     1
102
RTVSPropertyOp49
 70
     1
102
RTVSPropertyOp50
 70
     1
102
RTVSPropertyOp51
 70
     0
102
RTVSPropertyOp52
 70
     0
102
RTVSPropertyOp53
 70
     1
102
RTVSPropertyOp54
 70
     1
102
RTVSPropertyOp55
 70
     1
102
RTVSPropertyOp56
 70
     1
102
RTVSPropertyOp57
 70
     1
102
RTVSPropertyOp58
 70
     1
102
RTVSPropertyOp59
 70
     1
102
RTVSPropertyOp60
 70
     1
102
RTVSPropertyOp61
 70
     1
102
RTVSPropertyOp62
 70
     1
  0
XRECORD
  5
475
102
{ACAD_REACTORS
330
474
102
}
330
474
100
AcDbXrecord
280
     1
102
RTVSPost2010Prop28
280
     0
102
RTVSPost2010PropOp28
 70
     1
102
RTVSPost2010Prop29
280
     1
102
RTVSPost2010PropOp29
 70
     1
102
RTVSPost2010Prop30
280
     1
102
RTVSPost2010PropOp30
 70
     1
102
RTVSPost2010Prop31
280
     0
102
RTVSPost2010PropOp31
 70
     1
102
RTVSPost2010Prop32
280
     0
102
RTVSPost2010PropOp32
 70
     1
102
RTVSPost2010Prop33
280
     0
102
RTVSPost2010PropOp33
 70
     1
102
RTVSPost2010Prop34
280
     0
102
RTVSPost2010PropOp34
 70
     1
102
RTVSPost2010Prop35
280
     0
102
RTVSPost2010PropOp35
 70
     1
102
RTVSPost2010Prop36
280
     0
102
RTVSPost2010PropOp36
 70
     1
102
RTVSPost2010Prop37
 90
       50
102
RTVSPost2010PropOp37
 70
     1
102
RTVSPost2010Prop38
140
0.0
102
RTVSPost2010PropOp38
 70
     1
102
RTVSPost2010Prop39
140
1.0
102
RTVSPost2010PropOp39
 70
     1
102
RTVSPost2010Prop40
 90
        0
102
RTVSPost2010PropOp40
 70
     1
102
RTVSPost2010Prop41ColorIndex
 90
       18
102
RTVSPost2010Prop41ColorRGB
 90
        0
102
RTVSPost2010PropOp41
 70
     1
102
RTVSPost2010Prop42
 90
       50
102
RTVSPost2010PropOp42
 70
     1
102
RTVSPost2010Prop43
 90
        3
102
RTVSPost2010PropOp43
 70
     1
102
RTVSPost2010Prop44ColorIndex
 90
        5
102
RTVSPost2010Prop44ColorRGB
 90
      255
102
RTVSPost2010PropOp44
 70
     1
102
RTVSPost2010Prop45
280
     0
102
RTVSPost2010PropOp45
 70
     1
102
RTVSPost2010Prop46
 90
       50
102
RTVSPost2010PropOp46
 70
     1
102
RTVSPost2010Prop47
 90
       50
102
RTVSPost2010PropOp47
 70
     1
102
RTVSPost2010Prop48
 90
       50
102
RTVSPost2010PropOp48
 70
     1
102
RTVSPost2010Prop49
280
     0
102
RTVSPost2010PropOp49
 70
     1
102
RTVSPost2010Prop50
 90
       50
102
RTVSPost2010PropOp50
 70
     1
102
RTVSPost2010Prop51ColorIndex
 90
      256
102
RTVSPost2010Prop51ColorRGB
 90
-16777216
102
RTVSPost2010PropOp51
 70
     0
102
RTVSPost2010Prop52
140
1.0
102
RTVSPost2010PropOp52
 70
     0
102
RTVSPost2010Prop53
 90
        2
102
RTVSPost2010PropOp53
 70
     1
102
RTVSPost2010Prop54
  1
strokes_ogs.tif
102
RTVSPost2010PropOp54
 70
     1
102
RTVSPost2010Prop55
280
     0
102
RTVSPost2010PropOp55
 70
     1
102
RTVSPost2010Prop56
140
1.0
102
RTVSPost2010PropOp56
 70
     1
102
RTVSPost2010Prop57
140
1.0
102
RTVSPost2010PropOp57
 70
     1
102
RTVSPropertyOp0
 70
     1
102
RTVSPropertyOp1
 70
     1
102
RTVSPropertyOp2
 70
     1
102
RTVSPropertyOp3
 70
     1
102
RTVSPropertyOp4
 70
     1
102
RTVSPropertyOp5
 70
     1
102
RTVSPropertyOp6
 70
     1
102
RTVSPropertyOp7
 70
     1
102
RTVSPropertyOp8
 70
     1
102
RTVSPropertyOp9
 70
     1
102
RTVSPropertyOp10
 70
     1
102
RTVSPropertyOp11
 70
     1
102
RTVSPropertyOp12
 70
     1
102
RTVSPropertyOp13
 70
     1
102
RTVSPropertyOp14
 70
     1
102
RTVSPropertyOp15
 70
     1
102
RTVSPropertyOp16
 70
     1
102
RTVSPropertyOp17
 70
     1
102
RTVSPropertyOp18
 70
     1
102
RTVSPropertyOp19
 70
     1
102
RTVSPropertyOp20
 70
     1
102
RTVSPropertyOp21
 70
     1
102
RTVSPropertyOp22
 70
     1
102
RTVSPropertyOp23
 70
     1
102
RTVSPropertyOp24
 70
     1
102
RTVSPropertyOp25
 70
     1
102
RTVSPropertyOp26
 70
     1
102
RTVSPropertyOp27
 70
     1
102
RTVSPropertyOp28
 70
     1
102
RTVSPropertyOp29
 70
     1
102
RTVSPropertyOp30
 70
     1
102
RTVSPropertyOp31
 70
     1
102
RTVSPropertyOp32
 70
     1
102
RTVSPropertyOp33
 70
     1
102
RTVSPropertyOp34
 70
     1
102
RTVSPropertyOp35
 70
     1
102
RTVSPropertyOp36
 70
     1
102
RTVSPropertyOp37
 70
     1
102
RTVSPropertyOp38
 70
     1
102
RTVSPropertyOp39
 70
     1
102
RTVSPropertyOp40
 70
     1
102
RTVSPropertyOp41
 70
     1
102
RTVSPropertyOp42
 70
     1
102
RTVSPropertyOp43
 70
     1
102
RTVSPropertyOp44
 70
     1
102
RTVSPropertyOp45
 70
     1
102
RTVSPropertyOp46
 70
     1
102
RTVSPropertyOp47
 70
     1
102
RTVSPropertyOp48
 70
     1
102
RTVSPropertyOp49
 70
     1
102
RTVSPropertyOp50
 70
     1
102
RTVSPropertyOp51
 70
     0
102
RTVSPropertyOp52
 70
     0
102
RTVSPropertyOp53
 70
     1
102
RTVSPropertyOp54
 70
     1
102
RTVSPropertyOp55
 70
     1
102
RTVSPropertyOp56
 70
     1
102
RTVSPropertyOp57
 70
     1
102
RTVSPropertyOp58
 70
     1
102
RTVSPropertyOp59
 70
     1
102
RTVSPropertyOp60
 70
     1
102
RTVSPropertyOp61
 70
     1
102
RTVSPropertyOp62
 70
     1
  0
XRECORD
  5
491
102
{ACAD_REACTORS
330
490
102
}
330
490
100
AcDbXrecord
280
     1
102
RTVSPost2010Prop28
280
     0
102
RTVSPost2010PropOp28
 70
     1
102
RTVSPost2010Prop29
280
     1
102
RTVSPost2010PropOp29
 70
     1
102
RTVSPost2010Prop30
280
     1
102
RTVSPost2010PropOp30
 70
     1
102
RTVSPost2010Prop31
280
     0
102
RTVSPost2010PropOp31
 70
     1
102
RTVSPost2010Prop32
280
     0
102
RTVSPost2010PropOp32
 70
     1
102
RTVSPost2010Prop33
280
     0
102
RTVSPost2010PropOp33
 70
     1
102
RTVSPost2010Prop34
280
     0
102
RTVSPost2010PropOp34
 70
     1
102
RTVSPost2010Prop35
280
     0
102
RTVSPost2010PropOp35
 70
     1
102
RTVSPost2010Prop36
280
     0
102
RTVSPost2010PropOp36
 70
     1
102
RTVSPost2010Prop37
 90
       50
102
RTVSPost2010PropOp37
 70
     0
102
RTVSPost2010Prop38
140
0.0
102
RTVSPost2010PropOp38
 70
     0
102
RTVSPost2010Prop39
140
1.0
102
RTVSPost2010PropOp39
 70
     0
102
RTVSPost2010Prop40
 90
        0
102
RTVSPost2010PropOp40
 70
     0
102
RTVSPost2010Prop41ColorIndex
 90
       18
102
RTVSPost2010Prop41ColorRGB
 90
        0
102
RTVSPost2010PropOp41
 70
     0
102
RTVSPost2010Prop42
 90
       50
102
RTVSPost2010PropOp42
 70
     0
102
RTVSPost2010Prop43
 90
        3
102
RTVSPost2010PropOp43
 70
     0
102
RTVSPost2010Prop44ColorIndex
 90
        5
102
RTVSPost2010Prop44ColorRGB
 90
      255
102
RTVSPost2010PropOp44
 70
     0
102
RTVSPost2010Prop45
280
     0
102
RTVSPost2010PropOp45
 70
     1
102
RTVSPost2010Prop46
 90
       50
102
RTVSPost2010PropOp46
 70
     0
102
RTVSPost2010Prop47
 90
       50
102
RTVSPost2010PropOp47
 70
     0
102
RTVSPost2010Prop48
 90
       50
102
RTVSPost2010PropOp48
 70
     0
102
RTVSPost2010Prop49
280
     0
102
RTVSPost2010PropOp49
 70
     1
102
RTVSPost2010Prop50
 90
       50
102
RTVSPost2010PropOp50
 70
     0
102
RTVSPost2010Prop51ColorIndex
 90
      256
102
RTVSPost2010Prop51ColorRGB
 90
-16777216
102
RTVSPost2010PropOp51
 70
     0
102
RTVSPost2010Prop52
140
1.0
102
RTVSPost2010PropOp52
 70
     0
102
RTVSPost2010Prop53
 90
        2
102
RTVSPost2010PropOp53
 70
     0
102
RTVSPost2010Prop54
  1
strokes_ogs.tif
102
RTVSPost2010PropOp54
 70
     0
102
RTVSPost2010Prop55
280
     0
102
RTVSPost2010PropOp55
 70
     1
102
RTVSPost2010Prop56
140
1.0
102
RTVSPost2010PropOp56
 70
     0
102
RTVSPost2010Prop57
140
1.0
102
RTVSPost2010PropOp57
 70
     0
102
RTVSPropertyOp0
 70
     0
102
RTVSPropertyOp1
 70
     0
102
RTVSPropertyOp2
 70
     0
102
RTVSPropertyOp3
 70
     0
102
RTVSPropertyOp4
 70
     0
102
RTVSPropertyOp5
 70
     0
102
RTVSPropertyOp6
 70
     0
102
RTVSPropertyOp7
 70
     0
102
RTVSPropertyOp8
 70
     0
102
RTVSPropertyOp9
 70
     0
102
RTVSPropertyOp10
 70
     0
102
RTVSPropertyOp11
 70
     0
102
RTVSPropertyOp12
 70
     0
102
RTVSPropertyOp13
 70
     0
102
RTVSPropertyOp14
 70
     2
102
RTVSPropertyOp15
 70
     0
102
RTVSPropertyOp16
 70
     0
102
RTVSPropertyOp17
 70
     0
102
RTVSPropertyOp18
 70
     0
102
RTVSPropertyOp19
 70
     0
102
RTVSPropertyOp20
 70
     0
102
RTVSPropertyOp21
 70
     0
102
RTVSPropertyOp22
 70
     0
102
RTVSPropertyOp23
 70
     0
102
RTVSPropertyOp24
 70
     0
102
RTVSPropertyOp25
 70
     0
102
RTVSPropertyOp26
 70
     0
102
RTVSPropertyOp27
 70
     0
102
RTVSPropertyOp28
 70
     1
102
RTVSPropertyOp29
 70
     1
102
RTVSPropertyOp30
 70
     1
102
RTVSPropertyOp31
 70
     1
102
RTVSPropertyOp32
 70
     1
102
RTVSPropertyOp33
 70
     1
102
RTVSPropertyOp34
 70
     1
102
RTVSPropertyOp35
 70
     1
102
RTVSPropertyOp36
 70
     1
102
RTVSPropertyOp37
 70
     0
102
RTVSPropertyOp38
 70
     0
102
RTVSPropertyOp39
 70
     0
102
RTVSPropertyOp40
 70
     0
102
RTVSPropertyOp41
 70
     0
102
RTVSPropertyOp42
 70
     0
102
RTVSPropertyOp43
 70
     0
102
RTVSPropertyOp44
 70
     0
102
RTVSPropertyOp45
 70
     1
102
RTVSPropertyOp46
 70
     0
102
RTVSPropertyOp47
 70
     0
102
RTVSPropertyOp48
 70
     0
102
RTVSPropertyOp49
 70
     1
102
RTVSPropertyOp50
 70
     0
102
RTVSPropertyOp51
 70
     0
102
RTVSPropertyOp52
 70
     0
102
RTVSPropertyOp53
 70
     0
102
RTVSPropertyOp54
 70
     0
102
RTVSPropertyOp55
 70
     1
102
RTVSPropertyOp56
 70
     0
102
RTVSPropertyOp57
 70
     0
102
RTVSPropertyOp58
 70
     0
102
RTVSPropertyOp59
 70
     0
102
RTVSPropertyOp60
 70
     0
102
RTVSPropertyOp61
 70
     0
102
RTVSPropertyOp62
 70
     0
  0
XRECORD
  5
481
102
{ACAD_REACTORS
330
480
102
}
330
480
100
AcDbXrecord
280
     1
102
RTVSPost2010Prop28
280
     0
102
RTVSPost2010PropOp28
 70
     1
102
RTVSPost2010Prop29
280
     1
102
RTVSPost2010PropOp29
 70
     1
102
RTVSPost2010Prop30
280
     1
102
RTVSPost2010PropOp30
 70
     1
102
RTVSPost2010Prop31
280
     0
102
RTVSPost2010PropOp31
 70
     1
102
RTVSPost2010Prop32
280
     0
102
RTVSPost2010PropOp32
 70
     1
102
RTVSPost2010Prop33
280
     0
102
RTVSPost2010PropOp33
 70
     1
102
RTVSPost2010Prop34
280
     0
102
RTVSPost2010PropOp34
 70
     1
102
RTVSPost2010Prop35
280
     0
102
RTVSPost2010PropOp35
 70
     1
102
RTVSPost2010Prop36
280
     0
102
RTVSPost2010PropOp36
 70
     1
102
RTVSPost2010Prop37
 90
       50
102
RTVSPost2010PropOp37
 70
     1
102
RTVSPost2010Prop38
140
0.0
102
RTVSPost2010PropOp38
 70
     1
102
RTVSPost2010Prop39
140
1.0
102
RTVSPost2010PropOp39
 70
     1
102
RTVSPost2010Prop40
 90
        0
102
RTVSPost2010PropOp40
 70
     1
102
RTVSPost2010Prop41ColorIndex
 90
       18
102
RTVSPost2010Prop41ColorRGB
 90
        0
102
RTVSPost2010PropOp41
 70
     1
102
RTVSPost2010Prop42
 90
       50
102
RTVSPost2010PropOp42
 70
     1
102
RTVSPost2010Prop43
 90
        3
102
RTVSPost2010PropOp43
 70
     1
102
RTVSPost2010Prop44ColorIndex
 90
        5
102
RTVSPost2010Prop44ColorRGB
 90
      255
102
RTVSPost2010PropOp44
 70
     1
102
RTVSPost2010Prop45
280
     0
102
RTVSPost2010PropOp45
 70
     1
102
RTVSPost2010Prop46
 90
       50
102
RTVSPost2010PropOp46
 70
     1
102
RTVSPost2010Prop47
 90
       50
102
RTVSPost2010PropOp47
 70
     1
102
RTVSPost2010Prop48
 90
       50
102
RTVSPost2010PropOp48
 70
     1
102
RTVSPost2010Prop49
280
     0
102
RTVSPost2010PropOp49
 70
     1
102
RTVSPost2010Prop50
 90
       50
102
RTVSPost2010PropOp50
 70
     1
102
RTVSPost2010Prop51ColorIndex
 90
      256
102
RTVSPost2010Prop51ColorRGB
 90
-16777216
102
RTVSPost2010PropOp51
 70
     0
102
RTVSPost2010Prop52
140
1.0
102
RTVSPost2010PropOp52
 70
     0
102
RTVSPost2010Prop53
 90
        2
102
RTVSPost2010PropOp53
 70
     1
102
RTVSPost2010Prop54
  1
strokes_ogs.tif
102
RTVSPost2010PropOp54
 70
     1
102
RTVSPost2010Prop55
280
     0
102
RTVSPost2010PropOp55
 70
     1
102
RTVSPost2010Prop56
140
1.0
102
RTVSPost2010PropOp56
 70
     1
102
RTVSPost2010Prop57
140
1.0
102
RTVSPost2010PropOp57
 70
     1
102
RTVSPropertyOp0
 70
     1
102
RTVSPropertyOp1
 70
     1
102
RTVSPropertyOp2
 70
     1
102
RTVSPropertyOp3
 70
     1
102
RTVSPropertyOp4
 70
     1
102
RTVSPropertyOp5
 70
     1
102
RTVSPropertyOp6
 70
     1
102
RTVSPropertyOp7
 70
     1
102
RTVSPropertyOp8
 70
     1
102
RTVSPropertyOp9
 70
     1
102
RTVSPropertyOp10
 70
     1
102
RTVSPropertyOp11
 70
     1
102
RTVSPropertyOp12
 70
     1
102
RTVSPropertyOp13
 70
     1
102
RTVSPropertyOp14
 70
     1
102
RTVSPropertyOp15
 70
     1
102
RTVSPropertyOp16
 70
     1
102
RTVSPropertyOp17
 70
     1
102
RTVSPropertyOp18
 70
     1
102
RTVSPropertyOp19
 70
     1
102
RTVSPropertyOp20
 70
     1
102
RTVSPropertyOp21
 70
     1
102
RTVSPropertyOp22
 70
     1
102
RTVSPropertyOp23
 70
     1
102
RTVSPropertyOp24
 70
     1
102
RTVSPropertyOp25
 70
     1
102
RTVSPropertyOp26
 70
     1
102
RTVSPropertyOp27
 70
     1
102
RTVSPropertyOp28
 70
     1
102
RTVSPropertyOp29
 70
     1
102
RTVSPropertyOp30
 70
     1
102
RTVSPropertyOp31
 70
     1
102
RTVSPropertyOp32
 70
     1
102
RTVSPropertyOp33
 70
     1
102
RTVSPropertyOp34
 70
     1
102
RTVSPropertyOp35
 70
     1
102
RTVSPropertyOp36
 70
     1
102
RTVSPropertyOp37
 70
     1
102
RTVSPropertyOp38
 70
     1
102
RTVSPropertyOp39
 70
     1
102
RTVSPropertyOp40
 70
     1
102
RTVSPropertyOp41
 70
     1
102
RTVSPropertyOp42
 70
     1
102
RTVSPropertyOp43
 70
     1
102
RTVSPropertyOp44
 70
     1
102
RTVSPropertyOp45
 70
     1
102
RTVSPropertyOp46
 70
     1
102
RTVSPropertyOp47
 70
     1
102
RTVSPropertyOp48
 70
     1
102
RTVSPropertyOp49
 70
     1
102
RTVSPropertyOp50
 70
     1
102
RTVSPropertyOp51
 70
     0
102
RTVSPropertyOp52
 70
     0
102
RTVSPropertyOp53
 70
     1
102
RTVSPropertyOp54
 70
     1
102
RTVSPropertyOp55
 70
     1
102
RTVSPropertyOp56
 70
     1
102
RTVSPropertyOp57
 70
     1
102
RTVSPropertyOp58
 70
     1
102
RTVSPropertyOp59
 70
     1
102
RTVSPropertyOp60
 70
     1
102
RTVSPropertyOp61
 70
     1
102
RTVSPropertyOp62
 70
     1
  0
XRECORD
  5
493
102
{ACAD_REACTORS
330
492
102
}
330
492
100
AcDbXrecord
280
     1
102
RTVSPost2010Prop28
280
     0
102
RTVSPost2010PropOp28
 70
     1
102
RTVSPost2010Prop29
280
     1
102
RTVSPost2010PropOp29
 70
     1
102
RTVSPost2010Prop30
280
     1
102
RTVSPost2010PropOp30
 70
     1
102
RTVSPost2010Prop31
280
     0
102
RTVSPost2010PropOp31
 70
     1
102
RTVSPost2010Prop32
280
     0
102
RTVSPost2010PropOp32
 70
     1
102
RTVSPost2010Prop33
280
     0
102
RTVSPost2010PropOp33
 70
     1
102
RTVSPost2010Prop34
280
     0
102
RTVSPost2010PropOp34
 70
     1
102
RTVSPost2010Prop35
280
     0
102
RTVSPost2010PropOp35
 70
     1
102
RTVSPost2010Prop36
280
     0
102
RTVSPost2010PropOp36
 70
     1
102
RTVSPost2010Prop37
 90
       50
102
RTVSPost2010PropOp37
 70
     0
102
RTVSPost2010Prop38
140
0.0
102
RTVSPost2010PropOp38
 70
     0
102
RTVSPost2010Prop39
140
1.0
102
RTVSPost2010PropOp39
 70
     0
102
RTVSPost2010Prop40
 90
        0
102
RTVSPost2010PropOp40
 70
     0
102
RTVSPost2010Prop41ColorIndex
 90
       18
102
RTVSPost2010Prop41ColorRGB
 90
        0
102
RTVSPost2010PropOp41
 70
     0
102
RTVSPost2010Prop42
 90
       50
102
RTVSPost2010PropOp42
 70
     0
102
RTVSPost2010Prop43
 90
        3
102
RTVSPost2010PropOp43
 70
     0
102
RTVSPost2010Prop44ColorIndex
 90
        5
102
RTVSPost2010Prop44ColorRGB
 90
      255
102
RTVSPost2010PropOp44
 70
     0
102
RTVSPost2010Prop45
280
     0
102
RTVSPost2010PropOp45
 70
     1
102
RTVSPost2010Prop46
 90
       50
102
RTVSPost2010PropOp46
 70
     0
102
RTVSPost2010Prop47
 90
       50
102
RTVSPost2010PropOp47
 70
     0
102
RTVSPost2010Prop48
 90
       50
102
RTVSPost2010PropOp48
 70
     0
102
RTVSPost2010Prop49
280
     0
102
RTVSPost2010PropOp49
 70
     1
102
RTVSPost2010Prop50
 90
       50
102
RTVSPost2010PropOp50
 70
     0
102
RTVSPost2010Prop51ColorIndex
 90
      256
102
RTVSPost2010Prop51ColorRGB
 90
-16777216
102
RTVSPost2010PropOp51
 70
     0
102
RTVSPost2010Prop52
140
1.0
102
RTVSPost2010PropOp52
 70
     0
102
RTVSPost2010Prop53
 90
        2
102
RTVSPost2010PropOp53
 70
     0
102
RTVSPost2010Prop54
  1
strokes_ogs.tif
102
RTVSPost2010PropOp54
 70
     0
102
RTVSPost2010Prop55
280
     0
102
RTVSPost2010PropOp55
 70
     1
102
RTVSPost2010Prop56
140
1.0
102
RTVSPost2010PropOp56
 70
     0
102
RTVSPost2010Prop57
140
1.0
102
RTVSPost2010PropOp57
 70
     0
102
RTVSPropertyOp0
 70
     0
102
RTVSPropertyOp1
 70
     0
102
RTVSPropertyOp2
 70
     0
102
RTVSPropertyOp3
 70
     0
102
RTVSPropertyOp4
 70
     0
102
RTVSPropertyOp5
 70
     0
102
RTVSPropertyOp6
 70
     0
102
RTVSPropertyOp7
 70
     0
102
RTVSPropertyOp8
 70
     0
102
RTVSPropertyOp9
 70
     0
102
RTVSPropertyOp10
 70
     0
102
RTVSPropertyOp11
 70
     0
102
RTVSPropertyOp12
 70
     0
102
RTVSPropertyOp13
 70
     0
102
RTVSPropertyOp14
 70
     2
102
RTVSPropertyOp15
 70
     0
102
RTVSPropertyOp16
 70
     0
102
RTVSPropertyOp17
 70
     0
102
RTVSPropertyOp18
 70
     0
102
RTVSPropertyOp19
 70
     0
102
RTVSPropertyOp20
 70
     0
102
RTVSPropertyOp21
 70
     0
102
RTVSPropertyOp22
 70
     0
102
RTVSPropertyOp23
 70
     0
102
RTVSPropertyOp24
 70
     0
102
RTVSPropertyOp25
 70
     0
102
RTVSPropertyOp26
 70
     0
102
RTVSPropertyOp27
 70
     0
102
RTVSPropertyOp28
 70
     1
102
RTVSPropertyOp29
 70
     1
102
RTVSPropertyOp30
 70
     1
102
RTVSPropertyOp31
 70
     1
102
RTVSPropertyOp32
 70
     1
102
RTVSPropertyOp33
 70
     1
102
RTVSPropertyOp34
 70
     1
102
RTVSPropertyOp35
 70
     1
102
RTVSPropertyOp36
 70
     1
102
RTVSPropertyOp37
 70
     0
102
RTVSPropertyOp38
 70
     0
102
RTVSPropertyOp39
 70
     0
102
RTVSPropertyOp40
 70
     0
102
RTVSPropertyOp41
 70
     0
102
RTVSPropertyOp42
 70
     0
102
RTVSPropertyOp43
 70
     0
102
RTVSPropertyOp44
 70
     0
102
RTVSPropertyOp45
 70
     1
102
RTVSPropertyOp46
 70
     0
102
RTVSPropertyOp47
 70
     0
102
RTVSPropertyOp48
 70
     0
102
RTVSPropertyOp49
 70
     1
102
RTVSPropertyOp50
 70
     0
102
RTVSPropertyOp51
 70
     0
102
RTVSPropertyOp52
 70
     0
102
RTVSPropertyOp53
 70
     0
102
RTVSPropertyOp54
 70
     0
102
RTVSPropertyOp55
 70
     1
102
RTVSPropertyOp56
 70
     0
102
RTVSPropertyOp57
 70
     0
102
RTVSPropertyOp58
 70
     0
102
RTVSPropertyOp59
 70
     0
102
RTVSPropertyOp60
 70
     0
102
RTVSPropertyOp61
 70
     0
102
RTVSPropertyOp62
 70
     0
  0
XRECORD
  5
479
102
{ACAD_REACTORS
330
478
102
}
330
478
100
AcDbXrecord
280
     1
102
RTVSPost2010Prop28
280
     0
102
RTVSPost2010PropOp28
 70
     1
102
RTVSPost2010Prop29
280
     1
102
RTVSPost2010PropOp29
 70
     1
102
RTVSPost2010Prop30
280
     1
102
RTVSPost2010PropOp30
 70
     1
102
RTVSPost2010Prop31
280
     0
102
RTVSPost2010PropOp31
 70
     1
102
RTVSPost2010Prop32
280
     0
102
RTVSPost2010PropOp32
 70
     1
102
RTVSPost2010Prop33
280
     0
102
RTVSPost2010PropOp33
 70
     1
102
RTVSPost2010Prop34
280
     0
102
RTVSPost2010PropOp34
 70
     1
102
RTVSPost2010Prop35
280
     0
102
RTVSPost2010PropOp35
 70
     1
102
RTVSPost2010Prop36
280
     0
102
RTVSPost2010PropOp36
 70
     1
102
RTVSPost2010Prop37
 90
       50
102
RTVSPost2010PropOp37
 70
     1
102
RTVSPost2010Prop38
140
0.0
102
RTVSPost2010PropOp38
 70
     1
102
RTVSPost2010Prop39
140
1.0
102
RTVSPost2010PropOp39
 70
     1
102
RTVSPost2010Prop40
 90
        0
102
RTVSPost2010PropOp40
 70
     1
102
RTVSPost2010Prop41ColorIndex
 90
       18
102
RTVSPost2010Prop41ColorRGB
 90
        0
102
RTVSPost2010PropOp41
 70
     1
102
RTVSPost2010Prop42
 90
       50
102
RTVSPost2010PropOp42
 70
     1
102
RTVSPost2010Prop43
 90
        3
102
RTVSPost2010PropOp43
 70
     1
102
RTVSPost2010Prop44ColorIndex
 90
        5
102
RTVSPost2010Prop44ColorRGB
 90
      255
102
RTVSPost2010PropOp44
 70
     1
102
RTVSPost2010Prop45
280
     0
102
RTVSPost2010PropOp45
 70
     1
102
RTVSPost2010Prop46
 90
       50
102
RTVSPost2010PropOp46
 70
     1
102
RTVSPost2010Prop47
 90
       50
102
RTVSPost2010PropOp47
 70
     1
102
RTVSPost2010Prop48
 90
       50
102
RTVSPost2010PropOp48
 70
     1
102
RTVSPost2010Prop49
280
     0
102
RTVSPost2010PropOp49
 70
     1
102
RTVSPost2010Prop50
 90
       50
102
RTVSPost2010PropOp50
 70
     1
102
RTVSPost2010Prop51ColorIndex
 90
      256
102
RTVSPost2010Prop51ColorRGB
 90
-16777216
102
RTVSPost2010PropOp51
 70
     0
102
RTVSPost2010Prop52
140
1.0
102
RTVSPost2010PropOp52
 70
     0
102
RTVSPost2010Prop53
 90
        2
102
RTVSPost2010PropOp53
 70
     1
102
RTVSPost2010Prop54
  1
strokes_ogs.tif
102
RTVSPost2010PropOp54
 70
     1
102
RTVSPost2010Prop55
280
     0
102
RTVSPost2010PropOp55
 70
     1
102
RTVSPost2010Prop56
140
1.0
102
RTVSPost2010PropOp56
 70
     1
102
RTVSPost2010Prop57
140
1.0
102
RTVSPost2010PropOp57
 70
     1
102
RTVSPropertyOp0
 70
     1
102
RTVSPropertyOp1
 70
     1
102
RTVSPropertyOp2
 70
     1
102
RTVSPropertyOp3
 70
     1
102
RTVSPropertyOp4
 70
     1
102
RTVSPropertyOp5
 70
     1
102
RTVSPropertyOp6
 70
     1
102
RTVSPropertyOp7
 70
     1
102
RTVSPropertyOp8
 70
     1
102
RTVSPropertyOp9
 70
     1
102
RTVSPropertyOp10
 70
     1
102
RTVSPropertyOp11
 70
     1
102
RTVSPropertyOp12
 70
     1
102
RTVSPropertyOp13
 70
     1
102
RTVSPropertyOp14
 70
     1
102
RTVSPropertyOp15
 70
     1
102
RTVSPropertyOp16
 70
     1
102
RTVSPropertyOp17
 70
     1
102
RTVSPropertyOp18
 70
     1
102
RTVSPropertyOp19
 70
     1
102
RTVSPropertyOp20
 70
     1
102
RTVSPropertyOp21
 70
     1
102
RTVSPropertyOp22
 70
     1
102
RTVSPropertyOp23
 70
     1
102
RTVSPropertyOp24
 70
     1
102
RTVSPropertyOp25
 70
     1
102
RTVSPropertyOp26
 70
     1
102
RTVSPropertyOp27
 70
     1
102
RTVSPropertyOp28
 70
     1
102
RTVSPropertyOp29
 70
     1
102
RTVSPropertyOp30
 70
     1
102
RTVSPropertyOp31
 70
     1
102
RTVSPropertyOp32
 70
     1
102
RTVSPropertyOp33
 70
     1
102
RTVSPropertyOp34
 70
     1
102
RTVSPropertyOp35
 70
     1
102
RTVSPropertyOp36
 70
     1
102
RTVSPropertyOp37
 70
     1
102
RTVSPropertyOp38
 70
     1
102
RTVSPropertyOp39
 70
     1
102
RTVSPropertyOp40
 70
     1
102
RTVSPropertyOp41
 70
     1
102
RTVSPropertyOp42
 70
     1
102
RTVSPropertyOp43
 70
     1
102
RTVSPropertyOp44
 70
     1
102
RTVSPropertyOp45
 70
     1
102
RTVSPropertyOp46
 70
     1
102
RTVSPropertyOp47
 70
     1
102
RTVSPropertyOp48
 70
     1
102
RTVSPropertyOp49
 70
     1
102
RTVSPropertyOp50
 70
     1
102
RTVSPropertyOp51
 70
     0
102
RTVSPropertyOp52
 70
     0
102
RTVSPropertyOp53
 70
     1
102
RTVSPropertyOp54
 70
     1
102
RTVSPropertyOp55
 70
     1
102
RTVSPropertyOp56
 70
     1
102
RTVSPropertyOp57
 70
     1
102
RTVSPropertyOp58
 70
     1
102
RTVSPropertyOp59
 70
     1
102
RTVSPropertyOp60
 70
     1
102
RTVSPropertyOp61
 70
     1
102
RTVSPropertyOp62
 70
     1
  0
XRECORD
  5
48F
102
{ACAD_REACTORS
330
48E
102
}
330
48E
100
AcDbXrecord
280
     1
102
RTVSPost2010Prop28
280
     0
102
RTVSPost2010PropOp28
 70
     1
102
RTVSPost2010Prop29
280
     1
102
RTVSPost2010PropOp29
 70
     1
102
RTVSPost2010Prop30
280
     1
102
RTVSPost2010PropOp30
 70
     1
102
RTVSPost2010Prop31
280
     0
102
RTVSPost2010PropOp31
 70
     1
102
RTVSPost2010Prop32
280
     0
102
RTVSPost2010PropOp32
 70
     1
102
RTVSPost2010Prop33
280
     0
102
RTVSPost2010PropOp33
 70
     1
102
RTVSPost2010Prop34
280
     0
102
RTVSPost2010PropOp34
 70
     1
102
RTVSPost2010Prop35
280
     0
102
RTVSPost2010PropOp35
 70
     1
102
RTVSPost2010Prop36
280
     0
102
RTVSPost2010PropOp36
 70
     1
102
RTVSPost2010Prop37
 90
       50
102
RTVSPost2010PropOp37
 70
     1
102
RTVSPost2010Prop38
140
0.0
102
RTVSPost2010PropOp38
 70
     1
102
RTVSPost2010Prop39
140
1.0
102
RTVSPost2010PropOp39
 70
     1
102
RTVSPost2010Prop40
 90
        0
102
RTVSPost2010PropOp40
 70
     1
102
RTVSPost2010Prop41ColorIndex
 90
       18
102
RTVSPost2010Prop41ColorRGB
 90
        0
102
RTVSPost2010PropOp41
 70
     1
102
RTVSPost2010Prop42
 90
       50
102
RTVSPost2010PropOp42
 70
     1
102
RTVSPost2010Prop43
 90
        3
102
RTVSPost2010PropOp43
 70
     1
102
RTVSPost2010Prop44ColorIndex
 90
        5
102
RTVSPost2010Prop44ColorRGB
 90
      255
102
RTVSPost2010PropOp44
 70
     1
102
RTVSPost2010Prop45
280
     0
102
RTVSPost2010PropOp45
 70
     1
102
RTVSPost2010Prop46
 90
       50
102
RTVSPost2010PropOp46
 70
     1
102
RTVSPost2010Prop47
 90
       50
102
RTVSPost2010PropOp47
 70
     1
102
RTVSPost2010Prop48
 90
       50
102
RTVSPost2010PropOp48
 70
     1
102
RTVSPost2010Prop49
280
     0
102
RTVSPost2010PropOp49
 70
     1
102
RTVSPost2010Prop50
 90
       50
102
RTVSPost2010PropOp50
 70
     1
102
RTVSPost2010Prop51ColorIndex
 90
      256
102
RTVSPost2010Prop51ColorRGB
 90
-16777216
102
RTVSPost2010PropOp51
 70
     0
102
RTVSPost2010Prop52
140
1.0
102
RTVSPost2010PropOp52
 70
     0
102
RTVSPost2010Prop53
 90
        2
102
RTVSPost2010PropOp53
 70
     1
102
RTVSPost2010Prop54
  1
strokes_ogs.tif
102
RTVSPost2010PropOp54
 70
     1
102
RTVSPost2010Prop55
280
     0
102
RTVSPost2010PropOp55
 70
     1
102
RTVSPost2010Prop56
140
1.0
102
RTVSPost2010PropOp56
 70
     1
102
RTVSPost2010Prop57
140
1.0
102
RTVSPost2010PropOp57
 70
     1
102
RTVSPropertyOp0
 70
     1
102
RTVSPropertyOp1
 70
     1
102
RTVSPropertyOp2
 70
     1
102
RTVSPropertyOp3
 70
     1
102
RTVSPropertyOp4
 70
     1
102
RTVSPropertyOp5
 70
     1
102
RTVSPropertyOp6
 70
     1
102
RTVSPropertyOp7
 70
     1
102
RTVSPropertyOp8
 70
     1
102
RTVSPropertyOp9
 70
     1
102
RTVSPropertyOp10
 70
     1
102
RTVSPropertyOp11
 70
     1
102
RTVSPropertyOp12
 70
     1
102
RTVSPropertyOp13
 70
     1
102
RTVSPropertyOp14
 70
     1
102
RTVSPropertyOp15
 70
     1
102
RTVSPropertyOp16
 70
     1
102
RTVSPropertyOp17
 70
     1
102
RTVSPropertyOp18
 70
     1
102
RTVSPropertyOp19
 70
     1
102
RTVSPropertyOp20
 70
     1
102
RTVSPropertyOp21
 70
     1
102
RTVSPropertyOp22
 70
     1
102
RTVSPropertyOp23
 70
     1
102
RTVSPropertyOp24
 70
     1
102
RTVSPropertyOp25
 70
     1
102
RTVSPropertyOp26
 70
     1
102
RTVSPropertyOp27
 70
     1
102
RTVSPropertyOp28
 70
     1
102
RTVSPropertyOp29
 70
     1
102
RTVSPropertyOp30
 70
     1
102
RTVSPropertyOp31
 70
     1
102
RTVSPropertyOp32
 70
     1
102
RTVSPropertyOp33
 70
     1
102
RTVSPropertyOp34
 70
     1
102
RTVSPropertyOp35
 70
     1
102
RTVSPropertyOp36
 70
     1
102
RTVSPropertyOp37
 70
     1
102
RTVSPropertyOp38
 70
     1
102
RTVSPropertyOp39
 70
     1
102
RTVSPropertyOp40
 70
     1
102
RTVSPropertyOp41
 70
     1
102
RTVSPropertyOp42
 70
     1
102
RTVSPropertyOp43
 70
     1
102
RTVSPropertyOp44
 70
     1
102
RTVSPropertyOp45
 70
     1
102
RTVSPropertyOp46
 70
     1
102
RTVSPropertyOp47
 70
     1
102
RTVSPropertyOp48
 70
     1
102
RTVSPropertyOp49
 70
     1
102
RTVSPropertyOp50
 70
     1
102
RTVSPropertyOp51
 70
     0
102
RTVSPropertyOp52
 70
     0
102
RTVSPropertyOp53
 70
     1
102
RTVSPropertyOp54
 70
     1
102
RTVSPropertyOp55
 70
     1
102
RTVSPropertyOp56
 70
     1
102
RTVSPropertyOp57
 70
     1
102
RTVSPropertyOp58
 70
     1
102
RTVSPropertyOp59
 70
     1
102
RTVSPropertyOp60
 70
     1
102
RTVSPropertyOp61
 70
     1
102
RTVSPropertyOp62
 70
     1
  0
XRECORD
  5
48D
102
{ACAD_REACTORS
330
48C
102
}
330
48C
100
AcDbXrecord
280
     1
102
RTVSPost2010Prop28
280
     0
102
RTVSPost2010PropOp28
 70
     1
102
RTVSPost2010Prop29
280
     1
102
RTVSPost2010PropOp29
 70
     1
102
RTVSPost2010Prop30
280
     1
102
RTVSPost2010PropOp30
 70
     1
102
RTVSPost2010Prop31
280
     0
102
RTVSPost2010PropOp31
 70
     1
102
RTVSPost2010Prop32
280
     0
102
RTVSPost2010PropOp32
 70
     1
102
RTVSPost2010Prop33
280
     0
102
RTVSPost2010PropOp33
 70
     1
102
RTVSPost2010Prop34
280
     0
102
RTVSPost2010PropOp34
 70
     1
102
RTVSPost2010Prop35
280
     0
102
RTVSPost2010PropOp35
 70
     1
102
RTVSPost2010Prop36
280
     0
102
RTVSPost2010PropOp36
 70
     1
102
RTVSPost2010Prop37
 90
       50
102
RTVSPost2010PropOp37
 70
     1
102
RTVSPost2010Prop38
140
0.0
102
RTVSPost2010PropOp38
 70
     1
102
RTVSPost2010Prop39
140
1.0
102
RTVSPost2010PropOp39
 70
     1
102
RTVSPost2010Prop40
 90
        0
102
RTVSPost2010PropOp40
 70
     1
102
RTVSPost2010Prop41ColorIndex
 90
       18
102
RTVSPost2010Prop41ColorRGB
 90
        0
102
RTVSPost2010PropOp41
 70
     1
102
RTVSPost2010Prop42
 90
       50
102
RTVSPost2010PropOp42
 70
     1
102
RTVSPost2010Prop43
 90
        3
102
RTVSPost2010PropOp43
 70
     1
102
RTVSPost2010Prop44ColorIndex
 90
        5
102
RTVSPost2010Prop44ColorRGB
 90
      255
102
RTVSPost2010PropOp44
 70
     1
102
RTVSPost2010Prop45
280
     0
102
RTVSPost2010PropOp45
 70
     1
102
RTVSPost2010Prop46
 90
       50
102
RTVSPost2010PropOp46
 70
     1
102
RTVSPost2010Prop47
 90
       50
102
RTVSPost2010PropOp47
 70
     1
102
RTVSPost2010Prop48
 90
       50
102
RTVSPost2010PropOp48
 70
     1
102
RTVSPost2010Prop49
280
     0
102
RTVSPost2010PropOp49
 70
     1
102
RTVSPost2010Prop50
 90
       50
102
RTVSPost2010PropOp50
 70
     1
102
RTVSPost2010Prop51ColorIndex
 90
      256
102
RTVSPost2010Prop51ColorRGB
 90
-16777216
102
RTVSPost2010PropOp51
 70
     0
102
RTVSPost2010Prop52
140
1.0
102
RTVSPost2010PropOp52
 70
     0
102
RTVSPost2010Prop53
 90
        2
102
RTVSPost2010PropOp53
 70
     1
102
RTVSPost2010Prop54
  1
strokes_ogs.tif
102
RTVSPost2010PropOp54
 70
     1
102
RTVSPost2010Prop55
280
     0
102
RTVSPost2010PropOp55
 70
     1
102
RTVSPost2010Prop56
140
1.0
102
RTVSPost2010PropOp56
 70
     1
102
RTVSPost2010Prop57
140
1.0
102
RTVSPost2010PropOp57
 70
     1
102
RTVSPropertyOp0
 70
     1
102
RTVSPropertyOp1
 70
     1
102
RTVSPropertyOp2
 70
     1
102
RTVSPropertyOp3
 70
     1
102
RTVSPropertyOp4
 70
     1
102
RTVSPropertyOp5
 70
     1
102
RTVSPropertyOp6
 70
     1
102
RTVSPropertyOp7
 70
     1
102
RTVSPropertyOp8
 70
     1
102
RTVSPropertyOp9
 70
     1
102
RTVSPropertyOp10
 70
     1
102
RTVSPropertyOp11
 70
     1
102
RTVSPropertyOp12
 70
     1
102
RTVSPropertyOp13
 70
     1
102
RTVSPropertyOp14
 70
     1
102
RTVSPropertyOp15
 70
     1
102
RTVSPropertyOp16
 70
     1
102
RTVSPropertyOp17
 70
     1
102
RTVSPropertyOp18
 70
     1
102
RTVSPropertyOp19
 70
     1
102
RTVSPropertyOp20
 70
     1
102
RTVSPropertyOp21
 70
     1
102
RTVSPropertyOp22
 70
     1
102
RTVSPropertyOp23
 70
     1
102
RTVSPropertyOp24
 70
     1
102
RTVSPropertyOp25
 70
     1
102
RTVSPropertyOp26
 70
     1
102
RTVSPropertyOp27
 70
     1
102
RTVSPropertyOp28
 70
     1
102
RTVSPropertyOp29
 70
     1
102
RTVSPropertyOp30
 70
     1
102
RTVSPropertyOp31
 70
     1
102
RTVSPropertyOp32
 70
     1
102
RTVSPropertyOp33
 70
     1
102
RTVSPropertyOp34
 70
     1
102
RTVSPropertyOp35
 70
     1
102
RTVSPropertyOp36
 70
     1
102
RTVSPropertyOp37
 70
     1
102
RTVSPropertyOp38
 70
     1
102
RTVSPropertyOp39
 70
     1
102
RTVSPropertyOp40
 70
     1
102
RTVSPropertyOp41
 70
     1
102
RTVSPropertyOp42
 70
     1
102
RTVSPropertyOp43
 70
     1
102
RTVSPropertyOp44
 70
     1
102
RTVSPropertyOp45
 70
     1
102
RTVSPropertyOp46
 70
     1
102
RTVSPropertyOp47
 70
     1
102
RTVSPropertyOp48
 70
     1
102
RTVSPropertyOp49
 70
     1
102
RTVSPropertyOp50
 70
     1
102
RTVSPropertyOp51
 70
     0
102
RTVSPropertyOp52
 70
     0
102
RTVSPropertyOp53
 70
     1
102
RTVSPropertyOp54
 70
     1
102
RTVSPropertyOp55
 70
     1
102
RTVSPropertyOp56
 70
     1
102
RTVSPropertyOp57
 70
     1
102
RTVSPropertyOp58
 70
     1
102
RTVSPropertyOp59
 70
     1
102
RTVSPropertyOp60
 70
     1
102
RTVSPropertyOp61
 70
     1
102
RTVSPropertyOp62
 70
     1
  0
XRECORD
  5
487
102
{ACAD_REACTORS
330
486
102
}
330
486
100
AcDbXrecord
280
     1
102
RTVSPost2010Prop28
280
     0
102
RTVSPost2010PropOp28
 70
     1
102
RTVSPost2010Prop29
280
     1
102
RTVSPost2010PropOp29
 70
     1
102
RTVSPost2010Prop30
280
     1
102
RTVSPost2010PropOp30
 70
     1
102
RTVSPost2010Prop31
280
     0
102
RTVSPost2010PropOp31
 70
     1
102
RTVSPost2010Prop32
280
     0
102
RTVSPost2010PropOp32
 70
     1
102
RTVSPost2010Prop33
280
     0
102
RTVSPost2010PropOp33
 70
     1
102
RTVSPost2010Prop34
280
     0
102
RTVSPost2010PropOp34
 70
     1
102
RTVSPost2010Prop35
280
     0
102
RTVSPost2010PropOp35
 70
     1
102
RTVSPost2010Prop36
280
     0
102
RTVSPost2010PropOp36
 70
     1
102
RTVSPost2010Prop37
 90
       50
102
RTVSPost2010PropOp37
 70
     1
102
RTVSPost2010Prop38
140
0.0
102
RTVSPost2010PropOp38
 70
     1
102
RTVSPost2010Prop39
140
1.0
102
RTVSPost2010PropOp39
 70
     1
102
RTVSPost2010Prop40
 90
        0
102
RTVSPost2010PropOp40
 70
     1
102
RTVSPost2010Prop41ColorIndex
 90
       18
102
RTVSPost2010Prop41ColorRGB
 90
        0
102
RTVSPost2010PropOp41
 70
     1
102
RTVSPost2010Prop42
 90
       50
102
RTVSPost2010PropOp42
 70
     1
102
RTVSPost2010Prop43
 90
        3
102
RTVSPost2010PropOp43
 70
     1
102
RTVSPost2010Prop44ColorIndex
 90
        5
102
RTVSPost2010Prop44ColorRGB
 90
      255
102
RTVSPost2010PropOp44
 70
     1
102
RTVSPost2010Prop45
280
     0
102
RTVSPost2010PropOp45
 70
     1
102
RTVSPost2010Prop46
 90
       50
102
RTVSPost2010PropOp46
 70
     1
102
RTVSPost2010Prop47
 90
       50
102
RTVSPost2010PropOp47
 70
     1
102
RTVSPost2010Prop48
 90
       50
102
RTVSPost2010PropOp48
 70
     1
102
RTVSPost2010Prop49
280
     0
102
RTVSPost2010PropOp49
 70
     1
102
RTVSPost2010Prop50
 90
       50
102
RTVSPost2010PropOp50
 70
     1
102
RTVSPost2010Prop51ColorIndex
 90
      256
102
RTVSPost2010Prop51ColorRGB
 90
-16777216
102
RTVSPost2010PropOp51
 70
     0
102
RTVSPost2010Prop52
140
1.0
102
RTVSPost2010PropOp52
 70
     0
102
RTVSPost2010Prop53
 90
        2
102
RTVSPost2010PropOp53
 70
     1
102
RTVSPost2010Prop54
  1
strokes_ogs.tif
102
RTVSPost2010PropOp54
 70
     1
102
RTVSPost2010Prop55
280
     0
102
RTVSPost2010PropOp55
 70
     1
102
RTVSPost2010Prop56
140
1.0
102
RTVSPost2010PropOp56
 70
     1
102
RTVSPost2010Prop57
140
1.0
102
RTVSPost2010PropOp57
 70
     1
102
RTVSPropertyOp0
 70
     1
102
RTVSPropertyOp1
 70
     1
102
RTVSPropertyOp2
 70
     1
102
RTVSPropertyOp3
 70
     1
102
RTVSPropertyOp4
 70
     1
102
RTVSPropertyOp5
 70
     1
102
RTVSPropertyOp6
 70
     1
102
RTVSPropertyOp7
 70
     1
102
RTVSPropertyOp8
 70
     1
102
RTVSPropertyOp9
 70
     1
102
RTVSPropertyOp10
 70
     1
102
RTVSPropertyOp11
 70
     1
102
RTVSPropertyOp12
 70
     1
102
RTVSPropertyOp13
 70
     1
102
RTVSPropertyOp14
 70
     1
102
RTVSPropertyOp15
 70
     1
102
RTVSPropertyOp16
 70
     1
102
RTVSPropertyOp17
 70
     1
102
RTVSPropertyOp18
 70
     1
102
RTVSPropertyOp19
 70
     1
102
RTVSPropertyOp20
 70
     1
102
RTVSPropertyOp21
 70
     1
102
RTVSPropertyOp22
 70
     1
102
RTVSPropertyOp23
 70
     1
102
RTVSPropertyOp24
 70
     1
102
RTVSPropertyOp25
 70
     1
102
RTVSPropertyOp26
 70
     1
102
RTVSPropertyOp27
 70
     1
102
RTVSPropertyOp28
 70
     1
102
RTVSPropertyOp29
 70
     1
102
RTVSPropertyOp30
 70
     1
102
RTVSPropertyOp31
 70
     1
102
RTVSPropertyOp32
 70
     1
102
RTVSPropertyOp33
 70
     1
102
RTVSPropertyOp34
 70
     1
102
RTVSPropertyOp35
 70
     1
102
RTVSPropertyOp36
 70
     1
102
RTVSPropertyOp37
 70
     1
102
RTVSPropertyOp38
 70
     1
102
RTVSPropertyOp39
 70
     1
102
RTVSPropertyOp40
 70
     1
102
RTVSPropertyOp41
 70
     1
102
RTVSPropertyOp42
 70
     1
102
RTVSPropertyOp43
 70
     1
102
RTVSPropertyOp44
 70
     1
102
RTVSPropertyOp45
 70
     1
102
RTVSPropertyOp46
 70
     1
102
RTVSPropertyOp47
 70
     1
102
RTVSPropertyOp48
 70
     1
102
RTVSPropertyOp49
 70
     1
102
RTVSPropertyOp50
 70
     1
102
RTVSPropertyOp51
 70
     0
102
RTVSPropertyOp52
 70
     0
102
RTVSPropertyOp53
 70
     1
102
RTVSPropertyOp54
 70
     1
102
RTVSPropertyOp55
 70
     1
102
RTVSPropertyOp56
 70
     1
102
RTVSPropertyOp57
 70
     1
102
RTVSPropertyOp58
 70
     1
102
RTVSPropertyOp59
 70
     1
102
RTVSPropertyOp60
 70
     1
102
RTVSPropertyOp61
 70
     1
102
RTVSPropertyOp62
 70
     1
  0
XRECORD
  5
489
102
{ACAD_REACTORS
330
488
102
}
330
488
100
AcDbXrecord
280
     1
102
RTVSPost2010Prop28
280
     0
102
RTVSPost2010PropOp28
 70
     1
102
RTVSPost2010Prop29
280
     1
102
RTVSPost2010PropOp29
 70
     1
102
RTVSPost2010Prop30
280
     1
102
RTVSPost2010PropOp30
 70
     1
102
RTVSPost2010Prop31
280
     0
102
RTVSPost2010PropOp31
 70
     1
102
RTVSPost2010Prop32
280
     0
102
RTVSPost2010PropOp32
 70
     1
102
RTVSPost2010Prop33
280
     0
102
RTVSPost2010PropOp33
 70
     1
102
RTVSPost2010Prop34
280
     0
102
RTVSPost2010PropOp34
 70
     1
102
RTVSPost2010Prop35
280
     0
102
RTVSPost2010PropOp35
 70
     1
102
RTVSPost2010Prop36
280
     0
102
RTVSPost2010PropOp36
 70
     1
102
RTVSPost2010Prop37
 90
       50
102
RTVSPost2010PropOp37
 70
     1
102
RTVSPost2010Prop38
140
0.0
102
RTVSPost2010PropOp38
 70
     1
102
RTVSPost2010Prop39
140
1.0
102
RTVSPost2010PropOp39
 70
     1
102
RTVSPost2010Prop40
 90
        0
102
RTVSPost2010PropOp40
 70
     1
102
RTVSPost2010Prop41ColorIndex
 90
       18
102
RTVSPost2010Prop41ColorRGB
 90
        0
102
RTVSPost2010PropOp41
 70
     1
102
RTVSPost2010Prop42
 90
       50
102
RTVSPost2010PropOp42
 70
     1
102
RTVSPost2010Prop43
 90
        3
102
RTVSPost2010PropOp43
 70
     1
102
RTVSPost2010Prop44ColorIndex
 90
        5
102
RTVSPost2010Prop44ColorRGB
 90
      255
102
RTVSPost2010PropOp44
 70
     1
102
RTVSPost2010Prop45
280
     0
102
RTVSPost2010PropOp45
 70
     1
102
RTVSPost2010Prop46
 90
       50
102
RTVSPost2010PropOp46
 70
     1
102
RTVSPost2010Prop47
 90
       50
102
RTVSPost2010PropOp47
 70
     1
102
RTVSPost2010Prop48
 90
       50
102
RTVSPost2010PropOp48
 70
     1
102
RTVSPost2010Prop49
280
     0
102
RTVSPost2010PropOp49
 70
     1
102
RTVSPost2010Prop50
 90
       50
102
RTVSPost2010PropOp50
 70
     1
102
RTVSPost2010Prop51ColorIndex
 90
      256
102
RTVSPost2010Prop51ColorRGB
 90
-16777216
102
RTVSPost2010PropOp51
 70
     0
102
RTVSPost2010Prop52
140
1.0
102
RTVSPost2010PropOp52
 70
     0
102
RTVSPost2010Prop53
 90
        2
102
RTVSPost2010PropOp53
 70
     1
102
RTVSPost2010Prop54
  1
strokes_ogs.tif
102
RTVSPost2010PropOp54
 70
     1
102
RTVSPost2010Prop55
280
     0
102
RTVSPost2010PropOp55
 70
     1
102
RTVSPost2010Prop56
140
1.0
102
RTVSPost2010PropOp56
 70
     1
102
RTVSPost2010Prop57
140
1.0
102
RTVSPost2010PropOp57
 70
     1
102
RTVSPropertyOp0
 70
     1
102
RTVSPropertyOp1
 70
     1
102
RTVSPropertyOp2
 70
     1
102
RTVSPropertyOp3
 70
     1
102
RTVSPropertyOp4
 70
     1
102
RTVSPropertyOp5
 70
     1
102
RTVSPropertyOp6
 70
     1
102
RTVSPropertyOp7
 70
     1
102
RTVSPropertyOp8
 70
     1
102
RTVSPropertyOp9
 70
     1
102
RTVSPropertyOp10
 70
     1
102
RTVSPropertyOp11
 70
     1
102
RTVSPropertyOp12
 70
     1
102
RTVSPropertyOp13
 70
     1
102
RTVSPropertyOp14
 70
     1
102
RTVSPropertyOp15
 70
     1
102
RTVSPropertyOp16
 70
     1
102
RTVSPropertyOp17
 70
     1
102
RTVSPropertyOp18
 70
     1
102
RTVSPropertyOp19
 70
     1
102
RTVSPropertyOp20
 70
     1
102
RTVSPropertyOp21
 70
     1
102
RTVSPropertyOp22
 70
     1
102
RTVSPropertyOp23
 70
     1
102
RTVSPropertyOp24
 70
     1
102
RTVSPropertyOp25
 70
     1
102
RTVSPropertyOp26
 70
     1
102
RTVSPropertyOp27
 70
     1
102
RTVSPropertyOp28
 70
     1
102
RTVSPropertyOp29
 70
     1
102
RTVSPropertyOp30
 70
     1
102
RTVSPropertyOp31
 70
     1
102
RTVSPropertyOp32
 70
     1
102
RTVSPropertyOp33
 70
     1
102
RTVSPropertyOp34
 70
     1
102
RTVSPropertyOp35
 70
     1
102
RTVSPropertyOp36
 70
     1
102
RTVSPropertyOp37
 70
     1
102
RTVSPropertyOp38
 70
     1
102
RTVSPropertyOp39
 70
     1
102
RTVSPropertyOp40
 70
     1
102
RTVSPropertyOp41
 70
     1
102
RTVSPropertyOp42
 70
     1
102
RTVSPropertyOp43
 70
     1
102
RTVSPropertyOp44
 70
     1
102
RTVSPropertyOp45
 70
     1
102
RTVSPropertyOp46
 70
     1
102
RTVSPropertyOp47
 70
     1
102
RTVSPropertyOp48
 70
     1
102
RTVSPropertyOp49
 70
     1
102
RTVSPropertyOp50
 70
     1
102
RTVSPropertyOp51
 70
     0
102
RTVSPropertyOp52
 70
     0
102
RTVSPropertyOp53
 70
     1
102
RTVSPropertyOp54
 70
     1
102
RTVSPropertyOp55
 70
     1
102
RTVSPropertyOp56
 70
     1
102
RTVSPropertyOp57
 70
     1
102
RTVSPropertyOp58
 70
     1
102
RTVSPropertyOp59
 70
     1
102
RTVSPropertyOp60
 70
     1
102
RTVSPropertyOp61
 70
     1
102
RTVSPropertyOp62
 70
     1
  0
XRECORD
  5
47F
102
{ACAD_REACTORS
330
47E
102
}
330
47E
100
AcDbXrecord
280
     1
102
RTVSPost2010Prop28
280
     0
102
RTVSPost2010PropOp28
 70
     1
102
RTVSPost2010Prop29
280
     1
102
RTVSPost2010PropOp29
 70
     1
102
RTVSPost2010Prop30
280
     1
102
RTVSPost2010PropOp30
 70
     1
102
RTVSPost2010Prop31
280
     0
102
RTVSPost2010PropOp31
 70
     1
102
RTVSPost2010Prop32
280
     0
102
RTVSPost2010PropOp32
 70
     1
102
RTVSPost2010Prop33
280
     0
102
RTVSPost2010PropOp33
 70
     1
102
RTVSPost2010Prop34
280
     0
102
RTVSPost2010PropOp34
 70
     1
102
RTVSPost2010Prop35
280
     0
102
RTVSPost2010PropOp35
 70
     1
102
RTVSPost2010Prop36
280
     0
102
RTVSPost2010PropOp36
 70
     1
102
RTVSPost2010Prop37
 90
       50
102
RTVSPost2010PropOp37
 70
     1
102
RTVSPost2010Prop38
140
0.0
102
RTVSPost2010PropOp38
 70
     1
102
RTVSPost2010Prop39
140
1.0
102
RTVSPost2010PropOp39
 70
     1
102
RTVSPost2010Prop40
 90
        0
102
RTVSPost2010PropOp40
 70
     1
102
RTVSPost2010Prop41ColorIndex
 90
       18
102
RTVSPost2010Prop41ColorRGB
 90
        0
102
RTVSPost2010PropOp41
 70
     1
102
RTVSPost2010Prop42
 90
       50
102
RTVSPost2010PropOp42
 70
     1
102
RTVSPost2010Prop43
 90
        3
102
RTVSPost2010PropOp43
 70
     1
102
RTVSPost2010Prop44ColorIndex
 90
        5
102
RTVSPost2010Prop44ColorRGB
 90
      255
102
RTVSPost2010PropOp44
 70
     1
102
RTVSPost2010Prop45
280
     0
102
RTVSPost2010PropOp45
 70
     1
102
RTVSPost2010Prop46
 90
       50
102
RTVSPost2010PropOp46
 70
     1
102
RTVSPost2010Prop47
 90
       50
102
RTVSPost2010PropOp47
 70
     1
102
RTVSPost2010Prop48
 90
       50
102
RTVSPost2010PropOp48
 70
     1
102
RTVSPost2010Prop49
280
     0
102
RTVSPost2010PropOp49
 70
     1
102
RTVSPost2010Prop50
 90
       50
102
RTVSPost2010PropOp50
 70
     1
102
RTVSPost2010Prop51ColorIndex
 90
      256
102
RTVSPost2010Prop51ColorRGB
 90
-16777216
102
RTVSPost2010PropOp51
 70
     0
102
RTVSPost2010Prop52
140
1.0
102
RTVSPost2010PropOp52
 70
     0
102
RTVSPost2010Prop53
 90
        2
102
RTVSPost2010PropOp53
 70
     1
102
RTVSPost2010Prop54
  1
strokes_ogs.tif
102
RTVSPost2010PropOp54
 70
     1
102
RTVSPost2010Prop55
280
     0
102
RTVSPost2010PropOp55
 70
     1
102
RTVSPost2010Prop56
140
1.0
102
RTVSPost2010PropOp56
 70
     1
102
RTVSPost2010Prop57
140
1.0
102
RTVSPost2010PropOp57
 70
     1
102
RTVSPropertyOp0
 70
     1
102
RTVSPropertyOp1
 70
     1
102
RTVSPropertyOp2
 70
     1
102
RTVSPropertyOp3
 70
     1
102
RTVSPropertyOp4
 70
     1
102
RTVSPropertyOp5
 70
     1
102
RTVSPropertyOp6
 70
     1
102
RTVSPropertyOp7
 70
     1
102
RTVSPropertyOp8
 70
     1
102
RTVSPropertyOp9
 70
     1
102
RTVSPropertyOp10
 70
     1
102
RTVSPropertyOp11
 70
     1
102
RTVSPropertyOp12
 70
     1
102
RTVSPropertyOp13
 70
     1
102
RTVSPropertyOp14
 70
     1
102
RTVSPropertyOp15
 70
     1
102
RTVSPropertyOp16
 70
     1
102
RTVSPropertyOp17
 70
     1
102
RTVSPropertyOp18
 70
     1
102
RTVSPropertyOp19
 70
     1
102
RTVSPropertyOp20
 70
     1
102
RTVSPropertyOp21
 70
     1
102
RTVSPropertyOp22
 70
     1
102
RTVSPropertyOp23
 70
     1
102
RTVSPropertyOp24
 70
     1
102
RTVSPropertyOp25
 70
     1
102
RTVSPropertyOp26
 70
     1
102
RTVSPropertyOp27
 70
     1
102
RTVSPropertyOp28
 70
     1
102
RTVSPropertyOp29
 70
     1
102
RTVSPropertyOp30
 70
     1
102
RTVSPropertyOp31
 70
     1
102
RTVSPropertyOp32
 70
     1
102
RTVSPropertyOp33
 70
     1
102
RTVSPropertyOp34
 70
     1
102
RTVSPropertyOp35
 70
     1
102
RTVSPropertyOp36
 70
     1
102
RTVSPropertyOp37
 70
     1
102
RTVSPropertyOp38
 70
     1
102
RTVSPropertyOp39
 70
     1
102
RTVSPropertyOp40
 70
     1
102
RTVSPropertyOp41
 70
     1
102
RTVSPropertyOp42
 70
     1
102
RTVSPropertyOp43
 70
     1
102
RTVSPropertyOp44
 70
     1
102
RTVSPropertyOp45
 70
     1
102
RTVSPropertyOp46
 70
     1
102
RTVSPropertyOp47
 70
     1
102
RTVSPropertyOp48
 70
     1
102
RTVSPropertyOp49
 70
     1
102
RTVSPropertyOp50
 70
     1
102
RTVSPropertyOp51
 70
     0
102
RTVSPropertyOp52
 70
     0
102
RTVSPropertyOp53
 70
     1
102
RTVSPropertyOp54
 70
     1
102
RTVSPropertyOp55
 70
     1
102
RTVSPropertyOp56
 70
     1
102
RTVSPropertyOp57
 70
     1
102
RTVSPropertyOp58
 70
     1
102
RTVSPropertyOp59
 70
     1
102
RTVSPropertyOp60
 70
     1
102
RTVSPropertyOp61
 70
     1
102
RTVSPropertyOp62
 70
     1
  0
XRECORD
  5
473
102
{ACAD_REACTORS
330
472
102
}
330
472
100
AcDbXrecord
280
     1
102
RTVSPost2010Prop28
280
     0
102
RTVSPost2010PropOp28
 70
     1
102
RTVSPost2010Prop29
280
     1
102
RTVSPost2010PropOp29
 70
     1
102
RTVSPost2010Prop30
280
     1
102
RTVSPost2010PropOp30
 70
     1
102
RTVSPost2010Prop31
280
     0
102
RTVSPost2010PropOp31
 70
     1
102
RTVSPost2010Prop32
280
     0
102
RTVSPost2010PropOp32
 70
     1
102
RTVSPost2010Prop33
280
     0
102
RTVSPost2010PropOp33
 70
     1
102
RTVSPost2010Prop34
280
     0
102
RTVSPost2010PropOp34
 70
     1
102
RTVSPost2010Prop35
280
     0
102
RTVSPost2010PropOp35
 70
     1
102
RTVSPost2010Prop36
280
     0
102
RTVSPost2010PropOp36
 70
     1
102
RTVSPost2010Prop37
 90
       50
102
RTVSPost2010PropOp37
 70
     1
102
RTVSPost2010Prop38
140
0.0
102
RTVSPost2010PropOp38
 70
     1
102
RTVSPost2010Prop39
140
1.0
102
RTVSPost2010PropOp39
 70
     1
102
RTVSPost2010Prop40
 90
        0
102
RTVSPost2010PropOp40
 70
     1
102
RTVSPost2010Prop41ColorIndex
 90
       18
102
RTVSPost2010Prop41ColorRGB
 90
        0
102
RTVSPost2010PropOp41
 70
     1
102
RTVSPost2010Prop42
 90
       50
102
RTVSPost2010PropOp42
 70
     1
102
RTVSPost2010Prop43
 90
        3
102
RTVSPost2010PropOp43
 70
     1
102
RTVSPost2010Prop44ColorIndex
 90
        5
102
RTVSPost2010Prop44ColorRGB
 90
      255
102
RTVSPost2010PropOp44
 70
     1
102
RTVSPost2010Prop45
280
     0
102
RTVSPost2010PropOp45
 70
     1
102
RTVSPost2010Prop46
 90
       50
102
RTVSPost2010PropOp46
 70
     1
102
RTVSPost2010Prop47
 90
       50
102
RTVSPost2010PropOp47
 70
     1
102
RTVSPost2010Prop48
 90
       50
102
RTVSPost2010PropOp48
 70
     1
102
RTVSPost2010Prop49
280
     0
102
RTVSPost2010PropOp49
 70
     1
102
RTVSPost2010Prop50
 90
       50
102
RTVSPost2010PropOp50
 70
     1
102
RTVSPost2010Prop51ColorIndex
 90
      256
102
RTVSPost2010Prop51ColorRGB
 90
-16777216
102
RTVSPost2010PropOp51
 70
     0
102
RTVSPost2010Prop52
140
1.0
102
RTVSPost2010PropOp52
 70
     0
102
RTVSPost2010Prop53
 90
        2
102
RTVSPost2010PropOp53
 70
     1
102
RTVSPost2010Prop54
  1
strokes_ogs.tif
102
RTVSPost2010PropOp54
 70
     1
102
RTVSPost2010Prop55
280
     0
102
RTVSPost2010PropOp55
 70
     1
102
RTVSPost2010Prop56
140
1.0
102
RTVSPost2010PropOp56
 70
     1
102
RTVSPost2010Prop57
140
1.0
102
RTVSPost2010PropOp57
 70
     1
102
RTVSPropertyOp0
 70
     1
102
RTVSPropertyOp1
 70
     1
102
RTVSPropertyOp2
 70
     1
102
RTVSPropertyOp3
 70
     1
102
RTVSPropertyOp4
 70
     1
102
RTVSPropertyOp5
 70
     1
102
RTVSPropertyOp6
 70
     1
102
RTVSPropertyOp7
 70
     1
102
RTVSPropertyOp8
 70
     1
102
RTVSPropertyOp9
 70
     1
102
RTVSPropertyOp10
 70
     1
102
RTVSPropertyOp11
 70
     1
102
RTVSPropertyOp12
 70
     1
102
RTVSPropertyOp13
 70
     1
102
RTVSPropertyOp14
 70
     1
102
RTVSPropertyOp15
 70
     1
102
RTVSPropertyOp16
 70
     1
102
RTVSPropertyOp17
 70
     1
102
RTVSPropertyOp18
 70
     1
102
RTVSPropertyOp19
 70
     1
102
RTVSPropertyOp20
 70
     1
102
RTVSPropertyOp21
 70
     1
102
RTVSPropertyOp22
 70
     1
102
RTVSPropertyOp23
 70
     1
102
RTVSPropertyOp24
 70
     1
102
RTVSPropertyOp25
 70
     1
102
RTVSPropertyOp26
 70
     1
102
RTVSPropertyOp27
 70
     1
102
RTVSPropertyOp28
 70
     1
102
RTVSPropertyOp29
 70
     1
102
RTVSPropertyOp30
 70
     1
102
RTVSPropertyOp31
 70
     1
102
RTVSPropertyOp32
 70
     1
102
RTVSPropertyOp33
 70
     1
102
RTVSPropertyOp34
 70
     1
102
RTVSPropertyOp35
 70
     1
102
RTVSPropertyOp36
 70
     1
102
RTVSPropertyOp37
 70
     1
102
RTVSPropertyOp38
 70
     1
102
RTVSPropertyOp39
 70
     1
102
RTVSPropertyOp40
 70
     1
102
RTVSPropertyOp41
 70
     1
102
RTVSPropertyOp42
 70
     1
102
RTVSPropertyOp43
 70
     1
102
RTVSPropertyOp44
 70
     1
102
RTVSPropertyOp45
 70
     1
102
RTVSPropertyOp46
 70
     1
102
RTVSPropertyOp47
 70
     1
102
RTVSPropertyOp48
 70
     1
102
RTVSPropertyOp49
 70
     1
102
RTVSPropertyOp50
 70
     1
102
RTVSPropertyOp51
 70
     0
102
RTVSPropertyOp52
 70
     0
102
RTVSPropertyOp53
 70
     1
102
RTVSPropertyOp54
 70
     1
102
RTVSPropertyOp55
 70
     1
102
RTVSPropertyOp56
 70
     1
102
RTVSPropertyOp57
 70
     1
102
RTVSPropertyOp58
 70
     1
102
RTVSPropertyOp59
 70
     1
102
RTVSPropertyOp60
 70
     1
102
RTVSPropertyOp61
 70
     1
102
RTVSPropertyOp62
 70
     1
  0
XRECORD
  5
48B
102
{ACAD_REACTORS
330
48A
102
}
330
48A
100
AcDbXrecord
280
     1
102
RTVSPost2010Prop28
280
     0
102
RTVSPost2010PropOp28
 70
     1
102
RTVSPost2010Prop29
280
     1
102
RTVSPost2010PropOp29
 70
     1
102
RTVSPost2010Prop30
280
     1
102
RTVSPost2010PropOp30
 70
     1
102
RTVSPost2010Prop31
280
     0
102
RTVSPost2010PropOp31
 70
     1
102
RTVSPost2010Prop32
280
     0
102
RTVSPost2010PropOp32
 70
     1
102
RTVSPost2010Prop33
280
     0
102
RTVSPost2010PropOp33
 70
     1
102
RTVSPost2010Prop34
280
     0
102
RTVSPost2010PropOp34
 70
     1
102
RTVSPost2010Prop35
280
     0
102
RTVSPost2010PropOp35
 70
     1
102
RTVSPost2010Prop36
280
     0
102
RTVSPost2010PropOp36
 70
     1
102
RTVSPost2010Prop37
 90
       50
102
RTVSPost2010PropOp37
 70
     1
102
RTVSPost2010Prop38
140
0.0
102
RTVSPost2010PropOp38
 70
     1
102
RTVSPost2010Prop39
140
1.0
102
RTVSPost2010PropOp39
 70
     1
102
RTVSPost2010Prop40
 90
        0
102
RTVSPost2010PropOp40
 70
     1
102
RTVSPost2010Prop41ColorIndex
 90
       18
102
RTVSPost2010Prop41ColorRGB
 90
        0
102
RTVSPost2010PropOp41
 70
     1
102
RTVSPost2010Prop42
 90
       50
102
RTVSPost2010PropOp42
 70
     1
102
RTVSPost2010Prop43
 90
        3
102
RTVSPost2010PropOp43
 70
     1
102
RTVSPost2010Prop44ColorIndex
 90
        5
102
RTVSPost2010Prop44ColorRGB
 90
      255
102
RTVSPost2010PropOp44
 70
     1
102
RTVSPost2010Prop45
280
     0
102
RTVSPost2010PropOp45
 70
     1
102
RTVSPost2010Prop46
 90
       50
102
RTVSPost2010PropOp46
 70
     1
102
RTVSPost2010Prop47
 90
       50
102
RTVSPost2010PropOp47
 70
     1
102
RTVSPost2010Prop48
 90
       50
102
RTVSPost2010PropOp48
 70
     1
102
RTVSPost2010Prop49
280
     0
102
RTVSPost2010PropOp49
 70
     1
102
RTVSPost2010Prop50
 90
       50
102
RTVSPost2010PropOp50
 70
     1
102
RTVSPost2010Prop51ColorIndex
 90
      256
102
RTVSPost2010Prop51ColorRGB
 90
-16777216
102
RTVSPost2010PropOp51
 70
     0
102
RTVSPost2010Prop52
140
1.0
102
RTVSPost2010PropOp52
 70
     0
102
RTVSPost2010Prop53
 90
        2
102
RTVSPost2010PropOp53
 70
     1
102
RTVSPost2010Prop54
  1
strokes_ogs.tif
102
RTVSPost2010PropOp54
 70
     1
102
RTVSPost2010Prop55
280
     0
102
RTVSPost2010PropOp55
 70
     1
102
RTVSPost2010Prop56
140
1.0
102
RTVSPost2010PropOp56
 70
     1
102
RTVSPost2010Prop57
140
1.0
102
RTVSPost2010PropOp57
 70
     1
102
RTVSPropertyOp0
 70
     1
102
RTVSPropertyOp1
 70
     1
102
RTVSPropertyOp2
 70
     1
102
RTVSPropertyOp3
 70
     1
102
RTVSPropertyOp4
 70
     1
102
RTVSPropertyOp5
 70
     1
102
RTVSPropertyOp6
 70
     1
102
RTVSPropertyOp7
 70
     1
102
RTVSPropertyOp8
 70
     1
102
RTVSPropertyOp9
 70
     1
102
RTVSPropertyOp10
 70
     1
102
RTVSPropertyOp11
 70
     1
102
RTVSPropertyOp12
 70
     1
102
RTVSPropertyOp13
 70
     1
102
RTVSPropertyOp14
 70
     1
102
RTVSPropertyOp15
 70
     1
102
RTVSPropertyOp16
 70
     1
102
RTVSPropertyOp17
 70
     1
102
RTVSPropertyOp18
 70
     1
102
RTVSPropertyOp19
 70
     1
102
RTVSPropertyOp20
 70
     1
102
RTVSPropertyOp21
 70
     1
102
RTVSPropertyOp22
 70
     1
102
RTVSPropertyOp23
 70
     1
102
RTVSPropertyOp24
 70
     1
102
RTVSPropertyOp25
 70
     1
102
RTVSPropertyOp26
 70
     1
102
RTVSPropertyOp27
 70
     1
102
RTVSPropertyOp28
 70
     1
102
RTVSPropertyOp29
 70
     1
102
RTVSPropertyOp30
 70
     1
102
RTVSPropertyOp31
 70
     1
102
RTVSPropertyOp32
 70
     1
102
RTVSPropertyOp33
 70
     1
102
RTVSPropertyOp34
 70
     1
102
RTVSPropertyOp35
 70
     1
102
RTVSPropertyOp36
 70
     1
102
RTVSPropertyOp37
 70
     1
102
RTVSPropertyOp38
 70
     1
102
RTVSPropertyOp39
 70
     1
102
RTVSPropertyOp40
 70
     1
102
RTVSPropertyOp41
 70
     1
102
RTVSPropertyOp42
 70
     1
102
RTVSPropertyOp43
 70
     1
102
RTVSPropertyOp44
 70
     1
102
RTVSPropertyOp45
 70
     1
102
RTVSPropertyOp46
 70
     1
102
RTVSPropertyOp47
 70
     1
102
RTVSPropertyOp48
 70
     1
102
RTVSPropertyOp49
 70
     1
102
RTVSPropertyOp50
 70
     1
102
RTVSPropertyOp51
 70
     0
102
RTVSPropertyOp52
 70
     0
102
RTVSPropertyOp53
 70
     1
102
RTVSPropertyOp54
 70
     1
102
RTVSPropertyOp55
 70
     1
102
RTVSPropertyOp56
 70
     1
102
RTVSPropertyOp57
 70
     1
102
RTVSPropertyOp58
 70
     1
102
RTVSPropertyOp59
 70
     1
102
RTVSPropertyOp60
 70
     1
102
RTVSPropertyOp61
 70
     1
102
RTVSPropertyOp62
 70
     1
  0
ENDSEC
  0
EOF
