  0
SECTION
  2
HEADER
  9
$ACADVER
  1
AC1027
  9
$ACADMAINTVER
 70
    57
  9
$DWGCODEPAGE
  3
ANSI_1252
  9
$TITLE
  1
Schlossunterlage
  9
$AUTHOR
  1
ra
  9
$LASTSAVEDBY
  1
chrwyd
  9
$CUSTOMPROPERTYTAG
  1
Manager
  9
$CUSTOMPROPERTY
  1

  9
$CUSTOMPROPERTYTAG
  1
Firma
  9
$CUSTOMPROPERTY
  1

  9
$CUSTOMPROPERTYTAG
  1
Kategorie
  9
$CUSTOMPROPERTY
  1

  9
$CUSTOMPROPERTYTAG
  1
Bauteilnummer
  9
$CUSTOMPROPERTY
  1
B-15544.13/3mm
  9
$CUSTOMPROPERTYTAG
  1
Bezeichnung
  9
$CUSTOMPROPERTY
  1
Schlossunterlage
  9
$CUSTOMPROPERTYTAG
  1
Projekt
  9
$CUSTOMPROPERTY
  1

  9
$CUSTOMPROPERTYTAG
  1
Konstrukteur
  9
$CUSTOMPROPERTY
  1
ra
  9
$CUSTOMPROPERTYTAG
  1
Ingenieur
  9
$CUSTOMPROPERTY
  1

  9
$CUSTOMPROPERTYTAG
  1
Bevollmächtigter
  9
$CUSTOMPROPERTY
  1

  9
$CUSTOMPROPERTYTAG
  1
Kostenstelle
  9
$CUSTOMPROPERTY
  1

  9
$CUSTOMPROPERTYTAG
  1
Zulieferer
  9
$CUSTOMPROPERTY
  1

  9
$CUSTOMPROPERTYTAG
  1
Benutzerstatus
  9
$CUSTOMPROPERTY
  1

  9
$CUSTOMPROPERTYTAG
  1
Konstruktionsstatus
  9
$CUSTOMPROPERTY
  1
InBearbeitung
  9
$CUSTOMPROPERTYTAG
  1
Kontrolliert von
  9
$CUSTOMPROPERTY
  1

  9
$CUSTOMPROPERTYTAG
  1
Konstruktion genehmigt von
  9
$CUSTOMPROPERTY
  1

  9
$CUSTOMPROPERTYTAG
  1
Fertigung genehmigt von
  9
$CUSTOMPROPERTY
  1

  9
$CUSTOMPROPERTYTAG
  1
1AIMD_REVISION_DATE
  9
$CUSTOMPROPERTY
  1

  9
$CUSTOMPROPERTYTAG
  1
1AIMD_REVISION_DESCRIPTION
  9
$CUSTOMPROPERTY
  1

  9
$CUSTOMPROPERTYTAG
  1
1AIMD_REVISION_INDEX
  9
$CUSTOMPROPERTY
  1

  9
$CUSTOMPROPERTYTAG
  1
1AIMD_REVISION_USERNAME
  9
$CUSTOMPROPERTY
  1

  9
$CUSTOMPROPERTYTAG
  1
2AIMD_REVISION_DATE
  9
$CUSTOMPROPERTY
  1

  9
$CUSTOMPROPERTYTAG
  1
2AIMD_REVISION_DESCRIPTION
  9
$CUSTOMPROPERTY
  1

  9
$CUSTOMPROPERTYTAG
  1
2AIMD_REVISION_INDEX
  9
$CUSTOMPROPERTY
  1

  9
$CUSTOMPROPERTYTAG
  1
2AIMD_REVISION_USERNAME
  9
$CUSTOMPROPERTY
  1

  9
$CUSTOMPROPERTYTAG
  1
3AIMD_REVISION_DATE
  9
$CUSTOMPROPERTY
  1

  9
$CUSTOMPROPERTYTAG
  1
3AIMD_REVISION_DESCRIPTION
  9
$CUSTOMPROPERTY
  1

  9
$CUSTOMPROPERTYTAG
  1
3AIMD_REVISION_INDEX
  9
$CUSTOMPROPERTY
  1

  9
$CUSTOMPROPERTYTAG
  1
3AIMD_REVISION_USERNAME
  9
$CUSTOMPROPERTY
  1

  9
$CUSTOMPROPERTYTAG
  1
4AIMD_REVISION_DATE
  9
$CUSTOMPROPERTY
  1

  9
$CUSTOMPROPERTYTAG
  1
4AIMD_REVISION_DESCRIPTION
  9
$CUSTOMPROPERTY
  1

  9
$CUSTOMPROPERTYTAG
  1
4AIMD_REVISION_INDEX
  9
$CUSTOMPROPERTY
  1

  9
$CUSTOMPROPERTYTAG
  1
4AIMD_REVISION_USERNAME
  9
$CUSTOMPROPERTY
  1

  9
$CUSTOMPROPERTYTAG
  1
5AIMD_REVISION_DATE
  9
$CUSTOMPROPERTY
  1

  9
$CUSTOMPROPERTYTAG
  1
5AIMD_REVISION_DESCRIPTION
  9
$CUSTOMPROPERTY
  1

  9
$CUSTOMPROPERTYTAG
  1
5AIMD_REVISION_INDEX
  9
$CUSTOMPROPERTY
  1

  9
$CUSTOMPROPERTYTAG
  1
5AIMD_REVISION_USERNAME
  9
$CUSTOMPROPERTY
  1

  9
$CUSTOMPROPERTYTAG
  1
6AIMD_REVISION_DATE
  9
$CUSTOMPROPERTY
  1

  9
$CUSTOMPROPERTYTAG
  1
6AIMD_REVISION_DESCRIPTION
  9
$CUSTOMPROPERTY
  1

  9
$CUSTOMPROPERTYTAG
  1
6AIMD_REVISION_INDEX
  9
$CUSTOMPROPERTY
  1

  9
$CUSTOMPROPERTYTAG
  1
6AIMD_REVISION_USERNAME
  9
$CUSTOMPROPERTY
  1

  9
$CUSTOMPROPERTYTAG
  1
7AIMD_REVISION_DATE
  9
$CUSTOMPROPERTY
  1

  9
$CUSTOMPROPERTYTAG
  1
7AIMD_REVISION_DESCRIPTION
  9
$CUSTOMPROPERTY
  1

  9
$CUSTOMPROPERTYTAG
  1
7AIMD_REVISION_INDEX
  9
$CUSTOMPROPERTY
  1

  9
$CUSTOMPROPERTYTAG
  1
7AIMD_REVISION_USERNAME
  9
$CUSTOMPROPERTY
  1

  9
$CUSTOMPROPERTYTAG
  1
8AIMD_REVISION_DATE
  9
$CUSTOMPROPERTY
  1

  9
$CUSTOMPROPERTYTAG
  1
8AIMD_REVISION_DESCRIPTION
  9
$CUSTOMPROPERTY
  1

  9
$CUSTOMPROPERTYTAG
  1
8AIMD_REVISION_INDEX
  9
$CUSTOMPROPERTY
  1

  9
$CUSTOMPROPERTYTAG
  1
8AIMD_REVISION_USERNAME
  9
$CUSTOMPROPERTY
  1

  9
$CUSTOMPROPERTYTAG
  1
AIMD_MATERIAL
  9
$CUSTOMPROPERTY
  1
1.4301
  9
$CUSTOMPROPERTYTAG
  1
AIMD_ORIGIN
  9
$CUSTOMPROPERTY
  1

  9
$CUSTOMPROPERTYTAG
  1
AIMD_PARTNO
  9
$CUSTOMPROPERTY
  1

  9
$CUSTOMPROPERTYTAG
  1
AIMD_REPLACED
  9
$CUSTOMPROPERTY
  1

  9
$CUSTOMPROPERTYTAG
  1
AIMD_REPLACEMENT
  9
$CUSTOMPROPERTY
  1

  9
$CUSTOMPROPERTYTAG
  1
AIMD_SCALE
  9
$CUSTOMPROPERTY
  1

  9
$CUSTOMPROPERTYTAG
  1
AIMD_WEIGHT
  9
$CUSTOMPROPERTY
  1

  9
$CUSTOMPROPERTYTAG
  1
AIMD_WEIGHT_UNIT
  9
$CUSTOMPROPERTY
  1

  9
$CUSTOMPROPERTYTAG
  1
Masseinheit
  9
$CUSTOMPROPERTY
  1
mm
  9
$CUSTOMPROPERTYTAG
  1
AIMD_BEZ2
  9
$CUSTOMPROPERTY
  1
sFlipLock Standard mit Motor
  9
$CUSTOMPROPERTYTAG
  1
AIMD_BEZ3
  9
$CUSTOMPROPERTY
  1
445x24x3mm
  9
$CUSTOMPROPERTYTAG
  1
AIMD_BEZ4
  9
$CUSTOMPROPERTY
  1

  9
$CUSTOMPROPERTYTAG
  1
AIMD_FIRMA
  9
$CUSTOMPROPERTY
  1

  9
$CUSTOMPROPERTYTAG
  1
AIMD_OBERFL
  9
$CUSTOMPROPERTY
  1
matt gebuerstet (mb)
  9
$CUSTOMPROPERTYTAG
  1
TEILENR
  9
$CUSTOMPROPERTY
  1

  9
$CUSTOMPROPERTYTAG
  1
DATEINAME
  9
$CUSTOMPROPERTY
  1
B-15544.13_3MM
  9
$CUSTOMPROPERTYTAG
  1
FILE_EXT
  9
$CUSTOMPROPERTY
  1
idw
  9
$CUSTOMPROPERTYTAG
  1
EDM_CREATE_DATE
  9
$CUSTOMPROPERTY
  1
03/14/2016
  9
$CUSTOMPROPERTYTAG
  1
EDM_CREATE_BY
  9
$CUSTOMPROPERTY
  1
ra
  9
$CUSTOMPROPERTYTAG
  1
EDM_CHECKED_BY
  9
$CUSTOMPROPERTY
  1

  9
$CUSTOMPROPERTYTAG
  1
AIMD_REV
  9
$CUSTOMPROPERTY
  1

  9
$CUSTOMPROPERTYTAG
  1
AIMD_DESCRIPTION
  9
$CUSTOMPROPERTY
  1
sFlipLock Standard mit Motor
  9
$CUSTOMPROPERTYTAG
  1
AIMD_AIMKEY
  9
$CUSTOMPROPERTY
  1
217767.21599
  9
$CUSTOMPROPERTYTAG
  1
AIMD_USERID
  9
$CUSTOMPROPERTY
  1
ra
  9
$CUSTOMPROPERTYTAG
  1
FIRST_SCALE
  9
$CUSTOMPROPERTY
  1
1 : 2
  9
$REQUIREDVERSIONS
160
                 0
  9
$INSBASE
 10
0.0
 20
0.0
 30
0.0
  9
$EXTMIN
 10
108.518372686252
 20
164.3977676876795
 30
-0.0000000000112498
  9
$EXTMAX
 10
250.6311042963423
 20
573.488801407964
 30
0.0000000000002956
  9
$LIMMIN
 10
0.0
 20
0.0
  9
$LIMMAX
 10
420.0
 20
594.0
  9
$ORTHOMODE
 70
     0
  9
$REGENMODE
 70
     1
  9
$FILLMODE
 70
     1
  9
$QTEXTMODE
 70
     0
  9
$MIRRTEXT
 70
     0
  9
$LTSCALE
 40
2.0
  9
$ATTMODE
 70
     1
  9
$TEXTSIZE
 40
0.2
  9
$TRACEWID
 40
0.05
  9
$TEXTSTYLE
  7
Standard
  9
$CLAYER
  8
0
  9
$CELTYPE
  6
ByLayer
  9
$CECOLOR
 62
   256
  9
$CELTSCALE
 40
1.0
  9
$DISPSILH
 70
     0
  9
$DIMSCALE
 40
1.0
  9
$DIMASZ
 40
1.799999999999999
  9
$DIMEXO
 40
0.0625
  9
$DIMDLI
 40
0.38
  9
$DIMRND
 40
0.0
  9
$DIMDLE
 40
0.0
  9
$DIMEXE
 40
0.18
  9
$DIMTP
 40
0.0
  9
$DIMTM
 40
0.0
  9
$DIMTXT
 40
0.2000000029802322
  9
$DIMCEN
 40
0.09
  9
$DIMTSZ
 40
0.0
  9
$DIMTOL
 70
     0
  9
$DIMLIM
 70
     0
  9
$DIMTIH
 70
     1
  9
$DIMTOH
 70
     1
  9
$DIMSE1
 70
     0
  9
$DIMSE2
 70
     0
  9
$DIMTAD
 70
     0
  9
$DIMZIN
 70
     0
  9
$DIMBLK
  1

  9
$DIMASO
 70
     1
  9
$DIMSHO
 70
     1
  9
$DIMPOST
  1

  9
$DIMAPOST
  1

  9
$DIMALT
 70
     0
  9
$DIMALTD
 70
     2
  9
$DIMALTF
 40
25.4
  9
$DIMLFAC
 40
1.0
  9
$DIMTOFL
 70
     0
  9
$DIMTVP
 40
0.0
  9
$DIMTIX
 70
     0
  9
$DIMSOXD
 70
     0
  9
$DIMSAH
 70
     0
  9
$DIMBLK1
  1

  9
$DIMBLK2
  1

  9
$DIMSTYLE
  2
Standard
  9
$DIMCLRD
 70
     0
  9
$DIMCLRE
 70
     0
  9
$DIMCLRT
 70
     0
  9
$DIMTFAC
 40
1.0
  9
$DIMGAP
 40
0.09
  9
$DIMJUST
 70
     0
  9
$DIMSD1
 70
     0
  9
$DIMSD2
 70
     0
  9
$DIMTOLJ
 70
     1
  9
$DIMTZIN
 70
     0
  9
$DIMALTZ
 70
     0
  9
$DIMALTTZ
 70
     0
  9
$DIMUPT
 70
     0
  9
$DIMDEC
 70
     4
  9
$DIMTDEC
 70
     4
  9
$DIMALTU
 70
     2
  9
$DIMALTTD
 70
     2
  9
$DIMTXSTY
  7
Standard
  9
$DIMAUNIT
 70
     0
  9
$DIMADEC
 70
     0
  9
$DIMALTRND
 40
0.0
  9
$DIMAZIN
 70
     0
  9
$DIMDSEP
 70
    46
  9
$DIMATFIT
 70
     3
  9
$DIMFRAC
 70
     0
  9
$DIMLDRBLK
  1

  9
$DIMLUNIT
 70
     2
  9
$DIMLWD
 70
    -2
  9
$DIMLWE
 70
    -2
  9
$DIMTMOVE
 70
     0
  9
$DIMFXL
 40
1.0
  9
$DIMFXLON
 70
     0
  9
$DIMJOGANG
 40
1.570796326794896
  9
$DIMTFILL
 70
     0
  9
$DIMTFILLCLR
 70
     0
  9
$DIMARCSYM
 70
     0
  9
$DIMLTYPE
  6
ByBlock
  9
$DIMLTEX1
  6
ByBlock
  9
$DIMLTEX2
  6
ByBlock
  9
$DIMTXTDIRECTION
 70
     0
  9
$LUNITS
 70
     2
  9
$LUPREC
 70
     2
  9
$SKETCHINC
 40
0.1
  9
$FILLETRAD
 40
0.0
  9
$AUNITS
 70
     0
  9
$AUPREC
 70
     0
  9
$MENU
  1
.
  9
$ELEVATION
 40
0.0
  9
$PELEVATION
 40
0.0
  9
$THICKNESS
 40
0.0
  9
$LIMCHECK
 70
     0
  9
$CHAMFERA
 40
0.0
  9
$CHAMFERB
 40
0.0
  9
$CHAMFERC
 40
0.0
  9
$CHAMFERD
 40
0.0
  9
$SKPOLY
 70
     0
  9
$TDCREATE
 40
2457462.451369642
  9
$TDUCREATE
 40
2457462.368036308
  9
$TDUPDATE
 40
2458368.594963322
  9
$TDUUPDATE
 40
2458368.511629989
  9
$TDINDWG
 40
0.0008227546
  9
$TDUSRTIMER
 40
0.0008226852
  9
$USRTIMER
 70
     1
  9
$ANGBASE
 50
0.0
  9
$ANGDIR
 70
     0
  9
$PDMODE
 70
     0
  9
$PDSIZE
 40
0.0
  9
$PLINEWID
 40
0.0
  9
$SPLFRAME
 70
     0
  9
$SPLINETYPE
 70
     6
  9
$SPLINESEGS
 70
     8
  9
$HANDSEED
  5
118E
  9
$SURFTAB1
 70
     6
  9
$SURFTAB2
 70
     6
  9
$SURFTYPE
 70
     6
  9
$SURFU
 70
     6
  9
$SURFV
 70
     6
  9
$UCSBASE
  2

  9
$UCSNAME
  2

  9
$UCSORG
 10
0.0
 20
0.0
 30
0.0
  9
$UCSXDIR
 10
1.0
 20
0.0
 30
0.0
  9
$UCSYDIR
 10
0.0
 20
1.0
 30
0.0
  9
$UCSORTHOREF
  2

  9
$UCSORTHOVIEW
 70
     0
  9
$UCSORGTOP
 10
0.0
 20
0.0
 30
0.0
  9
$UCSORGBOTTOM
 10
0.0
 20
0.0
 30
0.0
  9
$UCSORGLEFT
 10
0.0
 20
0.0
 30
0.0
  9
$UCSORGRIGHT
 10
0.0
 20
0.0
 30
0.0
  9
$UCSORGFRONT
 10
0.0
 20
0.0
 30
0.0
  9
$UCSORGBACK
 10
0.0
 20
0.0
 30
0.0
  9
$PUCSBASE
  2

  9
$PUCSNAME
  2

  9
$PUCSORG
 10
0.0
 20
0.0
 30
0.0
  9
$PUCSXDIR
 10
1.0
 20
0.0
 30
0.0
  9
$PUCSYDIR
 10
0.0
 20
1.0
 30
0.0
  9
$PUCSORTHOREF
  2

  9
$PUCSORTHOVIEW
 70
     0
  9
$PUCSORGTOP
 10
0.0
 20
0.0
 30
0.0
  9
$PUCSORGBOTTOM
 10
0.0
 20
0.0
 30
0.0
  9
$PUCSORGLEFT
 10
0.0
 20
0.0
 30
0.0
  9
$PUCSORGRIGHT
 10
0.0
 20
0.0
 30
0.0
  9
$PUCSORGFRONT
 10
0.0
 20
0.0
 30
0.0
  9
$PUCSORGBACK
 10
0.0
 20
0.0
 30
0.0
  9
$USERI1
 70
     0
  9
$USERI2
 70
     0
  9
$USERI3
 70
     0
  9
$USERI4
 70
     0
  9
$USERI5
 70
     0
  9
$USERR1
 40
0.0
  9
$USERR2
 40
0.0
  9
$USERR3
 40
0.0
  9
$USERR4
 40
0.0
  9
$USERR5
 40
0.0
  9
$WORLDVIEW
 70
     1
  9
$SHADEDGE
 70
     3
  9
$SHADEDIF
 70
    70
  9
$TILEMODE
 70
     1
  9
$MAXACTVP
 70
    64
  9
$PINSBASE
 10
0.0
 20
0.0
 30
0.0
  9
$PLIMCHECK
 70
     0
  9
$PEXTMIN
 10
0.0
 20
0.0
 30
0.0
  9
$PEXTMAX
 10
420.0
 20
594.0
 30
0.0
  9
$PLIMMIN
 10
0.0
 20
0.0
  9
$PLIMMAX
 10
420.0
 20
594.0
  9
$UNITMODE
 70
     0
  9
$VISRETAIN
 70
     1
  9
$PLINEGEN
 70
     0
  9
$PSLTSCALE
 70
     1
  9
$TREEDEPTH
 70
  3020
  9
$CMLSTYLE
  2
Standard
  9
$CMLJUST
 70
     0
  9
$CMLSCALE
 40
1.0
  9
$PROXYGRAPHICS
 70
     1
  9
$MEASUREMENT
 70
     1
  9
$CELWEIGHT
370
    -1
  9
$ENDCAPS
280
     0
  9
$JOINSTYLE
280
     0
  9
$LWDISPLAY
290
     0
  9
$INSUNITS
 70
     4
  9
$HYPERLINKBASE
  1

  9
$STYLESHEET
  1

  9
$XEDIT
290
     1
  9
$CEPSNTYPE
380
     0
  9
$PSTYLEMODE
290
     1
  9
$FINGERPRINTGUID
  2
{9238FA99-86B5-4C8E-BED9-03F522A8E77A}
  9
$VERSIONGUID
  2
{A6CEB828-D73E-4B59-813C-998DF6B659E4}
  9
$EXTNAMES
290
     1
  9
$PSVPSCALE
 40
0.0
  9
$OLESTARTUP
290
     0
  9
$SORTENTS
280
   127
  9
$INDEXCTL
280
     0
  9
$HIDETEXT
280
     1
  9
$XCLIPFRAME
280
     2
  9
$HALOGAP
280
     0
  9
$OBSCOLOR
 70
   257
  9
$OBSLTYPE
280
     0
  9
$INTERSECTIONDISPLAY
280
     0
  9
$INTERSECTIONCOLOR
 70
   257
  9
$DIMASSOC
280
     1
  9
$PROJECTNAME
  1

  9
$CAMERADISPLAY
290
     0
  9
$LENSLENGTH
 40
50.0
  9
$CAMERAHEIGHT
 40
0.0
  9
$STEPSPERSEC
 40
2.0
  9
$STEPSIZE
 40
6.0
  9
$3DDWFPREC
 40
2.0
  9
$PSOLWIDTH
 40
0.25
  9
$PSOLHEIGHT
 40
4.0
  9
$LOFTANG1
 40
1.570796326794896
  9
$LOFTANG2
 40
1.570796326794896
  9
$LOFTMAG1
 40
0.0
  9
$LOFTMAG2
 40
0.0
  9
$LOFTPARAM
 70
     7
  9
$LOFTNORMALS
280
     1
  9
$LATITUDE
 40
37.795
  9
$LONGITUDE
 40
-122.394
  9
$NORTHDIRECTION
 40
0.0
  9
$TIMEZONE
 70
 -8000
  9
$LIGHTGLYPHDISPLAY
280
     1
  9
$TILEMODELIGHTSYNCH
280
     1
  9
$CMATERIAL
347
11
  9
$SOLIDHIST
280
     0
  9
$SHOWHIST
280
     1
  9
$DWFFRAME
280
     2
  9
$DGNFRAME
280
     0
  9
$REALWORLDSCALE
290
     1
  9
$INTERFERECOLOR
 62
     1
  9
$INTERFEREOBJVS
345
33
  9
$INTERFEREVPVS
346
30
  9
$CSHADOW
280
     0
  9
$SHADOWPLANELOCATION
 40
0.0
  0
ENDSEC
  0
SECTION
  2
CLASSES
  0
CLASS
  1
ACDBDICTIONARYWDFLT
  2
AcDbDictionaryWithDefault
  3
ObjectDBX Classes
 90
        0
 91
        1
280
     0
281
     0
  0
CLASS
  1
MATERIAL
  2
AcDbMaterial
  3
ObjectDBX Classes
 90
     1153
 91
        3
280
     0
281
     0
  0
CLASS
  1
VISUALSTYLE
  2
AcDbVisualStyle
  3
ObjectDBX Classes
 90
     4095
 91
       24
280
     0
281
     0
  0
CLASS
  1
SCALE
  2
AcDbScale
  3
ObjectDBX Classes
 90
     1153
 91
       17
280
     0
281
     0
  0
CLASS
  1
TABLESTYLE
  2
AcDbTableStyle
  3
ObjectDBX Classes
 90
     4095
 91
        1
280
     0
281
     0
  0
CLASS
  1
MLEADERSTYLE
  2
AcDbMLeaderStyle
  3
ACDB_MLEADERSTYLE_CLASS
 90
     4095
 91
        1
280
     0
281
     0
  0
CLASS
  1
ACDBSECTIONVIEWSTYLE
  2
AcDbSectionViewStyle
  3
ObjectDBX Classes
 90
     1025
 91
        3
280
     0
281
     0
  0
CLASS
  1
ACDBDETAILVIEWSTYLE
  2
AcDbDetailViewStyle
  3
ObjectDBX Classes
 90
     1025
 91
        3
280
     0
281
     0
  0
CLASS
  1
DICTIONARYVAR
  2
AcDbDictionaryVar
  3
ObjectDBX Classes
 90
        0
 91
       14
280
     0
281
     0
  0
CLASS
  1
ACME_DOCUMENT
  2
AcMeDbDoc
  3
AcMeServices
 90
     1024
 91
        1
280
     0
281
     0
  0
CLASS
  1
AMGSETTINGSOBJ
  2
AmgSettingsObj
  3
"AcadM|Product Description: AutoCAD Mechanical|Company: Autodesk, Inc."
 90
     1024
 91
        2
280
     0
281
     0
  0
CLASS
  1
ACMESCOPE
  2
AcMeScope
  3
AcMeServices
 90
     1024
 91
        1
280
     0
281
     0
  0
CLASS
  1
ACMECOMMANDHISTORY
  2
AcMeCommandHistory
  3
AcMeServices
 90
     1024
 91
        1
280
     0
281
     0
  0
CLASS
  1
ACIMSYSVARMAN
  2
AcImSysVarManager
  3
AcMeServices
 90
     1024
 91
        3
280
     0
281
     0
  0
CLASS
  1
ACIMINTSYSVAR
  2
AcImIntSysVar
  3
AcMeServices
 90
     1024
 91
        2
280
     0
281
     0
  0
CLASS
  1
ACMESTATEMGR
  2
AcMeStateMgr
  3
AcMeServices
 90
     1024
 91
        1
280
     0
281
     0
  0
CLASS
  1
ACDBENTITYCACHE
  2
AcMeEntityCache
  3
AcMeServices
 90
     1024
 91
        1
280
     0
281
     0
  0
CLASS
  1
ACGREFMASTER
  2
AcGrefMaster
  3
AcAttribServices
 90
     1024
 91
        1
280
     0
281
     0
  0
CLASS
  1
ACME_DATABASE
  2
AcMeDbDatabase
  3
AcMeServices
 90
     1024
 91
        1
280
     0
281
     0
  0
CLASS
  1
ACRFINSADJUSTERMGR
  2
AcRfInsAdjusterMgr
  3
AcMeServices
 90
     1024
 91
        1
280
     0
281
     0
  0
CLASS
  1
ACGREFACADMASTER
  2
AcGrefacadMaster
  3
AcGrefServices
 90
     1024
 91
        1
280
     0
281
     0
  0
CLASS
  1
AMDTMENUSTATEMGR
  2
AmdtMenuStateMgr
  3
McadcomServices
 90
     1024
 91
        1
280
     0
281
     0
  0
CLASS
  1
AMDTMCOMMENUSTATE
  2
AmdtMcomMenuState
  3
McadcomServices
 90
     1024
 91
        1
280
     0
281
     0
  0
CLASS
  1
AMIMASTER
  2
AmiMaster
  3
AmiServices
 90
     1024
 91
        1
280
     0
281
     0
  0
CLASS
  1
MAPIAMMOUDLE
  2
MApiAmModule
  3
MApiAmServices
 90
     1024
 91
        1
280
     0
281
     0
  0
CLASS
  1
ACIMSTRSYSVAR
  2
AcImStrSysVar
  3
AcMeServices
 90
     1024
 91
        5
280
     0
281
     0
  0
CLASS
  1
AMDTAMMENUSTATE
  2
AmdtAmMenuState
  3
DesignerAssemblies
 90
     1024
 91
        1
280
     0
281
     0
  0
CLASS
  1
ACAMPROJECT
  2
AcAmProject
  3
DesignerAssemblies
 90
     1024
 91
        1
280
     0
281
     0
  0
CLASS
  1
ACAMGRCOMPDEF
  2
AcAmGrCompDef
  3
DesignerAssemblies
 90
     1024
 91
        1
280
     0
281
     0
  0
CLASS
  1
ACAMCOMPDEF
  2
AcAmCompDef
  3
DesignerAssemblies
 90
     1024
 91
        1
280
     0
281
     0
  0
CLASS
  1
ACAMCOMPDEFMGR
  2
AcAmCompDefMgr
  3
DesignerAssemblies
 90
     1024
 91
        1
280
     0
281
     0
  0
CLASS
  1
AMCONTEXTMGR
  2
AcAmContextMgr
  3
DesignerAssemblies
 90
     1024
 91
        1
280
     0
281
     0
  0
CLASS
  1
ACAMCONTEXTMODELER
  2
AcAmContextModeler
  3
DesignerAssemblies
 90
     1024
 91
        1
280
     0
281
     0
  0
CLASS
  1
ACMDATADICTIONARY
  2
AcmDataDictionary
  3
"AcmSymBB|Product Description: AutoCAD Mechanical|Company: Autodesk, Inc."
 90
     1024
 91
        1
280
     0
281
     0
  0
CLASS
  1
ACAMGRCOMPDEFSET
  2
AcAmGrCompDefSet
  3
DesignerAssemblies
 90
     1024
 91
        1
280
     0
281
     0
  0
CLASS
  1
AMDTBROWSERDBTAB
  2
AmdtBrowserDbTab
  3
McadcomServices
 90
     1024
 91
        1
280
     0
281
     0
  0
CLASS
  1
CBROWSERAPPOBJECT
  2
CBrowserAppObject
  3
McadcomServices
 90
     1024
 91
        2
280
     0
281
     0
  0
CLASS
  1
DM_PLACEHOLDER
  2
AcDmSelsetPlaceholder
  3
McadcomServices
 90
     1024
 91
        1
280
     0
281
     0
  0
CLASS
  1
ACMSTANDARDDIN
  2
AcmStandardDIN
  3
"Amdt_StdImp|Product Description: AutoCAD Mechanical|Company: Autodesk, Inc."
 90
     1024
 91
        1
280
     0
281
     0
  0
CLASS
  1
AMDTEDGESTANDARDDIN13715
  2
AmdtEdgeStdDIN13715
  3
"Amdt_StdImp|Product Description: AutoCAD Mechanical|Company: Autodesk, Inc."
 90
     1024
 91
        1
280
     0
281
     0
  0
CLASS
  1
ACMSURFSTANDARDDIN2002
  2
AcmSurfTextStdDIN2002
  3
"Amdt_StdImp|Product Description: AutoCAD Mechanical|Company: Autodesk, Inc."
 90
     1024
 91
        1
280
     0
281
     0
  0
CLASS
  1
ACMFCFSTANDARDDIN2008
  2
AcmFCFStdDIN2008
  3
"Amdt_StdImp|Product Description: AutoCAD Mechanical|Company: Autodesk, Inc."
 90
     1024
 91
        1
280
     0
281
     0
  0
CLASS
  1
ACMWELDSTANDARDDIN
  2
AcmWeldingStdDIN
  3
"Amdt_StdImp|Product Description: AutoCAD Mechanical|Company: Autodesk, Inc."
 90
     1024
 91
        1
280
     0
281
     0
  0
CLASS
  1
ACMIDSTANDARDDIN2008
  2
AcmIdStdDIN2008
  3
"Amdt_StdImp|Product Description: AutoCAD Mechanical|Company: Autodesk, Inc."
 90
     1024
 91
        1
280
     0
281
     0
  0
CLASS
  1
ACMDATUMSTANDARDDIN
  2
AcmDatumStdDIN
  3
"Amdt_StdImp|Product Description: AutoCAD Mechanical|Company: Autodesk, Inc."
 90
     1024
 91
        1
280
     0
281
     0
  0
CLASS
  1
ACMBOMSTANDARDDIN
  2
AcmBOMStdDIN
  3
"Amdt_StdImp|Product Description: AutoCAD Mechanical|Company: Autodesk, Inc."
 90
     1024
 91
        1
280
     0
281
     0
  0
CLASS
  1
ACMDETAILSTANDARDDIN
  2
AmdtDetailSymStdDIN
  3
"Amdt_StdImp|Product Description: AutoCAD Mechanical|Company: Autodesk, Inc."
 90
     1024
 91
        1
280
     0
281
     0
  0
CLASS
  1
ACMSECTIONSTANDARDDIN
  2
AmdtSectionSymStdDIN
  3
"Amdt_StdImp|Product Description: AutoCAD Mechanical|Company: Autodesk, Inc."
 90
     1024
 91
        1
280
     0
281
     0
  0
CLASS
  1
ACMCENTERLINESTANDARDDIN
  2
AmdtCenterLineStdDIN
  3
"Amdt_StdImp|Product Description: AutoCAD Mechanical|Company: Autodesk, Inc."
 90
     1024
 91
        1
280
     0
281
     0
  0
CLASS
  1
ACMTHREADLINESTANDARDDIN
  2
AmdtThreadLineStdDIN
  3
"Amdt_StdImp|Product Description: AutoCAD Mechanical|Company: Autodesk, Inc."
 90
     1024
 91
        1
280
     0
281
     0
  0
CLASS
  1
ACMNOTESTANDARDDIN
  2
AmdtNoteStdDIN
  3
"Amdt_StdImp|Product Description: AutoCAD Mechanical|Company: Autodesk, Inc."
 90
     1024
 91
        1
280
     0
281
     0
  0
CLASS
  1
ACMTAPERSTANDARDDIN
  2
AcmTaperStdDIN
  3
"Amdt_StdImp|Product Description: AutoCAD Mechanical|Company: Autodesk, Inc."
 90
     1024
 91
        1
280
     0
281
     0
  0
CLASS
  1
ACMANOOTATIONVIEWSTANDARDDIN
  2
AmdtAnViewStdDIN
  3
"Amdt_StdImp|Product Description: AutoCAD Mechanical|Company: Autodesk, Inc."
 90
     1024
 91
        1
280
     0
281
     0
  0
CLASS
  1
ACAMGLAYSTD
  2
AcAmgLayStd
  3
"AmgLay|Product Description: AutoCAD Mechanical|Company: Autodesk, Inc."
 90
     1024
 91
        1
280
     0
281
     0
  0
CLASS
  1
ACAMGDIMSTD
  2
AcAmgDimStd
  3
"AmgDim|Product Description: AutoCAD Mechanical|Company: Autodesk, Inc."
 90
     1024
 91
        1
280
     0
281
     0
  0
CLASS
  1
AMGOBJPROPCFG
  2
AmgObjPropCfg
  3
"AmgLay|Product Description: AutoCAD Mechanical|Company: Autodesk, Inc."
 90
     1024
 91
        1
280
     0
281
     0
  0
CLASS
  1
ACAMGHOLECHARTSTDDIN
  2
AcAmgHoleChartStdDIN
  3
AmgDim|Product Description: AutoCAD Mechanical|Company: Autodesk, Inc.
 90
     1024
 91
        1
280
     0
281
     0
  0
CLASS
  1
ACAMGTITLESTD
  2
AcAmgTitleStd
  3
"AmgTitle|Product Description: AutoCAD Mechanical|Company: Autodesk, Inc."
 90
     1024
 91
        1
280
     0
281
     0
  0
CLASS
  1
ACMSECTIONSTANDARDCUSTOM
  2
AmdtSectionSymStdCustom
  3
"Amdt_StdImp|Product Description: AutoCAD Mechanical|Company: Autodesk, Inc."
 90
     1024
 91
        2
280
     0
281
     0
  0
CLASS
  1
ACMDETAILTANDARDCUSTOM
  2
AmdtDetailSymStdCustom
  3
"Amdt_StdImp|Product Description: AutoCAD Mechanical|Company: Autodesk, Inc."
 90
     1024
 91
        2
280
     0
281
     0
  0
CLASS
  1
FIELD
  2
AcDbField
  3
ObjectDBX Classes
 90
     1152
 91
        6
280
     0
281
     0
  0
CLASS
  1
FIELDLIST
  2
AcDbFieldList
  3
ObjectDBX Classes
 90
     1152
 91
        1
280
     0
281
     0
  0
CLASS
  1
AMDTNOTETEMPLATEDB
  2
AmdtNoteTemplateDB
  3
AcmSymBB|Product Description: AutoCAD Mechanical|Company: Autodesk, Inc.
 90
     1024
 91
        7
280
     0
281
     0
  0
CLASS
  1
ACAMGFILTERDAT
  2
AcAmgFilterDat
  3
"AcadM|Product Description: AutoCAD Mechanical|Company: Autodesk, Inc."
 90
     1024
 91
        0
280
     0
281
     0
  0
CLASS
  1
CELLSTYLEMAP
  2
AcDbCellStyleMap
  3
ObjectDBX Classes
 90
     1152
 91
        2
280
     0
281
     0
  0
ENDSEC
  0
SECTION
  2
TABLES
  0
TABLE
  2
VPORT
  5
8
330
0
100
AcDbSymbolTable
 70
     1
  0
VPORT
  5
57
330
8
100
AcDbSymbolTableRecord
100
AcDbViewportTableRecord
  2
*Active
 70
     0
 10
0.0
 20
0.0
 11
1.0
 21
1.0
 12
179.5747384912971
 22
368.9432845478218
 13
0.0
 23
0.0
 14
1.0
 24
1.0
 15
0.0
 25
0.0
 16
0.0
 26
0.0
 36
1.0
 17
0.0
 27
0.0
 37
0.0
 40
412.0917014492841
 41
2.179926560587515
 42
50.0
 43
0.0
 44
0.0
 50
0.0
 51
0.0
 71
     0
 72
   100
 73
     1
 74
     1
 75
     0
 76
     0
 77
     0
 78
     0
281
     0
 65
     0
110
0.0
120
0.0
130
0.0
111
1.0
121
0.0
131
0.0
112
0.0
122
1.0
132
0.0
 79
     0
146
0.0
348
2F
 60
     3
 61
     5
292
     1
282
     1
141
0.0
142
0.0
 63
   250
421
  3355443
1001
ACAD_NAV_VCDISPLAY
1070
     3
  0
ENDTAB
  0
TABLE
  2
LTYPE
  5
5
330
0
100
AcDbSymbolTable
 70
    74
  0
LTYPE
  5
5B
330
5
100
AcDbSymbolTableRecord
100
AcDbLinetypeTableRecord
  2
ByBlock
 70
     0
  3

 72
    65
 73
     0
 40
0.0
  0
LTYPE
  5
5C
330
5
100
AcDbSymbolTableRecord
100
AcDbLinetypeTableRecord
  2
ByLayer
 70
     0
  3

 72
    65
 73
     0
 40
0.0
  0
LTYPE
  5
5D
330
5
100
AcDbSymbolTableRecord
100
AcDbLinetypeTableRecord
  2
Continuous
 70
     0
  3
Solid line
 72
    65
 73
     0
 40
0.0
  0
LTYPE
  5
78
330
5
100
AcDbSymbolTableRecord
100
AcDbLinetypeTableRecord
  2
Section_View_Lines
 70
     0
  3
Section View Lines
 72
    65
 73
     4
 40
0.8406
 49
0.6614
 74
     0
 49
-0.0827
 74
     0
 49
0.0138
 74
     0
 49
-0.0827
 74
     0
  0
LTYPE
  5
79
330
5
100
AcDbSymbolTableRecord
100
AcDbLinetypeTableRecord
  2
CHAIN
 70
     0
  3
Chain ____ _ ____ _ ____ _ ____ _ ____ _ ____
 72
    65
 73
     4
 40
0.3543
 49
0.2362
 74
     0
 49
-0.0295
 74
     0
 49
0.0591
 74
     0
 49
-0.0295
 74
     0
  0
LTYPE
  5
7A
330
5
100
AcDbSymbolTableRecord
100
AcDbLinetypeTableRecord
  2
DASH_DOT
 70
     0
  3
Dash dot _._._._._._._._._._._._._._._.
 72
    65
 73
     4
 40
0.37
 49
0.24
 74
     0
 49
-0.06
 74
     0
 49
0.01
 74
     0
 49
-0.06
 74
     0
  0
LTYPE
  5
7B
330
5
100
AcDbSymbolTableRecord
100
AcDbLinetypeTableRecord
  2
DASH_DOUBLE_DOT
 70
     0
  3
Dash Double Dot __ __ . __ __ . __ __ . __ _
 72
    65
 73
     6
 40
0.4398000000000001
 49
0.24
 74
     0
 49
-0.06
 74
     0
 49
0.0098
 74
     0
 49
-0.06
 74
     0
 49
0.01
 74
     0
 49
-0.06
 74
     0
  0
LTYPE
  5
7C
330
5
100
AcDbSymbolTableRecord
100
AcDbLinetypeTableRecord
  2
DASH_TRIPLE_DOT
 70
     0
  3
Dash Triple-Dot _ . . . _ . . . _ . . . _
 72
    65
 73
     8
 40
0.51
 49
0.24
 74
     0
 49
-0.06
 74
     0
 49
0.01
 74
     0
 49
-0.06
 74
     0
 49
0.01
 74
     0
 49
-0.06
 74
     0
 49
0.01
 74
     0
 49
-0.06
 74
     0
  0
LTYPE
  5
7D
330
5
100
AcDbSymbolTableRecord
100
AcDbLinetypeTableRecord
  2
DASHED
 70
     0
  3
Dashed __ __ __ __ __ __ __ __ __ __ __ __ __ _
 72
    65
 73
     2
 40
0.2067
 49
0.1654
 74
     0
 49
-0.0413
 74
     0
  0
LTYPE
  5
7E
330
5
100
AcDbSymbolTableRecord
100
AcDbLinetypeTableRecord
  2
DASHED_SPACE
 70
     0
  3
Dashed Space _._._._._._._._._._._._._._._.
 72
    65
 73
     2
 40
0.2067
 49
0.1654
 74
     0
 49
-0.0413
 74
     0
  0
LTYPE
  5
7F
330
5
100
AcDbSymbolTableRecord
100
AcDbLinetypeTableRecord
  2
DOTTED
 70
     0
  3
Dotted . . . . . . . . . . . . . . . . . . . . 
 72
    65
 73
     2
 40
0.0482
 49
0.0069
 74
     0
 49
-0.0413
 74
     0
  0
LTYPE
  5
80
330
5
100
AcDbSymbolTableRecord
100
AcDbLinetypeTableRecord
  2
DOUBLE_DASH_CHAIN
 70
     0
  3
Double Dash Chain ___ _ _ ___ _ _ ___ _ _ ___ _
 72
    65
 73
     6
 40
1.240299999999997
 49
0.6614
 74
     0
 49
-0.0827
 74
     0
 49
0.1654
 74
     0
 49
-0.0827
 74
     0
 49
0.1654
 74
     0
 49
-0.0827
 74
     0
  0
LTYPE
  5
81
330
5
100
AcDbSymbolTableRecord
100
AcDbLinetypeTableRecord
  2
DOUBLE_DASH_DOT
 70
     0
  3
Double Dash Dot __ __ . __ __ . __ __ . __ _
 72
    65
 73
     6
 40
0.6700000000000001
 49
0.24
 74
     0
 49
-0.06
 74
     0
 49
0.24
 74
     0
 49
-0.06
 74
     0
 49
0.01
 74
     0
 49
-0.06
 74
     0
  0
LTYPE
  5
82
330
5
100
AcDbSymbolTableRecord
100
AcDbLinetypeTableRecord
  2
DOUBLE_DASH_DOUBLE_DOT
 70
     0
  3
Double-dash double-dot _ _ . . _ _ . . _
 72
    65
 73
     8
 40
0.7400000000000003
 49
0.24
 74
     0
 49
-0.06
 74
     0
 49
0.24
 74
     0
 49
-0.06
 74
     0
 49
0.01
 74
     0
 49
-0.06
 74
     0
 49
0.01
 74
     0
 49
-0.06
 74
     0
  0
LTYPE
  5
83
330
5
100
AcDbSymbolTableRecord
100
AcDbLinetypeTableRecord
  2
DOUBLE_DASH_TRIPLE_DOT
 70
     0
  3
Double Dash Triple Dot __ __ . . . __ __ . . .
 72
    65
 73
    10
 40
0.8100000000000001
 49
0.24
 74
     0
 49
-0.06
 74
     0
 49
0.24
 74
     0
 49
-0.06
 74
     0
 49
0.01
 74
     0
 49
-0.06
 74
     0
 49
0.01
 74
     0
 49
-0.06
 74
     0
 49
0.01
 74
     0
 49
-0.06
 74
     0
  0
LTYPE
  5
84
330
5
100
AcDbSymbolTableRecord
100
AcDbLinetypeTableRecord
  2
LONG_DASH_DOTTED
 70
     0
  3
Long-Dash Dot ____ . ____ . ____ . ____ . _
 72
    65
 73
     4
 40
0.3001
 49
0.2362
 74
     0
 49
-0.0295
 74
     0
 49
0.0049
 74
     0
 49
-0.0295
 74
     0
  0
LTYPE
  5
85
330
5
100
AcDbSymbolTableRecord
100
AcDbLinetypeTableRecord
  2
LONG_DASH_DOUBLE_DOT
 70
     0
  3
Long Dash Double Dot ____ . . ____ . . ____ . .
 72
    65
 73
     6
 40
0.3345
 49
0.2362
 74
     0
 49
-0.0295
 74
     0
 49
0.0049
 74
     0
 49
-0.0295
 74
     0
 49
0.0049
 74
     0
 49
-0.0295
 74
     0
  0
LTYPE
  5
86
330
5
100
AcDbSymbolTableRecord
100
AcDbLinetypeTableRecord
  2
LONG_DASH_TRIPLE_DOT
 70
     0
  3
Long Dash Triple Dot ____ ... ____ ... ____
 72
    65
 73
     8
 40
0.75
 49
0.48
 74
     0
 49
-0.06
 74
     0
 49
0.01
 74
     0
 49
-0.06
 74
     0
 49
0.01
 74
     0
 49
-0.06
 74
     0
 49
0.01
 74
     0
 49
-0.06
 74
     0
  0
LTYPE
  5
87
330
5
100
AcDbSymbolTableRecord
100
AcDbLinetypeTableRecord
  2
BORDER
 70
     0
  3
Border __ __ . __ __ . __ __ . __ __ . __ __ .
 72
    65
 73
     6
 40
44.45
 49
12.7
 74
     0
 49
-6.349999999999997
 74
     0
 49
12.7
 74
     0
 49
-6.349999999999997
 74
     0
 49
0.0
 74
     0
 49
-6.349999999999997
 74
     0
  0
LTYPE
  5
88
330
5
100
AcDbSymbolTableRecord
100
AcDbLinetypeTableRecord
  2
BORDER2
 70
     0
  3
Border (.5x) __.__.__.__.__.__.__.__.__.__.__.
 72
    65
 73
     6
 40
22.225
 49
6.349999999999997
 74
     0
 49
-3.174999999999998
 74
     0
 49
6.349999999999997
 74
     0
 49
-3.174999999999998
 74
     0
 49
0.0
 74
     0
 49
-3.174999999999998
 74
     0
  0
LTYPE
  5
89
330
5
100
AcDbSymbolTableRecord
100
AcDbLinetypeTableRecord
  2
BORDERX2
 70
     0
  3
Border (2x) ____  ____  .  ____  ____  .  ___
 72
    65
 73
     6
 40
88.9
 49
25.4
 74
     0
 49
-12.7
 74
     0
 49
25.4
 74
     0
 49
-12.7
 74
     0
 49
0.0
 74
     0
 49
-12.7
 74
     0
  0
LTYPE
  5
8A
330
5
100
AcDbSymbolTableRecord
100
AcDbLinetypeTableRecord
  2
CENTER
 70
     0
  3
Center ____ _ ____ _ ____ _ ____ _ ____ _ ____
 72
    65
 73
     4
 40
50.8
 49
31.75
 74
     0
 49
-6.349999999999997
 74
     0
 49
6.349999999999997
 74
     0
 49
-6.349999999999997
 74
     0
  0
LTYPE
  5
8B
330
5
100
AcDbSymbolTableRecord
100
AcDbLinetypeTableRecord
  2
CENTER2
 70
     0
  3
Center (.5x) ___ _ ___ _ ___ _ ___ _ ___ _ ___
 72
    65
 73
     4
 40
28.575
 49
19.05
 74
     0
 49
-3.174999999999998
 74
     0
 49
3.174999999999998
 74
     0
 49
-3.174999999999998
 74
     0
  0
LTYPE
  5
8C
330
5
100
AcDbSymbolTableRecord
100
AcDbLinetypeTableRecord
  2
CENTERX2
 70
     0
  3
Center (2x) ________  __  ________  __  _____
 72
    65
 73
     4
 40
101.6
 49
63.5
 74
     0
 49
-12.7
 74
     0
 49
12.7
 74
     0
 49
-12.7
 74
     0
  0
LTYPE
  5
8D
330
5
100
AcDbSymbolTableRecord
100
AcDbLinetypeTableRecord
  2
DASHDOT2
 70
     0
  3
Dash dot (.5x) _._._._._._._._._._._._._._._.
 72
    65
 73
     4
 40
12.7
 49
6.349999999999997
 74
     0
 49
-3.174999999999998
 74
     0
 49
0.0
 74
     0
 49
-3.174999999999998
 74
     0
  0
LTYPE
  5
8E
330
5
100
AcDbSymbolTableRecord
100
AcDbLinetypeTableRecord
  2
DASHDOTX2
 70
     0
  3
Dash dot (2x) ____  .  ____  .  ____  .  ___
 72
    65
 73
     4
 40
50.8
 49
25.4
 74
     0
 49
-12.7
 74
     0
 49
0.0
 74
     0
 49
-12.7
 74
     0
  0
LTYPE
  5
8F
330
5
100
AcDbSymbolTableRecord
100
AcDbLinetypeTableRecord
  2
DASHED2
 70
     0
  3
Dashed (.5x) _ _ _ _ _ _ _ _ _ _ _ _ _ _ _ _ _
 72
    65
 73
     2
 40
9.524999999999996
 49
6.349999999999997
 74
     0
 49
-3.174999999999998
 74
     0
  0
LTYPE
  5
90
330
5
100
AcDbSymbolTableRecord
100
AcDbLinetypeTableRecord
  2
DASHEDX2
 70
     0
  3
Dashed (2x) ____  ____  ____  ____  ____  ___
 72
    65
 73
     2
 40
38.1
 49
25.4
 74
     0
 49
-12.7
 74
     0
  0
LTYPE
  5
91
330
5
100
AcDbSymbolTableRecord
100
AcDbLinetypeTableRecord
  2
DIVIDE
 70
     0
  3
Divide ____ . . ____ . . ____ . . ____ . . ____
 72
    65
 73
     6
 40
31.75
 49
12.7
 74
     0
 49
-6.349999999999997
 74
     0
 49
0.0
 74
     0
 49
-6.349999999999997
 74
     0
 49
0.0
 74
     0
 49
-6.349999999999997
 74
     0
  0
LTYPE
  5
92
330
5
100
AcDbSymbolTableRecord
100
AcDbLinetypeTableRecord
  2
DIVIDE2
 70
     0
  3
Divide (.5x) __..__..__..__..__..__..__..__.._
 72
    65
 73
     6
 40
15.875
 49
6.349999999999997
 74
     0
 49
-3.174999999999998
 74
     0
 49
0.0
 74
     0
 49
-3.174999999999998
 74
     0
 49
0.0
 74
     0
 49
-3.174999999999998
 74
     0
  0
LTYPE
  5
93
330
5
100
AcDbSymbolTableRecord
100
AcDbLinetypeTableRecord
  2
DIVIDEX2
 70
     0
  3
Divide (2x) ________  .  .  ________  .  .  _
 72
    65
 73
     6
 40
63.49999999999999
 49
25.4
 74
     0
 49
-12.7
 74
     0
 49
0.0
 74
     0
 49
-12.7
 74
     0
 49
0.0
 74
     0
 49
-12.7
 74
     0
  0
LTYPE
  5
94
330
5
100
AcDbSymbolTableRecord
100
AcDbLinetypeTableRecord
  2
DOT
 70
     0
  3
Dot . . . . . . . . . . . . . . . . . . . . . .
 72
    65
 73
     2
 40
6.349999999999997
 49
0.0
 74
     0
 49
-6.349999999999997
 74
     0
  0
LTYPE
  5
95
330
5
100
AcDbSymbolTableRecord
100
AcDbLinetypeTableRecord
  2
DOT2
 70
     0
  3
Dot (.5x) .....................................
 72
    65
 73
     2
 40
3.174999999999998
 49
0.0
 74
     0
 49
-3.174999999999998
 74
     0
  0
LTYPE
  5
96
330
5
100
AcDbSymbolTableRecord
100
AcDbLinetypeTableRecord
  2
DOTX2
 70
     0
  3
Dot (2x) .  .  .  .  .  .  .  .  .  .  .  .  . 
 72
    65
 73
     2
 40
12.7
 49
0.0
 74
     0
 49
-12.7
 74
     0
  0
LTYPE
  5
97
330
5
100
AcDbSymbolTableRecord
100
AcDbLinetypeTableRecord
  2
HIDDEN
 70
     0
  3
Hidden __ __ __ __ __ __ __ __ __ __ __ __ __ _
 72
    65
 73
     2
 40
9.524999999999996
 49
6.349999999999997
 74
     0
 49
-3.174999999999998
 74
     0
  0
LTYPE
  5
98
330
5
100
AcDbSymbolTableRecord
100
AcDbLinetypeTableRecord
  2
HIDDEN2
 70
     0
  3
Hidden (.5x) _ _ _ _ _ _ _ _ _ _ _ _ _ _ _ _ _
 72
    65
 73
     2
 40
4.762499999999998
 49
3.174999999999998
 74
     0
 49
-1.587499999999999
 74
     0
  0
LTYPE
  5
99
330
5
100
AcDbSymbolTableRecord
100
AcDbLinetypeTableRecord
  2
HIDDENX2
 70
     0
  3
Hidden (2x) ____ ____ ____ ____ ____ ____ ____
 72
    65
 73
     2
 40
19.05
 49
12.7
 74
     0
 49
-6.349999999999997
 74
     0
  0
LTYPE
  5
9A
330
5
100
AcDbSymbolTableRecord
100
AcDbLinetypeTableRecord
  2
PHANTOM
 70
     0
  3
Phantom ______  __  __  ______  __  __  ______
 72
    65
 73
     6
 40
63.5
 49
31.75
 74
     0
 49
-6.349999999999997
 74
     0
 49
6.349999999999997
 74
     0
 49
-6.349999999999997
 74
     0
 49
6.349999999999997
 74
     0
 49
-6.349999999999997
 74
     0
  0
LTYPE
  5
9B
330
5
100
AcDbSymbolTableRecord
100
AcDbLinetypeTableRecord
  2
PHANTOM2
 70
     0
  3
Phantom (.5x) ___ _ _ ___ _ _ ___ _ _ ___ _ _
 72
    65
 73
     6
 40
31.75
 49
15.875
 74
     0
 49
-3.174999999999998
 74
     0
 49
3.174999999999998
 74
     0
 49
-3.174999999999998
 74
     0
 49
3.174999999999998
 74
     0
 49
-3.174999999999998
 74
     0
  0
LTYPE
  5
9C
330
5
100
AcDbSymbolTableRecord
100
AcDbLinetypeTableRecord
  2
PHANTOMX2
 70
     0
  3
Phantom (2x) ____________    ____    ____   _
 72
    65
 73
     6
 40
127.0
 49
63.5
 74
     0
 49
-12.7
 74
     0
 49
12.7
 74
     0
 49
-12.7
 74
     0
 49
12.7
 74
     0
 49
-12.7
 74
     0
  0
LTYPE
  5
9D
330
5
100
AcDbSymbolTableRecord
100
AcDbLinetypeTableRecord
  2
ACAD_ISO02W100
 70
     0
  3
ISO dash __ __ __ __ __ __ __ __ __ __ __ __ __
 72
    65
 73
     2
 40
15.0
 49
12.0
 74
     0
 49
-3.0
 74
     0
  0
LTYPE
  5
9E
330
5
100
AcDbSymbolTableRecord
100
AcDbLinetypeTableRecord
  2
ACAD_ISO03W100
 70
     0
  3
ISO dash space __    __    __    __    __    __
 72
    65
 73
     2
 40
30.0
 49
12.0
 74
     0
 49
-18.0
 74
     0
  0
LTYPE
  5
9F
330
5
100
AcDbSymbolTableRecord
100
AcDbLinetypeTableRecord
  2
ACAD_ISO04W100
 70
     0
  3
ISO long-dash dot ____ . ____ . ____ . ____ . _
 72
    65
 73
     4
 40
30.0
 49
24.0
 74
     0
 49
-3.0
 74
     0
 49
0.0
 74
     0
 49
-3.0
 74
     0
  0
LTYPE
  5
A0
330
5
100
AcDbSymbolTableRecord
100
AcDbLinetypeTableRecord
  2
ACAD_ISO05W100
 70
     0
  3
ISO long-dash double-dot ____ .. ____ .. ____ .
 72
    65
 73
     6
 40
33.0
 49
24.0
 74
     0
 49
-3.0
 74
     0
 49
0.0
 74
     0
 49
-3.0
 74
     0
 49
0.0
 74
     0
 49
-3.0
 74
     0
  0
LTYPE
  5
A1
330
5
100
AcDbSymbolTableRecord
100
AcDbLinetypeTableRecord
  2
ACAD_ISO06W100
 70
     0
  3
ISO long-dash triple-dot ____ ... ____ ... ____
 72
    65
 73
     8
 40
36.0
 49
24.0
 74
     0
 49
-3.0
 74
     0
 49
0.0
 74
     0
 49
-3.0
 74
     0
 49
0.0
 74
     0
 49
-3.0
 74
     0
 49
0.0
 74
     0
 49
-3.0
 74
     0
  0
LTYPE
  5
A2
330
5
100
AcDbSymbolTableRecord
100
AcDbLinetypeTableRecord
  2
ACAD_ISO07W100
 70
     0
  3
ISO dot . . . . . . . . . . . . . . . . . . . .
 72
    65
 73
     2
 40
3.0
 49
0.0
 74
     0
 49
-3.0
 74
     0
  0
LTYPE
  5
A3
330
5
100
AcDbSymbolTableRecord
100
AcDbLinetypeTableRecord
  2
ACAD_ISO08W100
 70
     0
  3
ISO long-dash short-dash ____ __ ____ __ ____ _
 72
    65
 73
     4
 40
36.0
 49
24.0
 74
     0
 49
-3.0
 74
     0
 49
6.0
 74
     0
 49
-3.0
 74
     0
  0
LTYPE
  5
A4
330
5
100
AcDbSymbolTableRecord
100
AcDbLinetypeTableRecord
  2
ACAD_ISO09W100
 70
     0
  3
ISO long-dash double-short-dash ____ __ __ ____
 72
    65
 73
     6
 40
45.0
 49
24.0
 74
     0
 49
-3.0
 74
     0
 49
6.0
 74
     0
 49
-3.0
 74
     0
 49
6.0
 74
     0
 49
-3.0
 74
     0
  0
LTYPE
  5
A5
330
5
100
AcDbSymbolTableRecord
100
AcDbLinetypeTableRecord
  2
ACAD_ISO10W100
 70
     0
  3
ISO dash dot __ . __ . __ . __ . __ . __ . __ .
 72
    65
 73
     4
 40
18.0
 49
12.0
 74
     0
 49
-3.0
 74
     0
 49
0.0
 74
     0
 49
-3.0
 74
     0
  0
LTYPE
  5
A6
330
5
100
AcDbSymbolTableRecord
100
AcDbLinetypeTableRecord
  2
ACAD_ISO11W100
 70
     0
  3
ISO double-dash dot __ __ . __ __ . __ __ . __ 
 72
    65
 73
     6
 40
33.0
 49
12.0
 74
     0
 49
-3.0
 74
     0
 49
12.0
 74
     0
 49
-3.0
 74
     0
 49
0.0
 74
     0
 49
-3.0
 74
     0
  0
LTYPE
  5
A7
330
5
100
AcDbSymbolTableRecord
100
AcDbLinetypeTableRecord
  2
ACAD_ISO12W100
 70
     0
  3
ISO dash double-dot __ . . __ . . __ . . __ . .
 72
    65
 73
     6
 40
21.0
 49
12.0
 74
     0
 49
-3.0
 74
     0
 49
0.0
 74
     0
 49
-3.0
 74
     0
 49
0.0
 74
     0
 49
-3.0
 74
     0
  0
LTYPE
  5
A8
330
5
100
AcDbSymbolTableRecord
100
AcDbLinetypeTableRecord
  2
ACAD_ISO13W100
 70
     0
  3
ISO double-dash double-dot __ __ . . __ __ . . 
 72
    65
 73
     8
 40
36.0
 49
12.0
 74
     0
 49
-3.0
 74
     0
 49
12.0
 74
     0
 49
-3.0
 74
     0
 49
0.0
 74
     0
 49
-3.0
 74
     0
 49
0.0
 74
     0
 49
-3.0
 74
     0
  0
LTYPE
  5
A9
330
5
100
AcDbSymbolTableRecord
100
AcDbLinetypeTableRecord
  2
ACAD_ISO14W100
 70
     0
  3
ISO dash triple-dot __ . . . __ . . . __ . . . 
 72
    65
 73
     8
 40
24.0
 49
12.0
 74
     0
 49
-3.0
 74
     0
 49
0.0
 74
     0
 49
-3.0
 74
     0
 49
0.0
 74
     0
 49
-3.0
 74
     0
 49
0.0
 74
     0
 49
-3.0
 74
     0
  0
LTYPE
  5
AA
330
5
100
AcDbSymbolTableRecord
100
AcDbLinetypeTableRecord
  2
ACAD_ISO15W100
 70
     0
  3
ISO double-dash triple-dot __ __ . . . __ __ . 
 72
    65
 73
    10
 40
39.0
 49
12.0
 74
     0
 49
-3.0
 74
     0
 49
12.0
 74
     0
 49
-3.0
 74
     0
 49
0.0
 74
     0
 49
-3.0
 74
     0
 49
0.0
 74
     0
 49
-3.0
 74
     0
 49
0.0
 74
     0
 49
-3.0
 74
     0
  0
LTYPE
  5
AD
330
5
100
AcDbSymbolTableRecord
100
AcDbLinetypeTableRecord
  2
FENCELINE1
 70
     0
  3
Fenceline circle ----0-----0----0-----0----0---
 72
    65
 73
     4
 40
36.83
 49
6.349999999999997
 74
     0
 49
-2.54
 74
     4
 75
   133
340
AC
 46
2.54
 50
0.0
 44
-2.54
 45
0.0
 49
-2.54
 74
     0
 49
25.4
 74
     0
  0
LTYPE
  5
AE
330
5
100
AcDbSymbolTableRecord
100
AcDbLinetypeTableRecord
  2
FENCELINE2
 70
     0
  3
Fenceline square ----[]-----[]----[]-----[]----
 72
    65
 73
     4
 40
36.83
 49
6.349999999999997
 74
     0
 49
-2.54
 74
     4
 75
   132
340
AC
 46
2.54
 50
0.0
 44
-2.54
 45
0.0
 49
-2.54
 74
     0
 49
25.4
 74
     0
  0
LTYPE
  5
AF
330
5
100
AcDbSymbolTableRecord
100
AcDbLinetypeTableRecord
  2
TRACKS
 70
     0
  3
Tracks -|-|-|-|-|-|-|-|-|-|-|-|-|-|-|-|-|-|-|-|
 72
    65
 73
     2
 40
7.62
 49
3.81
 74
     4
 75
   130
340
AC
 46
6.349999999999997
 50
0.0
 44
0.0
 45
0.0
 49
3.81
 74
     0
  0
LTYPE
  5
B0
330
5
100
AcDbSymbolTableRecord
100
AcDbLinetypeTableRecord
  2
BATTING
 70
     0
  3
Batting SSSSSSSSSSSSSSSSSSSSSSSSSSSSSSSSSSSSSSS
 72
    65
 73
     4
 40
10.16254
 49
0.00254
 74
     0
 49
-2.54
 74
     4
 75
   134
340
AC
 46
2.54
 50
0.0
 44
-2.54
 45
0.0
 49
-5.08
 74
     4
 75
   134
340
AC
 46
2.54
 50
180.0
 44
2.54
 45
0.0
 49
-2.54
 74
     0
  0
LTYPE
  5
B1
330
5
100
AcDbSymbolTableRecord
100
AcDbLinetypeTableRecord
  2
HOT_WATER_SUPPLY
 70
     0
  3
Hot water supply ---- HW ---- HW ---- HW ----
 72
    65
 73
     3
 40
22.86
 49
12.7
 74
     0
 49
-5.08
 74
     2
 75
     0
340
55
 46
2.54
 50
0.0
 44
-2.54
 45
-1.27
  9
HW
 49
-5.08
 74
     0
  0
LTYPE
  5
B2
330
5
100
AcDbSymbolTableRecord
100
AcDbLinetypeTableRecord
  2
GAS_LINE
 70
     0
  3
Gas line ----GAS----GAS----GAS----GAS----GAS---
 72
    65
 73
     3
 40
24.13
 49
12.7
 74
     0
 49
-5.08
 74
     2
 75
     0
340
55
 46
2.54
 50
0.0
 44
-2.54
 45
-1.27
  9
GAS
 49
-6.349999999999997
 74
     0
  0
LTYPE
  5
B3
330
5
100
AcDbSymbolTableRecord
100
AcDbLinetypeTableRecord
  2
ZIGZAG
 70
     0
  3
Zig zag /\/\/\/\/\/\/\/\/\/\/\/\/\/\/\/\/\/\/\/
 72
    65
 73
     4
 40
20.32254
 49
0.00254
 74
     0
 49
-5.08
 74
     4
 75
   131
340
AC
 46
5.08
 50
0.0
 44
-5.08
 45
0.0
 49
-10.16
 74
     4
 75
   131
340
AC
 46
5.08
 50
180.0
 44
5.08
 45
0.0
 49
-5.08
 74
     0
  0
LTYPE
  5
EC3
330
5
100
AcDbSymbolTableRecord
100
AcDbLinetypeTableRecord
  2
AM_ISO02W050
 70
     0
  3
__ __ __ __ __ __ __ __ __ __ __ __ __ __ __
 72
    65
 73
     2
 40
7.5
 49
6.0
 74
     0
 49
-1.5
 74
     0
  0
LTYPE
  5
EC4
330
5
100
AcDbSymbolTableRecord
100
AcDbLinetypeTableRecord
  2
AM_ISO08W050
 70
     0
  3
____ . ____ . ____ . ____ . ____ . ____ . ____
 72
    65
 73
     4
 40
18.0
 49
12.0
 74
     0
 49
-1.5
 74
     0
 49
3.0
 74
     0
 49
-1.5
 74
     0
  0
LTYPE
  5
EC5
330
5
100
AcDbSymbolTableRecord
100
AcDbLinetypeTableRecord
  2
AM_ISO09W050
 70
     0
  3
_____ . . _____ . . _____ . . ____ .. ____
 72
    65
 73
     6
 40
22.5
 49
12.0
 74
     0
 49
-1.5
 74
     0
 49
3.0
 74
     0
 49
-1.5
 74
     0
 49
3.0
 74
     0
 49
-1.5
 74
     0
  0
LTYPE
  5
EC6
330
5
100
AcDbSymbolTableRecord
100
AcDbLinetypeTableRecord
  2
Amconstr
 70
     0
  3
_______________________
 72
    65
 73
     2
 40
9999.0
 49
9999.0
 74
     0
 49
0.0
 74
     0
  0
LTYPE
  5
EC7
330
5
100
AcDbSymbolTableRecord
100
AcDbLinetypeTableRecord
  2
AM_ISO08W050x2
 70
     0
  3
__ . __ . __ . __ . __ . __
 72
    65
 73
     4
 40
9.0
 49
6.0
 74
     0
 49
-0.75
 74
     0
 49
1.5
 74
     0
 49
-0.75
 74
     0
  0
LTYPE
  5
EC8
330
5
100
AcDbSymbolTableRecord
100
AcDbLinetypeTableRecord
  2
AM_ISO02W050x2
 70
     0
  3
 _ _ _ _ _ _ _ _ _ _ _ _
 72
    65
 73
     2
 40
3.75
 49
3.0
 74
     0
 49
-0.75
 74
     0
  0
LTYPE
  5
ECB
330
5
100
AcDbSymbolTableRecord
100
AcDbLinetypeTableRecord
  2
Amzigzag
 70
     0
  3
/\/-/\/-/\/-/\/-/\/-/\/
 72
    65
 73
     2
 40
11.0001
 49
0.0001
 74
     4
 75
   136
340
ECA
 46
0.04
 50
0.0
 44
0.0
 45
0.0
 49
-11.0
 74
     0
  0
LTYPE
  5
ECC
330
5
100
AcDbSymbolTableRecord
100
AcDbLinetypeTableRecord
  2
AM_DIN_F_W050
 70
     0
  3
__ __ __ __ __ __ __ __ __ __ __ __ __ __ __
 72
    65
 73
     2
 40
6.25
 49
4.75
 74
     0
 49
-1.5
 74
     0
  0
LTYPE
  5
ECD
330
5
100
AcDbSymbolTableRecord
100
AcDbLinetypeTableRecord
  2
AM_DIN_G_W050
 70
     0
  3
____ . ____ . ____ . ____ . ____ . ____ . ____
 72
    65
 73
     4
 40
13.75
 49
9.75
 74
     0
 49
-1.5
 74
     0
 49
1.0
 74
     0
 49
-1.5
 74
     0
  0
LTYPE
  5
ECE
330
5
100
AcDbSymbolTableRecord
100
AcDbLinetypeTableRecord
  2
AM_DIN_K_W050
 70
     0
  3
_____ . . _____ . . _____ . . ____ .. ____
 72
    65
 73
     6
 40
16.25
 49
9.75
 74
     0
 49
-1.5
 74
     0
 49
1.0
 74
     0
 49
-1.5
 74
     0
 49
1.0
 74
     0
 49
-1.5
 74
     0
  0
LTYPE
  5
ECF
330
5
100
AcDbSymbolTableRecord
100
AcDbLinetypeTableRecord
  2
AM_DIN_G_W050x2
 70
     0
  3
__ . __ . __ . __ . __ . __
 72
    65
 73
     4
 40
6.875
 49
4.75
 74
     0
 49
-0.875
 74
     0
 49
0.375
 74
     0
 49
-0.875
 74
     0
  0
LTYPE
  5
ED0
330
5
100
AcDbSymbolTableRecord
100
AcDbLinetypeTableRecord
  2
AM_DIN_F_W050x2
 70
     0
  3
 _ _ _ _ _ _ _ _ _ _ _ _
 72
    65
 73
     2
 40
3.125
 49
2.25
 74
     0
 49
-0.875
 74
     0
  0
LTYPE
  5
EE3
330
5
100
AcDbSymbolTableRecord
100
AcDbLinetypeTableRecord
  2
ACDINWELD
 70
     0
  3
_ _ _ _ _
 72
    65
 73
     2
 40
2.0
 49
2.0
 74
     0
 49
-1.0
 74
     0
  0
LTYPE
  5
EE4
330
5
100
AcDbSymbolTableRecord
100
AcDbLinetypeTableRecord
  2
ACDINTGL
 70
     0
  3
_ _ _ _ _
 72
    65
 73
     2
 40
3.0
 49
2.0
 74
     0
 49
-1.0
 74
     0
  0
LTYPE
  5
EE5
330
5
100
AcDbSymbolTableRecord
100
AcDbLinetypeTableRecord
  2
ACDINTGB
 70
     0
  3
__ . . __ . .
 72
    65
 73
     6
 40
9.0
 49
4.0
 74
     0
 49
-1.0
 74
     0
 49
1.0
 74
     0
 49
-1.0
 74
     0
 49
1.0
 74
     0
 49
-1.0
 74
     0
  0
ENDTAB
  0
TABLE
  2
LAYER
  5
2
330
0
100
AcDbSymbolTable
 70
    13
  0
LAYER
  5
54
330
2
100
AcDbSymbolTableRecord
100
AcDbLayerTableRecord
  2
0
 70
     0
 62
     7
  6
Continuous
370
    -3
390
F
347
21
348
0
  0
LAYER
  5
BD
330
2
100
AcDbSymbolTableRecord
100
AcDbLayerTableRecord
  2
Bemaßungen(MSL)
 70
     0
 62
   179
  6
Continuous
370
    25
390
F
347
21
348
0
  0
LAYER
  5
C3
330
2
100
AcDbSymbolTableRecord
100
AcDbLayerTableRecord
  2
Bruchlinien(MSL)
 70
     0
 62
   136
  6
Continuous
370
    25
390
F
347
21
348
0
  0
LAYER
  5
CE
330
2
100
AcDbSymbolTableRecord
100
AcDbLayerTableRecord
  2
Mittellinie(DIN)
 70
     0
 62
   179
  6
Continuous
370
    25
390
F
347
21
348
0
  0
LAYER
  5
CF
330
2
100
AcDbSymbolTableRecord
100
AcDbLayerTableRecord
  2
Mittellinie(MSL)
 70
     0
 62
     1
  6
Continuous
370
    25
390
F
347
21
348
0
  0
LAYER
  5
D0
330
2
100
AcDbSymbolTableRecord
100
AcDbLayerTableRecord
  2
Mittelpunktmarkierung(DIN)
 70
     0
 62
   179
  6
Continuous
370
    25
390
F
347
21
348
0
  0
LAYER
  5
D1
330
2
100
AcDbSymbolTableRecord
100
AcDbLayerTableRecord
  2
Mittelpunktmarkierung(MSL)
 70
     0
 62
     1
  6
Continuous
370
    25
390
F
347
21
348
0
  0
LAYER
  5
DC
330
2
100
AcDbSymbolTableRecord
100
AcDbLayerTableRecord
  2
Sichtbare Kanten(MSL)
 70
     0
 62
     7
  6
Continuous
370
    50
390
F
347
21
348
0
  0
LAYER
  5
E0
330
2
100
AcDbSymbolTableRecord
100
AcDbLayerTableRecord
  2
Skizziergeometrie(MSL)
 70
     0
 62
   179
  6
Continuous
370
    25
390
F
347
21
348
0
  0
LAYER
  5
E1
330
2
100
AcDbSymbolTableRecord
100
AcDbLayerTableRecord
  2
Skizzierlinie(DIN)
 70
     0
 62
   179
  6
Continuous
370
    25
390
F
347
21
348
0
  0
LAYER
  5
E8
330
2
100
AcDbSymbolTableRecord
100
AcDbLayerTableRecord
  2
Symbole(MSL)
 70
     0
 62
   179
  6
Continuous
370
    25
390
F
347
21
348
0
  0
LAYER
  5
EF
330
2
100
AcDbSymbolTableRecord
100
AcDbLayerTableRecord
  2
Verdeckte Kanten(MSL)
 70
     0
 62
    30
  6
Continuous
370
    35
390
F
347
21
348
0
  0
LAYER
  5
24F
330
2
100
AcDbSymbolTableRecord
100
AcDbLayerTableRecord
  2
Defpoints
 70
     0
 62
     7
  6
Continuous
290
     0
370
    -3
390
F
347
21
348
0
  0
ENDTAB
  0
TABLE
  2
STYLE
  5
3
330
0
100
AcDbSymbolTable
 70
    21
  0
STYLE
  5
55
330
3
100
AcDbSymbolTableRecord
100
AcDbTextStyleTableRecord
  2
Standard
 70
     0
 40
0.0
 41
1.0
 50
0.0
 71
     0
 42
0.2
  3
arial.ttf
  4

1001
ACAD
1000
Arial
1071
      256
  0
STYLE
  5
5A
330
3
100
AcDbSymbolTableRecord
100
AcDbTextStyleTableRecord
  2
Annotative
 70
     0
 40
0.0
 41
1.0
 50
0.0
 71
     0
 42
0.2
  3
txt
  4

1001
AcadAnnotative
1000
AnnotativeData
1002
{
1070
     1
1070
     1
1002
}
  0
STYLE
  5
AC
330
3
100
AcDbSymbolTableRecord
100
AcDbTextStyleTableRecord
  2

 70
     1
 40
0.0
 41
1.0
 50
0.0
 71
     0
 42
0.2
  3
ltypeshp.shx
  4

  0
STYLE
  5
F2
330
3
100
AcDbSymbolTableRecord
100
AcDbTextStyleTableRecord
  2
Aktuell-DIN
 70
     0
 40
0.0
 41
1.0
 50
0.0
 71
     0
 42
0.2
  3
arial.ttf
  4

1001
ACAD
1000
Arial
1071
      256
  0
STYLE
  5
F3
330
3
100
AcDbSymbolTableRecord
100
AcDbTextStyleTableRecord
  2
Aktuell-DIN-MSL
 70
     0
 40
0.0
 41
1.0
 50
0.0
 71
     0
 42
0.2
  3
arial.ttf
  4

1001
ACAD
1000
Arial
1071
      256
  0
STYLE
  5
F4
330
3
100
AcDbSymbolTableRecord
100
AcDbTextStyleTableRecord
  2
Aktuell-DIN-MSLGroßer Text
 70
     0
 40
0.0
 41
1.0
 50
0.0
 71
     0
 42
0.2
  3
arial.ttf
  4

1001
ACAD
1000
Arial
1071
      256
  0
STYLE
  5
F5
330
3
100
AcDbSymbolTableRecord
100
AcDbTextStyleTableRecord
  2
Aktuell-DIN-MSLNach Layer
 70
     0
 40
0.0
 41
1.0
 50
0.0
 71
     0
 42
0.2
  3
arial.ttf
  4

1001
ACAD
1000
Arial
1071
      256
  0
STYLE
  5
F6
330
3
100
AcDbSymbolTableRecord
100
AcDbTextStyleTableRecord
  2
Aktuell-DINGroßer Text
 70
     0
 40
0.0
 41
1.0
 50
0.0
 71
     0
 42
0.2
  3
arial.ttf
  4

1001
ACAD
1000
Arial
1071
      256
  0
STYLE
  5
F7
330
3
100
AcDbSymbolTableRecord
100
AcDbTextStyleTableRecord
  2
Aktuell-DINNach Layer
 70
     0
 40
0.0
 41
1.0
 50
0.0
 71
     0
 42
0.2
  3
arial.ttf
  4

1001
ACAD
1000
Arial
1071
      256
  0
STYLE
  5
F8
330
3
100
AcDbSymbolTableRecord
100
AcDbTextStyleTableRecord
  2
NORM
 70
     0
 40
0.0
 41
1.0
 50
0.0
 71
     0
 42
0.2
  3
arial.ttf
  4

1001
ACAD
1000
Arial
1071
      256
  0
STYLE
  5
F9
330
3
100
AcDbSymbolTableRecord
100
AcDbTextStyleTableRecord
  2
NORM-MSL
 70
     0
 40
0.0
 41
1.0
 50
0.0
 71
     0
 42
0.2
  3
arial.ttf
  4

1001
ACAD
1000
Arial
1071
      256
  0
STYLE
  5
FA
330
3
100
AcDbSymbolTableRecord
100
AcDbTextStyleTableRecord
  2
NORMAL-MSL
 70
     0
 40
0.0
 41
1.0
 50
0.0
 71
     0
 42
0.2
  3
arial.ttf
  4

1001
ACAD
1000
Arial
1071
      256
  0
STYLE
  5
FB
330
3
100
AcDbSymbolTableRecord
100
AcDbTextStyleTableRecord
  2
Rahmen_1
 70
     0
 40
0.0
 41
1.0
 50
0.0
 71
     0
 42
0.2
  3
arial.ttf
  4

1001
ACAD
1000
Arial
1071
      256
  0
STYLE
  5
FC
330
3
100
AcDbSymbolTableRecord
100
AcDbTextStyleTableRecord
  2
STANDARD-BSI~0
 70
     0
 40
0.0
 41
1.0
 50
0.0
 71
     0
 42
0.2
  3
arial.ttf
  4

1001
ACAD
1000
Arial
1071
      256
  0
STYLE
  5
195
330
3
100
AcDbSymbolTableRecord
100
AcDbTextStyleTableRecord
  2
Textstil20
 70
     0
 40
0.0
 41
1.0
 50
0.0
 71
     0
 42
0.2
  3
arial.ttf
  4

1001
ACAD
1000
Arial
1071
      256
  0
STYLE
  5
19A
330
3
100
AcDbSymbolTableRecord
100
AcDbTextStyleTableRecord
  2
Textstil31
 70
     0
 40
0.0
 41
1.0
 50
0.0
 71
     0
 42
0.2
  3
arial.ttf
  4

1001
ACAD
1000
Arial
1071
      256
  0
STYLE
  5
1A0
330
3
100
AcDbSymbolTableRecord
100
AcDbTextStyleTableRecord
  2
Textstil10
 70
     0
 40
0.0
 41
1.0
 50
0.0
 71
     0
 42
0.2
  3
arial.ttf
  4

1001
ACAD
1000
Arial
1071
      256
  0
STYLE
  5
1B6
330
3
100
AcDbSymbolTableRecord
100
AcDbTextStyleTableRecord
  2
Textstil32
 70
     0
 40
0.0
 41
1.0
 50
0.0
 71
     0
 42
0.2
  3
arial.ttf
  4

1001
ACAD
1000
Arial
1071
      256
  0
STYLE
  5
ECA
330
3
100
AcDbSymbolTableRecord
100
AcDbTextStyleTableRecord
  2

 70
     1
 40
0.0
 41
1.0
 50
0.0
 71
     0
 42
0.2
  3
genltshp.shx
  4

  0
STYLE
  5
EE1
330
3
100
AcDbSymbolTableRecord
100
AcDbTextStyleTableRecord
  2
ACDINTS
 70
     0
 40
0.0
 41
1.0
 50
0.0
 71
     0
 42
0.2
  3
isocp.shx
  4

  0
STYLE
  5
EE2
330
3
100
AcDbSymbolTableRecord
100
AcDbTextStyleTableRecord
  2
ACDINGDT
 70
     0
 40
0.0
 41
1.0
 50
0.0
 71
     0
 42
0.2
  3
amgdt.shx
  4

  0
ENDTAB
  0
TABLE
  2
VIEW
  5
6
330
0
100
AcDbSymbolTable
 70
     0
  0
ENDTAB
  0
TABLE
  2
UCS
  5
7
330
0
100
AcDbSymbolTable
 70
     0
  0
ENDTAB
  0
TABLE
  2
APPID
  5
9
330
0
100
AcDbSymbolTable
 70
    18
  0
APPID
  5
56
330
9
100
AcDbSymbolTableRecord
100
AcDbRegAppTableRecord
  2
ACAD
 70
     0
  0
APPID
  5
5E
330
9
100
AcDbSymbolTableRecord
100
AcDbRegAppTableRecord
  2
AcadAnnotative
 70
     0
  0
APPID
  5
198
330
9
100
AcDbSymbolTableRecord
100
AcDbRegAppTableRecord
  2
AcadAnnoPO
 70
     0
  0
APPID
  5
E82
330
9
100
AcDbSymbolTableRecord
100
AcDbRegAppTableRecord
  2
MCAD_NO_VIS
 70
     0
  0
APPID
  5
E83
330
9
100
AcDbSymbolTableRecord
100
AcDbRegAppTableRecord
  2
ACAD_TEMP_GRAPHIC
 70
     0
  0
APPID
  5
E8D
330
9
100
AcDbSymbolTableRecord
100
AcDbRegAppTableRecord
  2
ACATTRIBSERVICES
 70
     0
  0
APPID
  5
EA5
330
9
100
AcDbSymbolTableRecord
100
AcDbRegAppTableRecord
  2
DESIGNERASSEMBLIES
 70
     0
  0
APPID
  5
EC0
330
9
100
AcDbSymbolTableRecord
100
AcDbRegAppTableRecord
  2
ACAD_DSTYLE_DIMJAG
 70
     0
  0
APPID
  5
EC1
330
9
100
AcDbSymbolTableRecord
100
AcDbRegAppTableRecord
  2
ACAD_DSTYLE_DIMBREAK
 70
     0
  0
APPID
  5
EFE
330
9
100
AcDbSymbolTableRecord
100
AcDbRegAppTableRecord
  2
ACAD_NAV_VCDISPLAY
 70
     0
  0
APPID
  5
F90
330
9
100
AcDbSymbolTableRecord
100
AcDbRegAppTableRecord
  2
ACAD_MLEADERVER
 70
     0
  0
APPID
  5
FB7
330
9
100
AcDbSymbolTableRecord
100
AcDbRegAppTableRecord
  2
ACAD_DSTYLE_DIMJOGGED_JOGANGLE_SYMBOL
 70
     0
  0
APPID
  5
FB8
330
9
100
AcDbSymbolTableRecord
100
AcDbRegAppTableRecord
  2
ACAD_DSTYLE_DIM_LINETYPE
 70
     0
  0
APPID
  5
FB9
330
9
100
AcDbSymbolTableRecord
100
AcDbRegAppTableRecord
  2
ACAD_DSTYLE_DIM_EXT1_LINETYPE
 70
     0
  0
APPID
  5
FBA
330
9
100
AcDbSymbolTableRecord
100
AcDbRegAppTableRecord
  2
ACAD_DSTYLE_DIM_EXT2_LINETYPE
 70
     0
  0
APPID
  5
101B
330
9
100
AcDbSymbolTableRecord
100
AcDbRegAppTableRecord
  2
ACAD_DSTYLE_DIMRADIAL_EXTENSION
 70
     0
  0
APPID
  5
1028
330
9
100
AcDbSymbolTableRecord
100
AcDbRegAppTableRecord
  2
GENIUS_GENDTOL_13
 70
     0
  0
APPID
  5
1029
330
9
100
AcDbSymbolTableRecord
100
AcDbRegAppTableRecord
  2
ACAD_DSTYLE_DIMINSPECT
 70
     0
  0
ENDTAB
  0
TABLE
  2
DIMSTYLE
  5
A
330
0
100
AcDbSymbolTable
 70
    25
100
AcDbDimStyleTable
 71
     2
340
10C
340
58
  0
DIMSTYLE
105
58
330
A
100
AcDbSymbolTableRecord
100
AcDbDimStyleTableRecord
  2
Standard
 70
     0
340
55
  0
DIMSTYLE
105
59
330
A
100
AcDbSymbolTableRecord
100
AcDbDimStyleTableRecord
  2
Annotative
 70
     0
340
55
1001
AcadAnnotative
1000
AnnotativeData
1002
{
1070
     1
1070
     1
1002
}
  0
DIMSTYLE
105
10C
102
{ACAD_REACTORS
330
24E
330
334
330
434
330
516
330
601
330
701
330
7EA
330
8DF
330
9C1
330
AAC
330
B8E
330
101C
102
}
330
A
100
AcDbSymbolTableRecord
100
AcDbDimStyleTableRecord
  2
NORMAL-MSL
 70
     0
 40
2.0
 41
3.5
 42
0.0
 43
6.099999999999997
 44
1.0
 45
0.00000001
 46
6.999999999999999
 73
     0
 74
     0
 77
     1
 78
     8
 79
     2
140
3.5
143
1.0
146
0.5
147
1.0
172
     1
176
     5
177
     5
178
     7
179
     1
271
     2
272
     2
284
     8
286
     8
340
FA
342
FD
371
     0
372
     0
  0
DIMSTYLE
105
10D
330
A
100
AcDbSymbolTableRecord
100
AcDbDimStyleTableRecord
  2
NORMAL-MSL$7
 70
     0
 40
2.0
 41
2.5
 42
0.0
 43
6.099999999999997
 44
1.0
 45
0.00000001
 46
6.999999999999999
 73
     0
 74
     0
 77
     1
 78
     8
 79
     2
140
3.5
143
1.0
146
0.5
147
1.0
172
     1
176
   179
177
     5
178
     7
179
     1
271
     2
272
     2
284
     8
286
     8
340
FA
342
FD
371
    25
372
     0
  0
DIMSTYLE
105
10E
330
A
100
AcDbSymbolTableRecord
100
AcDbDimStyleTableRecord
  2
NORMAL-MSLGroßer Text
 70
     0
 40
2.0
 41
5.0
 42
0.0
 43
5.0
 44
1.499999999999999
 45
0.00000001
 73
     0
 74
     0
 77
     1
 78
     8
 79
     2
140
5.25
143
1.0
146
0.3333333432674408
147
1.0
172
     1
176
     5
177
     5
178
     7
271
     2
272
     2
284
     8
286
     8
340
F4
371
     0
372
     0
  0
DIMSTYLE
105
10F
330
A
100
AcDbSymbolTableRecord
100
AcDbDimStyleTableRecord
  2
NORMAL-MSLGroßer Text$7
 70
     0
 40
2.0
 41
5.0
 42
0.0
 43
5.0
 44
1.499999999999999
 45
0.00000001
 73
     0
 74
     0
 77
     1
 78
     8
 79
     2
140
5.25
143
1.0
146
0.3333333432674408
147
1.0
172
     1
176
   179
177
     5
178
     7
271
     2
272
     2
284
     8
286
     8
340
F4
371
    25
372
     0
  0
DIMSTYLE
105
110
330
A
100
AcDbSymbolTableRecord
100
AcDbDimStyleTableRecord
  2
STANDARD-DIN
 70
     0
 40
2.0
 41
2.5
 42
0.0
 43
5.999999999999999
 44
3.174999999999998
 45
0.00000001
 46
10.0
 73
     0
 74
     0
 77
     1
140
3.5
143
0.03937
147
0.8
171
     3
172
     1
176
   250
177
   250
178
   250
271
     2
272
     2
274
     3
278
    44
340
FC
371
    25
372
    25
  0
DIMSTYLE
105
111
330
A
100
AcDbSymbolTableRecord
100
AcDbDimStyleTableRecord
  2
STANDARD-DIN$7
 70
     0
 40
2.0
 41
2.5
 42
0.0
 43
5.999999999999999
 44
3.174999999999998
 45
0.00000001
 46
10.0
 73
     0
 74
     0
 77
     1
140
3.5
143
0.03937
147
0.8
171
     3
172
     1
176
   179
177
   250
178
   250
271
     2
272
     2
274
     3
278
    44
340
FC
371
    25
372
    25
  0
DIMSTYLE
105
112
330
A
100
AcDbSymbolTableRecord
100
AcDbDimStyleTableRecord
  2
STANDARD-DINGroßer Text
 70
     0
 40
2.0
 41
5.0
 42
0.0
 43
5.999999999999999
 44
3.174999999999998
 45
0.00000001
 46
10.0
 73
     0
 74
     0
 77
     1
140
5.25
143
0.03937
146
0.6666666865348816
147
0.8
171
     3
172
     1
176
   250
177
   250
178
   179
271
     2
272
     2
274
     3
278
    44
340
F6
371
    25
372
    25
  0
DIMSTYLE
105
113
330
A
100
AcDbSymbolTableRecord
100
AcDbDimStyleTableRecord
  2
STANDARD-DINGroßer Text$7
 70
     0
 40
2.0
 41
5.0
 42
0.0
 43
5.999999999999999
 44
3.174999999999998
 45
0.00000001
 46
10.0
 73
     0
 74
     0
 77
     1
140
5.25
143
0.03937
146
0.6666666865348816
147
0.8
171
     3
172
     1
176
   179
177
   250
178
   179
271
     2
272
     2
274
     3
278
    44
340
F6
371
    25
372
    25
  0
DIMSTYLE
105
114
330
A
100
AcDbSymbolTableRecord
100
AcDbDimStyleTableRecord
  2
Führungslinie-Ursprungsindikator(DIN)
 70
     0
 40
2.0
 41
2.5
340
55
  0
DIMSTYLE
105
115
330
A
100
AcDbSymbolTableRecord
100
AcDbDimStyleTableRecord
  2
Führungslinie-Ursprungsindikator(MSL)
 70
     0
 40
2.0
 41
2.5
340
55
  0
DIMSTYLE
105
120
330
A
100
AcDbSymbolTableRecord
100
AcDbDimStyleTableRecord
  2
Führungslinie - Bezugsstelle(DIN)
 70
     0
 40
2.0
 41
2.5
340
55
  0
DIMSTYLE
105
121
330
A
100
AcDbSymbolTableRecord
100
AcDbDimStyleTableRecord
  2
Führungslinie - Bezugsstelle(MSL)
 70
     0
 40
2.0
 41
2.5
340
55
  0
DIMSTYLE
105
122
330
A
100
AcDbSymbolTableRecord
100
AcDbDimStyleTableRecord
  2
Führungslinie - Punkt(DIN)
 70
     0
 40
2.0
 41
2.5
340
55
  0
DIMSTYLE
105
123
330
A
100
AcDbSymbolTableRecord
100
AcDbDimStyleTableRecord
  2
Führungslinie - Punkt(MSL)
 70
     0
 40
2.0
 41
2.5
340
55
  0
DIMSTYLE
105
124
330
A
100
AcDbSymbolTableRecord
100
AcDbDimStyleTableRecord
  2
Führungslinie(DIN)
 70
     0
 40
2.0
 41
2.5
340
55
  0
DIMSTYLE
105
125
330
A
100
AcDbSymbolTableRecord
100
AcDbDimStyleTableRecord
  2
Führungslinie(MSL)
 70
     0
 40
2.0
 41
2.5
340
55
  0
DIMSTYLE
105
EBF
102
{ACAD_REACTORS
330
1106
102
}
330
A
100
AcDbSymbolTableRecord
100
AcDbDimStyleTableRecord
  2
AM_DIN
 70
     0
  4
"
 41
3.5
 42
1.0
 43
10.0
 44
1.0
 47
0.1
 48
0.1
 50
89.99999999999998
 73
     0
 74
     0
 77
     1
 78
     8
 79
     2
140
3.5
141
0.0
143
0.0393701
146
0.71
147
1.5
172
     1
176
   256
177
   256
178
     2
271
     2
272
     3
274
     4
283
     0
284
     8
340
55
345
5B
346
5B
347
5B
371
    -1
372
    -1
1001
ACAD_DSTYLE_DIMJAG
1070
   388
1040
1.5
1001
ACAD_DSTYLE_DIMBREAK
1070
   391
1040
3.75
1001
ACAD_DSTYLE_DIMJOGGED_JOGANGLE_SYMBOL
1070
   384
1040
1.570796326794896
  0
DIMSTYLE
105
ED1
330
A
100
AcDbSymbolTableRecord
100
AcDbDimStyleTableRecord
  2
AM_DIN$3
 70
     0
  4
"
 41
3.5
 42
1.0
 43
10.0
 44
1.0
 47
0.1
 48
0.1
 50
89.99999999999998
 73
     0
 77
     1
 78
     8
 79
     2
140
3.5
141
0.0
143
0.0393701
146
0.71
147
1.5
176
   256
177
   256
178
     2
271
     2
272
     3
274
     4
283
     0
284
     8
288
     1
289
     0
340
55
345
5B
346
5B
347
5B
371
    -1
372
    -1
1001
ACAD_DSTYLE_DIMBREAK
1070
   391
1040
3.75
1001
ACAD_DSTYLE_DIMJAG
1070
   388
1040
1.5
1001
ACAD_DSTYLE_DIMJOGGED_JOGANGLE_SYMBOL
1070
   384
1040
1.570796326794896
  0
DIMSTYLE
105
ED2
330
A
100
AcDbSymbolTableRecord
100
AcDbDimStyleTableRecord
  2
AM_DIN$4
 70
     0
  4
"
 41
3.5
 42
1.0
 43
10.0
 44
1.0
 47
0.1
 48
0.1
 50
89.99999999999998
 73
     0
 77
     1
 78
     8
 79
     2
140
3.5
141
0.0
143
0.0393701
146
0.71
147
1.5
176
   256
177
   256
178
     2
271
     2
272
     3
274
     4
283
     0
284
     8
288
     1
289
     0
340
55
345
5B
346
5B
347
5B
371
    -1
372
    -1
1001
ACAD_DSTYLE_DIMBREAK
1070
   391
1040
3.75
1001
ACAD_DSTYLE_DIMJAG
1070
   388
1040
1.5
1001
ACAD_DSTYLE_DIMJOGGED_JOGANGLE_SYMBOL
1070
   384
1040
1.570796326794896
  0
DIMSTYLE
105
ED3
330
A
100
AcDbSymbolTableRecord
100
AcDbDimStyleTableRecord
  2
AM_DIN$6
 70
     0
  4
"
 41
3.5
 42
1.0
 43
10.0
 44
1.0
 47
0.1
 48
0.1
 50
89.99999999999998
 73
     0
 74
     0
 78
     8
 79
     2
140
3.5
141
0.0
143
0.0393701
146
0.71
147
1.5
172
     1
176
   256
177
   256
178
     2
271
     2
272
     3
274
     4
283
     0
284
     8
340
55
345
5B
346
5B
347
5B
371
    -1
372
    -1
1001
ACAD_DSTYLE_DIMBREAK
1070
   391
1040
3.75
1001
ACAD_DSTYLE_DIMJAG
1070
   388
1040
1.5
1001
ACAD_DSTYLE_DIMJOGGED_JOGANGLE_SYMBOL
1070
   384
1040
1.570796326794896
  0
DIMSTYLE
105
ED4
330
A
100
AcDbSymbolTableRecord
100
AcDbDimStyleTableRecord
  2
AM_DIN$7
 70
     0
  4
"
 41
3.5
 42
1.0
 43
10.0
 44
1.0
 47
0.1
 48
0.1
 50
89.99999999999998
 73
     0
 74
     0
 77
     1
 78
     8
 79
     2
140
3.5
141
0.0
143
0.0393701
146
0.71
147
1.5
172
     1
176
   256
177
   256
178
     2
271
     2
272
     3
274
     4
283
     0
284
     8
340
55
345
5B
346
5B
347
5B
371
    -1
372
    -1
1001
ACAD_DSTYLE_DIMBREAK
1070
   391
1040
3.75
1001
ACAD_DSTYLE_DIMJAG
1070
   388
1040
1.5
1001
ACAD_DSTYLE_DIMJOGGED_JOGANGLE_SYMBOL
1070
   384
1040
1.570796326794896
  0
DIMSTYLE
105
ED5
330
A
100
AcDbSymbolTableRecord
100
AcDbDimStyleTableRecord
  2
AM_DIN$SF
 70
     0
  4
"
 41
3.5
 42
1.0
 43
10.0
 44
1.0
 47
0.1
 48
0.1
 50
89.99999999999998
 73
     0
 74
     0
 75
     1
 76
     1
 77
     1
 78
     8
 79
     2
140
3.5
141
0.0
143
0.0393701
146
0.71
147
1.5
172
     1
176
   256
177
   256
178
     2
271
     2
272
     3
274
     4
283
     0
284
     8
340
55
345
5B
346
5B
347
5B
371
    -1
372
    -1
1001
ACAD_DSTYLE_DIMBREAK
1070
   391
1040
3.75
1001
ACAD_DSTYLE_DIMJAG
1070
   388
1040
1.5
1001
ACAD_DSTYLE_DIMJOGGED_JOGANGLE_SYMBOL
1070
   384
1040
1.570796326794896
  0
DIMSTYLE
105
EDA
330
A
100
AcDbSymbolTableRecord
100
AcDbDimStyleTableRecord
  2
AM_DIN$SH
 70
     0
  4
"
 41
3.5
 42
1.0
 43
10.0
 44
1.0
 47
0.1
 48
0.1
 50
89.99999999999998
 73
     0
 74
     0
 75
     1
 76
     1
 77
     1
 78
     8
 79
     2
140
3.5
141
0.0
143
0.0393701
144
2.0
146
0.71
147
1.5
172
     1
173
     1
176
   256
177
   256
178
     2
271
     2
272
     3
274
     4
283
     0
284
     8
340
55
343
ED6
345
5B
346
5B
347
5B
371
    -1
372
    -1
1001
ACAD_DSTYLE_DIMBREAK
1070
   391
1040
3.75
1001
ACAD_DSTYLE_DIMJAG
1070
   388
1040
1.5
1001
ACAD_DSTYLE_DIMJOGGED_JOGANGLE_SYMBOL
1070
   384
1040
1.570796326794896
  0
ENDTAB
  0
TABLE
  2
BLOCK_RECORD
  5
1
330
0
100
AcDbSymbolTable
 70
    23
  0
BLOCK_RECORD
  5
70
330
1
100
AcDbSymbolTableRecord
100
AcDbBlockTableRecord
  2
*Model_Space
340
73
 70
     0
280
     1
281
     0
  0
BLOCK_RECORD
  5
6C
330
1
100
AcDbSymbolTableRecord
100
AcDbBlockTableRecord
  2
*Paper_Space
340
6F
 70
     0
280
     1
281
     0
  0
BLOCK_RECORD
  5
74
330
1
100
AcDbSymbolTableRecord
100
AcDbBlockTableRecord
  2
*Paper_Space0
340
77
 70
     0
280
     1
281
     0
  0
BLOCK_RECORD
  5
FD
330
1
100
AcDbSymbolTableRecord
100
AcDbBlockTableRecord
  2
Filled-1
340
0
102
{BLKREFS
331
102D
331
102E
331
510
331
511
331
8D9
331
8DA
331
B88
331
B89
331
32E
331
32F
331
42E
331
42F
331
5FB
331
5FC
331
6FB
331
6FC
331
7DD
331
7DE
331
9BB
331
9BC
331
AA6
331
AA7
331
1136
331
1137
102
}
 70
     0
280
     1
281
     0
  0
BLOCK_RECORD
  5
116
330
1
100
AcDbSymbolTableRecord
100
AcDbBlockTableRecord
  2
DatumFilled45
340
0
 70
     0
280
     1
281
     0
  0
BLOCK_RECORD
  5
126
330
1
100
AcDbSymbolTableRecord
100
AcDbBlockTableRecord
  2
ACHTUNG_ Nicht freigegeben...
340
0
 70
     0
280
     1
281
     0
  0
BLOCK_RECORD
  5
12B
330
1
100
AcDbSymbolTableRecord
100
AcDbBlockTableRecord
  2
ACHTUNG_ Nur Gültig für Anfrage...
340
0
 70
     0
280
     1
281
     0
  0
BLOCK_RECORD
  5
12F
330
1
100
AcDbSymbolTableRecord
100
AcDbBlockTableRecord
  2
Winkeltoleranz
340
0
 70
     0
280
     1
281
     0
  0
BLOCK_RECORD
  5
135
330
1
100
AcDbSymbolTableRecord
100
AcDbBlockTableRecord
  2
Ränder MSL-A4
340
0
 70
     0
280
     1
281
     0
  0
BLOCK_RECORD
  5
14D
330
1
100
AcDbSymbolTableRecord
100
AcDbBlockTableRecord
  2
Schriftfelder MSL-DIN-A
340
0
 70
     0
280
     1
281
     0
  0
BLOCK_RECORD
  5
250
330
1
100
AcDbSymbolTableRecord
100
AcDbBlockTableRecord
  2
*D8
340
0
 70
     0
280
     1
281
     0
  0
BLOCK_RECORD
  5
335
330
1
100
AcDbSymbolTableRecord
100
AcDbBlockTableRecord
  2
*D9
340
0
 70
     0
280
     1
281
     0
  0
BLOCK_RECORD
  5
435
330
1
100
AcDbSymbolTableRecord
100
AcDbBlockTableRecord
  2
*D10
340
0
 70
     0
280
     1
281
     0
  0
BLOCK_RECORD
  5
517
330
1
100
AcDbSymbolTableRecord
100
AcDbBlockTableRecord
  2
*D11
340
0
 70
     0
280
     1
281
     0
  0
BLOCK_RECORD
  5
602
330
1
100
AcDbSymbolTableRecord
100
AcDbBlockTableRecord
  2
*D12
340
0
 70
     0
280
     1
281
     0
  0
BLOCK_RECORD
  5
702
330
1
100
AcDbSymbolTableRecord
100
AcDbBlockTableRecord
  2
*D13
340
0
 70
     0
280
     1
281
     0
  0
BLOCK_RECORD
  5
7EB
330
1
100
AcDbSymbolTableRecord
100
AcDbBlockTableRecord
  2
*D14
340
0
 70
     0
280
     1
281
     0
  0
BLOCK_RECORD
  5
8E0
330
1
100
AcDbSymbolTableRecord
100
AcDbBlockTableRecord
  2
*D15
340
0
 70
     0
280
     1
281
     0
  0
BLOCK_RECORD
  5
9C2
330
1
100
AcDbSymbolTableRecord
100
AcDbBlockTableRecord
  2
*D16
340
0
 70
     0
280
     1
281
     0
  0
BLOCK_RECORD
  5
AAD
330
1
100
AcDbSymbolTableRecord
100
AcDbBlockTableRecord
  2
*D17
340
0
 70
     0
280
     1
281
     0
  0
BLOCK_RECORD
  5
B8F
330
1
100
AcDbSymbolTableRecord
100
AcDbBlockTableRecord
  2
*D18
340
0
 70
     0
280
     1
281
     0
  0
BLOCK_RECORD
  5
ED6
330
1
100
AcDbSymbolTableRecord
100
AcDbBlockTableRecord
  2
GENAXEH
340
0
 70
     0
280
     1
281
     0
  0
BLOCK_RECORD
  5
EEE
330
1
100
AcDbSymbolTableRecord
100
AcDbBlockTableRecord
  2
_ACMFILLED30
340
0
 70
     0
280
     1
281
     0
  0
BLOCK_RECORD
  5
101D
330
1
100
AcDbSymbolTableRecord
100
AcDbBlockTableRecord
  2
*D21
340
0
 70
     0
280
     1
281
     0
  0
ENDTAB
  0
ENDSEC
  0
SECTION
  2
BLOCKS
  0
BLOCK
  5
71
330
70
100
AcDbEntity
  8
0
100
AcDbBlockBegin
  2
*Model_Space
 70
     0
 10
0.0
 20
0.0
 30
0.0
  3
*Model_Space
  1

  0
ENDBLK
  5
72
330
70
100
AcDbEntity
  8
0
100
AcDbBlockEnd
  0
BLOCK
  5
6D
330
6C
100
AcDbEntity
 67
     1
  8
0
100
AcDbBlockBegin
  2
*Paper_Space
 70
     0
 10
0.0
 20
0.0
 30
0.0
  3
*Paper_Space
  1

  0
ENDBLK
  5
6E
330
6C
100
AcDbEntity
 67
     1
  8
0
100
AcDbBlockEnd
  0
BLOCK
  5
75
330
74
100
AcDbEntity
 67
     1
  8
0
100
AcDbBlockBegin
  2
*Paper_Space0
 70
     0
 10
0.0
 20
0.0
 30
0.0
  3
*Paper_Space0
  1

  0
ENDBLK
  5
76
330
74
100
AcDbEntity
 67
     1
  8
0
100
AcDbBlockEnd
  0
BLOCK
  5
FE
330
FD
100
AcDbEntity
  8
0
100
AcDbBlockBegin
  2
Filled-1
 70
     0
 10
0.0
 20
0.0
 30
0.0
  3
Filled-1
  1

  0
LINE
  5
100
330
FD
100
AcDbEntity
  8
0
 62
     0
100
AcDbLine
 10
-1.0
 20
0.0
 30
0.0
 11
0.0
 21
0.0
 31
0.0
  0
POLYLINE
  5
102
330
FD
100
AcDbEntity
  8
0
 62
     0
100
AcDb2dPolyline
 66
     1
 10
0.0
 20
0.0
 30
0.0
 70
   128
  0
VERTEX
  5
103
330
102
100
AcDbEntity
  8
0
 62
     0
100
AcDbVertex
100
AcDb2dVertex
 10
-1.0
 20
-0.1428571428571429
 30
0.0
  0
VERTEX
  5
104
330
102
100
AcDbEntity
  8
0
 62
     0
100
AcDbVertex
100
AcDb2dVertex
 10
0.0
 20
0.0
 30
0.0
  0
VERTEX
  5
106
330
102
100
AcDbEntity
  8
0
 62
     0
100
AcDbVertex
100
AcDb2dVertex
 10
-1.0
 20
0.1428571428571429
 30
0.0
  0
VERTEX
  5
107
330
102
100
AcDbEntity
  8
0
 62
     0
100
AcDbVertex
100
AcDb2dVertex
 10
-1.0
 20
-0.1428571428571429
 30
0.0
  0
SEQEND
  5
105
330
102
100
AcDbEntity
  8
0
 62
     0
  0
SOLID
  5
108
330
FD
100
AcDbEntity
  8
0
 62
     0
100
AcDbTrace
 10
-1.0
 20
-0.1428571428571429
 30
0.0
 11
0.0
 21
0.0
 31
0.0
 12
-1.0
 22
0.1428571428571429
 32
0.0
 13
-1.0
 23
-0.1428571428571429
 33
0.0
  0
LINE
  5
109
330
FD
100
AcDbEntity
  8
0
 62
     0
100
AcDbLine
 10
-1.0
 20
-0.1428571428571429
 30
0.0
 11
0.0
 21
0.0
 31
0.0
  0
LINE
  5
10A
330
FD
100
AcDbEntity
  8
0
 62
     0
100
AcDbLine
 10
0.0
 20
0.0
 30
0.0
 11
-1.0
 21
0.1428571428571429
 31
0.0
  0
LINE
  5
10B
330
FD
100
AcDbEntity
  8
0
 62
     0
100
AcDbLine
 10
-1.0
 20
0.1428571428571429
 30
0.0
 11
-1.0
 21
-0.1428571428571429
 31
0.0
  0
ENDBLK
  5
FF
330
FD
100
AcDbEntity
  8
0
100
AcDbBlockEnd
  0
BLOCK
  5
117
330
116
100
AcDbEntity
  8
0
100
AcDbBlockBegin
  2
DatumFilled45
 70
     0
 10
0.0
 20
0.0
 30
0.0
  3
DatumFilled45
  1

  0
POLYLINE
  5
119
330
116
100
AcDbEntity
  8
0
 62
     0
100
AcDb2dPolyline
 66
     1
 10
0.0
 20
0.0
 30
0.0
 70
   128
  0
VERTEX
  5
11A
330
119
100
AcDbEntity
  8
0
 62
     0
100
AcDbVertex
100
AcDb2dVertex
 10
0.0
 20
1.0
 30
0.0
  0
VERTEX
  5
11B
330
119
100
AcDbEntity
  8
0
 62
     0
100
AcDbVertex
100
AcDb2dVertex
 10
0.0
 20
-1.0
 30
0.0
  0
VERTEX
  5
11D
330
119
100
AcDbEntity
  8
0
 62
     0
100
AcDbVertex
100
AcDb2dVertex
 10
-1.0
 20
0.0
 30
0.0
  0
VERTEX
  5
11E
330
119
100
AcDbEntity
  8
0
 62
     0
100
AcDbVertex
100
AcDb2dVertex
 10
0.0
 20
1.0
 30
0.0
  0
SEQEND
  5
11C
330
119
100
AcDbEntity
  8
0
 62
     0
  0
SOLID
  5
11F
330
116
100
AcDbEntity
  8
0
 62
     0
100
AcDbTrace
 10
0.0
 20
1.0
 30
0.0
 11
0.0
 21
-1.0
 31
0.0
 12
-1.0
 22
0.0
 32
0.0
 13
0.0
 23
1.0
 33
0.0
  0
ENDBLK
  5
118
330
116
100
AcDbEntity
  8
0
100
AcDbBlockEnd
  0
BLOCK
  5
127
330
126
100
AcDbEntity
  8
0
100
AcDbBlockBegin
  2
ACHTUNG_ Nicht freigegeben...
 70
     0
 10
0.0
 20
0.0
 30
0.0
  3
ACHTUNG_ Nicht freigegeben...
  1

  0
MTEXT
  5
129
330
126
100
AcDbEntity
  8
Symbole(MSL)
 62
     7
100
AcDbMText
 10
0.0
 20
-0.9292848594486711
 30
0.0
 40
6.984999775886535
 41
0.0
 46
0.0
 71
     5
 72
     1
  1
\fArial|b0|i1;\H6.9850;ACHTUNG: Zeichnung nicht freigegeben! \PDarf nicht an Kunden wetergeleitet werden!
  7
NORM-MSL
 73
     2
 44
0.9442214965820312
1001
ACAD
1000
MTEXTBEGIN
1070
    73
1070
     2
1070
    44
1040
0.9442214965820312
1070
    74
1070
     0
1000
MTEXTEND
  0
ENDBLK
  5
128
330
126
100
AcDbEntity
  8
0
100
AcDbBlockEnd
  0
BLOCK
  5
12C
330
12B
100
AcDbEntity
  8
0
100
AcDbBlockBegin
  2
ACHTUNG_ Nur Gültig für Anfrage...
 70
     0
 10
0.0
 20
0.0
 30
0.0
  3
ACHTUNG_ Nur Gültig für Anfrage...
  1

  0
MTEXT
  5
12E
102
{ACAD_XDICTIONARY
360
F9D
102
}
330
12B
100
AcDbEntity
  8
Symbole(MSL)
 62
     1
100
AcDbMText
 10
0.0
 20
-0.9292848594486711
 30
0.0
 40
6.984999775886535
 41
0.0
 46
0.0
 71
     5
 72
     1
  1
\fArial|b0|i1;\H6.9850;ACHTUNG: \PZeichnung nur für Anfrage gültig!
  7
NORM-MSL
 73
     2
 44
0.9442214965820312
1001
ACAD
1000
MTEXTBEGIN
1070
    73
1070
     2
1070
    44
1040
0.9442214965820312
1070
    74
1070
     0
1000
MTEXTEND
  0
ENDBLK
  5
12D
330
12B
100
AcDbEntity
  8
0
100
AcDbBlockEnd
  0
BLOCK
  5
130
330
12F
100
AcDbEntity
  8
0
100
AcDbBlockBegin
  2
Winkeltoleranz
 70
     0
 10
0.0
 20
0.0
 30
0.0
  3
Winkeltoleranz
  1

  0
LINE
  5
132
330
12F
100
AcDbEntity
  8
Sichtbare Kanten(MSL)
100
AcDbLine
 10
-2.5
 20
2.500000000000035
 30
0.0
 11
-2.5
 21
-2.5
 31
0.0
  0
LINE
  5
133
330
12F
100
AcDbEntity
  8
Sichtbare Kanten(MSL)
100
AcDbLine
 10
-2.5
 20
-2.5
 30
0.0
 11
2.5
 21
-2.5
 31
0.0
  0
MTEXT
  5
134
330
12F
100
AcDbEntity
  8
Symbole(MSL)
 62
     7
100
AcDbMText
 10
-0.1770562725969516
 20
-2.381897279270575
 30
0.0
 40
2.5
 41
0.0
 46
0.0
 71
     7
 72
     1
  1
\fArial|b0|i0;\H2.5000;+0.1\P- 0.3
  7
NORM-MSL
 73
     2
 44
0.9442214965820312
1001
ACAD
1000
MTEXTBEGIN
1070
    73
1070
     2
1070
    44
1040
0.9442214965820312
1070
    74
1070
     0
1000
MTEXTEND
  0
ENDBLK
  5
131
330
12F
100
AcDbEntity
  8
0
100
AcDbBlockEnd
  0
BLOCK
  5
136
330
135
100
AcDbEntity
  8
0
100
AcDbBlockBegin
  2
Ränder MSL-A4
 70
     0
 10
0.0
 20
0.0
 30
0.0
  3
Ränder MSL-A4
  1

  0
LINE
  5
138
330
135
100
AcDbEntity
  8
Sichtbare Kanten(MSL)
100
AcDbLine
 10
20.00000000000014
 20
9.999999999999987
 30
0.0
 11
203.0000000000002
 21
10.00000000000001
 31
0.0
  0
LINE
  5
139
330
135
100
AcDbEntity
  8
Sichtbare Kanten(MSL)
100
AcDbLine
 10
203.0000000000002
 20
10.00000000000001
 30
0.0
 11
203.0
 21
287.0
 31
0.0
  0
LINE
  5
13A
330
135
100
AcDbEntity
  8
Sichtbare Kanten(MSL)
100
AcDbLine
 10
203.0
 20
287.0
 30
0.0
 11
20.0
 21
287.0
 31
0.0
  0
LINE
  5
13B
330
135
100
AcDbEntity
  8
Sichtbare Kanten(MSL)
100
AcDbLine
 10
20.00000000000001
 20
287.0
 30
0.0
 11
20.00000000000014
 21
10.0
 31
0.0
  0
LINE
  5
13C
330
135
100
AcDbEntity
  8
Sichtbare Kanten(MSL)
100
AcDbLine
 10
19.00000000000003
 20
256.0
 30
0.0
 11
19.00000000000002
 21
271.0
 31
0.0
  0
LINE
  5
13D
330
135
100
AcDbEntity
  8
Sichtbare Kanten(MSL)
100
AcDbLine
 10
12.94632198267914
 20
271.0
 30
0.0
 11
12.94632198267916
 21
256.0
 31
0.0
  0
LINE
  5
13E
330
135
100
AcDbEntity
  8
Sichtbare Kanten(MSL)
100
AcDbLine
 10
12.94632198267916
 20
256.0
 30
0.0
 11
19.00000000000003
 21
256.0
 31
0.0
  0
LINE
  5
13F
330
135
100
AcDbEntity
  8
Sichtbare Kanten(MSL)
100
AcDbLine
 10
19.00000000000002
 20
265.0000000000001
 30
0.0
 11
12.94632198267915
 21
265.0000000000001
 31
0.0
  0
LINE
  5
140
330
135
100
AcDbEntity
  8
Sichtbare Kanten(MSL)
100
AcDbLine
 10
19.00000000000001
 20
272.0
 30
0.0
 11
19.0
 21
287.0
 31
0.0
  0
LINE
  5
141
330
135
100
AcDbEntity
  8
Sichtbare Kanten(MSL)
100
AcDbLine
 10
13.0
 20
287.0
 30
0.0
 11
13.00000000000001
 21
272.0
 31
0.0
  0
LINE
  5
142
330
135
100
AcDbEntity
  8
Sichtbare Kanten(MSL)
100
AcDbLine
 10
19.00000000000002
 20
271.0
 30
0.0
 11
12.94632198267914
 21
271.0
 31
0.0
  0
LINE
  5
143
330
135
100
AcDbEntity
  8
Sichtbare Kanten(MSL)
100
AcDbLine
 10
13.00000000000001
 20
272.0
 30
0.0
 11
19.00000000000001
 21
272.0
 31
0.0
  0
LINE
  5
144
330
135
100
AcDbEntity
  8
Sichtbare Kanten(MSL)
100
AcDbLine
 10
19.00000000000001
 20
281.0
 30
0.0
 11
13.0
 21
281.0
 31
0.0
  0
LINE
  5
145
330
135
100
AcDbEntity
  8
Sichtbare Kanten(MSL)
100
AcDbLine
 10
19.0
 20
287.0
 30
0.0
 11
13.0
 21
287.0
 31
0.0
  0
MTEXT
  5
146
102
{ACAD_XDICTIONARY
360
F9F
102
}
330
135
100
AcDbEntity
  8
Symbole(MSL)
 62
     7
100
AcDbMText
 10
19.79772111726938
 20
9.999999999999751
 30
0.0
 40
2.489199936389923
 41
0.0
 46
0.0
 71
     7
 72
     1
  1
\fArial|b0|i0;\H2.4892;Für dieses Dokument behalten wir uns \P\fArial|b0|i0;\H2.4892;alle Rechte nach SN 210318 vor.
  7
NORM
 11
0.0000000000002967
 21
1.0
 31
0.0
 73
     2
 44
0.9442214369773862
1001
ACAD
1000
MTEXTBEGIN
1070
    73
1070
     2
1070
    44
1040
0.9442214369773862
1070
    74
1070
     0
1000
MTEXTEND
  0
MTEXT
  5
147
330
135
100
AcDbEntity
  8
Symbole(MSL)
 62
     7
100
AcDbMText
 10
19.00000000000005
 20
192.0
 30
0.0
 40
2.70000010728836
 41
0.0
 46
0.0
 71
     7
 72
     1
  1
\fArial|b0|i0;\H2.7000;Allgemeintoleranzen EN 22768-1 u.-2
  7
NORM
 11
0.0000000000002967
 21
1.0
 31
0.0
 73
     1
 44
1.0
1001
ACAD
1000
MTEXTBEGIN
1070
    73
1070
     1
1070
    44
1040
1.0
1070
    74
1070
     0
1000
MTEXTEND
  0
MTEXT
  5
148
330
135
100
AcDbEntity
  8
Symbole(MSL)
 62
     7
100
AcDbMText
 10
17.30000000000003
 20
257.5000000000001
 30
0.0
 40
2.489199936389923
 41
0.0
 46
0.0
 71
     7
 72
     1
  1
\fArial|b0|i0;\H2.4892;<30
  7
NORM
 11
0.0000000000002967
 21
1.0
 31
0.0
 73
     1
 44
1.0
1001
ACAD
1000
MTEXTBEGIN
1070
    73
1070
     1
1070
    44
1040
1.0
1070
    74
1070
     0
1000
MTEXTEND
  0
MTEXT
  5
149
330
135
100
AcDbEntity
  8
Symbole(MSL)
 62
     7
100
AcDbMText
 10
17.30000000000002
 20
266.5
 30
0.0
 40
2.489199936389923
 41
0.0
 46
0.0
 71
     7
 72
     1
  1
\fArial|b0|i0;\H2.4892;m
  7
NORM
 11
0.0000000000002967
 21
1.0
 31
0.0
 73
     1
 44
1.0
1001
ACAD
1000
MTEXTBEGIN
1070
    73
1070
     1
1070
    44
1040
1.0
1070
    74
1070
     0
1000
MTEXTEND
  0
MTEXT
  5
14A
330
135
100
AcDbEntity
  8
Symbole(MSL)
 62
     7
100
AcDbMText
 10
17.30000000000001
 20
273.5000000000001
 30
0.0
 40
2.489199936389923
 41
5.896671414375306
 46
0.0
 71
     7
 72
     1
  1
\fArial|b0|i0;\H2.4892;>30
  7
NORM
 11
0.0000000000002967
 21
1.0
 31
0.0
 73
     1
 44
1.0
1001
ACAD
1000
MTEXTBEGIN
1070
    73
1070
     1
1070
    44
1040
1.0
1070
    74
1070
     0
1000
MTEXTEND
  0
MTEXT
  5
14B
330
135
100
AcDbEntity
  8
Symbole(MSL)
 62
     7
100
AcDbMText
 10
17.3
 20
283.5
 30
0.0
 40
2.5
 41
0.0
 46
0.0
 71
     7
 72
     1
  1
\fArial|b0|i0;\H2.5000;f
  7
NORM
 11
0.0000000000002967
 21
1.0
 31
0.0
 73
     1
 44
1.0
1001
ACAD
1000
MTEXTBEGIN
1070
    73
1070
     1
1070
    44
1040
1.0
1070
    74
1070
     0
1000
MTEXTEND
  0
ENDBLK
  5
137
330
135
100
AcDbEntity
  8
0
100
AcDbBlockEnd
  0
BLOCK
  5
14E
330
14D
100
AcDbEntity
  8
0
100
AcDbBlockBegin
  2
Schriftfelder MSL-DIN-A
 70
     2
 10
0.0
 20
0.0
 30
0.0
  3
Schriftfelder MSL-DIN-A
  1

  0
OLE2FRAME
  5
150
330
14D
100
AcDbEntity
  8
0
100
AcDbOle2Frame
 70
     2
 73
     1
 90
        0
1001
ACAD
1000
OLEBEGIN
1070
    70
1070
     1
1070
    71
1070
     1
1070
    40
1040
0.0
1070
    41
1040
10.68528783434909
1070
    42
1040
10.75207071425583
1070
    72
1070
     0
1070
     3
1000

1070
    90
1071
        0
1070
    43
1040
0.0
1070
     4
1000

1070
    91
1071
        0
1070
    44
1040
0.0
1000
OLEEND
  0
LINE
  5
151
330
14D
100
AcDbEntity
  8
Sichtbare Kanten(MSL)
100
AcDbLine
 10
193.5
 20
65.4
 30
0.0
 11
10.5
 21
65.4
 31
0.0
  0
LINE
  5
152
330
14D
100
AcDbEntity
  8
Sichtbare Kanten(MSL)
100
AcDbLine
 10
193.5
 20
16.7
 30
0.0
 11
10.5
 21
16.7
 31
0.0
  0
LINE
  5
153
330
14D
100
AcDbEntity
  8
Sichtbare Kanten(MSL)
100
AcDbLine
 10
193.5
 20
52.40000000000001
 30
0.0
 11
10.5
 21
52.40000000000001
 31
0.0
  0
LINE
  5
154
330
14D
100
AcDbEntity
  8
Sichtbare Kanten(MSL)
100
AcDbLine
 10
193.5
 20
58.9
 30
0.0
 11
10.5
 21
58.9
 31
0.0
  0
LINE
  5
155
330
14D
100
AcDbEntity
  8
Sichtbare Kanten(MSL)
100
AcDbLine
 10
193.5
 20
4.0
 30
0.0
 11
10.5
 21
4.0
 31
0.0
  0
LINE
  5
156
330
14D
100
AcDbEntity
  8
Skizziergeometrie(MSL)
  6
Continuous
 62
     7
370
    18
100
AcDbLine
 10
178.0
 20
42.2
 30
0.0
 11
130.5
 21
42.20000000000001
 31
0.0
  0
LINE
  5
157
330
14D
100
AcDbEntity
  8
Skizziergeometrie(MSL)
  6
Continuous
 62
     7
370
    18
100
AcDbLine
 10
178.0
 20
47.29999999999999
 30
0.0
 11
130.5
 21
47.30000000000001
 31
0.0
  0
LINE
  5
158
330
14D
100
AcDbEntity
  8
Skizziergeometrie(MSL)
  6
Continuous
 62
     7
370
    18
100
AcDbLine
 10
178.0
 20
37.1
 30
0.0
 11
130.5
 21
37.1
 31
0.0
  0
LINE
  5
159
330
14D
100
AcDbEntity
  8
Skizziergeometrie(MSL)
  6
Continuous
 62
     7
370
    18
100
AcDbLine
 10
130.5
 20
32.00000000000004
 30
0.0
 11
193.5
 21
32.0
 31
0.0
  0
LINE
  5
15A
330
14D
100
AcDbEntity
  8
Skizziergeometrie(MSL)
  6
Continuous
 62
     7
370
    18
100
AcDbLine
 10
178.0
 20
26.9
 30
0.0
 11
130.5
 21
26.90000000000001
 31
0.0
  0
LINE
  5
15B
330
14D
100
AcDbEntity
  8
Skizziergeometrie(MSL)
  6
Continuous
 62
     7
370
    18
100
AcDbLine
 10
178.0
 20
21.8
 30
0.0
 11
130.5
 21
21.8
 31
0.0
  0
LINE
  5
15C
330
14D
100
AcDbEntity
  8
Skizziergeometrie(MSL)
  6
Continuous
 62
     7
370
    18
100
AcDbLine
 10
178.0
 20
21.8
 30
0.0
 11
130.5
 21
21.8
 31
0.0
  0
LINE
  5
15D
330
14D
100
AcDbEntity
  8
Sichtbare Kanten(MSL)
100
AcDbLine
 10
10.5
 20
4.0
 30
0.0
 11
10.5
 21
65.4
 31
0.0
  0
LINE
  5
15E
330
14D
100
AcDbEntity
  8
Sichtbare Kanten(MSL)
100
AcDbLine
 10
130.5
 20
32.00000000000004
 30
0.0
 11
10.5
 21
32.0
 31
0.0
  0
LINE
  5
15F
330
14D
100
AcDbEntity
  8
Sichtbare Kanten(MSL)
100
AcDbLine
 10
50.0
 20
16.7
 30
0.0
 11
50.0
 21
4.000000000000008
 31
0.0
  0
LINE
  5
160
330
14D
100
AcDbEntity
  8
Skizziergeometrie(MSL)
  6
Continuous
 62
     7
370
    18
100
AcDbLine
 10
50.0
 20
21.79999999999996
 30
0.0
 11
10.5
 21
21.8
 31
0.0
  0
LINE
  5
161
330
14D
100
AcDbEntity
  8
Skizziergeometrie(MSL)
  6
Continuous
 62
     7
370
    18
100
AcDbLine
 10
50.0
 20
26.89999999999998
 30
0.0
 11
10.5
 21
26.89999999999999
 31
0.0
  0
LINE
  5
162
330
14D
100
AcDbEntity
  8
Sichtbare Kanten(MSL)
100
AcDbLine
 10
50.0
 20
16.7
 30
0.0
 11
50.0
 21
32.0
 31
0.0
  0
LINE
  5
163
330
14D
100
AcDbEntity
  8
Sichtbare Kanten(MSL)
100
AcDbLine
 10
130.5
 20
16.7
 30
0.0
 11
130.5
 21
52.40000000000001
 31
0.0
  0
LINE
  5
164
330
14D
100
AcDbEntity
  8
Skizziergeometrie(MSL)
  6
Continuous
 62
     7
370
    18
100
AcDbLine
 10
148.3
 20
16.7
 30
0.0
 11
148.3
 21
52.40000000000001
 31
0.0
  0
LINE
  5
165
330
14D
100
AcDbEntity
  8
Skizziergeometrie(MSL)
  6
Continuous
 62
     7
370
    18
100
AcDbLine
 10
161.5
 20
65.40000000000005
 30
0.0
 11
161.5
 21
52.40000000000005
 31
0.0
  0
LINE
  5
166
330
14D
100
AcDbEntity
  8
Sichtbare Kanten(MSL)
100
AcDbLine
 10
193.5
 20
4.0
 30
0.0
 11
193.5
 21
65.4
 31
0.0
  0
LINE
  5
167
330
14D
100
AcDbEntity
  8
Sichtbare Kanten(MSL)
100
AcDbLine
 10
130.5
 20
16.7
 30
0.0
 11
130.5
 21
4.00000000000003
 31
0.0
  0
LINE
  5
168
330
14D
100
AcDbEntity
  8
Sichtbare Kanten(MSL)
100
AcDbLine
 10
185.5
 20
16.7
 30
0.0
 11
185.5
 21
4.000000000000046
 31
0.0
  0
LINE
  5
169
330
14D
100
AcDbEntity
  8
Sichtbare Kanten(MSL)
100
AcDbLine
 10
193.5
 20
11.6
 30
0.0
 11
185.5
 21
11.6
 31
0.0
  0
LINE
  5
16A
330
14D
100
AcDbEntity
  8
Sichtbare Kanten(MSL)
100
AcDbLine
 10
178.0
 20
26.9
 30
0.0
 11
193.5
 21
26.90000000000001
 31
0.0
  0
CIRCLE
  5
16B
330
14D
100
AcDbEntity
  8
Sichtbare Kanten(MSL)
100
AcDbCircle
 10
188.7863742236852
 20
21.8
 30
0.0
 40
2.5
  0
CIRCLE
  5
16C
330
14D
100
AcDbEntity
  8
Sichtbare Kanten(MSL)
100
AcDbCircle
 10
188.7863742236852
 20
21.8
 30
0.0
 40
1.399999999999999
  0
LINE
  5
16D
330
14D
100
AcDbEntity
  8
Sichtbare Kanten(MSL)
100
AcDbLine
 10
178.0
 20
26.9
 30
0.0
 11
178.0
 21
16.7
 31
0.0
  0
LINE
  5
16E
330
14D
100
AcDbEntity
  8
Sichtbare Kanten(MSL)
100
AcDbLine
 10
179.5193396765279
 20
23.16767983953888
 30
0.0
 11
184.5646591694761
 21
24.26832806688241
 31
0.0
  0
LINE
  5
16F
330
14D
100
AcDbEntity
  8
Sichtbare Kanten(MSL)
100
AcDbLine
 10
179.5193396765279
 20
20.32434200276218
 30
0.0
 11
184.5646591694761
 21
19.40713492617844
 31
0.0
  0
LINE
  5
170
330
14D
100
AcDbEntity
  8
Sichtbare Kanten(MSL)
100
AcDbLine
 10
179.5193396765279
 20
23.16767983953888
 30
0.0
 11
179.5193396765279
 21
20.32434200276218
 31
0.0
  0
LINE
  5
171
330
14D
100
AcDbEntity
  8
Skizziergeometrie(MSL)
100
AcDbLine
 10
179.5193396765279
 20
23.16767983953888
 30
0.0
 11
179.5193396765279
 21
20.32434200276218
 31
0.0
  0
LINE
  5
172
330
14D
100
AcDbEntity
  8
Sichtbare Kanten(MSL)
100
AcDbLine
 10
184.5646591694761
 20
21.88359178422037
 30
0.0
 11
184.5646591694761
 21
24.26832806688241
 31
0.0
  0
LINE
  5
173
330
14D
100
AcDbEntity
  8
Sichtbare Kanten(MSL)
100
AcDbLine
 10
184.5646591694761
 20
24.26832806688241
 30
0.0
 11
184.5646591694761
 21
19.40713492617844
 31
0.0
  0
LINE
  5
174
330
14D
100
AcDbEntity
  8
Sichtbare Kanten(MSL)
100
AcDbLine
 10
178.0
 20
37.1
 30
0.0
 11
193.5
 21
37.1
 31
0.0
  0
LINE
  5
175
330
14D
100
AcDbEntity
  8
Sichtbare Kanten(MSL)
100
AcDbLine
 10
178.0
 20
52.40000000000001
 30
0.0
 11
178.0
 21
37.1
 31
0.0
  0
LINE
  5
176
330
14D
100
AcDbEntity
  8
Skizzierlinie(DIN)
  6
Continuous
 62
     7
370
    18
100
AcDbLine
 10
10.49999999999997
 20
35.52500000000001
 30
0.0
 11
130.5
 21
35.52500000000001
 31
0.0
  0
LINE
  5
177
330
14D
100
AcDbEntity
  8
Skizzierlinie(DIN)
  6
Continuous
 62
     7
370
    18
100
AcDbLine
 10
130.5
 20
39.77500000000008
 30
0.0
 11
10.49999999999997
 21
39.77500000000008
 31
0.0
  0
LINE
  5
178
330
14D
100
AcDbEntity
  8
Skizzierlinie(DIN)
  6
Continuous
 62
     7
370
    18
100
AcDbLine
 10
10.49999999999997
 20
44.02499999999998
 30
0.0
 11
130.5
 21
44.02499999999998
 31
0.0
  0
LINE
  5
179
330
14D
100
AcDbEntity
  8
Skizzierlinie(DIN)
  6
Continuous
 62
     7
370
    18
100
AcDbLine
 10
10.49999999999997
 20
48.27500000000002
 30
0.0
 11
130.5
 21
48.27500000000002
 31
0.0
  0
LINE
  5
17A
330
14D
100
AcDbEntity
  8
Skizzierlinie(DIN)
  6
Continuous
 62
     7
370
    18
100
AcDbLine
 10
17.5
 20
32.0
 30
0.0
 11
17.5
 21
52.40000000000001
 31
0.0
  0
LINE
  5
17B
330
14D
100
AcDbEntity
  8
Skizzierlinie(DIN)
  6
Continuous
 62
     7
370
    18
100
AcDbLine
 10
104.5
 20
32.00000000000005
 30
0.0
 11
104.5
 21
52.40000000000001
 31
0.0
  0
LINE
  5
17C
330
14D
100
AcDbEntity
  8
Skizzierlinie(DIN)
  6
Continuous
 62
     7
370
    18
100
AcDbLine
 10
120.5
 20
31.92844166135953
 30
0.0
 11
120.5
 21
52.40000000000001
 31
0.0
  0
LINE
  5
17D
330
14D
100
AcDbEntity
  8
Mittellinie(DIN)
100
AcDbLine
 10
178.7155080797722
 20
21.8
 30
0.0
 11
192.4781518097803
 21
21.80000000000001
 31
0.0
  0
LINE
  5
17E
330
14D
100
AcDbEntity
  8
Mittelpunktmarkierung(DIN)
100
AcDbLine
 10
188.7863742236852
 20
25.15535291043369
 30
0.0
 11
188.7863742236852
 21
18.50631197527923
 31
0.0
  0
LINE
  5
17F
330
14D
100
AcDbEntity
  8
Skizziergeometrie(MSL)
  6
Continuous
 62
     7
370
    18
100
AcDbLine
 10
178.0
 20
42.2
 30
0.0
 11
193.5
 21
42.2
 31
0.0
  0
MTEXT
  5
180
330
14D
100
AcDbEntity
  8
Symbole(MSL)
 62
   179
100
AcDbMText
 10
14.0
 20
32.54477700231396
 30
0.0
 40
2.000000029802321
 41
6.939348698654776
 46
0.0
 71
     8
 72
     1
  1
\fArial|b0|i0;\H2.0000;Ind.
  7
Aktuell-DIN
 73
     1
 44
1.0
1001
ACAD
1000
MTEXTBEGIN
1070
    73
1070
     1
1070
    44
1040
1.0
1070
    74
1070
     0
1000
MTEXTEND
  0
MTEXT
  5
181
102
{ACAD_XDICTIONARY
360
FA1
102
}
330
14D
100
AcDbEntity
  8
Symbole(MSL)
 62
   179
100
AcDbMText
 10
18.3
 20
32.03633927358136
 30
0.0
 40
2.006599903106689
 41
25.0
 46
0.0
 71
     7
 72
     1
  1
\fArial|b0|i0;\H2.0066;Änderungen
  7
Aktuell-DIN
 73
     1
 44
1.0
1001
ACAD
1000
MTEXTBEGIN
1070
    73
1070
     1
1070
    44
1040
1.0
1070
    74
1070
     0
1000
MTEXTEND
  0
MTEXT
  5
182
330
14D
100
AcDbEntity
  8
Symbole(MSL)
 62
   179
100
AcDbMText
 10
112.5
 20
32.62940108126624
 30
0.0
 40
2.000000029802321
 41
11.36668657259189
 46
0.0
 71
     8
 72
     1
  1
\fArial|b0|i0;Datum
  7
Aktuell-DIN
 73
     1
 44
1.0
1001
ACAD
1000
MTEXTBEGIN
1070
    73
1070
     1
1070
    44
1040
1.0
1070
    74
1070
     0
1000
MTEXTEND
  0
MTEXT
  5
183
330
14D
100
AcDbEntity
  8
Symbole(MSL)
 62
   179
100
AcDbMText
 10
125.5
 20
32.60063320651014
 30
0.0
 40
2.000000029802321
 41
7.649940282224321
 46
0.0
 71
     8
 72
     1
  1
\fArial|b0|i0;Name
  7
Aktuell-DIN
 73
     1
 44
1.0
1001
ACAD
1000
MTEXTBEGIN
1070
    73
1070
     1
1070
    44
1040
1.0
1070
    74
1070
     0
1000
MTEXTEND
  0
MTEXT
  5
184
102
{ACAD_XDICTIONARY
360
FA3
102
}
330
14D
100
AcDbEntity
  8
Symbole(MSL)
 62
     7
100
AcDbMText
 10
23.85928899125401
 20
5.700000000000001
 30
0.0
 40
2.000000029802321
 41
0.0
 46
0.0
 71
     7
 72
     1
  1
\fArial|b0|i0;4245 Kleinlützel
  7
NORM
 73
     1
 44
1.0
1001
ACAD
1000
MTEXTBEGIN
1070
    73
1070
     1
1070
    44
1040
1.0
1070
    74
1070
     0
1000
MTEXTEND
  0
MTEXT
  5
185
102
{ACAD_XDICTIONARY
360
FA5
102
}
330
14D
100
AcDbEntity
  8
Symbole(MSL)
 62
     7
100
AcDbMText
 10
23.75676497112405
 20
9.144768392486991
 30
0.0
 40
2.000000029802321
 41
0.0
 46
0.0
 71
     7
 72
     1
  1
\fArial|b0|i0;Beschlägefabrik AG
  7
NORM
 73
     1
 44
1.0
1001
ACAD
1000
MTEXTBEGIN
1070
    73
1070
     1
1070
    44
1040
1.0
1070
    74
1070
     0
1000
MTEXTEND
  0
MTEXT
  5
186
330
14D
100
AcDbEntity
  8
Symbole(MSL)
 62
     7
100
AcDbMText
 10
23.85928899125401
 20
13.7
 30
0.0
 40
2.000000029802321
 41
0.0
 46
0.0
 71
     7
 72
     1
  1
\fArial|b0|i0;Schloss- und
  7
NORM
 73
     1
 44
1.0
1001
ACAD
1000
MTEXTBEGIN
1070
    73
1070
     1
1070
    44
1040
1.0
1070
    74
1070
     0
1000
MTEXTEND
  0
MTEXT
  5
187
102
{ACAD_XDICTIONARY
360
FA7
102
}
330
14D
100
AcDbEntity
  8
Symbole(MSL)
 62
     7
100
AcDbMText
 10
11.3
 20
17.70704082781659
 30
0.0
 40
2.000000029802321
 41
0.0
 46
0.0
 71
     7
 72
     1
  1
\fArial|b0|i0;Sep.Stückliste anderer Nr.
  7
NORM
 73
     1
 44
1.0
1001
ACAD
1000
MTEXTBEGIN
1070
    73
1070
     1
1070
    44
1040
1.0
1070
    74
1070
     0
1000
MTEXTEND
  0
MTEXT
  5
188
102
{ACAD_XDICTIONARY
360
FA9
102
}
330
14D
100
AcDbEntity
  8
Symbole(MSL)
 62
     7
100
AcDbMText
 10
11.3
 20
23.07136055187773
 30
0.0
 40
2.000000029802321
 41
0.0
 46
0.0
 71
     7
 72
     1
  1
\fArial|b0|i0;Sep.Stückliste gleicher Nr.
  7
NORM
 73
     1
 44
1.0
1001
ACAD
1000
MTEXTBEGIN
1070
    73
1070
     1
1070
    44
1040
1.0
1070
    74
1070
     0
1000
MTEXTEND
  0
MTEXT
  5
189
102
{ACAD_XDICTIONARY
360
FAB
102
}
330
14D
100
AcDbEntity
  8
Symbole(MSL)
 62
     7
100
AcDbMText
 10
11.3
 20
28.03920068984718
 30
0.0
 40
2.000000029802321
 41
0.0
 46
0.0
 71
     7
 72
     1
  1
\fArial|b0|i0;Ohne sep.Stückliste
  7
NORM
 73
     1
 44
1.0
1001
ACAD
1000
MTEXTBEGIN
1070
    73
1070
     1
1070
    44
1040
1.0
1070
    74
1070
     0
1000
MTEXTEND
  0
MTEXT
  5
18A
102
{ACAD_XDICTIONARY
360
FAD
102
}
330
14D
100
AcDbEntity
  8
Symbole(MSL)
 62
     7
100
AcDbMText
 10
131.3
 20
28.6
 30
0.0
 40
2.000000029802321
 41
0.0
 46
0.0
 71
     7
 72
     1
  1
Oberfläche
  7
NORM
 73
     1
 44
1.0
1001
ACAD
1000
MTEXTBEGIN
1070
    73
1070
     1
1070
    44
1040
1.0
1070
    74
1070
     0
1000
MTEXTEND
  0
MTEXT
  5
18B
102
{ACAD_XDICTIONARY
360
FAF
102
}
330
14D
100
AcDbEntity
  8
Symbole(MSL)
 62
     7
100
AcDbMText
 10
131.3
 20
18.40000000000017
 30
0.0
 40
2.000000029802321
 41
0.0
 46
0.0
 71
     7
 72
     1
  1
Ersatz für
  7
NORM
 73
     1
 44
1.0
1001
ACAD
1000
MTEXTBEGIN
1070
    73
1070
     1
1070
    44
1040
1.0
1070
    74
1070
     0
1000
MTEXTEND
  0
MTEXT
  5
18C
330
14D
100
AcDbEntity
  8
Symbole(MSL)
 62
     7
100
AcDbMText
 10
131.3
 20
23.5
 30
0.0
 40
2.000000029802321
 41
0.0
 46
0.0
 71
     7
 72
     1
  1
Ursprung
  7
NORM
 73
     1
 44
1.0
1001
ACAD
1000
MTEXTBEGIN
1070
    73
1070
     1
1070
    44
1040
1.0
1070
    74
1070
     0
1000
MTEXTEND
  0
MTEXT
  5
18D
330
14D
100
AcDbEntity
  8
Symbole(MSL)
 62
     7
100
AcDbMText
 10
131.3
 20
33.7
 30
0.0
 40
2.000000029802321
 41
0.0
 46
0.0
 71
     7
 72
     1
  1
Kunde
  7
NORM
 73
     1
 44
1.0
1001
ACAD
1000
MTEXTBEGIN
1070
    73
1070
     1
1070
    44
1040
1.0
1070
    74
1070
     0
1000
MTEXTEND
  0
MTEXT
  5
18E
330
14D
100
AcDbEntity
  8
Symbole(MSL)
 62
     7
100
AcDbMText
 10
75.5
 20
54.40000000000002
 30
0.0
 40
2.489199936389923
 41
0.0
 46
0.0
 71
     7
 72
     1
  1
\fArial|b0|i0;\H2.4892;Bezeichnung
  7
NORM
 73
     1
 44
1.0
1001
ACAD
1000
MTEXTBEGIN
1070
    73
1070
     1
1070
    44
1040
1.0
1070
    74
1070
     0
1000
MTEXTEND
  0
MTEXT
  5
18F
330
14D
100
AcDbEntity
  8
Symbole(MSL)
 62
     7
100
AcDbMText
 10
131.3
 20
49.00000000000002
 30
0.0
 40
2.000000029802321
 41
0.0
 46
0.0
 71
     7
 72
     1
  1
Gezeichnet
  7
NORM
 73
     1
 44
1.0
1001
ACAD
1000
MTEXTBEGIN
1070
    73
1070
     1
1070
    44
1040
1.0
1070
    74
1070
     0
1000
MTEXTEND
  0
MTEXT
  5
190
330
14D
100
AcDbEntity
  8
Symbole(MSL)
 62
     7
100
AcDbMText
 10
131.3
 20
38.8
 30
0.0
 40
2.000000029802321
 41
0.0
 46
0.0
 71
     7
 72
     1
  1
Freigegeben
  7
NORM
 73
     1
 44
1.0
1001
ACAD
1000
MTEXTBEGIN
1070
    73
1070
     1
1070
    44
1040
1.0
1070
    74
1070
     0
1000
MTEXTEND
  0
MTEXT
  5
191
102
{ACAD_XDICTIONARY
360
FB1
102
}
330
14D
100
AcDbEntity
  8
Symbole(MSL)
 62
     7
100
AcDbMText
 10
131.3
 20
43.89999999999999
 30
0.0
 40
2.000000029802321
 41
0.0
 46
0.0
 71
     7
 72
     1
  1
Geprüft
  7
NORM
 73
     1
 44
1.0
1001
ACAD
1000
MTEXTBEGIN
1070
    73
1070
     1
1070
    44
1040
1.0
1070
    74
1070
     0
1000
MTEXTEND
  0
MTEXT
  5
192
330
14D
100
AcDbEntity
  8
Symbole(MSL)
 62
     7
100
AcDbMText
 10
171.0
 20
54.40000000000004
 30
0.0
 40
2.489199936389923
 41
0.0
 46
0.0
 71
     7
 72
     1
  1
\fArial|b0|i0;\H2.4892;Material
  7
NORM
 73
     1
 44
1.0
1001
ACAD
1000
MTEXTBEGIN
1070
    73
1070
     1
1070
    44
1040
1.0
1070
    74
1070
     0
1000
MTEXTEND
  0
MTEXT
  5
193
330
14D
100
AcDbEntity
  8
Symbole(MSL)
 62
     7
100
AcDbMText
 10
187.1993155281755
 20
13.16734989480926
 30
0.0
 40
2.489199936389923
 41
0.0
 46
0.0
 71
     7
 72
     1
  1
\fArial|b0|i0;\H2.4892;Ae
  7
NORM
 73
     1
 44
1.0
1001
ACAD
1000
MTEXTBEGIN
1070
    73
1070
     1
1070
    44
1040
1.0
1070
    74
1070
     0
1000
MTEXTEND
  0
MTEXT
  5
194
330
14D
100
AcDbEntity
  8
Symbole(MSL)
 62
     7
100
AcDbMText
 10
179.6938987369965
 20
48.69389876899635
 30
0.0
 40
2.000000029802321
 41
0.0
 46
0.0
 71
     7
 72
     1
  1
Massstab
  7
NORM
 73
     1
 44
1.0
1001
ACAD
1000
MTEXTBEGIN
1070
    73
1070
     1
1070
    44
1040
1.0
1070
    74
1070
     0
1000
MTEXTEND
  0
ATTDEF
  5
196
102
{ACAD_XDICTIONARY
360
C8E
102
}
330
14D
100
AcDbEntity
  8
Symbole(MSL)
 62
   179
100
AcDbText
 10
130.1791268975673
 20
8.151581441795563
 30
0.0
 40
4.499999880790709
  1
B-15544.13/3mm
  7
Textstil20
100
AcDbAttributeDefinition
280
     0
  3
BAUTEILNUMMER
  2
BAUTEILNUMMER_001
 70
     0
280
     0
  0
ATTDEF
  5
199
102
{ACAD_XDICTIONARY
360
C91
102
}
330
14D
100
AcDbEntity
  8
Symbole(MSL)
 62
   179
100
AcDbText
 10
50.26070941957229
 20
9.402030866296108
 30
0.0
 40
3.499999940395355
  1
Schlossunterlage
  7
Aktuell-DIN
100
AcDbAttributeDefinition
280
     0
  3
TITEL
  2
TITEL_001
 70
     0
280
     0
  0
ATTDEF
  5
19B
102
{ACAD_XDICTIONARY
360
C94
102
}
330
14D
100
AcDbEntity
  8
Symbole(MSL)
 62
   179
100
AcDbText
 10
148.4895337248361
 20
49.09044521092496
 30
0.0
 40
2.006599903106689
  1
14.03.2016
  7
Textstil31
100
AcDbAttributeDefinition
280
     0
  3
EDM_CREATE_DATE
  2
EDM_CREATE_DATE_001
 70
     0
280
     0
  0
ATTDEF
  5
19C
102
{ACAD_XDICTIONARY
360
C97
102
}
330
14D
100
AcDbEntity
  8
Symbole(MSL)
 62
   179
100
AcDbText
 10
168.1359102484448
 20
49.12145558147289
 30
0.0
 40
2.006599903106689
  1
ra
  7
Textstil31
100
AcDbAttributeDefinition
280
     0
  3
EDM_CREATE_BY
  2
EDM_CREATE_BY_001
 70
     0
280
     0
  0
ATTDEF
  5
19D
102
{ACAD_XDICTIONARY
360
C9A
102
}
330
14D
100
AcDbEntity
  8
Symbole(MSL)
 62
   179
100
AcDbText
 10
168.5
 20
43.59683888939732
 30
0.0
 40
2.006599903106689
  1

  7
Textstil31
 11
168.5
 21
44.60013884095066
 31
0.0
100
AcDbAttributeDefinition
280
     0
  3
EDM_CHECKED_BY
  2
EDM_CHECKED_BY
 70
     0
 74
     2
280
     0
  0
ATTDEF
  5
19E
102
{ACAD_XDICTIONARY
360
C9D
102
}
330
14D
100
AcDbEntity
  8
Symbole(MSL)
 62
   179
100
AcDbText
 10
149.1
 20
43.62350199303782
 30
0.0
 40
2.006599903106689
  1

  7
Textstil31
 11
149.1
 21
44.62680194459117
 31
0.0
100
AcDbAttributeDefinition
280
     0
  3
EDM_CHECKED_DATE
  2
EDM_CHECKED_DATE
 70
     0
 74
     2
280
     0
  0
ATTDEF
  5
19F
102
{ACAD_XDICTIONARY
360
CA0
102
}
330
14D
100
AcDbEntity
  8
Symbole(MSL)
 62
   179
100
AcDbText
 10
173.4224685217988
 20
60.48054275445273
 30
0.0
 40
2.006599903106689
  1
1.4301
  7
Textstil31
100
AcDbAttributeDefinition
280
     0
  3
AIMD_MATERIAL
  2
AIMD_MATERIAL_001
 70
     0
280
     0
  0
ATTDEF
  5
1A1
102
{ACAD_XDICTIONARY
360
CA3
102
}
330
14D
100
AcDbEntity
  8
Symbole(MSL)
 62
   179
100
AcDbText
 10
149.1
 20
18.22568338421969
 30
0.0
 40
2.000000029802321
  1

  7
Textstil10
 11
149.1
 21
20.22568341402201
 31
0.0
100
AcDbAttributeDefinition
280
     0
  3
AIMD_REPLACEMENT
  2
AIMD_REPLACEMENT
 70
     0
 74
     3
280
     0
  0
ATTDEF
  5
1A2
102
{ACAD_XDICTIONARY
360
CA6
102
}
330
14D
100
AcDbEntity
  8
Symbole(MSL)
 62
   179
100
AcDbText
 10
125.5
 20
36.52978810949181
 30
0.0
 40
2.000000029802321
  1

  7
Textstil10
 72
     1
 11
125.5
 21
37.52978812439297
 31
0.0
100
AcDbAttributeDefinition
280
     0
  3
1AIMD_REVISION_USERNAME
  2
1AIMD_REVISION_USERNAME
 70
     0
 74
     2
280
     0
  0
ATTDEF
  5
1A3
102
{ACAD_XDICTIONARY
360
CA9
102
}
330
14D
100
AcDbEntity
  8
Symbole(MSL)
 62
   179
100
AcDbText
 10
18.3
 20
36.50344421338437
 30
0.0
 40
2.000000029802321
  1

  7
Textstil10
 11
18.3
 21
37.50344422828553
 31
0.0
100
AcDbAttributeDefinition
280
     0
  3
1AIMD_REVISION_DESCRIPTION
  2
1AIMD_REVISION_DESCRIPTION
 70
     0
 74
     2
280
     0
  0
ATTDEF
  5
1A4
102
{ACAD_XDICTIONARY
360
CAC
102
}
330
14D
100
AcDbEntity
  8
Symbole(MSL)
 62
   179
100
AcDbText
 10
14.0
 20
36.57520184743612
 30
0.0
 40
2.000000029802321
  1

  7
Textstil10
 72
     1
 11
14.0
 21
37.57520186233728
 31
0.0
100
AcDbAttributeDefinition
280
     0
  3
1AIMD_REVISION_INDEX
  2
1AIMD_REVISION_INDEX
 70
     0
 74
     2
280
     0
  0
ATTDEF
  5
1A5
102
{ACAD_XDICTIONARY
360
CAF
102
}
330
14D
100
AcDbEntity
  8
Symbole(MSL)
 62
   179
100
AcDbText
 10
125.5
 20
40.80881229513106
 30
0.0
 40
2.000000029802321
  1

  7
Textstil10
 72
     1
 11
125.5
 21
41.80881231003222
 31
0.0
100
AcDbAttributeDefinition
280
     0
  3
2AIMD_REVISION_USERNAME
  2
2AIMD_REVISION_USERNAME
 70
     0
 74
     2
280
     0
  0
ATTDEF
  5
1A6
102
{ACAD_XDICTIONARY
360
CB2
102
}
330
14D
100
AcDbEntity
  8
Symbole(MSL)
 62
   179
100
AcDbText
 10
112.5
 20
40.5506551116835
 30
0.0
 40
2.000000029802321
  1

  7
Textstil10
 72
     1
 11
112.5
 21
41.55065512658466
 31
0.0
100
AcDbAttributeDefinition
280
     0
  3
2AIMD_REVISION_DATE
  2
2AIMD_REVISION_DATE
 70
     0
 74
     2
280
     0
  0
ATTDEF
  5
1A7
102
{ACAD_XDICTIONARY
360
CB5
102
}
330
14D
100
AcDbEntity
  8
Symbole(MSL)
 62
   179
100
AcDbText
 10
18.3
 20
40.97394055995201
 30
0.0
 40
2.000000029802321
  1

  7
Textstil10
 11
18.3
 21
41.97394057485317
 31
0.0
100
AcDbAttributeDefinition
280
     0
  3
2AIMD_REVISION_DESCRIPTION
  2
2AIMD_REVISION_DESCRIPTION
 70
     0
 74
     2
280
     0
  0
ATTDEF
  5
1A8
102
{ACAD_XDICTIONARY
360
CB8
102
}
330
14D
100
AcDbEntity
  8
Symbole(MSL)
 62
   179
100
AcDbText
 10
14.0
 20
40.93671746542224
 30
0.0
 40
2.000000029802321
  1

  7
Textstil10
 72
     1
 11
14.0
 21
41.9367174803234
 31
0.0
100
AcDbAttributeDefinition
280
     0
  3
2AIMD_REVISION_INDEX
  2
2AIMD_REVISION_INDEX
 70
     0
 74
     2
280
     0
  0
ATTDEF
  5
1A9
102
{ACAD_XDICTIONARY
360
CBB
102
}
330
14D
100
AcDbEntity
  8
Symbole(MSL)
 62
   179
100
AcDbText
 10
125.5
 20
45.03595965151094
 30
0.0
 40
2.000000029802321
  1

  7
Textstil10
 72
     1
 11
125.5
 21
46.0359596664121
 31
0.0
100
AcDbAttributeDefinition
280
     0
  3
3AIMD_REVISION_USERNAME
  2
3AIMD_REVISION_USERNAME
 70
     0
 74
     2
280
     0
  0
ATTDEF
  5
1AA
102
{ACAD_XDICTIONARY
360
CBE
102
}
330
14D
100
AcDbEntity
  8
Symbole(MSL)
 62
   179
100
AcDbText
 10
112.5
 20
45.05889235840037
 30
0.0
 40
2.000000029802321
  1

  7
Textstil10
 72
     1
 11
112.5
 21
46.05889237330153
 31
0.0
100
AcDbAttributeDefinition
280
     0
  3
3AIMD_REVISION_DATE
  2
3AIMD_REVISION_DATE
 70
     0
 74
     2
280
     0
  0
ATTDEF
  5
1AB
102
{ACAD_XDICTIONARY
360
CC1
102
}
330
14D
100
AcDbEntity
  8
Symbole(MSL)
 62
   179
100
AcDbText
 10
18.3
 20
45.07718269061245
 30
0.0
 40
2.000000029802321
  1

  7
Textstil10
 11
18.3
 21
46.07718270551361
 31
0.0
100
AcDbAttributeDefinition
280
     0
  3
3AIMD_REVISION_DESCRIPTION
  2
3AIMD_REVISION_DESCRIPTION
 70
     0
 74
     2
280
     0
  0
ATTDEF
  5
1AC
102
{ACAD_XDICTIONARY
360
CC4
102
}
330
14D
100
AcDbEntity
  8
Symbole(MSL)
 62
   179
100
AcDbText
 10
14.0
 20
45.08650417609564
 30
0.0
 40
2.000000029802321
  1

  7
Textstil10
 72
     1
 11
14.0
 21
46.08650419099681
 31
0.0
100
AcDbAttributeDefinition
280
     0
  3
3AIMD_REVISION_INDEX
  2
3AIMD_REVISION_INDEX
 70
     0
 74
     2
280
     0
  0
ATTDEF
  5
1AD
102
{ACAD_XDICTIONARY
360
CC7
102
}
330
14D
100
AcDbEntity
  8
Symbole(MSL)
 62
   179
100
AcDbText
 10
125.5
 20
49.28595965151096
 30
0.0
 40
2.000000029802321
  1

  7
Textstil10
 72
     1
 11
125.5
 21
50.28595966641212
 31
0.0
100
AcDbAttributeDefinition
280
     0
  3
4AIMD_REVISION_USERNAME
  2
4AIMD_REVISION_USERNAME
 70
     0
 74
     2
280
     0
  0
ATTDEF
  5
1AE
102
{ACAD_XDICTIONARY
360
CCA
102
}
330
14D
100
AcDbEntity
  8
Symbole(MSL)
 62
   179
100
AcDbText
 10
14.0
 20
49.35805764822625
 30
0.0
 40
2.000000029802321
  1

  7
Textstil10
 72
     1
 11
14.0
 21
50.35805766312741
 31
0.0
100
AcDbAttributeDefinition
280
     0
  3
4AIMD_REVISION_INDEX
  2
4AIMD_REVISION_INDEX
 70
     0
 74
     2
280
     0
  0
ATTDEF
  5
1AF
102
{ACAD_XDICTIONARY
360
CCD
102
}
330
14D
100
AcDbEntity
  8
Symbole(MSL)
 62
   179
100
AcDbText
 10
112.5
 20
49.30889235840037
 30
0.0
 40
2.000000029802321
  1

  7
Textstil10
 72
     1
 11
112.5
 21
50.30889237330153
 31
0.0
100
AcDbAttributeDefinition
280
     0
  3
4AIMD_REVISION_DATE
  2
4AIMD_REVISION_DATE
 70
     0
 74
     2
280
     0
  0
ATTDEF
  5
1B0
102
{ACAD_XDICTIONARY
360
CD0
102
}
330
14D
100
AcDbEntity
  8
Symbole(MSL)
 62
   179
100
AcDbText
 10
149.1
 20
23.06007321009885
 30
0.0
 40
2.006599903106689
  1

  7
Textstil31
 11
149.1
 21
24.06337316165219
 31
0.0
100
AcDbAttributeDefinition
280
     0
  3
AIMD_ORIGIN
  2
AIMD_ORIGIN
 70
     0
 74
     2
280
     0
  0
ATTDEF
  5
1B1
102
{ACAD_XDICTIONARY
360
CD3
102
}
330
14D
100
AcDbEntity
  8
Symbole(MSL)
 62
   179
100
AcDbText
 10
185.5946112811973
 20
43.49435233769703
 30
0.0
 40
3.499999940395355
  1

  7
Aktuell-DIN
 72
     1
 11
185.5946112811973
 21
46.99435227809239
 31
0.0
100
AcDbAttributeDefinition
280
     0
  3
AIMD_SCALE
  2
AIMD_SCALE
 70
     0
 74
     3
280
     0
  0
ATTDEF
  5
1B2
102
{ACAD_XDICTIONARY
360
CD6
102
}
330
14D
100
AcDbEntity
  8
Symbole(MSL)
 62
   179
100
AcDbText
 10
112.5
 20
36.57471443539238
 30
0.0
 40
2.000000029802321
  1

  7
Textstil10
 72
     1
 11
112.5
 21
37.57471445029354
 31
0.0
100
AcDbAttributeDefinition
280
     0
  3
1AIMD_REVISION_DATE
  2
1AIMD_REVISION_DATE
 70
     0
 74
     2
280
     0
  0
ATTDEF
  5
1B3
102
{ACAD_XDICTIONARY
360
CD9
102
}
330
14D
100
AcDbEntity
  8
Symbole(MSL)
 62
   179
100
AcDbText
 10
18.3
 20
49.34949162618623
 30
0.0
 40
2.000000029802321
  1

  7
Textstil10
 11
18.3
 21
50.34949164108739
 31
0.0
100
AcDbAttributeDefinition
280
     0
  3
4AIMD_REVISION_DESCRIPTION
  2
4AIMD_REVISION_DESCRIPTION
 70
     0
 74
     2
280
     0
  0
ATTDEF
  5
1B4
102
{ACAD_XDICTIONARY
360
CDC
102
}
330
14D
100
AcDbEntity
  8
Symbole(MSL)
 62
     7
100
AcDbText
 10
75.77353320203854
 20
61.38604252032552
 30
0.0
 40
2.000000029802321
  1
Schlossunterlage
  7
NORM
100
AcDbAttributeDefinition
280
     0
  3
TITEL
  2
TITEL_001
 70
     0
280
     0
  0
ATTDEF
  5
1B5
102
{ACAD_XDICTIONARY
360
CDF
102
}
330
14D
100
AcDbEntity
  8
Symbole(MSL)
 62
   179
100
AcDbText
 10
189.4833791900584
 20
6.22192556758222
 30
0.0
 40
3.499999940395355
  1

  7
Aktuell-DIN
 72
     1
 11
189.4833791900584
 21
7.971925537779897
 31
0.0
100
AcDbAttributeDefinition
280
     0
  3
AIMD_REV
  2
AIMD_REV
 70
     0
 74
     2
280
     0
  0
ATTDEF
  5
1B7
102
{ACAD_XDICTIONARY
360
CE2
102
}
330
14D
100
AcDbEntity
  8
Symbole(MSL)
 62
   179
100
AcDbText
 10
183.7628904612268
 20
38.33391132517058
 30
0.0
 40
2.489199936389923
  1
A4
  7
Textstil32
100
AcDbAttributeDefinition
280
     0
  3
Blattgröße
  2
Blattgröße_001
 70
     0
280
     0
  0
ATTDEF
  5
1B8
102
{ACAD_XDICTIONARY
360
CE5
102
}
330
14D
100
AcDbEntity
  8
Symbole(MSL)
 62
   179
100
AcDbText
 10
149.1
 20
33.43703615947212
 30
0.0
 40
2.006599903106689
  1

  7
Textstil31
 11
149.1
 21
34.44033611102547
 31
0.0
100
AcDbAttributeDefinition
280
     0
  3
AIMD_FIRMA
  2
AIMD_FIRMA
 70
     0
 74
     2
280
     0
  0
ATTDEF
  5
1B9
102
{ACAD_XDICTIONARY
360
CE8
102
}
330
14D
100
AcDbEntity
  8
Symbole(MSL)
 62
   178
100
AcDbText
 10
148.7304352145868
 20
28.8852714714548
 30
0.0
 40
2.006599903106689
  1
matt gebuerstet (mb)
  7
Textstil31
100
AcDbAttributeDefinition
280
     0
  3
AIMD_OBERFL
  2
AIMD_OBERFL_001
 70
     0
280
     0
  0
ATTDEF
  5
1BA
102
{ACAD_XDICTIONARY
360
CEB
102
}
330
14D
100
AcDbEntity
  8
Symbole(MSL)
 62
   179
100
AcDbText
 10
149.1
 20
38.59728946105423
 30
0.0
 40
2.000000029802321
  1

  7
NORM
 11
149.1
 21
39.59728947595539
 31
0.0
100
AcDbAttributeDefinition
280
     0
  3
EDM_CHECKED_DATE
  2
EDM_CHECKED_DATE
 70
     0
 74
     2
280
     0
  0
ATTDEF
  5
1BB
102
{ACAD_XDICTIONARY
360
CEE
102
}
330
14D
100
AcDbEntity
  8
Symbole(MSL)
 62
   179
100
AcDbText
 10
168.5
 20
38.59952379808523
 30
0.0
 40
2.006599903106689
  1

  7
Textstil31
 11
168.5
 21
39.60282374963858
 31
0.0
100
AcDbAttributeDefinition
280
     0
  3
EDM_CHECKED_BY
  2
EDM_CHECKED_BY
 70
     0
 74
     2
280
     0
  0
ATTDEF
  5
1BC
102
{ACAD_XDICTIONARY
360
CF1
102
}
330
14D
100
AcDbEntity
  8
Symbole(MSL)
 62
     7
100
AcDbText
 10
50.62810368043032
 20
28.55948732698216
 30
0.0
 40
2.000000029802321
  1
sFlipLock Standard mit Motor
  7
NORM
100
AcDbAttributeDefinition
280
     0
  3
AIMD_BEZ2
  2
AIMD_BEZ2_001
 70
     0
280
     0
  0
ATTDEF
  5
1BD
102
{ACAD_XDICTIONARY
360
CF4
102
}
330
14D
100
AcDbEntity
  8
Symbole(MSL)
 62
     7
100
AcDbText
 10
50.72905866176482
 20
23.13281063699069
 30
0.0
 40
2.000000029802321
  1
445x24x3mm
  7
NORM
100
AcDbAttributeDefinition
280
     0
  3
AIMD_BEZ3
  2
AIMD_BEZ3_001
 70
     0
280
     0
  0
ATTDEF
  5
1BE
102
{ACAD_XDICTIONARY
360
CF7
102
}
330
14D
100
AcDbEntity
  8
Symbole(MSL)
 62
     7
100
AcDbText
 10
50.79999999999992
 20
18.09884856114829
 30
0.0
 40
2.000000029802321
  1

  7
NORM
 11
50.79999999999992
 21
19.09884857604945
 31
0.0
100
AcDbAttributeDefinition
280
     0
  3
AIMD_BEZ4
  2
AIMD_BEZ4
 70
     0
 74
     2
280
     0
  0
ENDBLK
  5
14F
330
14D
100
AcDbEntity
  8
0
100
AcDbBlockEnd
  0
BLOCK
  5
251
330
250
100
AcDbEntity
  8
0
100
AcDbBlockBegin
  2
*D8
 70
     1
 10
0.0
 20
0.0
 30
0.0
  3
*D8
  1

  0
LINE
  5
32B
330
250
100
AcDbEntity
  8
Bemaßungen(MSL)
  6
Continuous
 62
     5
440
 16777216
370
     0
100
AcDbLine
 10
151.6574749811387
 20
183.5171516731328
 30
0.0
 11
117.5008268953001
 21
183.5171516731328
 31
0.0
  0
LINE
  5
32C
330
250
100
AcDbEntity
  8
Bemaßungen(MSL)
  6
Continuous
 62
     5
440
 16777216
370
     0
100
AcDbLine
 10
151.6574749811387
 20
545.8292446230664
 30
0.0
 11
117.5008268953002
 21
545.8292446230664
 31
0.0
  0
LINE
  5
32D
330
250
100
AcDbEntity
  8
Bemaßungen(MSL)
  6
Continuous
 62
     5
440
 16777216
370
     0
100
AcDbLine
 10
119.5008268953001
 20
190.5171516731328
 30
0.0
 11
119.5008268953002
 21
538.8292446230662
 31
0.0
  0
INSERT
  5
32E
330
250
100
AcDbEntity
  8
Bemaßungen(MSL)
  6
Continuous
 62
     5
440
 16777216
370
     0
100
AcDbBlockReference
  2
Filled-1
 10
119.5008268953001
 20
183.5171516731328
 30
0.0
 41
7.0
 42
7.0
 43
7.0
 50
270.0
  0
INSERT
  5
32F
330
250
100
AcDbEntity
  8
Bemaßungen(MSL)
  6
Continuous
 62
     5
440
 16777216
370
     0
100
AcDbBlockReference
  2
Filled-1
 10
119.5008268953002
 20
545.8292446230664
 30
0.0
 41
7.0
 42
7.0
 43
7.0
 50
90.0
  0
MTEXT
  5
330
330
250
100
AcDbEntity
  8
Bemaßungen(MSL)
  6
Continuous
 62
     7
440
 16777216
370
     5
100
AcDbMText
 10
110.3814544118408
 20
371.2009850041362
 30
0.0
 40
7.0
 41
0.0
 46
0.0
 71
     1
 72
     1
  1
\A1;445
  7
NORMAL-MSL
 11
0.0000000000000001
 21
1.0
 31
0.0
 73
     1
 44
1.0
1001
ACAD
1000
MTEXTBEGIN
1070
    73
1070
     1
1070
    44
1040
1.0
1070
    74
1070
     0
1000
MTEXTEND
  0
POINT
  5
331
330
250
100
AcDbEntity
  8
Defpoints
  6
Continuous
 62
     0
440
 16777216
100
AcDbPoint
 10
151.6574749811387
 20
183.5171516731328
 30
0.0
  0
POINT
  5
332
330
250
100
AcDbEntity
  8
Defpoints
  6
Continuous
 62
     0
440
 16777216
100
AcDbPoint
 10
151.6574749811387
 20
545.8292446230664
 30
0.0
  0
POINT
  5
333
330
250
100
AcDbEntity
  8
Defpoints
  6
Continuous
 62
     0
440
 16777216
100
AcDbPoint
 10
119.5008268953002
 20
545.8292446230664
 30
0.0
  0
ENDBLK
  5
252
330
250
100
AcDbEntity
  8
0
100
AcDbBlockEnd
  0
BLOCK
  5
336
330
335
100
AcDbEntity
  8
0
100
AcDbBlockBegin
  2
*D9
 70
     1
 10
0.0
 20
0.0
 30
0.0
  3
*D9
  1

  0
LINE
  5
429
330
335
100
AcDbEntity
  8
Bemaßungen(MSL)
  6
Continuous
 62
     5
440
 16777216
370
     0
100
AcDbLine
 10
151.6574749811387
 20
545.8292446230664
 30
0.0
 11
135.6574749811388
 21
545.8292446230664
 31
0.0
  0
LINE
  5
42A
330
335
100
AcDbEntity
  8
Bemaßungen(MSL)
  6
Continuous
 62
     5
440
 16777216
370
     0
100
AcDbLine
 10
163.6574749811386
 20
533.8292446230664
 30
0.0
 11
135.6574749811388
 21
533.8292446230664
 31
0.0
  0
LINE
  5
42B
330
335
100
AcDbEntity
  8
Bemaßungen(MSL)
  6
Continuous
 62
     5
440
 16777216
370
     0
100
AcDbLine
 10
137.6574749811388
 20
552.8292446230664
 30
0.0
 11
137.6574749811388
 21
559.8292446230664
 31
0.0
  0
LINE
  5
42C
330
335
100
AcDbEntity
  8
Bemaßungen(MSL)
  6
Continuous
 62
     5
440
 16777216
370
     0
100
AcDbLine
 10
137.6574749811388
 20
526.8292446230664
 30
0.0
 11
137.6574749811388
 21
519.8292446230664
 31
0.0
  0
LINE
  5
42D
330
335
100
AcDbEntity
  8
Bemaßungen(MSL)
  6
Continuous
 62
     5
440
 16777216
370
     0
100
AcDbLine
 10
137.6574749811388
 20
545.8292446230664
 30
0.0
 11
137.6574749811388
 21
533.8292446230664
 31
0.0
  0
INSERT
  5
42E
330
335
100
AcDbEntity
  8
Bemaßungen(MSL)
  6
Continuous
 62
     5
440
 16777216
370
     0
100
AcDbBlockReference
  2
Filled-1
 10
137.6574749811388
 20
545.8292446230664
 30
0.0
 41
7.0
 42
7.0
 43
7.0
 50
270.0
  0
INSERT
  5
42F
330
335
100
AcDbEntity
  8
Bemaßungen(MSL)
  6
Continuous
 62
     5
440
 16777216
370
     0
100
AcDbBlockReference
  2
Filled-1
 10
137.6574749811388
 20
533.8292446230664
 30
0.0
 41
7.0
 42
7.0
 43
7.0
 50
90.0
  0
MTEXT
  5
430
330
335
100
AcDbEntity
  8
Bemaßungen(MSL)
  6
Continuous
 62
     7
440
 16777216
370
     5
100
AcDbMText
 10
128.628825554142
 20
535.1808817037856
 30
0.0
 40
7.0
 41
0.0
 46
0.0
 71
     1
 72
     1
  1
\A1;12
  7
NORMAL-MSL
 11
0.0000000000000001
 21
1.0
 31
0.0
 73
     1
 44
1.0
1001
ACAD
1000
MTEXTBEGIN
1070
    73
1070
     1
1070
    44
1040
1.0
1070
    74
1070
     0
1000
MTEXTEND
  0
POINT
  5
431
330
335
100
AcDbEntity
  8
Defpoints
  6
Continuous
 62
     0
440
 16777216
100
AcDbPoint
 10
151.6574749811387
 20
545.8292446230664
 30
0.0
  0
POINT
  5
432
330
335
100
AcDbEntity
  8
Defpoints
  6
Continuous
 62
     0
440
 16777216
100
AcDbPoint
 10
163.6574749811386
 20
533.8292446230664
 30
0.0
  0
POINT
  5
433
330
335
100
AcDbEntity
  8
Defpoints
  6
Continuous
 62
     0
440
 16777216
100
AcDbPoint
 10
137.6574749811388
 20
533.8292446230664
 30
0.0
  0
ENDBLK
  5
337
330
335
100
AcDbEntity
  8
0
100
AcDbBlockEnd
  0
BLOCK
  5
436
330
435
100
AcDbEntity
  8
0
100
AcDbBlockBegin
  2
*D10
 70
     1
 10
0.0
 20
0.0
 30
0.0
  3
*D10
  1

  0
LINE
  5
50D
330
435
100
AcDbEntity
  8
Bemaßungen(MSL)
  6
Continuous
 62
     5
440
 16777216
370
     0
100
AcDbLine
 10
163.6574749811386
 20
533.8292446230664
 30
0.0
 11
135.6574749811388
 21
533.8292446230664
 31
0.0
  0
LINE
  5
50E
330
435
100
AcDbEntity
  8
Bemaßungen(MSL)
  6
Continuous
 62
     5
440
 16777216
370
     0
100
AcDbLine
 10
163.6574749811386
 20
502.8292446230664
 30
0.0
 11
135.6574749811388
 21
502.8292446230664
 31
0.0
  0
LINE
  5
50F
330
435
100
AcDbEntity
  8
Bemaßungen(MSL)
  6
Continuous
 62
     5
440
 16777216
370
     0
100
AcDbLine
 10
137.6574749811388
 20
526.8292446230664
 30
0.0
 11
137.6574749811388
 21
509.8292446230664
 31
0.0
  0
INSERT
  5
510
330
435
100
AcDbEntity
  8
Bemaßungen(MSL)
  6
Continuous
 62
     5
440
 16777216
370
     0
100
AcDbBlockReference
  2
Filled-1
 10
137.6574749811388
 20
533.8292446230664
 30
0.0
 41
7.0
 42
7.0
 43
7.0
 50
90.0
  0
INSERT
  5
511
330
435
100
AcDbEntity
  8
Bemaßungen(MSL)
  6
Continuous
 62
     5
440
 16777216
370
     0
100
AcDbBlockReference
  2
Filled-1
 10
137.6574749811388
 20
502.8292446230664
 30
0.0
 41
7.0
 42
7.0
 43
7.0
 50
270.0
  0
MTEXT
  5
512
330
435
100
AcDbEntity
  8
Bemaßungen(MSL)
  6
Continuous
 62
     7
440
 16777216
370
     5
100
AcDbMText
 10
128.5046782137195
 20
513.9936375036961
 30
0.0
 40
7.0
 41
0.0
 46
0.0
 71
     1
 72
     1
  1
\A1;31
  7
NORMAL-MSL
 11
0.0000000000000001
 21
1.0
 31
0.0
 73
     1
 44
1.0
1001
ACAD
1000
MTEXTBEGIN
1070
    73
1070
     1
1070
    44
1040
1.0
1070
    74
1070
     0
1000
MTEXTEND
  0
POINT
  5
513
330
435
100
AcDbEntity
  8
Defpoints
  6
Continuous
 62
     0
440
 16777216
100
AcDbPoint
 10
163.6574749811386
 20
533.8292446230664
 30
0.0
  0
POINT
  5
514
330
435
100
AcDbEntity
  8
Defpoints
  6
Continuous
 62
     0
440
 16777216
100
AcDbPoint
 10
163.6574749811386
 20
502.8292446230664
 30
0.0
  0
POINT
  5
515
330
435
100
AcDbEntity
  8
Defpoints
  6
Continuous
 62
     0
440
 16777216
100
AcDbPoint
 10
137.6574749811388
 20
502.8292446230664
 30
0.0
  0
ENDBLK
  5
437
330
435
100
AcDbEntity
  8
0
100
AcDbBlockEnd
  0
BLOCK
  5
518
330
517
100
AcDbEntity
  8
0
100
AcDbBlockBegin
  2
*D11
 70
     1
 10
0.0
 20
0.0
 30
0.0
  3
*D11
  1

  0
LINE
  5
5F8
330
517
100
AcDbEntity
  8
Bemaßungen(MSL)
  6
Continuous
 62
     5
440
 16777216
370
     0
100
AcDbLine
 10
163.6574749811386
 20
502.8292446230664
 30
0.0
 11
135.6574749811388
 21
502.8292446230664
 31
0.0
  0
LINE
  5
5F9
330
517
100
AcDbEntity
  8
Bemaßungen(MSL)
  6
Continuous
 62
     5
440
 16777216
370
     0
100
AcDbLine
 10
163.6574749811386
 20
195.5171516731328
 30
0.0
 11
135.6574749811387
 21
195.5171516731328
 31
0.0
  0
LINE
  5
5FA
330
517
100
AcDbEntity
  8
Bemaßungen(MSL)
  6
Continuous
 62
     5
440
 16777216
370
     0
100
AcDbLine
 10
137.6574749811388
 20
495.8292446230665
 30
0.0
 11
137.6574749811387
 21
202.5171516731328
 31
0.0
  0
INSERT
  5
5FB
330
517
100
AcDbEntity
  8
Bemaßungen(MSL)
  6
Continuous
 62
     5
440
 16777216
370
     0
100
AcDbBlockReference
  2
Filled-1
 10
137.6574749811388
 20
502.8292446230664
 30
0.0
 41
7.0
 42
7.0
 43
7.0
 50
90.0
  0
INSERT
  5
5FC
330
517
100
AcDbEntity
  8
Bemaßungen(MSL)
  6
Continuous
 62
     5
440
 16777216
370
     0
100
AcDbBlockReference
  2
Filled-1
 10
137.6574749811387
 20
195.5171516731328
 30
0.0
 41
7.0
 42
7.0
 43
7.0
 50
270.0
  0
MTEXT
  5
5FD
330
517
100
AcDbEntity
  8
Bemaßungen(MSL)
  6
Continuous
 62
     7
440
 16777216
370
     5
100
AcDbMText
 10
128.5046782137195
 20
327.0267208873713
 30
0.0
 40
7.0
 41
0.0
 46
0.0
 71
     1
 72
     1
  1
\A1;390
  7
NORMAL-MSL
 11
0.0000000000000001
 21
1.0
 31
0.0
 73
     1
 44
1.0
1001
ACAD
1000
MTEXTBEGIN
1070
    73
1070
     1
1070
    44
1040
1.0
1070
    74
1070
     0
1000
MTEXTEND
  0
POINT
  5
5FE
330
517
100
AcDbEntity
  8
Defpoints
  6
Continuous
 62
     0
440
 16777216
100
AcDbPoint
 10
163.6574749811386
 20
502.8292446230664
 30
0.0
  0
POINT
  5
5FF
330
517
100
AcDbEntity
  8
Defpoints
  6
Continuous
 62
     0
440
 16777216
100
AcDbPoint
 10
163.6574749811386
 20
195.5171516731328
 30
0.0
  0
POINT
  5
600
330
517
100
AcDbEntity
  8
Defpoints
  6
Continuous
 62
     0
440
 16777216
100
AcDbPoint
 10
137.6574749811387
 20
195.5171516731328
 30
0.0
  0
ENDBLK
  5
519
330
517
100
AcDbEntity
  8
0
100
AcDbBlockEnd
  0
BLOCK
  5
603
330
602
100
AcDbEntity
  8
0
100
AcDbBlockBegin
  2
*D12
 70
     1
 10
0.0
 20
0.0
 30
0.0
  3
*D12
  1

  0
LINE
  5
6F6
330
602
100
AcDbEntity
  8
Bemaßungen(MSL)
  6
Continuous
 62
     5
440
 16777216
370
     0
100
AcDbLine
 10
163.6574749811386
 20
195.5171516731328
 30
0.0
 11
135.6574749811387
 21
195.5171516731328
 31
0.0
  0
LINE
  5
6F7
330
602
100
AcDbEntity
  8
Bemaßungen(MSL)
  6
Continuous
 62
     5
440
 16777216
370
     0
100
AcDbLine
 10
151.6574749811387
 20
183.5171516731328
 30
0.0
 11
135.6574749811387
 21
183.5171516731328
 31
0.0
  0
LINE
  5
6F8
330
602
100
AcDbEntity
  8
Bemaßungen(MSL)
  6
Continuous
 62
     5
440
 16777216
370
     0
100
AcDbLine
 10
137.6574749811387
 20
202.5171516731328
 30
0.0
 11
137.6574749811387
 21
209.5171516731328
 31
0.0
  0
LINE
  5
6F9
330
602
100
AcDbEntity
  8
Bemaßungen(MSL)
  6
Continuous
 62
     5
440
 16777216
370
     0
100
AcDbLine
 10
137.6574749811387
 20
176.5171516731328
 30
0.0
 11
137.6574749811387
 21
169.5171516731328
 31
0.0
  0
LINE
  5
6FA
330
602
100
AcDbEntity
  8
Bemaßungen(MSL)
  6
Continuous
 62
     5
440
 16777216
370
     0
100
AcDbLine
 10
137.6574749811387
 20
195.5171516731328
 30
0.0
 11
137.6574749811387
 21
183.5171516731328
 31
0.0
  0
INSERT
  5
6FB
330
602
100
AcDbEntity
  8
Bemaßungen(MSL)
  6
Continuous
 62
     5
440
 16777216
370
     0
100
AcDbBlockReference
  2
Filled-1
 10
137.6574749811387
 20
195.5171516731328
 30
0.0
 41
7.0
 42
7.0
 43
7.0
 50
270.0
  0
INSERT
  5
6FC
330
602
100
AcDbEntity
  8
Bemaßungen(MSL)
  6
Continuous
 62
     5
440
 16777216
370
     0
100
AcDbBlockReference
  2
Filled-1
 10
137.6574749811387
 20
183.5171516731328
 30
0.0
 41
7.0
 42
7.0
 43
7.0
 50
90.0
  0
MTEXT
  5
6FD
330
602
100
AcDbEntity
  8
Bemaßungen(MSL)
  6
Continuous
 62
     7
440
 16777216
370
     5
100
AcDbMText
 10
128.6288255541419
 20
184.868788753852
 30
0.0
 40
7.0
 41
0.0
 46
0.0
 71
     1
 72
     1
  1
\A1;12
  7
NORMAL-MSL
 11
0.0000000000000001
 21
1.0
 31
0.0
 73
     1
 44
1.0
1001
ACAD
1000
MTEXTBEGIN
1070
    73
1070
     1
1070
    44
1040
1.0
1070
    74
1070
     0
1000
MTEXTEND
  0
POINT
  5
6FE
330
602
100
AcDbEntity
  8
Defpoints
  6
Continuous
 62
     0
440
 16777216
100
AcDbPoint
 10
163.6574749811386
 20
195.5171516731328
 30
0.0
  0
POINT
  5
6FF
330
602
100
AcDbEntity
  8
Defpoints
  6
Continuous
 62
     0
440
 16777216
100
AcDbPoint
 10
151.6574749811387
 20
183.5171516731328
 30
0.0
  0
POINT
  5
700
330
602
100
AcDbEntity
  8
Defpoints
  6
Continuous
 62
     0
440
 16777216
100
AcDbPoint
 10
137.6574749811387
 20
183.5171516731328
 30
0.0
  0
ENDBLK
  5
604
330
602
100
AcDbEntity
  8
0
100
AcDbBlockEnd
  0
BLOCK
  5
703
330
702
100
AcDbEntity
  8
0
100
AcDbBlockBegin
  2
*D13
 70
     1
 10
0.0
 20
0.0
 30
0.0
  3
*D13
  1

  0
LINE
  5
7DA
330
702
100
AcDbEntity
  8
Bemaßungen(MSL)
  6
Continuous
 62
     5
440
 16777216
370
     0
100
AcDbLine
 10
151.6574749811387
 20
183.5171516731328
 30
0.0
 11
151.6574749811387
 21
164.4328049899503
 31
0.0
  0
LINE
  5
7DB
330
702
100
AcDbEntity
  8
Bemaßungen(MSL)
  6
Continuous
 62
     5
440
 16777216
370
     0
100
AcDbLine
 10
175.6574749811387
 20
183.5171516731328
 30
0.0
 11
175.6574749811387
 21
164.4328049899503
 31
0.0
  0
LINE
  5
7DC
330
702
100
AcDbEntity
  8
Bemaßungen(MSL)
  6
Continuous
 62
     5
440
 16777216
370
     0
100
AcDbLine
 10
158.6574749811387
 20
166.4328049899503
 30
0.0
 11
168.6574749811386
 21
166.4328049899503
 31
0.0
  0
INSERT
  5
7DD
330
702
100
AcDbEntity
  8
Bemaßungen(MSL)
  6
Continuous
 62
     5
440
 16777216
370
     0
100
AcDbBlockReference
  2
Filled-1
 10
151.6574749811387
 20
166.4328049899503
 30
0.0
 41
7.0
 42
7.0
 43
7.0
 50
180.0
  0
INSERT
  5
7DE
330
702
100
AcDbEntity
  8
Bemaßungen(MSL)
  6
Continuous
 62
     5
440
 16777216
370
     0
100
AcDbBlockReference
  2
Filled-1
 10
175.6574749811387
 20
166.4328049899503
 30
0.0
 41
7.0
 42
7.0
 43
7.0
  0
MTEXT
  5
7DF
330
702
100
AcDbEntity
  8
Bemaßungen(MSL)
  6
Continuous
 62
     7
440
 16777216
370
     5
100
AcDbMText
 10
158.598470858922
 20
175.461454416947
 30
0.0
 40
7.0
 41
0.0
 46
0.0
 71
     1
 72
     1
  1
\A1;24
  7
NORMAL-MSL
 73
     1
 44
1.0
1001
ACAD
1000
MTEXTBEGIN
1070
    73
1070
     1
1070
    44
1040
1.0
1070
    74
1070
     0
1000
MTEXTEND
  0
POINT
  5
7E0
330
702
100
AcDbEntity
  8
Defpoints
  6
Continuous
 62
     0
440
 16777216
100
AcDbPoint
 10
151.6574749811387
 20
183.5171516731328
 30
0.0
  0
POINT
  5
7E1
330
702
100
AcDbEntity
  8
Defpoints
  6
Continuous
 62
     0
440
 16777216
100
AcDbPoint
 10
175.6574749811387
 20
183.5171516731328
 30
0.0
  0
POINT
  5
7E2
330
702
100
AcDbEntity
  8
Defpoints
  6
Continuous
 62
     0
440
 16777216
100
AcDbPoint
 10
175.6574749811387
 20
166.4328049899503
 30
0.0
  0
ENDBLK
  5
704
330
702
100
AcDbEntity
  8
0
100
AcDbBlockEnd
  0
BLOCK
  5
7EC
330
7EB
100
AcDbEntity
  8
0
100
AcDbBlockBegin
  2
*D14
 70
     1
 10
0.0
 20
0.0
 30
0.0
  3
*D14
  1

  0
LINE
  5
8D6
330
7EB
100
AcDbEntity
  8
Bemaßungen(MSL)
  6
Continuous
 62
     5
440
 16777216
370
     0
100
AcDbLine
 10
179.1574749811386
 20
303.5801075589434
 30
0.0
 11
186.1574749811387
 21
303.5801075589434
 31
0.0
  0
LINE
  5
8D7
330
7EB
100
AcDbEntity
  8
Bemaßungen(MSL)
  6
Continuous
 62
     5
440
 16777216
370
     0
100
AcDbLine
 10
148.1574749811386
 20
303.5801075589434
 30
0.0
 11
141.1574749811387
 21
303.5801075589434
 31
0.0
  0
LINE
  5
8D8
330
7EB
100
AcDbEntity
  8
Bemaßungen(MSL)
  6
Continuous
 62
     5
440
 16777216
370
     0
100
AcDbLine
 10
172.1574749811386
 20
303.5801075589434
 30
0.0
 11
155.1574749811386
 21
303.5801075589434
 31
0.0
  0
INSERT
  5
8D9
330
7EB
100
AcDbEntity
  8
Bemaßungen(MSL)
  6
Continuous
 62
     5
440
 16777216
370
     0
100
AcDbBlockReference
  2
Filled-1
 10
172.1574749811386
 20
303.5801075589434
 30
0.0
 41
7.0
 42
7.0
 43
7.0
 50
180.0
  0
INSERT
  5
8DA
330
7EB
100
AcDbEntity
  8
Bemaßungen(MSL)
  6
Continuous
 62
     5
440
 16777216
370
     0
100
AcDbBlockReference
  2
Filled-1
 10
155.1574749811386
 20
303.5801075589434
 30
0.0
 41
7.0
 42
7.0
 43
7.0
  0
MTEXT
  5
8DB
330
7EB
100
AcDbEntity
  8
Bemaßungen(MSL)
  6
Continuous
 62
     7
440
 16777216
370
     5
100
AcDbMText
 10
158.9733003290437
 20
312.6087569859401
 30
0.0
 40
7.0
 41
0.0
 46
0.0
 71
     1
 72
     1
  1
\A1;17
  7
NORMAL-MSL
 73
     1
 44
1.0
1001
ACAD
1000
MTEXTBEGIN
1070
    73
1070
     1
1070
    44
1040
1.0
1070
    74
1070
     0
1000
MTEXTEND
  0
POINT
  5
8DC
330
7EB
100
AcDbEntity
  8
Defpoints
  6
Continuous
 62
     0
440
 16777216
100
AcDbPoint
 10
172.1574749811386
 20
303.5801075589434
 30
0.0
  0
POINT
  5
8DD
330
7EB
100
AcDbEntity
  8
Defpoints
  6
Continuous
 62
     0
440
 16777216
100
AcDbPoint
 10
155.1574749811386
 20
303.5801075589434
 30
0.0
  0
POINT
  5
8DE
330
7EB
100
AcDbEntity
  8
Defpoints
  6
Continuous
 62
     0
440
 16777216
100
AcDbPoint
 10
155.1574749811386
 20
303.5801075589434
 30
0.0
  0
ENDBLK
  5
7ED
330
7EB
100
AcDbEntity
  8
0
100
AcDbBlockEnd
  0
BLOCK
  5
8E1
330
8E0
100
AcDbEntity
  8
0
100
AcDbBlockBegin
  2
*D15
 70
     1
 10
0.0
 20
0.0
 30
0.0
  3
*D15
  1

  0
LINE
  5
9B8
330
8E0
100
AcDbEntity
  8
Bemaßungen(MSL)
  6
Continuous
 62
     5
440
 16777216
370
     0
100
AcDbLine
 10
175.6574749811387
 20
545.8292446230664
 30
0.0
 11
203.7285256405149
 21
545.8292446230664
 31
0.0
  0
LINE
  5
9B9
330
8E0
100
AcDbEntity
  8
Bemaßungen(MSL)
  6
Continuous
 62
     5
440
 16777216
370
     0
100
AcDbLine
 10
171.6574749811391
 20
470.8292446230664
 30
0.0
 11
203.7285256405149
 21
470.8292446230664
 31
0.0
  0
LINE
  5
9BA
330
8E0
100
AcDbEntity
  8
Bemaßungen(MSL)
  6
Continuous
 62
     5
440
 16777216
370
     0
100
AcDbLine
 10
201.7285256405149
 20
538.8292446230662
 30
0.0
 11
201.7285256405149
 21
477.8292446230664
 31
0.0
  0
INSERT
  5
9BB
330
8E0
100
AcDbEntity
  8
Bemaßungen(MSL)
  6
Continuous
 62
     5
440
 16777216
370
     0
100
AcDbBlockReference
  2
Filled-1
 10
201.7285256405149
 20
545.8292446230664
 30
0.0
 41
7.0
 42
7.0
 43
7.0
 50
90.0
  0
INSERT
  5
9BC
330
8E0
100
AcDbEntity
  8
Bemaßungen(MSL)
  6
Continuous
 62
     5
440
 16777216
370
     0
100
AcDbBlockReference
  2
Filled-1
 10
201.7285256405149
 20
470.8292446230664
 30
0.0
 41
7.0
 42
7.0
 43
7.0
 50
270.0
  0
MTEXT
  5
9BD
330
8E0
100
AcDbEntity
  8
Bemaßungen(MSL)
  6
Continuous
 62
     7
440
 16777216
370
     5
100
AcDbMText
 10
192.6091531978009
 20
503.317989477935
 30
0.0
 40
7.0
 41
0.0
 46
0.0
 71
     1
 72
     1
  1
\A1;75
  7
NORMAL-MSL
 11
0.0000000000000001
 21
1.0
 31
0.0
 73
     1
 44
1.0
1001
ACAD
1000
MTEXTBEGIN
1070
    73
1070
     1
1070
    44
1040
1.0
1070
    74
1070
     0
1000
MTEXTEND
  0
POINT
  5
9BE
330
8E0
100
AcDbEntity
  8
Defpoints
  6
Continuous
 62
     0
440
 16777216
100
AcDbPoint
 10
175.6574749811387
 20
545.8292446230664
 30
0.0
  0
POINT
  5
9BF
330
8E0
100
AcDbEntity
  8
Defpoints
  6
Continuous
 62
     0
440
 16777216
100
AcDbPoint
 10
171.6574749811391
 20
470.8292446230664
 30
0.0
  0
POINT
  5
9C0
330
8E0
100
AcDbEntity
  8
Defpoints
  6
Continuous
 62
     0
440
 16777216
100
AcDbPoint
 10
201.7285256405149
 20
470.8292446230664
 30
0.0
  0
ENDBLK
  5
8E2
330
8E0
100
AcDbEntity
  8
0
100
AcDbBlockEnd
  0
BLOCK
  5
9C3
330
9C2
100
AcDbEntity
  8
0
100
AcDbBlockBegin
  2
*D16
 70
     1
 10
0.0
 20
0.0
 30
0.0
  3
*D16
  1

  0
LINE
  5
AA3
330
9C2
100
AcDbEntity
  8
Bemaßungen(MSL)
  6
Continuous
 62
     5
440
 16777216
370
     0
100
AcDbLine
 10
171.6574749811391
 20
470.8292446230664
 30
0.0
 11
203.7285256405149
 21
470.8292446230664
 31
0.0
  0
LINE
  5
AA4
330
9C2
100
AcDbEntity
  8
Bemaßungen(MSL)
  6
Continuous
 62
     5
440
 16777216
370
     0
100
AcDbLine
 10
171.6574749811386
 20
213.5171516731328
 30
0.0
 11
203.7285256405149
 21
213.5171516731328
 31
0.0
  0
LINE
  5
AA5
330
9C2
100
AcDbEntity
  8
Bemaßungen(MSL)
  6
Continuous
 62
     5
440
 16777216
370
     0
100
AcDbLine
 10
201.7285256405149
 20
463.8292446230662
 30
0.0
 11
201.7285256405149
 21
220.5171516731327
 31
0.0
  0
INSERT
  5
AA6
330
9C2
100
AcDbEntity
  8
Bemaßungen(MSL)
  6
Continuous
 62
     5
440
 16777216
370
     0
100
AcDbBlockReference
  2
Filled-1
 10
201.7285256405149
 20
470.8292446230664
 30
0.0
 41
7.0
 42
7.0
 43
7.0
 50
90.0
  0
INSERT
  5
AA7
330
9C2
100
AcDbEntity
  8
Bemaßungen(MSL)
  6
Continuous
 62
     5
440
 16777216
370
     0
100
AcDbBlockReference
  2
Filled-1
 10
201.7285256405149
 20
213.5171516731328
 30
0.0
 41
7.0
 42
7.0
 43
7.0
 50
270.0
  0
MTEXT
  5
AA8
330
9C2
100
AcDbEntity
  8
Bemaßungen(MSL)
  6
Continuous
 62
     7
440
 16777216
370
     5
100
AcDbMText
 10
192.5757288730956
 20
320.0267208873713
 30
0.0
 40
7.0
 41
0.0
 46
0.0
 71
     1
 72
     1
  1
\A1;340
  7
NORMAL-MSL
 11
0.0000000000000001
 21
1.0
 31
0.0
 73
     1
 44
1.0
1001
ACAD
1000
MTEXTBEGIN
1070
    73
1070
     1
1070
    44
1040
1.0
1070
    74
1070
     0
1000
MTEXTEND
  0
POINT
  5
AA9
330
9C2
100
AcDbEntity
  8
Defpoints
  6
Continuous
 62
     0
440
 16777216
100
AcDbPoint
 10
171.6574749811391
 20
470.8292446230664
 30
0.0
  0
POINT
  5
AAA
330
9C2
100
AcDbEntity
  8
Defpoints
  6
Continuous
 62
     0
440
 16777216
100
AcDbPoint
 10
171.6574749811386
 20
213.5171516731328
 30
0.0
  0
POINT
  5
AAB
330
9C2
100
AcDbEntity
  8
Defpoints
  6
Continuous
 62
     0
440
 16777216
100
AcDbPoint
 10
201.7285256405149
 20
213.5171516731328
 30
0.0
  0
ENDBLK
  5
9C4
330
9C2
100
AcDbEntity
  8
0
100
AcDbBlockEnd
  0
BLOCK
  5
AAE
330
AAD
100
AcDbEntity
  8
0
100
AcDbBlockBegin
  2
*D17
 70
     1
 10
0.0
 20
0.0
 30
0.0
  3
*D17
  1

  0
LINE
  5
B85
330
AAD
100
AcDbEntity
  8
Bemaßungen(MSL)
  6
Continuous
 62
     5
440
 16777216
370
     0
100
AcDbLine
 10
171.6574749811386
 20
213.5171516731328
 30
0.0
 11
203.8574749811388
 21
213.5171516731328
 31
0.0
  0
LINE
  5
B86
330
AAD
100
AcDbEntity
  8
Bemaßungen(MSL)
  6
Continuous
 62
     5
440
 16777216
370
     0
100
AcDbLine
 10
175.6574749811387
 20
183.5171516731328
 30
0.0
 11
203.8574749811388
 21
183.5171516731327
 31
0.0
  0
LINE
  5
B87
330
AAD
100
AcDbEntity
  8
Bemaßungen(MSL)
  6
Continuous
 62
     5
440
 16777216
370
     0
100
AcDbLine
 10
201.8574749811388
 20
206.5171516731328
 30
0.0
 11
201.8574749811388
 21
190.5171516731327
 31
0.0
  0
INSERT
  5
B88
330
AAD
100
AcDbEntity
  8
Bemaßungen(MSL)
  6
Continuous
 62
     5
440
 16777216
370
     0
100
AcDbBlockReference
  2
Filled-1
 10
201.8574749811388
 20
213.5171516731328
 30
0.0
 41
7.0
 42
7.0
 43
7.0
 50
90.0
  0
INSERT
  5
B89
330
AAD
100
AcDbEntity
  8
Bemaßungen(MSL)
  6
Continuous
 62
     5
440
 16777216
370
     0
100
AcDbBlockReference
  2
Filled-1
 10
201.8574749811388
 20
183.5171516731327
 30
0.0
 41
7.0
 42
7.0
 43
7.0
 50
270.0
  0
MTEXT
  5
B8A
330
AAD
100
AcDbEntity
  8
Bemaßungen(MSL)
  6
Continuous
 62
     7
440
 16777216
370
     5
100
AcDbMText
 10
192.7046782137195
 20
193.517833772273
 30
0.0
 40
7.0
 41
0.0
 46
0.0
 71
     1
 72
     1
  1
\A1;30
  7
NORMAL-MSL
 11
0.0000000000000001
 21
1.0
 31
0.0
 73
     1
 44
1.0
1001
ACAD
1000
MTEXTBEGIN
1070
    73
1070
     1
1070
    44
1040
1.0
1070
    74
1070
     0
1000
MTEXTEND
  0
POINT
  5
B8B
330
AAD
100
AcDbEntity
  8
Defpoints
  6
Continuous
 62
     0
440
 16777216
100
AcDbPoint
 10
171.6574749811386
 20
213.5171516731328
 30
0.0
  0
POINT
  5
B8C
330
AAD
100
AcDbEntity
  8
Defpoints
  6
Continuous
 62
     0
440
 16777216
100
AcDbPoint
 10
175.6574749811387
 20
183.5171516731328
 30
0.0
  0
POINT
  5
B8D
330
AAD
100
AcDbEntity
  8
Defpoints
  6
Continuous
 62
     0
440
 16777216
100
AcDbPoint
 10
201.8574749811388
 20
183.5171516731327
 30
0.0
  0
ENDBLK
  5
AAF
330
AAD
100
AcDbEntity
  8
0
100
AcDbBlockEnd
  0
BLOCK
  5
B90
330
B8F
100
AcDbEntity
  8
0
100
AcDbBlockBegin
  2
*D18
 70
     1
 10
0.0
 20
0.0
 30
0.0
  3
*D18
  1

  0
LINE
  5
1131
330
B8F
100
AcDbEntity
  8
Bemaßungen(MSL)
  6
Continuous
 62
     5
440
 16777216
370
     0
100
AcDbLine
 10
236.611983132292
 20
183.5171516731328
 30
0.0
 11
236.611983132292
 21
164.4328049899503
 31
0.0
  0
LINE
  5
1132
330
B8F
100
AcDbEntity
  8
Bemaßungen(MSL)
  6
Continuous
 62
     5
440
 16777216
370
     0
100
AcDbLine
 10
235.111983132292
 20
183.5171516731328
 30
0.0
 11
235.111983132292
 21
164.4328049899503
 31
0.0
  0
LINE
  5
1133
330
B8F
100
AcDbEntity
  8
Bemaßungen(MSL)
  6
Continuous
 62
     5
440
 16777216
370
     0
100
AcDbLine
 10
243.611983132292
 20
166.4328049899503
 30
0.0
 11
250.611983132292
 21
166.4328049899503
 31
0.0
  0
LINE
  5
1134
330
B8F
100
AcDbEntity
  8
Bemaßungen(MSL)
  6
Continuous
 62
     5
440
 16777216
370
     0
100
AcDbLine
 10
228.111983132292
 20
166.4328049899503
 30
0.0
 11
204.9741932277899
 21
166.4328049899503
 31
0.0
  0
LINE
  5
1135
330
B8F
100
AcDbEntity
  8
Bemaßungen(MSL)
  6
Continuous
 62
     5
440
 16777216
370
     0
100
AcDbLine
 10
236.611983132292
 20
166.4328049899503
 30
0.0
 11
235.111983132292
 21
166.4328049899503
 31
0.0
  0
INSERT
  5
1136
330
B8F
100
AcDbEntity
  8
Bemaßungen(MSL)
  6
Continuous
 62
     5
440
 16777216
370
     0
100
AcDbBlockReference
  2
Filled-1
 10
236.611983132292
 20
166.4328049899503
 30
0.0
 41
7.0
 42
7.0
 43
7.0
 50
180.0
  0
INSERT
  5
1137
330
B8F
100
AcDbEntity
  8
Bemaßungen(MSL)
  6
Continuous
 62
     5
440
 16777216
370
     0
100
AcDbBlockReference
  2
Filled-1
 10
235.111983132292
 20
166.4328049899503
 30
0.0
 41
7.0
 42
7.0
 43
7.0
  0
MTEXT
  5
1138
330
B8F
100
AcDbEntity
  8
Bemaßungen(MSL)
  6
Continuous
 62
     7
440
 16777216
370
     5
100
AcDbMText
 10
213.043088180041
 20
172.0068159040021
 30
0.0
 40
7.0
 41
0.0
 46
0.0
 71
     5
 72
     1
  1
\A1;1.5
  7
NORMAL-MSL
 73
     1
 44
1.0
  0
POINT
  5
1139
330
B8F
100
AcDbEntity
  8
Defpoints
  6
Continuous
 62
     0
440
 16777216
100
AcDbPoint
 10
236.611983132292
 20
183.5171516731328
 30
0.0
  0
POINT
  5
113A
330
B8F
100
AcDbEntity
  8
Defpoints
  6
Continuous
 62
     0
440
 16777216
100
AcDbPoint
 10
235.111983132292
 20
183.5171516731328
 30
0.0
  0
POINT
  5
113B
330
B8F
100
AcDbEntity
  8
Defpoints
  6
Continuous
 62
     0
440
 16777216
100
AcDbPoint
 10
235.111983132292
 20
166.4328049899503
 30
0.0
  0
ENDBLK
  5
B91
330
B8F
100
AcDbEntity
  8
0
100
AcDbBlockEnd
  0
BLOCK
  5
ED8
330
ED6
100
AcDbEntity
  8
0
100
AcDbBlockBegin
  2
GENAXEH
 70
     0
 10
0.0
 20
0.0
 30
0.0
  3
GENAXEH
  1

  0
LINE
  5
ED7
330
ED6
100
AcDbEntity
  8
0
100
AcDbLine
 10
-1.0
 20
0.0
 30
0.0
 11
1.0
 21
0.0
 31
0.0
  0
ENDBLK
  5
ED9
330
ED6
100
AcDbEntity
  8
0
100
AcDbBlockEnd
  0
BLOCK
  5
EEF
330
EEE
100
AcDbEntity
  8
0
100
AcDbBlockBegin
  2
_ACMFILLED30
 70
     0
 10
0.0
 20
0.0
 30
0.0
  3
_ACMFILLED30
  1

  0
TRACE
  5
EF1
330
EEE
100
AcDbEntity
  8
0
 62
     0
100
AcDbTrace
 10
-1.0
 20
-0.26794919
 30
0.0
 11
-1.0
 21
0.26794919
 31
0.0
 12
0.0
 22
0.0
 32
0.0
 13
0.0
 23
0.0
 33
0.0
  0
ENDBLK
  5
EF0
330
EEE
100
AcDbEntity
  8
0
100
AcDbBlockEnd
  0
BLOCK
  5
101E
330
101D
100
AcDbEntity
  8
0
100
AcDbBlockBegin
  2
*D21
 70
     1
 10
0.0
 20
0.0
 30
0.0
  3
*D21
  1

  0
LINE
  5
102A
330
101D
100
AcDbEntity
  8
Bemaßungen(MSL)
  6
Continuous
 62
     5
440
 16777216
370
     0
100
AcDbLine
 10
158.037709043808
 20
525.8617650460848
 30
0.0
 11
154.0030052939297
 21
520.1415232985083
 31
0.0
  0
LINE
  5
102B
330
101D
100
AcDbEntity
  8
Bemaßungen(MSL)
  6
Continuous
 62
     5
440
 16777216
370
     0
100
AcDbLine
 10
169.2772409184691
 20
541.7967242000479
 30
0.0
 11
187.9596509665235
 21
568.2838986067056
 31
0.0
  0
LINE
  5
102C
330
101D
100
AcDbEntity
  8
Bemaßungen(MSL)
  6
Continuous
 62
     5
440
 16777216
370
     0
100
AcDbLine
 10
162.0724127936864
 20
531.5820067936613
 30
0.0
 11
165.2425371685906
 21
536.0764824524713
 31
0.0
  0
INSERT
  5
102D
330
101D
100
AcDbEntity
  8
Bemaßungen(MSL)
  6
Continuous
 62
     5
440
 16777216
370
     0
100
AcDbBlockReference
  2
Filled-1
 10
162.0724127936864
 20
531.5820067936613
 30
0.0
 41
7.0
 42
7.0
 43
7.0
 50
54.80322996035359
  0
INSERT
  5
102E
330
101D
100
AcDbEntity
  8
Bemaßungen(MSL)
  6
Continuous
 62
     5
440
 16777216
370
     0
100
AcDbBlockReference
  2
Filled-1
 10
165.2425371685906
 20
536.0764824524713
 30
0.0
 41
7.0
 42
7.0
 43
7.0
 50
234.8032299603536
  0
MTEXT
  5
102F
102
{ACAD_XDICTIONARY
360
10CF
102
}
330
101D
100
AcDbEntity
  8
Bemaßungen(MSL)
  6
Continuous
 62
     7
440
 16777216
370
     5
100
AcDbMText
 10
176.2091470614294
 20
561.6347732623615
 30
0.0
 40
7.0
 41
0.0
 46
0.0
 71
     5
 72
     1
  1
\A1;∅5.5
  7
NORMAL-MSL
 11
0.5763862499826266
 21
0.8171773925109315
 31
0.0
 73
     1
 44
1.0
1001
ACAD
1000
MTEXTBEGIN
1070
    73
1070
     1
1070
    44
1040
1.0
1070
    74
1070
     0
1000
MTEXTEND
  0
POINT
  5
1030
330
101D
100
AcDbEntity
  8
Defpoints
  6
Continuous
 62
     0
440
 16777216
100
AcDbPoint
 10
165.2425371685906
 20
536.0764824524713
 30
0.0
  0
POINT
  5
1031
330
101D
100
AcDbEntity
  8
Defpoints
  6
Continuous
 62
     0
440
 16777216
100
AcDbPoint
 10
162.0724127936864
 20
531.5820067936613
 30
0.0
  0
ENDBLK
  5
101F
330
101D
100
AcDbEntity
  8
0
100
AcDbBlockEnd
  0
ENDSEC
  0
SECTION
  2
ENTITIES
  0
ARC
  5
1E5
330
70
100
AcDbEntity
  8
Sichtbare Kanten(MSL)
100
AcDbCircle
 10
170.1574749811384
 20
403.0563503681984
 30
0.0
 40
2.000000000000011
100
AcDbArc
 50
320.4823472028301
 51
0.0
  0
ARC
  5
1E6
330
70
100
AcDbEntity
  8
Sichtbare Kanten(MSL)
100
AcDbCircle
 10
170.1574749811384
 20
398.6021388779347
 30
0.0
 40
2.000000000000023
100
AcDbArc
 50
0.0
 51
39.5176527971699
  0
ARC
  5
1E7
330
70
100
AcDbEntity
  8
Sichtbare Kanten(MSL)
100
AcDbCircle
 10
157.1574749811385
 20
403.0563503681984
 30
0.0
 40
2.000000000000004
100
AcDbArc
 50
180.0
 51
219.5176527971696
  0
ARC
  5
1E8
330
70
100
AcDbEntity
  8
Sichtbare Kanten(MSL)
100
AcDbCircle
 10
157.1574749811385
 20
398.6021388779347
 30
0.0
 40
2.000000000000019
100
AcDbArc
 50
140.4823472028304
 51
180.0
  0
ARC
  5
1E9
330
70
100
AcDbEntity
  8
Sichtbare Kanten(MSL)
100
AcDbCircle
 10
157.1574749811387
 20
331.2900459280008
 30
0.0
 40
2.000000000000003
100
AcDbArc
 50
140.4823472028275
 51
180.0
  0
ARC
  5
1EA
330
70
100
AcDbEntity
  8
Sichtbare Kanten(MSL)
100
AcDbCircle
 10
157.1574749811386
 20
335.7442574182648
 30
0.0
 40
1.999999999999995
100
AcDbArc
 50
180.0
 51
219.5176527971725
  0
ARC
  5
1EB
330
70
100
AcDbEntity
  8
Sichtbare Kanten(MSL)
100
AcDbCircle
 10
170.1574749811385
 20
335.7442574182649
 30
0.0
 40
2.000000000000031
100
AcDbArc
 50
320.4823472028263
 51
0.0
  0
ARC
  5
1EC
330
70
100
AcDbEntity
  8
Sichtbare Kanten(MSL)
100
AcDbCircle
 10
170.1574749811386
 20
331.2900459280007
 30
0.0
 40
2.000000000000044
100
AcDbArc
 50
0.0
 51
39.51765279717371
  0
ARC
  5
1ED
330
70
100
AcDbEntity
  8
Sichtbare Kanten(MSL)
100
AcDbCircle
 10
157.1574749811386
 20
285.7442574182647
 30
0.0
 40
1.999999999999893
100
AcDbArc
 50
180.0
 51
219.5176527971736
  0
ARC
  5
1EE
330
70
100
AcDbEntity
  8
Sichtbare Kanten(MSL)
100
AcDbCircle
 10
157.1574749811387
 20
281.2900459280007
 30
0.0
 40
2.000000000000063
100
AcDbArc
 50
140.4823472028277
 51
180.0
  0
ARC
  5
1EF
330
70
100
AcDbEntity
  8
Sichtbare Kanten(MSL)
100
AcDbCircle
 10
170.1574749811386
 20
285.7442574182649
 30
0.0
 40
2.000000000000039
100
AcDbArc
 50
320.4823472028248
 51
0.0
  0
ARC
  5
1F0
330
70
100
AcDbEntity
  8
Sichtbare Kanten(MSL)
100
AcDbCircle
 10
170.1574749811387
 20
281.2900459280006
 30
0.0
 40
2.000000000000026
100
AcDbArc
 50
0.0
 51
39.51765279717579
  0
ARC
  5
1F1
330
70
100
AcDbEntity
  8
Sichtbare Kanten(MSL)
100
AcDbCircle
 10
157.1574749811388
 20
231.2900459280007
 30
0.0
 40
2.00000000000006
100
AcDbArc
 50
140.4823472028277
 51
180.0
  0
ARC
  5
1F2
330
70
100
AcDbEntity
  8
Sichtbare Kanten(MSL)
100
AcDbCircle
 10
157.1574749811387
 20
235.7442574182648
 30
0.0
 40
1.99999999999998
100
AcDbArc
 50
180.0
 51
219.5176527971742
  0
ARC
  5
1F3
330
70
100
AcDbEntity
  8
Sichtbare Kanten(MSL)
100
AcDbCircle
 10
170.1574749811387
 20
231.2900459280005
 30
0.0
 40
2.000000000000015
100
AcDbArc
 50
0.0
 51
39.51765279717721
  0
ARC
  5
1F4
330
70
100
AcDbEntity
  8
Sichtbare Kanten(MSL)
100
AcDbCircle
 10
170.1574749811387
 20
235.744257418265
 30
0.0
 40
2.000000000000003
100
AcDbArc
 50
320.4823472028222
 51
0.0
  0
ARC
  5
1F5
330
70
100
AcDbEntity
  8
Sichtbare Kanten(MSL)
100
AcDbCircle
 10
157.1574749811383
 20
453.0563503681983
 30
0.0
 40
1.99999999999988
100
AcDbArc
 50
180.0
 51
219.51765279717
  0
ARC
  5
1F6
330
70
100
AcDbEntity
  8
Sichtbare Kanten(MSL)
100
AcDbCircle
 10
157.1574749811385
 20
448.6021388779346
 30
0.0
 40
2.000000000000003
100
AcDbArc
 50
140.4823472028307
 51
180.0
  0
ARC
  5
1F7
330
70
100
AcDbEntity
  8
Sichtbare Kanten(MSL)
100
AcDbCircle
 10
170.1574749811383
 20
448.6021388779346
 30
0.0
 40
2.000000000000035
100
AcDbArc
 50
0.0
 51
39.51765279716862
  0
ARC
  5
1F8
330
70
100
AcDbEntity
  8
Sichtbare Kanten(MSL)
100
AcDbCircle
 10
170.1574749811384
 20
453.0563503681984
 30
0.0
 40
2.000000000000002
100
AcDbArc
 50
320.4823472028301
 51
0.0
  0
LINE
  5
1F9
330
70
100
AcDbEntity
  8
Sichtbare Kanten(MSL)
100
AcDbLine
 10
172.1574749811391
 20
470.3292446230665
 30
0.0
 11
172.1574749811384
 21
453.0563503681981
 31
0.0
  0
ARC
  5
1FA
330
70
100
AcDbEntity
  8
Sichtbare Kanten(MSL)
100
AcDbCircle
 10
171.657474981139
 20
470.3292446230665
 30
0.0
 40
0.5000000000000249
100
AcDbArc
 50
0.0
 51
90.0
  0
LINE
  5
1FB
330
70
100
AcDbEntity
  8
Sichtbare Kanten(MSL)
100
AcDbLine
 10
155.1574749811385
 20
403.0563503681983
 30
0.0
 11
155.1574749811385
 21
448.6021388779346
 31
0.0
  0
ARC
  5
1FC
330
70
100
AcDbEntity
  8
Sichtbare Kanten(MSL)
100
AcDbCircle
 10
171.6574749811386
 20
214.0171516731328
 30
0.0
 40
0.5000000000000249
100
AcDbArc
 50
270.0
 51
0.0
  0
LINE
  5
1FD
330
70
100
AcDbEntity
  8
Sichtbare Kanten(MSL)
100
AcDbLine
 10
172.1574749811386
 20
281.2900459280006
 30
0.0
 11
172.1574749811386
 21
235.744257418265
 31
0.0
  0
ARC
  5
1FE
330
70
100
AcDbEntity
  8
Sichtbare Kanten(MSL)
100
AcDbCircle
 10
155.6574749811387
 20
214.0171516731328
 30
0.0
 40
0.5000000000000428
100
AcDbArc
 50
180.0
 51
269.999999999998
  0
ARC
  5
1FF
330
70
100
AcDbEntity
  8
Sichtbare Kanten(MSL)
100
AcDbCircle
 10
155.6574749811382
 20
470.3292446230665
 30
0.0
 40
0.5000000000000038
100
AcDbArc
 50
90.0
 51
180.0
  0
LINE
  5
200
330
70
100
AcDbEntity
  8
Sichtbare Kanten(MSL)
100
AcDbLine
 10
155.1574749811388
 20
214.0171516731328
 30
0.0
 11
155.1574749811386
 21
231.2900459280007
 31
0.0
  0
ARC
  5
201
330
70
100
AcDbEntity
  8
Sichtbare Kanten(MSL)
100
AcDbCircle
 10
172.8574749811386
 20
400.8292446230663
 30
0.0
 40
1.50000000000001
100
AcDbArc
 50
140.4823472028301
 51
219.517652797172
  0
LINE
  5
202
330
70
100
AcDbEntity
  8
Sichtbare Kanten(MSL)
100
AcDbLine
 10
172.1574749811386
 20
331.2900459280007
 30
0.0
 11
172.1574749811386
 21
285.7442574182649
 31
0.0
  0
LINE
  5
203
330
70
100
AcDbEntity
  8
Sichtbare Kanten(MSL)
100
AcDbLine
 10
155.1574749811386
 20
235.7442574182648
 30
0.0
 11
155.1574749811386
 21
281.2900459280007
 31
0.0
  0
ARC
  5
204
330
70
100
AcDbEntity
  8
Sichtbare Kanten(MSL)
100
AcDbCircle
 10
154.4574749811384
 20
400.8292446230663
 30
0.0
 40
1.5
100
AcDbArc
 50
320.4823472028301
 51
39.5176527971695
  0
ARC
  5
205
330
70
100
AcDbEntity
  8
Sichtbare Kanten(MSL)
100
AcDbCircle
 10
154.4574749811386
 20
333.5171516731327
 30
0.0
 40
1.500000000000014
100
AcDbArc
 50
320.4823472028276
 51
39.51765279716989
  0
LINE
  5
206
330
70
100
AcDbEntity
  8
Sichtbare Kanten(MSL)
100
AcDbLine
 10
172.1574749811386
 20
350.1218899930397
 30
0.0
 11
172.1574749811386
 21
335.7442574182648
 31
0.0
  0
ARC
  5
207
330
70
100
AcDbEntity
  8
Sichtbare Kanten(MSL)
100
AcDbCircle
 10
172.8574749811386
 20
333.5171516731327
 30
0.0
 40
1.499999999999975
100
AcDbArc
 50
140.4823472028263
 51
219.5176527971767
  0
LINE
  5
208
330
70
100
AcDbEntity
  8
Sichtbare Kanten(MSL)
100
AcDbLine
 10
155.1574749811386
 20
285.7442574182648
 30
0.0
 11
155.1574749811386
 21
331.2900459280008
 31
0.0
  0
ARC
  5
209
330
70
100
AcDbEntity
  8
Sichtbare Kanten(MSL)
100
AcDbCircle
 10
154.4574749811387
 20
283.5171516731328
 30
0.0
 40
1.5
100
AcDbArc
 50
320.4823472028267
 51
39.51765279717326
  0
ARC
  5
20A
330
70
100
AcDbEntity
  8
Sichtbare Kanten(MSL)
100
AcDbCircle
 10
172.8574749811386
 20
283.5171516731328
 30
0.0
 40
1.500000000000023
100
AcDbArc
 50
140.4823472028261
 51
219.5176527971748
  0
LINE
  5
20B
330
70
100
AcDbEntity
  8
Sichtbare Kanten(MSL)
100
AcDbLine
 10
155.1574749811386
 20
335.7442574182647
 30
0.0
 11
155.1574749811386
 21
350.1218899930397
 31
0.0
  0
ARC
  5
20C
330
70
100
AcDbEntity
  8
Sichtbare Kanten(MSL)
100
AcDbCircle
 10
154.4574749811387
 20
233.5171516731328
 30
0.0
 40
1.500000000000018
100
AcDbArc
 50
320.4823472028272
 51
39.51765279717437
  0
ARC
  5
20D
330
70
100
AcDbEntity
  8
Sichtbare Kanten(MSL)
100
AcDbCircle
 10
172.8574749811386
 20
233.5171516731328
 30
0.0
 40
1.499999999999993
100
AcDbArc
 50
140.4823472028233
 51
219.5176527971767
  0
ARC
  5
20E
330
70
100
AcDbEntity
  8
Sichtbare Kanten(MSL)
100
AcDbCircle
 10
154.4574749811383
 20
450.8292446230663
 30
0.0
 40
1.499999999999993
100
AcDbArc
 50
320.4823472028301
 51
39.51765279716781
  0
ARC
  5
20F
330
70
100
AcDbEntity
  8
Sichtbare Kanten(MSL)
100
AcDbCircle
 10
172.8574749811385
 20
450.8292446230663
 30
0.0
 40
1.500000000000004
100
AcDbArc
 50
140.4823472028301
 51
219.5176527971711
  0
LINE
  5
210
330
70
100
AcDbEntity
  8
Sichtbare Kanten(MSL)
100
AcDbLine
 10
172.1574749811384
 20
398.6021388779347
 30
0.0
 11
172.1574749811385
 21
356.1218902314583
 31
0.0
  0
LINE
  5
211
330
70
100
AcDbEntity
  8
Sichtbare Kanten(MSL)
100
AcDbLine
 10
155.1574749811385
 20
356.1218902314583
 30
0.0
 11
155.1574749811385
 21
398.6021388779347
 31
0.0
  0
LINE
  5
212
330
70
100
AcDbEntity
  8
Sichtbare Kanten(MSL)
100
AcDbLine
 10
155.6574749811382
 20
470.8292446230665
 30
0.0
 11
171.6574749811391
 21
470.8292446230665
 31
0.0
  0
LINE
  5
213
330
70
100
AcDbEntity
  8
Sichtbare Kanten(MSL)
100
AcDbLine
 10
172.1574749811386
 20
231.2900459280005
 30
0.0
 11
172.1574749811386
 21
214.0171516731328
 31
0.0
  0
LINE
  5
214
330
70
100
AcDbEntity
  8
Sichtbare Kanten(MSL)
100
AcDbLine
 10
172.1574749811384
 20
448.6021388779346
 30
0.0
 11
172.1574749811384
 21
403.0563503681984
 31
0.0
  0
LINE
  5
215
330
70
100
AcDbEntity
  8
Sichtbare Kanten(MSL)
100
AcDbLine
 10
171.6574749811386
 20
213.5171516731328
 30
0.0
 11
155.6574749811387
 21
213.5171516731328
 31
0.0
  0
LINE
  5
216
330
70
100
AcDbEntity
  8
Sichtbare Kanten(MSL)
100
AcDbLine
 10
155.1574749811384
 20
453.0563503681983
 30
0.0
 11
155.1574749811382
 21
470.3292446230665
 31
0.0
  0
CIRCLE
  5
217
330
70
100
AcDbEntity
  8
Sichtbare Kanten(MSL)
100
AcDbCircle
 10
163.6574749811386
 20
195.5171516731327
 30
0.0
 40
2.75
  0
CIRCLE
  5
218
330
70
100
AcDbEntity
  8
Sichtbare Kanten(MSL)
100
AcDbCircle
 10
163.6574749811386
 20
502.8292446230664
 30
0.0
 40
2.75
  0
CIRCLE
  5
219
330
70
100
AcDbEntity
  8
Sichtbare Kanten(MSL)
100
AcDbCircle
 10
163.6574749811386
 20
533.8292446230664
 30
0.0
 40
2.75
  0
LINE
  5
21A
330
70
100
AcDbEntity
  8
Sichtbare Kanten(MSL)
100
AcDbLine
 10
151.6574749811387
 20
545.8292446230665
 30
0.0
 11
175.6574749811387
 21
545.8292446230665
 31
0.0
  0
LINE
  5
21B
330
70
100
AcDbEntity
  8
Sichtbare Kanten(MSL)
100
AcDbLine
 10
175.6574749811387
 20
545.8292446230665
 30
0.0
 11
175.6574749811387
 21
356.1218902314583
 31
0.0
  0
LINE
  5
21C
330
70
100
AcDbEntity
  8
Sichtbare Kanten(MSL)
100
AcDbLine
 10
175.6574749811387
 20
183.5171516731327
 30
0.0
 11
151.6574749811387
 21
183.5171516731327
 31
0.0
  0
LINE
  5
21D
330
70
100
AcDbEntity
  8
Sichtbare Kanten(MSL)
100
AcDbLine
 10
151.6574749811387
 20
183.5171516731327
 30
0.0
 11
151.6574749811387
 21
350.1218899930397
 31
0.0
  0
LINE
  5
21E
330
70
100
AcDbEntity
  8
Sichtbare Kanten(MSL)
100
AcDbLine
 10
175.6574749811387
 20
350.1218899930397
 30
0.0
 11
175.6574749811387
 21
183.5171516731327
 31
0.0
  0
LINE
  5
21F
330
70
100
AcDbEntity
  8
Sichtbare Kanten(MSL)
100
AcDbLine
 10
151.6574749811387
 20
356.1218902314585
 30
0.0
 11
151.6574749811387
 21
545.8292446230665
 31
0.0
  0
POLYLINE
  5
220
330
70
100
AcDbEntity
  8
Bruchlinien(MSL)
100
AcDb2dPolyline
 66
     1
 10
0.0
 20
0.0
 30
0.0
 70
   128
  0
VERTEX
  5
221
330
220
100
AcDbEntity
  8
Bruchlinien(MSL)
100
AcDbVertex
100
AcDb2dVertex
 10
145.307474599669
 20
350.1218899930397
 30
0.0
  0
VERTEX
  5
222
330
220
100
AcDbEntity
  8
Bruchlinien(MSL)
100
AcDbVertex
100
AcDb2dVertex
 10
162.3895257874227
 20
350.1218899930397
 30
0.0
  0
VERTEX
  5
224
330
220
100
AcDbEntity
  8
Bruchlinien(MSL)
100
AcDbVertex
100
AcDb2dVertex
 10
162.7914495928979
 20
351.6218897546212
 30
0.0
  0
VERTEX
  5
225
330
220
100
AcDbEntity
  8
Bruchlinien(MSL)
100
AcDbVertex
100
AcDb2dVertex
 10
164.5235003693795
 20
348.6218902314583
 30
0.0
  0
VERTEX
  5
226
330
220
100
AcDbEntity
  8
Bruchlinien(MSL)
100
AcDbVertex
100
AcDb2dVertex
 10
164.9254241748548
 20
350.1218899930397
 30
0.0
  0
VERTEX
  5
227
330
220
100
AcDbEntity
  8
Bruchlinien(MSL)
100
AcDbVertex
100
AcDb2dVertex
 10
182.0074753626084
 20
350.1218899930397
 30
0.0
  0
SEQEND
  5
223
330
220
100
AcDbEntity
  8
Bruchlinien(MSL)
  0
POLYLINE
  5
228
330
70
100
AcDbEntity
  8
Bruchlinien(MSL)
100
AcDb2dPolyline
 66
     1
 10
0.0
 20
0.0
 30
0.0
 70
   128
  0
VERTEX
  5
229
330
228
100
AcDbEntity
  8
Bruchlinien(MSL)
100
AcDbVertex
100
AcDb2dVertex
 10
145.307474599669
 20
356.1218902314583
 30
0.0
  0
VERTEX
  5
22A
330
228
100
AcDbEntity
  8
Bruchlinien(MSL)
100
AcDbVertex
100
AcDb2dVertex
 10
162.3895257874227
 20
356.1218902314583
 30
0.0
  0
VERTEX
  5
22C
330
228
100
AcDbEntity
  8
Bruchlinien(MSL)
100
AcDbVertex
100
AcDb2dVertex
 10
162.7914495928979
 20
357.6218899930398
 30
0.0
  0
VERTEX
  5
22D
330
228
100
AcDbEntity
  8
Bruchlinien(MSL)
100
AcDbVertex
100
AcDb2dVertex
 10
164.5235003693795
 20
354.621890469877
 30
0.0
  0
VERTEX
  5
22E
330
228
100
AcDbEntity
  8
Bruchlinien(MSL)
100
AcDbVertex
100
AcDb2dVertex
 10
164.9254241748548
 20
356.1218902314583
 30
0.0
  0
VERTEX
  5
22F
330
228
100
AcDbEntity
  8
Bruchlinien(MSL)
100
AcDbVertex
100
AcDb2dVertex
 10
182.0074753626084
 20
356.1218902314583
 30
0.0
  0
SEQEND
  5
22B
330
228
100
AcDbEntity
  8
Bruchlinien(MSL)
  0
LINE
  5
230
330
70
100
AcDbEntity
  8
Verdeckte Kanten(MSL)
100
AcDbLine
 10
236.6119831322932
 20
470.8292446230665
 30
0.0
 11
235.1119831322932
 21
470.8292446230665
 31
0.0
  0
LINE
  5
231
330
70
100
AcDbEntity
  8
Verdeckte Kanten(MSL)
100
AcDbLine
 10
236.6119831322932
 20
213.5171516731328
 30
0.0
 11
235.1119831322932
 21
213.5171516731328
 31
0.0
  0
LINE
  5
232
330
70
100
AcDbEntity
  8
Sichtbare Kanten(MSL)
100
AcDbLine
 10
235.111983132292
 20
545.8292446230665
 30
0.0
 11
236.611983132292
 21
545.8292446230665
 31
0.0
  0
LINE
  5
233
330
70
100
AcDbEntity
  8
Sichtbare Kanten(MSL)
100
AcDbLine
 10
235.111983132292
 20
183.5171516731327
 30
0.0
 11
236.611983132292
 21
183.5171516731327
 31
0.0
  0
LINE
  5
234
330
70
100
AcDbEntity
  8
Sichtbare Kanten(MSL)
100
AcDbLine
 10
236.611983132292
 20
183.5171516731327
 30
0.0
 11
236.611983132292
 21
350.1218899930397
 31
0.0
  0
LINE
  5
235
330
70
100
AcDbEntity
  8
Sichtbare Kanten(MSL)
100
AcDbLine
 10
235.111983132292
 20
545.8292446230665
 30
0.0
 11
235.111983132292
 21
356.1218902314583
 31
0.0
  0
LINE
  5
236
330
70
100
AcDbEntity
  8
Sichtbare Kanten(MSL)
100
AcDbLine
 10
236.611983132292
 20
356.1218902314585
 30
0.0
 11
236.611983132292
 21
545.8292446230665
 31
0.0
  0
LINE
  5
237
330
70
100
AcDbEntity
  8
Sichtbare Kanten(MSL)
100
AcDbLine
 10
235.111983132292
 20
350.1218899930397
 30
0.0
 11
235.111983132292
 21
183.5171516731327
 31
0.0
  0
LINE
  5
238
330
70
100
AcDbEntity
  8
Verdeckte Kanten(MSL)
100
AcDbLine
 10
235.1119831322955
 20
536.5792446230662
 30
0.0
 11
236.6119831322955
 21
536.5792446230662
 31
0.0
  0
LINE
  5
239
330
70
100
AcDbEntity
  8
Verdeckte Kanten(MSL)
100
AcDbLine
 10
235.1119831322955
 20
531.0792446230664
 30
0.0
 11
236.6119831322955
 21
531.0792446230664
 31
0.0
  0
LINE
  5
23A
330
70
100
AcDbEntity
  8
Verdeckte Kanten(MSL)
100
AcDbLine
 10
235.1119831322955
 20
505.5792446230664
 30
0.0
 11
236.6119831322955
 21
505.5792446230664
 31
0.0
  0
LINE
  5
23B
330
70
100
AcDbEntity
  8
Verdeckte Kanten(MSL)
100
AcDbLine
 10
235.1119831322955
 20
500.0792446230664
 30
0.0
 11
236.6119831322955
 21
500.0792446230664
 31
0.0
  0
LINE
  5
23C
330
70
100
AcDbEntity
  8
Verdeckte Kanten(MSL)
100
AcDbLine
 10
235.1119831322955
 20
198.2671516731327
 30
0.0
 11
236.6119831322955
 21
198.2671516731327
 31
0.0
  0
LINE
  5
23D
330
70
100
AcDbEntity
  8
Verdeckte Kanten(MSL)
100
AcDbLine
 10
235.1119831322955
 20
192.7671516731328
 30
0.0
 11
236.6119831322955
 21
192.7671516731328
 31
0.0
  0
POLYLINE
  5
23E
330
70
100
AcDbEntity
  8
Bruchlinien(MSL)
100
AcDb2dPolyline
 66
     1
 10
0.0
 20
0.0
 30
0.0
 70
   128
  0
VERTEX
  5
23F
330
23E
100
AcDbEntity
  8
Bruchlinien(MSL)
100
AcDbVertex
100
AcDb2dVertex
 10
228.7619828700352
 20
350.1218899930397
 30
0.0
  0
VERTEX
  5
240
330
23E
100
AcDbEntity
  8
Bruchlinien(MSL)
100
AcDbVertex
100
AcDb2dVertex
 10
235.3440339385795
 20
350.1218899930397
 30
0.0
  0
VERTEX
  5
242
330
23E
100
AcDbEntity
  8
Bruchlinien(MSL)
100
AcDbVertex
100
AcDb2dVertex
 10
235.7459577440548
 20
351.6218897546212
 30
0.0
  0
VERTEX
  5
243
330
23E
100
AcDbEntity
  8
Bruchlinien(MSL)
100
AcDbVertex
100
AcDb2dVertex
 10
235.9780085205364
 20
348.6218902314583
 30
0.0
  0
VERTEX
  5
244
330
23E
100
AcDbEntity
  8
Bruchlinien(MSL)
100
AcDbVertex
100
AcDb2dVertex
 10
236.3799323260116
 20
350.1218899930397
 30
0.0
  0
VERTEX
  5
245
330
23E
100
AcDbEntity
  8
Bruchlinien(MSL)
100
AcDbVertex
100
AcDb2dVertex
 10
242.961983394556
 20
350.1218899930397
 30
0.0
  0
SEQEND
  5
241
330
23E
100
AcDbEntity
  8
Bruchlinien(MSL)
  0
POLYLINE
  5
246
330
70
100
AcDbEntity
  8
Bruchlinien(MSL)
100
AcDb2dPolyline
 66
     1
 10
0.0
 20
0.0
 30
0.0
 70
   128
  0
VERTEX
  5
247
330
246
100
AcDbEntity
  8
Bruchlinien(MSL)
100
AcDbVertex
100
AcDb2dVertex
 10
228.7619828700352
 20
356.1218902314583
 30
0.0
  0
VERTEX
  5
248
330
246
100
AcDbEntity
  8
Bruchlinien(MSL)
100
AcDbVertex
100
AcDb2dVertex
 10
235.3440339385795
 20
356.1218902314583
 30
0.0
  0
VERTEX
  5
24A
330
246
100
AcDbEntity
  8
Bruchlinien(MSL)
100
AcDbVertex
100
AcDb2dVertex
 10
235.7459577440548
 20
357.6218899930398
 30
0.0
  0
VERTEX
  5
24B
330
246
100
AcDbEntity
  8
Bruchlinien(MSL)
100
AcDbVertex
100
AcDb2dVertex
 10
235.9780085205364
 20
354.621890469877
 30
0.0
  0
VERTEX
  5
24C
330
246
100
AcDbEntity
  8
Bruchlinien(MSL)
100
AcDbVertex
100
AcDb2dVertex
 10
236.3799323260116
 20
356.1218902314583
 30
0.0
  0
VERTEX
  5
24D
330
246
100
AcDbEntity
  8
Bruchlinien(MSL)
100
AcDbVertex
100
AcDb2dVertex
 10
242.961983394556
 20
356.1218902314583
 30
0.0
  0
SEQEND
  5
249
330
246
100
AcDbEntity
  8
Bruchlinien(MSL)
  0
DIMENSION
  5
24E
330
70
100
AcDbEntity
  8
Bemaßungen(MSL)
  6
Continuous
 62
     5
370
     5
100
AcDbDimension
280
     0
  2
*D8
 10
119.5008268953002
 20
545.8292446230664
 30
0.0
 11
119.5008268953001
 21
379.1010532629447
 31
0.0
 70
   160
  1
445
 71
     5
 42
444.9999999999998
 73
     0
 74
     0
 75
     0
  3
NORMAL-MSL
100
AcDbAlignedDimension
 13
151.6574749811387
 23
183.5171516731328
 33
0.0
 14
151.6574749811387
 24
545.8292446230664
 34
0.0
 50
90.0
100
AcDbRotatedDimension
1001
ACAD
1000
DSTYLE
1002
{
1070
   172
1070
     0
1070
   289
1070
     1
1070
   271
1070
     2
1070
   144
1040
1.228222873757329
1070
   272
1070
     2
1070
    48
1040
0.0
1070
    47
1040
0.0
1002
}
  0
DIMENSION
  5
334
330
70
100
AcDbEntity
  8
Bemaßungen(MSL)
  6
Continuous
 62
     5
370
     5
100
AcDbDimension
280
     0
  2
*D9
 10
137.6574749811388
 20
533.8292446230664
 30
0.0
 11
137.6574749811387
 21
539.8292446230664
 31
0.0
 70
   160
  1
<>
 71
     5
 42
12.0
 73
     0
 74
     0
 75
     0
  3
NORMAL-MSL
100
AcDbAlignedDimension
 13
151.6574749811387
 23
545.8292446230664
 33
0.0
 14
163.6574749811386
 24
533.8292446230664
 34
0.0
 50
270.0
100
AcDbRotatedDimension
1001
ACAD
1000
DSTYLE
1002
{
1070
   172
1070
     1
1070
   289
1070
     1
1070
   271
1070
     2
1070
   272
1070
     2
1070
    48
1040
0.0
1070
    47
1040
0.0
1002
}
  0
DIMENSION
  5
434
330
70
100
AcDbEntity
  8
Bemaßungen(MSL)
  6
Continuous
 62
     5
370
     5
100
AcDbDimension
280
     0
  2
*D10
 10
137.6574749811388
 20
502.8292446230664
 30
0.0
 11
137.6574749811387
 21
518.3292446230665
 31
0.0
 70
   160
  1
<>
 71
     5
 42
30.99999999999989
 73
     0
 74
     0
 75
     0
  3
NORMAL-MSL
100
AcDbAlignedDimension
 13
163.6574749811386
 23
533.8292446230664
 33
0.0
 14
163.6574749811386
 24
502.8292446230664
 34
0.0
 50
90.0
100
AcDbRotatedDimension
1001
ACAD
1000
DSTYLE
1002
{
1070
   172
1070
     0
1070
   289
1070
     1
1070
   271
1070
     2
1070
   272
1070
     2
1070
    48
1040
0.0
1070
    47
1040
0.0
1002
}
  0
DIMENSION
  5
516
330
70
100
AcDbEntity
  8
Bemaßungen(MSL)
  6
Continuous
 62
     5
370
     5
100
AcDbDimension
280
     0
  2
*D11
 10
137.6574749811387
 20
195.5171516731328
 30
0.0
 11
137.6574749811387
 21
334.7453430332546
 31
0.0
 70
   160
  1
390
 71
     5
 42
390.0000000000002
 73
     0
 74
     0
 75
     0
  3
NORMAL-MSL
100
AcDbAlignedDimension
 13
163.6574749811386
 23
502.8292446230664
 33
0.0
 14
163.6574749811386
 24
195.5171516731328
 34
0.0
 50
90.0
100
AcDbRotatedDimension
1001
ACAD
1000
DSTYLE
1002
{
1070
   172
1070
     0
1070
   289
1070
     1
1070
   271
1070
     2
1070
   144
1040
1.269068184907182
1070
   272
1070
     2
1070
    48
1040
0.0
1070
    47
1040
0.0
1002
}
  0
DIMENSION
  5
601
330
70
100
AcDbEntity
  8
Bemaßungen(MSL)
  6
Continuous
 62
     5
370
     5
100
AcDbDimension
280
     0
  2
*D12
 10
137.6574749811387
 20
183.5171516731328
 30
0.0
 11
137.6574749811386
 21
189.5171516731328
 31
0.0
 70
   160
  1
<>
 71
     5
 42
12.0
 73
     0
 74
     0
 75
     0
  3
NORMAL-MSL
100
AcDbAlignedDimension
 13
163.6574749811386
 23
195.5171516731328
 33
0.0
 14
151.6574749811387
 24
183.5171516731328
 34
0.0
 50
90.0
100
AcDbRotatedDimension
1001
ACAD
1000
DSTYLE
1002
{
1070
   172
1070
     1
1070
   289
1070
     1
1070
   271
1070
     2
1070
   272
1070
     2
1070
    48
1040
0.0
1070
    47
1040
0.0
1002
}
  0
DIMENSION
  5
701
330
70
100
AcDbEntity
  8
Bemaßungen(MSL)
  6
Continuous
 62
     5
370
     5
100
AcDbDimension
280
     0
  2
*D13
 10
175.6574749811387
 20
166.4328049899503
 30
0.0
 11
163.6574749811386
 21
166.4328049899503
 31
0.0
 70
   160
  1
<>
 71
     5
 42
24.00000000000003
 73
     0
 74
     0
 75
     0
  3
NORMAL-MSL
100
AcDbAlignedDimension
 13
151.6574749811387
 23
183.5171516731328
 33
0.0
 14
175.6574749811387
 24
183.5171516731328
 34
0.0
100
AcDbRotatedDimension
1001
ACAD
1000
DSTYLE
1002
{
1070
   172
1070
     0
1070
   289
1070
     1
1070
   271
1070
     2
1070
   272
1070
     2
1070
    48
1040
0.0
1070
    47
1040
0.0
1002
}
  0
LINE
  5
7E3
330
70
100
AcDbEntity
  8
Mittellinie(MSL)
  6
Continuous
100
AcDbLine
 10
163.6574749811386
 20
178.5171516731328
 30
0.0
 11
163.6574749811386
 21
550.8292446230663
 31
0.0
  0
LINE
  5
7E4
330
70
100
AcDbEntity
  8
Mittelpunktmarkierung(MSL)
  6
Continuous
100
AcDbLine
 10
171.4074749811387
 20
533.8292446230664
 30
0.0
 11
155.9074749811387
 21
533.8292446230664
 31
0.0
  0
LINE
  5
7E5
330
70
100
AcDbEntity
  8
Mittelpunktmarkierung(MSL)
  6
Continuous
100
AcDbLine
 10
163.6574749811386
 20
541.5792446230664
 30
0.0
 11
163.6574749811386
 21
526.0792446230665
 31
0.0
  0
LINE
  5
7E6
330
70
100
AcDbEntity
  8
Mittelpunktmarkierung(MSL)
  6
Continuous
100
AcDbLine
 10
171.4074749811387
 20
502.8292446230664
 30
0.0
 11
155.9074749811387
 21
502.8292446230664
 31
0.0
  0
LINE
  5
7E7
330
70
100
AcDbEntity
  8
Mittelpunktmarkierung(MSL)
  6
Continuous
100
AcDbLine
 10
163.6574749811386
 20
510.5792446230664
 30
0.0
 11
163.6574749811386
 21
495.0792446230662
 31
0.0
  0
LINE
  5
7E8
330
70
100
AcDbEntity
  8
Mittelpunktmarkierung(MSL)
  6
Continuous
100
AcDbLine
 10
171.4074749811387
 20
195.5171516731328
 30
0.0
 11
155.9074749811387
 21
195.5171516731328
 31
0.0
  0
LINE
  5
7E9
330
70
100
AcDbEntity
  8
Mittelpunktmarkierung(MSL)
  6
Continuous
100
AcDbLine
 10
163.6574749811386
 20
203.2671516731328
 30
0.0
 11
163.6574749811386
 21
187.7671516731328
 31
0.0
  0
DIMENSION
  5
7EA
330
70
100
AcDbEntity
  8
Bemaßungen(MSL)
  6
Continuous
 62
     5
370
     5
100
AcDbDimension
280
     0
  2
*D14
 10
155.1574749811386
 20
303.5801075589434
 30
0.0
 11
163.6574749811386
 21
303.5801075589434
 31
0.0
 70
   160
  1
<>
 71
     5
 42
16.99999999999997
 73
     0
 74
     0
 75
     0
  3
NORMAL-MSL
100
AcDbAlignedDimension
 13
172.1574749811386
 23
303.5801075589434
 33
0.0
 14
155.1574749811386
 24
303.5801075589434
 34
0.0
 50
180.0
100
AcDbRotatedDimension
1001
ACAD
1000
DSTYLE
1002
{
1070
   172
1070
     1
1070
   289
1070
     1
1070
   271
1070
     2
1070
    76
1070
     1
1070
    75
1070
     1
1070
   272
1070
     2
1070
    48
1040
0.0
1070
    47
1040
0.0
1002
}
  0
DIMENSION
  5
8DF
330
70
100
AcDbEntity
  8
Bemaßungen(MSL)
  6
Continuous
 62
     5
370
     5
100
AcDbDimension
280
     0
  2
*D15
 10
201.7285256405149
 20
470.8292446230664
 30
0.0
 11
201.7285256405148
 21
508.3292446230664
 31
0.0
 70
   160
  1
<>
 71
     5
 42
74.99999999999992
 73
     0
 74
     0
 75
     0
  3
NORMAL-MSL
100
AcDbAlignedDimension
 13
175.6574749811387
 23
545.8292446230664
 33
0.0
 14
171.6574749811391
 24
470.8292446230664
 34
0.0
 50
270.0
100
AcDbRotatedDimension
1001
ACAD
1000
DSTYLE
1002
{
1070
   172
1070
     0
1070
   289
1070
     1
1070
   271
1070
     2
1070
   272
1070
     2
1070
    48
1040
0.0
1070
    47
1040
0.0
1002
}
  0
DIMENSION
  5
9C1
330
70
100
AcDbEntity
  8
Bemaßungen(MSL)
  6
Continuous
 62
     5
370
     5
100
AcDbDimension
280
     0
  2
*D16
 10
201.7285256405149
 20
213.5171516731328
 30
0.0
 11
201.7285256405148
 21
327.7453430332545
 31
0.0
 70
   160
  1
340
 71
     5
 42
340.0000000000001
 73
     0
 74
     0
 75
     0
  3
NORMAL-MSL
100
AcDbAlignedDimension
 13
171.6574749811391
 23
470.8292446230664
 33
0.0
 14
171.6574749811386
 24
213.5171516731328
 34
0.0
 50
270.0
100
AcDbRotatedDimension
1001
ACAD
1000
DSTYLE
1002
{
1070
   172
1070
     0
1070
   289
1070
     1
1070
   271
1070
     2
1070
   144
1040
1.321352588221165
1070
   272
1070
     2
1070
    48
1040
0.0
1070
    47
1040
0.0
1002
}
  0
DIMENSION
  5
AAC
330
70
100
AcDbEntity
  8
Bemaßungen(MSL)
  6
Continuous
 62
     5
370
     5
100
AcDbDimension
280
     0
  2
*D17
 10
201.8574749811388
 20
183.5171516731327
 30
0.0
 11
201.8574749811388
 21
198.5171516731328
 31
0.0
 70
   160
  1
<>
 71
     5
 42
30.0
 73
     0
 74
     0
 75
     0
  3
NORMAL-MSL
100
AcDbAlignedDimension
 13
171.6574749811386
 23
213.5171516731328
 33
0.0
 14
175.6574749811387
 24
183.5171516731328
 34
0.0
 50
90.0
100
AcDbRotatedDimension
1001
ACAD
1000
DSTYLE
1002
{
1070
   172
1070
     0
1070
   289
1070
     1
1070
   271
1070
     2
1070
   272
1070
     2
1070
    48
1040
0.0
1070
    47
1040
0.0
1002
}
  0
DIMENSION
  5
B8E
330
70
100
AcDbEntity
  8
Bemaßungen(MSL)
  6
Continuous
 62
     5
370
     5
100
AcDbDimension
280
     0
  2
*D18
 10
235.111983132292
 20
166.4328049899503
 30
0.0
 11
213.043088180041
 21
166.4328049899503
 31
0.0
 70
   160
  1
<>
 71
     5
 42
1.5
 73
     0
 74
     0
 75
     0
  3
NORMAL-MSL
100
AcDbAlignedDimension
 13
236.611983132292
 23
183.5171516731328
 33
0.0
 14
235.111983132292
 24
183.5171516731328
 34
0.0
100
AcDbRotatedDimension
1001
ACAD
1000
DSTYLE
1002
{
1070
   172
1070
     1
1070
   289
1070
     1
1070
   271
1070
     2
1070
   272
1070
     2
1070
    48
1040
0.0
1070
    47
1040
0.0
1002
}
  0
DIMENSION
  5
101C
330
70
100
AcDbEntity
  8
Bemaßungen(MSL)
  6
Continuous
 62
     5
370
     5
100
AcDbDimension
280
     0
  2
*D21
 10
162.0724127936864
 20
531.5820067936613
 30
0.0
 11
180.9240822418889
 21
558.3091504141498
 31
0.0
 70
   163
 71
     5
 42
5.499999999999886
 73
     0
 74
     0
 75
     0
  3
NORMAL-MSL
100
AcDbDiametricDimension
 15
165.2425371685906
 25
536.0764824524713
 35
0.0
 40
0.0
1001
ACAD_DSTYLE_DIMRADIAL_EXTENSION
1070
   387
1070
     1
1070
   388
1040
0.0
1070
   390
1040
0.0
1001
ACAD
1000
DSTYLE
1002
{
1070
   289
1070
     1
1002
}
1001
ACAD_DSTYLE_DIMINSPECT
1070
   396
1000
100%
1070
   395
1000

1070
   394
1070
    33
1070
   393
1070
     0
  0
ENDSEC
  0
SECTION
  2
OBJECTS
  0
DICTIONARY
  5
C
330
0
100
AcDbDictionary
281
     1
  3
ACAD_CIP_PREVIOUS_PRODUCT_INFO
350
C8C
  3
ACAD_COLOR
350
63
  3
ACAD_DETAILVIEWSTYLE
350
6A
  3
ACAD_FIELDLIST
350
EEB
  3
ACAD_GROUP
350
D
  3
ACAD_LAYOUT
350
62
  3
ACAD_MATERIAL
350
10
  3
ACAD_MLEADERSTYLE
350
66
  3
ACAD_MLINESTYLE
350
5F
  3
ACAD_PLOTSETTINGS
350
61
  3
ACAD_PLOTSTYLENAME
350
E
  3
ACAD_SCALELIST
350
42
  3
ACAD_SECTIONVIEWSTYLE
350
68
  3
ACAD_TABLESTYLE
350
64
  3
ACAD_VISUALSTYLE
350
29
  3
ACDB_RECOMPOSE_DATA
350
118D
  3
AcDbVariableDictionary
350
D9D
  3
AcmDictionary
350
EA6
  3
AMG
350
E7D
  3
AMGSNAPSETTINGS
350
EFF
  0
DICTIONARY
  5
F9D
330
12E
100
AcDbDictionary
280
     1
281
     1
  0
DICTIONARY
  5
F9F
330
146
100
AcDbDictionary
280
     1
281
     1
  0
DICTIONARY
  5
FA1
330
181
100
AcDbDictionary
280
     1
281
     1
  0
DICTIONARY
  5
FA3
330
184
100
AcDbDictionary
280
     1
281
     1
  0
DICTIONARY
  5
FA5
330
185
100
AcDbDictionary
280
     1
281
     1
  0
DICTIONARY
  5
FA7
330
187
100
AcDbDictionary
280
     1
281
     1
  0
DICTIONARY
  5
FA9
330
188
100
AcDbDictionary
280
     1
281
     1
  0
DICTIONARY
  5
FAB
330
189
100
AcDbDictionary
280
     1
281
     1
  0
DICTIONARY
  5
FAD
330
18A
100
AcDbDictionary
280
     1
281
     1
  0
DICTIONARY
  5
FAF
330
18B
100
AcDbDictionary
280
     1
281
     1
  0
DICTIONARY
  5
FB1
330
191
100
AcDbDictionary
280
     1
281
     1
  0
DICTIONARY
  5
C8E
330
196
100
AcDbDictionary
280
     1
281
     1
  3
ACAD_MLATT
360
1142
  3
ACAD_XREC_ROUNDTRIP
360
1141
  0
DICTIONARY
  5
C91
330
199
100
AcDbDictionary
280
     1
281
     1
  3
ACAD_MLATT
360
1144
  3
ACAD_XREC_ROUNDTRIP
360
1143
  0
DICTIONARY
  5
C94
330
19B
100
AcDbDictionary
280
     1
281
     1
  3
ACAD_MLATT
360
1146
  3
ACAD_XREC_ROUNDTRIP
360
1145
  0
DICTIONARY
  5
C97
330
19C
100
AcDbDictionary
280
     1
281
     1
  3
ACAD_MLATT
360
1148
  3
ACAD_XREC_ROUNDTRIP
360
1147
  0
DICTIONARY
  5
C9A
330
19D
100
AcDbDictionary
280
     1
281
     1
  3
ACAD_MLATT
360
114A
  3
ACAD_XREC_ROUNDTRIP
360
1149
  0
DICTIONARY
  5
C9D
330
19E
100
AcDbDictionary
280
     1
281
     1
  3
ACAD_MLATT
360
114C
  3
ACAD_XREC_ROUNDTRIP
360
114B
  0
DICTIONARY
  5
CA0
330
19F
100
AcDbDictionary
280
     1
281
     1
  3
ACAD_MLATT
360
114E
  3
ACAD_XREC_ROUNDTRIP
360
114D
  0
DICTIONARY
  5
CA3
330
1A1
100
AcDbDictionary
280
     1
281
     1
  3
ACAD_MLATT
360
1150
  3
ACAD_XREC_ROUNDTRIP
360
114F
  0
DICTIONARY
  5
CA6
330
1A2
100
AcDbDictionary
280
     1
281
     1
  3
ACAD_MLATT
360
1152
  3
ACAD_XREC_ROUNDTRIP
360
1151
  0
DICTIONARY
  5
CA9
330
1A3
100
AcDbDictionary
280
     1
281
     1
  3
ACAD_MLATT
360
1154
  3
ACAD_XREC_ROUNDTRIP
360
1153
  0
DICTIONARY
  5
CAC
330
1A4
100
AcDbDictionary
280
     1
281
     1
  3
ACAD_MLATT
360
1156
  3
ACAD_XREC_ROUNDTRIP
360
1155
  0
DICTIONARY
  5
CAF
330
1A5
100
AcDbDictionary
280
     1
281
     1
  3
ACAD_MLATT
360
1158
  3
ACAD_XREC_ROUNDTRIP
360
1157
  0
DICTIONARY
  5
CB2
330
1A6
100
AcDbDictionary
280
     1
281
     1
  3
ACAD_MLATT
360
115A
  3
ACAD_XREC_ROUNDTRIP
360
1159
  0
DICTIONARY
  5
CB5
330
1A7
100
AcDbDictionary
280
     1
281
     1
  3
ACAD_MLATT
360
115C
  3
ACAD_XREC_ROUNDTRIP
360
115B
  0
DICTIONARY
  5
CB8
330
1A8
100
AcDbDictionary
280
     1
281
     1
  3
ACAD_MLATT
360
115E
  3
ACAD_XREC_ROUNDTRIP
360
115D
  0
DICTIONARY
  5
CBB
330
1A9
100
AcDbDictionary
280
     1
281
     1
  3
ACAD_MLATT
360
1160
  3
ACAD_XREC_ROUNDTRIP
360
115F
  0
DICTIONARY
  5
CBE
330
1AA
100
AcDbDictionary
280
     1
281
     1
  3
ACAD_MLATT
360
1162
  3
ACAD_XREC_ROUNDTRIP
360
1161
  0
DICTIONARY
  5
CC1
330
1AB
100
AcDbDictionary
280
     1
281
     1
  3
ACAD_MLATT
360
1164
  3
ACAD_XREC_ROUNDTRIP
360
1163
  0
DICTIONARY
  5
CC4
330
1AC
100
AcDbDictionary
280
     1
281
     1
  3
ACAD_MLATT
360
1166
  3
ACAD_XREC_ROUNDTRIP
360
1165
  0
DICTIONARY
  5
CC7
330
1AD
100
AcDbDictionary
280
     1
281
     1
  3
ACAD_MLATT
360
1168
  3
ACAD_XREC_ROUNDTRIP
360
1167
  0
DICTIONARY
  5
CCA
330
1AE
100
AcDbDictionary
280
     1
281
     1
  3
ACAD_MLATT
360
116A
  3
ACAD_XREC_ROUNDTRIP
360
1169
  0
DICTIONARY
  5
CCD
330
1AF
100
AcDbDictionary
280
     1
281
     1
  3
ACAD_MLATT
360
116C
  3
ACAD_XREC_ROUNDTRIP
360
116B
  0
DICTIONARY
  5
CD0
330
1B0
100
AcDbDictionary
280
     1
281
     1
  3
ACAD_MLATT
360
116E
  3
ACAD_XREC_ROUNDTRIP
360
116D
  0
DICTIONARY
  5
CD3
330
1B1
100
AcDbDictionary
280
     1
281
     1
  3
ACAD_MLATT
360
1170
  3
ACAD_XREC_ROUNDTRIP
360
116F
  0
DICTIONARY
  5
CD6
330
1B2
100
AcDbDictionary
280
     1
281
     1
  3
ACAD_MLATT
360
1172
  3
ACAD_XREC_ROUNDTRIP
360
1171
  0
DICTIONARY
  5
CD9
330
1B3
100
AcDbDictionary
280
     1
281
     1
  3
ACAD_MLATT
360
1174
  3
ACAD_XREC_ROUNDTRIP
360
1173
  0
DICTIONARY
  5
CDC
330
1B4
100
AcDbDictionary
280
     1
281
     1
  3
ACAD_MLATT
360
1176
  3
ACAD_XREC_ROUNDTRIP
360
1175
  0
DICTIONARY
  5
CDF
330
1B5
100
AcDbDictionary
280
     1
281
     1
  3
ACAD_MLATT
360
1178
  3
ACAD_XREC_ROUNDTRIP
360
1177
  0
DICTIONARY
  5
CE2
330
1B7
100
AcDbDictionary
280
     1
281
     1
  3
ACAD_MLATT
360
117A
  3
ACAD_XREC_ROUNDTRIP
360
1179
  0
DICTIONARY
  5
CE5
330
1B8
100
AcDbDictionary
280
     1
281
     1
  3
ACAD_MLATT
360
117C
  3
ACAD_XREC_ROUNDTRIP
360
117B
  0
DICTIONARY
  5
CE8
330
1B9
100
AcDbDictionary
280
     1
281
     1
  3
ACAD_MLATT
360
117E
  3
ACAD_XREC_ROUNDTRIP
360
117D
  0
DICTIONARY
  5
CEB
330
1BA
100
AcDbDictionary
280
     1
281
     1
  3
ACAD_MLATT
360
1180
  3
ACAD_XREC_ROUNDTRIP
360
117F
  0
DICTIONARY
  5
CEE
330
1BB
100
AcDbDictionary
280
     1
281
     1
  3
ACAD_MLATT
360
1182
  3
ACAD_XREC_ROUNDTRIP
360
1181
  0
DICTIONARY
  5
CF1
330
1BC
100
AcDbDictionary
280
     1
281
     1
  3
ACAD_MLATT
360
1184
  3
ACAD_XREC_ROUNDTRIP
360
1183
  0
DICTIONARY
  5
CF4
330
1BD
100
AcDbDictionary
280
     1
281
     1
  3
ACAD_MLATT
360
1186
  3
ACAD_XREC_ROUNDTRIP
360
1185
  0
DICTIONARY
  5
CF7
330
1BE
100
AcDbDictionary
280
     1
281
     1
  3
ACAD_MLATT
360
1188
  3
ACAD_XREC_ROUNDTRIP
360
1187
  0
DICTIONARY
  5
10CF
330
102F
100
AcDbDictionary
280
     1
281
     1
  0
XRECORD
  5
C8C
102
{ACAD_REACTORS
330
C
102
}
330
C
100
AcDbXrecord
280
     1
300
AMECH_PP
300
2014
300
PDSU_F_S
  0
DICTIONARY
  5
63
102
{ACAD_REACTORS
330
C
102
}
330
C
100
AcDbDictionary
281
     1
  0
DICTIONARY
  5
6A
102
{ACAD_REACTORS
330
C
102
}
330
C
100
AcDbDictionary
281
     1
  3
Imperial24
350
6B
  3
Metric50
350
DA5
  0
FIELDLIST
  5
EEB
102
{ACAD_REACTORS
330
C
102
}
330
C
100
AcDbIdSet
 90
        6
330
1121
330
1122
330
1123
330
1127
330
1128
330
1129
100
AcDbFieldList
  0
DICTIONARY
  5
D
102
{ACAD_REACTORS
330
C
102
}
330
C
100
AcDbDictionary
281
     1
  0
DICTIONARY
  5
62
102
{ACAD_REACTORS
330
C
102
}
330
C
100
AcDbDictionary
281
     1
  3
Layout1
350
6F
  3
Layout2
350
77
  3
Model
350
73
  0
DICTIONARY
  5
10
102
{ACAD_REACTORS
330
C
102
}
330
C
100
AcDbDictionary
281
     1
  3
ByBlock
350
19
  3
ByLayer
350
11
  3
Global
350
21
  0
DICTIONARY
  5
66
102
{ACAD_REACTORS
330
C
102
}
330
C
100
AcDbDictionary
281
     1
  3
Standard
350
67
  0
DICTIONARY
  5
5F
102
{ACAD_REACTORS
330
C
102
}
330
C
100
AcDbDictionary
281
     1
  3
Standard
350
60
  0
DICTIONARY
  5
61
102
{ACAD_REACTORS
330
C
102
}
330
C
100
AcDbDictionary
281
     1
  0
ACDBDICTIONARYWDFLT
  5
E
102
{ACAD_REACTORS
330
C
102
}
330
C
100
AcDbDictionary
281
     1
  3
Normal
350
F
100
AcDbDictionaryWithDefault
340
F
  0
DICTIONARY
  5
42
102
{ACAD_REACTORS
330
C
102
}
330
C
100
AcDbDictionary
281
     1
  3
A0
350
43
  3
A1
350
44
  3
A2
350
45
  3
A3
350
46
  3
A4
350
47
  3
A5
350
48
  3
A6
350
49
  3
A7
350
4A
  3
A8
350
4B
  3
A9
350
4C
  3
B0
350
4D
  3
B1
350
4E
  3
B2
350
4F
  3
B3
350
50
  3
B4
350
51
  3
B5
350
52
  3
B6
350
53
  0
DICTIONARY
  5
68
102
{ACAD_REACTORS
330
C
102
}
330
C
100
AcDbDictionary
281
     1
  3
Imperial24
350
69
  3
Metric50
350
DA4
  0
DICTIONARY
  5
64
102
{ACAD_REACTORS
330
C
102
}
330
C
100
AcDbDictionary
281
     1
  3
Standard
350
65
  0
DICTIONARY
  5
29
102
{ACAD_REACTORS
330
C
102
}
330
C
100
AcDbDictionary
281
     1
  3
2dWireframe
350
2F
  3
Basic
350
2E
  3
Brighten
350
35
  3
ColorChange
350
39
  3
Conceptual
350
32
  3
Dim
350
34
  3
EdgeColorOff
350
41
  3
Facepattern
350
38
  3
Flat
350
2A
  3
FlatWithEdges
350
2B
  3
Gouraud
350
2C
  3
GouraudWithEdges
350
2D
  3
Hidden
350
31
  3
JitterOff
350
3F
  3
Linepattern
350
37
  3
OverhangOff
350
40
  3
Realistic
350
33
  3
Shaded
350
3E
  3
Shaded with edges
350
3D
  3
Shades of Gray
350
3A
  3
Sketchy
350
3B
  3
Thicken
350
36
  3
Wireframe
350
30
  3
X-Ray
350
3C
  0
XRECORD
  5
118D
102
{ACAD_REACTORS
330
C
102
}
330
C
100
AcDbXrecord
280
     1
 90
        1
330
65
330
69
330
6B
330
196
330
199
330
19B
330
19C
330
19D
330
19E
330
19F
330
1A1
330
1A2
330
1A3
330
1A4
330
1A5
330
1A6
330
1A7
330
1A8
330
1A9
330
1AA
330
1AB
330
1AC
330
1AD
330
1AE
330
1AF
330
1B0
330
1B1
330
1B2
330
1B3
330
1B4
330
1B5
330
1B7
330
1B8
330
1B9
330
1BA
330
1BB
330
1BC
330
1BD
330
1BE
330
DA4
330
DA5
  0
DICTIONARY
  5
D9D
102
{ACAD_REACTORS
330
C
102
}
330
C
100
AcDbDictionary
281
     1
  3
CANNOSCALE
350
DA2
  3
CMLEADERSTYLE
350
D9F
  3
CTABLESTYLE
350
D9E
  3
CVIEWDETAILSTYLE
350
DA0
  3
CVIEWSECTIONSTYLE
350
DA1
  3
DIMASSOC
350
F0D
  3
HIDETEXT
350
F0C
  3
INDEXCTL
350
F0B
  3
LAYEREVAL
350
F08
  3
LAYERNOTIFY
350
F09
  3
LIGHTINGUNITS
350
F07
  3
MSLTSCALE
350
F06
  3
SORTENTS
350
F0A
  0
DICTIONARY
  5
EA6
102
{ACAD_REACTORS
330
C
102
}
330
C
100
AcDbDictionary
281
     1
  3
AcmStdDictionary
350
EAD
  0
DICTIONARY
  5
E7D
102
{ACAD_REACTORS
330
C
102
}
330
C
100
AcDbDictionary
281
     1
  0
DICTIONARY
  5
EFF
102
{ACAD_REACTORS
330
C
102
}
330
C
100
AcDbDictionary
281
     1
  0
XRECORD
  5
1142
102
{ACAD_REACTORS
330
C8E
102
}
330
C8E
100
AcDbXrecord
280
     1
 70
     4
 70
     0
 70
     0
 40
1.0
  2
BAUTEILNUMMER
  1
Embedded Object
 10
130.6395634474436
 20
10.40004659369133
 30
0.0
 40
4.499999880790709
 41
54.70195188917251
 46
0.0
 71
     4
 72
     5
  1
B-15544.13/3mm
  7
Textstil20
 73
     1
 44
1.0
  0
XRECORD
  5
1141
102
{ACAD_REACTORS
330
C8E
102
}
330
C8E
100
AcDbXrecord
280
     1
102
ACAD_MATT_HEIGHT
140
4.499999880790709
  0
XRECORD
  5
1144
102
{ACAD_REACTORS
330
C91
102
}
330
C91
100
AcDbXrecord
280
     1
 70
     4
 70
     0
 70
     0
 40
1.0
  2
TITEL
  1
Embedded Object
 10
50.4803547091469
 20
10.66737873014982
 30
0.0
 40
3.499999940395355
 41
79.0802469174333
 46
0.0
 71
     4
 72
     5
  1
Schlossunterlage
  7
Aktuell-DIN
 73
     1
 44
1.0
  0
XRECORD
  5
1143
102
{ACAD_REACTORS
330
C91
102
}
330
C91
100
AcDbXrecord
280
     1
102
ACAD_MATT_HEIGHT
140
3.499999940395355
  0
XRECORD
  5
1146
102
{ACAD_REACTORS
330
C94
102
}
330
C94
100
AcDbXrecord
280
     1
 70
     4
 70
     0
 70
     0
 40
1.0
  2
EDM_CREATE_DATE
  1
Embedded Object
 10
148.7947668615297
 20
50.08005757787322
 30
0.0
 40
2.006599903106689
 41
19.36406890964408
 46
0.0
 71
     4
 72
     5
  1
14.03.2016
  7
Textstil31
 73
     1
 44
1.0
  0
XRECORD
  5
1145
102
{ACAD_REACTORS
330
C94
102
}
330
C94
100
AcDbXrecord
280
     1
102
ACAD_MATT_HEIGHT
140
2.006599903106689
  0
XRECORD
  5
1148
102
{ACAD_REACTORS
330
C97
102
}
330
C97
100
AcDbXrecord
280
     1
 70
     4
 70
     0
 70
     0
 40
1.0
  2
EDM_CREATE_BY
  1
Embedded Object
 10
168.3179551236926
 20
50.10833043150012
 30
0.0
 40
2.006599903106689
 41
15.92843426507769
 46
0.0
 71
     4
 72
     5
  1
ra
  7
Textstil31
 73
     1
 44
1.0
  0
XRECORD
  5
1147
102
{ACAD_REACTORS
330
C97
102
}
330
C97
100
AcDbXrecord
280
     1
102
ACAD_MATT_HEIGHT
140
2.006599903106689
  0
XRECORD
  5
114A
102
{ACAD_REACTORS
330
C9A
102
}
330
C9A
100
AcDbXrecord
280
     1
 70
     4
 70
     0
 70
     0
 40
1.0
  2
EDM_CHECKED_BY
  1
Embedded Object
 10
168.5
 20
44.60013884095066
 30
0.0
 40
2.006599903106689
 41
31.83181559697239
 46
0.0
 71
     4
 72
     5
  1

  7
Textstil31
 73
     1
 44
1.0
  0
XRECORD
  5
1149
102
{ACAD_REACTORS
330
C9A
102
}
330
C9A
100
AcDbXrecord
280
     1
102
ACAD_MATT_HEIGHT
140
2.006599903106689
  0
XRECORD
  5
114C
102
{ACAD_REACTORS
330
C9D
102
}
330
C9D
100
AcDbXrecord
280
     1
 70
     4
 70
     0
 70
     0
 40
1.0
  2
EDM_CHECKED_DATE
  1
Embedded Object
 10
149.1
 20
44.62680194459117
 30
0.0
 40
2.006599903106689
 41
19.26865427753236
 46
0.0
 71
     4
 72
     5
  1

  7
Textstil31
 73
     1
 44
1.0
  0
XRECORD
  5
114B
102
{ACAD_REACTORS
330
C9D
102
}
330
C9D
100
AcDbXrecord
280
     1
102
ACAD_MATT_HEIGHT
140
2.006599903106689
  0
XRECORD
  5
114E
102
{ACAD_REACTORS
330
CA0
102
}
330
CA0
100
AcDbXrecord
280
     1
 70
     4
 70
     0
 70
     0
 40
1.0
  2
AIMD_MATERIAL
  1
Embedded Object
 10
177.6047099978851
 20
61.47015512140098
 30
0.0
 40
2.006599903106689
 41
26.51720840769073
 46
0.0
 71
     5
 72
     5
  1
1.4301
  7
Textstil31
 73
     1
 44
1.0
  0
XRECORD
  5
114D
102
{ACAD_REACTORS
330
CA0
102
}
330
CA0
100
AcDbXrecord
280
     1
102
ACAD_MATT_HEIGHT
140
2.006599903106689
  0
XRECORD
  5
1150
102
{ACAD_REACTORS
330
CA3
102
}
330
CA3
100
AcDbXrecord
280
     1
 70
     4
 70
     0
 70
     0
 40
1.0
  2
AIMD_REPLACEMENT
  1
Embedded Object
 10
149.1
 20
20.22568341402201
 30
0.0
 40
2.000000029802321
 41
29.0
 46
0.0
 71
     1
 72
     5
  1

  7
Textstil10
 73
     1
 44
1.0
  0
XRECORD
  5
114F
102
{ACAD_REACTORS
330
CA3
102
}
330
CA3
100
AcDbXrecord
280
     1
102
ACAD_MATT_HEIGHT
140
2.000000029802321
  0
XRECORD
  5
1152
102
{ACAD_REACTORS
330
CA6
102
}
330
CA6
100
AcDbXrecord
280
     1
 70
     4
 70
     0
 70
     0
 40
1.0
  2
1AIMD_REVISION_USERNAME
  1
Embedded Object
 10
125.5
 20
37.52978812439297
 30
0.0
 40
2.000000029802321
 41
7.999999999999986
 46
0.0
 71
     5
 72
     5
  1

  7
Textstil10
 73
     1
 44
1.0
  0
XRECORD
  5
1151
102
{ACAD_REACTORS
330
CA6
102
}
330
CA6
100
AcDbXrecord
280
     1
102
ACAD_MATT_HEIGHT
140
2.000000029802321
  0
XRECORD
  5
1154
102
{ACAD_REACTORS
330
CA9
102
}
330
CA9
100
AcDbXrecord
280
     1
 70
     4
 70
     0
 70
     0
 40
1.0
  2
1AIMD_REVISION_DESCRIPTION
  1
Embedded Object
 10
18.3
 20
37.50344422828553
 30
0.0
 40
2.000000029802321
 41
82.96770945006056
 46
0.0
 71
     4
 72
     5
  1

  7
Textstil10
 73
     1
 44
1.0
  0
XRECORD
  5
1153
102
{ACAD_REACTORS
330
CA9
102
}
330
CA9
100
AcDbXrecord
280
     1
102
ACAD_MATT_HEIGHT
140
2.000000029802321
  0
XRECORD
  5
1156
102
{ACAD_REACTORS
330
CAC
102
}
330
CAC
100
AcDbXrecord
280
     1
 70
     4
 70
     0
 70
     0
 40
1.0
  2
1AIMD_REVISION_INDEX
  1
Embedded Object
 10
14.0
 20
37.57520186233728
 30
0.0
 40
2.000000029802321
 41
8.000000000000008
 46
0.0
 71
     5
 72
     5
  1

  7
Textstil10
 73
     1
 44
1.0
  0
XRECORD
  5
1155
102
{ACAD_REACTORS
330
CAC
102
}
330
CAC
100
AcDbXrecord
280
     1
102
ACAD_MATT_HEIGHT
140
2.000000029802321
  0
XRECORD
  5
1158
102
{ACAD_REACTORS
330
CAF
102
}
330
CAF
100
AcDbXrecord
280
     1
 70
     4
 70
     0
 70
     0
 40
1.0
  2
2AIMD_REVISION_USERNAME
  1
Embedded Object
 10
125.5
 20
41.80881231003222
 30
0.0
 40
2.000000029802321
 41
7.999999999999986
 46
0.0
 71
     5
 72
     5
  1

  7
Textstil10
 73
     1
 44
1.0
  0
XRECORD
  5
1157
102
{ACAD_REACTORS
330
CAF
102
}
330
CAF
100
AcDbXrecord
280
     1
102
ACAD_MATT_HEIGHT
140
2.000000029802321
  0
XRECORD
  5
115A
102
{ACAD_REACTORS
330
CB2
102
}
330
CB2
100
AcDbXrecord
280
     1
 70
     4
 70
     0
 70
     0
 40
1.0
  2
2AIMD_REVISION_DATE
  1
Embedded Object
 10
112.5
 20
41.55065512658466
 30
0.0
 40
2.000000029802321
 41
13.0
 46
0.0
 71
     5
 72
     5
  1

  7
Textstil10
 73
     1
 44
1.0
  0
XRECORD
  5
1159
102
{ACAD_REACTORS
330
CB2
102
}
330
CB2
100
AcDbXrecord
280
     1
102
ACAD_MATT_HEIGHT
140
2.000000029802321
  0
XRECORD
  5
115C
102
{ACAD_REACTORS
330
CB5
102
}
330
CB5
100
AcDbXrecord
280
     1
 70
     4
 70
     0
 70
     0
 40
1.0
  2
2AIMD_REVISION_DESCRIPTION
  1
Embedded Object
 10
18.3
 20
41.97394057485317
 30
0.0
 40
2.000000029802321
 41
82.99495632584735
 46
0.0
 71
     4
 72
     5
  1

  7
Textstil10
 73
     1
 44
1.0
  0
XRECORD
  5
115B
102
{ACAD_REACTORS
330
CB5
102
}
330
CB5
100
AcDbXrecord
280
     1
102
ACAD_MATT_HEIGHT
140
2.000000029802321
  0
XRECORD
  5
115E
102
{ACAD_REACTORS
330
CB8
102
}
330
CB8
100
AcDbXrecord
280
     1
 70
     4
 70
     0
 70
     0
 40
1.0
  2
2AIMD_REVISION_INDEX
  1
Embedded Object
 10
14.0
 20
41.9367174803234
 30
0.0
 40
2.000000029802321
 41
8.000000000000008
 46
0.0
 71
     5
 72
     5
  1

  7
Textstil10
 73
     1
 44
1.0
  0
XRECORD
  5
115D
102
{ACAD_REACTORS
330
CB8
102
}
330
CB8
100
AcDbXrecord
280
     1
102
ACAD_MATT_HEIGHT
140
2.000000029802321
  0
XRECORD
  5
1160
102
{ACAD_REACTORS
330
CBB
102
}
330
CBB
100
AcDbXrecord
280
     1
 70
     4
 70
     0
 70
     0
 40
1.0
  2
3AIMD_REVISION_USERNAME
  1
Embedded Object
 10
125.5
 20
46.0359596664121
 30
0.0
 40
2.000000029802321
 41
7.999999999999986
 46
0.0
 71
     5
 72
     5
  1

  7
Textstil10
 73
     1
 44
1.0
  0
XRECORD
  5
115F
102
{ACAD_REACTORS
330
CBB
102
}
330
CBB
100
AcDbXrecord
280
     1
102
ACAD_MATT_HEIGHT
140
2.000000029802321
  0
XRECORD
  5
1162
102
{ACAD_REACTORS
330
CBE
102
}
330
CBE
100
AcDbXrecord
280
     1
 70
     4
 70
     0
 70
     0
 40
1.0
  2
3AIMD_REVISION_DATE
  1
Embedded Object
 10
112.5
 20
46.05889237330153
 30
0.0
 40
2.000000029802321
 41
13.0
 46
0.0
 71
     5
 72
     5
  1

  7
Textstil10
 73
     1
 44
1.0
  0
XRECORD
  5
1161
102
{ACAD_REACTORS
330
CBE
102
}
330
CBE
100
AcDbXrecord
280
     1
102
ACAD_MATT_HEIGHT
140
2.000000029802321
  0
XRECORD
  5
1164
102
{ACAD_REACTORS
330
CC1
102
}
330
CC1
100
AcDbXrecord
280
     1
 70
     4
 70
     0
 70
     0
 40
1.0
  2
3AIMD_REVISION_DESCRIPTION
  1
Embedded Object
 10
18.3
 20
46.07718270551361
 30
0.0
 40
2.000000029802321
 41
83.06691918986144
 46
0.0
 71
     4
 72
     5
  1

  7
Textstil10
 73
     1
 44
1.0
  0
XRECORD
  5
1163
102
{ACAD_REACTORS
330
CC1
102
}
330
CC1
100
AcDbXrecord
280
     1
102
ACAD_MATT_HEIGHT
140
2.000000029802321
  0
XRECORD
  5
1166
102
{ACAD_REACTORS
330
CC4
102
}
330
CC4
100
AcDbXrecord
280
     1
 70
     4
 70
     0
 70
     0
 40
1.0
  2
3AIMD_REVISION_INDEX
  1
Embedded Object
 10
14.0
 20
46.08650419099681
 30
0.0
 40
2.000000029802321
 41
8.000000000000008
 46
0.0
 71
     5
 72
     5
  1

  7
Textstil10
 73
     1
 44
1.0
  0
XRECORD
  5
1165
102
{ACAD_REACTORS
330
CC4
102
}
330
CC4
100
AcDbXrecord
280
     1
102
ACAD_MATT_HEIGHT
140
2.000000029802321
  0
XRECORD
  5
1168
102
{ACAD_REACTORS
330
CC7
102
}
330
CC7
100
AcDbXrecord
280
     1
 70
     4
 70
     0
 70
     0
 40
1.0
  2
4AIMD_REVISION_USERNAME
  1
Embedded Object
 10
125.5
 20
50.28595966641212
 30
0.0
 40
2.000000029802321
 41
7.999999999999986
 46
0.0
 71
     5
 72
     5
  1

  7
Textstil10
 73
     1
 44
1.0
  0
XRECORD
  5
1167
102
{ACAD_REACTORS
330
CC7
102
}
330
CC7
100
AcDbXrecord
280
     1
102
ACAD_MATT_HEIGHT
140
2.000000029802321
  0
XRECORD
  5
116A
102
{ACAD_REACTORS
330
CCA
102
}
330
CCA
100
AcDbXrecord
280
     1
 70
     4
 70
     0
 70
     0
 40
1.0
  2
4AIMD_REVISION_INDEX
  1
Embedded Object
 10
14.0
 20
50.35805766312741
 30
0.0
 40
2.000000029802321
 41
8.000000000000008
 46
0.0
 71
     5
 72
     5
  1

  7
Textstil10
 73
     1
 44
1.0
  0
XRECORD
  5
1169
102
{ACAD_REACTORS
330
CCA
102
}
330
CCA
100
AcDbXrecord
280
     1
102
ACAD_MATT_HEIGHT
140
2.000000029802321
  0
XRECORD
  5
116C
102
{ACAD_REACTORS
330
CCD
102
}
330
CCD
100
AcDbXrecord
280
     1
 70
     4
 70
     0
 70
     0
 40
1.0
  2
4AIMD_REVISION_DATE
  1
Embedded Object
 10
112.5
 20
50.30889237330153
 30
0.0
 40
2.000000029802321
 41
13.0
 46
0.0
 71
     5
 72
     5
  1

  7
Textstil10
 73
     1
 44
1.0
  0
XRECORD
  5
116B
102
{ACAD_REACTORS
330
CCD
102
}
330
CCD
100
AcDbXrecord
280
     1
102
ACAD_MATT_HEIGHT
140
2.000000029802321
  0
XRECORD
  5
116E
102
{ACAD_REACTORS
330
CD0
102
}
330
CD0
100
AcDbXrecord
280
     1
 70
     4
 70
     0
 70
     0
 40
1.0
  2
AIMD_ORIGIN
  1
Embedded Object
 10
149.1
 20
24.06337316165219
 30
0.0
 40
2.006599903106689
 41
0.0
 46
0.0
 71
     4
 72
     5
  1

  7
Textstil31
 73
     1
 44
1.0
  0
XRECORD
  5
116D
102
{ACAD_REACTORS
330
CD0
102
}
330
CD0
100
AcDbXrecord
280
     1
102
ACAD_MATT_HEIGHT
140
2.006599903106689
  0
XRECORD
  5
1170
102
{ACAD_REACTORS
330
CD3
102
}
330
CD3
100
AcDbXrecord
280
     1
 70
     4
 70
     0
 70
     0
 40
1.0
  2
AIMD_SCALE
  1
Embedded Object
 10
185.5946112811973
 20
46.99435227809239
 30
0.0
 40
3.499999940395355
 41
0.0
 46
0.0
 71
     2
 72
     5
  1

  7
Aktuell-DIN
 73
     1
 44
1.0
  0
XRECORD
  5
116F
102
{ACAD_REACTORS
330
CD3
102
}
330
CD3
100
AcDbXrecord
280
     1
102
ACAD_MATT_HEIGHT
140
3.499999940395355
  0
XRECORD
  5
1172
102
{ACAD_REACTORS
330
CD6
102
}
330
CD6
100
AcDbXrecord
280
     1
 70
     4
 70
     0
 70
     0
 40
1.0
  2
1AIMD_REVISION_DATE
  1
Embedded Object
 10
112.5
 20
37.57471445029354
 30
0.0
 40
2.000000029802321
 41
13.0
 46
0.0
 71
     5
 72
     5
  1

  7
Textstil10
 73
     1
 44
1.0
  0
XRECORD
  5
1171
102
{ACAD_REACTORS
330
CD6
102
}
330
CD6
100
AcDbXrecord
280
     1
102
ACAD_MATT_HEIGHT
140
2.000000029802321
  0
XRECORD
  5
1174
102
{ACAD_REACTORS
330
CD9
102
}
330
CD9
100
AcDbXrecord
280
     1
 70
     4
 70
     0
 70
     0
 40
1.0
  2
4AIMD_REVISION_DESCRIPTION
  1
Embedded Object
 10
18.3
 20
50.34949164108739
 30
0.0
 40
2.000000029802321
 41
82.92267927108245
 46
0.0
 71
     4
 72
     5
  1

  7
Textstil10
 73
     1
 44
1.0
  0
XRECORD
  5
1173
102
{ACAD_REACTORS
330
CD9
102
}
330
CD9
100
AcDbXrecord
280
     1
102
ACAD_MATT_HEIGHT
140
2.000000029802321
  0
XRECORD
  5
1176
102
{ACAD_REACTORS
330
CDC
102
}
330
CDC
100
AcDbXrecord
280
     1
 70
     4
 70
     0
 70
     0
 40
1.0
  2
TITEL
  1
Embedded Object
 10
86.49522503983964
 20
62.10909846561558
 30
0.0
 40
2.000000029802321
 41
80.17531946005505
 46
0.0
 71
     5
 72
     5
  1
Schlossunterlage
  7
NORM
 73
     1
 44
1.0
  0
XRECORD
  5
1175
102
{ACAD_REACTORS
330
CDC
102
}
330
CDC
100
AcDbXrecord
280
     1
102
ACAD_MATT_HEIGHT
140
2.000000029802321
  0
XRECORD
  5
1178
102
{ACAD_REACTORS
330
CDF
102
}
330
CDF
100
AcDbXrecord
280
     1
 70
     4
 70
     0
 70
     0
 40
1.0
  2
AIMD_REV
  1
Embedded Object
 10
189.4833791900584
 20
7.971925537779897
 30
0.0
 40
3.499999940395355
 41
8.835954606110972
 46
0.0
 71
     5
 72
     5
  1

  7
Aktuell-DIN
 73
     1
 44
1.0
  0
XRECORD
  5
1177
102
{ACAD_REACTORS
330
CDF
102
}
330
CDF
100
AcDbXrecord
280
     1
102
ACAD_MATT_HEIGHT
140
3.499999940395355
  0
XRECORD
  5
117A
102
{ACAD_REACTORS
330
CE2
102
}
330
CE2
100
AcDbXrecord
280
     1
 70
     4
 70
     0
 70
     0
 40
1.0
  2
Blattgröße
  1
Embedded Object
 10
185.8055286082098
 20
39.57851129336555
 30
0.0
 40
2.489199936389923
 41
15.61272158242218
 46
0.0
 71
     5
 72
     5
  1
A4
  7
Textstil32
 73
     1
 44
1.0
  0
XRECORD
  5
1179
102
{ACAD_REACTORS
330
CE2
102
}
330
CE2
100
AcDbXrecord
280
     1
102
ACAD_MATT_HEIGHT
140
2.489199936389923
  0
XRECORD
  5
117C
102
{ACAD_REACTORS
330
CE5
102
}
330
CE5
100
AcDbXrecord
280
     1
 70
     4
 70
     0
 70
     0
 40
1.0
  2
AIMD_FIRMA
  1
Embedded Object
 10
149.1
 20
34.44033611102547
 30
0.0
 40
2.006599903106689
 41
52.94720680962109
 46
0.0
 71
     4
 72
     5
  1

  7
Textstil31
 73
     1
 44
1.0
  0
XRECORD
  5
117B
102
{ACAD_REACTORS
330
CE5
102
}
330
CE5
100
AcDbXrecord
280
     1
102
ACAD_MATT_HEIGHT
140
2.006599903106689
  0
XRECORD
  5
117E
102
{ACAD_REACTORS
330
CE8
102
}
330
CE8
100
AcDbXrecord
280
     1
 70
     4
 70
     0
 70
     0
 40
1.0
  2
AIMD_OBERFL
  1
Embedded Object
 10
148.9152176067556
 20
29.61071345552475
 30
0.0
 40
2.006599903106689
 41
52.33510037251564
 46
0.0
 71
     4
 72
     5
  1
matt gebuerstet (mb)
  7
Textstil31
 73
     1
 44
1.0
  0
XRECORD
  5
117D
102
{ACAD_REACTORS
330
CE8
102
}
330
CE8
100
AcDbXrecord
280
     1
102
ACAD_MATT_HEIGHT
140
2.006599903106689
  0
XRECORD
  5
1180
102
{ACAD_REACTORS
330
CEB
102
}
330
CEB
100
AcDbXrecord
280
     1
 70
     4
 70
     0
 70
     0
 40
1.0
  2
EDM_CHECKED_DATE
  1
Embedded Object
 10
149.1
 20
39.59728947595539
 30
0.0
 40
2.000000029802321
 41
19.39355134107019
 46
0.0
 71
     4
 72
     5
  1

  7
NORM
 73
     1
 44
1.0
  0
XRECORD
  5
117F
102
{ACAD_REACTORS
330
CEB
102
}
330
CEB
100
AcDbXrecord
280
     1
102
ACAD_MATT_HEIGHT
140
2.000000029802321
  0
XRECORD
  5
1182
102
{ACAD_REACTORS
330
CEE
102
}
330
CEE
100
AcDbXrecord
280
     1
 70
     4
 70
     0
 70
     0
 40
1.0
  2
EDM_CHECKED_BY
  1
Embedded Object
 10
168.5
 20
39.60282374963858
 30
0.0
 40
2.006599903106689
 41
31.25263641681158
 46
0.0
 71
     4
 72
     5
  1

  7
Textstil31
 73
     1
 44
1.0
  0
XRECORD
  5
1181
102
{ACAD_REACTORS
330
CEE
102
}
330
CEE
100
AcDbXrecord
280
     1
102
ACAD_MATT_HEIGHT
140
2.006599903106689
  0
XRECORD
  5
1184
102
{ACAD_REACTORS
330
CF1
102
}
330
CF1
100
AcDbXrecord
280
     1
 70
     4
 70
     0
 70
     0
 40
1.0
  2
AIMD_BEZ2
  1
Embedded Object
 10
50.7140518399648
 20
29.29891435027878
 30
0.0
 40
2.000000029802321
 41
62.84993842412557
 46
0.0
 71
     4
 72
     5
  1
sFlipLock Standard mit Motor
  7
NORM
 73
     1
 44
1.0
  0
XRECORD
  5
1183
102
{ACAD_REACTORS
330
CF1
102
}
330
CF1
100
AcDbXrecord
280
     1
102
ACAD_MATT_HEIGHT
140
2.000000029802321
  0
XRECORD
  5
1186
102
{ACAD_REACTORS
330
CF4
102
}
330
CF4
100
AcDbXrecord
280
     1
 70
     4
 70
     0
 70
     0
 40
1.0
  2
AIMD_BEZ3
  1
Embedded Object
 10
50.76452933077905
 20
24.11916808688638
 30
0.0
 40
2.000000029802321
 41
62.5576131291296
 46
0.0
 71
     4
 72
     5
  1
445x24x3mm
  7
NORM
 73
     1
 44
1.0
  0
XRECORD
  5
1185
102
{ACAD_REACTORS
330
CF4
102
}
330
CF4
100
AcDbXrecord
280
     1
102
ACAD_MATT_HEIGHT
140
2.000000029802321
  0
XRECORD
  5
1188
102
{ACAD_REACTORS
330
CF7
102
}
330
CF7
100
AcDbXrecord
280
     1
 70
     4
 70
     0
 70
     0
 40
1.0
  2
AIMD_BEZ4
  1
Embedded Object
 10
50.79999999999992
 20
19.09884857604945
 30
0.0
 40
2.000000029802321
 41
62.7037757766276
 46
0.0
 71
     4
 72
     5
  1

  7
NORM
 73
     1
 44
1.0
  0
XRECORD
  5
1187
102
{ACAD_REACTORS
330
CF7
102
}
330
CF7
100
AcDbXrecord
280
     1
102
ACAD_MATT_HEIGHT
140
2.000000029802321
  0
ACDBDETAILVIEWSTYLE
  5
6B
102
{ACAD_XDICTIONARY
360
113F
102
}
102
{ACAD_REACTORS
330
6A
330
111C
102
}
330
6A
100
AcDbModelDocViewStyle
 70
     0
  3
Imperial24
290
     0
100
AcDbDetailViewStyle
 70
     0
 71
     0
 90
        3
 71
     1
340
55
 62
   256
 40
0.24
340
0
 62
   256
 40
0.24
300

 40
0.36
280
     3
 71
     2
340
5D
 90
       25
 62
   256
 71
     3
340
55
 62
   256
 40
0.24
 90
        1
 40
0.75
 90
        1
300
%<\AcVar ViewType \f "%tc1">% %<\AcVar ViewDetailId>%\PVARIA %<\AcVar ViewScale \f "%sn">%
 71
     4
340
5D
 90
       25
 62
   256
340
5D
 90
       25
 62
   256
280
     0
  0
ACDBDETAILVIEWSTYLE
  5
DA5
102
{ACAD_XDICTIONARY
360
118B
102
}
102
{ACAD_REACTORS
330
6A
330
111D
102
}
330
6A
100
AcDbModelDocViewStyle
 70
     0
  3
Metric50
290
     0
100
AcDbDetailViewStyle
 70
     0
 71
     0
 90
        3
 71
     1
340
55
 62
   256
 40
5.0
340
0
 62
   256
 40
5.0
300

 40
0.0
280
     1
 71
     2
340
5D
 90
       25
 62
   256
 71
     3
340
55
 62
   256
 40
5.0
 90
        0
 40
15.0
 90
        1
300
%<\AcVar ViewDetailId>% (%<\AcVar ViewScale \f "%sn">%)
 71
     4
340
5D
 90
       25
 62
   256
340
5D
 90
       25
 62
   256
280
     0
  0
LAYOUT
  5
6F
102
{ACAD_REACTORS
330
62
102
}
330
62
100
AcDbPlotSettings
  1

  2

  4

  6

 40
0.0
 41
0.0
 42
0.0
 43
0.0
 44
0.0
 45
0.0
 46
0.0
 47
0.0
 48
0.0
 49
0.0
140
0.0
141
0.0
142
1.0
143
1.0
 70
   688
 72
     0
 73
     0
 74
     5
  7

 75
    16
147
1.0
 76
     0
 77
     2
 78
   300
148
0.0
149
0.0
100
AcDbLayout
  1
Layout1
 70
     1
 71
     1
 10
0.0
 20
0.0
 11
420.0
 21
594.0
 12
0.0
 22
0.0
 32
0.0
 14
0.0
 24
0.0
 34
0.0
 15
420.0
 25
594.0
 35
0.0
146
0.0
 13
0.0
 23
0.0
 33
0.0
 16
1.0
 26
0.0
 36
0.0
 17
0.0
 27
1.0
 37
0.0
 76
     0
330
6C
  0
LAYOUT
  5
77
102
{ACAD_REACTORS
330
62
102
}
330
62
100
AcDbPlotSettings
  1

  2

  4

  6

 40
0.0
 41
0.0
 42
0.0
 43
0.0
 44
0.0
 45
0.0
 46
0.0
 47
0.0
 48
0.0
 49
0.0
140
0.0
141
0.0
142
1.0
143
1.0
 70
   688
 72
     0
 73
     0
 74
     5
  7

 75
    16
147
1.0
 76
     0
 77
     2
 78
   300
148
0.0
149
0.0
100
AcDbLayout
  1
Layout2
 70
     1
 71
     2
 10
0.0
 20
0.0
 11
12.0
 21
9.0
 12
0.0
 22
0.0
 32
0.0
 14
0.0
 24
0.0
 34
0.0
 15
0.0
 25
0.0
 35
0.0
146
0.0
 13
0.0
 23
0.0
 33
0.0
 16
1.0
 26
0.0
 36
0.0
 17
0.0
 27
1.0
 37
0.0
 76
     0
330
74
  0
LAYOUT
  5
73
102
{ACAD_REACTORS
330
62
102
}
330
62
100
AcDbPlotSettings
  1

  2

  4

  6

 40
0.0
 41
0.0
 42
0.0
 43
0.0
 44
0.0
 45
0.0
 46
0.0
 47
0.0
 48
0.0
 49
0.0
140
0.0
141
0.0
142
1.0
143
1.0
 70
  1712
 72
     0
 73
     0
 74
     0
  7

 75
     0
147
1.0
 76
     0
 77
     2
 78
   300
148
0.0
149
0.0
100
AcDbLayout
  1
Model
 70
     1
 71
     0
 10
0.0
 20
0.0
 11
12.0
 21
9.0
 12
0.0
 22
0.0
 32
0.0
 14
0.0
 24
0.0
 34
0.0
 15
0.0
 25
0.0
 35
0.0
146
0.0
 13
0.0
 23
0.0
 33
0.0
 16
1.0
 26
0.0
 36
0.0
 17
0.0
 27
1.0
 37
0.0
 76
     0
330
70
331
57
  0
MATERIAL
  5
19
102
{ACAD_XDICTIONARY
360
1A
102
}
102
{ACAD_REACTORS
330
10
102
}
330
10
100
AcDbMaterial
  1
ByBlock
 72
     0
 43
0.0208333333333333
 43
0.0
 43
0.0
 43
0.0
 43
0.0
 43
0.0208333333333333
 43
0.0
 43
0.0
 43
0.0
 43
0.0
 43
1.0
 43
0.0
 43
0.0
 43
0.0
 43
0.0
 43
1.0
 77
     0
 47
0.0208333333333333
 47
0.0
 47
0.0
 47
0.0
 47
0.0
 47
0.0208333333333333
 47
0.0
 47
0.0
 47
0.0
 47
0.0
 47
1.0
 47
0.0
 47
0.0
 47
0.0
 47
0.0
 47
1.0
171
     0
 49
0.0208333333333333
 49
0.0
 49
0.0
 49
0.0
 49
0.0
 49
0.0208333333333333
 49
0.0
 49
0.0
 49
0.0
 49
0.0
 49
1.0
 49
0.0
 49
0.0
 49
0.0
 49
0.0
 49
1.0
175
     0
142
0.0208333333333333
142
0.0
142
0.0
142
0.0
142
0.0
142
0.0208333333333333
142
0.0
142
0.0
142
0.0
142
0.0
142
1.0
142
0.0
142
0.0
142
0.0
142
0.0
142
1.0
179
     0
144
0.0208333333333333
144
0.0
144
0.0
144
0.0
144
0.0
144
0.0208333333333333
144
0.0
144
0.0
144
0.0
144
0.0
144
1.0
144
0.0
144
0.0
144
0.0
144
0.0
144
1.0
147
0.0208333333333333
147
0.0
147
0.0
147
0.0
147
0.0
147
0.0208333333333333
147
0.0
147
0.0
147
0.0
147
0.0
147
1.0
147
0.0
147
0.0
147
0.0
147
0.0
147
1.0
  0
MATERIAL
  5
11
102
{ACAD_XDICTIONARY
360
12
102
}
102
{ACAD_REACTORS
330
10
102
}
330
10
100
AcDbMaterial
  1
ByLayer
 72
     0
 43
0.0208333333333333
 43
0.0
 43
0.0
 43
0.0
 43
0.0
 43
0.0208333333333333
 43
0.0
 43
0.0
 43
0.0
 43
0.0
 43
1.0
 43
0.0
 43
0.0
 43
0.0
 43
0.0
 43
1.0
 77
     0
 47
0.0208333333333333
 47
0.0
 47
0.0
 47
0.0
 47
0.0
 47
0.0208333333333333
 47
0.0
 47
0.0
 47
0.0
 47
0.0
 47
1.0
 47
0.0
 47
0.0
 47
0.0
 47
0.0
 47
1.0
171
     0
 49
0.0208333333333333
 49
0.0
 49
0.0
 49
0.0
 49
0.0
 49
0.0208333333333333
 49
0.0
 49
0.0
 49
0.0
 49
0.0
 49
1.0
 49
0.0
 49
0.0
 49
0.0
 49
0.0
 49
1.0
175
     0
142
0.0208333333333333
142
0.0
142
0.0
142
0.0
142
0.0
142
0.0208333333333333
142
0.0
142
0.0
142
0.0
142
0.0
142
1.0
142
0.0
142
0.0
142
0.0
142
0.0
142
1.0
179
     0
144
0.0208333333333333
144
0.0
144
0.0
144
0.0
144
0.0
144
0.0208333333333333
144
0.0
144
0.0
144
0.0
144
0.0
144
1.0
144
0.0
144
0.0
144
0.0
144
0.0
144
1.0
147
0.0208333333333333
147
0.0
147
0.0
147
0.0
147
0.0
147
0.0208333333333333
147
0.0
147
0.0
147
0.0
147
0.0
147
1.0
147
0.0
147
0.0
147
0.0
147
0.0
147
1.0
  0
MATERIAL
  5
21
102
{ACAD_XDICTIONARY
360
22
102
}
102
{ACAD_REACTORS
330
10
102
}
330
10
100
AcDbMaterial
  1
Global
 72
     0
 43
0.0208333333333333
 43
0.0
 43
0.0
 43
0.0
 43
0.0
 43
0.0208333333333333
 43
0.0
 43
0.0
 43
0.0
 43
0.0
 43
1.0
 43
0.0
 43
0.0
 43
0.0
 43
0.0
 43
1.0
 77
     0
 47
0.0208333333333333
 47
0.0
 47
0.0
 47
0.0
 47
0.0
 47
0.0208333333333333
 47
0.0
 47
0.0
 47
0.0
 47
0.0
 47
1.0
 47
0.0
 47
0.0
 47
0.0
 47
0.0
 47
1.0
171
     0
 49
0.0208333333333333
 49
0.0
 49
0.0
 49
0.0
 49
0.0
 49
0.0208333333333333
 49
0.0
 49
0.0
 49
0.0
 49
0.0
 49
1.0
 49
0.0
 49
0.0
 49
0.0
 49
0.0
 49
1.0
175
     0
142
0.0208333333333333
142
0.0
142
0.0
142
0.0
142
0.0
142
0.0208333333333333
142
0.0
142
0.0
142
0.0
142
0.0
142
1.0
142
0.0
142
0.0
142
0.0
142
0.0
142
1.0
179
     0
144
0.0208333333333333
144
0.0
144
0.0
144
0.0
144
0.0
144
0.0208333333333333
144
0.0
144
0.0
144
0.0
144
0.0
144
1.0
144
0.0
144
0.0
144
0.0
144
0.0
144
1.0
147
0.0208333333333333
147
0.0
147
0.0
147
0.0
147
0.0
147
0.0208333333333333
147
0.0
147
0.0
147
0.0
147
0.0
147
1.0
147
0.0
147
0.0
147
0.0
147
0.0
147
1.0
  0
MLEADERSTYLE
  5
67
102
{ACAD_REACTORS
330
66
102
}
330
66
100
AcDbMLeaderStyle
179
     2
170
     2
171
     1
172
     0
 90
        2
 40
0.0
 41
0.0
173
     1
 91
-1056964608
340
5B
 92
       -2
290
     1
 42
0.09
291
     1
 43
0.36
  3
Standard
 44
0.18
300

342
55
174
     1
178
     6
175
     1
176
     0
 93
-1056964608
 45
0.18
292
     0
297
     0
 46
0.18
 94
-1056964608
 47
1.0
 49
1.0
140
1.0
293
     1
141
0.0
294
     1
177
     0
142
1.0
295
     0
296
     0
143
0.125
271
     0
272
     9
273
     9
298
     1
1001
ACAD_MLEADERVER
1070
     2
  0
MLINESTYLE
  5
60
102
{ACAD_REACTORS
330
5F
102
}
330
5F
100
AcDbMlineStyle
  2
STANDARD
 70
     0
  3

 62
   256
 51
90.0
 52
90.0
 71
     2
 49
0.5
 62
   256
  6
BYLAYER
 49
-0.5
 62
   256
  6
BYLAYER
  0
ACDBPLACEHOLDER
  5
F
102
{ACAD_REACTORS
330
E
102
}
330
E
  0
SCALE
  5
43
102
{ACAD_REACTORS
330
42
102
}
330
42
100
AcDbScale
 70
     0
300
1:1
140
1.0
141
1.0
290
     1
  0
SCALE
  5
44
102
{ACAD_REACTORS
330
42
102
}
330
42
100
AcDbScale
 70
     0
300
1/128" = 1'-0"
140
0.0078125
141
12.0
290
     0
  0
SCALE
  5
45
102
{ACAD_REACTORS
330
42
102
}
330
42
100
AcDbScale
 70
     0
300
1/64" = 1'-0"
140
0.015625
141
12.0
290
     0
  0
SCALE
  5
46
102
{ACAD_REACTORS
330
42
102
}
330
42
100
AcDbScale
 70
     0
300
1/32" = 1'-0"
140
0.03125
141
12.0
290
     0
  0
SCALE
  5
47
102
{ACAD_REACTORS
330
42
102
}
330
42
100
AcDbScale
 70
     0
300
1/16" = 1'-0"
140
0.0625
141
12.0
290
     0
  0
SCALE
  5
48
102
{ACAD_REACTORS
330
42
102
}
330
42
100
AcDbScale
 70
     0
300
3/32" = 1'-0"
140
0.09375
141
12.0
290
     0
  0
SCALE
  5
49
102
{ACAD_REACTORS
330
42
102
}
330
42
100
AcDbScale
 70
     0
300
1/8" = 1'-0"
140
0.125
141
12.0
290
     0
  0
SCALE
  5
4A
102
{ACAD_REACTORS
330
42
102
}
330
42
100
AcDbScale
 70
     0
300
3/16" = 1'-0"
140
0.1875
141
12.0
290
     0
  0
SCALE
  5
4B
102
{ACAD_REACTORS
330
42
102
}
330
42
100
AcDbScale
 70
     0
300
1/4" = 1'-0"
140
0.25
141
12.0
290
     0
  0
SCALE
  5
4C
102
{ACAD_REACTORS
330
42
102
}
330
42
100
AcDbScale
 70
     0
300
3/8" = 1'-0"
140
0.375
141
12.0
290
     0
  0
SCALE
  5
4D
102
{ACAD_REACTORS
330
42
102
}
330
42
100
AcDbScale
 70
     0
300
1/2" = 1'-0"
140
0.5
141
12.0
290
     0
  0
SCALE
  5
4E
102
{ACAD_REACTORS
330
42
102
}
330
42
100
AcDbScale
 70
     0
300
3/4" = 1'-0"
140
0.75
141
12.0
290
     0
  0
SCALE
  5
4F
102
{ACAD_REACTORS
330
42
102
}
330
42
100
AcDbScale
 70
     0
300
1" = 1'-0"
140
1.0
141
12.0
290
     0
  0
SCALE
  5
50
102
{ACAD_REACTORS
330
42
102
}
330
42
100
AcDbScale
 70
     0
300
1-1/2" = 1'-0"
140
1.5
141
12.0
290
     0
  0
SCALE
  5
51
102
{ACAD_REACTORS
330
42
102
}
330
42
100
AcDbScale
 70
     0
300
3" = 1'-0"
140
3.0
141
12.0
290
     0
  0
SCALE
  5
52
102
{ACAD_REACTORS
330
42
102
}
330
42
100
AcDbScale
 70
     0
300
6" = 1'-0"
140
6.0
141
12.0
290
     0
  0
SCALE
  5
53
102
{ACAD_REACTORS
330
42
102
}
330
42
100
AcDbScale
 70
     0
300
1'-0" = 1'-0"
140
12.0
141
12.0
290
     0
  0
ACDBSECTIONVIEWSTYLE
  5
69
102
{ACAD_XDICTIONARY
360
113D
102
}
102
{ACAD_REACTORS
330
68
330
111A
102
}
330
68
100
AcDbModelDocViewStyle
 70
     0
  3
Imperial24
290
     0
100
AcDbSectionViewStyle
 70
     0
 71
     0
 90
       78
 71
     1
340
55
 62
   256
 40
0.24
340
0
340
0
 62
   256
 40
0.24
300
I, O, Q, S, X, Z
 40
0.48
 90
        3
 40
0.18
 90
        1
 71
     2
340
5D
 90
       25
 62
   256
340
5D
 90
       50
 62
   256
 40
0.24
 40
0.0
 40
0.24
 71
     3
340
55
 62
   256
 40
0.24
 90
        1
 40
0.75
 90
        1
300
%<\AcVar ViewType \f "%tc1">% %<\AcVar ViewSectionStartId>%-%<\AcVar ViewSectionEndId>%\PVARIA %<\AcVar ViewScale \f "%sn">%
 71
     4
 62
   256
 62
   257
300
ANSI31
 40
1.0
 90
        0
290
     0
290
     0
 90
        6
 40
0.0
 40
1.570796326794896
 40
0.2617993877991494
 40
1.308996938995747
 40
-0.2617993877991494
 40
1.832595714594044
  0
ACDBSECTIONVIEWSTYLE
  5
DA4
102
{ACAD_XDICTIONARY
360
1189
102
}
102
{ACAD_REACTORS
330
68
330
111B
102
}
330
68
100
AcDbModelDocViewStyle
 70
     0
  3
Metric50
290
     0
100
AcDbSectionViewStyle
 70
     0
 71
     0
 90
      102
 71
     1
340
55
 62
   256
 40
5.0
340
0
340
0
 62
   256
 40
5.0
300
I, O, Q, S, X, Z
 40
10.0
 90
        0
 40
2.5
 90
        0
 71
     2
340
5D
 90
       25
 62
   256
340
5D
 90
       50
 62
   256
 40
5.0
 40
2.5
 40
5.0
 71
     3
340
55
 62
   256
 40
5.0
 90
        0
 40
15.0
 90
        1
300
%<\AcVar ViewSectionStartId>%-%<\AcVar ViewSectionEndId>% (%<\AcVar ViewScale \f "%sn">%)
 71
     4
 62
   256
 62
   257
300
ANSI31
 40
1.0
 90
        0
290
     0
290
     0
 90
        6
 40
0.0
 40
1.570796326794896
 40
0.2617993877991494
 40
1.308996938995747
 40
-0.2617993877991494
 40
1.832595714594044
  0
TABLESTYLE
  5
65
102
{ACAD_XDICTIONARY
360
F0F
102
}
102
{ACAD_REACTORS
330
64
102
}
330
64
100
AcDbTableStyle
280
     0
  3
Standard
 70
     0
 71
     0
 40
0.06
 41
0.06
280
     0
281
     0
  7
Standard
140
0.18
170
     2
 62
     0
 63
     7
283
     0
 90
      512
 91
        0
  1

274
    -2
284
     1
 64
     0
275
    -2
285
     1
 65
     0
276
    -2
286
     1
 66
     0
277
    -2
287
     1
 67
     0
278
    -2
288
     1
 68
     0
279
    -2
289
     1
 69
     0
  7
Standard
140
0.25
170
     5
 62
     0
 63
     7
283
     0
 90
      512
 91
        0
  1

274
    -2
284
     1
 64
     0
275
    -2
285
     1
 65
     0
276
    -2
286
     1
 66
     0
277
    -2
287
     1
 67
     0
278
    -2
288
     1
 68
     0
279
    -2
289
     1
 69
     0
  7
Standard
140
0.18
170
     5
 62
     0
 63
     7
283
     0
 90
      512
 91
        0
  1

274
    -2
284
     1
 64
     0
275
    -2
285
     1
 65
     0
276
    -2
286
     1
 66
     0
277
    -2
287
     1
 67
     0
278
    -2
288
     1
 68
     0
279
    -2
289
     1
 69
     0
  0
VISUALSTYLE
  5
2F
102
{ACAD_REACTORS
330
29
102
}
330
29
100
AcDbVisualStyle
  2

 70
     4
177
     3
291
     0
 70
    58
 90
        0
176
     1
 90
        2
176
     1
 90
        0
176
     1
 90
        0
176
     1
 40
0.6
176
     1
 40
30.0
176
     1
 62
     7
176
     1
 90
        1
176
     1
 90
        4
176
     1
 62
     7
176
     1
 62
   257
176
     1
 90
        1
176
     1
 90
        1
176
     1
 40
1.0
176
     1
 90
        0
176
     1
 62
   257
176
     1
 40
1.0
176
     1
 90
        1
176
     1
 90
        6
176
     1
 90
        2
176
     1
 62
     7
176
     1
 90
        5
176
     1
 90
        0
176
     1
 90
        0
176
     1
290
     0
176
     1
 90
        1
176
     1
 40
0.0
176
     1
 90
        0
176
     1
290
     1
176
     1
290
     1
176
     1
290
     0
176
     1
290
     0
176
     1
290
     0
176
     1
290
     0
176
     1
290
     0
176
     1
290
     0
176
     1
290
     0
176
     1
 90
       50
176
     1
 40
0.0
176
     1
 40
1.0
176
     1
 90
        0
176
     1
 62
    18
420
        0
176
     1
 90
       50
176
     1
 90
        3
176
     1
 62
     5
420
      255
176
     1
290
     0
176
     1
 90
       50
176
     1
 90
       50
176
     1
 90
       50
176
     1
290
     0
176
     1
 90
       50
176
     1
 62
   256
176
     0
 40
1.0
176
     0
 90
        2
176
     1
  1
strokes_ogs.tif
176
     1
290
     0
176
     1
 40
1.0
176
     1
 40
1.0
176
     1
1001
ACAD
1000
AcDbSavedByObjectVersion
1070
     0
  0
VISUALSTYLE
  5
2E
102
{ACAD_REACTORS
330
29
102
}
330
29
100
AcDbVisualStyle
  2

 70
     7
177
     3
291
     1
 70
    58
 90
        1
176
     1
 90
        0
176
     1
 90
        1
176
     1
 90
        0
176
     1
 40
0.6
176
     1
 40
30.0
176
     1
 62
     7
176
     1
 90
        0
176
     1
 90
        4
176
     1
 62
     7
176
     1
 62
   257
176
     1
 90
        1
176
     1
 90
        1
176
     1
 40
1.0
176
     1
 90
        8
176
     1
 62
     7
176
     1
 40
1.0
176
     1
 90
        1
176
     1
 90
        6
176
     1
 90
        2
176
     1
 62
     7
176
     1
 90
        5
176
     1
 90
        0
176
     1
 90
        0
176
     1
290
     0
176
     1
 90
        1
176
     1
 40
0.0
176
     1
 90
        0
176
     1
290
     0
176
     1
290
     1
176
     1
290
     1
176
     1
290
     0
176
     1
290
     0
176
     1
290
     0
176
     1
290
     0
176
     1
290
     0
176
     1
290
     0
176
     1
 90
       50
176
     1
 40
0.0
176
     1
 40
1.0
176
     1
 90
        0
176
     1
 62
    18
420
        0
176
     1
 90
       50
176
     1
 90
        3
176
     1
 62
     5
420
      255
176
     1
290
     0
176
     1
 90
       50
176
     1
 90
       50
176
     1
 90
       50
176
     1
290
     0
176
     1
 90
       50
176
     1
 62
   256
176
     0
 40
1.0
176
     0
 90
        2
176
     1
  1
strokes_ogs.tif
176
     1
290
     0
176
     1
 40
1.0
176
     1
 40
1.0
176
     1
1001
ACAD
1000
AcDbSavedByObjectVersion
1070
     0
  0
VISUALSTYLE
  5
35
102
{ACAD_REACTORS
330
29
102
}
330
29
100
AcDbVisualStyle
  2

 70
    12
177
     3
291
     1
 70
    58
 90
        2
176
     1
 90
        2
176
     1
 90
        0
176
     1
 90
        0
176
     1
 40
0.6
176
     1
 40
30.0
176
     1
 62
     7
176
     1
 90
        1
176
     1
 90
        4
176
     1
 62
     7
176
     1
 62
   257
176
     1
 90
        1
176
     1
 90
        1
176
     1
 40
1.0
176
     1
 90
        8
176
     1
 62
     7
176
     1
 40
1.0
176
     1
 90
        1
176
     1
 90
        6
176
     1
 90
        2
176
     1
 62
     7
176
     1
 90
        5
176
     1
 90
        0
176
     1
 90
        0
176
     1
290
     0
176
     1
 90
        1
176
     1
 40
50.0
176
     1
 90
        0
176
     1
290
     0
176
     1
290
     1
176
     1
290
     1
176
     1
290
     0
176
     1
290
     0
176
     1
290
     0
176
     1
290
     0
176
     1
290
     0
176
     1
290
     0
176
     1
 90
       50
176
     1
 40
0.0
176
     1
 40
1.0
176
     1
 90
        0
176
     1
 62
    18
420
        0
176
     1
 90
       50
176
     1
 90
        3
176
     1
 62
     5
420
      255
176
     1
290
     0
176
     1
 90
       50
176
     1
 90
       50
176
     1
 90
       50
176
     1
290
     0
176
     1
 90
       50
176
     1
 62
   256
176
     0
 40
1.0
176
     0
 90
        2
176
     1
  1
strokes_ogs.tif
176
     1
290
     0
176
     1
 40
1.0
176
     1
 40
1.0
176
     1
1001
ACAD
1000
AcDbSavedByObjectVersion
1070
     0
  0
VISUALSTYLE
  5
39
102
{ACAD_REACTORS
330
29
102
}
330
29
100
AcDbVisualStyle
  2

 70
    16
177
     3
291
     1
 70
    58
 90
        2
176
     1
 90
        2
176
     1
 90
        3
176
     1
 90
        0
176
     1
 40
0.6
176
     1
 40
30.0
176
     1
 62
     8
176
     1
 90
        1
176
     1
 90
        4
176
     1
 62
     7
176
     1
 62
   257
176
     1
 90
        1
176
     1
 90
        1
176
     1
 40
1.0
176
     1
 90
        8
176
     1
 62
     8
176
     1
 40
1.0
176
     1
 90
        1
176
     1
 90
        6
176
     1
 90
        2
176
     1
 62
     7
176
     1
 90
        5
176
     1
 90
        0
176
     1
 90
        0
176
     1
290
     0
176
     1
 90
        1
176
     1
 40
0.0
176
     1
 90
        0
176
     1
290
     0
176
     1
290
     1
176
     1
290
     1
176
     1
290
     0
176
     1
290
     0
176
     1
290
     0
176
     1
290
     0
176
     1
290
     0
176
     1
290
     0
176
     1
 90
       50
176
     1
 40
0.0
176
     1
 40
1.0
176
     1
 90
        0
176
     1
 62
    18
420
        0
176
     1
 90
       50
176
     1
 90
        3
176
     1
 62
     5
420
      255
176
     1
290
     0
176
     1
 90
       50
176
     1
 90
       50
176
     1
 90
       50
176
     1
290
     0
176
     1
 90
       50
176
     1
 62
   256
176
     0
 40
1.0
176
     0
 90
        2
176
     1
  1
strokes_ogs.tif
176
     1
290
     0
176
     1
 40
1.0
176
     1
 40
1.0
176
     1
1001
ACAD
1000
AcDbSavedByObjectVersion
1070
     0
  0
VISUALSTYLE
  5
32
102
{ACAD_REACTORS
330
29
102
}
330
29
100
AcDbVisualStyle
  2

 70
     9
177
     3
291
     0
 70
    58
 90
        3
176
     1
 90
        2
176
     1
 90
        0
176
     1
 90
        0
176
     1
 40
0.6
176
     1
 40
30.0
176
     1
 62
     7
176
     1
 90
        2
176
     1
 90
        2
176
     1
 62
     7
176
     1
 62
   257
176
     1
 90
        1
176
     1
 90
        1
176
     1
 40
179.0
176
     1
 90
        8
176
     1
 62
     7
176
     1
 40
1.0
176
     1
 90
        1
176
     1
 90
        6
176
     1
 90
        2
176
     1
 62
     7
176
     1
 90
        3
176
     1
 90
        0
176
     1
 90
        0
176
     1
290
     0
176
     1
 90
        1
176
     1
 40
0.0
176
     1
 90
        0
176
     1
290
     0
176
     1
290
     1
176
     1
290
     1
176
     1
290
     0
176
     1
290
     0
176
     1
290
     0
176
     1
290
     0
176
     1
290
     0
176
     1
290
     0
176
     1
 90
       50
176
     1
 40
0.0
176
     1
 40
1.0
176
     1
 90
        0
176
     1
 62
    18
420
        0
176
     1
 90
       50
176
     1
 90
        3
176
     1
 62
     5
420
      255
176
     1
290
     0
176
     1
 90
       50
176
     1
 90
       50
176
     1
 90
       50
176
     1
290
     0
176
     1
 90
       50
176
     1
 62
   256
176
     0
 40
1.0
176
     0
 90
        2
176
     1
  1
strokes_ogs.tif
176
     1
290
     0
176
     1
 40
1.0
176
     1
 40
1.0
176
     1
1001
ACAD
1000
AcDbSavedByObjectVersion
1070
     0
  0
VISUALSTYLE
  5
34
102
{ACAD_REACTORS
330
29
102
}
330
29
100
AcDbVisualStyle
  2

 70
    11
177
     3
291
     1
 70
    58
 90
        2
176
     1
 90
        2
176
     1
 90
        0
176
     1
 90
        0
176
     1
 40
0.6
176
     1
 40
30.0
176
     1
 62
     7
176
     1
 90
        1
176
     1
 90
        4
176
     1
 62
     7
176
     1
 62
   257
176
     1
 90
        1
176
     1
 90
        1
176
     1
 40
1.0
176
     1
 90
        8
176
     1
 62
     7
176
     1
 40
1.0
176
     1
 90
        1
176
     1
 90
        6
176
     1
 90
        2
176
     1
 62
     7
176
     1
 90
        5
176
     1
 90
        0
176
     1
 90
        0
176
     1
290
     0
176
     1
 90
        1
176
     1
 40
-50.0
176
     1
 90
        0
176
     1
290
     0
176
     1
290
     1
176
     1
290
     1
176
     1
290
     0
176
     1
290
     0
176
     1
290
     0
176
     1
290
     0
176
     1
290
     0
176
     1
290
     0
176
     1
 90
       50
176
     1
 40
0.0
176
     1
 40
1.0
176
     1
 90
        0
176
     1
 62
    18
420
        0
176
     1
 90
       50
176
     1
 90
        3
176
     1
 62
     5
420
      255
176
     1
290
     0
176
     1
 90
       50
176
     1
 90
       50
176
     1
 90
       50
176
     1
290
     0
176
     1
 90
       50
176
     1
 62
   256
176
     0
 40
1.0
176
     0
 90
        2
176
     1
  1
strokes_ogs.tif
176
     1
290
     0
176
     1
 40
1.0
176
     1
 40
1.0
176
     1
1001
ACAD
1000
AcDbSavedByObjectVersion
1070
     0
  0
VISUALSTYLE
  5
41
102
{ACAD_REACTORS
330
29
102
}
330
29
100
AcDbVisualStyle
  2

 70
    22
177
     3
291
     1
 70
    58
 90
        2
176
     0
 90
        2
176
     0
 90
        0
176
     0
 90
        0
176
     0
 40
0.6
176
     0
 40
30.0
176
     0
 62
     7
176
     0
 90
        1
176
     0
 90
        4
176
     0
 62
     7
176
     0
 62
   257
176
     0
 90
        1
176
     0
 90
        1
176
     0
 40
1.0
176
     0
 90
        8
176
     2
 62
     7
176
     0
 40
1.0
176
     0
 90
        1
176
     0
 90
        6
176
     0
 90
        2
176
     0
 62
     7
176
     0
 90
        5
176
     0
 90
        0
176
     0
 90
        0
176
     0
290
     0
176
     0
 90
        1
176
     0
 40
0.0
176
     0
 90
        0
176
     0
290
     0
176
     0
290
     1
176
     0
290
     1
176
     0
290
     0
176
     0
290
     0
176
     0
290
     0
176
     0
290
     0
176
     0
290
     0
176
     0
290
     0
176
     0
 90
       50
176
     0
 40
0.0
176
     0
 40
1.0
176
     0
 90
        0
176
     0
 62
    18
420
        0
176
     0
 90
       50
176
     0
 90
        3
176
     0
 62
     5
420
      255
176
     0
290
     0
176
     0
 90
       50
176
     0
 90
       50
176
     0
 90
       50
176
     0
290
     0
176
     0
 90
       50
176
     0
 62
   256
176
     0
 40
1.0
176
     0
 90
        2
176
     0
  1
strokes_ogs.tif
176
     0
290
     0
176
     0
 40
1.0
176
     0
 40
1.0
176
     0
1001
ACAD
1000
AcDbSavedByObjectVersion
1070
     0
  0
VISUALSTYLE
  5
38
102
{ACAD_REACTORS
330
29
102
}
330
29
100
AcDbVisualStyle
  2

 70
    15
177
     3
291
     1
 70
    58
 90
        2
176
     1
 90
        2
176
     1
 90
        0
176
     1
 90
        0
176
     1
 40
0.6
176
     1
 40
30.0
176
     1
 62
     7
176
     1
 90
        1
176
     1
 90
        4
176
     1
 62
     7
176
     1
 62
   257
176
     1
 90
        1
176
     1
 90
        1
176
     1
 40
1.0
176
     1
 90
        8
176
     1
 62
     7
176
     1
 40
1.0
176
     1
 90
        1
176
     1
 90
        6
176
     1
 90
        2
176
     1
 62
     7
176
     1
 90
        5
176
     1
 90
        0
176
     1
 90
        0
176
     1
290
     0
176
     1
 90
        1
176
     1
 40
0.0
176
     1
 90
        0
176
     1
290
     0
176
     1
290
     1
176
     1
290
     1
176
     1
290
     0
176
     1
290
     0
176
     1
290
     0
176
     1
290
     0
176
     1
290
     0
176
     1
290
     0
176
     1
 90
       50
176
     1
 40
0.0
176
     1
 40
1.0
176
     1
 90
        0
176
     1
 62
    18
420
        0
176
     1
 90
       50
176
     1
 90
        3
176
     1
 62
     5
420
      255
176
     1
290
     0
176
     1
 90
       50
176
     1
 90
       50
176
     1
 90
       50
176
     1
290
     0
176
     1
 90
       50
176
     1
 62
   256
176
     0
 40
1.0
176
     0
 90
        2
176
     1
  1
strokes_ogs.tif
176
     1
290
     0
176
     1
 40
1.0
176
     1
 40
1.0
176
     1
1001
ACAD
1000
AcDbSavedByObjectVersion
1070
     0
  0
VISUALSTYLE
  5
2A
102
{ACAD_REACTORS
330
29
102
}
330
29
100
AcDbVisualStyle
  2

 70
     0
177
     3
291
     1
 70
    58
 90
        2
176
     1
 90
        1
176
     1
 90
        1
176
     1
 90
        2
176
     1
 40
0.6
176
     1
 40
30.0
176
     1
 62
     7
176
     1
 90
        0
176
     1
 90
        0
176
     1
 62
     7
176
     1
 62
   257
176
     1
 90
        1
176
     1
 90
        1
176
     1
 40
1.0
176
     1
 90
        8
176
     1
 62
     7
176
     1
 40
1.0
176
     1
 90
        1
176
     1
 90
        6
176
     1
 90
        2
176
     1
 62
     7
176
     1
 90
        5
176
     1
 90
        0
176
     1
 90
        0
176
     1
290
     0
176
     1
 90
       13
176
     1
 40
0.0
176
     1
 90
        0
176
     1
290
     0
176
     1
290
     1
176
     1
290
     1
176
     1
290
     0
176
     1
290
     0
176
     1
290
     0
176
     1
290
     0
176
     1
290
     0
176
     1
290
     0
176
     1
 90
       50
176
     1
 40
0.0
176
     1
 40
1.0
176
     1
 90
        0
176
     1
 62
    18
420
        0
176
     1
 90
       50
176
     1
 90
        3
176
     1
 62
     5
420
      255
176
     1
290
     0
176
     1
 90
       50
176
     1
 90
       50
176
     1
 90
       50
176
     1
290
     0
176
     1
 90
       50
176
     1
 62
   256
176
     0
 40
1.0
176
     0
 90
        2
176
     1
  1
strokes_ogs.tif
176
     1
290
     0
176
     1
 40
1.0
176
     1
 40
1.0
176
     1
1001
ACAD
1000
AcDbSavedByObjectVersion
1070
     0
  0
VISUALSTYLE
  5
2B
102
{ACAD_REACTORS
330
29
102
}
330
29
100
AcDbVisualStyle
  2

 70
     1
177
     3
291
     1
 70
    58
 90
        2
176
     1
 90
        1
176
     1
 90
        1
176
     1
 90
        2
176
     1
 40
0.6
176
     1
 40
30.0
176
     1
 62
     7
176
     1
 90
        1
176
     1
 90
        0
176
     1
 62
     7
176
     1
 62
   257
176
     1
 90
        1
176
     1
 90
        1
176
     1
 40
1.0
176
     1
 90
        0
176
     1
 62
   257
176
     1
 40
1.0
176
     1
 90
        1
176
     1
 90
        6
176
     1
 90
        2
176
     1
 62
     7
176
     1
 90
        5
176
     1
 90
        0
176
     1
 90
        0
176
     1
290
     0
176
     1
 90
       13
176
     1
 40
0.0
176
     1
 90
        0
176
     1
290
     0
176
     1
290
     1
176
     1
290
     1
176
     1
290
     0
176
     1
290
     0
176
     1
290
     0
176
     1
290
     0
176
     1
290
     0
176
     1
290
     0
176
     1
 90
       50
176
     1
 40
0.0
176
     1
 40
1.0
176
     1
 90
        0
176
     1
 62
    18
420
        0
176
     1
 90
       50
176
     1
 90
        3
176
     1
 62
     5
420
      255
176
     1
290
     0
176
     1
 90
       50
176
     1
 90
       50
176
     1
 90
       50
176
     1
290
     0
176
     1
 90
       50
176
     1
 62
   256
176
     0
 40
1.0
176
     0
 90
        2
176
     1
  1
strokes_ogs.tif
176
     1
290
     0
176
     1
 40
1.0
176
     1
 40
1.0
176
     1
1001
ACAD
1000
AcDbSavedByObjectVersion
1070
     0
  0
VISUALSTYLE
  5
2C
102
{ACAD_REACTORS
330
29
102
}
330
29
100
AcDbVisualStyle
  2

 70
     2
177
     3
291
     1
 70
    58
 90
        2
176
     1
 90
        2
176
     1
 90
        1
176
     1
 90
        2
176
     1
 40
0.6
176
     1
 40
30.0
176
     1
 62
     7
176
     1
 90
        0
176
     1
 90
        0
176
     1
 62
     7
176
     1
 62
   257
176
     1
 90
        1
176
     1
 90
        1
176
     1
 40
1.0
176
     1
 90
        0
176
     1
 62
     7
176
     1
 40
1.0
176
     1
 90
        1
176
     1
 90
        6
176
     1
 90
        2
176
     1
 62
     7
176
     1
 90
        5
176
     1
 90
        0
176
     1
 90
        0
176
     1
290
     0
176
     1
 90
       13
176
     1
 40
0.0
176
     1
 90
        0
176
     1
290
     0
176
     1
290
     1
176
     1
290
     1
176
     1
290
     0
176
     1
290
     0
176
     1
290
     0
176
     1
290
     0
176
     1
290
     0
176
     1
290
     0
176
     1
 90
       50
176
     1
 40
0.0
176
     1
 40
1.0
176
     1
 90
        0
176
     1
 62
    18
420
        0
176
     1
 90
       50
176
     1
 90
        3
176
     1
 62
     5
420
      255
176
     1
290
     0
176
     1
 90
       50
176
     1
 90
       50
176
     1
 90
       50
176
     1
290
     0
176
     1
 90
       50
176
     1
 62
   256
176
     0
 40
1.0
176
     0
 90
        2
176
     1
  1
strokes_ogs.tif
176
     1
290
     0
176
     1
 40
1.0
176
     1
 40
1.0
176
     1
1001
ACAD
1000
AcDbSavedByObjectVersion
1070
     0
  0
VISUALSTYLE
  5
2D
102
{ACAD_REACTORS
330
29
102
}
330
29
100
AcDbVisualStyle
  2

 70
     3
177
     3
291
     1
 70
    58
 90
        2
176
     1
 90
        2
176
     1
 90
        1
176
     1
 90
        2
176
     1
 40
0.6
176
     1
 40
30.0
176
     1
 62
     7
176
     1
 90
        1
176
     1
 90
        0
176
     1
 62
     7
176
     1
 62
   257
176
     1
 90
        1
176
     1
 90
        1
176
     1
 40
1.0
176
     1
 90
        0
176
     1
 62
   257
176
     1
 40
1.0
176
     1
 90
        1
176
     1
 90
        6
176
     1
 90
        2
176
     1
 62
     7
176
     1
 90
        5
176
     1
 90
        0
176
     1
 90
        0
176
     1
290
     0
176
     1
 90
       13
176
     1
 40
0.0
176
     1
 90
        0
176
     1
290
     0
176
     1
290
     1
176
     1
290
     1
176
     1
290
     0
176
     1
290
     0
176
     1
290
     0
176
     1
290
     0
176
     1
290
     0
176
     1
290
     0
176
     1
 90
       50
176
     1
 40
0.0
176
     1
 40
1.0
176
     1
 90
        0
176
     1
 62
    18
420
        0
176
     1
 90
       50
176
     1
 90
        3
176
     1
 62
     5
420
      255
176
     1
290
     0
176
     1
 90
       50
176
     1
 90
       50
176
     1
 90
       50
176
     1
290
     0
176
     1
 90
       50
176
     1
 62
   256
176
     0
 40
1.0
176
     0
 90
        2
176
     1
  1
strokes_ogs.tif
176
     1
290
     0
176
     1
 40
1.0
176
     1
 40
1.0
176
     1
1001
ACAD
1000
AcDbSavedByObjectVersion
1070
     0
  0
VISUALSTYLE
  5
31
102
{ACAD_REACTORS
330
29
102
}
330
29
100
AcDbVisualStyle
  2

 70
     6
177
     3
291
     0
 70
    58
 90
        1
176
     1
 90
        2
176
     1
 90
        2
176
     1
 90
        0
176
     1
 40
0.6
176
     1
 40
30.0
176
     1
 62
     7
176
     1
 90
        2
176
     1
 90
        2
176
     1
 62
     7
176
     1
 62
   257
176
     1
 90
        2
176
     1
 90
        1
176
     1
 40
40.0
176
     1
 90
        0
176
     1
 62
   257
176
     1
 40
1.0
176
     1
 90
        1
176
     1
 90
        6
176
     1
 90
        2
176
     1
 62
     7
176
     1
 90
        3
176
     1
 90
        0
176
     1
 90
        0
176
     1
290
     0
176
     1
 90
        1
176
     1
 40
0.0
176
     1
 90
        0
176
     1
290
     0
176
     1
290
     1
176
     1
290
     1
176
     1
290
     0
176
     1
290
     0
176
     1
290
     0
176
     1
290
     0
176
     1
290
     0
176
     1
290
     0
176
     1
 90
       50
176
     1
 40
0.0
176
     1
 40
1.0
176
     1
 90
        0
176
     1
 62
    18
420
        0
176
     1
 90
       50
176
     1
 90
        3
176
     1
 62
     5
420
      255
176
     1
290
     0
176
     1
 90
       50
176
     1
 90
       50
176
     1
 90
       50
176
     1
290
     0
176
     1
 90
       50
176
     1
 62
   256
176
     0
 40
1.0
176
     0
 90
        2
176
     1
  1
strokes_ogs.tif
176
     1
290
     0
176
     1
 40
1.0
176
     1
 40
1.0
176
     1
1001
ACAD
1000
AcDbSavedByObjectVersion
1070
     0
  0
VISUALSTYLE
  5
3F
102
{ACAD_REACTORS
330
29
102
}
330
29
100
AcDbVisualStyle
  2

 70
    20
177
     3
291
     1
 70
    58
 90
        2
176
     0
 90
        2
176
     0
 90
        0
176
     0
 90
        0
176
     0
 40
0.6
176
     0
 40
30.0
176
     0
 62
     7
176
     0
 90
        1
176
     0
 90
        4
176
     0
 62
     7
176
     0
 62
   257
176
     0
 90
        1
176
     0
 90
        1
176
     0
 40
1.0
176
     0
 90
       10
176
     2
 62
     7
176
     0
 40
1.0
176
     0
 90
        1
176
     0
 90
        6
176
     0
 90
        2
176
     0
 62
     7
176
     0
 90
        5
176
     0
 90
        0
176
     0
 90
        0
176
     0
290
     0
176
     0
 90
        1
176
     0
 40
0.0
176
     0
 90
        0
176
     0
290
     0
176
     0
290
     1
176
     0
290
     1
176
     0
290
     0
176
     0
290
     0
176
     0
290
     0
176
     0
290
     0
176
     0
290
     0
176
     0
290
     0
176
     0
 90
       50
176
     0
 40
0.0
176
     0
 40
1.0
176
     0
 90
        0
176
     0
 62
    18
420
        0
176
     0
 90
       50
176
     0
 90
        3
176
     0
 62
     5
420
      255
176
     0
290
     0
176
     0
 90
       50
176
     0
 90
       50
176
     0
 90
       50
176
     0
290
     0
176
     0
 90
       50
176
     0
 62
   256
176
     0
 40
1.0
176
     0
 90
        2
176
     0
  1
strokes_ogs.tif
176
     0
290
     0
176
     0
 40
1.0
176
     0
 40
1.0
176
     0
1001
ACAD
1000
AcDbSavedByObjectVersion
1070
     0
  0
VISUALSTYLE
  5
37
102
{ACAD_REACTORS
330
29
102
}
330
29
100
AcDbVisualStyle
  2

 70
    14
177
     3
291
     1
 70
    58
 90
        2
176
     1
 90
        2
176
     1
 90
        0
176
     1
 90
        0
176
     1
 40
0.6
176
     1
 40
30.0
176
     1
 62
     7
176
     1
 90
        1
176
     1
 90
        4
176
     1
 62
     7
176
     1
 62
   257
176
     1
 90
        7
176
     1
 90
        7
176
     1
 40
1.0
176
     1
 90
        8
176
     1
 62
     7
176
     1
 40
1.0
176
     1
 90
        1
176
     1
 90
        6
176
     1
 90
        2
176
     1
 62
     7
176
     1
 90
        5
176
     1
 90
        0
176
     1
 90
        0
176
     1
290
     0
176
     1
 90
        1
176
     1
 40
0.0
176
     1
 90
        0
176
     1
290
     0
176
     1
290
     1
176
     1
290
     1
176
     1
290
     0
176
     1
290
     0
176
     1
290
     0
176
     1
290
     0
176
     1
290
     0
176
     1
290
     0
176
     1
 90
       50
176
     1
 40
0.0
176
     1
 40
1.0
176
     1
 90
        0
176
     1
 62
    18
420
        0
176
     1
 90
       50
176
     1
 90
        3
176
     1
 62
     5
420
      255
176
     1
290
     0
176
     1
 90
       50
176
     1
 90
       50
176
     1
 90
       50
176
     1
290
     0
176
     1
 90
       50
176
     1
 62
   256
176
     0
 40
1.0
176
     0
 90
        2
176
     1
  1
strokes_ogs.tif
176
     1
290
     0
176
     1
 40
1.0
176
     1
 40
1.0
176
     1
1001
ACAD
1000
AcDbSavedByObjectVersion
1070
     0
  0
VISUALSTYLE
  5
40
102
{ACAD_REACTORS
330
29
102
}
330
29
100
AcDbVisualStyle
  2

 70
    21
177
     3
291
     1
 70
    58
 90
        2
176
     0
 90
        2
176
     0
 90
        0
176
     0
 90
        0
176
     0
 40
0.6
176
     0
 40
30.0
176
     0
 62
     7
176
     0
 90
        1
176
     0
 90
        4
176
     0
 62
     7
176
     0
 62
   257
176
     0
 90
        1
176
     0
 90
        1
176
     0
 40
1.0
176
     0
 90
        9
176
     2
 62
     7
176
     0
 40
1.0
176
     0
 90
        1
176
     0
 90
        6
176
     0
 90
        2
176
     0
 62
     7
176
     0
 90
        5
176
     0
 90
        0
176
     0
 90
        0
176
     0
290
     0
176
     0
 90
        1
176
     0
 40
0.0
176
     0
 90
        0
176
     0
290
     0
176
     0
290
     1
176
     0
290
     1
176
     0
290
     0
176
     0
290
     0
176
     0
290
     0
176
     0
290
     0
176
     0
290
     0
176
     0
290
     0
176
     0
 90
       50
176
     0
 40
0.0
176
     0
 40
1.0
176
     0
 90
        0
176
     0
 62
    18
420
        0
176
     0
 90
       50
176
     0
 90
        3
176
     0
 62
     5
420
      255
176
     0
290
     0
176
     0
 90
       50
176
     0
 90
       50
176
     0
 90
       50
176
     0
290
     0
176
     0
 90
       50
176
     0
 62
   256
176
     0
 40
1.0
176
     0
 90
        2
176
     0
  1
strokes_ogs.tif
176
     0
290
     0
176
     0
 40
1.0
176
     0
 40
1.0
176
     0
1001
ACAD
1000
AcDbSavedByObjectVersion
1070
     0
  0
VISUALSTYLE
  5
33
102
{ACAD_REACTORS
330
29
102
}
330
29
100
AcDbVisualStyle
  2

 70
     8
177
     3
291
     0
 70
    58
 90
        2
176
     1
 90
        3
176
     1
 90
        0
176
     1
 90
        2
176
     1
 40
0.6
176
     1
 40
30.0
176
     1
 62
     7
176
     1
 90
        0
176
     1
 90
        0
176
     1
 62
     7
176
     1
 62
   257
176
     1
 90
        1
176
     1
 90
        1
176
     1
 40
1.0
176
     1
 90
        8
176
     1
 62
   257
176
     1
 40
1.0
176
     1
 90
        1
176
     1
 90
        6
176
     1
 90
        2
176
     1
 62
     7
176
     1
 90
        3
176
     1
 90
        0
176
     1
 90
        0
176
     1
290
     0
176
     1
 90
       13
176
     1
 40
0.0
176
     1
 90
        0
176
     1
290
     0
176
     1
290
     1
176
     1
290
     1
176
     1
290
     0
176
     1
290
     0
176
     1
290
     0
176
     1
290
     0
176
     1
290
     0
176
     1
290
     0
176
     1
 90
       50
176
     1
 40
0.0
176
     1
 40
1.0
176
     1
 90
        0
176
     1
 62
    18
420
        0
176
     1
 90
       50
176
     1
 90
        3
176
     1
 62
     5
420
      255
176
     1
290
     0
176
     1
 90
       50
176
     1
 90
       50
176
     1
 90
       50
176
     1
290
     0
176
     1
 90
       50
176
     1
 62
   256
176
     0
 40
1.0
176
     0
 90
        2
176
     1
  1
strokes_ogs.tif
176
     1
290
     0
176
     1
 40
1.0
176
     1
 40
1.0
176
     1
1001
ACAD
1000
AcDbSavedByObjectVersion
1070
     0
  0
VISUALSTYLE
  5
3E
102
{ACAD_REACTORS
330
29
102
}
330
29
100
AcDbVisualStyle
  2

 70
    27
177
     3
291
     0
 70
    58
 90
        2
176
     1
 90
        2
176
     1
 90
        1
176
     1
 90
        2
176
     1
 40
0.6
176
     1
 40
30.0
176
     1
 62
     7
176
     1
 90
        0
176
     1
 90
        4
176
     1
 62
     7
176
     1
 62
   257
176
     1
 90
        1
176
     1
 90
        1
176
     1
 40
1.0
176
     1
 90
        8
176
     1
 62
   257
176
     1
 40
1.0
176
     1
 90
        1
176
     1
 90
        6
176
     1
 90
        2
176
     1
 62
     8
176
     1
 90
        3
176
     1
 90
        0
176
     1
 90
        0
176
     1
290
     0
176
     1
 90
        5
176
     1
 40
0.0
176
     1
 90
        0
176
     1
290
     0
176
     1
290
     1
176
     1
290
     1
176
     1
290
     0
176
     1
290
     0
176
     1
290
     0
176
     1
290
     0
176
     1
290
     0
176
     1
290
     0
176
     1
 90
       50
176
     1
 40
0.0
176
     1
 40
1.0
176
     1
 90
        0
176
     1
 62
    18
420
        0
176
     1
 90
       50
176
     1
 90
        3
176
     1
 62
     5
420
      255
176
     1
290
     0
176
     1
 90
       50
176
     1
 90
       50
176
     1
 90
       50
176
     1
290
     0
176
     1
 90
       50
176
     1
 62
   256
176
     0
 40
1.0
176
     0
 90
        2
176
     1
  1
strokes_ogs.tif
176
     1
290
     0
176
     1
 40
1.0
176
     1
 40
1.0
176
     1
1001
ACAD
1000
AcDbSavedByObjectVersion
1070
     0
  0
VISUALSTYLE
  5
3D
102
{ACAD_REACTORS
330
29
102
}
330
29
100
AcDbVisualStyle
  2

 70
    26
177
     3
291
     0
 70
    58
 90
        2
176
     1
 90
        2
176
     1
 90
        1
176
     1
 90
        2
176
     1
 40
0.6
176
     1
 40
30.0
176
     1
 62
     7
176
     1
 90
        1
176
     1
 90
       10
176
     1
 62
     7
176
     1
 62
   257
176
     1
 90
        2
176
     1
 90
        1
176
     1
 40
1.0
176
     1
 90
        8
176
     1
 62
   257
176
     1
 40
1.0
176
     1
 90
        1
176
     1
 90
        6
176
     1
 90
        2
176
     1
 62
     7
176
     1
 90
        3
176
     1
 90
        0
176
     1
 90
        0
176
     1
290
     0
176
     1
 90
        5
176
     1
 40
0.0
176
     1
 90
        0
176
     1
290
     0
176
     1
290
     1
176
     1
290
     1
176
     1
290
     0
176
     1
290
     0
176
     1
290
     0
176
     1
290
     0
176
     1
290
     0
176
     1
290
     0
176
     1
 90
       50
176
     1
 40
0.0
176
     1
 40
1.0
176
     1
 90
        0
176
     1
 62
    18
420
        0
176
     1
 90
       50
176
     1
 90
        3
176
     1
 62
     5
420
      255
176
     1
290
     0
176
     1
 90
       50
176
     1
 90
       50
176
     1
 90
       50
176
     1
290
     0
176
     1
 90
       50
176
     1
 62
   256
176
     0
 40
1.0
176
     0
 90
        2
176
     1
  1
strokes_ogs.tif
176
     1
290
     0
176
     1
 40
1.0
176
     1
 40
1.0
176
     1
1001
ACAD
1000
AcDbSavedByObjectVersion
1070
     0
  0
VISUALSTYLE
  5
3A
102
{ACAD_REACTORS
330
29
102
}
330
29
100
AcDbVisualStyle
  2

 70
    23
177
     3
291
     0
 70
    58
 90
        2
176
     1
 90
        2
176
     1
 90
        3
176
     1
 90
        0
176
     1
 40
0.6
176
     1
 40
30.0
176
     1
 62
     7
176
     1
 90
        2
176
     1
 90
        2
176
     1
 62
     7
176
     1
 62
     7
176
     1
 90
        1
176
     1
 90
        1
176
     1
 40
40.0
176
     1
 90
        8
176
     1
 62
     7
176
     1
 40
1.0
176
     1
 90
        1
176
     1
 90
        6
176
     1
 90
        2
176
     1
 62
     7
176
     1
 90
        3
176
     1
 90
        0
176
     1
 90
        0
176
     1
290
     0
176
     1
 90
        1
176
     1
 40
0.0
176
     1
 90
        0
176
     1
290
     0
176
     1
290
     1
176
     1
290
     1
176
     1
290
     0
176
     1
290
     0
176
     1
290
     0
176
     1
290
     0
176
     1
290
     0
176
     1
290
     0
176
     1
 90
       50
176
     1
 40
0.0
176
     1
 40
1.0
176
     1
 90
        0
176
     1
 62
    18
420
        0
176
     1
 90
       50
176
     1
 90
        3
176
     1
 62
     5
420
      255
176
     1
290
     0
176
     1
 90
       50
176
     1
 90
       50
176
     1
 90
       50
176
     1
290
     0
176
     1
 90
       50
176
     1
 62
   256
176
     0
 40
1.0
176
     0
 90
        2
176
     1
  1
strokes_ogs.tif
176
     1
290
     0
176
     1
 40
1.0
176
     1
 40
1.0
176
     1
1001
ACAD
1000
AcDbSavedByObjectVersion
1070
     0
  0
VISUALSTYLE
  5
3B
102
{ACAD_REACTORS
330
29
102
}
330
29
100
AcDbVisualStyle
  2

 70
    24
177
     3
291
     0
 70
    58
 90
        1
176
     1
 90
        2
176
     1
 90
        2
176
     1
 90
        0
176
     1
 40
0.6
176
     1
 40
30.0
176
     1
 62
     7
176
     1
 90
        2
176
     1
 90
        2
176
     1
 62
     7
176
     1
 62
     7
176
     1
 90
        1
176
     1
 90
        1
176
     1
 40
40.0
176
     1
 90
       11
176
     1
 62
     7
176
     1
 40
1.0
176
     1
 90
        1
176
     1
 90
        6
176
     1
 90
        2
176
     1
 62
     7
176
     1
 90
        6
176
     1
 90
        0
176
     1
 90
        0
176
     1
290
     0
176
     1
 90
        1
176
     1
 40
0.0
176
     1
 90
        0
176
     1
290
     0
176
     1
290
     1
176
     1
290
     1
176
     1
290
     0
176
     1
290
     0
176
     1
290
     0
176
     1
290
     0
176
     1
290
     0
176
     1
290
     0
176
     1
 90
       50
176
     1
 40
0.0
176
     1
 40
1.0
176
     1
 90
        0
176
     1
 62
    18
420
        0
176
     1
 90
       50
176
     1
 90
        3
176
     1
 62
     5
420
      255
176
     1
290
     0
176
     1
 90
       50
176
     1
 90
       50
176
     1
 90
       50
176
     1
290
     0
176
     1
 90
       50
176
     1
 62
   256
176
     0
 40
1.0
176
     0
 90
        2
176
     1
  1
strokes_ogs.tif
176
     1
290
     0
176
     1
 40
1.0
176
     1
 40
1.0
176
     1
1001
ACAD
1000
AcDbSavedByObjectVersion
1070
     0
  0
VISUALSTYLE
  5
36
102
{ACAD_REACTORS
330
29
102
}
330
29
100
AcDbVisualStyle
  2

 70
    13
177
     3
291
     1
 70
    58
 90
        2
176
     1
 90
        2
176
     1
 90
        0
176
     1
 90
        0
176
     1
 40
0.6
176
     1
 40
30.0
176
     1
 62
     7
176
     1
 90
        1
176
     1
 90
        4
176
     1
 62
     7
176
     1
 62
   257
176
     1
 90
        1
176
     1
 90
        1
176
     1
 40
1.0
176
     1
 90
       12
176
     1
 62
     7
176
     1
 40
1.0
176
     1
 90
        1
176
     1
 90
        6
176
     1
 90
        2
176
     1
 62
     7
176
     1
 90
        5
176
     1
 90
        0
176
     1
 90
        0
176
     1
290
     0
176
     1
 90
        1
176
     1
 40
0.0
176
     1
 90
        0
176
     1
290
     0
176
     1
290
     1
176
     1
290
     1
176
     1
290
     0
176
     1
290
     0
176
     1
290
     0
176
     1
290
     0
176
     1
290
     0
176
     1
290
     0
176
     1
 90
       50
176
     1
 40
0.0
176
     1
 40
1.0
176
     1
 90
        0
176
     1
 62
    18
420
        0
176
     1
 90
       50
176
     1
 90
        3
176
     1
 62
     5
420
      255
176
     1
290
     0
176
     1
 90
       50
176
     1
 90
       50
176
     1
 90
       50
176
     1
290
     0
176
     1
 90
       50
176
     1
 62
   256
176
     0
 40
1.0
176
     0
 90
        2
176
     1
  1
strokes_ogs.tif
176
     1
290
     0
176
     1
 40
1.0
176
     1
 40
1.0
176
     1
1001
ACAD
1000
AcDbSavedByObjectVersion
1070
     0
  0
VISUALSTYLE
  5
30
102
{ACAD_REACTORS
330
29
102
}
330
29
100
AcDbVisualStyle
  2

 70
     5
177
     3
291
     0
 70
    58
 90
        0
176
     1
 90
        2
176
     1
 90
        0
176
     1
 90
        0
176
     1
 40
0.6
176
     1
 40
30.0
176
     1
 62
     7
176
     1
 90
        1
176
     1
 90
        4
176
     1
 62
     7
176
     1
 62
   257
176
     1
 90
        1
176
     1
 90
        1
176
     1
 40
1.0
176
     1
 90
        0
176
     1
 62
   257
176
     1
 40
1.0
176
     1
 90
        1
176
     1
 90
        6
176
     1
 90
        2
176
     1
 62
     7
176
     1
 90
        3
176
     1
 90
        0
176
     1
 90
        0
176
     1
290
     0
176
     1
 90
        1
176
     1
 40
0.0
176
     1
 90
        0
176
     1
290
     0
176
     1
290
     1
176
     1
290
     1
176
     1
290
     0
176
     1
290
     0
176
     1
290
     0
176
     1
290
     0
176
     1
290
     0
176
     1
290
     0
176
     1
 90
       50
176
     1
 40
0.0
176
     1
 40
1.0
176
     1
 90
        0
176
     1
 62
    18
420
        0
176
     1
 90
       50
176
     1
 90
        3
176
     1
 62
     5
420
      255
176
     1
290
     0
176
     1
 90
       50
176
     1
 90
       50
176
     1
 90
       50
176
     1
290
     0
176
     1
 90
       50
176
     1
 62
   256
176
     0
 40
1.0
176
     0
 90
        2
176
     1
  1
strokes_ogs.tif
176
     1
290
     0
176
     1
 40
1.0
176
     1
 40
1.0
176
     1
1001
ACAD
1000
AcDbSavedByObjectVersion
1070
     0
  0
VISUALSTYLE
  5
3C
102
{ACAD_REACTORS
330
29
102
}
330
29
100
AcDbVisualStyle
  2

 70
    25
177
     3
291
     0
 70
    58
 90
        2
176
     1
 90
        2
176
     1
 90
        1
176
     1
 90
        1
176
     1
 40
0.5
176
     1
 40
30.0
176
     1
 62
     7
176
     1
 90
        1
176
     1
 90
        0
176
     1
 62
     7
176
     1
 62
   257
176
     1
 90
        1
176
     1
 90
        1
176
     1
 40
1.0
176
     1
 90
        8
176
     1
 62
     7
176
     1
 40
1.0
176
     1
 90
        1
176
     1
 90
        6
176
     1
 90
        2
176
     1
 62
     7
176
     1
 90
        3
176
     1
 90
        0
176
     1
 90
        0
176
     1
290
     0
176
     1
 90
       13
176
     1
 40
0.0
176
     1
 90
        0
176
     1
290
     0
176
     1
290
     1
176
     1
290
     1
176
     1
290
     0
176
     1
290
     0
176
     1
290
     0
176
     1
290
     0
176
     1
290
     0
176
     1
290
     0
176
     1
 90
       50
176
     1
 40
0.0
176
     1
 40
1.0
176
     1
 90
        0
176
     1
 62
    18
420
        0
176
     1
 90
       50
176
     1
 90
        3
176
     1
 62
     5
420
      255
176
     1
290
     0
176
     1
 90
       50
176
     1
 90
       50
176
     1
 90
       50
176
     1
290
     0
176
     1
 90
       50
176
     1
 62
   256
176
     0
 40
1.0
176
     0
 90
        2
176
     1
  1
strokes_ogs.tif
176
     1
290
     0
176
     1
 40
1.0
176
     1
 40
1.0
176
     1
1001
ACAD
1000
AcDbSavedByObjectVersion
1070
     0
  0
DICTIONARYVAR
  5
DA2
102
{ACAD_REACTORS
330
D9D
102
}
330
D9D
100
DictionaryVariables
280
     0
  1
1:1
  0
DICTIONARYVAR
  5
D9F
102
{ACAD_REACTORS
330
D9D
102
}
330
D9D
100
DictionaryVariables
280
     0
  1
STANDARD
  0
DICTIONARYVAR
  5
D9E
102
{ACAD_REACTORS
330
D9D
102
}
330
D9D
100
DictionaryVariables
280
     0
  1
STANDARD
  0
DICTIONARYVAR
  5
DA0
102
{ACAD_REACTORS
330
D9D
102
}
330
D9D
100
DictionaryVariables
280
     0
  1
Metric50
  0
DICTIONARYVAR
  5
DA1
102
{ACAD_REACTORS
330
D9D
102
}
330
D9D
100
DictionaryVariables
280
     0
  1
Metric50
  0
DICTIONARYVAR
  5
F0D
102
{ACAD_REACTORS
330
D9D
102
}
330
D9D
100
DictionaryVariables
280
     0
  1
1
  0
DICTIONARYVAR
  5
F0C
102
{ACAD_REACTORS
330
D9D
102
}
330
D9D
100
DictionaryVariables
280
     0
  1
1
  0
DICTIONARYVAR
  5
F0B
102
{ACAD_REACTORS
330
D9D
102
}
330
D9D
100
DictionaryVariables
280
     0
  1
0
  0
DICTIONARYVAR
  5
F08
102
{ACAD_REACTORS
330
D9D
102
}
330
D9D
100
DictionaryVariables
280
     0
  1
0
  0
DICTIONARYVAR
  5
F09
102
{ACAD_REACTORS
330
D9D
102
}
330
D9D
100
DictionaryVariables
280
     0
  1
0
  0
DICTIONARYVAR
  5
F07
102
{ACAD_REACTORS
330
D9D
102
}
330
D9D
100
DictionaryVariables
280
     0
  1
2
  0
DICTIONARYVAR
  5
F06
102
{ACAD_REACTORS
330
D9D
102
}
330
D9D
100
DictionaryVariables
280
     0
  1
1
  0
DICTIONARYVAR
  5
F0A
102
{ACAD_REACTORS
330
D9D
102
}
330
D9D
100
DictionaryVariables
280
     0
  1
127
  0
DICTIONARY
  5
EAD
102
{ACAD_REACTORS
330
EA6
102
}
330
EA6
100
AcDbDictionary
281
     1
  0
DICTIONARY
  5
113F
330
6B
100
AcDbDictionary
280
     1
281
     1
  3
ACAD_XREC_ROUNDTRIP
360
1140
  0
DICTIONARY
  5
118B
330
DA5
100
AcDbDictionary
280
     1
281
     1
  3
ACAD_XREC_ROUNDTRIP
360
118C
  0
DICTIONARY
  5
1A
330
19
100
AcDbDictionary
280
     1
281
     1
  3
ACAD_XREC_ROUNDTRIP
360
F5D
  3
BUMPTILE
360
1C
  3
DIFFUSETILE
360
1B
  3
OPACITYTILE
360
1F
  3
REFLECTIONTILE
360
1E
  3
REFRACTIONTILE
360
20
  3
SPECULARTILE
360
1D
  0
DICTIONARY
  5
12
330
11
100
AcDbDictionary
280
     1
281
     1
  3
ACAD_XREC_ROUNDTRIP
360
F5C
  3
BUMPTILE
360
14
  3
DIFFUSETILE
360
13
  3
FBXASSET
360
101
  3
OPACITYTILE
360
17
  3
REFLECTIONTILE
360
16
  3
REFRACTIONTILE
360
18
  3
SPECULARTILE
360
15
  0
DICTIONARY
  5
22
330
21
100
AcDbDictionary
280
     1
281
     1
  3
ACAD_XREC_ROUNDTRIP
360
F5E
  3
BUMPTILE
360
24
  3
DIFFUSETILE
360
23
  3
OPACITYTILE
360
27
  3
REFLECTIONTILE
360
26
  3
REFRACTIONTILE
360
28
  3
SPECULARTILE
360
25
  0
DICTIONARY
  5
113D
330
69
100
AcDbDictionary
280
     1
281
     1
  3
ACAD_XREC_ROUNDTRIP
360
113E
  0
DICTIONARY
  5
1189
330
DA4
100
AcDbDictionary
280
     1
281
     1
  3
ACAD_XREC_ROUNDTRIP
360
118A
  0
DICTIONARY
  5
F0F
330
65
100
AcDbDictionary
280
     1
281
     1
  3
ACAD_ROUNDTRIP_2008_TABLESTYLE_CELLSTYLEMAP
360
113C
  0
XRECORD
  5
1140
102
{ACAD_REACTORS
330
113F
102
}
330
113F
100
AcDbXrecord
280
     1
102
DISPLAYNAME
  1
Imperial24
102
FLAGS
 90
        0
  0
XRECORD
  5
118C
102
{ACAD_REACTORS
330
118B
102
}
330
118B
100
AcDbXrecord
280
     1
102
DISPLAYNAME
  1
Metric50
102
FLAGS
 90
        0
  0
XRECORD
  5
F5D
102
{ACAD_REACTORS
330
1A
102
}
330
1A
100
AcDbXrecord
280
     1
102
MATERIAL
148
0.0
149
0.0
149
0.0
 93
        0
 94
      127
282
     0
 72
     0
 77
     0
171
     0
175
     0
179
     0
273
     0
  0
XRECORD
  5
1C
102
{ACAD_REACTORS
330
1A
102
}
330
1A
100
AcDbXrecord
280
     1
270
     1
271
     1
  0
XRECORD
  5
1B
102
{ACAD_REACTORS
330
1A
102
}
330
1A
100
AcDbXrecord
280
     1
270
     1
271
     1
  0
XRECORD
  5
1F
102
{ACAD_REACTORS
330
1A
102
}
330
1A
100
AcDbXrecord
280
     1
270
     1
271
     1
  0
XRECORD
  5
1E
102
{ACAD_REACTORS
330
1A
102
}
330
1A
100
AcDbXrecord
280
     1
270
     1
271
     1
  0
XRECORD
  5
20
102
{ACAD_REACTORS
330
1A
102
}
330
1A
100
AcDbXrecord
280
     1
270
     1
271
     1
  0
XRECORD
  5
1D
102
{ACAD_REACTORS
330
1A
102
}
330
1A
100
AcDbXrecord
280
     1
270
     1
271
     1
  0
XRECORD
  5
F5C
102
{ACAD_REACTORS
330
12
102
}
330
12
100
AcDbXrecord
280
     1
102
MATERIAL
148
0.0
149
0.0
149
0.0
 93
        0
 94
      127
282
     0
 72
     0
 77
     0
171
     0
175
     0
179
     0
273
     0
  0
XRECORD
  5
14
102
{ACAD_REACTORS
330
12
102
}
330
12
100
AcDbXrecord
280
     1
270
     1
271
     1
  0
XRECORD
  5
13
102
{ACAD_REACTORS
330
12
102
}
330
12
100
AcDbXrecord
280
     1
270
     1
271
     1
  0
XRECORD
  5
101
102
{ACAD_REACTORS
330
12
102
}
330
12
100
AcDbXrecord
280
     1
 70
     1
 90
1959938040
 71
     1
  1
BFCA6BD5-95C9-47CC-B6B7-55A913F8C39E
311
504B03041400060808003D4E6E4800D58323DB000000200100004F00000033314346443439322D454231362D343131422D393139312D3936443646463133344132302F4173736574446174612F446566696E6974696F6E4974657261746F7250726F706572746965732E62696E454E3D4FC33010352CA80303FF803F605C37
311
898BAB22143B75175860634147B8B6919CB48A1D413746FE359CD5204E7A77EFBEDF3763EC6734A2EC8CF045FE92E21A3BEC9BFAB9DE610BEC822AE6F80047EC131D9BE744535AE106061FD3DA63136AF41E3ADC0FE1EA7FF4BA8548F7C0DFA4A509E1AF10D285EDE95B12F071D2F44994C1FB61710F2160BC1399B4AECAF5
311
8CAF8C543C97D2702DB5E45A55CA3999E5E56C2A9E30EC87BEC6208CB3A53255C1756135CFE7D672A3CC9C1745A965E66E6DA65722EE86F6AD83C68BA91825BC1EBAAD7E598AD8B4F80B504B03041400060808003D4E6E4856AAC84D34010000300200004500000033314346443439322D454231362D343131422D39313931
311
2D3936443646463133344132302F4173736574446174612F496E7374616E636550726F706572746965732E62696E75504B4EC330101D3E121B403D425475010B2B4DF3C3526812BB2907E81609B98995564A13944620765DB2EB79D872060EC011BA610D6392B650E8486FE6CDF31BDB9A6700F86C02291C201698CFB0DEC8
311
5C96D378144FE44C745060431E3A6C60136A734A2C9773C21CE612DB0EA9610EAFB849A393EDA01A310D6B10F56C4A6CCB3289E5F40CC2866C400CD7EC7287731A4654BD0997B7CBD78F8B37BFA987282D10EBDE478EB1F2BF7F88AC15404B2975748235DB5371B08E0DD963544FFC701E215FD4FD7B73705AB73B59ED707B
311
B2B964C70590BC047FB45FC2FFA3EA7AB54F152BFF18B3DADA3962F428AA78425829F24426EABF02A690810E5D440A127244895A0C77708F5D8A1E2D173379DDCEC4BCD2E6E24126EDBEA7CFAB729AA77D6F5C14596328A548B422CF9EDAFDAEA78F8B2F504B03041400060808003D4E6E4888E57597CD3F0000904100006B
311
00000033314346443439322D454231362D343131422D393139312D3936443646463133344132302F5265736F75726365732F42464341364244352D393543392D343743432D423642372D3535413931334638433339452F7468756D626E61696C2F302F67656E657269635F706E67355B773CD4FF1FBF73E71C0E67EF7576C9
311
DEF3EC995D46C6A1EC5046649CBDF79E192942562825CE965D8A868C2842C8DE9FDFD1F7E7F138F7078FCF6B3F5FCFD7EBFDFEC41B196891913091804020321D6D7513FC77D8C5070EC3FFEE51B21F068154CC75D455CC028A3EA68992803810109FDDE5D5CEC5521B28A1B422BF80741695D5B529DA1C2D058AD2388BDA9F
311
476F7C2CADC939304173DBF48A452BF8A700C0C70C3D121C1AA15A5270C22E2B9E28763651F7DA0D12CE11077B2ECD0D560B5E3DE2368B1E65C5E1C87384A4CC5F2D9FB8BE39E9B77C753783A37998F5CEF1B4FEE553463245C9712270880DF339E0B882A6BA713D865F6F384C842D440934EF264F4A304F8DE4EEFA1E2BF5
311
E2D91F5ADD9613D6E31DDB33ED31DB1D7916CAF091286EA3D31B9CFECB78BB0060245B943C4C040119FF780A74DD308BA9D028678674EB5504ECF284EE814DAED07440BAF649BE4B55DA2890F4D73E2D489A59EE54FDB0A85B59F2F52C4858A02705C4815A792B0C4A996A2023ECB195073E115E3E3647F64243A8338F2000
311
BCB58DA5692C7E7C3D413F963FEDF3CF00FBB0F831A9D51360FECA43819F527B89FA260EB63C5DA676830AA3626A3693B23F1A17A0DFFCE3EE164E31B5365EDF0C89EF64D8E38AB0BA9A1117D7C3A0EC44F44F4023095E80BA610DE336D0F99593A88BFC5306E72DF98F7FD132ED95878DF2964EA7E43071359FD83B2BDF9C
311
6B5BDF768F0F3C0FC351199526F53D9460A34511F75D1B63E488178569472C91A94497807A3FD4A390C6558F26D416365C3656DE6E769DA9D8FC73774E1709812842DD8EF96AED1960F79D21B395CDDFE6F92CB4EB962A4668C76990E2EF29798C8941D67DA50F4A5F947872460F1F6FDB794E8A29FD7AC0C0D6E0714339CE
311
258FB17AE8535221E3464A10F29A0BE5EEECEFC5675926A89F49EB14E5711894F6586DB5754EB4D5DA9C6437EBA57DB97A24F8B8A8DB295FFD73266CF57E82694DF5166DDF93573AFE9C9C5EB05F8FEF8E89E0A8917B0B3724DB7BEBB53252581EFC3E38166BA131A3A5B42FE2AD00A769BBFA4458D2DE7822F8C4F63D0B8E
311
21B285AE13325F3410A435C648C9D91FDEB109E73CEDA7BC796961AF79175E1A3CE4C5E8B0D009B0C9E29EFD98BC8E97554E3D8D838424E270F7685226E5AC268E021EDE3522D583E8F20C0BDE2959EF5BBFEEDAB32FE9A3ED0E39F211A86AA9DEBFC68182EDED132AB8BB794442D2D7EA9F4D8BFF52BC4D55BB165124EE90
311
A42D101E67BBBB292FFB4F66DE5BF2300E44546757DA7CEF8932BFC9F92A0707953491A55C5A5ACEDABD9FA1AEA01BAC3DC5A24E22E7C47213493996EFBC369D086ED9397C9BA6C7F9855C7BD5E15BFC8C53DB3D2A4C5901A57ACD2FBDF4D1676E95338B2C2BCE65FDA4C64F5FEFDC7D9CA5AA1FCF11E193F2FDABF0F4916B
311
F13FB916A224380E6462A9815F2300DC49CC4DF8D055CEF76462F4B7A7ACA7365C2707891370BC1D0AA6203C44CCAB47084FEC057F27FFCD57F89B8B9852459798A675C66BD7CE572CAF71FF7E6D7ECF7BF62CAB7B3F1107DCD04DC55A3F9961700286141C94A4F771FEB2BCDA2DDEE0CB0BAE402FF1DB0100F8E475DFFFC0
311
74DDB4498AB7D186A7654DDB1CB680D703D47CEB4E72F8CB13D86A4AA68116E26387B93FD6738779B34FEDB8E517EDF2BAF28D9BE93A1D3A164320E07D42E514725C29515FF361754213EDE06B079A2E99EB1CA82A02019EADEEB87B9AF005BD04BBCECB14AACD6B24EFBE482194A97DD32400685FF1FEF1544D1B14EFB1E7
311
F08E6D2CD2AF52DE757F35F5E62332EE88EA26417AD5C3E0E319D68F25414E6D672BD4522B278C57D18F0113921C71D96527E091F00CEB15AE23D24667369BD3CEFA10C7549D930890BA4366F4EBC55F01F746109F98ABCDD5A3EE06619C6AD78AB33E48E4C9BD21BF7478B385EC05C4F8987E2C1BFA0A60EBEDAA0AE0B015
311
C2720ECE180FB6F2DEFBEB822D96338C9B63822183BBF52FB664A7AE57003AABCE512BF77E7E31BDA2E739AC4C131657DDFE5225E900FB56CC01CDE808FA4A9C9DA16AC679656BB64796283D89812B8F91136AE18EE5EBBAF47A73BE3C153EB5D4CD491B4BFB4FE690A4CF9ABA08C0D8AA64220C438C96EA6CA80B58FE5761
311
E697B3A292EB9FBDA502FA863E49FE694ADDFFF9D62C520BDD1A22014147A0903A05B9B729F54272EF83931FEEC057BFF8C8055C279EAC5C0011804828734024F6CFA319C9CC6867C727184465CD9BB7ED386AFFD96B294A85E3802FAE47244602D8273615952B98C4F23F7EAE4463D9D638EEE374A20959E0FE519C4CFB0F
311
BFE5DD80C2AA3F9DB961D1BDE57E67C9BB47B77FDD74EE3094F5DBBE3EBC1FBDB7393F5116263009E2EFE1AF9A221B2AE234C902BF70E9F280ED23E73908361565964333A3F01D0B006AF32FB21AA1316744B489D5A198E85299241735BE559675130955C902A8ED761FC0DBE337A9F91919AF5CE32AF902ADF9AB2615E00E
311
8A94586BA1A90839B61832FF1BFB76D2EFADE6DB1BA04CCAD3DA649E7E2A0219F592E22F2AD54847EEA8E42271011E9074F8F3DD9FBA6CDF88FFC9FC7E811AD1CA8F4557CE4AFC7BBEDCF0114A48689F20A584520C74DA8127124B767E2FB91A6B186246727BE63C9445BAE02088D58B8EFDC0F1072407CD9B89A13F6303B4
311
A928F593AD489B58E6869325790ADC406036C591729FE14021F94B7796BB11848D463536A092A26F077F94639F7CEEE2A724C66EC885F4A24F8B8A0AC321F8FD149BA529460FAA34E4663C02D41FDF80BCA222D42F0ABFF8490F4FA74C673807C2051D8E467B47B616072860069A9A303ABA9B319D58404461401B0A0F9BE5
311
E1E151C14BC33B32ABE03DDE91708DFAEB15E7C0D593C86BB7D7EC17BE56E57975F077BFD5525F3A1A361D584A75E08CF29FC7B44B2B3085014F3A5A14517377C3F6B8F37E59514C3B12F8AACDEDDA4DFC49BE5710101534CD6FB6DE15B50F11A09472AABA727F0C49D9CB906B158030065F48EB3625E010CEC1D511D00534
311
74B11E6A4F01C0D6EF1BED3A944FDEC70E0DDCDC756C86545910E0DAE3BE3AA9A404574C2995CD5CAF9549226BC94B4F4F0F5F9086F418F6B32346464610D8BC7391D3C3A3CCF04CFC1FB2A3A3170E369511868F14EEA4E5E438CC73DB1F3248AA94B6B2FF33B222FF3D1E7BF146CAD229770158063BCE4F5391964DF62F7E
311
52A7BE0EEA829C9E13C4C147D6F93FE59E111DAB5E4594D6F3CD1AD375EE039930EFE5AF2BB2D41C83C7DABD8C659BAFBE8FAB392CA634F3D15C1D945DB4588D2B0824A4EC928AAC565557CA2F0DAA588CA5BE30B3A8004F7BF005E96CBF891D7F18112A3619FDF530DC8AA64954258E1811789B5189B49B4EB53F5F89F7D3
311
7523894F3EB57B373763C91E502F52CC99EB7BDDF933FC324C4FFC2561DFFA7339FAFDD0A4BFBE6D3A8FF9ED1FC49898139864602458968913181918F719CCF5A68B2EE9C1FF050E34E63107003B8120FA982C21B30A874E4F5E4B38D5A8290C4B8D9BE48A0BE31EA995BDC37AC6DE90BA17D259DEF53605D55922FEB1855D
311
915B659FBEB350EE0DFB2F9F766E1C84CC8964B75D08667445EAB966015F63A18A9E0A325C1B3DC628C0D3CB60F767FA93CC65F25458BD23C3B312716E5F40E5858AC06EBA9AB14F95DB99147B832069201541D09A0D856E12C629CF32683760EE855537D1901988D5EBC156676C7DD51D7207CF3267AF1D76C2AD867315E4
311
4618015313A98B19941C696FED3461CAA9B5415F918556D7802EDACEFD6B2E45853A9735DFC9DBF7E440F9319F8B6805A973BCCDC76C069A9144E51F187EDCC12FC31B5DEAAF0A76137199B106EC84ADA6B6EE697D4E6A96E007417F4E880E8B1E89B4BCE9D81EF611E2ED8F0C1A6C25F620FAFAAB656A7C42D464880E8AFA
311
B0E0FC8EA38CA9A8AEEAEE3E4648BA4680270A89743CDD3E6C6CBF34B7B640EFA285ABC7EA0A1E28F3CC963D114A80123EE66D0AF7D5380EB41909B605AB4765B709B808590458157E69BA1378FEC4B48CAF6A730E3BE3C5EF2DD1A5EAF94B1DDE50CEB55DDFD7EE9A16747FA4B223359FB1FCC69E1194892BABB93A1D5C4E
311
807AC0EA2E30180811E77A2291F6E7F7FAA5E0F60215BC6024E48DE436C511F0628B8CA189982D4D83CCA17D305A7E923C37941CFDFDCD93ACAF735EF5F0E61BBD3E6C41A59B242790D3A3BAC7064DCD89AA2E37214EC839820949D5CAA31E240D2948E48F690298974A96BA9A8432BC90F5071D6537C9666EA4564796B7AF
311
FFA548077BEEA75F63083435074BA182F3699557397F71548383FDA8CA34D99B981E72835ECDA5DDDC151315173D05A21F651AAF8524E88209E2E7A737ED1045800CE3390050BCFB8BE588DF111617874C62575039CA588EEFDEFEFE319B739DE2EDC147092A262611E159650E787917885EF08F1F51B8F2D8A71D60B58B19
311
0FEF9541A1BE94BC19FEA50784DA1419FE4B0FB51B8D36B5FF8E1286FD8AF42B91E59A5F1CC4D60174E764045FD8C57B18209B217F89A62252BD20BE0E63E12B8E8F029FE19E0E8D0870F58721A557082250D5424F7909369376E41666C0EE77CD87CB283F661D5FB6D0DA023CB67320A20DC7BE661E9E1BFE5463085C557D
311
A1FF9BE835733766C3D139F2CF9E2208873AD0EB4814DE9E6BF2CAF81614D4D43906ED1C05A3265CABBFE192770FC2F64F940CB6B17B5F166F133C9AEEAD2641807C3E69515171DD74C4A85311513D6EC9530B3B601B6BA3EBFF3B5C3D2F7D69765141E345F75433953D013ADDF8F6AA7DC3F4A7563FE5C7D367937E2900D7
311
EAD0F9FC9A4A1A9B5BDF1FEF08532660C01C5D6DE22199AA774383E306DAB87E301ABB7D213887F9869D4942D0D71E94B27EDF216A318BD488D45DF84529EF575AF3C3938C0AAA0215B01994153E2054A0B894DA5C784980633AAD48576957CF4AEAEAFADC7C587368551C73DBE1E57C58AC713303A8BFC258BD04B5172445
311
9FF9E24C03A81E0E0679CEB9B348C0DC998FEB9C6D6EFA77D247CC8F92D3848599ED89A23218D0636465AD1CEEB7DC140D7426F83491C4E8E8281C2FB35240918FFECE880CA2A42D70E8B20B34DF5221C7DB0CF90ECCB9C745B37A47E9B716FF7A97B7A252C1F3814DC7B1E1A7F72B8751D524EF7CAE45B0C73B3BE7D08ED3
311
9781B380DDFC9AA4A4749C9493DB5BAD07A6EA6C092FBD0E85DB004DF06B8C9D3089C5320187E4CE1846158C7EA7DDAE8AD9AFFF21AA3A1026BB06A259845E8232DEE62811A4DA9CEAB3A4887320B76E2AE5615EAB7BDF738CBDD01F1E64064BC13D9EC53576751CA8CACD58B3CEB0E6CA585BD089B2A59B9FC101403387AA
311
DBDBE70586B93D64BF3AD4453EF9C3B6A93817E8346991798601344F79A83C51F3D50F7BF2683A3605F51A72449489E0EE6169C749C60B1035651103AEE24D24E51A759C840DD3FC6504DA6FE107510E447B43461C79D22970B75DE5E1BD3007D1AFC619A4A4A69B5626AF5E9B8374E20677F77E2F8E73DF868E8BEC7EBA7B
311
6A75EEF7205E1AB9486CB642741D6E03FF13FCCEDB1C4AC129886268B01CDF4B124AF797CF784F3C6DEC97A17D4B558070A0F1C04DA4FF9BDBF34159AEFE958479824B3F58EBD1E19088A2AFDE501B6F2052368A3FD0E650A179EFAB1561E1D27527077136E652676C3670F42DCB3352F48F6BC86D2C3B0051727E41A0A4DC
311
6CE2BE9D47F5CAA2935A3C0539AF080665997194ABECD723B08129CC5B6B21D2E7D54CD4D12610E7E9FB8306771A89576C7A982002775ED44F3F744CF21EEBB27A631671D921938AAEE3EB0D19CD1E083727F607823E817BF599DCED5394E37EEBC2E88782E638920CA641EF74D4CDFCDEF06F4278ECB18E31E7E9876F2D78
311
3C8BF429C75395F57E98C2B495A3DA077EB3AC3C158608B6B57FE3EA48484D9A480096FCEE0DE880950E7E5A5714131C5C41AAA29FD19AE81AC145FA1B9E85C7169A5AB837B213493DF7E9AA4B5FBF9CDEB36EBD21EF1181B7CF7366AB2A951D01E37AF4EB835D1BE8C117CFBE7625D2EBCDB0B20C5A4B45CED0BCDE3EE8DA
311
9DA78C2E21DEAAFFD1197E463C33CC6A80FB785669B856EFF7A8CCCA2841B5A5369173320B1170C368B2748D81062EA0296E5E2D95D7667A4A46D98A6FF475C76AAB0A8C8D45E226FAFC9FE0133EA9F60111F99CA81ACE03A1D14C89E8B0D69079C91464FA1D99E651D0EAF606F345C42A8A1AA9BA391031582B96D5B4176A
311
77AADB01F12FD298A75DEEBB2C82F0B8650E880722F8DDD90C56A7A058E5FDEF1AC93545BA27367C76F5D8F9690CB6F8DAE141EDD7971F0FB548A2AE435F224D6E5954CA155512F7332029D5A1230854B79F258EC5FFDB09F5F6343A8EB193229B7F7E79B3E48F8E183860B38C8269D1B53738FF1E0BACF6AADA6D4869E9DE
311
708E79B5DADCC09B1BC76F649731CFAF59A83FD8BAE4C749D66FA87A3810D4D62FFE826FA400C0F325D2BC0F3CA35F5847B82A2ACC7961745C823E4D863D54460AF792CE6F79B5C7A33B25C3AEA6CDE15A919B6367D781E9D44F61BF828672594A3E1D9EDD6DF179A81F27EAC05B936575D73E05C209DDD2115CFB705DF9BB
311
F3C911589B3640735E9E618FC9C36A7326C82B2205E244C55D56FDB9D5DC93CE958D4BF8174D2B3DA54CB3C09F2C2A6DFF73D23B2197355761AD421EC581284A7EF8DE2CE3497C0C804D49B41DFD6A7360844E5BEFFB495CFCDB97A4595911CDBA623274CE852B5E278AF0BEB1770E9D37CD977B2766A7DED0E94B840E1E95
311
E8C77DE5CB6354AF7871427C28ADBEEF7BA0A28E19DE9ACD75F379FE373EAE6DDDAE3834692F9C2B03B4FCA8FCA9ABE8EEEBEBB725B88A7C90941E850682CA04061A7DF0CE82ED49BFAFFD42C309818FAE14755CAAE78B0F73243ECCCAD7DF58FCB9CDFAE7A4D3E6671A613639130D056C8383C8F4FCF4808C331E544DD26E
311
4755D09EA05253B3049A1E32587CC25D72E073E2CD96D04A71BBCB0038FEC3F53D254199C3CDC67CD66640269431860225392B2CB3ECD0B4498AAE78BA1994246AE1EE78F2EDFB79F6C6CB6B5E279C4D373FBC21CB2698C9ACBBEB6A4BB6B39E16AB0E421CCBFC7654D81ED86022F9BB522146F9F4772E2D0E4FA70120C95A
311
85A417BF5078B232F4754363EB1750B2AC2148EB46B1EA72AD9B4D23ADCBC589D70106C3EC2ABEEED84DFE28E718C6C83502C28E9FDD3B09DA0A6F6F7B72B706A31C9E2A331EE70DA56A083D2177BFD63C55B11D8D949FAFCF90B23A1E24B9B5018B9A17E99F2890EC302F330FE7936E2C23F0D237EC8916F5166AB84B62A2
311
1BB0B950146962D754F92CC2C8877BED8FC7B7B25726DD19545392570B3A2C66B58F027BEF412E552D12A588C4A3CC5C3193FCB3485EFFF700D0B9EEC077754A33DC1FB9E25AF814628F91DDFECB667D3F7690803F38D13F8AE39353523BB08FC6760144AFA2CE28236F65EDBB3D5F59A57D612B99E3D7E5F8A851666BF9B5
311
A6658EFC96EEB37A378ABB0EB3FDDF1303AF32C41BD1C8560745D7BD81066B0D6313359CF488563D3BA3F8E2185D1FAA3EBA1397C9D0E3DD232180A4DCADB6AF25DB3AC3CC26589C8239E66E81547BC7E2F328F9884764CA37EB5DBE390DFC03A5246B456A7C3684C4377D0EEF9A350680FA9A077E8B2957B489E09AB1AD41
311
316944C2254B5984830F691C93CAA767EECF976FA5647538830B5E63236A6F0365C1E0F3E327F24FE35EDDBD7360B0F7374837409F7A6311BECC12B7026D4FA1AE204FA3F5FE904B1F420C7A9044AE58E403E7C4848E7DA25DC9EDAC79DD756FAA26B9EA83ACE8A214A2612A22AFA19DAE7DBAC5F8CDE1292A485F98DAC731
311
A29FE01A3966E96BCB9FB5A4C8830E1B9AF0C54B87FBE221A097036E5D28D1F869F810C06A9BB0AC0612F69AEBAF893C6E7AD59460208BAB3A6B09CA4F6BDDAB8CF0D1F84B72487498395A70DCD754796E271099A567A55CF242BBED64696378BB6CF25EF0FCDB589F3A82F1116D010A9AB9FA4358809EE0C973A2B4229BAA
311
876A70B03AB49CBA7FBE71DB1832FFD32F9BF2C8E98075CACAFB36921235D0F552B6A67E94E094097A5D7DF681B40623DA535ADA7A9AD8E9A62407D7C9A5AE51D62A17A83A23728DE86BB56115804D3F2675F2C6B87541A0FC497BF0CA86420F558C9859EBE9FAD62747E323E3AADC03FDCDDFE7407B09DA90B44E3185723C
311
5381EAEF589765E2F7A099BA46695BAD60CEF3491B8A171F5F56444F7CE9455312C3498C74173AEA0214EC029833B34B650CBB5A5508D5091665309642791708ECF27CF11DB3D797D6CFE474453BD4BFADB768094B2147814D81C7CBAF8228DCAF5564B5891F5EF6A860EB2E323CB82AB868D8EA048880D63B0DE5341F1B3D
311
53297B928A11E15F25E5148990F710747C3509ED14909C552EBE3973246FCE55D00564D8310BC3EBC5085D08D806799B77D6C57FDF5E55837F9E934F09C03C729271B64F12D0A9F9E938107CAF7BF1EC8CF1BB9B42363D33070F4CACB425E605DDB0A34A12BB936DE286B9887A4E2E558F0886498BFF49C311D96C277CF6A9
311
FC0D75AD0ECC5226D7E0E3572012E56D7FDE4410CEC7A6D0F997F225A2055B8B92E3956E875AE4993CB3D4C9063AF98FD45E1BAB165640A43439A2C9181A7C355B297C0A0CCFFAE19B6FA3C2BA238A885FBC98B8F6DAF4B94B97304878DF4D8BFF6A4AEDF79E90ED4E68F00CD7299F4E0D83E35601AF0CBEF18C1E870E7475
311
8FA91F5131075004DB3CFCF09AE1DABC11957FD9808C92E8A678CE9DBE40DDA0E0D1D505AAFBCBA208232BFB6FB3704E8985E61ADE53DE74152F5C7DE74B1DEDCD37DC3E8FB30D7EBA8B9EFFC3606BF90B8D438279CB7709FC7C00D327F41817EEA71CD9E49FE9C8C9A81C70915D9F0F15958EC5AA4C3BBFAF46986B90F188
311
BDB24B89DE3C6F29EC3E6F66D84856EE96A35E657CA41B41EFD8DBFA16AD6E91439EA92B40B21C053249F51AE50EB0B24C770FFAF40DF12C8436366819C48E36547D4E7B72FE2BBF10828583057814A668BDF183F6B2E58DFB151103E56303E63D00F39C27C4661605DB644D19175D02E3F0241E8FC3458D17AAAADB117CE9
311
EEA690D0DB01E634878C04C2C9310B69FCAB831151E3AD293BEF6E46B0ABCECB50F5939B39C613D41E81FAE8D34CAE3C4566B761D37185FE864AC32FCB71AEF39DAA5BAB88609BB980CD2F07A8F941653B529567726E2B2A58D079DD57E1E5E31426CF184A04D7B03B985F276D47406AF276FE32E3328BA866EB1FD39BEF57
311
863A317634AA5FE467409B3873F5069EF0D71AF00AD189D17BA1974ECDB2D623E9E14086386A6AAB5807825C37B015BFE892AFD154920EC437EB945D958E18622E1E0FE2FA06557CE4BB9BBD05A2D40E774DA2B65473791E314B7D6C886820B2FCFE4AA272B3B8B15E7344A145E8AF919B5454D89D36D413E87211186BF6F6
311
45E5EC94DCCE8E1C799022E4EC9BC86D7A0F2AFB1FC4B2CE48F84B3F49ECE65BAD24CADCC07EFF39AB06BE9E6B27A059938EA7208838455383DDBCFCD967DDE4650EF92A14FF933C975DB20BD7FEEBC4487576485963D757D16340D9599FEB362F775F38CA4185A86F74B629C81B133644A3B18FD056E997E0734F9BE26D11
311
C0AAFC669E2AC9FC41D281F8B2E1C35AE27BCE05F3DA295488096688719D974DF1B5D182DB7792288697F8763CFB43562C1CDEE11C4AABD5C22B6E33F6F389CFC3477C5919DC0D533F8A7A1846B7ADB60ABDC26C43D0CFC8910B7C15EE22675BD02702ED39DB77A87A192CA7A543E6205B979B9F5A6B512A3CA799E198B2D5
311
797C0AF8D1D872CA455D4D431A7879D4DD76110B5FF7F4176B54477A9EB5E4A5D11214FDA585F0382751D8E2582BA5D2075053298FEB8F1537304E32CB22C2E2B693DC0A760B1DFCA751BDC445AFDCBB12820ED85F6D5298933C7EF1211E9E057684056CDA3FEF3BB6052355E162DF27C59E965A8DDB7F9437EB72CDDA3A09
311
0DE65A5B2F50326247B7EC67B73ACC7047FC9B353D6EE990F772207C6EC52B39DC2F3C0754821DAB559F7C1809C7D0DD5B0499D0442E0A6E391B3D5DB46D11E731E6794EC77523FBDAA242ED67F9FA1FB684255671F63C9BCFE6E7E896D51001A6113EF2298BA494E0B0980D1FA5B9D60796554C02256B1E0345FB7C6186B6
311
A19D2DCA270416262845FA4F42DB5D9B0A0B6F07FCA2E56C242522E001E0CEB734AF310FC8BFB57E38E03AACE93B3326A2197891E68452B26A6307FDABFEE0223D3C03C3C73D2D5BC054C8311F12004CAE488E5C29287F8156A2CAA4AD0D7BE6B97264E4139F437CE73ADF52E5134C52B819777C18B323A5924E4F67AFD13B
311
1CDC3A61793A79FAF5C0CEB718E441071E797C6DCCB9EFCF7E4A1E9F3DF3C2F9C9E8294E9586868788C972857FB0556D7A26941A7EEB9B580AD78EC40B85DC906B4120A563CA3B87797ED612D3B035962BB75F6515A393F4CB057F564CDF54F2E5A024514E6A1F901DB80C7E70B1FC05E356A7E72FABF4775B3E3FB8F70A2A
311
8E7B6A94542BB304157978CCC999E707A29CC795E67A59CC546A5D47B368954CA7B6E75EC9E1F6FC73CE3B4F71F8CB1A6B15923D61EAAEB14626AAA9D04A26EB9C66CD1BE86CA31A5D8703DE04CD1EBCE4F5CCB62F93909AD11E55799A781A956ED27D3E738F4538CB04ADABC7DAEF20BC35BA6A90BCC1DC61BA05F20D8832
311
FFB9BC9B15E2DB838A0AFBB7E0C82A562127E0446894F427794C3037186F622BF24DE1B00AA10A23BFA47B2A180D6DA5AD6F7326FEB8C100C2D7142EB2A0B2A9D1008A09BA343D70E054AB69E2A7EDB783CBD92537FAF4A44D1296AC2792729104B3276C276C951D0CF3CF3F1E6B017720A7B8505A5FF9589365979678C36F
311
1BAF759EAF57C60F1FF5FE9DCF5F8E764FF25A2D06CF25117A8FED51884C13B2B750DB0E4F5E3D64124FCF11F0AD8F1CC3B3DA4B38ED22BF1CB2585EE6BFEBBA63FBFD44F9537B9B37BDD6B358720F98A8125AED4349CCFEB0E135F19E208A04CA7E2B10711185D72E381F448036EF57C9F874E54A971CA37A639E986AC022
311
6DC5AA00D5B14FEA9192234B3DE617814FC221C92F33F1D392F297731B567FD98FD91D989379AF567A65B8ADF177591DB90FBEA99BF4ED11B16E50A0AB1DBF1156D034BBE04D69D08F939D8E92BF525A1DDAFF80ECBC95D8F45D3FDD289FD23F7D8B452F8EBB34EC082DEEE68E18EDDF072060FAD2AB1504DD4879BF67099F
311
C58F6E9DEFBF645D16334A3E9A127C6F1AF6132CF287E433B43A0EE93812B4AA0B194E03EE3FF91EF9C6ED0074A2F6EB18A96A7C9890B1FCDA1F2095E944DB911ED54C60DF16FB74C8CE9BDC7C54C4F14078CF73C2FFF1F1BBCCD7CF64F71407EA1683DBC410D226627F66E509060D5C0AFD611DE681D509DB8DD12FB1265B
311
03C6F5C55FF4C30BD94187FF692B4F152982502F193098A789526A038AB529A52BC0DC4FB6285CBAC10A8B8DB75DCD9BDABBB221E27D1F8DA9F5EE5926A1C8AA9BA9BC09239C6A7F12914EA3B59EFF7AAEC3FFCCE56F1C5C2980AD072793527565E774F4631DB178CEEC691B1F367BEA0CF2907E1D6B854D527065979DDEF0
311
02D8B2ACEA7CE21AE297737EDE1D45B31233B73FEA35BCFDD0B09721FDBAF6432681F2FD10C3E9EFB246FD6E854B344ACC9D8A0EEF876A7314B49B6A499FC650B099D650DBFEC7638ADFD245E2B7839DA5AC5F7D5623FC0ECEEC8653FC9B2BDD1AD4D00A566FBA7186DD3C9CD26512551637498CADB950FEC71ADB9A552428
311
5DE328B8EC7EC75D2345AEC6A27C42AF6D9B92155315C80DBFCABBB7DA0FAE425C4FB896B15C9BFAC4FE67DF5A23D30C93DA4D8F36FB15D100050DA6062E22AEC5F4DAC4F6FEEF97AE05DE63C6D38F9E068A20BC5E3B6BCD75320C5090924E7F93640A7735B1A43451C2D91EE62C6238B797349E59890AF3A520DF4A87095F
311
3ABEC2E61F0593416CE46CDCBE0E00E2523FCCD04408588B5B6C9DB6459C786CE378770B54F51DA3A5E1DF2A3349BEAAC234A6CF8993B598B3B25B4B113E353A4D750FA7534749430F3EBF2512E7EA3FD43C6AB9A1F765A58463B306721A15D224FAFE8C6F5E3432D57EE697DA0DD5A9D4866A8BCCAAA9DFF1F06047851408
311
FEC060471D0E3EB86BFAF46E4B5E60311DC3E3CEA147C75CF971BE74689507154FF2D2E92F15CDB2B9182B11459FD8ACAC5A85F174BC94A7F4EE4C4F5CAFA7C02E37BF0BC77B7DCD0C047BC316F562A01A441AFA7931CC84A28CB9F4AA367EB515778F29BFE61195FA671F4352E5E46E3A64773F1F76EE5EB36D7BCE9BCEAD
311
837A4D77F8DB8C92AEEF6711920D7C7D0F76B0FD0EB7AB83724CD35BCA7D36DDDF5FBB7FF6F04A91F3E2BB3B8F1A43CD659639507FF6331C5F697BCC782AE57D757A27D97F1AB9E0AEDB43F92F1B2AACDF5FEC8ADBAF9F814E2027003BA2F9E144B1938A7A04050AE5D953B82C45619165C813A10E76DD6906B3C16438064D
311
14CDA713AEC420034613E1AC7241904A49FBF87409AFB1FCB9B72FE7933A87D8FBEDACECE4EDCF6A4FE9FB94D5DEB74FAB7CFEAE17EE965DF980DCCA2D04134994F9A2E94D2265DA4FE6AA7B7AC15FACAC2B5ABBCD7DFF542C5314FDAB2E1B9D8B65220B8E2B638BE008E8DCA22678C820C5053664D15E89F2D735B51A8495
311
5E81A443545E9FF787BE0FA700A76D136C27DA179A7C6E8939E01BE756E19CB292798063D8B97F44E8A27BCF3A614FEB8BE974A718E86F7EC99B53CA35FA24F61F2B07266684623A3D4CF073E511F3A10A8FDAFAF0078C577F4DF9D339FE7862E5FA47CF4344209E5BF76D783B1B48E152AD281B15FCB934DCDA49CEC5706B
311
1EE8B460F435324A5CAD154725E21AB8044B75A557A79F6C807B9340AA3D92503E866F4274412926C8C504E4D5EF8C0E68DD0B028781A6B4054F11CF18941F101C57CCC796773ABC8DED9CD91FE5788806C05E548895354AEAC96546D55B0E94A59F148D061F42AA398D822CDECA4CDE79E13469BDCC44FDC990F366BA5978
311
C15F97ED80CBFD73B0CD9B8B83A4F6845BDFBFAF034019473FB9A63BD55D3A4A7284757071574029A4D016DCCBE95DD679EF3C4880BF169422F8C89B68A988D2B13793CAED4F74DE7486C72DC94DF46B8E93D8E02EFCB1FF9B3BA10C8AE7F653DF94F4AF466CDDCEF5776687F7C4C14B63E4EED1719DC2EC482D7DBCC7AE51
311
8CDE3D5FF86D39000EC3673C0044E1D308BF05F74D1B5F033A7D1BE7F74BC55BBE3E4A20F920946CA0271EB17BD2B80E5660ACB8A29A79F5E4BBA49D4D945B6EEF4A7EFEAA65E5555BBB57A7E15D2F83C69F30BBB978D2B39F1F26FC097424D39BB33CA3D87ABF64E307938B685BAD44F71556A30B7E712CA4FE600613C3E5
311
54B69ADE949A7CFE214DF1FFF05CB82151EC6FC31950239F94CF7AD39DC473F6EA356E5EC2C4EFA04383CEFE985A127484366FBEE3C0EC4FEA363E4F6632AE781392FD45D67B63FB8DF70E82734F431FD3443172A0E30A83D60982D55FA6A2CF86DBA8382502ACC6CDEF3B907982EED1160E14863FA242F9757347E1544275
311
CCDCF71ECD5F8621CBEA326B8BA884AD7F825781923E66971F04010D574C541D8427A438A37EEF8AF88240EED7362C953F5A81DE2D56109CDE2524EA0F5D2F87308C0C47BD97AD605878AB8589E17CA83930CB5E0DCCD75853D68B1AB136594926DE426C367428E9334AFAFF90ECE221BB5DC9E5BB53D2CDEF954EAA9CD814
311
F0E5725F1965DD458E5F8487683AD86B9D0076BE3EE91EB1CECC5331A67A3F79D8B27587C12EC2A6A70474749F27B4C0BBAFB94B34189E88DC18964BE4121B9137FD516C7755356E50D6714E31ACD222621EBBCD1CFF81D87479056A9DA0E0B8EA19D24CF937DA89F78E8650CCBDC110AAB6C4E46DCBFD0446BA9E2060E81F
311
314AC2031E88135E5476AC0160EF5C0DD2EEF1B8B5CB2D198BE9A554A9093B5F7D7E4B5407DDFCA1D9C152FD97F55BFFFDFE802954DFEC8995B983E28AC92F1971E28F531DC407A1280EB125F64A72E617EFB27DFBCEDCDA2D6F2BDADA36873EE46B9BE1782998C63DA7182BC383FB6FD15DA472B175D7E8B4FC88F38D6E07
311
FEAA3FA3CBB8F6B449ECF14D2175E5C5CCA3A42ABF24CA6C9395AF74535F4DDB38CB84F56614B0FD32D7E19CA5CF988DB4449C40E23DF2B16772594554579094450F56F253CD25EA7F77366FB1CFE79696C428BB64D5A41E986189427E5E4D7E2DAE3D5BB4972B3DC44EAABDDDD63A2264ECFA5C786EB0EE1FDC5BE34FA0F0
311
8376869FD1E61EA06CAE15191135445EE8F0394161C3266A596AA035572BB0C8876180D8B9C77D307DF9DCDF7365ABDA6F3A2366436457A4DFC1F259666569A9E4A79C817BDD5610E5200FCE894A358EC72858D50EF67545DA81C6FACE3D457BAF70367E1E6BDD9A952FB4F56247F58F523B97E640246051A72F79BE42FFA0
311
B3187F63097F91C48B868586F714B0EBD5A00A8412C1236E1298F60C72BE6C96B82B404CADAA304AE9F303176B14BA53FBC2D5E86377E35542019E24D97B96A49B2C0E5006E7795954DEAF5DA58958839043C6C70BD3B1B33B6DC5C31316D8A6923F142E26F6711A2258AF977DDF1F970ECC4F1F2B434B96D81BEB6E89BF3B
311
BB3C7C8CC80505070723D6D7D7D3C8CA27CA164A26024FED94B12A86031867241DA53D929636DA600F050BC40CE48B8BA03D69224720DEE2ED2127390BDF5E6EA64527BBD4C4C63FA76BB801FEEC0E61218EC98A8A86CD8313781617877E66692839B9468CF4DB8E50A73986E558E309C0D6F676F921BE02F1185454DC75B1
311
11572FF9D27D85EA14C05AD7271225B391C4275659CA4A43759D0BA44639BE4C30A84DB7F67A41399FB95CBF923B1B1672ABC807C1590557FB18D811983FA97F5E609516D62281D38B1281F68FC75528C35E4CD7DF0F7DBB5E5DD69C414EBEA2F4A5B241B996BA77AE6C772E367408C633EA3E438B68563EA8BE7667F3A4C4
311
FDEEA52ABD78A2820F443B7914A15F180018D231E64519C56A12F6CA7C8DAE18F06F6B769DBF92329EF6A5D18FBCE600F36BD8E8198DE5CDAA96181F3A756EBA5501CEE58F497EA4F418A2B82565B9BCC611713C0B708CCA1F398B78C5F7D03B3437CC18F13061F55C7BEDADD5ACB1DB0E36D3CE47FF6EA1A563A57E9649EA
311
5D14D1A50EAA457463381C073777EF1600607BAF6428A7DDC079D47A204EF1E1F1F0589FB054D45E02CE623B3823C317C601E589E22B1E88B448524B86A82828E32345EC18AE17214B42F8C41C6D428016D9BA31DDCB47572561E5A402E5BA4FCE55F78AF7268524AA04130F3A20BA5D1E9F9948EA48FC8F5314FDB35E2189
311
8198060034ACE5E3E2BBCA34092518F275190AF65F45867FF0900AA4B81F25427414C372BF51DC29AA855C5428EE1EEDD6B849AD60F6E73475C2D2523F8A2772C840A478DED18A8C5C91B085F255DC4F54EA7AA8947354FD17ECF8FB3B4A0DE7B483CAF3A1165EE05BBA413E5C1FEF3DE1D6B8F2F3F3251C17D9FCAB48A9AA
311
F63AC773A0E413BBC46A9ADF84A566FC920E4D8C52C9769EE3301CADEEEDD92B312E02E2A7E35B7F1E7D203FE5A7D75578B06E99D0E46FFADB8FDA17ED8880390DA29094202D6F645F76F6F96409CDA05495A96E84B04A00D1A6C6C81D7F3DE9376E828CCF144EE50E364ACCE7237EA0BFB5607ED1AC3CFE73794E5B61739D
311
14DF1743441B1AC98F00ECEDE9E7301FA29755FBEFA68C91EF2B314CF510537EF1ABFC9A762496280B546F5EDAAF8A5B387D469FC9A878A92828C88608453ACEC6094DCA54111E7AD5B2663DFE2DD151B7F123B9F4FEF8EE36AB125FD7AD52A59B1B765B3E3F73E3F73DEA93875004D2AFFE3CDE9493B87A9904DD05202894
311
9041A91DC0E1BA47BA714343FD5B25E0A6A09503AFC17C790058A836A324FE31D7893512E28230332F153181C1E018E1124EBE1BA262AA428A518237D1EA7275E48C5C561BD19ED6912EDD8367DA0F31E40EEAE9683DA9257525AEA7B632B97119E17145A90231768A4F3B9120FF32E8319B015E3CBE26F1A754177D818534
311
5817C096B0CE443A955D13AC15E1FB5DEEA0239EC32A3C92241A237B0B02FFCB4F93CF2B02570C8D192E2F2A68CEEB42F12E6F8CEEFF46C251E22B4341C56FB08CCE550E7A9D6F4D6564B9EA52A83D5BF2C6E03FA19D2775E15A8A7ACF30A13C259EE7F5EF2AC3BA354F1500E1A07FC63FB4686E2F12EC69719F9ECF5FE3F3
311
5598DF2CE944008CE78F0911BA5BE5D0A34E0098FF038669C26030BA9B300303039852A8F6F496341737CA7E0D2E3AAA36DE0A70AA7D9CA0D54D9AD84B18A44C9E625475E1C97B93BEBB38DCE7D227E67A2D00F531436136355F243D1FC0D712C5765754FA22FCFFAE97919161F46D6E61ACB37D83777B385889770B50765B
311
127768443A5C4D3A4E35A3151111F146B7CA116F918A049F1C272F2CD7976C69A0068773451659A97E0F4A08FE604C3FF6CE7385DB19F4D3ABC8A0D80DA8A42096AC377DB49382B36E270B6FA7570188B4B7D1DDDDA82ACA487CCA5D38BD3BD039ADBAFA4ACFF27809239B722081E2EB9F145320553D183F28471C388BC881
311
4E5045676767AB58A8E72D1CED2CA731379515D2E533E4CF0B39DFC625F97AC4836831A4DE330E87A8126FA17EBE583D614E71E22A8DBF2825599743E0640037303E8E1B1E8EA4E1ABFA4F62907B5E4E0E5DCFDAB417C36C6848A2B8D15F1E505434C0707E16B1CFC2A1C36A42BBF55734F8F4301DDC2A5110CEE8C0747F69
311
519265012A2174BF4E955ECD4FDE095A3ABC70536B7AD0B9D7892F81287D667C108703C9B66A221E9A0929D030008F77FF6F5D2108EF5706FC87A3069B976F7C9FC3239D13D283CDEA83597461079FEEE049B0F392889898B7D87D31F8D60ED7B56B91823A8E4EDDB36C6172ECEE42BD42B12CD67994FA0F0DFAE9389356F4
311
CD4425A4B8AA55CBF7ECD585C6A2C2316791E43D5C06841ADBB226A87FD61515FFBB0167B74E56BD7F3E90A57A97FEDCBDF483A0D6699A8C0849CAEB4947FAA90D8E332D9DEBD9F4738C37DA0CAF9CF3DAA68BCB67C420459C7A64498D6E848E5CADE92BB6901F607AA331104A67F7CD650EE169B1DAE94D2C31C2F9936322
311
59B6957E246EFE4C5481107B07118607700040E5812A2A2A38DA0076875258C753F60E0F2662C748EDD5F3F3686B8FC3BD6FE631ECCAA1E8B1C1E565AD117E54893E79F4672E32F9E46B2A183DFDCF3EECB4D4D077DBEA0DA254D256045109670050129E9B9B1A9E4A11344D61497A992778095151510C4BB7EF2009B63AA4
311
360635312E4CF668B7E0D3D85A8688E2BD83B569439892ADB63461930D428E0DE42E4AC57CE48DA5CC1449530D8BD3D6A0F08DF20C8E8F570F2CFFFCEA286E30969B4654D498A58D9DA782E19FE3F002181838925592C4A1EF0B332D88B61A92C644547BED490D3A42CFFAB70E36D961F694F6307F72FF15A1C79D5B1B5CEF
311
D353D9E2B52566DEC8F8F09CB3E8359C0F68EBBB7898243E34E12A015B2685AB303C04D3A9E00671FF3DFF0A184E4A2ABEB2B666AF5B3A209C73D8EF29DCDB069C9F391EEE9DD0F74C7BCDE16F8F02E3B8816122BBEB50665775B600549D8BB33A54A6BF940C028118BC6878C79958D6784F9DEAA6E26748386FFAF8D0D010
311
1E2847B6563F5D8DC1D78F787BE00E2C941AE12148D4A81599FE8F68D4DA5CDED75530ADE138240300EE13B0FC13A1687FED6774662C05A2B7DFB186732F0D7A93545D8B0A6390AE5054D9CB582DA846D7A061B3358B45E2B52DDE63E114397EDB7E09233A579155D795BE76102CF277F4DF8B188C4F2879BEAE3C08347124
311
BF9ED23B128259FE107D31E34A652F090B30B39E0D9AF917B76A2806135621A8A60681F16AF216514BBD02711585B5B1AE823F4B2D0369EA5B6BCB863072727FFC871CA6C9AB79A814D989057E9470A3D238BC87CBB4A0EA49AFE2B86F22E499793CAA9047080450166BDC357524561E258C77CB697F1ABB32562CF87C3B7A
311
A12F911EF19FB3E5C02222E887D08202A60A17151F5E053A86B437771088B4FEE14D652C43E8D939995D34545E12E2FF93D4E366EAD25F10CB7DED141563C3D0C447AF06078A91135FD4B9611583CB4BF3BD167F2399CEAB0E0100F8FFC305F00F1711717173138B4B48C83022295DE657EFEDD97F238ECA80F528AFB4F8D6
311
7AD4E2594B9A3AA86D7487EFC313BA95745C186F0CDD84CC12DC9CB0424B42203D351FD9C0A3AF10CC7F388E0329279087386421F194F4A29464C1DEF7EF8BE515E4A199DCD5B909342598D8FE6A231F71336248D5CEC5454455C7BE383B3BC7B260FED27F703FDC39A170F3827239102F59D4DEE7FEF82EAA1A5E4BA94DCC
311
4CC44E7E2EDE20F24244E4454369D2E87C3F823F193FD4FD27E1C23984B01898D15ABC20711A8A558054951A6AE280096BA36CBA439603B7B0B4C45F248C14B2383B4B5CD8ECECE4FF859AD4A6CA2326D020EF090F4041D28DB66E5256B56232CC52829DE8060BAE6BBF37D4B7469B822454FE93210A3E8D15E69FFCF01123
311
222611C51C4FD0A041A0CFA2471CF6BE38D2B20FA4C3525B5B8B586759475CF80ADFE67A284AC24651E52B8E683D24C2622642F27E7C3C22783BCF63648BC398BD6CD0D9C97E7E7E3EACB6126DB7A6C1FD9F1031302EE67ED96F22B77C7CA0239BB324207559B105E4693EB26EC46182A92C9C0DBD24F29B31C5C5AC1F8430
311
0E0E17CEEAC15F5736FA4A98971E2F1423BFCD68D4BBD5F86E74B40A369F39507C88FCDB35D2DD8DEBEA4AF999E23CF2816D204200DF6E611781B9884C1AC8888B4DE397320472959434323A5A36B22A8E1F721A270DF3BD65E4A31C11FF048AFB0D8B7B6881423793963A23CFCE935FC189ED36FAE35C46DA3574C979E439
311
4BE52084F3081837BE033396D2EBD80F1F691B273F660D2B32FA27A33B1DE4ADA5F0FA4651511102DFA410DDA86E065272CA314D5249DF91B06BB92807B28EFD54F08F7B525252782CD276DD02E6B0319B13DF87B1F6361AD6B28FC0D711CF445429B9E5A433CD493051C49A9E03DDB1B147D880253514A5DED88009018620
311
EE229101C041950E2D8AA8E1F5F5438E0C0C0C60EEDEE9E3E0C051948C69F84BB7B2A48A1F3C8EB9E6864687F4F4F6F6E2FA87608ADAF9C5E117B7C1A737E710769DA1D15ECE6A84502AA855398712D5FB51BE92E4EF824969CE18278798AC303C2C7980DD2500ADF8FB1E6D6C2FAAFF9987178923334A244758BAA01A9A1B
311
70FA5097D01E1CC2A58DAD0EC94CE6430AA9B0C10D75E3C6BAC670EFBADEE1607739CE0FC18A2587E3EC3058562014C64219C69BC269082D5C2F4A659278D585755912176D78A1B641719C2A394CED495A1AC5D583FD2F5EDD93308EA7EAE8A6DD396598BDBD3D4CFED62D18A5BDFDE0DD5C80D1A89BA62697B131AE7CE9A6
311
594138582F1B37D68F1749AC7CB67A70695D48A4A056AC1FBD4E82358CEAE38F54B95A9016F9000F9879C0D9D131768635CA798895F27D6F1614F11F2838A83611AA51C9A3DDB539D42979C29F10465655C17BEC3E2760B80DCBF609198C7B171A531905F3EC218D696025975E986C6B4C666666787271F202805577DD5A3E
311
F0CAFAF91B62DC4B2DB4217A7606282F31D8DDBC290593BAA93EA6353AFA9939B877978481E15CFC9F2755CDC00C538F63A4BA3E80AE009B73CA0185687D339A507D165B74290D6EE46D5C58148F020C3668ABE9EF2F7549170DC80DB41FFC1D678FF19AEB10C7133832B104B80F691B3138F97A92D26E551F1F110400D45A
311
C71A9B9AC41A1A1B1DAEED0B0810638EFFB511D46B121C6FEA0F38CD00E03CFFEB9713FE1F9C263E4DDEC160D0497FA9A132BA608584057FB15380825DE6C7FC3C667EE947D488A09898D8E939C4953BF4EC9836344D2CC6B2971B2A21A572B06096F4982D2CC7232D46E8EA69DC83722E267754D777F97F96D5DA74E1E751
311
78084D0E70F12AD33E5F71EF2AFA599B2BEBF60A5BE475F444F240CBFE8143C334E7ED9150FEEFEF7EB020C4DBED388DD1D6A167A76F3CBF119B578AE8CFA7736ACAFA4440A1C47185638A0D2F3EB5BDDEFDA958FB13CE4AA4923D5BF840392D45544329525749734866684BF7F8D9D54D892E19BCA9F829A0F8BFCBEEA6CF
311
DFC61D74EA1A645ED7A1FF241739F15694BD835B66FEC5677E40FE69BD3F91AE402F036537218A401CB0828604AD189E575015C6F3F6BBC8AC79CF6C70653847254B31551EFCBEB5978B9DB85D58D0FA41A9DFE9C624834AA04949D24B5AE6D299E072D152D12097920F14AA92C31C3B97E28B6C2E6E9C23D63043ECBBC0A6
311
0FDF5BD0C33C127EA8A3308B8B6AFFEB28B4455BF6E7AF4FC6222728357EB8E46E85053E6A8843AB23295BF838ABDA94658FEF3F832F147046B4ACD6F7D48E8FCC9618582961C898D1C7A253C91BFECBDA6BA18A1FCF70755DCCEE2222F41B76D23CA98D0CB3D95F0CF66D57FFF65E2A90F5DF40FC3187621E981BD0BC1D99
311
2787212688976B94A8F0C6EF646624B570B78E068826F87CE27041A95C9A4871FF65CC17FCB1639629AD6A9517000D63AC231F3D741CB8430777E7ECF80CE7A3F73C0F162F7E56AA71F4DA80A33CD6ACEE78E2C11FAC03DAFCE929B106F8F6B3ED2DC71FF994BD9CEF4E9A94896EF1B6E2B7B4978168BCF0847A3D2A4F1B05
311
00B926E634B174548E9FBAD27153FB5FC36799B1E6C7C38A94E1F9E996796D7B485E635D5287A2AE76FBD11A341DB3F8F810385BB7296391973DC6C37C452A9305AEBBE0CDB6C566DB59FE60C8E94B1FD090354BF51439FFD1B48D725228FFA88C84F686F547107A7A235665A4593B7C34D748C1AC8D56DD5DA861EEFBADDE
311
CBBD65117E65851F90351AEB65F0EFCFF4BCFEF24CB7A5879699FAC437A7AF9099186CF006BB923A59E37D7A36A29FD8D2CBB914A5E9D0A8FD212FBF796AE9A67958FF1D5D8B85F78F96219D4714EB919929241B6C018AAE0C02069F8D919961EC5DDFBFB7573E3AC8E08BFB7C8534BE6DE045B3CD63DBD71F7638BA2309CA
311
E398EA3A7D8F98BBBC7AEB367EFA5CFA27A9F8F2F52FE878058E6209C026453F8E7E8A237DFC389E9590F6059B397CFD65183BBF936E86896612A5B5FEE49DAC8455D026218AFEBEC12B3523A45B57B82C9C97E02ACFA1184DB18E48CF615DBF39C3CC6F0B4AE6BBEEA2E39D944E290302FA3DE33FA7E40296E2EF7BF1CD85
311
5BBECFAD0FD622BEE9746FC4FDFDE545AE6E3BC234CADF83A0FB76DFB145BF3828AE3436368AC24989454F8FF70A177672C711CAA1A76107218CF948CA01F873520E7A2B118EBB161ABAD432932029628B6761590C98AB590C8C8C79798CE9F715BA696E839E9131A4BB68BE923F1747FBFF165331FFDD4D05997ACD168F12
311
CA75348DAC04C7F509FE83898A8B421181AF492861CE81E4A2DD0A30850CFA95E05F097FF70F9E777310D584A75BA7018922E271DAB1D785671157685B7D383D3E074DDB4F1E44EF04B07BAAC75A062077C54B9752C738C9D804D402E02851F3F89605AF189738C18C021D2139EAF72513824E10DDD3047BACC8521ED7E98B
311
257D1166903B1B08FA6F918FD7E162913FEC7D0EF4787E29C35FBA8C6E2C9C20E9AB30AE42CA2A01A090E7D010C1B5BF9CEE2A304BF3A987FB40D836979B79E18D70F257DA61E808472DD85B82761825779D6B90CAEB0F23360C6F80A7D7D77545E95B3DFF0CF96A827F9B5BCECD2C9698718417EF80FEEDEE938AFF55859D
311
0D540B7FE09435583A6F04874A0C7E8CF234DF4879722000167F5872CEC6BF3EF7E5A8CC8121E6A359227C8A29C95212F9F735BC72A887D56B8F309FC525BFB4FD767AAEC4AEFF249CFBBD2DE1AB9969A6155C7D8DABC307E47324C1F916C7BCFF40ABA5644E9FFB9238D19ADADA49D9610F01ABBA57E4DFCBDCCBB2B93C89
311
53206C91DE01B0E2651A6D6C31721915B31F7B7CBCE55466F6D70402788FA91D73BE4ADCBA99A35F17D6B83383704917D6833F0FA3CD45C926ADB8BC17999A4A0AFBCE2541F7B8CF4C2F5FBA611B3E626D64407CB32C122DFF4EF8674D6EDBB86C8F7C6A16D50FA685E2CCA34F8F7D1D8265BB0042E9D7F1F666F7BE5FAA51
311
84DF58E12122A42EF02F461B3F369AC746F96528AD208512AB56844CF75B97F352DF7995024FB02855385854F3798670D01CAC771AC3E1889EC25F61A20C1F8CAB46898817F9C47E2CDA1F286BF2F358298709FE567C91133E2638C8B53975E753EA8BFD3578B5F7186B7BF084EBA3F77BAC3132A5779902EC22AF2D2E79F4
311
2D324E083386DAEE9810D1B44A5DAA54513C7A71E52A4AB9257D975B621308FE4D2141CC3DCFE946C154A3C1DFCCA7629EC69ACFA831634ADDA93C0388D2A9A2DDAFCF957C6995BCE7FBB6DC4EBAE79E63EB08E9A25F52F67076F7093CA545CA3053B5BF576DEAD4E0017143C5F759F32B2D6F145B52B67B48909B7C7FCA65
311
86EE385A2189C16932CB6DDFD9152AE317C430492A578ED27B72D85D40C7C93C097939E1B50F4D67F05334FE9DC362C30B7FF561B95259138ECFD9274C8D695C31B14D4EAA9F3D7FA8DDF652F8C5DEFA23284C799B7D94416DEE81E05A866302DC70192A5368EA65E1CED8BF107A1E2D3119A71E85DC1A7B0C1E93274CE04D
311
D0F2ABC8AC7C987FDB002B6F81757B43502EF7A0D92E416494FAEEA4C9C090CD9557AA4D532F4996A272B94355C5A0E4974EEA9627476F30809B94D8D8D860062E02204643BEC7D0438AF800FC7E2B26955D595421E83C69E1A07E0E3122285835F014AD538188CF9737CE76D464A353FA55A001AB2526B84E985083693BC7
311
6FE211CA1D000679C889E3C009832C87E1AC2EDD05C302557422DF0800E316FCAC86978A371F025A6C7DAA9F333E7BD160403A1A06EA75AA9888FF01504B03041400060808003D4E6E487D09B9F3790100005E0600003D00000033314346443439322D454231362D343131422D393139312D3936443646463133344132302F
311
536368656D61732F436F6D6D6F6E536368656D612E786D6CC595D16A83301486EFFB14E20B94B15B2DB42B6C42D9458BBB3F9AD32E2C2692448B6FBF18ADCBA22D0E847927497EBFF39FFFC468AB14EA53FE89056C56817DA234D90735B0387C11452178B71A6E56D1DAACFCEC3A1E024AE2704B6AE03912B38667CAA9A682
311
874159658CE6717806A6300C2402119C3571A86565DEAD7C27793C0C92272D29BF74AA2DD78166C9FEB6396090A181B2C4DD4A8BD49D9992D881C29EDDC7210369A2518216720F1AC6709EF84E0886C02DE01B2504C785CE50EE2C69D97BBD013EE11A2F28AD7E47FE8152CDF6F3D91ADA8B0CA269DFA765FB9326EF509846
311
7A7D7E5C3E13791B2B3F029ECB694589B5A02FFED590FFF1434EBC8CD86085932F68F3A59B725CC2FDA87A9C8E5A0EA6714236234C604C5C8B8A695A32345415AA5BFD4B58E5201054B9A4E5E4F42DFCA92F6CAE42927F2CD606894F05D0EFDEBCC8393EDA03B382314FDA9D6989359D1C679BD7A787E3AB3FAB22E340D972
311
B63B53E25CC22E707DE7FAB9C71BAD7FFD4FBE01504B03041400060808003D4E6E48317D3058AB040000AB1500003E00000033314346443439322D454231362D343131422D393139312D3936443646463133344132302F536368656D61732F47656E65726963536368656D612E786D6CDD586D4FE33810FECEAFB0F27D4BE1
311
8ED5AD4491DA4570FD807A82E5B3E53A6EEB3B3B891CA7D0FBF537633B6ED27437A170D26A2B21F232F1BC3DCFCCD8D7D3B214F6896F84663767C4FDAE9FE7B764CBD424B917993092FBD7C9CDD9F539BC8A6233560A2FF728B254980766419AA986388A4479BB2B82BC0E92AC2804332CE3C22D8E0251BA9244A693649A6E
311
F17D0A8AC54A66D2CA3C4B48512D95E49364C554291262044BF34CED26893515DC3BE3C19CF23C7850FFDFAF367AD5CA29AD64542975A184169965A8C5A99FB71E3DE03BF5C8762758E0BF9D6BB61651775BE1703B16F74F2758005FBD5BF35F466CA57839417BF8F26BAE72D36746C8FDC7E4FC791ED535723DCB7325984F
311
32479BE87247F3E5DF82DB809F802DC59602A8E0EC26B31D59781924435823E6ADB9E6DA5387B29CA6C232A9CAB0AC476858F51918E457BE33B9260BBB1186D43C2A1D3E0F95DCA99C5987CDA60A595A47230FFDDF1312143CB057725BBF449BDDE77D1623C51C87DA3198EAA504069005E7AA2A9188C7A230CFAC58831BC8
311
DE868925432AD551B8F81C4D7C0A2F6ECE42FD21E47A9657595A9242188E945B8B48759971E3385ACA7FE1E945423454055DE9497219AF65096268E216447CC0357B0D5257A03ADC75E5BC43A83CC6E83C38141F1C4BF392F17F568C0BCA2BA58E066F1624C857943816B86E6697952E28D3100C0025532A7FE17996014445
311
CAB06E9793043C5DABBAE48D47975F0E7E31CC53BFCCBBA3FCE9623C1E0F8A7410F4811F16EA363A3D339A387201D1AC18108DC7490266028AEFEB8B597D3175B8090C99418C5D3A9CB698E46E327865F3CAD2BC605C5AE80003F201E8ACCB87FBD833BACFC954AE5615B6B55E0DE8E3E8B78BABE867BC415FE34DCB5FE7E6
311
2087831D5462CFA22B96D630DBBBE5DA19B9C3573DC0F22CFC017B0762EA8DDC6DC7BA9BD4B5CA4BA09028A130F5861B630AB10E29BDDF7F3AACB0CA926A6805C7CBC39F72BD51F0678F57FD6345D5889582E652D84D283810C260DB23BC823281530C76806F064A13B975A23D790A15FFDD89BAC47CBE85FA8755F67B1E7B
311
B7A84BDC8E1E74156801DD08B844EDC887F5998148BDFCE39D11E8A215338EFE6FA1005166E93815EB61B8EDC405977055A08F21873ABF7CBCD2EFA4DAB4C0FD695F75165B618C4C05019803B21DCC3F08DCA8250C14DD8E55031A468DFF09DDC19B21E8AE1DFFA5D05DFB2F613FF91AAADAC5E8AA45EB20D3D7700614B2D1
311
7858B6A1E6BFA9940DA054EDA885DD6FA92A9872F98EBE086C006F2434D4F6B8425F4C7E8A267C6C7C3638EFF3DCC07143495D1FA6387D0803D33FAD4F0BEABD437B53325370F8405EA4DD9CB87D6AE9362C95D5C059605F53D17AD8C739F30715D552A815954A559A72B7F9B442C36687D9CAD443D6E72B1CB3EBF11185C8
311
B7865077E4E84ECB0D2D2BA9E0700642590C80178C95400C3F3AFB0B1827FD456B94BC738BFA0DAC73BB6F846E1804AECBACB165DDFBFA04B121738C0D08B8E39EAEAFDDD6E8885430000C1F369BEF153A06D59FF68C473F05837EECFD2F34AF3F5903DB5B7792A072CE54C634D0A3E7F0CF49D6DB7E00713CC67410F54BC6
311
6DDEA1063C823C41C3B47D9079A0A439DFE83C6EA31AA734F81051DE1A82AFCF5B87B3FF01504B03041400060808003D4E6E4879B77F2750010000C20300004500000033314346443439322D454231362D343131422D393139312D3936443646463133344132302F536368656D61732F52656E6465724D6174657269616C53
311
6368656D612E786D6CAD93516BC23010C7DFFD14211F602A636FADA00E445036DAB95739D39B0DA489A451F1DBAFB9A4B5E2C660D8B7CBFDEF77C9DDBFC9B4AED1E5A2C40A2603465FB259BEB213A89467A80BB46B706825A8A0E29341326C149D7A063506F9DC5495D13D994F75BA4DB662B248F9B23A28AC503B70D2E805
311
EA062E383B1C774A8A947F81AA91338B5018AD2E2977F6D8C4749FD03B5BFDC15C7BB8CAE0F250EADB227F28EFDDE249E2F99FCC7969A4401AA8A0B16FF3122C165B5A689C57CCD494E14CC10E9BAD7AA1D4FB669871E18C2501F709EA78C36C2B69FAA31B0216B48D5E61BB95DF71B2B1D3C17B4ABB78C371C75CF672DE62
311
3F80DBC3B6513237CAD8FE0C3EA4765BE14F899FA57CF4F43C7EA160D10F66FD609AF2EB3D3C821138BCCFC3BA8633631482BE6BE9CC7EAF5A974607C7697B1E91626DC7CA9DDF02A1EA333851DE39E1EAF9A00DA5C9F0E69FFD06504B03041400060808003D4E6E481CB7F04C510000005700000047000000333143464434
311
39322D454231362D343131422D393139312D3936443646463133344132302F4173736574446174612F41737365745461626C654F66436F6E74656E74732E62696E536160607072737634737231D5B53475B6D435317776D675327332D7353575B4343476B37036B6741502AACB4D2C492DCA4CCC492C28484D2C4ACC4B4E05
311
0A82012F90744FCD03CA26072767A4E6260200504B03041400060808003D4E6E48F865834058000000680000004500000033314346443439322D454231362D343131422D393139312D3936443646463133344132302F4173736574446174612F53747265616D56657273696F6E5461626C652E696E66558CBD0A80300C06F7
311
3E4B117FB66E451741D041DC5BF98480A492E4FDD18EAEC7DD4555D89EF28DF51A0B1BD8340C4DE7DD848B988C0ACF0649566493F2408C508DDEBB99D5129FF8F1AF8CF5B9503E20FAE5A16B5AF702504B03041400060808003D4E6E486907D596350100009A0400003600000033314346443439322D454231362D34313142
311
2D393139312D3936443646463133344132302F4173736574446174612F636E782E786D6CCD94314FC3301085FF4AE43D760205D1CA718560E904121503DBD5B914AB8E1DD91704FF1EBBCD002A62EA90F5FCEEFCFCC9EFE4FAB3B7C5078668BC6B58CD2B56A0D3BE356EDFB091BAF28E156B2583F7F443C60A073D362C9799
311
92FBE0C7612AB5D8C16873D51A77988AF731226D6167F1A97BF08ED0516485B61063C3A27EC71E388CE45B8C07DE0201AF79C0E8C7A0314D22D3E334490704C296A9ABAABE2DABEBB25E6CABE56AB15CDD2CDFA4C84A2577DEDB496FD265C10F853EDDCA5425453E56720C66D2E4B730F59747BE334E8AA4543252484CA60E
311
FA1A52070C83351A28A1135E1352994408BD1427B1922233F845E2113BE34C6ED92463403E3C277B18C8E0EC88FCE7F5F264362E12388DF3E571EEF0F2145E8E3FE8F514C86362E696937387DCB8EE022911C735924293B78AFA06504B03041400060808003D4E6E4820F2BB3FE40000005E01000067000000333143464434
311
39322D454231362D343131422D393139312D3936443646463133344132302F5265736F75726365732F42464341364244352D393543392D343743432D423642372D3535413931334638433339452F7468756D626E61696C2F302F636E782E786D6C4D90C16EC4200C447F05714F48DA6DD5AC1CF6277AEAA5A2C49BA2251881
311
A9DABF2FB41CF6646BE6C9F20C5CBE0F2FBE3065476195F3384981C1D2E6C2BECAC2D7E1458A8B8644C4779814C11CB8CA264B0D7BA212BBB4E1D514DF54EFC2AD8B3B064CCEBEC7B04B61BDC97995D97EE26146539836CCB771336CC6794C98A9248BF500BB03FB019BD0306E523F4CF3F3303D0EF3E9755ACEA7E5FCB4BC
311
816AA4860F22DF791718134561A92EA17E33816AB686925C675A04A9EF5E03554D0D99534DDF21FE891532317A670DD7921459461E2A84E600F50F6B502D6D1D7F55D4D99AD1BF504B03041400060808003D4E6E48A233C2345D000000800000006500000033314346443439322D454231362D343131422D393139312D3936
311
443646463133344132302F5265736F75726365732F42464341364244352D393543392D343743432D423642372D3535413931334638433339452F7468756D626E61696C2F636E782E786D6C4D8B490E80201004BF42E6EE76F3C0F216234B883063108CCF170C074F95AE5473F5C4C06E932E4F28601967600677D21E9D8092
311
EDB002539227A2FCCB80E1168D80A6417297A89C5D6963B7129A0D1E8F2EE73AA7B62BBEB8B27DE50B504B03041400060808003D4E6E48BE89762363000000880000005B00000033314346443439322D454231362D343131422D393139312D3936443646463133344132302F5265736F75726365732F42464341364244352D
311
393543392D343743432D423642372D3535413931334638433339452F636E782E786D6C4DCC3B0E80201004D0AB90EDFD75167CCE820A4A845D83603CBE602CAC26799919AEEEE0D965E2E908050C6D0FCCE04C8BC355404EB6198129C92351FAD580A10E464065907C8D948F8F166375F655BDC3FDC3B4E530A176BE7057BD
311
C43B2A593FE403504B03041400060808003D4E6E481EFDE41A7E000000A30000003600000033314346443439322D454231362D343131422D393139312D3936443646463133344132302F5265736F75726365732F636E782E786D6C4D8CD10A832018465F45FE7BDBA2AC0435D2ADF7886521990E97638F3F1D5DECEA83C377
311
0EEB3FBB456F1D5EC63B0E657105A4DDC3CFC6AD1CE2B1E00E502F58F0FEF8BB0172D3AE39640C82ADC1C7E78966BD4CD1666A8DDB4E28473534F24630258AE2BA550ACB46B698908196D5D8A98ADE9371C94A9A5F2F6DCE8B2F504B03041400060808003D4E6E484F48C6D3090100004F0300003400000033314346443439
311
322D454231362D343131422D393139312D3936443646463133344132302F536368656D61732F636E782E786D6CCD93BD4E042114855F65423F30A3AB71360C5B5858D9A8951DC2DD952C7027FC187D7B61A4D84DECB4D80E0E5FC839870BDF7D3ADB7D408806FD4C463A900EBC426DFC612639EDFB3BD2ED040F88E904239D
311
970E66526522F821605E9AA4612FB3ADAA35FED8C47B740EFDB37A072749A7AC8C712671DD5299136A8847AA659274A40122E6A0A0DC908C8376830A20136822AE86F1B61FAEFB71F3324CDBCDB4BD995E39ABA4E06F88B6F1C62708B8740ACBC2173B0367F558F01C4C636A06224EBDD1D2066785103CA6503A6864FA5A0A
311
2997C51A2553A98AADE00F2338AB51CF023F808760D465263E33F76F919FC06B088FE5958291F63293FFE6F16F05B075F6CB08D4AF20BE01504B03041400060808003D4E6E48E3603EBE7A000000C20000002C00000033314346443439322D454231362D343131422D393139312D3936443646463133344132302F636E782E
311
786D6C6DCD410EC2201085E1AB90D9DBEACE05D09878023D01A1D34A8419C380F1F82DA68B9AB8FDFEC93C3D7C52546FCC12980C9CBA232824CF63A0D9402DD3E10C6AB03A3397DD192872090D3406ABE7CCF5B5D18893ABB1690CF4DCF02282E5EA8A5BB96FFE536F285CB347F95BEFFE81C9ED5AFF9D5B1FB575BB00504B
311
03041400060808003D4E6E487616763A7E000000A300000007000000636E782E786D6C4D8CD10A832018465F45FE7BB7FE129960C65AF33D6259C84CC3E5D8E34F4717BBFAE0F09D23BBCFEAC8DBC4970DBE053C55408C7F84C9FAA585B4CFF402A4533286B0FFDD80F871352D140C4A2E31A4ED409399C7E40A75D63F0FD8
311
E04D0F4CD4F4DE23A70CB1A7020552C107AE3536EC5A57D9381725CFAF97B7E4D517504B03041400060808003D4E6E48CA1DF9C9A900000073010000130000005B436F6E74656E745F54797065735D2E786D6CA590410EC2300C04BF12E5DEBA70400835E500FC800F84E0B411AD13252E2ABF27A55740421CEDDDD9B55CEF
311
A7A117778CC979527255565220197F75D42A39B22DB652EC9BFAFC089844F65252B2630E3B80643A1C742A7D40CA8AF571D09CC7D842D0E6A65B8475556DC07862242E78CE904D7D44ABC79EC569CAEBA537E3521C16DF5CA5A40EA17746733E0B6615DE7217475F386F18B9481C510F1F021CD9FF027EA0E1F5C4E609504B
311
03041400060808003D4E6E483DEE336E64000000790000001B0000006175746F6465736B2D64657369676E2D7061636B6167652E786D6C35CBC10E83200C00D05F21DCA56CA76D41FC96062B120735B69A7DBE268BB7777961F8D5AF396893C2ADB70FE7ADA196782C2DF776D7A97B5933C430F15651E5469C55D70F80A499
311
2A3ADC954792C525AE70A1E4D6AD9816CC044FEFDF01FE3FDE907802504B03041400060808003D4E6E48C0FEC13FF9000000960100003700000033314346443439322D454231362D343131422D393139312D3936443646463133344132302F4173736574446174612F636F72652E786D6C8550CB6E833010FC15B477F33424
311
44C611A8F0053DF566D90EB1126C84EDAA9F5F3B50A93DF5B4ABD999D9DD21D7AFE5997CCACD2AA33B28D21C12A9B9114ACF1D7877436748AE946CC6B85F3448345B640711064AE6CDF8F580B8D14EEA886A23E401326BA583843F43D381E577B9B094791718F691AE8C3FD82CD322DD799478AFC4215522B8A99B921BD066
311
1ACE351E0734F4A701E1B1E8D150F518E1064F383F8D75554E248B624A9C5A7EB6F34D322705D0322F1A9457A8C0EF797BC1EDA56E3F4816999458B7859F8FA5F13BA07DBCFA8D3946B27DFAC7D5AFE27F57AFB4ABCAC3755758A04538F235A0248B2985F28A30D49828FD06504B03041400060808003D4E6E483ED017F0F4
311
0000008E0100006800000033314346443439322D454231362D343131422D393139312D3936443646463133344132302F5265736F75726365732F42464341364244352D393543392D343743432D423642372D3535413931334638433339452F7468756D626E61696C2F302F636F72652E786D6C8550CB6E84300CFC15E47B80
311
40601F0A5981045FD0536F51C8D2689704E551F5F39B2C546A4F3DD91ACF8CEDA1B7AFF5997D4AEB94D11DE0BC844C6A6166A5970E82BFA333643746AD31FE170D32CD57D9418281D1C59AB01D9030DA4B9D506D667980DC39E92113CFD874E0C4875C79CE838F0CF7C8372E1E7C9139CE771EA321A8F990AA39BAA9BB9216
311
583B0DE7868C031AFAD380C8887B34D43D41A42513294F635357132D929851AFD69FEDC24AEEE50CAC2A718BCA1A61F2565EAEE4726D2EEFB4484C469DB7F1E76369FA0E58498B1DFDE316B6F97FB7A0B4AFABC36D573860381EF71A305AA474627945176B4A927D03504B03041400060808003D4E6E48A030F03DFA000000
311
960100006600000033314346443439322D454231362D343131422D393139312D3936443646463133344132302F5265736F75726365732F42464341364244352D393543392D343743432D423642372D3535413931334638433339452F7468756D626E61696C2F636F72652E786D6C8550CB6E84300CFC15E47B8040601F0A59
311
81045FD0536F2964D96821417954FDFC260B95DA534FB6C633637BE8ED6B5D924F61ACD4AA019CE6900835EA49AAB901EFEEE80CC98D51A3B5FB458344F155341061607436DA6F07346AE5848AA8D29338406EAD70908C4B681AB0E343AC3CE5DE05867DA61B1F9F7C16294E771EA3DECBE990CA29B8C9BB1406583D74E78A
311
F41DEADA5387488F5BD4952D41A42603C94F7D551603CDA2985127D79FEDA311DC89095891E31AE525C2E42DBF5CC9E55A5DDE6916998C5A67C2CFC7D2F81D30F7F0EB87E272A1D93EFDE3EAB7E97F572F952B8BC375575860381CF91A309AC594427945186A4C947D03504B03041400060808003D4E6E48EA907E700E0100
311
00B10100005C00000033314346443439322D454231362D343131422D393139312D3936443646463133344132302F5265736F75726365732F42464341364244352D393543392D343743432D423642372D3535413931334638433339452F636F72652E786D6C8590D16E832018855FC5708F4A052D0DD288D327D8D5EE88524B
311
5AA11158F6F883D625DBD5AE7E7238878FFFB0F3D77ACF3ED5E6B4352D4079093265263B6BB3B420F80B3C82ECCCD966ADFF65039991AB6A41920167CB66C36397266BBC3249357656BB289D531E64D33D1E5AE0A6AB5A652E838F0E77CB1F72BAC945E5287FF9380B41CF7B54CFF1357DD16A03BC1EC591E04140D13502E2
311
017550541D86B8C6232E9B815487911529CC99D7EB0F7DDA94F46A06FC50A21A961544F8BDA4274C4F847EB0223939737E8B3BEFD0B41DE062ECBB5ABC1148494F216EFA1E8A5A3490908EA26A3CF6151D58F10AFE0186C7FC3F3068E3ABC30E7C251CE028FEFF79C159910A8CE3D96E9CA96CFE0D504B0304140006080800
311
3D4E6E4854A2A662FA000000960100003700000033314346443439322D454231362D343131422D393139312D3936443646463133344132302F5265736F75726365732F636F72652E786D6C8550496EC3300CFC8AC1BBBC2A8B0359810DC40F287AEA4D901947482C195A8A3EBF52E202EDA92712C3992139ECFCB53CB24FB4
311
4E19DD41959790A19666527AEE20F82B394276E6CC1AE37FD120D362C10E120C9CCDD6847583A4D11E7542B59970038573E821938FD874E0E40D17918BE023C3DDF355C8BB9831AFF2178FB310D4B449D514DDD455A105BE1F87E38E5E0632F48781D04BD593A1E929A17B3AD2F270D935F5C88A24E6CCABE567BBB4283C4E
311
C0EBB2DA93B221157D2FDB136D4FBBF6831589C999F336FEBC2D4DDF017F43678295E858F19AFE710DEBF4BF6B50DA37F5E6FA5238E0553CF239E0AC4829C5F28C30D69428FF06504B03041400060808003D4E6E484BA0E450F7000000940100003500000033314346443439322D454231362D343131422D393139312D3936
311
443646463133344132302F536368656D61732F636F72652E786D6C8550CB6E84300CFC15E47B8040601F0A5981043FD09E7A8B20CB46BB24288FAA9FDF04A8D49E7AB2359E19DB436F5FCB2BF914C64AAD1AC0690E8950A39EA49A1BF0EE8ECE90DC18355ABB5F3448145F440311064667A3FD7A40A3564EA8882A3D8903E4
311
D60A07C9F80A4D03767C8885A7DCBBC0B0CF74E5E393CF22C5E9CE63D47B391D523905377997C200AB87EE5C91BE435D7BEA10E9718BBAB22588D46420F9A9AFCA62A0591433EAE4F2B37D34823B31012B725CA3BC4498BCE7972BB95CABCB07CD229351EB4CF8F9581ABF03F6B6DD6969B6CFFE78FA75FADFD34BE5CAE2F0
311
DC1516180E276E0346B39851285B80A1C63CD937504B03041400060808003D4E6E48291C8DC101010000D70100002D00000033314346443439322D454231362D343131422D393139312D3936443646463133344132302F636F72652E786D6C95914D4EC3301085AF12CDDE499CA411AE1C5794D213B06267E269B0DAD8917F
311
10C7C72641C00E56B69EBF37E337C30FEFF3AD7843E7B53503D0B28602CD689536D300315CC81D1407C19DB5E107068591330E9065107C72362E9B345A13D064D558859B28BDC700C5784B9701FCF88AB32C650C89F0D77291E3554E58D272E5040F7AFEB28E0E654005A2A9694FEA96D0EEA966FB8EED77EC995799143C6A
311
13DA666B86F30BAAC22E214502B1E3D5FA9AA8A8D5C66895FEA82F1A1D88963E9C4F1D6BC8E33175E8283D12461925AC3FF5E7336DBBFBA64E459259701F5C9ACC5624CFE0AFF6D5F82B595CD43F93AD0E0F827E87AAF29805AF3E7790CEBC12F101504B03041400060808003D4E6E48E89EBE1808010000B2010000080000
311
00636F72652E786D6C8D50CB6E833010FC156BEFE66948888C2390E00B7AEACDC50EB10236C2266AFFBE76A0527BEB69AD99D99DF1D0EBE73CA1A75CAD32BA86344A00493D18A1F458C3E66EF80CE8CAE86A8CFB2503A4F92C6B0830303AAE665B0E6830DA491D506D843C406EAD748086C93F6AB0C35DCE3CE29BF30AFB88
311
163E3CF828A334DA758C3A35FFAC0EABE44E0A6059929638C9714ADE92EA42AA4B51BDD3382819DD36250E2B25BCBBBA29B9022BFBF65C90AEC56D736A31E9D206B779433029494F925357E4594FE3B0CCA875ABFFF371C4E774C8F267F0A5F14E31FA61CC74087C28818C9EBE8025340EC49FD0DB22FE115A699767C7C17D
311
C3024B7DA017E18D43837EBCEAF533B4CDBE01504B010214001400060808003D4E6E4800D58323DB000000200100004F000000000000000000000000000000000033314346443439322D454231362D343131422D393139312D3936443646463133344132302F4173736574446174612F446566696E6974696F6E4974657261
311
746F7250726F706572746965732E62696E504B010214001400060808003D4E6E4856AAC84D340100003002000045000000000000000000000000004801000033314346443439322D454231362D343131422D393139312D3936443646463133344132302F4173736574446174612F496E7374616E636550726F706572746965
311
732E62696E504B010214001400060808003D4E6E4888E57597CD3F0000904100006B00000000000000000000000000DF02000033314346443439322D454231362D343131422D393139312D3936443646463133344132302F5265736F75726365732F42464341364244352D393543392D343743432D423642372D3535413931
311
334638433339452F7468756D626E61696C2F302F67656E657269635F706E67504B010214001400060808003D4E6E487D09B9F3790100005E0600003D000000000000000000000000003543000033314346443439322D454231362D343131422D393139312D3936443646463133344132302F536368656D61732F436F6D6D6F
311
6E536368656D612E786D6C504B010214001400060808003D4E6E48317D3058AB040000AB1500003E000000000000000000000000000945000033314346443439322D454231362D343131422D393139312D3936443646463133344132302F536368656D61732F47656E65726963536368656D612E786D6C504B010214001400
311
060808003D4E6E4879B77F2750010000C20300004500000000000000000000000000104A000033314346443439322D454231362D343131422D393139312D3936443646463133344132302F536368656D61732F52656E6465724D6174657269616C536368656D612E786D6C504B010214001400060808003D4E6E481CB7F04C
311
51000000570000004700000000000000000000000000C34B000033314346443439322D454231362D343131422D393139312D3936443646463133344132302F4173736574446174612F41737365745461626C654F66436F6E74656E74732E62696E504B010214001400060808003D4E6E48F865834058000000680000004500
311
000000000000000000000000794C000033314346443439322D454231362D343131422D393139312D3936443646463133344132302F4173736574446174612F53747265616D56657273696F6E5461626C652E696E66504B010214001400060808003D4E6E486907D596350100009A0400003600000000000000000000000000
311
344D000033314346443439322D454231362D343131422D393139312D3936443646463133344132302F4173736574446174612F636E782E786D6C504B010214001400060808003D4E6E4820F2BB3FE40000005E0100006700000000000000000000000000BD4E000033314346443439322D454231362D343131422D39313931
311
2D3936443646463133344132302F5265736F75726365732F42464341364244352D393543392D343743432D423642372D3535413931334638433339452F7468756D626E61696C2F302F636E782E786D6C504B010214001400060808003D4E6E48A233C2345D0000008000000065000000000000000000000000002650000033
311
314346443439322D454231362D343131422D393139312D3936443646463133344132302F5265736F75726365732F42464341364244352D393543392D343743432D423642372D3535413931334638433339452F7468756D626E61696C2F636E782E786D6C504B010214001400060808003D4E6E48BE89762363000000880000
311
005B000000000000000000000000000651000033314346443439322D454231362D343131422D393139312D3936443646463133344132302F5265736F75726365732F42464341364244352D393543392D343743432D423642372D3535413931334638433339452F636E782E786D6C504B010214001400060808003D4E6E481E
311
FDE41A7E000000A30000003600000000000000000000000000E251000033314346443439322D454231362D343131422D393139312D3936443646463133344132302F5265736F75726365732F636E782E786D6C504B010214001400060808003D4E6E484F48C6D3090100004F0300003400000000000000000000000000B452
311
000033314346443439322D454231362D343131422D393139312D3936443646463133344132302F536368656D61732F636E782E786D6C504B010214001400060808003D4E6E48E3603EBE7A000000C20000002C000000000000000000000000000F54000033314346443439322D454231362D343131422D393139312D393644
311
3646463133344132302F636E782E786D6C504B010214001400060808003D4E6E487616763A7E000000A30000000700000000000000000000000000D3540000636E782E786D6C504B010214001400060808003D4E6E48CA1DF9C9A9000000730100001300000000000000000000000000765500005B436F6E74656E745F5479
311
7065735D2E786D6C504B010214001400060808003D4E6E483DEE336E64000000790000001B00000000000000000000000000505600006175746F6465736B2D64657369676E2D7061636B6167652E786D6C504B010214001400060808003D4E6E48C0FEC13FF9000000960100003700000000000000000000000000ED560000
311
33314346443439322D454231362D343131422D393139312D3936443646463133344132302F4173736574446174612F636F72652E786D6C504B010214001400060808003D4E6E483ED017F0F40000008E01000068000000000000000000000000003B58000033314346443439322D454231362D343131422D393139312D3936
311
443646463133344132302F5265736F75726365732F42464341364244352D393543392D343743432D423642372D3535413931334638433339452F7468756D626E61696C2F302F636F72652E786D6C504B010214001400060808003D4E6E48A030F03DFA000000960100006600000000000000000000000000B5590000333143
311
46443439322D454231362D343131422D393139312D3936443646463133344132302F5265736F75726365732F42464341364244352D393543392D343743432D423642372D3535413931334638433339452F7468756D626E61696C2F636F72652E786D6C504B010214001400060808003D4E6E48EA907E700E010000B1010000
311
5C00000000000000000000000000335B000033314346443439322D454231362D343131422D393139312D3936443646463133344132302F5265736F75726365732F42464341364244352D393543392D343743432D423642372D3535413931334638433339452F636F72652E786D6C504B010214001400060808003D4E6E4854
311
A2A662FA000000960100003700000000000000000000000000BB5C000033314346443439322D454231362D343131422D393139312D3936443646463133344132302F5265736F75726365732F636F72652E786D6C504B010214001400060808003D4E6E484BA0E450F70000009401000035000000000000000000000000000A
311
5E000033314346443439322D454231362D343131422D393139312D3936443646463133344132302F536368656D61732F636F72652E786D6C504B010214001400060808003D4E6E48291C8DC101010000D70100002D00000000000000000000000000545F000033314346443439322D454231362D343131422D393139312D39
311
36443646463133344132302F636F72652E786D6C504B010214001400060808003D4E6E48E89EBE1808010000B20100000800000000000000000000000000A0600000636F72652E786D6C504B0506000000001A001A00210B0000CE6100000000
310
504B03041400060808003D4E6E48000000000000000000000000370000006662782F42303035464236452D353345322D344343432D384433332D4645364343314339363642442F617474726962757465732E62696E504B03041400060808003D4E6E48000000000000000000000000350000006662782F4230303546423645
310
2D353345322D344343432D384433332D4645364343314339363642442F76657274696365732E62696E504B03041400060808003D4E6E48F270F1330600000004000000360000006662782F42303035464236452D353345322D344343432D384433332D4645364343314339363642442F747269616E676C65732E62696E6366
310
60600000504B03041400060808003D4E6E4888E57597CD3F000090410000420000006662782F42303035464236452D353345322D344343432D384433332D4645364343314339363642442F7265736F75726365732F322F305F67656E657269632E706E67355B773CD4FF1FBF73E71C0E67EF7576C9DEF3EC995D46C6A1EC50
310
46649CBDF79E192942562825CE965D8A868C2842C8DE9FDFD1F7E7F138F7078FCF6B3F5FCFD7EBFDFEC41B196891913091804020321D6D7513FC77D8C5070EC3FFEE51B21F068154CC75D455CC028A3EA68992803810109FDDE5D5CEC5521B28A1B422BF80741695D5B529DA1C2D058AD2388BDA9F476F7C2CADC939304173
310
DBF48A452BF8A700C0C70C3D121C1AA15A5270C22E2B9E28763651F7DA0D12CE11077B2ECD0D560B5E3DE2368B1E65C5E1C87384A4CC5F2D9FB8BE39E9B77C753783A37998F5CEF1B4FEE553463245C9712270880DF339E0B882A6BA713D865F6F384C842D440934EF264F4A304F8DE4EEFA1E2BF5E2D91F5ADD9613D6E31D
310
DB33ED31DB1D7916CAF091286EA3D31B9CFECB78BB0060245B943C4C040119FF780A74DD308BA9D028678674EB5504ECF284EE814DAED07440BAF649BE4B55DA2890F4D73E2D489A59EE54FDB0A85B59F2F52C4858A02705C4815A792B0C4A996A2023ECB195073E115E3E3647F64243A8338F2000BCB58DA5692C7E7C3D41
310
3F963FEDF3CF00FBB0F831A9D51360FECA43819F527B89FA260EB63C5DA676830AA3626A3693B23F1A17A0DFFCE3EE164E31B5365EDF0C89EF64D8E38AB0BA9A1117D7C3A0EC44F44F4023095E80BA610DE336D0F99593A88BFC5306E72DF98F7FD132ED95878DF2964EA7E43071359FD83B2BDF9C6B5BDF768F0F3C0FC351
310
199526F53D9460A34511F75D1B63E488178569472C91A94497807A3FD4A390C6558F26D416365C3656DE6E769DA9D8FC73774E1709812842DD8EF96AED1960F79D21B395CDDFE6F92CB4EB962A4668C76990E2EF29798C8941D67DA50F4A5F947872460F1F6FDB794E8A29FD7AC0C0D6E0714339CE258FB17AE8535221E346
310
4A10F29A0BE5EEECEFC5675926A89F49EB14E5711894F6586DB5754EB4D5DA9C6437EBA57DB97A24F8B8A8DB295FFD73266CF57E82694DF5166DDF93573AFE9C9C5EB05F8FEF8E89E0A8917B0B3724DB7BEBB53252581EFC3E38166BA131A3A5B42FE2AD00A769BBFA4458D2DE7822F8C4F63D0B8E21B285AE13325F3410A4
310
35C648C9D91FDEB109E73CEDA7BC796961AF79175E1A3CE4C5E8B0D009B0C9E29EFD98BC8E97554E3D8D838424E270F7685226E5AC268E021EDE3522D583E8F20C0BDE2959EF5BBFEEDAB32FE9A3ED0E39F211A86AA9DEBFC68182EDED132AB8BB794442D2D7EA9F4D8BFF52BC4D55BB165124EE90A42D101E67BBBB292FFB
310
4F66DE5BF2300E44546757DA7CEF8932BFC9F92A0707953491A55C5A5ACEDABD9FA1AEA01BAC3DC5A24E22E7C47213493996EFBC369D086ED9397C9BA6C7F9855C7BD5E15BFC8C53DB3D2A4C5901A57ACD2FBDF4D1676E95338B2C2BCE65FDA4C64F5FEFDC7D9CA5AA1FCF11E193F2FDABF0F4916BF13FB916A224380E6462
310
A9815F2300DC49CC4DF8D055CEF76462F4B7A7ACA7365C2707891370BC1D0AA6203C44CCAB47084FEC057F27FFCD57F89B8B9852459798A675C66BD7CE572CAF71FF7E6D7ECF7BF62CAB7B3F1107DCD04DC55A3F9961700286141C94A4F771FEB2BCDA2DDEE0CB0BAE402FF1DB0100F8E475DFFFC074DDB4498AB7D186A765
310
4DDB1CB680D703D47CEB4E72F8CB13D86A4AA68116E26387B93FD6738779B34FEDB8E517EDF2BAF28D9BE93A1D3A164320E07D42E514725C29515FF361754213EDE06B079A2E99EB1CA82A02019EADEEB87B9AF005BD04BBCECB14AACD6B24EFBE482194A97DD32400685FF1FEF1544D1B14EFB1E7F08E6D2CD2AF52DE757F
310
35F5E62332EE88EA26417AD5C3E0E319D68F25414E6D672BD4522B278C57D18F0113921C71D96527E091F00CEB15AE23D24667369BD3CEFA10C7549D930890BA4366F4EBC55F01F746109F98ABCDD5A3EE06619C6AD78AB33E48E4C9BD21BF7478B385EC05C4F8987E2C1BFA0A60EBEDAA0AE0B015C2720ECE180FB6F2DEFB
310
EB822D96338C9B63822183BBF52FB664A7AE57003AABCE512BF77E7E31BDA2E739AC4C131657DDFE5225E900FB56CC01CDE808FA4A9C9DA16AC679656BB64796283D89812B8F91136AE18EE5EBBAF47A73BE3C153EB5D4CD491B4BFB4FE690A4CF9ABA08C0D8AA64220C438C96EA6CA80B58FE5761E697B3A292EB9FBDA502
310
FA863E49FE694ADDFFF9D62C520BDD1A22014147A0903A05B9B729F54272EF83931FEEC057BFF8C8055C279EAC5C0011804828734024F6CFA319C9CC6867C727184465CD9BB7ED386AFFD96B294A85E3802FAE47244602D8273615952B98C4F23F7EAE4463D9D638EEE374A20959E0FE519C4CFB0FBFE5DD80C2AA3F9DB961
310
D1BDE57E67C9BB47B77FDD74EE3094F5DBBE3EBC1FBDB7393F5116263009E2EFE1AF9A221B2AE234C902BF70E9F280ED23E73908361565964333A3F01D0B006AF32FB21AA1316744B489D5A198E85299241735BE559675130955C902A8ED761FC0DBE337A9F91919AF5CE32AF902ADF9AB2615E00E8A94586BA1A90839B618
310
32FF1BFB76D2EFADE6DB1BA04CCAD3DA649E7E2A0219F592E22F2AD54847EEA8E42271011E9074F8F3DD9FBA6CDF88FFC9FC7E811AD1CA8F4557CE4AFC7BBEDCF0114A48689F20A584520C74DA8127124B767E2FB91A6B186246727BE63C9445BAE02088D58B8EFDC0F1072407CD9B89A13F6303B4A928F593AD489B58E686
310
9325790ADC406036C591729FE14021F94B7796BB11848D463536A092A26F077F94639F7CEEE2A724C66EC885F4A24F8B8A0AC321F8FD149BA529460FAA34E4663C02D41FDF80BCA222D42F0ABFF8490F4FA74C673807C2051D8E467B47B616072860069A9A303ABA9B319D58404461401B0A0F9BE5E1E151C14BC33B32ABE0
310
3DDE91708DFAEB15E7C0D593C86BB7D7EC17BE56E57975F077BFD5525F3A1A361D584A75E08CF29FC7B44B2B3085014F3A5A14517377C3F6B8F37E59514C3B12F8AACDEDDA4DFC49BE5710101534CD6FB6DE15B50F11A09472AABA727F0C49D9CB906B158030065F48EB3625E010CEC1D511D0053474B11E6A4F01C0D6EF1B
310
ED3A944FDEC70E0DDCDC756C86545910E0DAE3BE3AA9A404574C2995CD5CAF9549226BC94B4F4F0F5F9086F418F6B32346464610D8BC7391D3C3A3CCF04CFC1FB2A3A3170E369511868F14EEA4E5E438CC73DB1F3248AA94B6B2FF33B222FF3D1E7BF146CAD229770158063BCE4F5391964DF62F7E52A7BE0EEA829C9E13C4
310
C147D6F93FE59E111DAB5E4594D6F3CD1AD375EE039930EFE5AF2BB2D41C83C7DABD8C659BAFBE8FAB392CA634F3D15C1D945DB4588D2B0824A4EC928AAC565557CA2F0DAA588CA5BE30B3A8004F7BF005E96CBF891D7F18112A3619FDF530DC8AA64954258E1811789B5189B49B4EB53F5F89F7D37523894F3EB57B373763
310
C91E502F52CC99EB7BDDF933FC324C4FFC2561DFFA7339FAFDD0A4BFBE6D3A8FF9ED1FC49898139864602458968913181918F719CCF5A68B2EE9C1FF050E34E63107003B8120FA982C21B30A874E4F5E4B38D5A8290C4B8D9BE48A0BE31EA995BDC37AC6DE90BA17D259DEF53605D55922FEB1855D915B659FBEB350EE0DFB
310
2F9F766E1C84CC8964B75D08667445EAB966015F63A18A9E0A325C1B3DC628C0D3CB60F767FA93CC65F25458BD23C3B312716E5F40E5858AC06EBA9AB14F95DB99147B832069201541D09A0D856E12C629CF32683760EE855537D1901988D5EBC156676C7DD51D7207CF3267AF1D76C2AD867315E44618015313A98B19941C
310
696FED3461CAA9B5415F918556D7802EDACEFD6B2E45853A9735DFC9DBF7E440F9319F8B6805A973BCCDC76C069A9144E51F187EDCC12FC31B5DEAAF0A76137199B106EC84ADA6B6EE697D4E6A96E007417F4E880E8B1E89B4BCE9D81EF611E2ED8F0C1A6C25F620FAFAAB656A7C42D464880E8AFAB0E0FC8EA38CA9A8AEEA
310
EE3E4648BA4680270A89743CDD3E6C6CBF34B7B640EFA285ABC7EA0A1E28F3CC963D114A80123EE66D0AF7D5380EB41909B605AB4765B709B808590458157E69BA1378FEC4B48CAF6A730E3BE3C5EF2DD1A5EAF94B1DDE50CEB55DDFD7EE9A16747FA4B223359FB1FCC69E1194892BABB93A1D5C4E807AC0EA2E30180811E7
310
7A2291F6E7F7FAA5E0F60215BC6024E48DE436C511F0628B8CA189982D4D83CCA17D305A7E923C37941CFDFDCD93ACAF735EF5F0E61BBD3E6C41A59B242790D3A3BAC7064DCD89AA2E37214EC839820949D5CAA31E240D2948E48F690298974A96BA9A8432BC90F5071D6537C9666EA4564796B7AFFFA548077BEEA75F6308
310
3435074BA182F3699557397F71548383FDA8CA34D99B981E72835ECDA5DDDC151315173D05A21F651AAF8524E88209E2E7A737ED1045800CE3390050BCFB8BE588DF111617874C62575039CA588EEFDEFEFE319B739DE2EDC147092A262611E159650E787917885EF08F1F51B8F2D8A71D60B58B190FEF9541A1BE94BC19FE
310
A50784DA1419FE4B0FB51B8D36B5FF8E1286FD8AF42B91E59A5F1CC4D60174E764045FD8C57B18209B217F89A62252BD20BE0E63E12B8E8F029FE19E0E8D0870F58721A557082250D5424F7909369376E41666C0EE77CD87CB283F661D5FB6D0DA023CB67320A20DC7BE661E9E1BFE5463085C557DA1FF9BE835733766C3D1
310
39F2CF9E2208873AD0EB4814DE9E6BF2CAF81614D4D43906ED1C05A3265CABBFE192770FC2F64F940CB6B17B5F166F133C9AEEAD2641807C3E69515171DD74C4A85311513D6EC9530B3B601B6BA3EBFF3B5C3D2F7D69765141E345F75433953D013ADDF8F6AA7DC3F4A7563FE5C7D367937E2900D7EAD0F9FC9A4A1A9B5BDF
310
1FEF08532660C01C5D6DE22199AA774383E306DAB87E301ABB7D213887F9869D4942D0D71E94B27EDF216A318BD488D45DF84529EF575AF3C3938C0AAA0215B01994153E2054A0B894DA5C784980633AAD48576957CF4AEAEAFADC7C587368551C73DBE1E57C58AC713303A8BFC258BD04B51724459FF9E24C03A81E0E0679
310
CEB9B348C0DC998FEB9C6D6EFA77D247CC8F92D3848599ED89A23218D0636465AD1CEEB7DC140D7426F83491C4E8E8281C2FB35240918FFECE880CA2A42D70E8B20B34DF5221C7DB0CF90ECCB9C745B37A47E9B716FF7A97B7A252C1F3814DC7B1E1A7F72B8751D524EF7CAE45B0C73B3BE7D08ED39781B380DDFC9AA4A474
310
9C9493DB5BAD07A6EA6C092FBD0E85DB004DF06B8C9D3089C5320187E4CE1846158C7EA7DDAE8AD9AFFF21AA3A1026BB06A259845E8232DEE62811A4DA9CEAB3A4887320B76E2AE5615EAB7BDF738CBDD01F1E64064BC13D9EC53576751CA8CACD58B3CEB0E6CA585BD089B2A59B9FC101403387AADBDBE70586B93D64BF3A
310
D4453EF9C3B6A93817E8346991798601344F79A83C51F3D50F7BF2683A3605F51A72449489E0EE6169C749C60B1035651103AEE24D24E51A759C840DD3FC6504DA6FE107510E447B43461C79D22970B75DE5E1BD3007D1AFC619A4A4A69B5626AF5E9B8374E20677F77E2F8E73DF868E8BEC7EBA7B6A75EEF7205E1AB9486C
310
B642741D6E03FF13FCCEDB1C4AC129886268B01CDF4B124AF797CF784F3C6DEC97A17D4B558070A0F1C04DA4FF9BDBF34159AEFE958479824B3F58EBD1E19088A2AFDE501B6F2052368A3FD0E650A179EFAB1561E1D27527077136E652676C3670F42DCB3352F48F6BC86D2C3B0051727E41A0A4DC6CE2BE9D47F5CAA2935A
310
3C0539AF080665997194ABECD723B08129CC5B6B21D2E7D54CD4D12610E7E9FB8306771A89576C7A982002775ED44F3F744CF21EEBB27A631671D921938AAEE3EB0D19CD1E083727F607823E817BF599DCED5394E37EEBC2E88782E638920CA641EF74D4CDFCDEF06F4278ECB18E31E7E9876F2D783C8BF429C75395F57E98
310
C2B495A3DA077EB3AC3C158608B6B57FE3EA48484D9A480096FCEE0DE880950E7E5A5714131C5C41AAA29FD19AE81AC145FA1B9E85C7169A5AB837B213493DF7E9AA4B5FBF9CDEB36EBD21EF1181B7CF7366AB2A951D01E37AF4EB835D1BE8C117CFBE7625D2EBCDB0B20C5A4B45CED0BCDE3EE8DA9DA78C2E21DEAAFFD119
310
7E463C33CC6A80FB785669B856EFF7A8CCCA2841B5A5369173320B1170C368B2748D81062EA0296E5E2D95D7667A4A46D98A6FF475C76AAB0A8C8D45E226FAFC9FE0133EA9F60111F99CA81ACE03A1D14C89E8B0D69079C91464FA1D99E651D0EAF606F345C42A8A1AA9BA391031582B96D5B4176A77AADB01F12FD298A75D
310
EEBB2C82F0B8650E880722F8DDD90C56A7A058E5FDEF1AC93545BA27367C76F5D8F9690CB6F8DAE141EDD7971F0FB548A2AE435F224D6E5954CA155512F7332029D5A1230854B79F258EC5FFDB09F5F6343A8EB193229B7F7E79B3E48F8E183860B38C8269D1B53738FF1E0BACF6AADA6D4869E9DE708E79B5DADCC09B1BC7
310
6F649731CFAF59A83FD8BAE4C749D66FA87A3810D4D62FFE826FA400C0F325D2BC0F3CA35F5847B82A2ACC7961745C823E4D863D54460AF792CE6F79B5C7A33B25C3AEA6CDE15A919B6367D781E9D44F61BF828672594A3E1D9EDD6DF179A81F27EAC05B936575D73E05C209DDD2115CFB705DF9BBF3C911589B3640735E9E
310
618FC9C36A7326C82B2205E244C55D56FDB9D5DC93CE958D4BF8174D2B3DA54CB3C09F2C2A6DFF73D23B2197355761AD421EC581284A7EF8DE2CE3497C0C804D49B41DFD6A7360844E5BEFFB495CFCDB97A4595911CDBA623274CE852B5E278AF0BEB1770E9D37CD977B2766A7DED0E94B840E1E95E8C77DE5CB6354AF7871
310
427C28ADBEEF7BA0A28E19DE9ACD75F379FE373EAE6DDDAE3834692F9C2B03B4FCA8FCA9ABE8EEEBEBB725B88A7C90941E850682CA04061A7DF0CE82ED49BFAFFD42C309818FAE14755CAAE78B0F73243ECCCAD7DF58FCB9CDFAE7A4D3E6671A613639130D056C8383C8F4FCF4808C331E544DD26E4755D09EA05253B3049A
310
1E32587CC25D72E073E2CD96D04A71BBCB0038FEC3F53D254199C3CDC67CD66640269431860225392B2CB3ECD0B4498AAE78BA1994246AE1EE78F2EDFB79F6C6CB6B5E279C4D373FBC21CB2698C9ACBBEB6A4BB6B39E16AB0E421CCBFC7654D81ED86022F9BB522146F9F4772E2D0E4FA70120C95A85A417BF5078B232F475
310
4363EB1750B2AC2148EB46B1EA72AD9B4D23ADCBC589D70106C3EC2ABEEED84DFE28E718C6C83502C28E9FDD3B09DA0A6F6F7B72B706A31C9E2A331EE70DA56A083D2177BFD63C55B11D8D949FAFCF90B23A1E24B9B5018B9A17E99F2890EC302F330FE7936E2C23F0D237EC8916F5166AB84B62A21BB0B950146962D754F9
310
2CC2C8877BED8FC7B7B25726DD19545392570B3A2C66B58F027BEF412E552D12A588C4A3CC5C3193FCB3485EFFF700D0B9EEC077754A33DC1FB9E25AF814628F91DDFECB667D3F7690803F38D13F8AE39353523BB08FC6760144AFA2CE28236F65EDBB3D5F59A57D612B99E3D7E5F8A851666BF9B5A6658EFC96EEB37A378A
310
BB0EB3FDDF1303AF32C41BD1C8560745D7BD81066B0D6313359CF488563D3BA3F8E2185D1FAA3EBA1397C9D0E3DD232180A4DCADB6AF25DB3AC3CC26589C8239E66E81547BC7E2F328F9884764CA37EB5DBE390DFC03A5246B456A7C3684C4377D0EEF9A350680FA9A077E8B2957B489E09AB1AD41316944C2254B5984830F
310
691C93CAA767EECF976FA5647538830B5E63236A6F0365C1E0F3E327F24FE35EDDBD7360B0F7374837409F7A6311BECC12B7026D4FA1AE204FA3F5FE904B1F420C7A9044AE58E403E7C4848E7DA25DC9EDAC79DD756FAA26B9EA83ACE8A214A2612A22AFA19DAE7DBAC5F8CDE1292A485F98DAC731A29FE01A3966E96BCB9F
310
B5A4C8830E1B9AF0C54B87FBE221A097036E5D28D1F869F810C06A9BB0AC0612F69AEBAF893C6E7AD59460208BAB3A6B09CA4F6BDDAB8CF0D1F84B72487498395A70DCD754796E271099A567A55CF242BBED64696378BB6CF25EF0FCDB589F3A82F1116D010A9AB9FA4358809EE0C973A2B4229BAA876A70B03AB49CBA7FBE
310
71DB1832FFD32F9BF2C8E98075CACAFB36921235D0F552B6A67E94E094097A5D7DF681B40623DA535ADA7A9AD8E9A62407D7C9A5AE51D62A17A83A23728DE86BB56115804D3F2675F2C6B87541A0FC497BF0CA86420F558C9859EBE9FAD62747E323E3AADC03FDCDDFE7407B09DA90B44E3185723C5381EAEF589765E2F7A0
310
99BA46695BAD60CEF3491B8A171F5F56444F7CE9455312C3498C74173AEA0214EC029833B34B650CBB5A5508D5091665309642791708ECF27CF11DB3D797D6CFE474453BD4BFADB768094B2147814D81C7CBAF8228DCAF5564B5891F5EF6A860EB2E323CB82AB868D8EA048880D63B0DE5341F1B3D53297B928A11E15F25E5
310
148990F710747C3509ED14909C552EBE3973246FCE55D00564D8310BC3EBC5085D08D806799B77D6C57FDF5E55837F9E934F09C03C729271B64F12D0A9F9E938107CAF7BF1EC8CF1BB9B42363D33070F4CACB425E605DDB0A34A12BB936DE286B9887A4E2E558F0886498BFF49C311D96C277CF6A9FC0D75AD0ECC5226D7E0
310
E3572012E56D7FDE4410CEC7A6D0F997F225A2055B8B92E3956E875AE4993CB3D4C9063AF98FD45E1BAB165640A43439A2C9181A7C355B297C0A0CCFFAE19B6FA3C2BA238A885FBC98B8F6DAF4B94B97304878DF4D8BFF6A4AEDF79E90ED4E68F00CD7299F4E0D83E35601AF0CBEF18C1E870E74758FA91F5131075004DB3C
310
FCF09AE1DABC11957FD9808C92E8A678CE9DBE40DDA0E0D1D505AAFBCBA208232BFB6FB3704E8985E61ADE53DE74152F5C7DE74B1DEDCD37DC3E8FB30D7EBA8B9EFFC3606BF90B8D438279CB7709FC7C00D327F41817EEA71CD9E49FE9C8C9A81C70915D9F0F15958EC5AA4C3BBFAF46986B90F188BDB24B89DE3C6F29EC3E
310
6F66D84856EE96A35E657CA41B41EFD8DBFA16AD6E91439EA92B40B21C053249F51AE50EB0B24C770FFAF40DF12C8436366819C48E36547D4E7B72FE2BBF10828583057814A668BDF183F6B2E58DFB151103E56303E63D00F39C27C4661605DB644D19175D02E3F0241E8FC3458D17AAAADB117CE9EEA690D0DB01E634878C
310
04C2C9310B69FCAB831151E3AD293BEF6E46B0ABCECB50F5939B39C613D41E81FAE8D34CAE3C4566B761D37185FE864AC32FCB71AEF39DAA5BAB88609BB980CD2F07A8F941653B529567726E2B2A58D079DD57E1E5E31426CF184A04D7B03B985F276D47406AF276FE32E3328BA866EB1FD39BEF57863A317634AA5FE46740
310
9B3873F5069EF0D71AF00AD189D17BA1974ECDB2D623E9E14086386A6AAB5807825C37B015BFE892AFD154920EC437EB945D958E18622E1E0FE2FA06557CE4BB9BBD05A2D40E774DA2B65473791E314B7D6C886820B2FCFE4AA272B3B8B15E7344A145E8AF919B5454D89D36D413E87211186BF6F645E5EC94DCCE8E1C7990
310
22E4EC9BC86D7A0F2AFB1FC4B2CE48F84B3F49ECE65BAD24CADCC07EFF39AB06BE9E6B27A059938EA7208838455383DDBCFCD967DDE4650EF92A14FF933C975DB20BD7FEEBC4487576485963D757D16340D9599FEB362F775F38CA4185A86F74B629C81B133644A3B18FD056E997E0734F9BE26D11C0AAFC669E2AC9FC41D2
310
81F8B2E1C35AE27BCE05F3DA295488096688719D974DF1B5D182DB7792288697F8763CFB43562C1CDEE11C4AABD5C22B6E33F6F389CFC3477C5919DC0D533F8A7A1846B7ADB60ABDC26C43D0CFC8910B7C15EE22675BD02702ED39DB77A87A192CA7A543E6205B979B9F5A6B512A3CA799E198B2D5797C0AF8D1D872CA455D
310
4D431A7879D4DD76110B5FF7F4176B54477A9EB5E4A5D11214FDA585F0382751D8E2582BA5D2075053298FEB8F1537304E32CB22C2E2B693DC0A760B1DFCA751BDC445AFDCBB12820ED85F6D5298933C7EF1211E9E057684056CDA3FEF3BB6052355E162DF27C59E965A8DDB7F9437EB72CDDA3A090DE65A5B2F50326247B7
310
EC67B73ACC7047FC9B353D6EE990F772207C6EC52B39DC2F3C0754821DAB559F7C1809C7D0DD5B0499D0442E0A6E391B3D5DB46D11E731E6794EC77523FBDAA242ED67F9FA1FB684255671F63C9BCFE6E7E896D51001A6113EF2298BA494E0B0980D1FA5B9D60796554C02256B1E0345FB7C6186B6A19D2DCA270416262845
310
FA4F42DB5D9B0A0B6F07FCA2E56C242522E001E0CEB734AF310FC8BFB57E38E03AACE93B3326A2197891E68452B26A6307FDABFEE0223D3C03C3C73D2D5BC054C8311F12004CAE488E5C29287F8156A2CAA4AD0D7BE6B97264E4139F437CE73ADF52E5134C52B819777C18B323A5924E4F67AFD13B1CDC3A61793A79FAF5C0
310
CEB718E441071E797C6DCCB9EFCF7E4A1E9F3DF3C2F9C9E8294E9586868788C972857FB0556D7A26941A7EEB9B580AD78EC40B85DC906B4120A563CA3B87797ED612D3B035962BB75F6515A393F4CB057F564CDF54F2E5A024514E6A1F901DB80C7E70B1FC05E356A7E72FABF4775B3E3FB8F70A2A8E7B6A94542BB3041579
310
78CCC999E707A29CC795E67A59CC546A5D47B368954CA7B6E75EC9E1F6FC73CE3B4F71F8CB1A6B15923D61EAAEB14626AAA9D04A26EB9C66CD1BE86CA31A5D8703DE04CD1EBCE4F5CCB62F93909AD11E55799A781A956ED27D3E738F4538CB04ADABC7DAEF20BC35BA6A90BCC1DC61BA05F20D8832FFB9BC9B15E2DB838A0A
310
FBB7E0C82A562127E0446894F427794C3037186F622BF24DE1B00AA10A23BFA47B2A180D6DA5AD6F7326FEB8C100C2D7142EB2A0B2A9D1008A09BA343D70E054AB69E2A7EDB783CBD92537FAF4A44D1296AC2792729104B3276C276C951D0CF3CF3F1E6B017720A7B8505A5FF9589365979678C36F1BAF759EAF57C60F1FF5
310
FE9DCF5F8E764FF25A2D06CF25117A8FED51884C13B2B750DB0E4F5E3D64124FCF11F0AD8F1CC3B3DA4B38ED22BF1CB2585EE6BFEBBA63FBFD44F9537B9B37BDD6B358720F98A8125AED4349CCFEB0E135F19E208A04CA7E2B10711185D72E381F448036EF57C9F874E54A971CA37A639E986AC0226DC5AA00D5B14FEA9192
310
234B3DE617814FC221C92F33F1D392F297731B567FD98FD91D989379AF567A65B8ADF177591DB90FBEA99BF4ED11B16E50A0AB1DBF1156D034BBE04D69D08F939D8E92BF525A1DDAFF80ECBC95D8F45D3FDD289FD23F7D8B452F8EBB34EC082DEEE68E18EDDF072060FAD2AB1504DD4879BF67099FC58F6E9DEFBF645D1633
310
4A3E9A127C6F1AF6132CF287E433B43A0EE93812B4AA0B194E03EE3FF91EF9C6ED0074A2F6EB18A96A7C9890B1FCDA1F2095E944DB911ED54C60DF16FB74C8CE9BDC7C54C4F14078CF73C2FFF1F1BBCCD7CF64F71407EA1683DBC410D226627F66E509060D5C0AFD611DE681D509DB8DD12FB1265B03C6F5C55FF4C30BD941
310
87FF692B4F152982502F193098A789526A038AB529A52BC0DC4FB6285CBAC10A8B8DB75DCD9BDABBB221E27D1F8DA9F5EE5926A1C8AA9BA9BC09239C6A7F12914EA3B59EFF7AAEC3FFCCE56F1C5C2980AD072793527565E774F4631DB178CEEC691B1F367BEA0CF2907E1D6B854D527065979DDEF002D8B2ACEA7CE21AE297
310
737EDE1D45B31233B73FEA35BCFDD0B09721FDBAF6432681F2FD10C3E9EFB246FD6E854B344ACC9D8A0EEF876A7314B49B6A499FC650B099D650DBFEC7638ADFD245E2B7839DA5AC5F7D5623FC0ECEEC8653FC9B2BDD1AD4D00A566FBA7186DD3C9CD26512551637498CADB950FEC71ADB9A5524285DE328B8EC7EC75D2345
310
AEC6A27C42AF6D9B92155315C80DBFCABBB7DA0FAE425C4FB896B15C9BFAC4FE67DF5A23D30C93DA4D8F36FB15D100050DA6062E22AEC5F4DAC4F6FEEF97AE05DE63C6D38F9E068A20BC5E3B6BCD75320C5090924E7F93640A7735B1A43451C2D91EE62C6238B797349E59890AF3A520DF4A87095F3ABEC2E61F0593416CE4
310
6CDCBE0E00E2523FCCD04408588B5B6C9DB6459C786CE378770B54F51DA3A5E1DF2A3349BEAAC234A6CF8993B598B3B25B4B113E353A4D750FA7534749430F3EBF2512E7EA3FD43C6AB9A1F765A58463B306721A15D224FAFE8C6F5E3432D57EE697DA0DD5A9D4866A8BCCAAA9DFF1F06047851408FEC060471D0E3EB86BFA
310
F46E4B5E60311DC3E3CEA147C75CF971BE74689507154FF2D2E92F15CDB2B9182B11459FD8ACAC5A85F174BC94A7F4EE4C4F5CAFA7C02E37BF0BC77B7DCD0C047BC316F562A01A441AFA7931CC84A28CB9F4AA367EB515778F29BFE61195FA671F4352E5E46E3A64773F1F76EE5EB36D7BCE9BCEAD837A4D77F8DB8C92AEEF
310
6711920D7C7D0F76B0FD0EB7AB83724CD35BCA7D36DDDF5FBB7FF6F04A91F3E2BB3B8F1A43CD659639507FF6331C5F697BCC782AE57D757A27D97F1AB9E0AEDB43F92F1B2AACDF5FEC8ADBAF9F814E2027003BA2F9E144B1938A7A04050AE5D953B82C45619165C813A10E76DD6906B3C16438064D14CDA713AEC420034613
310
E1AC7241904A49FBF87409AFB1FCB9B72FE7933A87D8FBEDACECE4EDCF6A4FE9FB94D5DEB74FAB7CFEAE17EE965DF980DCCA2D04134994F9A2E94D2265DA4FE6AA7B7AC15FACAC2B5ABBCD7DFF542C5314FDAB2E1B9D8B65220B8E2B638BE008E8DCA22678C820C5053664D15E89F2D735B51A84955E81A443545E9FF787BE
310
0FA700A76D136C27DA179A7C6E8939E01BE756E19CB292798063D8B97F44E8A27BCF3A614FEB8BE974A718E86F7EC99B53CA35FA24F61F2B07266684623A3D4CF073E511F3A10A8FDAFAF0078C577F4DF9D339FE7862E5FA47CF4344209E5BF76D783B1B48E152AD281B15FCB934DCDA49CEC5706B1EE8B460F435324A5CAD
310
154725E21AB8044B75A557A79F6C807B9340AA3D92503E866F4274412926C8C504E4D5EF8C0E68DD0B028781A6B4054F11CF18941F101C57CCC796773ABC8DED9CD91FE5788806C05E548895354AEAC96546D55B0E94A59F148D061F42AA398D822CDECA4CDE79E13469BDCC44FDC990F366BA5978C15F97ED80CBFD73B0CD
310
9B8B83A4F6845BDFBFAF034019473FB9A63BD55D3A4A7284757071574029A4D016DCCBE95DD679EF3C4880BF169422F8C89B68A988D2B13793CAED4F74DE7486C72DC94DF46B8E93D8E02EFCB1FF9B3BA10C8AE7F653DF94F4AF466CDDCEF5776687F7C4C14B63E4EED1719DC2EC482D7DBCC7AE518CDE3D5FF86D39000EC3
310
673C0044E1D308BF05F74D1B5F033A7D1BE7F74BC55BBE3E4A20F920946CA0271EB17BD2B80E5660ACB8A29A79F5E4BBA49D4D945B6EEF4A7EFEAA65E5555BBB57A7E15D2F83C69F30BBB978D2B39F1F26FC097424D39BB33CA3D87ABF64E307938B685BAD44F71556A30B7E712CA4FE600613C3E554B69ADE949A7CFE214D
310
F1FFF05CB82151EC6FC31950239F94CF7AD39DC473F6EA356E5EC2C4EFA04383CEFE985A127484366FBEE3C0EC4FEA363E4F6632AE781392FD45D67B63FB8DF70E82734F431FD3443172A0E30A83D60982D55FA6A2CF86DBA8382502ACC6CDEF3B907982EED1160E14863FA242F9757347E1544275CCDCF71ECD5F8621CBEA
310
326B8BA884AD7F825781923E66971F04010D574C541D8427A438A37EEF8AF88240EED7362C953F5A81DE2D56109CDE2524EA0F5D2F87308C0C47BD97AD605878AB8589E17CA83930CB5E0DCCD75853D68B1AB136594926DE426C367428E9334AFAFF90ECE221BB5DC9E5BB53D2CDEF954EAA9CD814F0E5725F1965DD458E5F
310
8487683AD86B9D0076BE3EE91EB1CECC5331A67A3F79D8B27587C12EC2A6A70474749F27B4C0BBAFB94B34189E88DC18964BE4121B9137FD516C7755356E50D6714E31ACD222621EBBCD1CFF81D87479056A9DA0E0B8EA19D24CF937DA89F78E8650CCBDC110AAB6C4E46DCBFD0446BA9E2060E81F314AC2031E88135E5476
310
AC0160EF5C0DD2EEF1B8B5CB2D198BE9A554A9093B5F7D7E4B5407DDFCA1D9C152FD97F55BFFFDFE802954DFEC8995B983E28AC92F1971E28F531DC407A1280EB125F64A72E617EFB27DFBCEDCDA2D6F2BDADA36873EE46B9BE1782998C63DA7182BC383FB6FD15DA472B175D7E8B4FC88F38D6E07FEAA3FA3CBB8F6B449EC
310
F14D2175E5C5CCA3A42ABF24CA6C9395AF74535F4DDB38CB84F56614B0FD32D7E19CA5CF988DB4449C40E23DF2B16772594554579094450F56F253CD25EA7F77366FB1CFE79696C428BB64D5A41E986189427E5E4D7E2DAE3D5BB4972B3DC44EAABDDDD63A2264ECFA5C786EB0EE1FDC5BE34FA0F08376869FD1E61EA06CAE
310
15191135445EE8F0394161C3266A596AA035572BB0C8876180D8B9C77D307DF9DCDF7365ABDA6F3A2366436457A4DFC1F259666569A9E4A79C817BDD5610E5200FCE894A358EC72858D50EF67545DA81C6FACE3D457BAF70367E1E6BDD9A952FB4F56247F58F523B97E640246051A72F79BE42FFA0B3187F63097F91C48B86
310
8586F714B0EBD5A00A8412C1236E1298F60C72BE6C96B82B404CADAA304AE9F303176B14BA53FBC2D5E86377E35542019E24D97B96A49B2C0E5006E7795954DEAF5DA58958839043C6C70BD3B1B33B6DC5C31316D8A6923F142E26F6711A2258AF977DDF1F970ECC4F1F2B434B96D81BEB6E89BF3BBB3C7C8CC80505070723
310
D6D7D7D3C8CA27CA164A26024FED94B12A86031867241DA53D929636DA600F050BC40CE48B8BA03D69224720DEE2ED2127390BDF5E6EA64527BBD4C4C63FA76BB801FEEC0E61218EC98A8A86CD8313781617877E66692839B9468CF4DB8E50A73986E558E309C0D6F676F921BE02F1185454DC75B111572FF9D27D85EA14C0
310
5AD7271225B391C4275659CA4A43759D0BA44639BE4C30A84DB7F67A41399FB95CBF923B1B1672ABC807C1590557FB18D811983FA97F5E609516D62281D38B1281F68FC75528C35E4CD7DF0F7DBB5E5DD69C414EBEA2F4A5B241B996BA77AE6C772E367408C633EA3E438B68563EA8BE7667F3A4C4FDEEA52ABD78A2820F44
310
3B7914A15F180018D231E64519C56A12F6CA7C8DAE18F06F6B769DBF92329EF6A5D18FBCE600F36BD8E8198DE5CDAA96181F3A756EBA5501CEE58F497EA4F418A2B82565B9BCC611713C0B708CCA1F398B78C5F7D03B3437CC18F13061F55C7BEDADD5ACB1DB0E36D3CE47FF6EA1A563A57E9649EA5D14D1A50EAA45746338
310
1C073777EF1600607BAF6428A7DDC079D47A204EF1E1F1F0589FB054D45E02CE623B3823C317C601E589E22B1E88B448524B86A82828E32345EC18AE17214B42F8C41C6D428016D9BA31DDCB47572561E5A402E5BA4FCE55F78AF7268524AA04130F3A20BA5D1E9F9948EA48FC8F5314FDB35E21898198060034ACE5E3E2BB
310
CA34092518F275190AF65F45867FF0900AA4B81F25427414C372BF51DC29AA855C5428EE1EEDD6B849AD60F6E73475C2D2523F8A2772C840A478DED18A8C5C91B085F255DC4F54EA7AA8947354FD17ECF8FB3B4A0DE7B483CAF3A1165EE05BBA413E5C1FEF3DE1D6B8F2F3F3251C17D9FCAB48A9AAF63AC773A0E413BBC46A
310
9ADF84A566FC920E4D8C52C9769EE3301CADEEEDD92B312E02E2A7E35B7F1E7D203FE5A7D75578B06E99D0E46FFADB8FDA17ED8880390DA29094202D6F645F76F6F96409CDA05495A96E84B04A00D1A6C6C81D7F3DE9376E828CCF144EE50E364ACCE7237EA0BFB5607ED1AC3CFE73794E5B61739D14DF1743441B1AC98F00
310
ECEDE9E7301FA29755FBEFA68C91EF2B314CF510537EF1ABFC9A762496280B546F5EDAAF8A5B387D469FC9A878A92828C88608453ACEC6094DCA54111E7AD5B2663DFE2DD151B7F123B9F4FEF8EE36AB125FD7AD52A59B1B765B3E3F73E3F73DEA93875004D2AFFE3CDE9493B87A9904DD052028949041A91DC0E1BA47BA71
310
4343FD5B25E0A6A09503AFC17C790058A836A324FE31D7893512E28230332F153181C1E018E1124EBE1BA262AA428A518237D1EA7275E48C5C561BD19ED6912EDD8367DA0F31E40EEAE9683DA9257525AEA7B632B97119E17145A90231768A4F3B9120FF32E8319B015E3CBE26F1A754177D8185345817C096B0CE443A955D
310
13AC15E1FB5DEEA0239EC32A3C92241A237B0B02FFCB4F93CF2B02570C8D192E2F2A68CEEB42F12E6F8CEEFF46C251E22B4341C56FB08CCE550E7A9D6F4D6564B9EA52A83D5BF2C6E03FA19D2775E15A8A7ACF30A13C259EE7F5EF2AC3BA354F1500E1A07FC63FB4686E2F12EC69719F9ECF5FE3F35598DF2CE944008CE78F
310
0911BA5BE5D0A34E0098FF038669C26030BA9B300303039852A8F6F496341737CA7E0D2E3AAA36DE0A70AA7D9CA0D54D9AD84B18A44C9E625475E1C97B93BEBB38DCE7D227E67A2D00F531436136355F243D1FC0D712C5765754FA22FCFFAE97919161F46D6E61ACB37D83777B385889770B50765B127768443A5C4D3A4E35
310
A3151111F146B7CA116F918A049F1C272F2CD7976C69A0068773451659A97E0F4A08FE604C3FF6CE7385DB19F4D3ABC8A0D80DA8A42096AC377DB49382B36E270B6FA7570188B4B7D1DDDDA82ACA487CCA5D38BD3BD039ADBAFA4ACFF27809239B722081E2EB9F145320553D183F28471C388BC8814E5045676767AB58A8E7
310
2D1CED2CA731379515D2E533E4CF0B39DFC625F97AC4836831A4DE330E87A8126FA17EBE583D614E71E22A8DBF2825599743E0640037303E8E1B1E8EA4E1ABFA4F62907B5E4E0E5DCFDAB417C36C6848A2B8D15F1E505434C0707E16B1CFC2A1C36A42BBF55734F8F4301DDC2A5110CEE8C0747F69519265012A2174BF4E95
310
5ECD4FDE095A3ABC70536B7AD0B9D7892F81287D667C108703C9B66A221E9A0929D030008F77FF6F5D2108EF5706FC87A3069B976F7C9FC3239D13D283CDEA83597461079FEEE049B0F392889898B7D87D31F8D60ED7B56B91823A8E4EDDB36C6172ECEE42BD42B12CD67994FA0F0DFAE9389356F4CD4425A4B8AA55CBF7EC
310
D585C6A2C2316791E43D5C06841ADBB226A87FD61515FFBB0167B74E56BD7F3E90A57A97FEDCBDF483A0D6699A8C0849CAEB4947FAA90D8E332D9DEBD9F4738C37DA0CAF9CF3DAA68BCB67C420459C7A64498D6E848E5CADE92BB6901F607AA331104A67F7CD650EE169B1DAE94D2C31C2F993632259B6957E246EFE4C5481
310
107B07118607700040E5812A2A2A38DA0076875258C753F60E0F2662C748EDD5F3F3686B8FC3BD6FE631ECCAA1E8B1C1E565AD117E54893E79F4672E32F9E46B2A183DFDCF3EECB4D4D077DBEA0DA254D256045109670050129E9B9B1A9E4A11344D61497A992778095151510C4BB7EF2009B63AA4360635312E4CF668B7E0
310
D3D85A8688E2BD83B569439892ADB63461930D428E0DE42E4AC57CE48DA5CC1449530D8BD3D6A0F08DF20C8E8F570F2CFFFCEA286E30969B4654D498A58D9DA782E19FE3F002181838925592C4A1EF0B332D88B61A92C644547BED490D3A42CFFAB70E36D961F694F6307F72FF15A1C79D5B1B5CEFD353D9E2B52566DEC8F8
310
F09CB3E8359C0F68EBBB7898243E34E12A015B2685AB303C04D3A9E00671FF3DFF0A184E4A2ABEB2B666AF5B3A209C73D8EF29DCDB069C9F391EEE9DD0F74C7BCDE16F8F02E3B8816122BBEB50665775B600549D8BB33A54A6BF940C028118BC6878C79958D6784F9DEAA6E26748386FFAF8D0D0101E2847B6563F5D8DC1D7
310
8F787BE00E2C941AE12148D4A81599FE8F68D4DA5CDED75530ADE138240300EE13B0FC13A1687FED6774662C05A2B7DFB186732F0D7A93545D8B0A6390AE5054D9CB582DA846D7A061B3358B45E2B52DDE63E114397EDB7E09233A579155D795BE76102CF277F4DF8B188C4F2879BEAE3C08347124BF9ED23B128259FE107D
310
31E34A652F090B30B39E0D9AF917B76A2806135621A8A60681F16AF216514BBD02711585B5B1AE823F4B2D0369EA5B6BCB863072727FFC871CA6C9AB79A814D989057E9470A3D238BC87CBB4A0EA49AFE2B86F22E499793CAA9047080450166BDC357524561E258C77CB697F1ABB32562CF87C3B7AA12F911EF19FB3E5C022
310
22E887D08202A60A17151F5E053A86B437771088B4FEE14D652C43E8D939995D34545E12E2FF93D4E366EAD25F10CB7DED141563C3D0C447AF06078A91135FD4B9611583CB4BF3BD167F2399CEAB0E0100F8FFC305F00F1711717173138B4B48C83022295DE657EFEDD97F238ECA80F528AFB4F8D67AD4E2594B9A3AA86D74
310
87EFC313BA95745C186F0CDD84CC12DC9CB0424B42203D351FD9C0A3AF10CC7F388E0329279087386421F194F4A29464C1DEF7EF8BE515E4A199DCD5B909342598D8FE6A231F71336248D5CEC5454455C7BE383B3BC7B260FED27F703FDC39A170F3827239102F59D4DEE7FEF82EAA1A5E4BA94DCC4CC44E7E2EDE20F24244
310
E4454369D2E87C3F823F193FD4FD27E1C23984B01898D15ABC20711A8A558054951A6AE280096BA36CBA439603B7B0B4C45F248C14B2383B4B5CD8ECECE4FF859AD4A6CA2326D020EF090F4041D28DB66E5256B56232CC52829DE8060BAE6BBF37D4B7469B822454FE93210A3E8D15E69FFCF01123222611C51C4FD0A041A0
310
CFA2471CF6BE38D2B20FA4C3525B5B8B586759475CF80ADFE67A284AC24651E52B8E683D24C2622642F27E7C3C22783BCF63648BC398BD6CD0D9C97E7E7E3EACB6126DB7A6C1FD9F1031302EE67ED96F22B77C7CA0239BB324207559B105E4693EB26EC46182A92C9C0DBD24F29B31C5C5AC1F84300E0E17CEEAC15F5736FA
310
4A98971E2F1423BFCD68D4BBD5F86E74B40A369F39507C88FCDB35D2DD8DEBEA4AF999E23CF2816D204200DF6E611781B9884C1AC8888B4DE397320472959434323A5A36B22A8E1F721A270DF3BD65E4A31C11FF048AFB0D8B7B6881423793963A23CFCE935FC189ED36FAE35C46DA3574C979E4394BE52084F3081837BE03
310
3396D2EBD80F1F691B273F660D2B32FA27A33B1DE4ADA5F0FA4651511102DFA410DDA86E065272CA314D5249DF91B06BB92807B28EFD54F08F7B525252782CD276DD02E6B0319B13DF87B1F6361AD6B28FC0D711CF445429B9E5A433CD493051C49A9E03DDB1B147D880253514A5DED88009018620EE229101C041950E2D8A
310
A8E1F5F5438E0C0C0C60EEDEE9E3E0C051948C69F84BB7B2A48A1F3C8EB9E6864687F4F4F6F6E2FA87608ADAF9C5E117B7C1A737E710769DA1D15ECE6A84502AA855398712D5FB51BE92E4EF824969CE18278798AC303C2C7980DD2500ADF8FB1E6D6C2FAAFF9987178923334A244758BAA01A9A1B70FA5097D01E1CC2A58D
310
AD0EC94CE6430AA9B0C10D75E3C6BAC670EFBADEE1607739CE0FC18A2587E3EC3058562014C64219C69BC269082D5C2F4A659278D585755912176D78A1B641719C2A394CED495A1AC5D583FD2F5EDD93308EA7EAE8A6DD396598BDBD3D4CFED62D18A5BDFDE0DD5C80D1A89BA62697B131AE7CE9A6594138582F1B37D68F17
310
49AC7CB67A70695D48A4A056AC1FBD4E82358CEAE38F54B95A9016F9000F9879C0D9D131768635CA798895F27D6F1614F11F2838A83611AA51C9A3DDB539D42979C29F10465655C17BEC3E2760B80DCBF609198C7B171A531905F3EC218D696025975E986C6B4C666666787271F202805577DD5A3EF0CAFAF91B62DC4B2DB4
310
217A7606282F31D8DDBC290593BAA93EA6353AFA9939B877978481E15CFC9F2755CDC00C538F63A4BA3E80AE009B73CA0185687D339A507D165B74290D6EE46D5C58148F020C3668ABE9EF2F7549170DC80DB41FFC1D678FF19AEB10C7133832B104B80F691B3138F97A92D26E551F1F110400D45AC71A9B9AC41A1A1B1DAE
310
ED0B0810638EFFB511D46B121C6FEA0F38CD00E03CFFEB9713FE1F9C263E4DDEC160D0497FA9A132BA608584057FB15380825DE6C7FC3C667EE947D488A09898D8E939C4953BF4EC9836344D2CC6B2971B2A21A572B06096F4982D2CC7232D46E8EA69DC83722E267754D777F97F96D5DA74E1E75178084D0E70F12AD33E5F
310
71EF2AFA599B2BEBF60A5BE475F444F240CBFE8143C334E7ED9150FEEFEF7EB020C4DBED388DD1D6A167A76F3CBF119B578AE8CFA7736ACAFA4440A1C47185638A0D2F3EB5BDDEFDA958FB13CE4AA4923D5BF840392D45544329525749734866684BF7F8D9D54D892E19BCA9F829A0F8BFCBEEA6CFDFC61D74EA1A645ED7A1
310
FF241739F15694BD835B66FEC5677E40FE69BD3F91AE402F036537218A401CB0828604AD189E575015C6F3F6BBC8AC79CF6C70653847254B31551EFCBEB5978B9DB85D58D0FA41A9DFE9C624834AA04949D24B5AE6D299E072D152D12097920F14AA92C31C3B97E28B6C2E6E9C23D63043ECBBC0A60FDF5BD0C33C127EA8A3
310
308B8B6AFFEB28B4455BF6E7AF4FC6222728357EB8E46E85053E6A8843AB23295BF838ABDA94658FEF3F832F147046B4ACD6F7D48E8FCC9618582961C898D1C7A253C91BFECBDA6BA18A1FCF70755DCCEE2222F41B76D23CA98D0CB3D95F0CF66D57FFF65E2A90F5DF40FC3187621E981BD0BC1D992787212688976B94A8F0
310
C6EF646624B570B78E068826F87CE27041A95C9A4871FF65CC17FCB1639629AD6A9517000D63AC231F3D741CB8430777E7ECF80CE7A3F73C0F162F7E56AA71F4DA80A33CD6ACEE78E2C11FAC03DAFCE929B106F8F6B3ED2DC71FF994BD9CEF4E9A94896EF1B6E2B7B4978168BCF0847A3D2A4F1B0500B926E634B174548E9F
310
BAD27153FB5FC36799B1E6C7C38A94E1F9E996796D7B485E635D5287A2AE76FBD11A341DB3F8F810385BB7296391973DC6C37C452A9305AEBBE0CDB6C566DB59FE60C8E94B1FD090354BF51439FFD1B48D725228FFA88C84F686F547107A7A235665A4593B7C34D748C1AC8D56DD5DA861EEFBADDECBBD65117E65851F9035
310
1AEB65F0EFCFF4BCFEF24CB7A5879699FAC437A7AF9099186CF006BB923A59E37D7A36A29FD8D2CBB914A5E9D0A8FD212FBF796AE9A67958FF1D5D8B85F78F96219D4714EB919929241B6C018AAE0C02069F8D919961EC5DDFBFB7573E3AC8E08BFB7C8534BE6DE045B3CD63DBD71F7638BA2309CAE398EA3A7D8F98BBBC7A
310
EB367EFA5CFA27A9F8F2F52FE878058E6209C026453F8E7E8A237DFC389E9590F6059B397CFD65183BBF936E86896612A5B5FEE49DAC8455D026218AFEBEC12B3523A45B57B82C9C97E02ACFA1184DB18E48CF615DBF39C3CC6F0B4AE6BBEEA2E39D944E290302FA3DE33FA7E40296E2EF7BF1CD855BBECFAD0FD622BEE974
310
6FC4FDFDE545AE6E3BC234CADF83A0FB76DFB145BF3828AE3436368AC24989454F8FF70A177672C711CAA1A76107218CF948CA01F873520E7A2B118EBB161ABAD432932029628B6761590C98AB590C8C8C79798CE9F715BA696E839E9131A4BB68BE923F1747FBFF165331FFDD4D05997ACD168F12CA75348DAC04C7F509FE
310
83898A8B421181AF492861CE81E4A2DD0A30850CFA95E05F097FF70F9E777310D584A75BA7018922E271DAB1D785671157685B7D383D3E074DDB4F1E44EF04B07BAAC75A062077C54B9752C738C9D804D402E02851F3F89605AF189738C18C021D2139EAF72513824E10DDD3047BACC8521ED7E98B257D1166903B1B08FA6F
310
918FD7E162913FEC7D0EF4787E29C35FBA8C6E2C9C20E9AB30AE42CA2A01A090E7D010C1B5BF9CEE2A304BF3A987FB40D836979B79E18D70F257DA61E808472DD85B82761825779D6B90CAEB0F23360C6F80A7D7D77545E95B3DFF0CF96A827F9B5BCECD2C9698718417EF80FEEDEE938AFF55859D0D540B7FE09435583A6F
310
04874A0C7E8CF234DF4879722000167F5872CEC6BF3EF7E5A8CC8121E6A359227C8A29C95212F9F735BC72A887D56B8F309FC525BFB4FD767AAEC4AEFF249CFBBD2DE1AB9969A6155C7D8DABC307E47324C1F916C7BCFF40ABA5644E9FFB9238D19ADADA49D9610F01ABBA57E4DFCBDCCBB2B93C8953206C91DE01B0E2651A
310
6D6C31721915B31F7B7CBCE55466F6D70402788FA91D73BE4ADCBA99A35F17D6B83383704917D6833F0FA3CD45C926ADB8BC17999A4A0AFBCE2541F7B8CF4C2F5FBA611B3E626D64407CB32C122DFF4EF8674D6EDBB86C8F7C6A16D50FA685E2CCA34F8F7D1D8265BB0042E9D7F1F666F7BE5FAA5184DF58E12122A42EF02F
310
461B3F369AC746F96528AD208512AB56844CF75B97F352DF7995024FB02855385854F3798670D01CAC771AC3E1889EC25F61A20C1F8CAB46898817F9C47E2CDA1F286BF2F358298709FE567C91133E2638C8B53975E753EA8BFD3578B5F7186B7BF084EBA3F77BAC3132A5779902EC22AF2D2E79F42D324E083386DAEE9810
310
D1B44A5DAA54513C7A71E52A4AB9257D975B621308FE4D2141CC3DCFE946C154A3C1DFCCA7629EC69ACFA831634ADDA93C0388D2A9A2DDAFCF957C6995BCE7FBB6DC4EBAE79E63EB08E9A25F52F67076F7093CA545CA3053B5BF576DEAD4E0017143C5F759F32B2D6F145B52B67B48909B7C7FCA6586EE385A2189C16932CB
310
6DDFD9152AE317C430492A578ED27B72D85D40C7C93C097939E1B50F4D67F05334FE9DC362C30B7FF561B95259138ECFD9274C8D695C31B14D4EAA9F3D7FA8DDF652F8C5DEFA23284C799B7D94416DEE81E05A866302DC70192A5368EA65E1CED8BF107A1E2D3119A71E85DC1A7B0C1E93274CE04DD0F2ABC8AC7C987FDB00
310
2B6F81757B43502EF7A0D92E416494FAEEA4C9C090CD9557AA4D532F4996A272B94355C5A0E4974EEA9627476F30809B94D8D8D860062E02204643BEC7D0438AF800FC7E2B26955D595421E83C69E1A07E0E3122285835F014AD538188CF9737CE76D464A353FA55A001AB2526B84E985083693BC76FE211CA1D000679C889
310
E3C009832C87E1AC2EDD05C302557422DF0800E316FCAC86978A371F025A6C7DAA9F333E7BD160403A1A06EA75AA9888FF01504B03041400060808003D4E6E4851464CB48900000043010000360000006662782F42303035464236452D353345322D344343432D384433332D4645364343314339363642442F646972656374
310
6F72792E786D6C9D8F310EC2300C45AF127987122606C71DD918B841D4B851A43646695A717C52A85029031293A5A76FBF6FACEF7DA7264E43906840EF0FA03836E242F406C6DCEE4EA06AC22492573150D1F66C60C640E8938CB705396EEDD86DE9B5042FE27813D640EA63BB001C722AF6E55CB61E4863F58284D5D3F53D
310
D715CE1C3985E63FD7F1B7EBDD617E9F1E504B03041400060808003D4E6E48619A31793D070000211C0000340000006662782F42303035464236452D353345322D344343432D384433332D4645364343314339363642442F6F626A656374732E786D6CDD595B6FDB3614FE2B84F6B23DE866D94E5C282E623B1E8C2E6D51A3
310
C3DE045AA21D2EBA8192127BBF7E8714294BB26C2B5D0B144B8058A1C9C373BE733F72DFEFA310BD1096D124BED36CC3D21089FD24A0F1EE4E2BF2AD7EABA1F753E4B224C96BFB3414E388DC697C599BBA3B9614A95C0AC81617617B7539FB0B653E898986FC1067D99D96F94F24C2062EF22420D9B311E01C1BBBEDDEB08D
310
726393EC8EE1F4A975558A1989736015D663A02239B09BFF8248E6D435F986C6B641BF6DCE856DA610BCC9288DB31CC7FE09572D3A837E5C39F670F130184DF4D170E8E8C3F1C0D667CBD942B76F1C6B3E9ECF27F70F130D4DDD4D92849502521207A0C58336B55D937F53892F51E8E2DB4FE298F812CDAE0D01917429C9DA
310
983480B58568358594B2D6169C9EC29FD9D60B94064B0DB49570EAB36EBDC9E66F0021EB63A52C23DCCAB39C81AE25F6A53F58AE59AE36F4423314E19C308A4314D20DC30C14045B4B0535C8706FE1A410C74C6851D1ABF30A867DDD97BAB8DC1661C8FD579B0A4FF3C01F499E09CEE83F841DB9AFDF063C81B4058DF35B29
310
6C7E4881C4C435C562F99D33905F9640A26D8877602D2026DFE40C5A78CD792C582DB4E987E566BFE6F1A1FBF29425296139B73CE1CCD2EF94066BA605C6D7039412D7A6EE8EA87C01E83F02F2152FC805CD31BA1FEE874A7686E36C9BB008B4832CA45BF0C742FCF1E4C935ABC353841AB1F21CA6E0B6DF09D386188DBB6B
310
904EDD1730FA843952B8B58F43B0E9471A733F07434161024B10EFB79BBD365D41308545388543901E7E5D933F22F828E940BC6969A82BFCF650947298B69F1D75F53BD80CA37EA5AA868CE7F01D7D177CEF17EB0FEB826DB14F1EA5632FC896C6348764DACD5003F486CB7F5D7D141E79224F63970FF7EC121E383AF4B296
310
7A414231C00ACFC3A56AC4CA2305770F431C93A4C8E47A57A0F2933061DEE6E0953EDC79D79FCA08CACBC0BFB905740633C8EE3EA32907459B4AF1AA48681C71E271501AE0AE54AAB7C1FE3387D7F321627D0B1F60B598B5891651EAE12829621EBE4FCDBB2D9AE158E2C7B627036B32B89D8C95B09920AFBC4785868A797E
310
4F84D33397CC1BDA925143512EFD6808D1B24B021F6AA622F79214FB34EFB6859610D24301EC8B2C0774BB2D3208EA9DB0B438361C7B84ACDADFEA92CBDCCB4B3C1AE11DF1B69867B8CEFB1A0055C495049DC8ECC224CB684C3251A19C44AE162A960181A0B45B45B5C30869E64524C7DF627F22E5B5CC8F916DE8412D95F3
310
6AF6BAF5290665F63C4791576E49EC09F90F5E86A3342CABB46B18D883D60D9DB872A6F9152F606F1ECE3D2B20A2E8BE46BD8A0B0ADF5ED427DF4CFE0C3C0CFF7078D415144A6FC891D7356B1B237BC27F6E21A88C47B673A314710D2B7555CE6B90B080AAC93F78AF84EE9EFA05B45EF76424DC7A340C8BC82BF3414E2228
310
C1705EB05EFE3A1E5927CA9771A1E510B59BB6348402B977D014B587AA3E402A517C9C0B9AB56B40281A438FD64B9013293A4D58E842F4A3BCEDBAAEFDB753FDCFF1B2DEA73C93C36BC2824E4E9B6584AAC054C1C0C3A5CC70951D09CA53B7EE7C91685CAEE3305444647C2BBB0469218CBC503E98101D5067FF90BDE2DC87
310
40BA169FFA0C3C2220C1B1A6689093630E6DEA1CBB1155A7D63B1D08763C7D340AAF150FA8114C1B308FB38FFC21FC8241D550F965A6AC6ACC727DC5139B018395231F17687DFA7DDDA2022BBD4F7FE61891D71605B93AE785DC05525F57C77AB545414AF47575E178FE54449B18539E19B959E0207DF75EF4927726340AE6
310
CCB246CBD9F8411F390F037D389FCFF5DB85E3E8CB07185CD8F3C9783C5B988C6449C17C929903D3F254ED94C63B651825747D3A0A982A5C6FFD943DB715FCFFED2866873FF0A1DED5378CF167ED28AA7A8F57642D67ECDB517446EACDDBCA7FFB24527767B13795CEE5B04059F8E5BC05D14825FCFEB58522AD4A896E9E6B
310
29F18D99F76CBBF2C3934C23A2772688C68EAE98DFB07F3E7CEA4853AABD15816DB69CDF43AC1AE993D17CA20F6F2090CDC6B31B7D34BA9FD8CEF276EE4C1E2AC46532EC9B587E8A20AA98ADCDD1601C9C252185A93C09D08E24D002C1D8A147806511C9446B031580CCE3EA95408FD32FE55035C79B509DF69F304CA64399
310
920B1FA6A2D076DC69721DFD0273503E8A14D329E319328FB4760D158CDE696002398504636C609E25A687827A6B5E096AC3F18E374DE5A9EAFFE3318E0ED8CA51AE6A4F1F5CA4640DEB84E9402A5E1440B42BBF98BADF2EBA6207E11C1E37455E09735C384A2341506F044AE160ECF72CE1DD43E0B92C976D883D0D487A8D
310
E62FDA414955CF31DB89F97A0DEFFBC567938FC6579F501A163BAECE4B09BF4149E7854658945328170C438A9962DE88CFDF999F5902EF9822B4A46004E8D7FDEDF837739E445112974BE6BD7C5385D64FF0DE2930D5CC0F2A17CB1E9AA2F091737D185C65C4C041F60C0BA05A46F970B484B861005578AA1980D208D7051C
310
6BEC5F2D904C0250382B8BA9D7AE1C1E31D447E048FC650E779BFA86DA04127C01B82A07B5D5835A704D0653F0E9BF504B03041400060808003D4E6E4878C48FE0DF000000530100003C0000006662782F42303035464236452D353345322D344343432D384433332D4645364343314339363642442F7265736F7572636573
310
2F322F636E782E786D6C4D90CD6E03210C845F05715F60DBB4EA462C79899C7A8928385B14C02B7EA2F6ED0B29957AB235F3C99AB13C7D054FEE90B2C3B8D299094A201AB42E6E2BADE53ABD5172523221967F18255107586997A9925BC2BA0FC9C25557DF55EFE26D88E2B24184E4CC658F1B25C6EB9C579ACD2704CD742D
310
6821DF98D545B39925C858938176A2B800E38449A00B58AA9EC4FC3A89E7693E9CC5723C2CC797E55DF24E2AF981E807EF6281843B31D896D8F208C9BBAD644D6E30BD4433FEC2B1164EF2662B994B6A1F1858F9DE1BE682DE803F905F5749DE2BB6F1E8DF667F87FA01504B03041400060808003D4E6E48FF15A4A45D0000
310
00800000003A0000006662782F42303035464236452D353345322D344343432D384433332D4645364343314339363642442F7265736F75726365732F636E782E786D6C4D8B3B0E80201005AF42B6F75B59F0390B113044D83508C6E30BC6C26AF226F3B8BA6360974DA7271430F523308B2B198F9B80925DB700539227A2FC
310
CB80A18E5640D320F996A81C9F32D6E9129A0D1EF74FCE750E6D57BC7165FBCA07504B03041400060808003D4E6E486E175F6B3E01000046050000300000006662782F42303035464236452D353345322D344343432D384433332D4645364343314339363642442F636E782E786D6CCD944D4EC3301085AF12799F3F288856
310
8E2BB1E0042C103BC7990653C713D963446F8F5D920242452C2AB53B6BFC467ADFCCD3F0F5FB60B237705EA36D585D542C03ABB0D3B66F58A04D7EC7B2B5E00E91BEC95866E5000D4B652678EF308C53A9838D0C26558DB6DBA928899C6E0381679932D2FB8679F502832C6420ECC06F8B4E922CEAC281C7E014C47ED2034C
310
FDCA8124E898B8AAEADBBCBACEEBC563B55C2D96AB9BE5332F9352F016D14C7A6D091C8E99C2F8B0D14CC5CBF42D78707AD2240226BE9C15ADB6BC8CFF82FBE8D6F6938E7663D28DA3D14A521C53898A80F2280239F0F2532C7899787F503FDC3FCD0EB24E3B50846E77A601D4C706703056C424FC8F7F2FFC1B1BDBD7887B
310
AE6D1F859D6C9D0C754EAB8F71FDBDFF9822697B7379A13F183B7DE6E32921AD2E0F79F67522E2727FF2E2D2D305141F504B03041400060808003D4E6E48FDB57F4B7E000000A30000000B0000006662782F636E782E786D6C4D8CD10AC22018465F45FE7BCB659305EA40E7DE63343724A761337AFC3476D1D50787EF1CDE
310
7F368FDE36BD5C0C029A130164C33DCE2EAC02F2BEE00E502F798A71FFBB010AD36605540C92AF29E6E78166BB4CD957EA5D781C5011D28E8A19DC5273C157AD35EE064AF16898D68DBE31A686629CAB52E6D72B5BF3F20B504B03041400060808003D4E6E48A6D797065F0000008200000007000000636E782E786D6C4DCB
310
3B0E80201045D1AD90E9FD7516806B51190811670C8A61F982B1B0BAC9C97B72CA7B1037C6D3332918DA1E04D2CAC69353902EDB8C20262D23F3F59B81A079470595414B17391D1F19B4730A5583A7ED43BBE4025D9592775E5ADFFA01504B03041400060808003D4E6E48ECFD112DA800000026010000130000005B436F6E
310
74656E745F54797065735D2E786D6C7D4F4B0EC22010BD0A61DF525D18634ABB506FE00510A79458060253536F2FD89D5197F3FED3F68B9BD80362B21E25DFD40D6780DADF2C1AC9671AAA3D677DD75E9E0112CB5A4C928F44E12044D22338956A1F003333F8E814E5331A1194BE2B0362DB343BA13D122055543278D79E60
310
50F344ECBC6478EDCD76CE8EABAE5449AE4298AC56946789C28AAFBEABC53F3EAF09A84A1441B91F0101CD4780756578C173A578FFDDBD00504B03041400060808003D4E6E483DEE336E64000000790000001B0000006175746F6465736B2D64657369676E2D7061636B6167652E786D6C35CBC10E83200C00D05F21DCA56C
310
A76D41FC96062B120735B69A7DBE268BB7777961F8D5AF396893C2ADB70FE7ADA196782C2DF776D7A97B5933C430F15651E5469C55D70F80A4992A3ADC954792C525AE70A1E4D6AD9816CC044FEFDF01FE3FDE907802504B03041400060808003D4E6E4898F02DC3F30000008E0100003D0000006662782F42303035464236
310
452D353345322D344343432D384433332D4645364343314339363642442F7265736F75726365732F322F636F72652E786D6C8550CB6E833010FC15B47783012784C8382AA8F9829E7AB36C875A0936F2A3EAE7D70E546A4F3DED6A76667677E8E56B79149FCA796DCD007589A1504658A9CD3C400C377482E2C2A8B336FCA2
310
4161F8A206C830303A3B1BD71D12D60465326AAC543BC8BD57010AF148CD005E7CA885973C86C4F0F772E5E2CE6755D6E5C66334462D77A996C94DDFB472C04E47D293FE30A28EE011916EC2E8058F2DEA5E273C4ED7A6BFE29A5659CC68D0CBCF76E1140F4A026B707D44B8453579C3FD99F4E743FF4EABCC64D407977EDE
310
97E6EF129D561BFAC72DAEF27FB7A84D689BDD6D537860F9B8E780D12AA793CA33BA547392EC1B504B03041400060808003D4E6E489F9182A9F8000000960100003B0000006662782F42303035464236452D353345322D344343432D384433332D4645364343314339363642442F7265736F75726365732F636F72652E786D
310
6C8550CB6E833010FC15B47783792484C8382AA8F9829E7AB3CC865A0936F2A3EAE7D70E546A4F3DED6A76667677D8E56B79649F689D32BA8732A790A19666527AEE21F81B394176E1CC1AE37FD120D362C11E120C9CCDD6847587A4D11E7542B59970078573E821938FD8F4E0E4072E2217C14786BBE7AB907731635EE61B
310
8FB310D4B44BD514DDD44DA1057E3A365DD31D06D23674204D3B52F242879AB4AF231DC66BD55D69C98A24E6CCABE567BBB4283C4EC02B5A1E09AD49D9BCD1EEDC74E743F7CE8AC4E4CC791B7FDE97A6EF805B742658898E15DBF48F6B58A7FF5D83D2BEAE76D74DE180A7239F03CE8A94522CCF08634D89F26F504B030414
310
00060808003D4E6E4823745545F2000000B1010000310000006662782F42303035464236452D353345322D344343432D384433332D4645364343314339363642442F636F72652E786D6C8D504B6EC32014BC8AC51E1BFC531C6122993827E8AA3B04C44189C1E253F5F885C495DA5D560FCD9B61E60D397DAF8FE24B39AFAD
310
19012E11289411566AB38C20862B3C80E24489B336FCA181C2F0558D20C38092C5D9B8ED90B02628935163A5DA41EEBD0AA0108FF418811737B5F292C79018FE5E6E5CDCF9A24A5CBE789404BDFE4A85533C2809688D700F510371FB8186633B1CBBE193549949498C5AEE565A26777DD5CA013A21D45DA67E865D33D7B065
310
8CC1C3B969E065EE19C36CE8FBE94CAA2CA6C407976EDE3FC9D7BD2B7F09FF658E9B7C23B336A1A977C397C2038A539EE782922A1798C6B3DD3473D9F407504B03041400060808003D4E6E4836B0A63753010000DD0200000C0000006662782F636F72652E786D6C8D52DB8E832014FC15C33B8AD65E6C90666DB65FB04FFB
310
46115D52058360FAF90B5EE2FAB0DD8D099239E7CC9C99802FCFB60906AE7BA1640EE21081804BA64A21EB1C5853C113082E046BA5CC8F361048DAF21C7818105C6B65BB19624A1A2E3D2A55C96790F63D3720608DBBE4A0675FBCA521B5C675F48FB0A3EC416B1EC6E1D447B0B5A29C4745E9D84425B806E47448B334DB17
310
F098A202A6C72B826FA8D8C1E3FB1515D75B92DD508C233F4CB011EDA2CE34A786978024283E40B48371FA81B2739A9DF7D9278E7C27C1BDD1CEF32CEADD0152DD9F389AF00D9FEDCABFF9AC906697CC7CD3440F885F6F2C101CF97CDC6F0C6F9BA11376F9197A6F160B0F070D9C19A5535729955D4B036D2C77D428183F1C
310
4D55C73C12FCC693BCE079CDE182A2B276AB51E3AE776BBCFA76A78E6B38986720956E69B32E37ADB89EABD0C6D232CE54A3F47FA617AB4B98917F98E41B504B03041400060808003D4E6E4890500C2507010000B201000008000000636F72652E786D6C8D50CB6EC32010FC15B4776CFCC8C31126AAADE60B7AEA8D1AE2A0
310
D8601988DABF2FC4546A6F3D2D9A99DD19869E3FE7093DE46A95D12D14190124F56084D2630BDE5DF111D099D1D518F74B0648F359B6106160745C8D5F123418EDA48EA8364226905B2B1DA0610A8F16EC709333CFB8774161EFD9C2873B1F6556649B8E51A7E69FD56195DC4901AC24C51E930A17F51B694E7573DA35EF34
310
8F4A46BD5722592911DCD555C915D8715F3775B3EBF0A1261DAE0F3DC12FA4ABF0E1B5275D7F299B0B29681E9719B56E0D7F4E47424E872C7F445F9A6F14A31FC64C4910420964F4F4058CD03C127F42FB45FC23B4D2AE2AD3C16DC3028B819E44308E0D86F1AC37CCD836FB06504B010214001400060808003D4E6E480000
310
000000000000000000003700000000000000000000000000000000006662782F42303035464236452D353345322D344343432D384433332D4645364343314339363642442F617474726962757465732E62696E504B010214001400060808003D4E6E4800000000000000000000000035000000000000000000000000005500
310
00006662782F42303035464236452D353345322D344343432D384433332D4645364343314339363642442F76657274696365732E62696E504B010214001400060808003D4E6E48F270F13306000000040000003600000000000000000000000000A80000006662782F42303035464236452D353345322D344343432D384433
310
332D4645364343314339363642442F747269616E676C65732E62696E504B010214001400060808003D4E6E4888E57597CD3F0000904100004200000000000000000000000000020100006662782F42303035464236452D353345322D344343432D384433332D4645364343314339363642442F7265736F75726365732F322F
310
305F67656E657269632E706E67504B010214001400060808003D4E6E4851464CB4890000004301000036000000000000000000000000002F4100006662782F42303035464236452D353345322D344343432D384433332D4645364343314339363642442F6469726563746F72792E786D6C504B010214001400060808003D4E
310
6E48619A31793D070000211C000034000000000000000000000000000C4200006662782F42303035464236452D353345322D344343432D384433332D4645364343314339363642442F6F626A656374732E786D6C504B010214001400060808003D4E6E4878C48FE0DF000000530100003C000000000000000000000000009B
310
4900006662782F42303035464236452D353345322D344343432D384433332D4645364343314339363642442F7265736F75726365732F322F636E782E786D6C504B010214001400060808003D4E6E48FF15A4A45D000000800000003A00000000000000000000000000D44A00006662782F42303035464236452D353345322D
310
344343432D384433332D4645364343314339363642442F7265736F75726365732F636E782E786D6C504B010214001400060808003D4E6E486E175F6B3E010000460500003000000000000000000000000000894B00006662782F42303035464236452D353345322D344343432D384433332D4645364343314339363642442F
310
636E782E786D6C504B010214001400060808003D4E6E48FDB57F4B7E000000A30000000B00000000000000000000000000154D00006662782F636E782E786D6C504B010214001400060808003D4E6E48A6D797065F000000820000000700000000000000000000000000BC4D0000636E782E786D6C504B0102140014000608
310
08003D4E6E48ECFD112DA8000000260100001300000000000000000000000000404E00005B436F6E74656E745F54797065735D2E786D6C504B010214001400060808003D4E6E483DEE336E64000000790000001B00000000000000000000000000194F00006175746F6465736B2D64657369676E2D7061636B6167652E786D
310
6C504B010214001400060808003D4E6E4898F02DC3F30000008E0100003D00000000000000000000000000B64F00006662782F42303035464236452D353345322D344343432D384433332D4645364343314339363642442F7265736F75726365732F322F636F72652E786D6C504B010214001400060808003D4E6E489F9182
310
A9F8000000960100003B00000000000000000000000000045100006662782F42303035464236452D353345322D344343432D384433332D4645364343314339363642442F7265736F75726365732F636F72652E786D6C504B010214001400060808003D4E6E4823745545F2000000B101000031000000000000000000000000
310
00555200006662782F42303035464236452D353345322D344343432D384433332D4645364343314339363642442F636F72652E786D6C504B010214001400060808003D4E6E4836B0A63753010000DD0200000C00000000000000000000000000965300006662782F636F72652E786D6C504B010214001400060808003D4E6E
310
4890500C2507010000B2010000080000000000000000000000000013550000636F72652E786D6C504B050600000000120012002D060000405600000000
  0
XRECORD
  5
17
102
{ACAD_REACTORS
330
12
102
}
330
12
100
AcDbXrecord
280
     1
270
     1
271
     1
  0
XRECORD
  5
16
102
{ACAD_REACTORS
330
12
102
}
330
12
100
AcDbXrecord
280
     1
270
     1
271
     1
  0
XRECORD
  5
18
102
{ACAD_REACTORS
330
12
102
}
330
12
100
AcDbXrecord
280
     1
270
     1
271
     1
  0
XRECORD
  5
15
102
{ACAD_REACTORS
330
12
102
}
330
12
100
AcDbXrecord
280
     1
270
     1
271
     1
  0
XRECORD
  5
F5E
102
{ACAD_REACTORS
330
22
102
}
330
22
100
AcDbXrecord
280
     1
102
MATERIAL
148
0.0
149
0.0
149
0.0
 93
        0
 94
      127
282
     0
 72
     0
 77
     0
171
     0
175
     0
179
     0
273
     0
  0
XRECORD
  5
24
102
{ACAD_REACTORS
330
22
102
}
330
22
100
AcDbXrecord
280
     1
270
     1
271
     1
  0
XRECORD
  5
23
102
{ACAD_REACTORS
330
22
102
}
330
22
100
AcDbXrecord
280
     1
270
     1
271
     1
  0
XRECORD
  5
27
102
{ACAD_REACTORS
330
22
102
}
330
22
100
AcDbXrecord
280
     1
270
     1
271
     1
  0
XRECORD
  5
26
102
{ACAD_REACTORS
330
22
102
}
330
22
100
AcDbXrecord
280
     1
270
     1
271
     1
  0
XRECORD
  5
28
102
{ACAD_REACTORS
330
22
102
}
330
22
100
AcDbXrecord
280
     1
270
     1
271
     1
  0
XRECORD
  5
25
102
{ACAD_REACTORS
330
22
102
}
330
22
100
AcDbXrecord
280
     1
270
     1
271
     1
  0
XRECORD
  5
113E
102
{ACAD_REACTORS
330
113D
102
}
330
113D
100
AcDbXrecord
280
     1
102
DISPLAYNAME
  1
Imperial24
102
FLAGS
 90
        0
  0
XRECORD
  5
118A
102
{ACAD_REACTORS
330
1189
102
}
330
1189
100
AcDbXrecord
280
     1
102
DISPLAYNAME
  1
Metric50
102
FLAGS
 90
        0
  0
CELLSTYLEMAP
  5
113C
102
{ACAD_REACTORS
330
F0F
102
}
330
F0F
100
AcDbCellStyleMap
 90
        3
300
CELLSTYLE
  1
TABLEFORMAT_BEGIN
 90
        5
170
     1
 91
        0
 92
    32768
 62
   257
 93
        1
300
CONTENTFORMAT
  1
CONTENTFORMAT_BEGIN
 90
        0
 91
        0
 92
      512
 93
        0
300

 40
0.0
140
1.0
 94
        5
 62
     0
340
55
144
0.25
309
CONTENTFORMAT_END
171
     1
301
MARGIN
  1
CELLMARGIN_BEGIN
 40
0.06
 40
0.06
 40
0.06
 40
0.06
 40
0.18
 40
0.18
309
CELLMARGIN_END
 94
        6
 95
        1
302
GRIDFORMAT
  1
GRIDFORMAT_BEGIN
 90
        0
 91
        1
 62
     0
 92
       -2
340
0
 93
        0
 40
0.045
309
GRIDFORMAT_END
 95
        2
302
GRIDFORMAT
  1
GRIDFORMAT_BEGIN
 90
        0
 91
        1
 62
     0
 92
       -2
340
0
 93
        0
 40
0.045
309
GRIDFORMAT_END
 95
        4
302
GRIDFORMAT
  1
GRIDFORMAT_BEGIN
 90
        0
 91
        1
 62
     0
 92
       -2
340
0
 93
        0
 40
0.045
309
GRIDFORMAT_END
 95
        8
302
GRIDFORMAT
  1
GRIDFORMAT_BEGIN
 90
        0
 91
        1
 62
     0
 92
       -2
340
0
 93
        0
 40
0.045
309
GRIDFORMAT_END
 95
       16
302
GRIDFORMAT
  1
GRIDFORMAT_BEGIN
 90
        0
 91
        1
 62
     0
 92
       -2
340
0
 93
        0
 40
0.045
309
GRIDFORMAT_END
 95
       32
302
GRIDFORMAT
  1
GRIDFORMAT_BEGIN
 90
        0
 91
        1
 62
     0
 92
       -2
340
0
 93
        0
 40
0.045
309
GRIDFORMAT_END
309
TABLEFORMAT_END
  1
CELLSTYLE_BEGIN
 90
        1
 91
        1
300
_TITLE
309
CELLSTYLE_END
300
CELLSTYLE
  1
TABLEFORMAT_BEGIN
 90
        5
170
     1
 91
        0
 92
        0
 62
   257
 93
        1
300
CONTENTFORMAT
  1
CONTENTFORMAT_BEGIN
 90
        0
 91
        0
 92
      512
 93
        0
300

 40
0.0
140
1.0
 94
        5
 62
     0
340
55
144
0.18
309
CONTENTFORMAT_END
171
     1
301
MARGIN
  1
CELLMARGIN_BEGIN
 40
0.06
 40
0.06
 40
0.06
 40
0.06
 40
0.18
 40
0.18
309
CELLMARGIN_END
 94
        6
 95
        1
302
GRIDFORMAT
  1
GRIDFORMAT_BEGIN
 90
        0
 91
        1
 62
     0
 92
       -2
340
0
 93
        0
 40
0.045
309
GRIDFORMAT_END
 95
        2
302
GRIDFORMAT
  1
GRIDFORMAT_BEGIN
 90
        0
 91
        1
 62
     0
 92
       -2
340
0
 93
        0
 40
0.045
309
GRIDFORMAT_END
 95
        4
302
GRIDFORMAT
  1
GRIDFORMAT_BEGIN
 90
        0
 91
        1
 62
     0
 92
       -2
340
0
 93
        0
 40
0.045
309
GRIDFORMAT_END
 95
        8
302
GRIDFORMAT
  1
GRIDFORMAT_BEGIN
 90
        0
 91
        1
 62
     0
 92
       -2
340
0
 93
        0
 40
0.045
309
GRIDFORMAT_END
 95
       16
302
GRIDFORMAT
  1
GRIDFORMAT_BEGIN
 90
        0
 91
        1
 62
     0
 92
       -2
340
0
 93
        0
 40
0.045
309
GRIDFORMAT_END
 95
       32
302
GRIDFORMAT
  1
GRIDFORMAT_BEGIN
 90
        0
 91
        1
 62
     0
 92
       -2
340
0
 93
        0
 40
0.045
309
GRIDFORMAT_END
309
TABLEFORMAT_END
  1
CELLSTYLE_BEGIN
 90
        2
 91
        1
300
_HEADER
309
CELLSTYLE_END
300
CELLSTYLE
  1
TABLEFORMAT_BEGIN
 90
        5
170
     1
 91
        0
 92
        0
 62
   257
 93
        1
300
CONTENTFORMAT
  1
CONTENTFORMAT_BEGIN
 90
        0
 91
        0
 92
      512
 93
        0
300

 40
0.0
140
1.0
 94
        2
 62
     0
340
55
144
0.18
309
CONTENTFORMAT_END
171
     1
301
MARGIN
  1
CELLMARGIN_BEGIN
 40
0.06
 40
0.06
 40
0.06
 40
0.06
 40
0.18
 40
0.18
309
CELLMARGIN_END
 94
        6
 95
        1
302
GRIDFORMAT
  1
GRIDFORMAT_BEGIN
 90
        0
 91
        1
 62
     0
 92
       -2
340
0
 93
        0
 40
0.045
309
GRIDFORMAT_END
 95
        2
302
GRIDFORMAT
  1
GRIDFORMAT_BEGIN
 90
        0
 91
        1
 62
     0
 92
       -2
340
0
 93
        0
 40
0.045
309
GRIDFORMAT_END
 95
        4
302
GRIDFORMAT
  1
GRIDFORMAT_BEGIN
 90
        0
 91
        1
 62
     0
 92
       -2
340
0
 93
        0
 40
0.045
309
GRIDFORMAT_END
 95
        8
302
GRIDFORMAT
  1
GRIDFORMAT_BEGIN
 90
        0
 91
        1
 62
     0
 92
       -2
340
0
 93
        0
 40
0.045
309
GRIDFORMAT_END
 95
       16
302
GRIDFORMAT
  1
GRIDFORMAT_BEGIN
 90
        0
 91
        1
 62
     0
 92
       -2
340
0
 93
        0
 40
0.045
309
GRIDFORMAT_END
 95
       32
302
GRIDFORMAT
  1
GRIDFORMAT_BEGIN
 90
        0
 91
        1
 62
     0
 92
       -2
340
0
 93
        0
 40
0.045
309
GRIDFORMAT_END
309
TABLEFORMAT_END
  1
CELLSTYLE_BEGIN
 90
        3
 91
        2
300
_DATA
309
CELLSTYLE_END
  0
ENDSEC
  0
EOF
